  0
SECTION
  2
HEADER
  9
$ACADVER
  1
AC1015
  9
$ACADMAINTVER
 70
    20
  9
$DWGCODEPAGE
  3
ANSI_932
  9
$INSBASE
 10
0.0
 20
0.0
 30
0.0
  9
$EXTMIN
 10
-330.3990723039924
 20
-597.2139943275911
 30
0.0
  9
$EXTMAX
 10
1758.749539656809
 20
676.0661992239171
 30
0.0
  9
$LIMMIN
 10
0.0
 20
0.0
  9
$LIMMAX
 10
178.31
 20
285.24
  9
$ORTHOMODE
 70
     1
  9
$REGENMODE
 70
     1
  9
$FILLMODE
 70
     1
  9
$QTEXTMODE
 70
     0
  9
$MIRRTEXT
 70
     0
  9
$LTSCALE
 40
4.0
  9
$ATTMODE
 70
     1
  9
$TEXTSIZE
 40
24.0
  9
$TRACEWID
 40
1.0
  9
$TEXTSTYLE
  7
STANDARD
  9
$CLAYER
  8
中心線
  9
$CELTYPE
  6
BYLAYER
  9
$CECOLOR
 62
   256
  9
$CELTSCALE
 40
1.0
  9
$DISPSILH
 70
     0
  9
$DIMSCALE
 40
6.0
  9
$DIMASZ
 40
2.5
  9
$DIMEXO
 40
0.875
  9
$DIMDLI
 40
10.0
  9
$DIMRND
 40
0.0
  9
$DIMDLE
 40
0.0
  9
$DIMEXE
 40
1.0
  9
$DIMTP
 40
0.0
  9
$DIMTM
 40
0.0
  9
$DIMTXT
 40
3.5
  9
$DIMCEN
 40
0.0
  9
$DIMTSZ
 40
0.0
  9
$DIMTOL
 70
     0
  9
$DIMLIM
 70
     0
  9
$DIMTIH
 70
     0
  9
$DIMTOH
 70
     0
  9
$DIMSE1
 70
     0
  9
$DIMSE2
 70
     0
  9
$DIMTAD
 70
     1
  9
$DIMZIN
 70
     8
  9
$DIMBLK
  1

  9
$DIMASO
 70
     1
  9
$DIMSHO
 70
     1
  9
$DIMPOST
  1

  9
$DIMAPOST
  1

  9
$DIMALT
 70
     0
  9
$DIMALTD
 70
     2
  9
$DIMALTF
 40
25.4
  9
$DIMLFAC
 40
1.0
  9
$DIMTOFL
 70
     1
  9
$DIMTVP
 40
0.0
  9
$DIMTIX
 70
     0
  9
$DIMSOXD
 70
     0
  9
$DIMSAH
 70
     1
  9
$DIMBLK1
  1
OPEN
  9
$DIMBLK2
  1
OPEN
  9
$DIMSTYLE
  2
STANDARD
  9
$DIMCLRD
 70
     0
  9
$DIMCLRE
 70
     0
  9
$DIMCLRT
 70
     0
  9
$DIMTFAC
 40
1.0
  9
$DIMGAP
 40
0.875
  9
$DIMJUST
 70
     0
  9
$DIMSD1
 70
     0
  9
$DIMSD2
 70
     0
  9
$DIMTOLJ
 70
     1
  9
$DIMTZIN
 70
     0
  9
$DIMALTZ
 70
     0
  9
$DIMALTTZ
 70
     0
  9
$DIMUPT
 70
     0
  9
$DIMDEC
 70
     3
  9
$DIMTDEC
 70
     3
  9
$DIMALTU
 70
     2
  9
$DIMALTTD
 70
     2
  9
$DIMTXSTY
  7
STANDARD
  9
$DIMAUNIT
 70
     0
  9
$DIMADEC
 70
     0
  9
$DIMALTRND
 40
0.0
  9
$DIMAZIN
 70
     0
  9
$DIMDSEP
 70
    46
  9
$DIMATFIT
 70
     3
  9
$DIMFRAC
 70
     0
  9
$DIMLDRBLK
  1
OPEN
  9
$DIMLUNIT
 70
     2
  9
$DIMLWD
 70
    -2
  9
$DIMLWE
 70
    -2
  9
$DIMTMOVE
 70
     0
  9
$LUNITS
 70
     2
  9
$LUPREC
 70
     3
  9
$SKETCHINC
 40
1.0
  9
$FILLETRAD
 40
0.0
  9
$AUNITS
 70
     0
  9
$AUPREC
 70
     3
  9
$MENU
  1
.
  9
$ELEVATION
 40
0.0
  9
$PELEVATION
 40
0.0
  9
$THICKNESS
 40
0.0
  9
$LIMCHECK
 70
     0
  9
$CHAMFERA
 40
12.0
  9
$CHAMFERB
 40
12.0
  9
$CHAMFERC
 40
20.0
  9
$CHAMFERD
 40
0.0
  9
$SKPOLY
 70
     0
  9
$TDCREATE
 40
2453234.434426540
  9
$TDUCREATE
 40
2453234.059426540
  9
$TDUPDATE
 40
2455734.702571608
  9
$TDUUPDATE
 40
2455734.327571609
  9
$TDINDWG
 40
0.1777989005
  9
$TDUSRTIMER
 40
0.1776372569
  9
$USRTIMER
 70
     1
  9
$ANGBASE
 50
0.0
  9
$ANGDIR
 70
     0
  9
$PDMODE
 70
     0
  9
$PDSIZE
 40
0.0
  9
$PLINEWID
 40
0.0
  9
$SPLFRAME
 70
     0
  9
$SPLINETYPE
 70
     6
  9
$SPLINESEGS
 70
     8
  9
$HANDSEED
  5
4CFC
  9
$SURFTAB1
 70
     6
  9
$SURFTAB2
 70
     6
  9
$SURFTYPE
 70
     6
  9
$SURFU
 70
     6
  9
$SURFV
 70
     6
  9
$UCSBASE
  2

  9
$UCSNAME
  2

  9
$UCSORG
 10
0.0
 20
0.0
 30
0.0
  9
$UCSXDIR
 10
1.0
 20
0.0
 30
0.0
  9
$UCSYDIR
 10
0.0
 20
1.0
 30
0.0
  9
$UCSORTHOREF
  2

  9
$UCSORTHOVIEW
 70
     0
  9
$UCSORGTOP
 10
0.0
 20
0.0
 30
0.0
  9
$UCSORGBOTTOM
 10
0.0
 20
0.0
 30
0.0
  9
$UCSORGLEFT
 10
0.0
 20
0.0
 30
0.0
  9
$UCSORGRIGHT
 10
0.0
 20
0.0
 30
0.0
  9
$UCSORGFRONT
 10
0.0
 20
0.0
 30
0.0
  9
$UCSORGBACK
 10
0.0
 20
0.0
 30
0.0
  9
$PUCSBASE
  2

  9
$PUCSNAME
  2

  9
$PUCSORG
 10
0.0
 20
0.0
 30
0.0
  9
$PUCSXDIR
 10
1.0
 20
0.0
 30
0.0
  9
$PUCSYDIR
 10
0.0
 20
1.0
 30
0.0
  9
$PUCSORTHOREF
  2

  9
$PUCSORTHOVIEW
 70
     0
  9
$PUCSORGTOP
 10
0.0
 20
0.0
 30
0.0
  9
$PUCSORGBOTTOM
 10
0.0
 20
0.0
 30
0.0
  9
$PUCSORGLEFT
 10
0.0
 20
0.0
 30
0.0
  9
$PUCSORGRIGHT
 10
0.0
 20
0.0
 30
0.0
  9
$PUCSORGFRONT
 10
0.0
 20
0.0
 30
0.0
  9
$PUCSORGBACK
 10
0.0
 20
0.0
 30
0.0
  9
$USERI1
 70
     0
  9
$USERI2
 70
     0
  9
$USERI3
 70
     0
  9
$USERI4
 70
     0
  9
$USERI5
 70
     0
  9
$USERR1
 40
0.0
  9
$USERR2
 40
0.0
  9
$USERR3
 40
0.0
  9
$USERR4
 40
0.0
  9
$USERR5
 40
0.0
  9
$WORLDVIEW
 70
     1
  9
$SHADEDGE
 70
     3
  9
$SHADEDIF
 70
    70
  9
$TILEMODE
 70
     0
  9
$MAXACTVP
 70
    16
  9
$PINSBASE
 10
0.0
 20
0.0
 30
0.0
  9
$PLIMCHECK
 70
     0
  9
$PEXTMIN
 10
-230.1251076440692
 20
-0.0202258741703645
 30
-0.0000000349181948
  9
$PEXTMAX
 10
178.0667480927011
 20
284.9962537062594
 30
0.0000000814935746
  9
$PLIMMIN
 10
-238.5807905626231
 20
-8.464306223373881
  9
$PLIMMAX
 10
188.3464590223494
 20
293.4403326496098
  9
$UNITMODE
 70
     0
  9
$VISRETAIN
 70
     0
  9
$PLINEGEN
 70
     0
  9
$PSLTSCALE
 70
     1
  9
$TREEDEPTH
 70
  3020
  9
$CMLSTYLE
  2
STANDARD
  9
$CMLJUST
 70
     0
  9
$CMLSCALE
 40
1.0
  9
$PROXYGRAPHICS
 70
     1
  9
$MEASUREMENT
 70
     0
  9
$CELWEIGHT
370
    -1
  9
$ENDCAPS
280
     0
  9
$JOINSTYLE
280
     0
  9
$LWDISPLAY
290
     0
  9
$INSUNITS
 70
     0
  9
$HYPERLINKBASE
  1

  9
$STYLESHEET
  1

  9
$XEDIT
290
     1
  9
$CEPSNTYPE
380
     0
  9
$PSTYLEMODE
290
     1
  9
$FINGERPRINTGUID
  2
{B06CF7F4-8F54-42E8-9930-4EF9552D2995}
  9
$VERSIONGUID
  2
{101F6832-B1A8-4EF5-8823-A2372DD2F2BE}
  9
$EXTNAMES
290
     1
  9
$PSVPSCALE
 40
0.0
  9
$OLESTARTUP
290
     0
  0
ENDSEC
  0
SECTION
  2
CLASSES
  0
CLASS
  1
ACDBDICTIONARYWDFLT
  2
AcDbDictionaryWithDefault
  3
ObjectDBX Classes
 90
        0
280
     0
281
     0
  0
CLASS
  1
ACDBPLACEHOLDER
  2
AcDbPlaceHolder
  3
ObjectDBX Classes
 90
        0
280
     0
281
     0
  0
CLASS
  1
LAYOUT
  2
AcDbLayout
  3
ObjectDBX Classes
 90
        0
280
     0
281
     0
  0
CLASS
  1
DICTIONARYVAR
  2
AcDbDictionaryVar
  3
ObjectDBX Classes
 90
        0
280
     0
281
     0
  0
CLASS
  1
TABLESTYLE
  2
AcDbTableStyle
  3
ObjectDBX Classes
 90
     4095
280
     0
281
     0
  0
CLASS
  1
SORTENTSTABLE
  2
AcDbSortentsTable
  3
ObjectDBX Classes
 90
        0
280
     0
281
     0
  0
CLASS
  1
MATERIAL
  2
AcDbMaterial
  3
ObjectDBX Classes
 90
     1153
280
     0
281
     0
  0
CLASS
  1
VISUALSTYLE
  2
AcDbVisualStyle
  3
ObjectDBX Classes
 90
     4095
280
     0
281
     0
  0
CLASS
  1
SCALE
  2
AcDbScale
  3
ObjectDBX Classes
 90
     1153
280
     0
281
     0
  0
CLASS
  1
MLEADERSTYLE
  2
AcDbMLeaderStyle
  3
ACDB_MLEADERSTYLE_CLASS
 90
     4095
280
     0
281
     0
  0
CLASS
  1
CELLSTYLEMAP
  2
AcDbCellStyleMap
  3
ObjectDBX Classes
 90
     1152
280
     0
281
     0
  0
ENDSEC
  0
SECTION
  2
TABLES
  0
TABLE
  2
VPORT
  5
8
102
{ACAD_XDICTIONARY
360
4CE1
102
}
330
0
100
AcDbSymbolTable
 70
     1
  0
VPORT
  5
4C94
330
8
100
AcDbSymbolTableRecord
100
AcDbViewportTableRecord
  2
*Active
 70
     0
 10
0.0
 20
0.0
 11
1.0
 21
1.0
 12
1065.528378307877
 22
39.40345951043378
 13
0.0
 23
0.0
 14
5.0
 24
5.0
 15
0.0
 25
0.0
 16
0.0
 26
0.0
 36
1.0
 17
0.0
 27
0.0
 37
0.0
 40
1824.157334472246
 41
1.302295918367346
 42
50.0
 43
0.0
 44
0.0
 50
0.0
 51
0.0
 71
     0
 72
   100
 73
     1
 74
     0
 75
     0
 76
     0
 77
     0
 78
     0
281
     0
 65
     1
110
0.0
120
0.0
130
0.0
111
1.0
121
0.0
131
0.0
112
0.0
122
1.0
132
0.0
 79
     0
146
0.0
  0
ENDTAB
  0
TABLE
  2
LTYPE
  5
5
330
0
100
AcDbSymbolTable
 70
     4
  0
LTYPE
  5
14
330
5
100
AcDbSymbolTableRecord
100
AcDbLinetypeTableRecord
  2
BYBLOCK
 70
     0
  3

 72
    65
 73
     0
 40
0.0
  0
LTYPE
  5
15
330
5
100
AcDbSymbolTableRecord
100
AcDbLinetypeTableRecord
  2
BYLAYER
 70
     0
  3

 72
    65
 73
     0
 40
0.0
  0
LTYPE
  5
16
330
5
100
AcDbSymbolTableRecord
100
AcDbLinetypeTableRecord
  2
CONTINUOUS
 70
     0
  3
Solid line
 72
    65
 73
     0
 40
0.0
  0
LTYPE
  5
6A
330
5
100
AcDbSymbolTableRecord
100
AcDbLinetypeTableRecord
  2
DASHED
 70
     0
  3
__ __ __ __ __ __ __ __ __ __ __ __ __ __ __ __
 72
    65
 73
     2
 40
0.75
 49
0.5
 74
     0
 49
-0.25
 74
     0
  0
LTYPE
  5
124
330
5
100
AcDbSymbolTableRecord
100
AcDbLinetypeTableRecord
  2
CENTER
 70
     0
  3
____ _ ____ _ ____ _ ____ _ ____ _ ____ _ ____ 
 72
    65
 73
     4
 40
2.0
 49
1.25
 74
     0
 49
-0.25
 74
     0
 49
0.25
 74
     0
 49
-0.25
 74
     0
  0
LTYPE
  5
2C5
330
5
100
AcDbSymbolTableRecord
100
AcDbLinetypeTableRecord
  2
PHANTOM
 70
     0
  3
______  __  __  ______  __  __  ______  __  __ 
 72
    65
 73
     6
 40
2.5
 49
1.25
 74
     0
 49
-0.25
 74
     0
 49
0.25
 74
     0
 49
-0.25
 74
     0
 49
0.25
 74
     0
 49
-0.25
 74
     0
  0
ENDTAB
  0
TABLE
  2
LAYER
  5
2
102
{ACAD_XDICTIONARY
360
3CC4
102
}
330
0
100
AcDbSymbolTable
 70
    11
  0
LAYER
  5
F
102
{ACAD_XDICTIONARY
360
4C65
102
}
330
2
100
AcDbSymbolTableRecord
100
AcDbLayerTableRecord
  2
0
 70
     0
 62
     5
  6
CONTINUOUS
370
    -3
390
3C4C
  0
LAYER
  5
10B
102
{ACAD_XDICTIONARY
360
4C67
102
}
330
2
100
AcDbSymbolTableRecord
100
AcDbLayerTableRecord
  2
細線
 70
     0
 62
     3
  6
CONTINUOUS
370
    -3
390
3C4C
  0
LAYER
  5
10C
102
{ACAD_XDICTIONARY
360
4C69
102
}
330
2
100
AcDbSymbolTableRecord
100
AcDbLayerTableRecord
  2
実線
 70
     0
 62
     7
  6
CONTINUOUS
370
    -3
390
3C4C
  0
LAYER
  5
10D
102
{ACAD_XDICTIONARY
360
4C6B
102
}
330
2
100
AcDbSymbolTableRecord
100
AcDbLayerTableRecord
  2
破線
 70
     0
 62
     4
  6
DASHED
370
    -3
390
3C4C
  0
LAYER
  5
10E
102
{ACAD_XDICTIONARY
360
4C6D
102
}
330
2
100
AcDbSymbolTableRecord
100
AcDbLayerTableRecord
  2
中心線
 70
     0
 62
     1
  6
CENTER
370
    -3
390
3C4C
  0
LAYER
  5
10F
102
{ACAD_XDICTIONARY
360
4C6F
102
}
330
2
100
AcDbSymbolTableRecord
100
AcDbLayerTableRecord
  2
寸法線
 70
     0
 62
     2
  6
CONTINUOUS
370
    -3
390
3C4C
  0
LAYER
  5
2C8
102
{ACAD_XDICTIONARY
360
4C71
102
}
330
2
100
AcDbSymbolTableRecord
100
AcDbLayerTableRecord
  2
仮線
 70
     0
 62
     5
  6
CONTINUOUS
370
    -3
390
3C4C
  0
LAYER
  5
2C9
102
{ACAD_XDICTIONARY
360
4C73
102
}
330
2
100
AcDbSymbolTableRecord
100
AcDbLayerTableRecord
  2
仮想線
 70
     0
 62
     6
  6
PHANTOM
370
    -3
390
3C4C
  0
LAYER
  5
4F5
102
{ACAD_XDICTIONARY
360
4C75
102
}
330
2
100
AcDbSymbolTableRecord
100
AcDbLayerTableRecord
  2
TITLE
 70
     0
 62
     7
  6
CONTINUOUS
370
    -3
390
3C4C
  0
LAYER
  5
4F6
102
{ACAD_XDICTIONARY
360
4C77
102
}
330
2
100
AcDbSymbolTableRecord
100
AcDbLayerTableRecord
  2
ZUWAKU
 70
     0
 62
     3
  6
CONTINUOUS
370
    -3
390
3C4C
  0
LAYER
  5
84F
330
2
100
AcDbSymbolTableRecord
100
AcDbLayerTableRecord
  2
DEFPOINTS
 70
     0
 62
     7
  6
CONTINUOUS
290
     0
370
    -3
390
3C4C
  0
ENDTAB
  0
TABLE
  2
STYLE
  5
3
330
0
100
AcDbSymbolTable
 70
     1
  0
STYLE
  5
10
330
3
100
AcDbSymbolTableRecord
100
AcDbTextStyleTableRecord
  2
STANDARD
 70
     0
 40
0.0
 41
1.0
 50
0.0
 71
     0
 42
24.0
  3
C:\Program Files\AutoCAD LT\isocp.shx
  4
C:\Program Files\AutoCAD LT\extfont.shx
  0
ENDTAB
  0
TABLE
  2
VIEW
  5
6
330
0
100
AcDbSymbolTable
 70
     0
  0
ENDTAB
  0
TABLE
  2
UCS
  5
7
330
0
100
AcDbSymbolTable
 70
     0
  0
ENDTAB
  0
TABLE
  2
APPID
  5
9
330
0
100
AcDbSymbolTable
 70
     4
  0
APPID
  5
11
330
9
100
AcDbSymbolTableRecord
100
AcDbRegAppTableRecord
  2
ACAD
 70
     0
  0
APPID
  5
3C54
330
9
100
AcDbSymbolTableRecord
100
AcDbRegAppTableRecord
  2
ACAD_PSEXT
 70
     0
  0
APPID
  5
3D8D
330
9
100
AcDbSymbolTableRecord
100
AcDbRegAppTableRecord
  2
ACAD_EXEMPT_FROM_CAD_STANDARDS
 70
     0
  0
APPID
  5
4C4B
330
9
100
AcDbSymbolTableRecord
100
AcDbRegAppTableRecord
  2
ACAD_MLEADERVER
 70
     0
  0
ENDTAB
  0
TABLE
  2
DIMSTYLE
  5
A
330
0
100
AcDbSymbolTable
 70
     1
100
AcDbDimStyleTable
 71
     1
340
1D
  0
DIMSTYLE
105
1D
102
{ACAD_REACTORS
330
1AE8
330
1AFA
330
1B2F
330
1B41
330
1B4E
330
1B60
330
1B9E
330
3FD9
330
3FDA
330
3FDB
330
3FDC
330
40DF
330
40E0
330
40E1
330
40E2
330
41F1
330
41F2
330
41F3
330
4273
330
4274
330
4275
330
44AD
330
44AE
330
4519
330
451A
330
45A9
330
45AA
330
45AB
330
4686
330
4687
330
4688
102
}
330
A
100
AcDbSymbolTableRecord
100
AcDbDimStyleTableRecord
  2
STANDARD
 70
     0
 40
6.0
 41
2.5
 42
0.875
 43
10.0
 44
1.0
 73
     0
 74
     0
 77
     1
 78
     8
140
3.5
141
0.0
147
0.875
172
     1
173
     1
271
     3
272
     3
340
10
341
112
343
112
344
112
  0
ENDTAB
  0
TABLE
  2
BLOCK_RECORD
  5
1
330
0
100
AcDbSymbolTable
 70
    98
  0
BLOCK_RECORD
  5
1A
102
{ACAD_XDICTIONARY
360
3C42
102
}
330
1
100
AcDbSymbolTableRecord
100
AcDbBlockTableRecord
  2
*MODEL_SPACE
340
3C51
  0
BLOCK_RECORD
  5
17
102
{ACAD_XDICTIONARY
360
3C40
102
}
330
1
100
AcDbSymbolTableRecord
100
AcDbBlockTableRecord
  2
*PAPER_SPACE
340
3C52
  0
BLOCK_RECORD
  5
112
102
{ACAD_XDICTIONARY
360
4CB0
102
}
330
1
100
AcDbSymbolTableRecord
100
AcDbBlockTableRecord
  2
_OPEN
340
0
102
{BLKREFS
331
3B18
331
3B19
331
3B2A
331
3B2B
331
3A2D
331
3A2E
331
3A12
331
3A13
331
39BE
331
39BF
331
3A01
331
3A02
331
39EA
331
39EB
331
3A20
331
3A21
331
3C28
331
3C29
331
3BF2
331
3BF3
331
3BC5
331
3BC6
331
3BFB
331
3BFC
331
3BBC
331
3BBD
331
39A7
331
39A8
331
39B0
331
39B1
331
3995
331
3996
331
1BE0
331
1BE7
331
3CE4
331
3CE5
331
3CF6
331
3CF7
331
3D0C
331
3D0D
331
3D22
331
3D23
331
3D38
331
3D39
331
3D4E
331
3D4F
331
3DAC
331
3DAD
331
3E1C
331
3E1D
331
3E64
331
3E65
331
3EBE
331
3EBF
331
3ED0
331
3ED1
331
3ED9
331
3EDA
331
3EE2
331
3EE3
331
3EF4
331
3EF5
331
3EFD
331
3EFE
331
3F6C
331
3F6D
331
3F78
331
3F79
331
3F84
331
3F85
331
3F90
331
3F91
331
3F9C
331
3F9D
331
3FA8
331
3FA9
331
3FB4
331
3FB5
331
3FC0
331
3FC1
331
406C
331
406D
331
4075
331
4076
331
407E
331
407F
331
4087
331
4088
331
41C3
331
41C4
331
41CF
331
41D0
331
41DB
331
41DC
331
4372
331
4373
331
438A
331
438B
331
4436
331
4437
331
4479
331
447A
331
448D
331
448E
331
4499
331
449A
331
44FE
331
44FF
331
450A
331
450B
331
4570
331
4571
331
457D
331
457E
331
4589
331
458A
331
4597
331
4598
331
466C
331
466D
331
4675
331
4676
331
4680
331
4681
331
4846
331
4847
331
484F
331
4850
331
48A3
331
48A4
331
48F7
331
48F8
331
4908
331
4909
331
4911
331
4912
331
491C
331
491D
331
4925
331
4926
331
4930
331
4931
331
4939
331
493A
331
4942
331
4943
331
494B
331
494C
331
4954
331
4955
331
495D
331
495E
331
4966
331
4967
331
496F
331
4970
331
4978
331
4979
331
4981
331
4982
331
498A
331
498B
331
4993
331
4994
331
499C
331
499D
331
49A5
331
49A6
331
49AE
331
49AF
331
49B7
331
49B8
331
49C0
331
49C1
331
49C9
331
49CA
331
49D2
331
49D3
331
49DB
331
49DC
331
49E4
331
49E5
331
49EF
331
49F0
331
49F8
331
49F9
331
4A03
331
4A04
331
4A0E
331
4A0F
331
4A17
331
4A18
331
4A22
331
4A23
102
}
  0
BLOCK_RECORD
  5
1806
330
1
100
AcDbSymbolTableRecord
100
AcDbBlockTableRecord
  2
HB22H
340
0
  0
BLOCK_RECORD
  5
1AE9
330
1
100
AcDbSymbolTableRecord
100
AcDbBlockTableRecord
  2
*D2
340
0
  0
BLOCK_RECORD
  5
1AFB
330
1
100
AcDbSymbolTableRecord
100
AcDbBlockTableRecord
  2
*D3
340
0
  0
BLOCK_RECORD
  5
1B30
330
1
100
AcDbSymbolTableRecord
100
AcDbBlockTableRecord
  2
*D5
340
0
  0
BLOCK_RECORD
  5
1B42
330
1
100
AcDbSymbolTableRecord
100
AcDbBlockTableRecord
  2
*D6
340
0
  0
BLOCK_RECORD
  5
1B4F
330
1
100
AcDbSymbolTableRecord
100
AcDbBlockTableRecord
  2
*D7
340
0
  0
BLOCK_RECORD
  5
1B61
330
1
100
AcDbSymbolTableRecord
100
AcDbBlockTableRecord
  2
*D8
340
0
  0
BLOCK_RECORD
  5
1B9F
330
1
100
AcDbSymbolTableRecord
100
AcDbBlockTableRecord
  2
*D9
340
0
  0
BLOCK_RECORD
  5
3FE5
330
1
100
AcDbSymbolTableRecord
100
AcDbBlockTableRecord
  2
*D48
340
0
  0
BLOCK_RECORD
  5
3FF1
330
1
100
AcDbSymbolTableRecord
100
AcDbBlockTableRecord
  2
*D49
340
0
  0
BLOCK_RECORD
  5
3FFD
330
1
100
AcDbSymbolTableRecord
100
AcDbBlockTableRecord
  2
*D50
340
0
  0
BLOCK_RECORD
  5
4009
330
1
100
AcDbSymbolTableRecord
100
AcDbBlockTableRecord
  2
*D51
340
0
  0
BLOCK_RECORD
  5
40E3
330
1
100
AcDbSymbolTableRecord
100
AcDbBlockTableRecord
  2
*D56
340
0
  0
BLOCK_RECORD
  5
40EF
330
1
100
AcDbSymbolTableRecord
100
AcDbBlockTableRecord
  2
*D57
340
0
  0
BLOCK_RECORD
  5
40FB
330
1
100
AcDbSymbolTableRecord
100
AcDbBlockTableRecord
  2
*D58
340
0
  0
BLOCK_RECORD
  5
4107
330
1
100
AcDbSymbolTableRecord
100
AcDbBlockTableRecord
  2
*D59
340
0
  0
BLOCK_RECORD
  5
41F4
330
1
100
AcDbSymbolTableRecord
100
AcDbBlockTableRecord
  2
*D63
340
0
  0
BLOCK_RECORD
  5
4200
330
1
100
AcDbSymbolTableRecord
100
AcDbBlockTableRecord
  2
*D64
340
0
  0
BLOCK_RECORD
  5
420C
330
1
100
AcDbSymbolTableRecord
100
AcDbBlockTableRecord
  2
*D65
340
0
  0
BLOCK_RECORD
  5
4276
330
1
100
AcDbSymbolTableRecord
100
AcDbBlockTableRecord
  2
*D66
340
0
  0
BLOCK_RECORD
  5
4282
330
1
100
AcDbSymbolTableRecord
100
AcDbBlockTableRecord
  2
*D67
340
0
  0
BLOCK_RECORD
  5
428E
330
1
100
AcDbSymbolTableRecord
100
AcDbBlockTableRecord
  2
*D68
340
0
  0
BLOCK_RECORD
  5
44B4
330
1
100
AcDbSymbolTableRecord
100
AcDbBlockTableRecord
  2
*D75
340
0
  0
BLOCK_RECORD
  5
44C0
330
1
100
AcDbSymbolTableRecord
100
AcDbBlockTableRecord
  2
*D76
340
0
  0
BLOCK_RECORD
  5
451B
330
1
100
AcDbSymbolTableRecord
100
AcDbBlockTableRecord
  2
*D79
340
0
  0
BLOCK_RECORD
  5
4527
330
1
100
AcDbSymbolTableRecord
100
AcDbBlockTableRecord
  2
*D80
340
0
  0
BLOCK_RECORD
  5
45AE
330
1
100
AcDbSymbolTableRecord
100
AcDbBlockTableRecord
  2
*D85
340
0
  0
BLOCK_RECORD
  5
45BC
330
1
100
AcDbSymbolTableRecord
100
AcDbBlockTableRecord
  2
*D86
340
0
  0
BLOCK_RECORD
  5
45C8
330
1
100
AcDbSymbolTableRecord
100
AcDbBlockTableRecord
  2
*D87
340
0
  0
BLOCK_RECORD
  5
4689
330
1
100
AcDbSymbolTableRecord
100
AcDbBlockTableRecord
  2
*D91
340
0
  0
BLOCK_RECORD
  5
4697
330
1
100
AcDbSymbolTableRecord
100
AcDbBlockTableRecord
  2
*D92
340
0
  0
BLOCK_RECORD
  5
46A3
330
1
100
AcDbSymbolTableRecord
100
AcDbBlockTableRecord
  2
*D93
340
0
  0
ENDTAB
  0
ENDSEC
  0
SECTION
  2
BLOCKS
  0
BLOCK
  5
1B
330
1A
100
AcDbEntity
  8
0
100
AcDbBlockBegin
  2
*MODEL_SPACE
 70
     0
 10
0.0
 20
0.0
 30
0.0
  3
*MODEL_SPACE
  1

  0
ENDBLK
  5
1C
330
1A
100
AcDbEntity
  8
0
100
AcDbBlockEnd
  0
BLOCK
  5
18
330
17
100
AcDbEntity
 67
     1
  8
0
100
AcDbBlockBegin
  2
*PAPER_SPACE
 70
     0
 10
0.0
 20
0.0
 30
0.0
  3
*PAPER_SPACE
  1

  0
ENDBLK
  5
19
330
17
100
AcDbEntity
 67
     1
  8
0
100
AcDbBlockEnd
  0
BLOCK
  5
113
330
112
100
AcDbEntity
  8
0
100
AcDbBlockBegin
  2
_OPEN
 70
     0
 10
0.0
 20
0.0
 30
0.0
  3
_OPEN
  1

  0
LINE
  5
114
330
112
100
AcDbEntity
  8
0
  6
ByBlock
 62
     0
100
AcDbLine
 10
-1.0
 20
0.1666666666666666
 30
0.0
 11
0.0
 21
0.0
 31
0.0
  0
LINE
  5
115
330
112
100
AcDbEntity
  8
0
  6
ByBlock
 62
     0
100
AcDbLine
 10
0.0
 20
0.0
 30
0.0
 11
-1.0
 21
-0.1666666666666666
 31
0.0
  0
LINE
  5
116
330
112
100
AcDbEntity
  8
0
  6
ByBlock
 62
     0
100
AcDbLine
 10
0.0
 20
0.0
 30
0.0
 11
-1.0
 21
0.0
 31
0.0
  0
ENDBLK
  5
117
330
112
100
AcDbEntity
  8
0
100
AcDbBlockEnd
  0
BLOCK
  5
180E
330
1806
100
AcDbEntity
  8
0
100
AcDbBlockBegin
  2
HB22H
 70
     0
 10
0.0
 20
0.0
 30
0.0
  3
HB22H
  1

  0
LINE
  5
1807
330
1806
100
AcDbEntity
  8
0
  6
ByBlock
 62
     0
100
AcDbLine
 10
9.23761649980824
 20
-15.9999935493826
 30
0.0
 11
18.47521649980822
 21
-0.0000010093843983
 31
0.0
  0
LINE
  5
1808
330
1806
100
AcDbEntity
  8
0
  6
ByBlock
 62
     0
100
AcDbLine
 10
18.47521649980822
 20
-0.0000010093843983
 30
0.0
 11
9.23761649980824
 21
15.99999153061389
 31
0.0
  0
LINE
  5
1809
330
1806
100
AcDbEntity
  8
0
  6
ByBlock
 62
     0
100
AcDbLine
 10
-9.237583500191732
 20
15.99999153061389
 30
0.0
 11
-18.47518350019174
 21
-0.0000010093842846
 31
0.0
  0
CIRCLE
  5
180A
330
1806
100
AcDbEntity
  8
0
  6
ByBlock
 62
     0
100
AcDbCircle
 10
0.0000164998082539
 20
-0.0000010093843983
 30
0.0
 40
15.5
  0
LINE
  5
180B
330
1806
100
AcDbEntity
  8
0
  6
ByBlock
 62
     0
100
AcDbLine
 10
-18.47518350019174
 20
-0.0000010093842846
 30
0.0
 11
-9.23758350019176
 21
-15.9999935493826
 31
0.0
  0
LINE
  5
180C
330
1806
100
AcDbEntity
  8
0
  6
ByBlock
 62
     0
100
AcDbLine
 10
-9.23758350019176
 20
-15.9999935493826
 30
0.0
 11
9.23761649980824
 21
-15.9999935493826
 31
0.0
  0
LINE
  5
180D
330
1806
100
AcDbEntity
  8
0
  6
ByBlock
 62
     0
100
AcDbLine
 10
9.23761649980824
 20
15.99999153061389
 30
0.0
 11
-9.237583500191732
 21
15.99999153061389
 31
0.0
  0
ENDBLK
  5
180F
330
1806
100
AcDbEntity
  8
0
100
AcDbBlockEnd
  0
BLOCK
  5
1AF8
330
1AE9
100
AcDbEntity
  8
0
100
AcDbBlockBegin
  2
*D2
 70
     1
 10
0.0
 20
0.0
 30
0.0
  3
*D2
  1

  0
LINE
  5
4903
330
1AE9
100
AcDbEntity
  8
寸法線
 62
     0
370
    -2
100
AcDbLine
 10
571.1028964149732
 20
217.604
 30
0.0
 11
571.1028964149732
 21
134.8539817553696
 31
0.0
  0
LINE
  5
4904
330
1AE9
100
AcDbEntity
  8
寸法線
 62
     0
370
    -2
100
AcDbLine
 10
603.1028964149734
 20
278.1039817553697
 30
0.0
 11
603.1028964149734
 21
134.8539817553696
 31
0.0
  0
LINE
  5
4905
330
1AE9
100
AcDbEntity
  8
寸法線
 62
     0
370
    -2
100
AcDbLine
 10
556.1028964149731
 20
140.8539817553696
 30
0.0
 11
541.1028964149732
 21
140.8539817553696
 31
0.0
  0
LINE
  5
4906
330
1AE9
100
AcDbEntity
  8
寸法線
 62
     0
370
    -2
100
AcDbLine
 10
618.1028964149734
 20
140.8539817553696
 30
0.0
 11
633.1028964149734
 21
140.8539817553696
 31
0.0
  0
LINE
  5
4907
330
1AE9
100
AcDbEntity
  8
寸法線
 62
     0
370
    -2
100
AcDbLine
 10
571.1028964149732
 20
140.8539817553696
 30
0.0
 11
603.1028964149734
 21
140.8539817553696
 31
0.0
  0
INSERT
  5
4908
330
1AE9
100
AcDbEntity
  8
寸法線
 62
     0
370
    -2
100
AcDbBlockReference
  2
_OPEN
 10
571.1028964149732
 20
140.8539817553696
 30
0.0
 41
15.0
 42
15.0
 43
15.0
  0
INSERT
  5
4909
330
1AE9
100
AcDbEntity
  8
寸法線
 62
     0
370
    -2
100
AcDbBlockReference
  2
_OPEN
 10
603.1028964149734
 20
140.8539817553696
 30
0.0
 41
15.0
 42
15.0
 43
15.0
 50
180.0
  0
MTEXT
  5
490A
330
1AE9
100
AcDbEntity
  8
寸法線
 62
     0
100
AcDbMText
 10
587.1028964149732
 20
156.6060486845034
 30
0.0
 40
21.0
 41
0.0
 71
     5
 72
     1
  1
\A1;32
 73
     1
 44
1.0
1001
ACAD
1000
MTEXTBEGIN
1070
    73
1070
     1
1070
    44
1040
1.0
1070
    74
1070
     0
1000
MTEXTEND
  0
POINT
  5
490B
330
1AE9
100
AcDbEntity
  8
DEFPOINTS
 62
     0
100
AcDbPoint
 10
571.1028964149732
 20
222.854
 30
0.0
  0
POINT
  5
490C
330
1AE9
100
AcDbEntity
  8
DEFPOINTS
 62
     0
100
AcDbPoint
 10
603.1028964149734
 20
283.3539817553697
 30
0.0
  0
POINT
  5
490D
330
1AE9
100
AcDbEntity
  8
DEFPOINTS
 62
     0
100
AcDbPoint
 10
603.1028964149734
 20
140.8539817553696
 30
0.0
  0
ENDBLK
  5
1AF9
330
1AE9
100
AcDbEntity
  8
0
100
AcDbBlockEnd
  0
BLOCK
  5
1B05
330
1AFB
100
AcDbEntity
  8
0
100
AcDbBlockBegin
  2
*D3
 70
     1
 10
0.0
 20
0.0
 30
0.0
  3
*D3
  1

  0
LINE
  5
490E
330
1AFB
100
AcDbEntity
  8
寸法線
 62
     0
370
    -2
100
AcDbLine
 10
603.1028964149734
 20
278.1039817553697
 30
0.0
 11
603.1028964149734
 21
134.8539817553696
 31
0.0
  0
LINE
  5
490F
330
1AFB
100
AcDbEntity
  8
寸法線
 62
     0
370
    -2
100
AcDbLine
 10
743.1028964149734
 20
207.604
 30
0.0
 11
743.1028964149734
 21
134.8539817553696
 31
0.0
  0
LINE
  5
4910
330
1AFB
100
AcDbEntity
  8
寸法線
 62
     0
370
    -2
100
AcDbLine
 10
618.1028964149734
 20
140.8539817553696
 30
0.0
 11
728.1028964149734
 21
140.8539817553696
 31
0.0
  0
INSERT
  5
4911
330
1AFB
100
AcDbEntity
  8
寸法線
 62
     0
370
    -2
100
AcDbBlockReference
  2
_OPEN
 10
603.1028964149734
 20
140.8539817553696
 30
0.0
 41
15.0
 42
15.0
 43
15.0
 50
180.0
  0
INSERT
  5
4912
330
1AFB
100
AcDbEntity
  8
寸法線
 62
     0
370
    -2
100
AcDbBlockReference
  2
_OPEN
 10
743.1028964149734
 20
140.8539817553696
 30
0.0
 41
15.0
 42
15.0
 43
15.0
  0
MTEXT
  5
4913
330
1AFB
100
AcDbEntity
  8
寸法線
 62
     0
100
AcDbMText
 10
673.1028964149734
 20
156.6039817553695
 30
0.0
 40
21.0
 41
0.0
 71
     5
 72
     1
  1
\A1;140
 73
     1
 44
1.0
1001
ACAD
1000
MTEXTBEGIN
1070
    73
1070
     1
1070
    44
1040
1.0
1070
    74
1070
     0
1000
MTEXTEND
  0
POINT
  5
4914
330
1AFB
100
AcDbEntity
  8
DEFPOINTS
 62
     0
100
AcDbPoint
 10
603.1028964149734
 20
283.3539817553697
 30
0.0
  0
POINT
  5
4915
330
1AFB
100
AcDbEntity
  8
DEFPOINTS
 62
     0
100
AcDbPoint
 10
743.1028964149734
 20
212.854
 30
0.0
  0
POINT
  5
4916
330
1AFB
100
AcDbEntity
  8
DEFPOINTS
 62
     0
100
AcDbPoint
 10
743.1028964149734
 20
140.8539817553696
 30
0.0
  0
ENDBLK
  5
1B06
330
1AFB
100
AcDbEntity
  8
0
100
AcDbBlockEnd
  0
BLOCK
  5
1B3F
330
1B30
100
AcDbEntity
  8
0
100
AcDbBlockBegin
  2
*D5
 70
     1
 10
0.0
 20
0.0
 30
0.0
  3
*D5
  1

  0
LINE
  5
4917
330
1B30
100
AcDbEntity
  8
寸法線
 62
     0
370
    -2
100
AcDbLine
 10
555.1028964149734
 20
217.6039817553695
 30
0.0
 11
555.1028964149734
 21
86.85398175536958
 31
0.0
  0
LINE
  5
4918
330
1B30
100
AcDbEntity
  8
寸法線
 62
     0
370
    -2
100
AcDbLine
 10
571.1028964149732
 20
217.6039817553695
 30
0.0
 11
571.1028964149732
 21
86.85398175536958
 31
0.0
  0
LINE
  5
4919
330
1B30
100
AcDbEntity
  8
寸法線
 62
     0
370
    -2
100
AcDbLine
 10
540.1028964149734
 20
92.85398175536959
 30
0.0
 11
525.1028964149734
 21
92.85398175536959
 31
0.0
  0
LINE
  5
491A
330
1B30
100
AcDbEntity
  8
寸法線
 62
     0
370
    -2
100
AcDbLine
 10
586.1028964149729
 20
92.85398175536959
 30
0.0
 11
601.1028964149732
 21
92.85398175536959
 31
0.0
  0
LINE
  5
491B
330
1B30
100
AcDbEntity
  8
寸法線
 62
     0
370
    -2
100
AcDbLine
 10
555.1028964149734
 20
92.85398175536959
 30
0.0
 11
571.1028964149732
 21
92.85398175536959
 31
0.0
  0
INSERT
  5
491C
330
1B30
100
AcDbEntity
  8
寸法線
 62
     0
370
    -2
100
AcDbBlockReference
  2
_OPEN
 10
555.1028964149734
 20
92.85398175536959
 30
0.0
 41
15.0
 42
15.0
 43
15.0
  0
INSERT
  5
491D
330
1B30
100
AcDbEntity
  8
寸法線
 62
     0
370
    -2
100
AcDbBlockReference
  2
_OPEN
 10
571.1028964149732
 20
92.85398175536959
 30
0.0
 41
15.0
 42
15.0
 43
15.0
 50
180.0
  0
MTEXT
  5
491E
330
1B30
100
AcDbEntity
  8
寸法線
 62
     0
100
AcDbMText
 10
563.1028964149732
 20
108.6039817553696
 30
0.0
 40
21.0
 41
0.0
 71
     5
 72
     1
  1
\A1;16
 73
     1
 44
1.0
1001
ACAD
1000
MTEXTBEGIN
1070
    73
1070
     1
1070
    44
1040
1.0
1070
    74
1070
     0
1000
MTEXTEND
  0
POINT
  5
491F
330
1B30
100
AcDbEntity
  8
DEFPOINTS
 62
     0
100
AcDbPoint
 10
555.1028964149734
 20
222.8539817553695
 30
0.0
  0
POINT
  5
4920
330
1B30
100
AcDbEntity
  8
DEFPOINTS
 62
     0
100
AcDbPoint
 10
571.1028964149732
 20
222.8539817553695
 30
0.0
  0
POINT
  5
4921
330
1B30
100
AcDbEntity
  8
DEFPOINTS
 62
     0
100
AcDbPoint
 10
571.1028964149732
 20
92.85398175536959
 30
0.0
  0
ENDBLK
  5
1B40
330
1B30
100
AcDbEntity
  8
0
100
AcDbBlockEnd
  0
BLOCK
  5
1B4C
330
1B42
100
AcDbEntity
  8
0
100
AcDbBlockBegin
  2
*D6
 70
     1
 10
0.0
 20
0.0
 30
0.0
  3
*D6
  1

  0
LINE
  5
4922
330
1B42
100
AcDbEntity
  8
寸法線
 62
     0
370
    -2
100
AcDbLine
 10
571.1028964149732
 20
197.6039817553695
 30
0.0
 11
571.1028964149732
 21
86.85398175536958
 31
0.0
  0
LINE
  5
4923
330
1B42
100
AcDbEntity
  8
寸法線
 62
     0
370
    -2
100
AcDbLine
 10
743.1028964149734
 20
207.604
 30
0.0
 11
743.1028964149734
 21
86.85398175536958
 31
0.0
  0
LINE
  5
4924
330
1B42
100
AcDbEntity
  8
寸法線
 62
     0
370
    -2
100
AcDbLine
 10
586.1028964149729
 20
92.85398175536959
 30
0.0
 11
728.1028964149734
 21
92.85398175536959
 31
0.0
  0
INSERT
  5
4925
330
1B42
100
AcDbEntity
  8
寸法線
 62
     0
370
    -2
100
AcDbBlockReference
  2
_OPEN
 10
571.1028964149732
 20
92.85398175536959
 30
0.0
 41
15.0
 42
15.0
 43
15.0
 50
180.0
  0
INSERT
  5
4926
330
1B42
100
AcDbEntity
  8
寸法線
 62
     0
370
    -2
100
AcDbBlockReference
  2
_OPEN
 10
743.1028964149734
 20
92.85398175536959
 30
0.0
 41
15.0
 42
15.0
 43
15.0
  0
MTEXT
  5
4927
330
1B42
100
AcDbEntity
  8
寸法線
 62
     0
100
AcDbMText
 10
657.1028964149732
 20
108.6060486845034
 30
0.0
 40
21.0
 41
0.0
 71
     5
 72
     1
  1
\A1;172
 73
     1
 44
1.0
1001
ACAD
1000
MTEXTBEGIN
1070
    73
1070
     1
1070
    44
1040
1.0
1070
    74
1070
     0
1000
MTEXTEND
  0
POINT
  5
4928
330
1B42
100
AcDbEntity
  8
DEFPOINTS
 62
     0
100
AcDbPoint
 10
571.1028964149732
 20
202.8539817553695
 30
0.0
  0
POINT
  5
4929
330
1B42
100
AcDbEntity
  8
DEFPOINTS
 62
     0
100
AcDbPoint
 10
743.1028964149734
 20
212.854
 30
0.0
  0
POINT
  5
492A
330
1B42
100
AcDbEntity
  8
DEFPOINTS
 62
     0
100
AcDbPoint
 10
743.1028964149734
 20
92.85398175536959
 30
0.0
  0
ENDBLK
  5
1B4D
330
1B42
100
AcDbEntity
  8
0
100
AcDbBlockEnd
  0
BLOCK
  5
1B5E
330
1B4F
100
AcDbEntity
  8
0
100
AcDbBlockBegin
  2
*D7
 70
     1
 10
0.0
 20
0.0
 30
0.0
  3
*D7
  1

  0
LINE
  5
492B
330
1B4F
100
AcDbEntity
  8
寸法線
 62
     0
370
    -2
100
AcDbLine
 10
743.1028964149734
 20
207.604
 30
0.0
 11
743.1028964149734
 21
86.85398175536958
 31
0.0
  0
LINE
  5
492C
330
1B4F
100
AcDbEntity
  8
寸法線
 62
     0
370
    -2
100
AcDbLine
 10
759.1028964149734
 20
207.604
 30
0.0
 11
759.1028964149734
 21
86.85398175536958
 31
0.0
  0
LINE
  5
492D
330
1B4F
100
AcDbEntity
  8
寸法線
 62
     0
370
    -2
100
AcDbLine
 10
728.1028964149734
 20
92.85398175536959
 30
0.0
 11
713.1028964149734
 21
92.85398175536959
 31
0.0
  0
LINE
  5
492E
330
1B4F
100
AcDbEntity
  8
寸法線
 62
     0
370
    -2
100
AcDbLine
 10
774.1028964149734
 20
92.85398175536959
 30
0.0
 11
789.1028964149734
 21
92.85398175536959
 31
0.0
  0
LINE
  5
492F
330
1B4F
100
AcDbEntity
  8
寸法線
 62
     0
370
    -2
100
AcDbLine
 10
743.1028964149734
 20
92.85398175536959
 30
0.0
 11
759.1028964149734
 21
92.85398175536959
 31
0.0
  0
INSERT
  5
4930
330
1B4F
100
AcDbEntity
  8
寸法線
 62
     0
370
    -2
100
AcDbBlockReference
  2
_OPEN
 10
743.1028964149734
 20
92.85398175536959
 30
0.0
 41
15.0
 42
15.0
 43
15.0
  0
INSERT
  5
4931
330
1B4F
100
AcDbEntity
  8
寸法線
 62
     0
370
    -2
100
AcDbBlockReference
  2
_OPEN
 10
759.1028964149734
 20
92.85398175536959
 30
0.0
 41
15.0
 42
15.0
 43
15.0
 50
180.0
  0
MTEXT
  5
4932
330
1B4F
100
AcDbEntity
  8
寸法線
 62
     0
100
AcDbMText
 10
751.1028964149734
 20
108.6039817553696
 30
0.0
 40
21.0
 41
0.0
 71
     5
 72
     1
  1
\A1;16
 73
     1
 44
1.0
1001
ACAD
1000
MTEXTBEGIN
1070
    73
1070
     1
1070
    44
1040
1.0
1070
    74
1070
     0
1000
MTEXTEND
  0
POINT
  5
4933
330
1B4F
100
AcDbEntity
  8
DEFPOINTS
 62
     0
100
AcDbPoint
 10
743.1028964149734
 20
212.854
 30
0.0
  0
POINT
  5
4934
330
1B4F
100
AcDbEntity
  8
DEFPOINTS
 62
     0
100
AcDbPoint
 10
759.1028964149734
 20
212.854
 30
0.0
  0
POINT
  5
4935
330
1B4F
100
AcDbEntity
  8
DEFPOINTS
 62
     0
100
AcDbPoint
 10
759.1028964149734
 20
92.85398175536959
 30
0.0
  0
ENDBLK
  5
1B5F
330
1B4F
100
AcDbEntity
  8
0
100
AcDbBlockEnd
  0
BLOCK
  5
1B6B
330
1B61
100
AcDbEntity
  8
0
100
AcDbBlockBegin
  2
*D8
 70
     1
 10
0.0
 20
0.0
 30
0.0
  3
*D8
  1

  0
LINE
  5
4936
330
1B61
100
AcDbEntity
  8
寸法線
 62
     0
370
    -2
100
AcDbLine
 10
555.1028964149734
 20
217.6039817553695
 30
0.0
 11
555.1028964149734
 21
38.8539817553696
 31
0.0
  0
LINE
  5
4937
330
1B61
100
AcDbEntity
  8
寸法線
 62
     0
370
    -2
100
AcDbLine
 10
759.1028964149734
 20
207.604
 30
0.0
 11
759.1028964149734
 21
38.8539817553696
 31
0.0
  0
LINE
  5
4938
330
1B61
100
AcDbEntity
  8
寸法線
 62
     0
370
    -2
100
AcDbLine
 10
570.1028964149734
 20
44.8539817553696
 30
0.0
 11
744.1028964149734
 21
44.8539817553696
 31
0.0
  0
INSERT
  5
4939
330
1B61
100
AcDbEntity
  8
寸法線
 62
     0
370
    -2
100
AcDbBlockReference
  2
_OPEN
 10
555.1028964149734
 20
44.8539817553696
 30
0.0
 41
15.0
 42
15.0
 43
15.0
 50
180.0
  0
INSERT
  5
493A
330
1B61
100
AcDbEntity
  8
寸法線
 62
     0
370
    -2
100
AcDbBlockReference
  2
_OPEN
 10
759.1028964149734
 20
44.8539817553696
 30
0.0
 41
15.0
 42
15.0
 43
15.0
  0
MTEXT
  5
493B
330
1B61
100
AcDbEntity
  8
寸法線
 62
     0
100
AcDbMText
 10
657.1028964149734
 20
60.60604868450346
 30
0.0
 40
21.0
 41
0.0
 71
     5
 72
     1
  1
\A1;204
 73
     1
 44
1.0
1001
ACAD
1000
MTEXTBEGIN
1070
    73
1070
     1
1070
    44
1040
1.0
1070
    74
1070
     0
1000
MTEXTEND
  0
POINT
  5
493C
330
1B61
100
AcDbEntity
  8
DEFPOINTS
 62
     0
100
AcDbPoint
 10
555.1028964149734
 20
222.8539817553695
 30
0.0
  0
POINT
  5
493D
330
1B61
100
AcDbEntity
  8
DEFPOINTS
 62
     0
100
AcDbPoint
 10
759.1028964149734
 20
212.854
 30
0.0
  0
POINT
  5
493E
330
1B61
100
AcDbEntity
  8
DEFPOINTS
 62
     0
100
AcDbPoint
 10
759.1028964149734
 20
44.8539817553696
 30
0.0
  0
ENDBLK
  5
1B6C
330
1B61
100
AcDbEntity
  8
0
100
AcDbBlockEnd
  0
BLOCK
  5
1BA9
330
1B9F
100
AcDbEntity
  8
0
100
AcDbBlockBegin
  2
*D9
 70
     1
 10
0.0
 20
0.0
 30
0.0
  3
*D9
  1

  0
LINE
  5
493F
330
1B9F
100
AcDbEntity
  8
寸法線
 62
     0
370
    -2
100
AcDbLine
 10
704.3528964149734
 20
527.8539817553697
 30
0.0
 11
705.1028964149734
 21
527.8539817553697
 31
0.0
  0
LINE
  5
4940
330
1B9F
100
AcDbEntity
  8
寸法線
 62
     0
370
    -2
100
AcDbLine
 10
704.3528964149734
 20
582.8539817553696
 30
0.0
 11
705.1028964149734
 21
582.8539817553696
 31
0.0
  0
LINE
  5
4941
330
1B9F
100
AcDbEntity
  8
寸法線
 62
     0
370
    -2
100
AcDbLine
 10
699.1028964149734
 20
542.8539817553696
 30
0.0
 11
699.1028964149734
 21
567.8539817553696
 31
0.0
  0
INSERT
  5
4942
330
1B9F
100
AcDbEntity
  8
寸法線
 62
     0
370
    -2
100
AcDbBlockReference
  2
_OPEN
 10
699.1028964149734
 20
527.8539817553697
 30
0.0
 41
15.0
 42
15.0
 43
15.0
 50
270.0
  0
INSERT
  5
4943
330
1B9F
100
AcDbEntity
  8
寸法線
 62
     0
370
    -2
100
AcDbBlockReference
  2
_OPEN
 10
699.1028964149734
 20
582.8539817553696
 30
0.0
 41
15.0
 42
15.0
 43
15.0
 50
90.0
  0
MTEXT
  5
4944
330
1B9F
100
AcDbEntity
  8
寸法線
 62
     0
100
AcDbMText
 10
683.3528964149734
 20
555.3539817553696
 30
0.0
 40
21.0
 41
0.0
 71
     5
 72
     1
  1
\A1;%%C55
 11
0.0000000000000001
 21
1.0
 31
0.0
 73
     1
 44
1.0
1001
ACAD
1000
MTEXTBEGIN
1070
    73
1070
     1
1070
    44
1040
1.0
1070
    74
1070
     0
1000
MTEXTEND
  0
POINT
  5
4945
330
1B9F
100
AcDbEntity
  8
DEFPOINTS
 62
     0
100
AcDbPoint
 10
699.1028964149734
 20
527.8539817553697
 30
0.0
  0
POINT
  5
4946
330
1B9F
100
AcDbEntity
  8
DEFPOINTS
 62
     0
100
AcDbPoint
 10
699.1028964149734
 20
582.8539817553696
 30
0.0
  0
POINT
  5
4947
330
1B9F
100
AcDbEntity
  8
DEFPOINTS
 62
     0
100
AcDbPoint
 10
699.1028964149734
 20
582.8539817553696
 30
0.0
  0
ENDBLK
  5
1BAA
330
1B9F
100
AcDbEntity
  8
0
100
AcDbBlockEnd
  0
BLOCK
  5
3FEF
330
3FE5
100
AcDbEntity
  8
0
100
AcDbBlockBegin
  2
*D48
 70
     1
 10
0.0
 20
0.0
 30
0.0
  3
*D48
  1

  0
LINE
  5
4948
330
3FE5
100
AcDbEntity
  8
寸法線
 62
     0
370
    -2
100
AcDbLine
 10
1103.872653912418
 20
207.6039817553696
 30
0.0
 11
1103.872653912418
 21
86.85398175536958
 31
0.0
  0
LINE
  5
4949
330
3FE5
100
AcDbEntity
  8
寸法線
 62
     0
370
    -2
100
AcDbLine
 10
1493.872653812602
 20
207.6039817553696
 30
0.0
 11
1493.872653812602
 21
86.85398175536958
 31
0.0
  0
LINE
  5
494A
330
3FE5
100
AcDbEntity
  8
寸法線
 62
     0
370
    -2
100
AcDbLine
 10
1118.872653912418
 20
92.85398175536959
 30
0.0
 11
1478.872653812602
 21
92.85398175536959
 31
0.0
  0
INSERT
  5
494B
330
3FE5
100
AcDbEntity
  8
寸法線
 62
     0
370
    -2
100
AcDbBlockReference
  2
_OPEN
 10
1103.872653912418
 20
92.85398175536959
 30
0.0
 41
15.0
 42
15.0
 43
15.0
 50
180.0
  0
INSERT
  5
494C
330
3FE5
100
AcDbEntity
  8
寸法線
 62
     0
370
    -2
100
AcDbBlockReference
  2
_OPEN
 10
1493.872653812602
 20
92.85398175536959
 30
0.0
 41
15.0
 42
15.0
 43
15.0
  0
MTEXT
  5
494D
330
3FE5
100
AcDbEntity
  8
寸法線
 62
     0
100
AcDbMText
 10
1298.87265386251
 20
108.6039817553696
 30
0.0
 40
21.0
 41
0.0
 71
     5
 72
     1
  1
\A1;390
 73
     1
 44
1.0
1001
ACAD
1000
MTEXTBEGIN
1070
    73
1070
     1
1070
    44
1040
1.0
1070
    74
1070
     0
1000
MTEXTEND
  0
POINT
  5
494E
330
3FE5
100
AcDbEntity
  8
DEFPOINTS
 62
     0
100
AcDbPoint
 10
1103.872653912418
 20
212.8539817553696
 30
0.0
  0
POINT
  5
494F
330
3FE5
100
AcDbEntity
  8
DEFPOINTS
 62
     0
100
AcDbPoint
 10
1493.872653812602
 20
212.8539817553696
 30
0.0
  0
POINT
  5
4950
330
3FE5
100
AcDbEntity
  8
DEFPOINTS
 62
     0
100
AcDbPoint
 10
1493.872653812602
 20
92.85398175536959
 30
0.0
  0
ENDBLK
  5
3FF0
330
3FE5
100
AcDbEntity
  8
0
100
AcDbBlockEnd
  0
BLOCK
  5
3FFB
330
3FF1
100
AcDbEntity
  8
0
100
AcDbBlockBegin
  2
*D49
 70
     1
 10
0.0
 20
0.0
 30
0.0
  3
*D49
  1

  0
LINE
  5
4951
330
3FF1
100
AcDbEntity
  8
寸法線
 62
     0
370
    -2
100
AcDbLine
 10
1193.872653912418
 20
273.6039817553695
 30
0.0
 11
1193.872653912418
 21
134.8539817553696
 31
0.0
  0
LINE
  5
4952
330
3FF1
100
AcDbEntity
  8
寸法線
 62
     0
370
    -2
100
AcDbLine
 10
1403.872653912418
 20
273.6039817553695
 30
0.0
 11
1403.872653912418
 21
134.8539817553696
 31
0.0
  0
LINE
  5
4953
330
3FF1
100
AcDbEntity
  8
寸法線
 62
     0
370
    -2
100
AcDbLine
 10
1208.872653912418
 20
140.8539817553696
 30
0.0
 11
1388.872653912418
 21
140.8539817553696
 31
0.0
  0
INSERT
  5
4954
330
3FF1
100
AcDbEntity
  8
寸法線
 62
     0
370
    -2
100
AcDbBlockReference
  2
_OPEN
 10
1193.872653912418
 20
140.8539817553696
 30
0.0
 41
15.0
 42
15.0
 43
15.0
 50
180.0
  0
INSERT
  5
4955
330
3FF1
100
AcDbEntity
  8
寸法線
 62
     0
370
    -2
100
AcDbBlockReference
  2
_OPEN
 10
1403.872653912418
 20
140.8539817553696
 30
0.0
 41
15.0
 42
15.0
 43
15.0
  0
MTEXT
  5
4956
330
3FF1
100
AcDbEntity
  8
寸法線
 62
     0
100
AcDbMText
 10
1298.872653912418
 20
156.6060486845034
 30
0.0
 40
21.0
 41
0.0
 71
     5
 72
     1
  1
\A1;210
 73
     1
 44
1.0
1001
ACAD
1000
MTEXTBEGIN
1070
    73
1070
     1
1070
    44
1040
1.0
1070
    74
1070
     0
1000
MTEXTEND
  0
POINT
  5
4957
330
3FF1
100
AcDbEntity
  8
DEFPOINTS
 62
     0
100
AcDbPoint
 10
1193.872653912418
 20
278.8539817553695
 30
0.0
  0
POINT
  5
4958
330
3FF1
100
AcDbEntity
  8
DEFPOINTS
 62
     0
100
AcDbPoint
 10
1403.872653912418
 20
278.8539817553695
 30
0.0
  0
POINT
  5
4959
330
3FF1
100
AcDbEntity
  8
DEFPOINTS
 62
     0
100
AcDbPoint
 10
1403.872653912418
 20
140.8539817553696
 30
0.0
  0
ENDBLK
  5
3FFC
330
3FF1
100
AcDbEntity
  8
0
100
AcDbBlockEnd
  0
BLOCK
  5
4007
330
3FFD
100
AcDbEntity
  8
0
100
AcDbBlockBegin
  2
*D50
 70
     1
 10
0.0
 20
0.0
 30
0.0
  3
*D50
  1

  0
LINE
  5
495A
330
3FFD
100
AcDbEntity
  8
寸法線
 62
     0
370
    -2
100
AcDbLine
 10
1103.872653912418
 20
207.6039817553696
 30
0.0
 11
1103.872653912418
 21
134.8539817553696
 31
0.0
  0
LINE
  5
495B
330
3FFD
100
AcDbEntity
  8
寸法線
 62
     0
370
    -2
100
AcDbLine
 10
1193.872653912418
 20
273.6039817553695
 30
0.0
 11
1193.872653912418
 21
134.8539817553696
 31
0.0
  0
LINE
  5
495C
330
3FFD
100
AcDbEntity
  8
寸法線
 62
     0
370
    -2
100
AcDbLine
 10
1118.872653912418
 20
140.8539817553696
 30
0.0
 11
1178.872653912418
 21
140.8539817553696
 31
0.0
  0
INSERT
  5
495D
330
3FFD
100
AcDbEntity
  8
寸法線
 62
     0
370
    -2
100
AcDbBlockReference
  2
_OPEN
 10
1103.872653912418
 20
140.8539817553696
 30
0.0
 41
15.0
 42
15.0
 43
15.0
 50
180.0
  0
INSERT
  5
495E
330
3FFD
100
AcDbEntity
  8
寸法線
 62
     0
370
    -2
100
AcDbBlockReference
  2
_OPEN
 10
1193.872653912418
 20
140.8539817553696
 30
0.0
 41
15.0
 42
15.0
 43
15.0
  0
MTEXT
  5
495F
330
3FFD
100
AcDbEntity
  8
寸法線
 62
     0
100
AcDbMText
 10
1148.872653912418
 20
156.6039817553695
 30
0.0
 40
21.0
 41
0.0
 71
     5
 72
     1
  1
\A1;90
 73
     1
 44
1.0
1001
ACAD
1000
MTEXTBEGIN
1070
    73
1070
     1
1070
    44
1040
1.0
1070
    74
1070
     0
1000
MTEXTEND
  0
POINT
  5
4960
330
3FFD
100
AcDbEntity
  8
DEFPOINTS
 62
     0
100
AcDbPoint
 10
1103.872653912418
 20
212.8539817553696
 30
0.0
  0
POINT
  5
4961
330
3FFD
100
AcDbEntity
  8
DEFPOINTS
 62
     0
100
AcDbPoint
 10
1193.872653912418
 20
278.8539817553695
 30
0.0
  0
POINT
  5
4962
330
3FFD
100
AcDbEntity
  8
DEFPOINTS
 62
     0
100
AcDbPoint
 10
1193.872653912418
 20
140.8539817553696
 30
0.0
  0
ENDBLK
  5
4008
330
3FFD
100
AcDbEntity
  8
0
100
AcDbBlockEnd
  0
BLOCK
  5
4013
330
4009
100
AcDbEntity
  8
0
100
AcDbBlockBegin
  2
*D51
 70
     1
 10
0.0
 20
0.0
 30
0.0
  3
*D51
  1

  0
LINE
  5
4963
330
4009
100
AcDbEntity
  8
寸法線
 62
     0
370
    -2
100
AcDbLine
 10
1403.872653912418
 20
273.6039817553695
 30
0.0
 11
1403.872653912418
 21
134.8539817553696
 31
0.0
  0
LINE
  5
4964
330
4009
100
AcDbEntity
  8
寸法線
 62
     0
370
    -2
100
AcDbLine
 10
1493.872653812602
 20
207.6039817553696
 30
0.0
 11
1493.872653812602
 21
134.8539817553696
 31
0.0
  0
LINE
  5
4965
330
4009
100
AcDbEntity
  8
寸法線
 62
     0
370
    -2
100
AcDbLine
 10
1418.872653912418
 20
140.8539817553696
 30
0.0
 11
1478.872653812602
 21
140.8539817553696
 31
0.0
  0
INSERT
  5
4966
330
4009
100
AcDbEntity
  8
寸法線
 62
     0
370
    -2
100
AcDbBlockReference
  2
_OPEN
 10
1403.872653912418
 20
140.8539817553696
 30
0.0
 41
15.0
 42
15.0
 43
15.0
 50
180.0
  0
INSERT
  5
4967
330
4009
100
AcDbEntity
  8
寸法線
 62
     0
370
    -2
100
AcDbBlockReference
  2
_OPEN
 10
1493.872653812602
 20
140.8539817553696
 30
0.0
 41
15.0
 42
15.0
 43
15.0
  0
MTEXT
  5
4968
330
4009
100
AcDbEntity
  8
寸法線
 62
     0
100
AcDbMText
 10
1448.87265386251
 20
156.6039817553695
 30
0.0
 40
21.0
 41
0.0
 71
     5
 72
     1
  1
\A1;90
 73
     1
 44
1.0
1001
ACAD
1000
MTEXTBEGIN
1070
    73
1070
     1
1070
    44
1040
1.0
1070
    74
1070
     0
1000
MTEXTEND
  0
POINT
  5
4969
330
4009
100
AcDbEntity
  8
DEFPOINTS
 62
     0
100
AcDbPoint
 10
1403.872653912418
 20
278.8539817553695
 30
0.0
  0
POINT
  5
496A
330
4009
100
AcDbEntity
  8
DEFPOINTS
 62
     0
100
AcDbPoint
 10
1493.872653812602
 20
212.8539817553696
 30
0.0
  0
POINT
  5
496B
330
4009
100
AcDbEntity
  8
DEFPOINTS
 62
     0
100
AcDbPoint
 10
1493.872653812602
 20
140.8539817553696
 30
0.0
  0
ENDBLK
  5
4014
330
4009
100
AcDbEntity
  8
0
100
AcDbBlockEnd
  0
BLOCK
  5
40ED
330
40E3
100
AcDbEntity
  8
0
100
AcDbBlockBegin
  2
*D56
 70
     1
 10
0.0
 20
0.0
 30
0.0
  3
*D56
  1

  0
LINE
  5
496C
330
40E3
100
AcDbEntity
  8
寸法線
 62
     0
370
    -2
100
AcDbLine
 10
1499.122653912418
 20
212.8539817553699
 30
0.0
 11
1619.872653912418
 21
212.8539817553699
 31
0.0
  0
LINE
  5
496D
330
40E3
100
AcDbEntity
  8
寸法線
 62
     0
370
    -2
100
AcDbLine
 10
1499.122653912418
 20
602.8539816555536
 30
0.0
 11
1619.872653912418
 21
602.8539816555536
 31
0.0
  0
LINE
  5
496E
330
40E3
100
AcDbEntity
  8
寸法線
 62
     0
370
    -2
100
AcDbLine
 10
1613.872653912418
 20
227.8539817553699
 30
0.0
 11
1613.872653912418
 21
587.8539816555536
 31
0.0
  0
INSERT
  5
496F
330
40E3
100
AcDbEntity
  8
寸法線
 62
     0
370
    -2
100
AcDbBlockReference
  2
_OPEN
 10
1613.872653912418
 20
212.8539817553699
 30
0.0
 41
15.0
 42
15.0
 43
15.0
 50
270.0
  0
INSERT
  5
4970
330
40E3
100
AcDbEntity
  8
寸法線
 62
     0
370
    -2
100
AcDbBlockReference
  2
_OPEN
 10
1613.872653912418
 20
602.8539816555536
 30
0.0
 41
15.0
 42
15.0
 43
15.0
 50
90.0
  0
MTEXT
  5
4971
330
40E3
100
AcDbEntity
  8
寸法線
 62
     0
100
AcDbMText
 10
1598.122653912418
 20
407.8539817054616
 30
0.0
 40
21.0
 41
0.0
 71
     5
 72
     1
  1
\A1;390
 11
0.0000000000000001
 21
1.0
 31
0.0
 73
     1
 44
1.0
1001
ACAD
1000
MTEXTBEGIN
1070
    73
1070
     1
1070
    44
1040
1.0
1070
    74
1070
     0
1000
MTEXTEND
  0
POINT
  5
4972
330
40E3
100
AcDbEntity
  8
DEFPOINTS
 62
     0
100
AcDbPoint
 10
1493.872653912418
 20
212.8539817553699
 30
0.0
  0
POINT
  5
4973
330
40E3
100
AcDbEntity
  8
DEFPOINTS
 62
     0
100
AcDbPoint
 10
1493.872653912418
 20
602.8539816555536
 30
0.0
  0
POINT
  5
4974
330
40E3
100
AcDbEntity
  8
DEFPOINTS
 62
     0
100
AcDbPoint
 10
1613.872653912418
 20
602.8539816555536
 30
0.0
  0
ENDBLK
  5
40EE
330
40E3
100
AcDbEntity
  8
0
100
AcDbBlockEnd
  0
BLOCK
  5
40F9
330
40EF
100
AcDbEntity
  8
0
100
AcDbBlockBegin
  2
*D57
 70
     1
 10
0.0
 20
0.0
 30
0.0
  3
*D57
  1

  0
LINE
  5
4975
330
40EF
100
AcDbEntity
  8
寸法線
 62
     0
370
    -2
100
AcDbLine
 10
1438.122653912417
 20
302.8539817553695
 30
0.0
 11
1571.872653912418
 21
302.8539817553695
 31
0.0
  0
LINE
  5
4976
330
40EF
100
AcDbEntity
  8
寸法線
 62
     0
370
    -2
100
AcDbLine
 10
1438.122653912417
 20
512.8539817553696
 30
0.0
 11
1571.872653912418
 21
512.8539817553696
 31
0.0
  0
LINE
  5
4977
330
40EF
100
AcDbEntity
  8
寸法線
 62
     0
370
    -2
100
AcDbLine
 10
1565.872653912418
 20
317.8539817553695
 30
0.0
 11
1565.872653912418
 21
497.8539817553696
 31
0.0
  0
INSERT
  5
4978
330
40EF
100
AcDbEntity
  8
寸法線
 62
     0
370
    -2
100
AcDbBlockReference
  2
_OPEN
 10
1565.872653912418
 20
302.8539817553695
 30
0.0
 41
15.0
 42
15.0
 43
15.0
 50
270.0
  0
INSERT
  5
4979
330
40EF
100
AcDbEntity
  8
寸法線
 62
     0
370
    -2
100
AcDbBlockReference
  2
_OPEN
 10
1565.872653912418
 20
512.8539817553696
 30
0.0
 41
15.0
 42
15.0
 43
15.0
 50
90.0
  0
MTEXT
  5
497A
330
40EF
100
AcDbEntity
  8
寸法線
 62
     0
100
AcDbMText
 10
1550.120586983284
 20
407.8539817553696
 30
0.0
 40
21.0
 41
0.0
 71
     5
 72
     1
  1
\A1;210
 11
0.0000000000000001
 21
1.0
 31
0.0
 73
     1
 44
1.0
1001
ACAD
1000
MTEXTBEGIN
1070
    73
1070
     1
1070
    44
1040
1.0
1070
    74
1070
     0
1000
MTEXTEND
  0
POINT
  5
497B
330
40EF
100
AcDbEntity
  8
DEFPOINTS
 62
     0
100
AcDbPoint
 10
1432.872653912417
 20
302.8539817553695
 30
0.0
  0
POINT
  5
497C
330
40EF
100
AcDbEntity
  8
DEFPOINTS
 62
     0
100
AcDbPoint
 10
1432.872653912417
 20
512.8539817553696
 30
0.0
  0
POINT
  5
497D
330
40EF
100
AcDbEntity
  8
DEFPOINTS
 62
     0
100
AcDbPoint
 10
1565.872653912418
 20
512.8539817553696
 30
0.0
  0
ENDBLK
  5
40FA
330
40EF
100
AcDbEntity
  8
0
100
AcDbBlockEnd
  0
BLOCK
  5
4105
330
40FB
100
AcDbEntity
  8
0
100
AcDbBlockBegin
  2
*D58
 70
     1
 10
0.0
 20
0.0
 30
0.0
  3
*D58
  1

  0
LINE
  5
497E
330
40FB
100
AcDbEntity
  8
寸法線
 62
     0
370
    -2
100
AcDbLine
 10
1499.122653912418
 20
212.8539817553699
 30
0.0
 11
1571.872653912418
 21
212.8539817553699
 31
0.0
  0
LINE
  5
497F
330
40FB
100
AcDbEntity
  8
寸法線
 62
     0
370
    -2
100
AcDbLine
 10
1438.122653912417
 20
302.8539817553695
 30
0.0
 11
1571.872653912418
 21
302.8539817553695
 31
0.0
  0
LINE
  5
4980
330
40FB
100
AcDbEntity
  8
寸法線
 62
     0
370
    -2
100
AcDbLine
 10
1565.872653912418
 20
227.8539817553699
 30
0.0
 11
1565.872653912418
 21
287.8539817553695
 31
0.0
  0
INSERT
  5
4981
330
40FB
100
AcDbEntity
  8
寸法線
 62
     0
370
    -2
100
AcDbBlockReference
  2
_OPEN
 10
1565.872653912418
 20
212.8539817553699
 30
0.0
 41
15.0
 42
15.0
 43
15.0
 50
270.0
  0
INSERT
  5
4982
330
40FB
100
AcDbEntity
  8
寸法線
 62
     0
370
    -2
100
AcDbBlockReference
  2
_OPEN
 10
1565.872653912418
 20
302.8539817553695
 30
0.0
 41
15.0
 42
15.0
 43
15.0
 50
90.0
  0
MTEXT
  5
4983
330
40FB
100
AcDbEntity
  8
寸法線
 62
     0
100
AcDbMText
 10
1550.122653912418
 20
257.8539817553696
 30
0.0
 40
21.0
 41
0.0
 71
     5
 72
     1
  1
\A1;90
 11
0.0000000000000001
 21
1.0
 31
0.0
 73
     1
 44
1.0
1001
ACAD
1000
MTEXTBEGIN
1070
    73
1070
     1
1070
    44
1040
1.0
1070
    74
1070
     0
1000
MTEXTEND
  0
POINT
  5
4984
330
40FB
100
AcDbEntity
  8
DEFPOINTS
 62
     0
100
AcDbPoint
 10
1493.872653912418
 20
212.8539817553699
 30
0.0
  0
POINT
  5
4985
330
40FB
100
AcDbEntity
  8
DEFPOINTS
 62
     0
100
AcDbPoint
 10
1432.872653912417
 20
302.8539817553695
 30
0.0
  0
POINT
  5
4986
330
40FB
100
AcDbEntity
  8
DEFPOINTS
 62
     0
100
AcDbPoint
 10
1565.872653912418
 20
302.8539817553695
 30
0.0
  0
ENDBLK
  5
4106
330
40FB
100
AcDbEntity
  8
0
100
AcDbBlockEnd
  0
BLOCK
  5
4111
330
4107
100
AcDbEntity
  8
0
100
AcDbBlockBegin
  2
*D59
 70
     1
 10
0.0
 20
0.0
 30
0.0
  3
*D59
  1

  0
LINE
  5
4987
330
4107
100
AcDbEntity
  8
寸法線
 62
     0
370
    -2
100
AcDbLine
 10
1438.122653912417
 20
512.8539817553696
 30
0.0
 11
1571.872653912418
 21
512.8539817553696
 31
0.0
  0
LINE
  5
4988
330
4107
100
AcDbEntity
  8
寸法線
 62
     0
370
    -2
100
AcDbLine
 10
1499.122653912418
 20
602.8539816555536
 30
0.0
 11
1571.872653912418
 21
602.8539816555536
 31
0.0
  0
LINE
  5
4989
330
4107
100
AcDbEntity
  8
寸法線
 62
     0
370
    -2
100
AcDbLine
 10
1565.872653912418
 20
527.8539817553697
 30
0.0
 11
1565.872653912418
 21
587.8539816555536
 31
0.0
  0
INSERT
  5
498A
330
4107
100
AcDbEntity
  8
寸法線
 62
     0
370
    -2
100
AcDbBlockReference
  2
_OPEN
 10
1565.872653912418
 20
512.8539817553696
 30
0.0
 41
15.0
 42
15.0
 43
15.0
 50
270.0
  0
INSERT
  5
498B
330
4107
100
AcDbEntity
  8
寸法線
 62
     0
370
    -2
100
AcDbBlockReference
  2
_OPEN
 10
1565.872653912418
 20
602.8539816555536
 30
0.0
 41
15.0
 42
15.0
 43
15.0
 50
90.0
  0
MTEXT
  5
498C
330
4107
100
AcDbEntity
  8
寸法線
 62
     0
100
AcDbMText
 10
1550.122653912418
 20
557.8539817054616
 30
0.0
 40
21.0
 41
0.0
 71
     5
 72
     1
  1
\A1;90
 11
0.0000000000000001
 21
1.0
 31
0.0
 73
     1
 44
1.0
1001
ACAD
1000
MTEXTBEGIN
1070
    73
1070
     1
1070
    44
1040
1.0
1070
    74
1070
     0
1000
MTEXTEND
  0
POINT
  5
498D
330
4107
100
AcDbEntity
  8
DEFPOINTS
 62
     0
100
AcDbPoint
 10
1432.872653912417
 20
512.8539817553696
 30
0.0
  0
POINT
  5
498E
330
4107
100
AcDbEntity
  8
DEFPOINTS
 62
     0
100
AcDbPoint
 10
1493.872653912418
 20
602.8539816555536
 30
0.0
  0
POINT
  5
498F
330
4107
100
AcDbEntity
  8
DEFPOINTS
 62
     0
100
AcDbPoint
 10
1565.872653912418
 20
602.8539816555536
 30
0.0
  0
ENDBLK
  5
4112
330
4107
100
AcDbEntity
  8
0
100
AcDbBlockEnd
  0
BLOCK
  5
41FE
330
41F4
100
AcDbEntity
  8
0
100
AcDbBlockBegin
  2
*D63
 70
     1
 10
0.0
 20
0.0
 30
0.0
  3
*D63
  1

  0
LINE
  5
4990
330
41F4
100
AcDbEntity
  8
寸法線
 62
     0
370
    -2
100
AcDbLine
 10
1093.623
 20
260.3539817553697
 30
0.0
 11
1049.872653912418
 21
260.3539817553697
 31
0.0
  0
LINE
  5
4991
330
41F4
100
AcDbEntity
  8
寸法線
 62
     0
370
    -2
100
AcDbLine
 10
1093.623
 20
555.3539817553696
 30
0.0
 11
1049.872653912418
 21
555.3539817553696
 31
0.0
  0
LINE
  5
4992
330
41F4
100
AcDbEntity
  8
寸法線
 62
     0
370
    -2
100
AcDbLine
 10
1055.872653912418
 20
275.3539817553697
 30
0.0
 11
1055.872653912418
 21
540.3539817553697
 31
0.0
  0
INSERT
  5
4993
330
41F4
100
AcDbEntity
  8
寸法線
 62
     0
370
    -2
100
AcDbBlockReference
  2
_OPEN
 10
1055.872653912418
 20
260.3539817553697
 30
0.0
 41
15.0
 42
15.0
 43
15.0
 50
270.0
  0
INSERT
  5
4994
330
41F4
100
AcDbEntity
  8
寸法線
 62
     0
370
    -2
100
AcDbBlockReference
  2
_OPEN
 10
1055.872653912418
 20
555.3539817553696
 30
0.0
 41
15.0
 42
15.0
 43
15.0
 50
90.0
  0
MTEXT
  5
4995
330
41F4
100
AcDbEntity
  8
寸法線
 62
     0
100
AcDbMText
 10
1040.120586983284
 20
407.8539817553696
 30
0.0
 40
21.0
 41
0.0
 71
     5
 72
     1
  1
\A1;295
 11
0.0000000000000001
 21
1.0
 31
0.0
 73
     1
 44
1.0
1001
ACAD
1000
MTEXTBEGIN
1070
    73
1070
     1
1070
    44
1040
1.0
1070
    74
1070
     0
1000
MTEXTEND
  0
POINT
  5
4996
330
41F4
100
AcDbEntity
  8
DEFPOINTS
 62
     0
100
AcDbPoint
 10
1098.873
 20
260.3539817553697
 30
0.0
  0
POINT
  5
4997
330
41F4
100
AcDbEntity
  8
DEFPOINTS
 62
     0
100
AcDbPoint
 10
1098.873
 20
555.3539817553696
 30
0.0
  0
POINT
  5
4998
330
41F4
100
AcDbEntity
  8
DEFPOINTS
 62
     0
100
AcDbPoint
 10
1055.872653912418
 20
555.3539817553696
 30
0.0
  0
ENDBLK
  5
41FF
330
41F4
100
AcDbEntity
  8
0
100
AcDbBlockEnd
  0
BLOCK
  5
420A
330
4200
100
AcDbEntity
  8
0
100
AcDbBlockBegin
  2
*D64
 70
     1
 10
0.0
 20
0.0
 30
0.0
  3
*D64
  1

  0
LINE
  5
4999
330
4200
100
AcDbEntity
  8
寸法線
 62
     0
370
    -2
100
AcDbLine
 10
1098.622653912418
 20
212.8539817553696
 30
0.0
 11
1049.872653912417
 21
212.8539817553696
 31
0.0
  0
LINE
  5
499A
330
4200
100
AcDbEntity
  8
寸法線
 62
     0
370
    -2
100
AcDbLine
 10
1093.623
 20
260.3539817553697
 30
0.0
 11
1049.872653912417
 21
260.3539817553697
 31
0.0
  0
LINE
  5
499B
330
4200
100
AcDbEntity
  8
寸法線
 62
     0
370
    -2
100
AcDbLine
 10
1055.872653912417
 20
227.8539817553696
 30
0.0
 11
1055.872653912417
 21
245.3539817553696
 31
0.0
  0
INSERT
  5
499C
330
4200
100
AcDbEntity
  8
寸法線
 62
     0
370
    -2
100
AcDbBlockReference
  2
_OPEN
 10
1055.872653912417
 20
212.8539817553696
 30
0.0
 41
15.0
 42
15.0
 43
15.0
 50
270.0
  0
INSERT
  5
499D
330
4200
100
AcDbEntity
  8
寸法線
 62
     0
370
    -2
100
AcDbBlockReference
  2
_OPEN
 10
1055.872653912417
 20
260.3539817553697
 30
0.0
 41
15.0
 42
15.0
 43
15.0
 50
90.0
  0
MTEXT
  5
499E
330
4200
100
AcDbEntity
  8
寸法線
 62
     0
100
AcDbMText
 10
1040.122653912417
 20
236.6039817553698
 30
0.0
 40
21.0
 41
0.0
 71
     5
 72
     1
  1
\A1;47.5
 11
0.0000000000000001
 21
1.0
 31
0.0
 73
     1
 44
1.0
1001
ACAD
1000
MTEXTBEGIN
1070
    73
1070
     1
1070
    44
1040
1.0
1070
    74
1070
     0
1000
MTEXTEND
  0
POINT
  5
499F
330
4200
100
AcDbEntity
  8
DEFPOINTS
 62
     0
100
AcDbPoint
 10
1103.872653912418
 20
212.8539817553696
 30
0.0
  0
POINT
  5
49A0
330
4200
100
AcDbEntity
  8
DEFPOINTS
 62
     0
100
AcDbPoint
 10
1098.873
 20
260.3539817553697
 30
0.0
  0
POINT
  5
49A1
330
4200
100
AcDbEntity
  8
DEFPOINTS
 62
     0
100
AcDbPoint
 10
1055.872653912417
 20
260.3539817553697
 30
0.0
  0
ENDBLK
  5
420B
330
4200
100
AcDbEntity
  8
0
100
AcDbBlockEnd
  0
BLOCK
  5
4216
330
420C
100
AcDbEntity
  8
0
100
AcDbBlockBegin
  2
*D65
 70
     1
 10
0.0
 20
0.0
 30
0.0
  3
*D65
  1

  0
LINE
  5
49A2
330
420C
100
AcDbEntity
  8
寸法線
 62
     0
370
    -2
100
AcDbLine
 10
1093.623
 20
555.3539817553696
 30
0.0
 11
1049.872653912418
 21
555.3539817553696
 31
0.0
  0
LINE
  5
49A3
330
420C
100
AcDbEntity
  8
寸法線
 62
     0
370
    -2
100
AcDbLine
 10
1098.622653912418
 20
602.8539817553697
 30
0.0
 11
1049.872653912418
 21
602.8539817553697
 31
0.0
  0
LINE
  5
49A4
330
420C
100
AcDbEntity
  8
寸法線
 62
     0
370
    -2
100
AcDbLine
 10
1055.872653912418
 20
570.3539817553696
 30
0.0
 11
1055.872653912418
 21
587.8539817553697
 31
0.0
  0
INSERT
  5
49A5
330
420C
100
AcDbEntity
  8
寸法線
 62
     0
370
    -2
100
AcDbBlockReference
  2
_OPEN
 10
1055.872653912418
 20
555.3539817553696
 30
0.0
 41
15.0
 42
15.0
 43
15.0
 50
270.0
  0
INSERT
  5
49A6
330
420C
100
AcDbEntity
  8
寸法線
 62
     0
370
    -2
100
AcDbBlockReference
  2
_OPEN
 10
1055.872653912418
 20
602.8539817553697
 30
0.0
 41
15.0
 42
15.0
 43
15.0
 50
90.0
  0
MTEXT
  5
49A7
330
420C
100
AcDbEntity
  8
寸法線
 62
     0
100
AcDbMText
 10
1040.122653912418
 20
579.1039817553698
 30
0.0
 40
21.0
 41
0.0
 71
     5
 72
     1
  1
\A1;47.5
 11
0.0000000000000001
 21
1.0
 31
0.0
 73
     1
 44
1.0
1001
ACAD
1000
MTEXTBEGIN
1070
    73
1070
     1
1070
    44
1040
1.0
1070
    74
1070
     0
1000
MTEXTEND
  0
POINT
  5
49A8
330
420C
100
AcDbEntity
  8
DEFPOINTS
 62
     0
100
AcDbPoint
 10
1098.873
 20
555.3539817553696
 30
0.0
  0
POINT
  5
49A9
330
420C
100
AcDbEntity
  8
DEFPOINTS
 62
     0
100
AcDbPoint
 10
1103.872653912418
 20
602.8539817553697
 30
0.0
  0
POINT
  5
49AA
330
420C
100
AcDbEntity
  8
DEFPOINTS
 62
     0
100
AcDbPoint
 10
1055.872653912418
 20
602.8539817553697
 30
0.0
  0
ENDBLK
  5
4217
330
420C
100
AcDbEntity
  8
0
100
AcDbBlockEnd
  0
BLOCK
  5
4280
330
4276
100
AcDbEntity
  8
0
100
AcDbBlockBegin
  2
*D66
 70
     1
 10
0.0
 20
0.0
 30
0.0
  3
*D66
  1

  0
LINE
  5
49AB
330
4276
100
AcDbEntity
  8
寸法線
 62
     0
370
    -2
100
AcDbLine
 10
1151.372653912418
 20
613.1036356677874
 30
0.0
 11
1151.372653912418
 21
656.8539817553693
 31
0.0
  0
LINE
  5
49AC
330
4276
100
AcDbEntity
  8
寸法線
 62
     0
370
    -2
100
AcDbLine
 10
1446.372653912418
 20
613.1036356677872
 30
0.0
 11
1446.372653912418
 21
656.8539817553693
 31
0.0
  0
LINE
  5
49AD
330
4276
100
AcDbEntity
  8
寸法線
 62
     0
370
    -2
100
AcDbLine
 10
1166.372653912418
 20
650.8539817553693
 30
0.0
 11
1431.372653912418
 21
650.8539817553693
 31
0.0
  0
INSERT
  5
49AE
330
4276
100
AcDbEntity
  8
寸法線
 62
     0
370
    -2
100
AcDbBlockReference
  2
_OPEN
 10
1151.372653912418
 20
650.8539817553693
 30
0.0
 41
15.0
 42
15.0
 43
15.0
 50
180.0
  0
INSERT
  5
49AF
330
4276
100
AcDbEntity
  8
寸法線
 62
     0
370
    -2
100
AcDbBlockReference
  2
_OPEN
 10
1446.372653912418
 20
650.8539817553693
 30
0.0
 41
15.0
 42
15.0
 43
15.0
  0
MTEXT
  5
49B0
330
4276
100
AcDbEntity
  8
寸法線
 62
     0
100
AcDbMText
 10
1298.872653912418
 20
666.6060486845032
 30
0.0
 40
21.0
 41
0.0
 71
     5
 72
     1
  1
\A1;295
 73
     1
 44
1.0
1001
ACAD
1000
MTEXTBEGIN
1070
    73
1070
     1
1070
    44
1040
1.0
1070
    74
1070
     0
1000
MTEXTEND
  0
POINT
  5
49B1
330
4276
100
AcDbEntity
  8
DEFPOINTS
 62
     0
100
AcDbPoint
 10
1151.372653912418
 20
607.8536356677874
 30
0.0
  0
POINT
  5
49B2
330
4276
100
AcDbEntity
  8
DEFPOINTS
 62
     0
100
AcDbPoint
 10
1446.372653912418
 20
607.8536356677872
 30
0.0
  0
POINT
  5
49B3
330
4276
100
AcDbEntity
  8
DEFPOINTS
 62
     0
100
AcDbPoint
 10
1446.372653912418
 20
650.8539817553693
 30
0.0
  0
ENDBLK
  5
4281
330
4276
100
AcDbEntity
  8
0
100
AcDbBlockEnd
  0
BLOCK
  5
428C
330
4282
100
AcDbEntity
  8
0
100
AcDbBlockBegin
  2
*D67
 70
     1
 10
0.0
 20
0.0
 30
0.0
  3
*D67
  1

  0
LINE
  5
49B4
330
4282
100
AcDbEntity
  8
寸法線
 62
     0
370
    -2
100
AcDbLine
 10
1103.872653912418
 20
608.1039817553698
 30
0.0
 11
1103.872653912418
 21
656.8539817553706
 31
0.0
  0
LINE
  5
49B5
330
4282
100
AcDbEntity
  8
寸法線
 62
     0
370
    -2
100
AcDbLine
 10
1151.372653912418
 20
613.1036356677874
 30
0.0
 11
1151.372653912418
 21
656.8539817553706
 31
0.0
  0
LINE
  5
49B6
330
4282
100
AcDbEntity
  8
寸法線
 62
     0
370
    -2
100
AcDbLine
 10
1118.872653912418
 20
650.8539817553707
 30
0.0
 11
1136.372653912418
 21
650.8539817553707
 31
0.0
  0
INSERT
  5
49B7
330
4282
100
AcDbEntity
  8
寸法線
 62
     0
370
    -2
100
AcDbBlockReference
  2
_OPEN
 10
1103.872653912418
 20
650.8539817553707
 30
0.0
 41
15.0
 42
15.0
 43
15.0
 50
180.0
  0
INSERT
  5
49B8
330
4282
100
AcDbEntity
  8
寸法線
 62
     0
370
    -2
100
AcDbBlockReference
  2
_OPEN
 10
1151.372653912418
 20
650.8539817553707
 30
0.0
 41
15.0
 42
15.0
 43
15.0
  0
MTEXT
  5
49B9
330
4282
100
AcDbEntity
  8
寸法線
 62
     0
100
AcDbMText
 10
1127.622653912418
 20
666.6039817553707
 30
0.0
 40
21.0
 41
0.0
 71
     5
 72
     1
  1
\A1;47.5
 73
     1
 44
1.0
1001
ACAD
1000
MTEXTBEGIN
1070
    73
1070
     1
1070
    44
1040
1.0
1070
    74
1070
     0
1000
MTEXTEND
  0
POINT
  5
49BA
330
4282
100
AcDbEntity
  8
DEFPOINTS
 62
     0
100
AcDbPoint
 10
1103.872653912418
 20
602.8539817553697
 30
0.0
  0
POINT
  5
49BB
330
4282
100
AcDbEntity
  8
DEFPOINTS
 62
     0
100
AcDbPoint
 10
1151.372653912418
 20
607.8536356677874
 30
0.0
  0
POINT
  5
49BC
330
4282
100
AcDbEntity
  8
DEFPOINTS
 62
     0
100
AcDbPoint
 10
1151.372653912418
 20
650.8539817553707
 30
0.0
  0
ENDBLK
  5
428D
330
4282
100
AcDbEntity
  8
0
100
AcDbBlockEnd
  0
BLOCK
  5
4298
330
428E
100
AcDbEntity
  8
0
100
AcDbBlockBegin
  2
*D68
 70
     1
 10
0.0
 20
0.0
 30
0.0
  3
*D68
  1

  0
LINE
  5
49BD
330
428E
100
AcDbEntity
  8
寸法線
 62
     0
370
    -2
100
AcDbLine
 10
1446.372653912418
 20
613.1036356677872
 30
0.0
 11
1446.372653912418
 21
656.8539817553693
 31
0.0
  0
LINE
  5
49BE
330
428E
100
AcDbEntity
  8
寸法線
 62
     0
370
    -2
100
AcDbLine
 10
1493.872653912418
 20
608.1039817553693
 30
0.0
 11
1493.872653912418
 21
656.8539817553693
 31
0.0
  0
LINE
  5
49BF
330
428E
100
AcDbEntity
  8
寸法線
 62
     0
370
    -2
100
AcDbLine
 10
1461.372653912418
 20
650.8539817553693
 30
0.0
 11
1478.872653912418
 21
650.8539817553693
 31
0.0
  0
INSERT
  5
49C0
330
428E
100
AcDbEntity
  8
寸法線
 62
     0
370
    -2
100
AcDbBlockReference
  2
_OPEN
 10
1446.372653912418
 20
650.8539817553693
 30
0.0
 41
15.0
 42
15.0
 43
15.0
 50
180.0
  0
INSERT
  5
49C1
330
428E
100
AcDbEntity
  8
寸法線
 62
     0
370
    -2
100
AcDbBlockReference
  2
_OPEN
 10
1493.872653912418
 20
650.8539817553693
 30
0.0
 41
15.0
 42
15.0
 43
15.0
  0
MTEXT
  5
49C2
330
428E
100
AcDbEntity
  8
寸法線
 62
     0
100
AcDbMText
 10
1470.122653912418
 20
666.6039817553693
 30
0.0
 40
21.0
 41
0.0
 71
     5
 72
     1
  1
\A1;47.5
 73
     1
 44
1.0
1001
ACAD
1000
MTEXTBEGIN
1070
    73
1070
     1
1070
    44
1040
1.0
1070
    74
1070
     0
1000
MTEXTEND
  0
POINT
  5
49C3
330
428E
100
AcDbEntity
  8
DEFPOINTS
 62
     0
100
AcDbPoint
 10
1446.372653912418
 20
607.8536356677872
 30
0.0
  0
POINT
  5
49C4
330
428E
100
AcDbEntity
  8
DEFPOINTS
 62
     0
100
AcDbPoint
 10
1493.872653912418
 20
602.8539817553693
 30
0.0
  0
POINT
  5
49C5
330
428E
100
AcDbEntity
  8
DEFPOINTS
 62
     0
100
AcDbPoint
 10
1493.872653912418
 20
650.8539817553693
 30
0.0
  0
ENDBLK
  5
4299
330
428E
100
AcDbEntity
  8
0
100
AcDbBlockEnd
  0
BLOCK
  5
44BE
330
44B4
100
AcDbEntity
  8
0
100
AcDbBlockBegin
  2
*D75
 70
     1
 10
0.0
 20
0.0
 30
0.0
  3
*D75
  1

  0
LINE
  5
49C6
330
44B4
100
AcDbEntity
  8
寸法線
 62
     0
370
    -2
100
AcDbLine
 10
-208.241
 20
217.6039817553695
 30
0.0
 11
-208.241
 21
86.85436396360405
 31
0.0
  0
LINE
  5
49C7
330
44B4
100
AcDbEntity
  8
寸法線
 62
     0
370
    -2
100
AcDbLine
 10
161.759
 20
217.6039817553695
 30
0.0
 11
161.759
 21
86.85436396360405
 31
0.0
  0
LINE
  5
49C8
330
44B4
100
AcDbEntity
  8
寸法線
 62
     0
370
    -2
100
AcDbLine
 10
-193.241
 20
92.85436396360404
 30
0.0
 11
146.759
 21
92.85436396360404
 31
0.0
  0
INSERT
  5
49C9
330
44B4
100
AcDbEntity
  8
寸法線
 62
     0
370
    -2
100
AcDbBlockReference
  2
_OPEN
 10
-208.241
 20
92.85436396360404
 30
0.0
 41
15.0
 42
15.0
 43
15.0
 50
180.0
  0
INSERT
  5
49CA
330
44B4
100
AcDbEntity
  8
寸法線
 62
     0
370
    -2
100
AcDbBlockReference
  2
_OPEN
 10
161.759
 20
92.85436396360404
 30
0.0
 41
15.0
 42
15.0
 43
15.0
  0
MTEXT
  5
49CB
330
44B4
100
AcDbEntity
  8
寸法線
 62
     0
100
AcDbMText
 10
-23.241
 20
108.604363963604
 30
0.0
 40
21.0
 41
0.0
 71
     5
 72
     1
  1
\A1;370
 73
     1
 44
1.0
1001
ACAD
1000
MTEXTBEGIN
1070
    73
1070
     1
1070
    44
1040
1.0
1070
    74
1070
     0
1000
MTEXTEND
  0
POINT
  5
49CC
330
44B4
100
AcDbEntity
  8
DEFPOINTS
 62
     0
100
AcDbPoint
 10
-208.241
 20
222.8539817553695
 30
0.0
  0
POINT
  5
49CD
330
44B4
100
AcDbEntity
  8
DEFPOINTS
 62
     0
100
AcDbPoint
 10
161.759
 20
222.8539817553695
 30
0.0
  0
POINT
  5
49CE
330
44B4
100
AcDbEntity
  8
DEFPOINTS
 62
     0
100
AcDbPoint
 10
161.759
 20
92.85436396360404
 30
0.0
  0
ENDBLK
  5
44BF
330
44B4
100
AcDbEntity
  8
0
100
AcDbBlockEnd
  0
BLOCK
  5
44CA
330
44C0
100
AcDbEntity
  8
0
100
AcDbBlockBegin
  2
*D76
 70
     1
 10
0.0
 20
0.0
 30
0.0
  3
*D76
  1

  0
LINE
  5
49CF
330
44C0
100
AcDbEntity
  8
寸法線
 62
     0
370
    -2
100
AcDbLine
 10
-98.24110739263323
 20
307.6039817553696
 30
0.0
 11
-98.24110739263323
 21
134.854363963604
 31
0.0
  0
LINE
  5
49D0
330
44C0
100
AcDbEntity
  8
寸法線
 62
     0
370
    -2
100
AcDbLine
 10
51.75889260736667
 20
307.6039817553696
 30
0.0
 11
51.75889260736667
 21
134.854363963604
 31
0.0
  0
LINE
  5
49D1
330
44C0
100
AcDbEntity
  8
寸法線
 62
     0
370
    -2
100
AcDbLine
 10
-83.24110739263325
 20
140.854363963604
 30
0.0
 11
36.75889260736668
 21
140.854363963604
 31
0.0
  0
INSERT
  5
49D2
330
44C0
100
AcDbEntity
  8
寸法線
 62
     0
370
    -2
100
AcDbBlockReference
  2
_OPEN
 10
-98.24110739263323
 20
140.854363963604
 30
0.0
 41
15.0
 42
15.0
 43
15.0
 50
180.0
  0
INSERT
  5
49D3
330
44C0
100
AcDbEntity
  8
寸法線
 62
     0
370
    -2
100
AcDbBlockReference
  2
_OPEN
 10
51.75889260736667
 20
140.854363963604
 30
0.0
 41
15.0
 42
15.0
 43
15.0
  0
MTEXT
  5
49D4
330
44C0
100
AcDbEntity
  8
寸法線
 62
     0
100
AcDbMText
 10
-23.24110739263328
 20
156.604363963604
 30
0.0
 40
21.0
 41
0.0
 71
     5
 72
     1
  1
\A1;a
 73
     1
 44
1.0
1001
ACAD
1000
MTEXTBEGIN
1070
    73
1070
     1
1070
    44
1040
1.0
1070
    74
1070
     0
1000
MTEXTEND
  0
POINT
  5
49D5
330
44C0
100
AcDbEntity
  8
DEFPOINTS
 62
     0
100
AcDbPoint
 10
-98.24110739263323
 20
312.8539817553696
 30
0.0
  0
POINT
  5
49D6
330
44C0
100
AcDbEntity
  8
DEFPOINTS
 62
     0
100
AcDbPoint
 10
51.75889260736667
 20
312.8539817553696
 30
0.0
  0
POINT
  5
49D7
330
44C0
100
AcDbEntity
  8
DEFPOINTS
 62
     0
100
AcDbPoint
 10
51.75889260736667
 20
140.854363963604
 30
0.0
  0
ENDBLK
  5
44CB
330
44C0
100
AcDbEntity
  8
0
100
AcDbBlockEnd
  0
BLOCK
  5
4525
330
451B
100
AcDbEntity
  8
0
100
AcDbBlockBegin
  2
*D79
 70
     1
 10
0.0
 20
0.0
 30
0.0
  3
*D79
  1

  0
LINE
  5
49D8
330
451B
100
AcDbEntity
  8
寸法線
 62
     0
370
    -2
100
AcDbLine
 10
77.00889260736669
 20
332.8539817553696
 30
0.0
 11
239.759
 21
332.8539817553695
 31
0.0
  0
LINE
  5
49D9
330
451B
100
AcDbEntity
  8
寸法線
 62
     0
370
    -2
100
AcDbLine
 10
77.00889260736669
 20
482.8539817553696
 30
0.0
 11
239.759
 21
482.8539817553695
 31
0.0
  0
LINE
  5
49DA
330
451B
100
AcDbEntity
  8
寸法線
 62
     0
370
    -2
100
AcDbLine
 10
233.759
 20
347.8539817553695
 30
0.0
 11
233.7590000000001
 21
467.8539817553696
 31
0.0
  0
INSERT
  5
49DB
330
451B
100
AcDbEntity
  8
寸法線
 62
     0
370
    -2
100
AcDbBlockReference
  2
_OPEN
 10
233.759
 20
332.8539817553695
 30
0.0
 41
15.0
 42
15.0
 43
15.0
 50
270.0
  0
INSERT
  5
49DC
330
451B
100
AcDbEntity
  8
寸法線
 62
     0
370
    -2
100
AcDbBlockReference
  2
_OPEN
 10
233.7590000000001
 20
482.8539817553695
 30
0.0
 41
15.0
 42
15.0
 43
15.0
 50
90.0
  0
MTEXT
  5
49DD
330
451B
100
AcDbEntity
  8
寸法線
 62
     0
100
AcDbMText
 10
218.009
 20
407.8539817553696
 30
0.0
 40
21.0
 41
0.0
 71
     5
 72
     1
  1
\A1;b
 11
0.0000000000000001
 21
1.0
 31
0.0
 73
     1
 44
1.0
1001
ACAD
1000
MTEXTBEGIN
1070
    73
1070
     1
1070
    44
1040
1.0
1070
    74
1070
     0
1000
MTEXTEND
  0
POINT
  5
49DE
330
451B
100
AcDbEntity
  8
DEFPOINTS
 62
     0
100
AcDbPoint
 10
71.75889260736669
 20
332.8539817553696
 30
0.0
  0
POINT
  5
49DF
330
451B
100
AcDbEntity
  8
DEFPOINTS
 62
     0
100
AcDbPoint
 10
71.75889260736669
 20
482.8539817553696
 30
0.0
  0
POINT
  5
49E0
330
451B
100
AcDbEntity
  8
DEFPOINTS
 62
     0
100
AcDbPoint
 10
233.7590000000001
 20
482.8539817553695
 30
0.0
  0
ENDBLK
  5
4526
330
451B
100
AcDbEntity
  8
0
100
AcDbBlockEnd
  0
BLOCK
  5
4531
330
4527
100
AcDbEntity
  8
0
100
AcDbBlockBegin
  2
*D80
 70
     1
 10
0.0
 20
0.0
 30
0.0
  3
*D80
  1

  0
LINE
  5
49E1
330
4527
100
AcDbEntity
  8
寸法線
 62
     0
370
    -2
100
AcDbLine
 10
167.009
 20
222.8539817553695
 30
0.0
 11
287.759
 21
222.8539817553695
 31
0.0
  0
LINE
  5
49E2
330
4527
100
AcDbEntity
  8
寸法線
 62
     0
370
    -2
100
AcDbLine
 10
167.009
 20
592.8539817553696
 30
0.0
 11
287.7590000000001
 21
592.8539817553695
 31
0.0
  0
LINE
  5
49E3
330
4527
100
AcDbEntity
  8
寸法線
 62
     0
370
    -2
100
AcDbLine
 10
281.759
 20
237.8539817553694
 30
0.0
 11
281.7590000000001
 21
577.8539817553695
 31
0.0
  0
INSERT
  5
49E4
330
4527
100
AcDbEntity
  8
寸法線
 62
     0
370
    -2
100
AcDbBlockReference
  2
_OPEN
 10
281.759
 20
222.8539817553695
 30
0.0
 41
15.0
 42
15.0
 43
15.0
 50
270.0
  0
INSERT
  5
49E5
330
4527
100
AcDbEntity
  8
寸法線
 62
     0
370
    -2
100
AcDbBlockReference
  2
_OPEN
 10
281.7590000000001
 20
592.8539817553695
 30
0.0
 41
15.0
 42
15.0
 43
15.0
 50
90.0
  0
MTEXT
  5
49E6
330
4527
100
AcDbEntity
  8
寸法線
 62
     0
100
AcDbMText
 10
266.009
 20
407.8539817553695
 30
0.0
 40
21.0
 41
0.0
 71
     5
 72
     1
  1
\A1;370
 11
0.0000000000000001
 21
1.0
 31
0.0
 73
     1
 44
1.0
1001
ACAD
1000
MTEXTBEGIN
1070
    73
1070
     1
1070
    44
1040
1.0
1070
    74
1070
     0
1000
MTEXTEND
  0
POINT
  5
49E7
330
4527
100
AcDbEntity
  8
DEFPOINTS
 62
     0
100
AcDbPoint
 10
161.759
 20
222.8539817553695
 30
0.0
  0
POINT
  5
49E8
330
4527
100
AcDbEntity
  8
DEFPOINTS
 62
     0
100
AcDbPoint
 10
161.759
 20
592.8539817553696
 30
0.0
  0
POINT
  5
49E9
330
4527
100
AcDbEntity
  8
DEFPOINTS
 62
     0
100
AcDbPoint
 10
281.7590000000001
 20
592.8539817553695
 30
0.0
  0
ENDBLK
  5
4532
330
4527
100
AcDbEntity
  8
0
100
AcDbBlockEnd
  0
BLOCK
  5
45BA
330
45AE
100
AcDbEntity
  8
0
100
AcDbBlockBegin
  2
*D85
 70
     1
 10
0.0
 20
0.0
 30
0.0
  3
*D85
  1

  0
LINE
  5
49EA
330
45AE
100
AcDbEntity
  8
寸法線
 62
     0
370
    -2
100
AcDbLine
 10
675.7682247058409
 20
-455.4634194844831
 30
0.0
 11
675.7682247058409
 21
-531.2136177917649
 31
0.0
  0
LINE
  5
49EB
330
45AE
100
AcDbEntity
  8
寸法線
 62
     0
370
    -2
100
AcDbLine
 10
713.2682247058409
 20
-440.4639999999997
 30
0.0
 11
713.2682247058409
 21
-531.2136177917649
 31
0.0
  0
LINE
  5
49EC
330
45AE
100
AcDbEntity
  8
寸法線
 62
     0
370
    -2
100
AcDbLine
 10
660.7682247058408
 20
-525.2136177917649
 30
0.0
 11
645.7682247058409
 21
-525.2136177917649
 31
0.0
  0
LINE
  5
49ED
330
45AE
100
AcDbEntity
  8
寸法線
 62
     0
370
    -2
100
AcDbLine
 10
728.2682247058409
 20
-525.2136177917649
 30
0.0
 11
743.2682247058409
 21
-525.2136177917649
 31
0.0
  0
LINE
  5
49EE
330
45AE
100
AcDbEntity
  8
寸法線
 62
     0
370
    -2
100
AcDbLine
 10
675.7682247058409
 20
-525.2136177917649
 30
0.0
 11
713.2682247058409
 21
-525.2136177917649
 31
0.0
  0
INSERT
  5
49EF
330
45AE
100
AcDbEntity
  8
寸法線
 62
     0
370
    -2
100
AcDbBlockReference
  2
_OPEN
 10
675.7682247058409
 20
-525.2136177917649
 30
0.0
 41
15.0
 42
15.0
 43
15.0
  0
INSERT
  5
49F0
330
45AE
100
AcDbEntity
  8
寸法線
 62
     0
370
    -2
100
AcDbBlockReference
  2
_OPEN
 10
713.2682247058409
 20
-525.2136177917649
 30
0.0
 41
15.0
 42
15.0
 43
15.0
 50
180.0
  0
MTEXT
  5
49F1
330
45AE
100
AcDbEntity
  8
寸法線
 62
     0
100
AcDbMText
 10
694.5182247058409
 20
-509.4636177917649
 30
0.0
 40
21.0
 41
0.0
 71
     5
 72
     1
  1
\A1;37.5
 73
     1
 44
1.0
1001
ACAD
1000
MTEXTBEGIN
1070
    73
1070
     1
1070
    44
1040
1.0
1070
    74
1070
     0
1000
MTEXTEND
  0
POINT
  5
49F2
330
45AE
100
AcDbEntity
  8
DEFPOINTS
 62
     0
100
AcDbPoint
 10
675.7682247058409
 20
-450.2134194844832
 30
0.0
  0
POINT
  5
49F3
330
45AE
100
AcDbEntity
  8
DEFPOINTS
 62
     0
100
AcDbPoint
 10
713.2682247058409
 20
-435.2139999999997
 30
0.0
  0
POINT
  5
49F4
330
45AE
100
AcDbEntity
  8
DEFPOINTS
 62
     0
100
AcDbPoint
 10
713.2682247058409
 20
-525.2136177917649
 30
0.0
  0
ENDBLK
  5
45BB
330
45AE
100
AcDbEntity
  8
0
100
AcDbBlockEnd
  0
BLOCK
  5
45C6
330
45BC
100
AcDbEntity
  8
0
100
AcDbBlockBegin
  2
*D86
 70
     1
 10
0.0
 20
0.0
 30
0.0
  3
*D86
  1

  0
LINE
  5
49F5
330
45BC
100
AcDbEntity
  8
寸法線
 62
     0
370
    -2
100
AcDbLine
 10
380.7682247058409
 20
-455.4634194844831
 30
0.0
 11
380.7682247058409
 21
-531.2136177917649
 31
0.0
  0
LINE
  5
49F6
330
45BC
100
AcDbEntity
  8
寸法線
 62
     0
370
    -2
100
AcDbLine
 10
675.7682247058409
 20
-455.4634194844831
 30
0.0
 11
675.7682247058409
 21
-531.2136177917649
 31
0.0
  0
LINE
  5
49F7
330
45BC
100
AcDbEntity
  8
寸法線
 62
     0
370
    -2
100
AcDbLine
 10
395.7682247058409
 20
-525.2136177917649
 30
0.0
 11
660.7682247058408
 21
-525.2136177917649
 31
0.0
  0
INSERT
  5
49F8
330
45BC
100
AcDbEntity
  8
寸法線
 62
     0
370
    -2
100
AcDbBlockReference
  2
_OPEN
 10
380.7682247058409
 20
-525.2136177917649
 30
0.0
 41
15.0
 42
15.0
 43
15.0
 50
180.0
  0
INSERT
  5
49F9
330
45BC
100
AcDbEntity
  8
寸法線
 62
     0
370
    -2
100
AcDbBlockReference
  2
_OPEN
 10
675.7682247058409
 20
-525.2136177917649
 30
0.0
 41
15.0
 42
15.0
 43
15.0
  0
MTEXT
  5
49FA
330
45BC
100
AcDbEntity
  8
寸法線
 62
     0
100
AcDbMText
 10
528.2682247058409
 20
-509.4615508626311
 30
0.0
 40
21.0
 41
0.0
 71
     5
 72
     1
  1
\A1;295
 73
     1
 44
1.0
1001
ACAD
1000
MTEXTBEGIN
1070
    73
1070
     1
1070
    44
1040
1.0
1070
    74
1070
     0
1000
MTEXTEND
  0
POINT
  5
49FB
330
45BC
100
AcDbEntity
  8
DEFPOINTS
 62
     0
100
AcDbPoint
 10
380.7682247058409
 20
-450.2134194844832
 30
0.0
  0
POINT
  5
49FC
330
45BC
100
AcDbEntity
  8
DEFPOINTS
 62
     0
100
AcDbPoint
 10
675.7682247058409
 20
-450.2134194844832
 30
0.0
  0
POINT
  5
49FD
330
45BC
100
AcDbEntity
  8
DEFPOINTS
 62
     0
100
AcDbPoint
 10
675.7682247058409
 20
-525.2136177917649
 30
0.0
  0
ENDBLK
  5
45C7
330
45BC
100
AcDbEntity
  8
0
100
AcDbBlockEnd
  0
BLOCK
  5
45D4
330
45C8
100
AcDbEntity
  8
0
100
AcDbBlockBegin
  2
*D87
 70
     1
 10
0.0
 20
0.0
 30
0.0
  3
*D87
  1

  0
LINE
  5
49FE
330
45C8
100
AcDbEntity
  8
寸法線
 62
     0
370
    -2
100
AcDbLine
 10
343.2682247058409
 20
-440.4639999999997
 30
0.0
 11
343.2682247058409
 21
-531.2136177917649
 31
0.0
  0
LINE
  5
49FF
330
45C8
100
AcDbEntity
  8
寸法線
 62
     0
370
    -2
100
AcDbLine
 10
380.7682247058409
 20
-455.4634194844831
 30
0.0
 11
380.7682247058409
 21
-531.2136177917649
 31
0.0
  0
LINE
  5
4A00
330
45C8
100
AcDbEntity
  8
寸法線
 62
     0
370
    -2
100
AcDbLine
 10
328.268224705841
 20
-525.2136177917649
 30
0.0
 11
313.268224705841
 21
-525.2136177917649
 31
0.0
  0
LINE
  5
4A01
330
45C8
100
AcDbEntity
  8
寸法線
 62
     0
370
    -2
100
AcDbLine
 10
395.7682247058409
 20
-525.2136177917649
 30
0.0
 11
410.7682247058408
 21
-525.2136177917649
 31
0.0
  0
LINE
  5
4A02
330
45C8
100
AcDbEntity
  8
寸法線
 62
     0
370
    -2
100
AcDbLine
 10
343.2682247058409
 20
-525.2136177917649
 30
0.0
 11
380.7682247058409
 21
-525.2136177917649
 31
0.0
  0
INSERT
  5
4A03
330
45C8
100
AcDbEntity
  8
寸法線
 62
     0
370
    -2
100
AcDbBlockReference
  2
_OPEN
 10
343.2682247058409
 20
-525.2136177917649
 30
0.0
 41
15.0
 42
15.0
 43
15.0
  0
INSERT
  5
4A04
330
45C8
100
AcDbEntity
  8
寸法線
 62
     0
370
    -2
100
AcDbBlockReference
  2
_OPEN
 10
380.7682247058409
 20
-525.2136177917649
 30
0.0
 41
15.0
 42
15.0
 43
15.0
 50
180.0
  0
MTEXT
  5
4A05
330
45C8
100
AcDbEntity
  8
寸法線
 62
     0
100
AcDbMText
 10
362.0182247058409
 20
-509.4636177917649
 30
0.0
 40
21.0
 41
0.0
 71
     5
 72
     1
  1
\A1;37.5
 73
     1
 44
1.0
1001
ACAD
1000
MTEXTBEGIN
1070
    73
1070
     1
1070
    44
1040
1.0
1070
    74
1070
     0
1000
MTEXTEND
  0
POINT
  5
4A06
330
45C8
100
AcDbEntity
  8
DEFPOINTS
 62
     0
100
AcDbPoint
 10
343.2682247058409
 20
-435.2139999999997
 30
0.0
  0
POINT
  5
4A07
330
45C8
100
AcDbEntity
  8
DEFPOINTS
 62
     0
100
AcDbPoint
 10
380.7682247058409
 20
-450.2134194844832
 30
0.0
  0
POINT
  5
4A08
330
45C8
100
AcDbEntity
  8
DEFPOINTS
 62
     0
100
AcDbPoint
 10
380.7682247058409
 20
-525.2136177917649
 30
0.0
  0
ENDBLK
  5
45D5
330
45C8
100
AcDbEntity
  8
0
100
AcDbBlockEnd
  0
BLOCK
  5
4695
330
4689
100
AcDbEntity
  8
0
100
AcDbBlockBegin
  2
*D91
 70
     1
 10
0.0
 20
0.0
 30
0.0
  3
*D91
  1

  0
LINE
  5
4A09
330
4689
100
AcDbEntity
  8
寸法線
 62
     0
370
    -2
100
AcDbLine
 10
733.5176441903244
 20
-102.7139999999997
 30
0.0
 11
809.2678424976064
 21
-102.7139999999998
 31
0.0
  0
LINE
  5
4A0A
330
4689
100
AcDbEntity
  8
寸法線
 62
     0
370
    -2
100
AcDbLine
 10
718.518224705841
 20
-65.21399999999975
 30
0.0
 11
809.2678424976064
 21
-65.21399999999978
 31
0.0
  0
LINE
  5
4A0B
330
4689
100
AcDbEntity
  8
寸法線
 62
     0
370
    -2
100
AcDbLine
 10
803.2678424976062
 20
-117.7139999999998
 30
0.0
 11
803.2678424976062
 21
-132.7139999999997
 31
0.0
  0
LINE
  5
4A0C
330
4689
100
AcDbEntity
  8
寸法線
 62
     0
370
    -2
100
AcDbLine
 10
803.2678424976062
 20
-50.21399999999978
 30
0.0
 11
803.2678424976062
 21
-35.21399999999978
 31
0.0
  0
LINE
  5
4A0D
330
4689
100
AcDbEntity
  8
寸法線
 62
     0
370
    -2
100
AcDbLine
 10
803.2678424976062
 20
-102.7139999999998
 30
0.0
 11
803.2678424976062
 21
-65.21399999999978
 31
0.0
  0
INSERT
  5
4A0E
330
4689
100
AcDbEntity
  8
寸法線
 62
     0
370
    -2
100
AcDbBlockReference
  2
_OPEN
 10
803.2678424976062
 20
-102.7139999999998
 30
0.0
 41
15.0
 42
15.0
 43
15.0
 50
90.0
  0
INSERT
  5
4A0F
330
4689
100
AcDbEntity
  8
寸法線
 62
     0
370
    -2
100
AcDbBlockReference
  2
_OPEN
 10
803.2678424976062
 20
-65.21399999999978
 30
0.0
 41
15.0
 42
15.0
 43
15.0
 50
270.0
  0
MTEXT
  5
4A10
330
4689
100
AcDbEntity
  8
寸法線
 62
     0
100
AcDbMText
 10
787.5178424976064
 20
-83.96399999999964
 30
0.0
 40
21.0
 41
0.0
 71
     5
 72
     1
  1
\A1;37.5
 11
0.0000000000000001
 21
1.0
 31
0.0
 73
     1
 44
1.0
1001
ACAD
1000
MTEXTBEGIN
1070
    73
1070
     1
1070
    44
1040
1.0
1070
    74
1070
     0
1000
MTEXTEND
  0
POINT
  5
4A11
330
4689
100
AcDbEntity
  8
DEFPOINTS
 62
     0
100
AcDbPoint
 10
728.2676441903244
 20
-102.7139999999997
 30
0.0
  0
POINT
  5
4A12
330
4689
100
AcDbEntity
  8
DEFPOINTS
 62
     0
100
AcDbPoint
 10
713.268224705841
 20
-65.21399999999975
 30
0.0
  0
POINT
  5
4A13
330
4689
100
AcDbEntity
  8
DEFPOINTS
 62
     0
100
AcDbPoint
 10
803.2678424976062
 20
-65.21399999999978
 30
0.0
  0
ENDBLK
  5
4696
330
4689
100
AcDbEntity
  8
0
100
AcDbBlockEnd
  0
BLOCK
  5
46A1
330
4697
100
AcDbEntity
  8
0
100
AcDbBlockBegin
  2
*D92
 70
     1
 10
0.0
 20
0.0
 30
0.0
  3
*D92
  1

  0
LINE
  5
4A14
330
4697
100
AcDbEntity
  8
寸法線
 62
     0
370
    -2
100
AcDbLine
 10
733.5176441903244
 20
-397.7139999999998
 30
0.0
 11
809.267842497606
 21
-397.7139999999998
 31
0.0
  0
LINE
  5
4A15
330
4697
100
AcDbEntity
  8
寸法線
 62
     0
370
    -2
100
AcDbLine
 10
733.5176441903244
 20
-102.7139999999997
 30
0.0
 11
809.2678424976062
 21
-102.7139999999998
 31
0.0
  0
LINE
  5
4A16
330
4697
100
AcDbEntity
  8
寸法線
 62
     0
370
    -2
100
AcDbLine
 10
803.2678424976062
 20
-382.7139999999998
 30
0.0
 11
803.2678424976062
 21
-117.7139999999998
 31
0.0
  0
INSERT
  5
4A17
330
4697
100
AcDbEntity
  8
寸法線
 62
     0
370
    -2
100
AcDbBlockReference
  2
_OPEN
 10
803.2678424976062
 20
-397.7139999999998
 30
0.0
 41
15.0
 42
15.0
 43
15.0
 50
270.0
  0
INSERT
  5
4A18
330
4697
100
AcDbEntity
  8
寸法線
 62
     0
370
    -2
100
AcDbBlockReference
  2
_OPEN
 10
803.2678424976062
 20
-102.7139999999998
 30
0.0
 41
15.0
 42
15.0
 43
15.0
 50
90.0
  0
MTEXT
  5
4A19
330
4697
100
AcDbEntity
  8
寸法線
 62
     0
100
AcDbMText
 10
787.5157755684722
 20
-250.2139999999997
 30
0.0
 40
21.0
 41
0.0
 71
     5
 72
     1
  1
\A1;295
 11
0.0000000000000001
 21
1.0
 31
0.0
 73
     1
 44
1.0
1001
ACAD
1000
MTEXTBEGIN
1070
    73
1070
     1
1070
    44
1040
1.0
1070
    74
1070
     0
1000
MTEXTEND
  0
POINT
  5
4A1A
330
4697
100
AcDbEntity
  8
DEFPOINTS
 62
     0
100
AcDbPoint
 10
728.2676441903244
 20
-397.7139999999998
 30
0.0
  0
POINT
  5
4A1B
330
4697
100
AcDbEntity
  8
DEFPOINTS
 62
     0
100
AcDbPoint
 10
728.2676441903244
 20
-102.7139999999997
 30
0.0
  0
POINT
  5
4A1C
330
4697
100
AcDbEntity
  8
DEFPOINTS
 62
     0
100
AcDbPoint
 10
803.2678424976062
 20
-102.7139999999998
 30
0.0
  0
ENDBLK
  5
46A2
330
4697
100
AcDbEntity
  8
0
100
AcDbBlockEnd
  0
BLOCK
  5
46AF
330
46A3
100
AcDbEntity
  8
0
100
AcDbBlockBegin
  2
*D93
 70
     1
 10
0.0
 20
0.0
 30
0.0
  3
*D93
  1

  0
LINE
  5
4A1D
330
46A3
100
AcDbEntity
  8
寸法線
 62
     0
370
    -2
100
AcDbLine
 10
718.5182247058409
 20
-435.2139999999997
 30
0.0
 11
809.267842497606
 21
-435.2139999999997
 31
0.0
  0
LINE
  5
4A1E
330
46A3
100
AcDbEntity
  8
寸法線
 62
     0
370
    -2
100
AcDbLine
 10
733.5176441903244
 20
-397.7139999999998
 30
0.0
 11
809.267842497606
 21
-397.7139999999998
 31
0.0
  0
LINE
  5
4A1F
330
46A3
100
AcDbEntity
  8
寸法線
 62
     0
370
    -2
100
AcDbLine
 10
803.2678424976062
 20
-450.2139999999998
 30
0.0
 11
803.2678424976062
 21
-465.2139999999997
 31
0.0
  0
LINE
  5
4A20
330
46A3
100
AcDbEntity
  8
寸法線
 62
     0
370
    -2
100
AcDbLine
 10
803.2678424976062
 20
-382.7139999999998
 30
0.0
 11
803.2678424976062
 21
-367.7139999999998
 31
0.0
  0
LINE
  5
4A21
330
46A3
100
AcDbEntity
  8
寸法線
 62
     0
370
    -2
100
AcDbLine
 10
803.2678424976062
 20
-435.2139999999997
 30
0.0
 11
803.2678424976062
 21
-397.7139999999998
 31
0.0
  0
INSERT
  5
4A22
330
46A3
100
AcDbEntity
  8
寸法線
 62
     0
370
    -2
100
AcDbBlockReference
  2
_OPEN
 10
803.2678424976062
 20
-435.2139999999997
 30
0.0
 41
15.0
 42
15.0
 43
15.0
 50
90.0
  0
INSERT
  5
4A23
330
46A3
100
AcDbEntity
  8
寸法線
 62
     0
370
    -2
100
AcDbBlockReference
  2
_OPEN
 10
803.2678424976062
 20
-397.7139999999998
 30
0.0
 41
15.0
 42
15.0
 43
15.0
 50
270.0
  0
MTEXT
  5
4A24
330
46A3
100
AcDbEntity
  8
寸法線
 62
     0
100
AcDbMText
 10
787.5178424976062
 20
-416.4639999999995
 30
0.0
 40
21.0
 41
0.0
 71
     5
 72
     1
  1
\A1;37.5
 11
0.0000000000000001
 21
1.0
 31
0.0
 73
     1
 44
1.0
1001
ACAD
1000
MTEXTBEGIN
1070
    73
1070
     1
1070
    44
1040
1.0
1070
    74
1070
     0
1000
MTEXTEND
  0
POINT
  5
4A25
330
46A3
100
AcDbEntity
  8
DEFPOINTS
 62
     0
100
AcDbPoint
 10
713.2682247058409
 20
-435.2139999999997
 30
0.0
  0
POINT
  5
4A26
330
46A3
100
AcDbEntity
  8
DEFPOINTS
 62
     0
100
AcDbPoint
 10
728.2676441903244
 20
-397.7139999999998
 30
0.0
  0
POINT
  5
4A27
330
46A3
100
AcDbEntity
  8
DEFPOINTS
 62
     0
100
AcDbPoint
 10
803.2678424976062
 20
-397.7139999999998
 30
0.0
  0
ENDBLK
  5
46B0
330
46A3
100
AcDbEntity
  8
0
100
AcDbBlockEnd
  0
ENDSEC
  0
SECTION
  2
ENTITIES
  0
LINE
  5
177E
330
1A
100
AcDbEntity
  8
実線
100
AcDbLine
 10
555.1028964149734
 20
222.854
 30
0.0
 11
555.1028964149734
 21
592.854
 31
0.0
  0
LINE
  5
177F
330
1A
100
AcDbEntity
  8
実線
100
AcDbLine
 10
571.1028964149732
 20
222.854
 30
0.0
 11
571.1028964149736
 21
592.854
 31
0.0
  0
LINE
  5
1780
330
1A
100
AcDbEntity
  8
実線
100
AcDbLine
 10
555.1028964149734
 20
592.8539817553696
 30
0.0
 11
571.1028964149736
 21
592.8539817553696
 31
0.0
  0
LINE
  5
1781
330
1A
100
AcDbEntity
  8
実線
100
AcDbLine
 10
555.1028964149734
 20
222.8539817553695
 30
0.0
 11
571.1028964149732
 21
222.8539817553695
 31
0.0
  0
LINE
  5
1782
330
1A
100
AcDbEntity
  8
実線
100
AcDbLine
 10
743.1028964149734
 20
212.854
 30
0.0
 11
743.1028964149734
 21
602.854
 31
0.0
  0
LINE
  5
1783
330
1A
100
AcDbEntity
  8
実線
100
AcDbLine
 10
759.1028964149734
 20
212.854
 30
0.0
 11
759.1028964149734
 21
602.854
 31
0.0
  0
LINE
  5
1784
330
1A
100
AcDbEntity
  8
実線
100
AcDbLine
 10
743.1028964149734
 20
602.854
 30
0.0
 11
759.1028964149734
 21
602.854
 31
0.0
  0
LINE
  5
1785
330
1A
100
AcDbEntity
  8
実線
100
AcDbLine
 10
743.1028964149734
 20
212.854
 30
0.0
 11
759.1028964149734
 21
212.854
 31
0.0
  0
LINE
  5
1787
330
1A
100
AcDbEntity
  8
実線
100
AcDbLine
 10
583.1028964149732
 20
283.3539817553696
 30
0.0
 11
603.1028964149734
 21
283.3539817553697
 31
0.0
  0
LINE
  5
1788
330
1A
100
AcDbEntity
  8
実線
100
AcDbLine
 10
603.1028964149734
 20
283.3539817553697
 30
0.0
 11
603.1028964149734
 21
532.3539817553696
 31
0.0
  0
LINE
  5
178D
330
1A
100
AcDbEntity
  8
実線
100
AcDbLine
 10
571.1028964149732
 20
295.3539817553696
 30
0.0
 11
583.1028964149732
 21
283.3539817553696
 31
0.0
  0
LINE
  5
1790
330
1A
100
AcDbEntity
  8
実線
100
AcDbLine
 10
571.1028964149734
 20
287.8539817553696
 30
0.0
 11
578.1028964149734
 21
287.8539817553696
 31
0.0
  0
LINE
  5
1791
330
1A
100
AcDbEntity
  8
実線
100
AcDbLine
 10
571.1028964149732
 20
232.8539817553696
 30
0.0
 11
743.1028964149734
 21
232.8539817553695
 31
0.0
  0
LINE
  5
1793
330
1A
100
AcDbEntity
  8
実線
100
AcDbLine
 10
603.1028964149734
 20
287.8539817553696
 30
0.0
 11
743.1028964149734
 21
287.8539817553697
 31
0.0
  0
LINE
  5
1794
330
1A
100
AcDbEntity
  8
破線
100
AcDbLine
 10
578.1028964149734
 20
287.8539817553696
 30
0.0
 11
603.1028964149734
 21
287.8539817553696
 31
0.0
  0
LINE
  5
1796
330
1A
100
AcDbEntity
  8
中心線
100
AcDbLine
 10
545.1028964149734
 20
260.3539817553696
 30
0.0
 11
769.1029999999997
 21
260.3539817553695
 31
0.0
  0
LINE
  5
1797
330
1A
100
AcDbEntity
  8
破線
100
AcDbLine
 10
571.1028964149732
 20
244.8539817553696
 30
0.0
 11
603.1028964149735
 21
244.8539817553696
 31
0.0
  0
LINE
  5
1798
330
1A
100
AcDbEntity
  8
破線
100
AcDbLine
 10
603.1028964149735
 20
244.8539817553696
 30
0.0
 11
603.1028964149735
 21
232.8539817553696
 31
0.0
  0
LINE
  5
1799
330
1A
100
AcDbEntity
  8
中心線
100
AcDbLine
 10
540.1028964149734
 20
407.8539817553696
 30
0.0
 11
774.1029999999997
 21
407.8539817553696
 31
0.0
  0
LINE
  5
179A
330
1A
100
AcDbEntity
  8
中心線
100
AcDbLine
 10
545.1028964149734
 20
555.3539817553696
 30
0.0
 11
769.1029999999997
 21
555.3539817553696
 31
0.0
  0
LINE
  5
179C
330
1A
100
AcDbEntity
  8
実線
100
AcDbLine
 10
603.1028964149734
 20
527.8539817553697
 30
0.0
 11
743.1028964149734
 21
527.8539817553697
 31
0.0
  0
LINE
  5
179E
330
1A
100
AcDbEntity
  8
実線
100
AcDbLine
 10
571.1028964149732
 20
582.8539817553696
 30
0.0
 11
743.1028964149734
 21
582.8539817553696
 31
0.0
  0
LINE
  5
17A1
330
1A
100
AcDbEntity
  8
破線
100
AcDbLine
 10
571.1028964149732
 20
570.8539817553696
 30
0.0
 11
603.1028964149735
 21
570.8539817553696
 31
0.0
  0
LINE
  5
17A2
330
1A
100
AcDbEntity
  8
破線
100
AcDbLine
 10
603.1028964149735
 20
570.8539817553696
 30
0.0
 11
603.1028964149735
 21
582.8539817553695
 31
0.0
  0
LINE
  5
17A3
330
1A
100
AcDbEntity
  8
破線
100
AcDbLine
 10
578.1028964149734
 20
527.8539817553697
 30
0.0
 11
603.1028964149734
 21
527.8539817553697
 31
0.0
  0
LINE
  5
17A4
330
1A
100
AcDbEntity
  8
実線
100
AcDbLine
 10
583.1028964149732
 20
532.3539817553696
 30
0.0
 11
603.1028964149734
 21
532.3539817553696
 31
0.0
  0
LINE
  5
17A5
330
1A
100
AcDbEntity
  8
実線
100
AcDbLine
 10
571.1028964149732
 20
520.3539817553696
 30
0.0
 11
583.1028964149732
 21
532.3539817553696
 31
0.0
  0
LINE
  5
17A6
330
1A
100
AcDbEntity
  8
実線
100
AcDbLine
 10
571.1028964149734
 20
527.8539817553697
 30
0.0
 11
578.1028964149734
 21
527.8539817553697
 31
0.0
  0
LINE
  5
1828
330
1A
100
AcDbEntity
  8
実線
100
AcDbLine
 10
1398.872653912418
 20
502.8539817553697
 30
0.0
 11
1408.872653912417
 21
502.8539817553697
 31
0.0
  0
LINE
  5
1829
330
1A
100
AcDbEntity
  8
実線
100
AcDbLine
 10
1398.872653912418
 20
522.8539817553696
 30
0.0
 11
1408.872653912417
 21
522.8539817553696
 31
0.0
  0
LINE
  5
182A
330
1A
100
AcDbEntity
  8
中心線
100
AcDbLine
 10
1403.872653912418
 20
536.8539817553696
 30
0.0
 11
1403.872653912418
 21
488.8539817553696
 31
0.0
  0
ARC
  5
182B
330
1A
100
AcDbEntity
  8
実線
100
AcDbCircle
 10
1398.872653912418
 20
512.8539817553696
 30
0.0
 40
10.0
100
AcDbArc
 50
90.0
 51
270.0
  0
ARC
  5
182C
330
1A
100
AcDbEntity
  8
実線
100
AcDbCircle
 10
1408.872653912417
 20
512.8539817553696
 30
0.0
 40
10.0
100
AcDbArc
 50
270.0
 51
90.0
  0
LINE
  5
182D
330
1A
100
AcDbEntity
  8
実線
100
AcDbLine
 10
1398.872653912418
 20
312.8539817553696
 30
0.0
 11
1408.872653912417
 21
312.8539817553696
 31
0.0
  0
LINE
  5
182E
330
1A
100
AcDbEntity
  8
実線
100
AcDbLine
 10
1398.872653912418
 20
292.8539817553695
 30
0.0
 11
1408.872653912417
 21
292.8539817553695
 31
0.0
  0
LINE
  5
182F
330
1A
100
AcDbEntity
  8
中心線
100
AcDbLine
 10
1403.872653912418
 20
326.8539817553696
 30
0.0
 11
1403.872653912418
 21
278.8539817553695
 31
0.0
  0
ARC
  5
1830
330
1A
100
AcDbEntity
  8
実線
100
AcDbCircle
 10
1398.872653912418
 20
302.8539817553695
 30
0.0
 40
10.0
100
AcDbArc
 50
90.0
 51
270.0
  0
ARC
  5
1831
330
1A
100
AcDbEntity
  8
実線
100
AcDbCircle
 10
1408.872653912417
 20
302.8539817553695
 30
0.0
 40
10.0
100
AcDbArc
 50
270.0
 51
90.0
  0
LINE
  5
1832
330
1A
100
AcDbEntity
  8
実線
100
AcDbLine
 10
1493.872653912418
 20
212.8539817553696
 30
0.0
 11
1493.872653912418
 21
602.8539817553697
 31
0.0
  0
LINE
  5
1833
330
1A
100
AcDbEntity
  8
中心線
100
AcDbLine
 10
1374.872653912418
 20
302.8539817553695
 30
0.0
 11
1432.872653912417
 21
302.8539817553695
 31
0.0
  0
LINE
  5
1834
330
1A
100
AcDbEntity
  8
中心線
100
AcDbLine
 10
1374.872653912418
 20
512.8539817553696
 30
0.0
 11
1432.872653912417
 21
512.8539817553696
 31
0.0
  0
LINE
  5
1836
330
1A
100
AcDbEntity
  8
実線
100
AcDbLine
 10
1188.872653912418
 20
502.8539817553697
 30
0.0
 11
1198.872653912418
 21
502.8539817553697
 31
0.0
  0
LINE
  5
1837
330
1A
100
AcDbEntity
  8
実線
100
AcDbLine
 10
1188.872653912418
 20
522.8539817553696
 30
0.0
 11
1198.872653912418
 21
522.8539817553696
 31
0.0
  0
LINE
  5
1838
330
1A
100
AcDbEntity
  8
中心線
100
AcDbLine
 10
1193.872653912418
 20
536.8539817553696
 30
0.0
 11
1193.872653912418
 21
488.8539817553696
 31
0.0
  0
ARC
  5
1839
330
1A
100
AcDbEntity
  8
実線
100
AcDbCircle
 10
1198.872653912418
 20
512.8539817553696
 30
0.0
 40
10.0
100
AcDbArc
 50
270.0
 51
90.0
  0
ARC
  5
183A
330
1A
100
AcDbEntity
  8
実線
100
AcDbCircle
 10
1188.872653912418
 20
512.8539817553696
 30
0.0
 40
10.0
100
AcDbArc
 50
90.0
 51
270.0
  0
LINE
  5
183B
330
1A
100
AcDbEntity
  8
実線
100
AcDbLine
 10
1188.872653912418
 20
312.8539817553696
 30
0.0
 11
1198.872653912418
 21
312.8539817553696
 31
0.0
  0
LINE
  5
183C
330
1A
100
AcDbEntity
  8
実線
100
AcDbLine
 10
1188.872653912418
 20
292.8539817553695
 30
0.0
 11
1198.872653912418
 21
292.8539817553695
 31
0.0
  0
LINE
  5
183D
330
1A
100
AcDbEntity
  8
中心線
100
AcDbLine
 10
1193.872653912418
 20
326.8539817553696
 30
0.0
 11
1193.872653912418
 21
278.8539817553695
 31
0.0
  0
ARC
  5
183E
330
1A
100
AcDbEntity
  8
実線
100
AcDbCircle
 10
1198.872653912418
 20
302.8539817553695
 30
0.0
 40
10.0
100
AcDbArc
 50
270.0
 51
90.0
  0
ARC
  5
183F
330
1A
100
AcDbEntity
  8
実線
100
AcDbCircle
 10
1188.872653912418
 20
302.8539817553695
 30
0.0
 40
10.0
100
AcDbArc
 50
90.0
 51
270.0
  0
LINE
  5
1840
330
1A
100
AcDbEntity
  8
実線
100
AcDbLine
 10
1103.872653912418
 20
212.8539817553696
 30
0.0
 11
1103.872653912418
 21
602.8539817553697
 31
0.0
  0
LINE
  5
1841
330
1A
100
AcDbEntity
  8
中心線
100
AcDbLine
 10
1164.872653912418
 20
302.8539817553695
 30
0.0
 11
1222.872653912418
 21
302.8539817553695
 31
0.0
  0
LINE
  5
1842
330
1A
100
AcDbEntity
  8
中心線
100
AcDbLine
 10
1164.872653912418
 20
512.8539817553696
 30
0.0
 11
1222.872653912418
 21
512.8539817553696
 31
0.0
  0
LINE
  5
1843
330
1A
100
AcDbEntity
  8
実線
100
AcDbLine
 10
1103.872653912418
 20
212.8539817553696
 30
0.0
 11
1493.872653912418
 21
212.8539817553696
 31
0.0
  0
LINE
  5
1844
330
1A
100
AcDbEntity
  8
実線
100
AcDbLine
 10
1103.872653912418
 20
602.8539817553697
 30
0.0
 11
1493.872653912418
 21
602.8539817553697
 31
0.0
  0
LINE
  5
1845
330
1A
100
AcDbEntity
  8
中心線
100
AcDbLine
 10
1078.873
 20
407.8539817553696
 30
0.0
 11
1518.873
 21
407.8539817553696
 31
0.0
  0
LINE
  5
1851
330
1A
100
AcDbEntity
  8
破線
100
AcDbLine
 10
571.1028964149734
 20
413.8539817553696
 30
0.0
 11
603.1028964149734
 21
413.8539817553696
 31
0.0
  0
LINE
  5
1852
330
1A
100
AcDbEntity
  8
破線
100
AcDbLine
 10
571.1028964149734
 20
401.8539817553697
 30
0.0
 11
603.1028964149734
 21
401.8539817553697
 31
0.0
  0
DIMENSION
  5
1AE8
330
1A
100
AcDbEntity
  8
寸法線
100
AcDbDimension
  2
*D2
 10
603.1028964149734
 20
140.8539817553696
 30
0.0
 11
587.1028964149732
 21
140.8539817553696
 31
0.0
 70
   160
 71
     5
 42
32.00000000000023
  3
STANDARD
100
AcDbAlignedDimension
 13
571.1028964149732
 23
222.854
 33
0.0
 14
603.1028964149734
 24
283.3539817553697
 34
0.0
100
AcDbRotatedDimension
  0
DIMENSION
  5
1AFA
330
1A
100
AcDbEntity
  8
寸法線
100
AcDbDimension
  2
*D3
 10
743.1028964149734
 20
140.8539817553696
 30
0.0
 11
673.1028964149734
 21
156.6039817553695
 31
0.0
 70
    32
 71
     5
 42
140.0
  3
STANDARD
100
AcDbAlignedDimension
 13
603.1028964149734
 23
283.3539817553697
 33
0.0
 14
743.1028964149734
 24
212.854
 34
0.0
100
AcDbRotatedDimension
  0
DIMENSION
  5
1B2F
330
1A
100
AcDbEntity
  8
寸法線
100
AcDbDimension
  2
*D5
 10
571.1028964149732
 20
92.85398175536959
 30
0.0
 11
563.1028964149732
 21
92.85398175536959
 31
0.0
 70
   160
 71
     5
 42
15.99999999999977
  3
STANDARD
100
AcDbAlignedDimension
 13
555.1028964149734
 23
222.8539817553695
 33
0.0
 14
571.1028964149732
 24
222.8539817553695
 34
0.0
100
AcDbRotatedDimension
  0
DIMENSION
  5
1B41
330
1A
100
AcDbEntity
  8
寸法線
100
AcDbDimension
  2
*D6
 10
743.1028964149734
 20
92.85398175536959
 30
0.0
 11
657.1028964149732
 21
108.6060486845034
 31
0.0
 70
    32
 71
     5
 42
172.0000000000002
  3
STANDARD
100
AcDbAlignedDimension
 13
571.1028964149732
 23
202.8539817553695
 33
0.0
 14
743.1028964149734
 24
212.854
 34
0.0
100
AcDbRotatedDimension
  0
DIMENSION
  5
1B4E
330
1A
100
AcDbEntity
  8
寸法線
100
AcDbDimension
  2
*D7
 10
759.1028964149734
 20
92.85398175536959
 30
0.0
 11
751.1028964149734
 21
92.85398175536959
 31
0.0
 70
   160
 71
     5
 42
16.0
  3
STANDARD
100
AcDbAlignedDimension
 13
743.1028964149734
 23
212.854
 33
0.0
 14
759.1028964149734
 24
212.854
 34
0.0
100
AcDbRotatedDimension
  0
DIMENSION
  5
1B60
330
1A
100
AcDbEntity
  8
寸法線
100
AcDbDimension
  2
*D8
 10
759.1028964149734
 20
44.8539817553696
 30
0.0
 11
657.1028964149734
 21
60.60604868450346
 31
0.0
 70
    32
 71
     5
 42
204.0
  3
STANDARD
100
AcDbAlignedDimension
 13
555.1028964149734
 23
222.8539817553695
 33
0.0
 14
759.1028964149734
 24
212.854
 34
0.0
100
AcDbRotatedDimension
  0
DIMENSION
  5
1B9E
330
1A
100
AcDbEntity
  8
寸法線
100
AcDbDimension
  2
*D9
 10
699.1028964149734
 20
582.8539817553696
 30
0.0
 11
699.1028964149734
 21
555.3539817553696
 31
0.0
 70
   160
  1
%%C<>
 71
     5
 42
55.0
  3
STANDARD
100
AcDbAlignedDimension
 13
699.1028964149734
 23
527.8539817553697
 33
0.0
 14
699.1028964149734
 24
582.8539817553696
 34
0.0
 50
90.0
100
AcDbRotatedDimension
  0
LINE
  5
1BDD
330
1A
100
AcDbEntity
  8
仮想線
100
AcDbLine
 10
626.5659486691544
 20
168.854
 30
0.0
 11
626.5659486691544
 21
646.854
 31
0.0
  0
INSERT
  5
1BE0
330
1A
100
AcDbEntity
  8
寸法線
100
AcDbBlockReference
  2
_OPEN
 10
626.5659486691544
 20
631.8539817553697
 30
0.0
 41
15.0
 42
15.0
 43
15.0
 50
180.0
  0
TEXT
  5
1BE2
330
1A
100
AcDbEntity
  8
寸法線
100
AcDbText
 10
676.2211710361832
 20
620.6539817553696
 30
0.0
 40
21.0
  1
Ａ
 72
     4
 11
686.0211710361832
 21
631.8539817553697
 31
0.0
100
AcDbText
  0
LINE
  5
1BE3
330
1A
100
AcDbEntity
  8
寸法線
100
AcDbLine
 10
641.5659486691545
 20
631.8539817553697
 30
0.0
 11
673.9626838549789
 21
631.8539817553697
 31
0.0
  0
TEXT
  5
1BE5
330
1A
100
AcDbEntity
  8
寸法線
100
AcDbText
 10
676.2211710361832
 20
172.6539817553695
 30
0.0
 40
21.0
  1
Ａ
 72
     4
 11
686.0211710361832
 21
183.8539817553695
 31
0.0
100
AcDbText
  0
LINE
  5
1BE6
330
1A
100
AcDbEntity
  8
寸法線
100
AcDbLine
 10
641.5659486691545
 20
183.8539817553695
 30
0.0
 11
673.9626838549789
 21
183.8539817553695
 31
0.0
  0
INSERT
  5
1BE7
330
1A
100
AcDbEntity
  8
寸法線
100
AcDbBlockReference
  2
_OPEN
 10
626.5659486691544
 20
183.8539817553695
 30
0.0
 41
15.0
 42
15.0
 43
15.0
 50
180.0
  0
LINE
  5
219B
330
1A
100
AcDbEntity
  8
中心線
100
AcDbLine
 10
545.1028964149732
 20
332.8539817553696
 30
0.0
 11
581.103
 21
332.8539817553696
 31
0.0
  0
LINE
  5
2EFB
330
1A
100
AcDbEntity
  8
実線
100
AcDbLine
 10
403.7682247058408
 20
-87.2137655720653
 30
0.0
 11
652.7682247058407
 21
-87.2137655720653
 31
0.0
  0
LINE
  5
2EFC
330
1A
100
AcDbEntity
  8
実線
100
AcDbLine
 10
403.7682247058408
 20
-75.21376557206533
 30
0.0
 11
652.7682247058407
 21
-75.21376557206551
 31
0.0
  0
LINE
  5
2F06
330
1A
100
AcDbEntity
  8
実線
100
AcDbLine
 10
652.7682247058407
 20
-425.2137655720651
 30
0.0
 11
403.7682247058408
 21
-425.2137655720656
 31
0.0
  0
LINE
  5
2F0B
330
1A
100
AcDbEntity
  8
実線
100
AcDbLine
 10
343.268
 20
-435.2137655720651
 30
0.0
 11
713.268
 21
-435.2137655720651
 31
0.0
  0
LINE
  5
2F0C
330
1A
100
AcDbEntity
  8
実線
100
AcDbLine
 10
343.268
 20
-65.21376557206533
 30
0.0
 11
713.268
 21
-65.21376557206533
 31
0.0
  0
LINE
  5
2F0E
330
1A
100
AcDbEntity
  8
実線
100
AcDbLine
 10
365.5182247058409
 20
-244.2137655720653
 30
0.0
 11
691.0182247058408
 21
-244.2137655720655
 31
0.0
  0
LINE
  5
2F0F
330
1A
100
AcDbEntity
  8
実線
100
AcDbLine
 10
365.518224705841
 20
-256.2137655720653
 30
0.0
 11
691.0182247058412
 21
-256.2137655720658
 31
0.0
  0
LINE
  5
2F15
330
1A
100
AcDbEntity
  8
実線
100
AcDbLine
 10
343.2682247058409
 20
-435.2139999999997
 30
0.0
 11
343.2682247058409
 21
-65.21400000000001
 31
0.0
  0
LINE
  5
2F1E
330
1A
100
AcDbEntity
  8
実線
100
AcDbLine
 10
353.2682247058409
 20
-374.7137655720653
 30
0.0
 11
353.2682247058409
 21
-125.7137655720653
 31
0.0
  0
LINE
  5
2F20
330
1A
100
AcDbEntity
  8
中心線
100
AcDbLine
 10
453.2682247058408
 20
-305.2137655720653
 30
0.0
 11
453.2682247058408
 21
-345.213765572065
 31
0.0
  0
CIRCLE
  5
2F24
330
1A
100
AcDbEntity
  8
実線
100
AcDbCircle
 10
453.2682247058408
 20
-325.2137655720653
 30
0.0
 40
12.5
  0
LINE
  5
2F29
330
1A
100
AcDbEntity
  8
中心線
100
AcDbLine
 10
433.2682247058408
 20
-325.2137655720653
 30
0.0
 11
473.2682247058408
 21
-325.2137655720653
 31
0.0
  0
LINE
  5
2F32
330
1A
100
AcDbEntity
  8
実線
100
AcDbLine
 10
353.2682247058409
 20
-374.7137655720653
 30
0.0
 11
365.2682247058409
 21
-374.7137655720649
 31
0.0
  0
LINE
  5
2F33
330
1A
100
AcDbEntity
  8
実線
100
AcDbLine
 10
403.7682247058408
 20
-425.2137655720656
 30
0.0
 11
403.7682247058408
 21
-413.2137655720656
 31
0.0
  0
LINE
  5
2F34
330
1A
100
AcDbEntity
  8
実線
100
AcDbLine
 10
365.518224705841
 20
-256.2137655720653
 30
0.0
 11
365.5182247058409
 21
-244.2137655720653
 31
0.0
  0
LINE
  5
2F36
330
1A
100
AcDbEntity
  8
中心線
100
AcDbLine
 10
433.2682247058408
 20
-175.2137655720653
 30
0.0
 11
473.2682247058408
 21
-175.2137655720653
 31
0.0
  0
LINE
  5
2F38
330
1A
100
AcDbEntity
  8
実線
100
AcDbLine
 10
353.2682247058409
 20
-125.7137655720653
 30
0.0
 11
365.2682247058409
 21
-125.7137655720653
 31
0.0
  0
LINE
  5
2F39
330
1A
100
AcDbEntity
  8
中心線
100
AcDbLine
 10
453.2682247058408
 20
-155.2137655720653
 30
0.0
 11
453.2682247058408
 21
-195.2137655720653
 31
0.0
  0
CIRCLE
  5
2F3C
330
1A
100
AcDbEntity
  8
実線
100
AcDbCircle
 10
453.2682257152252
 20
-175.2137490722571
 30
0.0
 40
12.5
  0
LINE
  5
2F4C
330
1A
100
AcDbEntity
  8
実線
100
AcDbLine
 10
403.7682247058408
 20
-75.21376557206533
 30
0.0
 11
403.7682247058408
 21
-87.2137655720653
 31
0.0
  0
LINE
  5
2F50
330
1A
100
AcDbEntity
  8
実線
100
AcDbLine
 10
534.2682247058409
 20
-87.71376557206531
 30
0.0
 11
534.2682247058409
 21
-244.2137655720653
 31
0.0
  0
LINE
  5
2F51
330
1A
100
AcDbEntity
  8
実線
100
AcDbLine
 10
522.2682247058407
 20
-87.71376557206531
 30
0.0
 11
522.2682247058407
 21
-244.2137655720653
 31
0.0
  0
LINE
  5
2F56
330
1A
100
AcDbEntity
  8
実線
100
AcDbLine
 10
713.2682247058409
 20
-435.2139999999997
 30
0.0
 11
713.2682247058409
 21
-65.21400000000001
 31
0.0
  0
LINE
  5
2F58
330
1A
100
AcDbEntity
  8
中心線
100
AcDbLine
 10
603.2682247058409
 20
-305.2137655720653
 30
0.0
 11
603.2682247058409
 21
-345.213765572065
 31
0.0
  0
CIRCLE
  5
2F59
330
1A
100
AcDbEntity
  8
実線
100
AcDbCircle
 10
603.2682247058409
 20
-325.2137655720653
 30
0.0
 40
12.5
  0
LINE
  5
2F5F
330
1A
100
AcDbEntity
  8
実線
100
AcDbLine
 10
534.2682247058409
 20
-256.2137655720653
 30
0.0
 11
534.2682247058409
 21
-412.7137655720652
 31
0.0
  0
LINE
  5
2F60
330
1A
100
AcDbEntity
  8
実線
100
AcDbLine
 10
522.2682247058407
 20
-256.2137655720653
 30
0.0
 11
522.2682247058407
 21
-412.7137655720652
 31
0.0
  0
LINE
  5
2F61
330
1A
100
AcDbEntity
  8
実線
100
AcDbLine
 10
703.268224705841
 20
-125.7137655720655
 30
0.0
 11
703.268224705841
 21
-374.7137655720657
 31
0.0
  0
LINE
  5
2F62
330
1A
100
AcDbEntity
  8
実線
100
AcDbLine
 10
691.268224705841
 20
-125.7137655720652
 30
0.0
 11
691.268224705841
 21
-374.7137655720657
 31
0.0
  0
LINE
  5
2F64
330
1A
100
AcDbEntity
  8
中心線
100
AcDbLine
 10
583.2682247058409
 20
-325.2137655720653
 30
0.0
 11
623.2682247058408
 21
-325.2137655720653
 31
0.0
  0
LINE
  5
2F68
330
1A
100
AcDbEntity
  8
実線
100
AcDbLine
 10
522.2682247058407
 20
-412.7137655720652
 30
0.0
 11
534.2682247058409
 21
-412.7137655720652
 31
0.0
  0
LINE
  5
2F69
330
1A
100
AcDbEntity
  8
実線
100
AcDbLine
 10
652.7682247058407
 20
-425.2137655720651
 30
0.0
 11
652.7682247058407
 21
-413.2137655720651
 31
0.0
  0
LINE
  5
2F75
330
1A
100
AcDbEntity
  8
実線
100
AcDbLine
 10
703.268224705841
 20
-374.7137655720657
 30
0.0
 11
691.268224705841
 21
-374.7137655720657
 31
0.0
  0
LINE
  5
2F76
330
1A
100
AcDbEntity
  8
中心線
100
AcDbLine
 10
583.2682247058409
 20
-175.2137655720653
 30
0.0
 11
623.2682247058408
 21
-175.2137655720653
 31
0.0
  0
CIRCLE
  5
2F79
330
1A
100
AcDbEntity
  8
実線
100
AcDbCircle
 10
603.2682257152251
 20
-175.2137490722571
 30
0.0
 40
12.5
  0
LINE
  5
2F83
330
1A
100
AcDbEntity
  8
中心線
100
AcDbLine
 10
603.2682247058409
 20
-155.2137655720653
 30
0.0
 11
603.2682247058409
 21
-195.2137655720653
 31
0.0
  0
LINE
  5
2F87
330
1A
100
AcDbEntity
  8
実線
100
AcDbLine
 10
691.0182247058408
 20
-244.2137655720655
 30
0.0
 11
691.0182247058412
 21
-256.2137655720658
 31
0.0
  0
LINE
  5
2F88
330
1A
100
AcDbEntity
  8
実線
100
AcDbLine
 10
703.268224705841
 20
-125.7137655720655
 30
0.0
 11
691.268224705841
 21
-125.7137655720652
 31
0.0
  0
LINE
  5
2F8C
330
1A
100
AcDbEntity
  8
実線
100
AcDbLine
 10
522.2682247058407
 20
-87.71376557206531
 30
0.0
 11
534.2682247058409
 21
-87.71376557206531
 31
0.0
  0
LINE
  5
2F90
330
1A
100
AcDbEntity
  8
実線
100
AcDbLine
 10
652.7682247058407
 20
-75.21376557206551
 30
0.0
 11
652.7682247058407
 21
-87.2137655720653
 31
0.0
  0
CIRCLE
  5
30F4
330
1A
100
AcDbEntity
  8
実線
100
AcDbCircle
 10
380.7682247058409
 20
-102.7137655720653
 30
0.0
 40
27.5
  0
CIRCLE
  5
30F5
330
1A
100
AcDbEntity
  8
実線
100
AcDbCircle
 10
675.7682247058409
 20
-102.7137655720653
 30
0.0
 40
27.5
  0
CIRCLE
  5
30F6
330
1A
100
AcDbEntity
  8
実線
100
AcDbCircle
 10
380.7682247058409
 20
-397.7137655720653
 30
0.0
 40
27.5
  0
CIRCLE
  5
30F7
330
1A
100
AcDbEntity
  8
実線
100
AcDbCircle
 10
675.7682247058409
 20
-397.7137655720653
 30
0.0
 40
27.5
  0
LINE
  5
322D
330
1A
100
AcDbEntity
  8
中心線
100
AcDbLine
 10
1098.873
 20
555.3539817553696
 30
0.0
 11
1203.873
 21
555.3539817553696
 31
0.0
  0
CIRCLE
  5
322E
330
1A
100
AcDbEntity
  8
実線
100
AcDbCircle
 10
1151.372636608039
 20
555.3539817553696
 30
0.0
 40
27.75
  0
LINE
  5
3370
330
1A
100
AcDbEntity
  8
中心線
100
AcDbLine
 10
545.1028964149732
 20
482.8539817553696
 30
0.0
 11
581.103
 21
482.8539817553696
 31
0.0
  0
LINE
  5
33A7
330
1A
100
AcDbEntity
  8
実線
100
AcDbLine
 10
365.2682247058409
 20
-374.7137655720649
 30
0.0
 11
365.2682247058409
 21
-125.7137655720653
 31
0.0
  0
LINE
  5
33A8
330
1A
100
AcDbEntity
  8
実線
100
AcDbLine
 10
652.7682247058407
 20
-413.2137655720651
 30
0.0
 11
403.7682247058408
 21
-413.2137655720656
 31
0.0
  0
LINE
  5
3423
330
1A
100
AcDbEntity
  8
破線
100
AcDbLine
 10
-147.7411073926331
 20
570.8539817553696
 30
0.0
 11
101.2588926073667
 21
570.8539817553696
 31
0.0
  0
LINE
  5
3424
330
1A
100
AcDbEntity
  8
破線
100
AcDbLine
 10
-185.9911073926332
 20
413.8539817553696
 30
0.0
 11
139.5088926073666
 21
413.8539817553692
 31
0.0
  0
LINE
  5
3425
330
1A
100
AcDbEntity
  8
破線
100
AcDbLine
 10
-185.991107392633
 20
401.8539817553697
 30
0.0
 11
139.5088926073671
 21
401.8539817553691
 31
0.0
  0
LINE
  5
3426
330
1A
100
AcDbEntity
  8
破線
100
AcDbLine
 10
101.2588926073667
 20
244.8539817553698
 30
0.0
 11
-147.7411073926331
 21
244.8539817553693
 31
0.0
  0
LINE
  5
3427
330
1A
100
AcDbEntity
  8
破線
100
AcDbLine
 10
101.2588926073665
 20
232.8539817553698
 30
0.0
 11
-147.7411073926331
 21
232.8539817553694
 31
0.0
  0
LINE
  5
3428
330
1A
100
AcDbEntity
  8
破線
100
AcDbLine
 10
-147.7411073926331
 20
582.8539817553696
 30
0.0
 11
101.2588926073665
 21
582.8539817553693
 31
0.0
  0
LINE
  5
342A
330
1A
100
AcDbEntity
  8
実線
100
AcDbLine
 10
-208.241
 20
592.8539817553696
 30
0.0
 11
161.759
 21
592.8539817553696
 31
0.0
  0
LINE
  5
342B
330
1A
100
AcDbEntity
  8
実線
100
AcDbLine
 10
-208.241
 20
222.8539817553695
 30
0.0
 11
161.759
 21
222.8539817553695
 31
0.0
  0
LINE
  5
342C
330
1A
100
AcDbEntity
  8
中心線
100
AcDbLine
 10
-118.2411073926332
 20
332.8539817553696
 30
0.0
 11
-78.24110739263322
 21
332.8539817553696
 31
0.0
  0
LINE
  5
3431
330
1A
100
AcDbEntity
  8
中心線
100
AcDbLine
 10
-118.2411073926332
 20
482.8539817553696
 30
0.0
 11
-78.24110739263322
 21
482.8539817553696
 31
0.0
  0
LINE
  5
3434
330
1A
100
AcDbEntity
  8
破線
100
AcDbLine
 10
-186.2411073926331
 20
283.3539817553699
 30
0.0
 11
-186.2411073926331
 21
532.3539817553696
 31
0.0
  0
LINE
  5
3435
330
1A
100
AcDbEntity
  8
破線
100
AcDbLine
 10
-198.2411073926332
 20
283.3539817553696
 30
0.0
 11
-198.2411073926332
 21
532.3539817553696
 31
0.0
  0
LINE
  5
3436
330
1A
100
AcDbEntity
  8
実線
100
AcDbLine
 10
-208.241107392633
 20
222.854
 30
0.0
 11
-208.241107392633
 21
592.854
 31
0.0
  0
CIRCLE
  5
343E
330
1A
100
AcDbEntity
  8
破線
100
AcDbCircle
 10
-170.7411073926332
 20
260.3539817553696
 30
0.0
 40
27.5
  0
LINE
  5
3442
330
1A
100
AcDbEntity
  8
破線
100
AcDbLine
 10
-147.7411073926331
 20
232.8539817553694
 30
0.0
 11
-147.7411073926331
 21
244.8539817553693
 31
0.0
  0
LINE
  5
3443
330
1A
100
AcDbEntity
  8
破線
100
AcDbLine
 10
-198.2411073926332
 20
283.3539817553696
 30
0.0
 11
-186.2411073926331
 21
283.3539817553699
 31
0.0
  0
LINE
  5
3444
330
1A
100
AcDbEntity
  8
破線
100
AcDbLine
 10
-185.991107392633
 20
401.8539817553697
 30
0.0
 11
-185.9911073926332
 21
413.8539817553696
 31
0.0
  0
LINE
  5
3445
330
1A
100
AcDbEntity
  8
中心線
100
AcDbLine
 10
-98.24110739263323
 20
352.8539817553697
 30
0.0
 11
-98.24110739263323
 21
312.8539817553696
 31
0.0
  0
LINE
  5
3446
330
1A
100
AcDbEntity
  8
中心線
100
AcDbLine
 10
-98.24110739263323
 20
502.8539817553697
 30
0.0
 11
-98.24110739263323
 21
462.8539817553696
 31
0.0
  0
CIRCLE
  5
344E
330
1A
100
AcDbEntity
  8
破線
100
AcDbCircle
 10
-170.7411073926332
 20
555.3539817553696
 30
0.0
 40
27.5
  0
LINE
  5
344F
330
1A
100
AcDbEntity
  8
破線
100
AcDbLine
 10
-198.2411073926332
 20
532.3539817553696
 30
0.0
 11
-186.2411073926331
 21
532.3539817553696
 31
0.0
  0
LINE
  5
3453
330
1A
100
AcDbEntity
  8
破線
100
AcDbLine
 10
-147.7411073926331
 20
582.8539817553696
 30
0.0
 11
-147.7411073926331
 21
570.8539817553696
 31
0.0
  0
LINE
  5
3454
330
1A
100
AcDbEntity
  8
破線
100
AcDbLine
 10
139.758892607367
 20
532.3539817553696
 30
0.0
 11
139.758892607367
 21
283.3539817553691
 31
0.0
  0
LINE
  5
3455
330
1A
100
AcDbEntity
  8
破線
100
AcDbLine
 10
-27.74110739263324
 20
570.3539817553696
 30
0.0
 11
-27.74110739263324
 21
413.8539817553696
 31
0.0
  0
LINE
  5
3456
330
1A
100
AcDbEntity
  8
破線
100
AcDbLine
 10
-18.74110739263324
 20
570.3539817553696
 30
0.0
 11
-18.74110739263324
 21
413.8539817553696
 31
0.0
  0
LINE
  5
3457
330
1A
100
AcDbEntity
  8
破線
100
AcDbLine
 10
151.758892607367
 20
532.3539817553693
 30
0.0
 11
151.758892607367
 21
283.3539817553694
 31
0.0
  0
LINE
  5
3458
330
1A
100
AcDbEntity
  8
中心線
100
AcDbLine
 10
-23.241
 20
607.8539817553696
 30
0.0
 11
-23.241
 21
207.8539817553695
 31
0.0
  0
LINE
  5
3459
330
1A
100
AcDbEntity
  8
実線
100
AcDbLine
 10
161.7588926073667
 20
222.854
 30
0.0
 11
161.7588926073667
 21
592.854
 31
0.0
  0
LINE
  5
345A
330
1A
100
AcDbEntity
  8
破線
100
AcDbLine
 10
-27.74110739263324
 20
401.8539817553697
 30
0.0
 11
-27.74110739263324
 21
245.3539817553696
 31
0.0
  0
LINE
  5
345B
330
1A
100
AcDbEntity
  8
破線
100
AcDbLine
 10
-18.74110739263324
 20
401.8539817553697
 30
0.0
 11
-18.74110739263324
 21
245.3539817553696
 31
0.0
  0
LINE
  5
345E
330
1A
100
AcDbEntity
  8
破線
100
AcDbLine
 10
-27.74110739263324
 20
245.3539817553696
 30
0.0
 11
-18.74110739263324
 21
245.3539817553696
 31
0.0
  0
CIRCLE
  5
3461
330
1A
100
AcDbEntity
  8
破線
100
AcDbCircle
 10
124.2588926073667
 20
260.3539817553696
 30
0.0
 40
27.5
  0
LINE
  5
3463
330
1A
100
AcDbEntity
  8
破線
100
AcDbLine
 10
101.2588926073665
 20
232.8539817553698
 30
0.0
 11
101.2588926073667
 21
244.8539817553698
 31
0.0
  0
LINE
  5
3466
330
1A
100
AcDbEntity
  8
破線
100
AcDbLine
 10
151.758892607367
 20
283.3539817553694
 30
0.0
 11
139.758892607367
 21
283.3539817553691
 31
0.0
  0
LINE
  5
346B
330
1A
100
AcDbEntity
  8
中心線
100
AcDbLine
 10
31.75889260736676
 20
332.8539817553696
 30
0.0
 11
71.75889260736669
 21
332.8539817553696
 31
0.0
  0
LINE
  5
346F
330
1A
100
AcDbEntity
  8
中心線
100
AcDbLine
 10
51.75889260736667
 20
352.8539817553697
 30
0.0
 11
51.75889260736667
 21
312.8539817553696
 31
0.0
  0
LINE
  5
3475
330
1A
100
AcDbEntity
  8
中心線
100
AcDbLine
 10
31.75889260736676
 20
482.8539817553696
 30
0.0
 11
71.75889260736669
 21
482.8539817553696
 31
0.0
  0
LINE
  5
3479
330
1A
100
AcDbEntity
  8
中心線
100
AcDbLine
 10
51.75889260736667
 20
502.8539817553697
 30
0.0
 11
51.75889260736667
 21
462.8539817553696
 31
0.0
  0
LINE
  5
347A
330
1A
100
AcDbEntity
  8
破線
100
AcDbLine
 10
139.5088926073666
 20
413.8539817553692
 30
0.0
 11
139.5088926073671
 21
401.8539817553691
 31
0.0
  0
LINE
  5
347C
330
1A
100
AcDbEntity
  8
破線
100
AcDbLine
 10
-27.74110739263324
 20
570.3539817553696
 30
0.0
 11
-18.74110739263324
 21
570.3539817553696
 31
0.0
  0
CIRCLE
  5
3480
330
1A
100
AcDbEntity
  8
破線
100
AcDbCircle
 10
124.2588926073667
 20
555.3539817553696
 30
0.0
 40
27.5
  0
LINE
  5
3481
330
1A
100
AcDbEntity
  8
破線
100
AcDbLine
 10
151.758892607367
 20
532.3539817553693
 30
0.0
 11
139.758892607367
 21
532.3539817553696
 31
0.0
  0
LINE
  5
3483
330
1A
100
AcDbEntity
  8
破線
100
AcDbLine
 10
101.2588926073665
 20
582.8539817553693
 30
0.0
 11
101.2588926073667
 21
570.8539817553696
 31
0.0
  0
CIRCLE
  5
348A
330
1A
100
AcDbEntity
  8
実線
100
AcDbCircle
 10
-98.24110739263323
 20
332.8539817553696
 30
0.0
 40
12.5
  0
CIRCLE
  5
348B
330
1A
100
AcDbEntity
  8
実線
100
AcDbCircle
 10
51.75889260736667
 20
332.8539817553696
 30
0.0
 40
12.5
  0
CIRCLE
  5
348C
330
1A
100
AcDbEntity
  8
実線
100
AcDbCircle
 10
51.75889260736667
 20
482.8539817553696
 30
0.0
 40
12.5
  0
CIRCLE
  5
348D
330
1A
100
AcDbEntity
  8
実線
100
AcDbCircle
 10
-98.24110739263323
 20
482.8539817553696
 30
0.0
 40
12.5
  0
LINE
  5
3F11
330
1A
100
AcDbEntity
  8
中心線
100
AcDbLine
 10
769.1029999999997
 20
512.8539817553696
 30
0.0
 11
733.1029999999997
 21
512.8539817553696
 31
0.0
  0
LINE
  5
3F12
330
1A
100
AcDbEntity
  8
中心線
100
AcDbLine
 10
769.1029999999997
 20
302.8539817553697
 30
0.0
 11
733.1029999999997
 21
302.8539817553697
 31
0.0
  0
LINE
  5
3F3A
330
1A
100
AcDbEntity
  8
中心線
100
AcDbLine
 10
1298.873
 20
187.8539817553695
 30
0.0
 11
1298.873
 21
627.8539817553697
 31
0.0
  0
LINE
  5
3F44
330
1A
100
AcDbEntity
  8
中心線
100
AcDbLine
 10
1151.372653912418
 20
502.8543278429516
 30
0.0
 11
1151.372653912418
 21
607.8543278429516
 31
0.0
  0
CIRCLE
  5
3F45
330
1A
100
AcDbEntity
  8
実線
100
AcDbCircle
 10
1151.372636608039
 20
555.3539817553696
 30
0.0
 40
27.5
  0
LINE
  5
3F52
330
1A
100
AcDbEntity
  8
中心線
100
AcDbLine
 10
1098.873
 20
260.3539817553697
 30
0.0
 11
1203.873
 21
260.3539817553697
 31
0.0
  0
CIRCLE
  5
3F53
330
1A
100
AcDbEntity
  8
実線
100
AcDbCircle
 10
1151.372636608039
 20
260.3539817553697
 30
0.0
 40
27.75
  0
LINE
  5
3F54
330
1A
100
AcDbEntity
  8
中心線
100
AcDbLine
 10
1151.372653912418
 20
207.8543278429517
 30
0.0
 11
1151.372653912418
 21
312.8543278429518
 31
0.0
  0
CIRCLE
  5
3F55
330
1A
100
AcDbEntity
  8
実線
100
AcDbCircle
 10
1151.372636608039
 20
260.3539817553697
 30
0.0
 40
27.5
  0
LINE
  5
3F56
330
1A
100
AcDbEntity
  8
中心線
100
AcDbLine
 10
1393.873
 20
555.3539817553696
 30
0.0
 11
1498.873
 21
555.3539817553696
 31
0.0
  0
CIRCLE
  5
3F57
330
1A
100
AcDbEntity
  8
実線
100
AcDbCircle
 10
1446.372636608039
 20
555.3539817553696
 30
0.0
 40
27.75
  0
LINE
  5
3F58
330
1A
100
AcDbEntity
  8
中心線
100
AcDbLine
 10
1446.372653912418
 20
502.8543278429516
 30
0.0
 11
1446.372653912418
 21
607.8543278429516
 31
0.0
  0
CIRCLE
  5
3F59
330
1A
100
AcDbEntity
  8
実線
100
AcDbCircle
 10
1446.372636608039
 20
555.3539817553696
 30
0.0
 40
27.5
  0
LINE
  5
3F5A
330
1A
100
AcDbEntity
  8
中心線
100
AcDbLine
 10
1393.873
 20
260.3539817553697
 30
0.0
 11
1498.873
 21
260.3539817553697
 31
0.0
  0
CIRCLE
  5
3F5B
330
1A
100
AcDbEntity
  8
実線
100
AcDbCircle
 10
1446.372636608039
 20
260.3539817553697
 30
0.0
 40
27.75
  0
LINE
  5
3F5C
330
1A
100
AcDbEntity
  8
中心線
100
AcDbLine
 10
1446.372653912418
 20
207.8543278429517
 30
0.0
 11
1446.372653912418
 21
312.8543278429518
 31
0.0
  0
CIRCLE
  5
3F5D
330
1A
100
AcDbEntity
  8
実線
100
AcDbCircle
 10
1446.372636608039
 20
260.3539817553697
 30
0.0
 40
27.5
  0
DIMENSION
  5
3FD9
330
1A
100
AcDbEntity
  8
寸法線
100
AcDbDimension
  2
*D48
 10
1493.872653812602
 20
92.85398175536959
 30
0.0
 11
1298.87265386251
 21
92.85398175536959
 31
0.0
 70
   160
 71
     5
 42
389.9999999001839
  3
STANDARD
100
AcDbAlignedDimension
 13
1103.872653912418
 23
212.8539817553696
 33
0.0
 14
1493.872653812602
 24
212.8539817553696
 34
0.0
100
AcDbRotatedDimension
  0
DIMENSION
  5
3FDA
330
1A
100
AcDbEntity
  8
寸法線
100
AcDbDimension
  2
*D49
 10
1403.872653912418
 20
140.8539817553696
 30
0.0
 11
1298.872653912418
 21
156.6060486845034
 31
0.0
 70
    32
 71
     5
 42
209.9999999999998
  3
STANDARD
100
AcDbAlignedDimension
 13
1193.872653912418
 23
278.8539817553695
 33
0.0
 14
1403.872653912418
 24
278.8539817553695
 34
0.0
100
AcDbRotatedDimension
  0
DIMENSION
  5
3FDB
330
1A
100
AcDbEntity
  8
寸法線
100
AcDbDimension
  2
*D50
 10
1193.872653912418
 20
140.8539817553696
 30
0.0
 11
1148.872653912418
 21
140.8539817553696
 31
0.0
 70
   160
 71
     5
 42
90.0
  3
STANDARD
100
AcDbAlignedDimension
 13
1103.872653912418
 23
212.8539817553696
 33
0.0
 14
1193.872653912418
 24
278.8539817553695
 34
0.0
100
AcDbRotatedDimension
  0
DIMENSION
  5
3FDC
330
1A
100
AcDbEntity
  8
寸法線
100
AcDbDimension
  2
*D51
 10
1493.872653812602
 20
140.8539817553696
 30
0.0
 11
1448.87265386251
 21
140.8539817553696
 31
0.0
 70
   160
 71
     5
 42
89.99999990018409
  3
STANDARD
100
AcDbAlignedDimension
 13
1403.872653912418
 23
278.8539817553695
 33
0.0
 14
1493.872653812602
 24
212.8539817553696
 34
0.0
100
AcDbRotatedDimension
  0
MTEXT
  5
3FE1
330
1A
100
AcDbEntity
  8
寸法線
100
AcDbMText
 10
1751.308736134092
 20
148.2936020551214
 30
0.0
 40
21.0
 41
0.0
 71
     9
 72
     5
  1
4-20×30長穴
 73
     1
 44
1.0
1001
ACAD
1000
MTEXTBEGIN
1070
    73
1070
     1
1070
    44
1040
1.0
1070
    74
1070
     0
1000
MTEXTEND
  0
MTEXT
  5
3FE2
330
1A
100
AcDbEntity
  8
寸法線
100
AcDbMText
 10
1651.454762608228
 20
109.6000902917797
 30
0.0
 40
21.0
 41
0.0
 71
     9
 72
     5
  1
(ｱﾝｶｰ用)
 73
     1
 44
1.0
1001
ACAD
1000
MTEXTBEGIN
1070
    73
1070
     1
1070
    44
1040
1.0
1070
    74
1070
     0
1000
MTEXTEND
  0
LINE
  5
3FE3
330
1A
100
AcDbEntity
  8
寸法線
100
AcDbLine
 10
1565.872653812602
 20
140.8539817553696
 30
0.0
 11
1758.749539656809
 21
140.8539817553696
 31
0.0
  0
LEADER
  5
3FE4
330
1A
100
AcDbEntity
  8
寸法線
100
AcDbLeader
  3
STANDARD
 76
     2
 10
1412.98703218621
 20
293.7396034759617
 30
0.0
 10
1565.872653812602
 20
140.8539817553696
 30
0.0
1001
ACAD
1000
DSTYLE
1002
{
1070
   147
1040
0.875
1070
    77
1070
     0
1002
}
  0
DIMENSION
  5
40DF
330
1A
100
AcDbEntity
  8
寸法線
100
AcDbDimension
  2
*D56
 10
1613.872653912418
 20
602.8539816555536
 30
0.0
 11
1613.872653912418
 21
407.8539817054616
 31
0.0
 70
   160
 71
     5
 42
389.9999999001837
  3
STANDARD
100
AcDbAlignedDimension
 13
1493.872653912418
 23
212.8539817553699
 33
0.0
 14
1493.872653912418
 24
602.8539816555536
 34
0.0
 50
90.0
100
AcDbRotatedDimension
  0
DIMENSION
  5
40E0
330
1A
100
AcDbEntity
  8
寸法線
100
AcDbDimension
  2
*D57
 10
1565.872653912418
 20
512.8539817553696
 30
0.0
 11
1550.120586983284
 21
407.8539817553696
 31
0.0
 70
    32
 71
     5
 42
210.0000000000002
  3
STANDARD
100
AcDbAlignedDimension
 13
1432.872653912417
 23
302.8539817553695
 33
0.0
 14
1432.872653912417
 24
512.8539817553696
 34
0.0
 50
90.0
100
AcDbRotatedDimension
  0
DIMENSION
  5
40E1
330
1A
100
AcDbEntity
  8
寸法線
100
AcDbDimension
  2
*D58
 10
1565.872653912418
 20
302.8539817553695
 30
0.0
 11
1565.872653912418
 21
257.8539817553696
 31
0.0
 70
   160
 71
     5
 42
89.99999999999955
  3
STANDARD
100
AcDbAlignedDimension
 13
1493.872653912418
 23
212.8539817553699
 33
0.0
 14
1432.872653912417
 24
302.8539817553695
 34
0.0
 50
90.0
100
AcDbRotatedDimension
  0
DIMENSION
  5
40E2
330
1A
100
AcDbEntity
  8
寸法線
100
AcDbDimension
  2
*D59
 10
1565.872653912418
 20
602.8539816555536
 30
0.0
 11
1565.872653912418
 21
557.8539817054616
 31
0.0
 70
   160
 71
     5
 42
89.99999990018398
  3
STANDARD
100
AcDbAlignedDimension
 13
1432.872653912417
 23
512.8539817553696
 33
0.0
 14
1493.872653912418
 24
602.8539816555536
 34
0.0
 50
90.0
100
AcDbRotatedDimension
  0
MTEXT
  5
41EE
330
1A
100
AcDbEntity
  8
寸法線
100
AcDbMText
 10
921.0824639570141
 20
147.0874984721886
 30
0.0
 40
21.0
 41
0.0
 71
     7
 72
     5
  1
4-φ55.5
 73
     1
 44
1.0
1001
ACAD
1000
MTEXTBEGIN
1070
    73
1070
     1
1070
    44
1040
1.0
1070
    74
1070
     0
1000
MTEXTEND
  0
LEADER
  5
41EF
330
1A
100
AcDbEntity
  8
寸法線
100
AcDbLeader
  3
STANDARD
 76
     2
 10
1131.018207687457
 20
239.9995355304093
 30
0.0
 10
1031.872653912418
 20
140.8539817553696
 30
0.0
211
-1.0
221
0.0
231
0.0
1001
ACAD
1000
DSTYLE
1002
{
1070
   147
1040
0.875
1070
    77
1070
     0
1002
}
  0
LINE
  5
41F0
330
1A
100
AcDbEntity
  8
寸法線
100
AcDbLine
 10
1031.872653912418
 20
140.8539817553696
 30
0.0
 11
917.3222466157891
 21
140.8539817553696
 31
0.0
  0
DIMENSION
  5
41F1
330
1A
100
AcDbEntity
  8
寸法線
100
AcDbDimension
  2
*D63
 10
1055.872653912418
 20
555.3539817553696
 30
0.0
 11
1040.120586983284
 21
407.8539817553696
 31
0.0
 70
    32
 71
     5
 42
295.0
  3
STANDARD
100
AcDbAlignedDimension
 13
1098.873
 23
260.3539817553697
 33
0.0
 14
1098.873
 24
555.3539817553696
 34
0.0
 50
90.0
100
AcDbRotatedDimension
  0
DIMENSION
  5
41F2
330
1A
100
AcDbEntity
  8
寸法線
100
AcDbDimension
  2
*D64
 10
1055.872653912417
 20
260.3539817553697
 30
0.0
 11
1055.872653912417
 21
236.6039817553698
 31
0.0
 70
   160
 71
     5
 42
47.50000000000006
  3
STANDARD
100
AcDbAlignedDimension
 13
1103.872653912418
 23
212.8539817553696
 33
0.0
 14
1098.873
 24
260.3539817553697
 34
0.0
 50
90.0
100
AcDbRotatedDimension
  0
DIMENSION
  5
41F3
330
1A
100
AcDbEntity
  8
寸法線
100
AcDbDimension
  2
*D65
 10
1055.872653912418
 20
602.8539817553697
 30
0.0
 11
1055.872653912418
 21
579.1039817553698
 31
0.0
 70
   160
 71
     5
 42
47.5000000000001
  3
STANDARD
100
AcDbAlignedDimension
 13
1098.873
 23
555.3539817553696
 33
0.0
 14
1103.872653912418
 24
602.8539817553697
 34
0.0
 50
90.0
100
AcDbRotatedDimension
  0
DIMENSION
  5
4273
330
1A
100
AcDbEntity
  8
寸法線
100
AcDbDimension
  2
*D66
 10
1446.372653912418
 20
650.8539817553693
 30
0.0
 11
1298.872653912418
 21
666.6060486845032
 31
0.0
 70
    32
 71
     5
 42
294.9999999999998
  3
STANDARD
100
AcDbAlignedDimension
 13
1151.372653912418
 23
607.8536356677874
 33
0.0
 14
1446.372653912418
 24
607.8536356677872
 34
0.0
100
AcDbRotatedDimension
  0
DIMENSION
  5
4274
330
1A
100
AcDbEntity
  8
寸法線
100
AcDbDimension
  2
*D67
 10
1151.372653912418
 20
650.8539817553707
 30
0.0
 11
1127.622653912418
 21
650.8539817553707
 31
0.0
 70
   160
 71
     5
 42
47.5
  3
STANDARD
100
AcDbAlignedDimension
 13
1103.872653912418
 23
602.8539817553697
 33
0.0
 14
1151.372653912418
 24
607.8536356677874
 34
0.0
100
AcDbRotatedDimension
  0
DIMENSION
  5
4275
330
1A
100
AcDbEntity
  8
寸法線
100
AcDbDimension
  2
*D68
 10
1493.872653912418
 20
650.8539817553693
 30
0.0
 11
1470.122653912418
 21
650.8539817553693
 31
0.0
 70
   160
 71
     5
 42
47.5
  3
STANDARD
100
AcDbAlignedDimension
 13
1446.372653912418
 23
607.8536356677872
 33
0.0
 14
1493.872653912418
 24
602.8539817553693
 34
0.0
100
AcDbRotatedDimension
  0
DIMENSION
  5
44AD
330
1A
100
AcDbEntity
  8
寸法線
100
AcDbDimension
  2
*D75
 10
161.759
 20
92.85436396360404
 30
0.0
 11
-23.241
 21
108.604363963604
 31
0.0
 70
    32
 71
     5
 42
370.0
  3
STANDARD
100
AcDbAlignedDimension
 13
-208.241
 23
222.8539817553695
 33
0.0
 14
161.759
 24
222.8539817553695
 34
0.0
100
AcDbRotatedDimension
  0
DIMENSION
  5
44AE
330
1A
100
AcDbEntity
  8
寸法線
100
AcDbDimension
  2
*D76
 10
51.75889260736667
 20
140.854363963604
 30
0.0
 11
-23.24110739263328
 21
156.604363963604
 31
0.0
 70
    32
  1
a
 71
     5
 42
149.9999999999999
  3
STANDARD
100
AcDbAlignedDimension
 13
-98.24110739263323
 23
312.8539817553696
 33
0.0
 14
51.75889260736667
 24
312.8539817553696
 34
0.0
100
AcDbRotatedDimension
  0
LEADER
  5
44AF
330
1A
100
AcDbEntity
  8
寸法線
100
AcDbLeader
  3
STANDARD
 76
     3
 10
60.59772883051817
 20
324.0151484488576
 30
0.0
 10
243.7591904472165
 20
140.8537472717834
 30
0.0
 10
402.1506777600776
 20
140.8537472717834
 30
0.0
1001
ACAD
1000
DSTYLE
1002
{
1070
   147
1040
0.875
1070
    77
1070
     0
1002
}
  0
MTEXT
  5
44B0
330
1A
100
AcDbEntity
  8
寸法線
100
AcDbMText
 10
332.7568298466021
 20
148.293367571535
 30
0.0
 40
21.0
 41
0.0
 71
     9
 72
     5
  1
4-φ25
 73
     1
 44
1.0
1001
ACAD
1000
MTEXTBEGIN
1070
    73
1070
     1
1070
    44
1040
1.0
1070
    74
1070
     0
1000
MTEXTEND
  0
MTEXT
  5
44B1
330
1A
100
AcDbEntity
  8
寸法線
100
AcDbMText
 10
254.7713689481793
 20
112.9864630858261
 30
0.0
 40
21.0
 41
0.0
 71
     7
 72
     5
  1
(切梁取付用)
 73
     1
 44
1.0
1001
ACAD
1000
MTEXTBEGIN
1070
    73
1070
     1
1070
    44
1040
1.0
1070
    74
1070
     0
1000
MTEXTEND
  0
TEXT
  5
44B2
330
1A
100
AcDbEntity
  8
寸法線
100
AcDbText
 10
-319.596301328077
 20
32.53037576863801
 30
0.0
 40
24.0
  1
ａ,ｂ：穴開け位置は切梁メーカー仕様による。
100
AcDbText
  0
LINE
  5
44B3
330
1A
100
AcDbEntity
  8
寸法線
100
AcDbLine
 10
-330.3990723039924
 20
20.85474197485309
 30
0.0
 11
279.2425265410993
 21
20.85474197485309
 31
0.0
  0
DIMENSION
  5
4519
330
1A
100
AcDbEntity
  8
寸法線
100
AcDbDimension
  2
*D79
 10
233.7590000000001
 20
482.8539817553695
 30
0.0
 11
218.009
 21
407.8539817553696
 31
0.0
 70
    32
  1
b
 71
     5
 42
150.0
  3
STANDARD
100
AcDbAlignedDimension
 13
71.75889260736669
 23
332.8539817553696
 33
0.0
 14
71.75889260736669
 24
482.8539817553696
 34
0.0
 50
90.0
100
AcDbRotatedDimension
  0
DIMENSION
  5
451A
330
1A
100
AcDbEntity
  8
寸法線
100
AcDbDimension
  2
*D80
 10
281.7590000000001
 20
592.8539817553695
 30
0.0
 11
266.009
 21
407.8539817553695
 31
0.0
 70
    32
 71
     5
 42
370.0000000000002
  3
STANDARD
100
AcDbAlignedDimension
 13
161.759
 23
222.8539817553695
 33
0.0
 14
161.759
 24
592.8539817553696
 34
0.0
 50
90.0
100
AcDbRotatedDimension
  0
DIMENSION
  5
45A9
330
1A
100
AcDbEntity
  8
寸法線
100
AcDbDimension
  2
*D85
 10
713.2682247058409
 20
-525.2136177917649
 30
0.0
 11
694.5182247058409
 21
-525.2136177917649
 31
0.0
 70
   160
 71
     5
 42
37.5
  3
STANDARD
100
AcDbAlignedDimension
 13
675.7682247058409
 23
-450.2134194844832
 33
0.0
 14
713.2682247058409
 24
-435.2139999999997
 34
0.0
100
AcDbRotatedDimension
  0
DIMENSION
  5
45AA
330
1A
100
AcDbEntity
  8
寸法線
100
AcDbDimension
  2
*D86
 10
675.7682247058409
 20
-525.2136177917649
 30
0.0
 11
528.2682247058409
 21
-509.4615508626311
 31
0.0
 70
    32
 71
     5
 42
295.0
  3
STANDARD
100
AcDbAlignedDimension
 13
380.7682247058409
 23
-450.2134194844832
 33
0.0
 14
675.7682247058409
 24
-450.2134194844832
 34
0.0
100
AcDbRotatedDimension
  0
DIMENSION
  5
45AB
330
1A
100
AcDbEntity
  8
寸法線
100
AcDbDimension
  2
*D87
 10
380.7682247058409
 20
-525.2136177917649
 30
0.0
 11
362.0182247058409
 21
-525.2136177917649
 31
0.0
 70
   160
 71
     5
 42
37.49999999999995
  3
STANDARD
100
AcDbAlignedDimension
 13
343.2682247058409
 23
-435.2139999999997
 33
0.0
 14
380.7682247058409
 24
-450.2134194844832
 34
0.0
100
AcDbRotatedDimension
  0
TEXT
  5
45AC
330
1A
100
AcDbEntity
  8
寸法線
100
AcDbText
 10
465.6896181707347
 20
-590.4851694902472
 30
0.0
 40
24.0
  1
断面Ａ－Ａ
100
AcDbText
  0
LINE
  5
45AD
330
1A
100
AcDbEntity
  8
寸法線
100
AcDbLine
 10
454.2873509312036
 20
-597.2139943275911
 30
0.0
 11
614.821310566335
 21
-597.2139943275911
 31
0.0
  0
DIMENSION
  5
4686
330
1A
100
AcDbEntity
  8
寸法線
100
AcDbDimension
  2
*D91
 10
803.2678424976062
 20
-65.21399999999978
 30
0.0
 11
803.2678424976062
 21
-83.96399999999964
 31
0.0
 70
   160
 71
     5
 42
37.50000000000002
  3
STANDARD
100
AcDbAlignedDimension
 13
728.2676441903244
 23
-102.7139999999997
 33
0.0
 14
713.268224705841
 24
-65.21399999999975
 34
0.0
 50
90.0
100
AcDbRotatedDimension
  0
DIMENSION
  5
4687
330
1A
100
AcDbEntity
  8
寸法線
100
AcDbDimension
  2
*D92
 10
803.2678424976062
 20
-102.7139999999998
 30
0.0
 11
787.5157755684722
 21
-250.2139999999997
 31
0.0
 70
    32
 71
     5
 42
295.0
  3
STANDARD
100
AcDbAlignedDimension
 13
728.2676441903244
 23
-397.7139999999998
 33
0.0
 14
728.2676441903244
 24
-102.7139999999997
 34
0.0
 50
90.0
100
AcDbRotatedDimension
  0
DIMENSION
  5
4688
330
1A
100
AcDbEntity
  8
寸法線
100
AcDbDimension
  2
*D93
 10
803.2678424976062
 20
-397.7139999999998
 30
0.0
 11
803.2678424976062
 21
-416.4639999999995
 31
0.0
 70
   160
 71
     5
 42
37.5
  3
STANDARD
100
AcDbAlignedDimension
 13
713.2682247058409
 23
-435.2139999999997
 33
0.0
 14
728.2676441903244
 24
-397.7139999999998
 34
0.0
 50
90.0
100
AcDbRotatedDimension
  0
LINE
  5
4A9B
330
1A
100
AcDbEntity
  8
中心線
100
AcDbLine
 10
-23.241
 20
592.8539817553696
 30
0.0
 11
-23.241
 21
607.8539817553696
 31
0.0
  0
LINE
  5
4AA4
330
1A
100
AcDbEntity
  8
中心線
100
AcDbLine
 10
-223.2410000000001
 20
407.8539817553695
 30
0.0
 11
176.759
 21
407.8539817553695
 31
0.0
  0
LINE
  5
4AA5
330
1A
100
AcDbEntity
  8
中心線
100
AcDbLine
 10
528.2682247058409
 20
-50.21400000000006
 30
0.0
 11
528.2682247058409
 21
-450.2140000000001
 31
0.0
  0
LINE
  5
4AA6
330
1A
100
AcDbEntity
  8
中心線
100
AcDbLine
 10
328.2682247058408
 20
-250.2140000000002
 30
0.0
 11
728.268224705841
 21
-250.2140000000002
 31
0.0
  0
LINE
  5
4AAF
330
1A
100
AcDbEntity
  8
中心線
100
AcDbLine
 10
-170.7411073926332
 20
595.3539817553697
 30
0.0
 11
-170.7411073926332
 21
515.3539817553697
 31
0.0
  0
LINE
  5
4AB0
330
1A
100
AcDbEntity
  8
中心線
100
AcDbLine
 10
-210.7411073926332
 20
555.3539817553696
 30
0.0
 11
-130.7411073926332
 21
555.3539817553696
 31
0.0
  0
LINE
  5
4AB1
330
1A
100
AcDbEntity
  8
中心線
100
AcDbLine
 10
124.2588926073667
 20
595.3539817553696
 30
0.0
 11
124.2588926073667
 21
515.3539817553697
 31
0.0
  0
LINE
  5
4AB2
330
1A
100
AcDbEntity
  8
中心線
100
AcDbLine
 10
84.25889260736671
 20
555.3539817553692
 30
0.0
 11
164.2588926073667
 21
555.3539817553692
 31
0.0
  0
LINE
  5
4AB3
330
1A
100
AcDbEntity
  8
中心線
100
AcDbLine
 10
124.2588926073667
 20
300.3539817553696
 30
0.0
 11
124.2588926073667
 21
220.3539817553696
 31
0.0
  0
LINE
  5
4AB4
330
1A
100
AcDbEntity
  8
中心線
100
AcDbLine
 10
84.25889260736671
 20
260.3539817553695
 30
0.0
 11
164.2588926073667
 21
260.3539817553695
 31
0.0
  0
LINE
  5
4AB5
330
1A
100
AcDbEntity
  8
中心線
100
AcDbLine
 10
-170.7411073926332
 20
300.3539817553696
 30
0.0
 11
-170.7411073926332
 21
220.3539817553696
 31
0.0
  0
LINE
  5
4AB6
330
1A
100
AcDbEntity
  8
中心線
100
AcDbLine
 10
-210.7411073926332
 20
260.3539817553695
 30
0.0
 11
-130.7411073926332
 21
260.3539817553695
 31
0.0
  0
LINE
  5
4AB7
330
1A
100
AcDbEntity
  8
中心線
100
AcDbLine
 10
380.7682247058409
 20
-62.71376557206531
 30
0.0
 11
380.7682247058409
 21
-142.7137655720653
 31
0.0
  0
LINE
  5
4AB8
330
1A
100
AcDbEntity
  8
中心線
100
AcDbLine
 10
340.7682247058409
 20
-102.7137655720655
 30
0.0
 11
420.7682247058408
 21
-102.7137655720655
 31
0.0
  0
LINE
  5
4AB9
330
1A
100
AcDbEntity
  8
中心線
100
AcDbLine
 10
675.7682247058408
 20
-62.71376557206531
 30
0.0
 11
675.7682247058408
 21
-142.7137655720653
 31
0.0
  0
LINE
  5
4ABA
330
1A
100
AcDbEntity
  8
中心線
100
AcDbLine
 10
635.7682247058408
 20
-102.7137655720655
 30
0.0
 11
715.7682247058407
 21
-102.7137655720655
 31
0.0
  0
LINE
  5
4ABB
330
1A
100
AcDbEntity
  8
中心線
100
AcDbLine
 10
675.7682247058408
 20
-357.7137655720652
 30
0.0
 11
675.7682247058408
 21
-437.7137655720652
 31
0.0
  0
LINE
  5
4ABC
330
1A
100
AcDbEntity
  8
中心線
100
AcDbLine
 10
635.7682247058408
 20
-397.7137655720655
 30
0.0
 11
715.7682247058407
 21
-397.7137655720655
 31
0.0
  0
LINE
  5
4ABD
330
1A
100
AcDbEntity
  8
中心線
100
AcDbLine
 10
380.7682247058409
 20
-357.7137655720652
 30
0.0
 11
380.7682247058409
 21
-437.7137655720652
 31
0.0
  0
LINE
  5
4ABE
330
1A
100
AcDbEntity
  8
中心線
100
AcDbLine
 10
340.7682247058409
 20
-397.7137655720655
 30
0.0
 11
420.7682247058408
 21
-397.7137655720655
 31
0.0
  0
LINE
  5
4C5C
330
1A
100
AcDbEntity
  8
実線
100
AcDbLine
 10
759.1028964149734
 20
578.2351796018526
 30
0.0
 11
759.1028964149734
 21
532.4727839088867
 31
0.0
  0
LINE
  5
4C5D
330
1A
100
AcDbEntity
  8
破線
100
AcDbLine
 10
759.1028964149734
 20
578.2351796018526
 30
0.0
 11
751.1028964149734
 21
582.8539817553697
 31
0.0
  0
LINE
  5
4C5E
330
1A
100
AcDbEntity
  8
破線
100
AcDbLine
 10
759.1028964149734
 20
532.4727839088867
 30
0.0
 11
751.1028964149732
 21
527.8539817553697
 31
0.0
  0
LINE
  5
4C5F
330
1A
100
AcDbEntity
  8
破線
100
AcDbLine
 10
751.1028964149734
 20
582.8539817553697
 30
0.0
 11
743.1028964149734
 21
582.8539817553696
 31
0.0
  0
LINE
  5
4C60
330
1A
100
AcDbEntity
  8
破線
100
AcDbLine
 10
751.1028964149732
 20
527.8539817553697
 30
0.0
 11
743.1028964149734
 21
527.8539817553697
 31
0.0
  0
LINE
  5
4C61
330
1A
100
AcDbEntity
  8
破線
100
AcDbLine
 10
759.1028964149734
 20
283.2351796018528
 30
0.0
 11
751.1028964149734
 21
287.8539817553697
 31
0.0
  0
LINE
  5
4C62
330
1A
100
AcDbEntity
  8
破線
100
AcDbLine
 10
759.1028964149734
 20
237.4727839088869
 30
0.0
 11
751.1028964149732
 21
232.8539817553698
 31
0.0
  0
LINE
  5
4C63
330
1A
100
AcDbEntity
  8
破線
100
AcDbLine
 10
751.1028964149734
 20
287.8539817553697
 30
0.0
 11
743.1028964149734
 21
287.8539817553697
 31
0.0
  0
LINE
  5
4C64
330
1A
100
AcDbEntity
  8
破線
100
AcDbLine
 10
751.1028964149732
 20
232.8539817553698
 30
0.0
 11
743.1028964149734
 21
232.8539817553698
 31
0.0
  0
VIEWPORT
  5
22
102
{ACAD_XDICTIONARY
360
4CF1
102
}
330
17
100
AcDbEntity
 67
     1
  8
0
100
AcDbViewport
 10
-26.02917977568405
 20
142.4880139160445
 30
0.0
 40
410.6750660266664
 41
319.7845437994448
 68
     1
 69
     1
 12
-26.02917977568405
 22
142.4880139160445
 13
0.0
 23
0.0
 14
1.0
 24
1.0
 15
10.0
 25
10.0
 16
0.0
 26
0.0
 36
1.0
 17
0.0
 27
0.0
 37
0.0
 42
50.0
 43
0.0
 44
0.0
 45
319.7845437994448
 50
0.0
 51
0.0
 72
   100
 90
    32768
  1

281
     0
 71
     1
 74
     0
110
0.0
120
0.0
130
0.0
111
1.0
121
0.0
131
0.0
112
0.0
122
1.0
132
0.0
 79
     0
146
0.0
  0
LINE
  5
E14
330
17
100
AcDbEntity
 67
     1
  8
DEFPOINTS
100
AcDbLine
 10
178.0599999999999
 20
284.99
 30
0.0
 11
178.0599999999999
 21
274.99
 31
0.0
  0
LINE
  5
E15
330
17
100
AcDbEntity
 67
     1
  8
DEFPOINTS
100
AcDbLine
 10
-230.12
 20
284.9899999999998
 30
0.0
 11
-230.12
 21
274.9899999999998
 31
0.0
  0
LINE
  5
E16
330
17
100
AcDbEntity
 67
     1
  8
DEFPOINTS
100
AcDbLine
 10
-230.12
 20
284.9899999999998
 30
0.0
 11
-220.06
 21
284.9899999999998
 31
0.0
  0
LINE
  5
E17
330
17
100
AcDbEntity
 67
     1
  8
DEFPOINTS
100
AcDbLine
 10
178.06
 20
0.0000000000000799
 30
0.0
 11
168.06
 21
0.0000000000000799
 31
0.0
  0
LINE
  5
E1B
330
17
100
AcDbEntity
 67
     1
  8
DEFPOINTS
100
AcDbLine
 10
-230.1199999999999
 20
9.999999999999886
 30
0.0
 11
-230.1199999999999
 21
-0.0000000000001137
 31
0.0
  0
LINE
  5
E1C
330
17
100
AcDbEntity
 67
     1
  8
DEFPOINTS
100
AcDbLine
 10
178.06
 20
10.00000000000007
 30
0.0
 11
178.06
 21
0.0000000000000799
 31
0.0
  0
LINE
  5
E1D
330
17
100
AcDbEntity
 67
     1
  8
DEFPOINTS
100
AcDbLine
 10
168.0599999999999
 20
284.99
 30
0.0
 11
178.0599999999999
 21
284.99
 31
0.0
  0
LINE
  5
E1E
330
17
100
AcDbEntity
 67
     1
  8
DEFPOINTS
100
AcDbLine
 10
-220.06
 20
-0.0000000000001137
 30
0.0
 11
-230.1199999999999
 21
-0.0000000000001137
 31
0.0
  0
LINE
  5
E20
330
17
100
AcDbEntity
 67
     1
  8
ZUWAKU
 62
     7
100
AcDbLine
 10
172.6549999999999
 20
280.7280205533942
 30
0.0
 11
172.655
 21
6.728020553394202
 31
0.0
  0
MTEXT
  5
EB9
330
17
100
AcDbEntity
 67
     1
  8
実線
100
AcDbMText
 10
36.05971463168272
 20
25.13192253593833
 30
0.0
 40
3.5
 41
57.13637628431556
 71
     1
 72
     5
  1

 73
     1
 44
1.0
1001
ACAD
1000
MTEXTBEGIN
1070
    73
1070
     1
1070
    44
1040
1.0
1070
    74
1070
     0
1000
MTEXTEND
  0
MTEXT
  5
EBA
330
17
100
AcDbEntity
 67
     1
  8
実線
100
AcDbMText
 10
60.40477930934763
 20
64.60177102984051
 30
0.0
 40
3.5
 41
52.16799573785332
 71
     1
 72
     5
  1

 73
     1
 44
1.0
1001
ACAD
1000
MTEXTBEGIN
1070
    73
1070
     1
1070
    44
1040
1.0
1070
    74
1070
     0
1000
MTEXTEND
  0
LINE
  5
EBD
330
17
100
AcDbEntity
 67
     1
  8
ZUWAKU
 62
     7
100
AcDbLine
 10
172.655
 20
6.728020553394202
 30
0.0
 11
-204.3449999999999
 21
6.728020553394202
 31
0.0
  0
MTEXT
  5
EBF
330
17
100
AcDbEntity
 67
     1
  8
ZUWAKU
100
AcDbMText
 10
120.9216525254086
 20
9.39733673440115
 30
0.0
 40
3.5
 41
8.903056410044085
 71
     1
 72
     5
  1

 73
     1
 44
1.0
1001
ACAD
1000
MTEXTBEGIN
1070
    73
1070
     1
1070
    44
1040
1.0
1070
    74
1070
     0
1000
MTEXTEND
  0
LINE
  5
F68
330
17
100
AcDbEntity
 67
     1
  8
ZUWAKU
 62
     7
100
AcDbLine
 10
-204.345
 20
280.7280205533942
 30
0.0
 11
-204.3449999999999
 21
6.728020553394202
 31
0.0
  0
LINE
  5
F69
330
17
100
AcDbEntity
 67
     1
  8
ZUWAKU
 62
     7
100
AcDbLine
 10
-204.345
 20
280.7280205533942
 30
0.0
 11
172.6549999999999
 21
280.7280205533942
 31
0.0
  0
VIEWPORT
  5
F6B
102
{ACAD_XDICTIONARY
360
4CF3
102
}
330
17
100
AcDbEntity
 67
     1
  8
DEFPOINTS
100
AcDbViewport
 10
-26.03
 20
142.4949999999999
 30
0.0
 40
408.1800000000002
 41
284.9899999999997
 68
     2
 69
     2
 12
611.0724217089482
 22
-84.05567021391354
 13
0.0
 23
0.0
 14
5.0
 24
5.0
 15
0.0
 25
0.0
 16
0.0
 26
0.0
 36
1.0
 17
0.0
 27
0.0
 37
0.0
 42
50.0
 43
0.0
 44
0.0
 45
1709.940000229359
 50
0.0
 51
0.0
 72
   100
 90
    32768
  1

281
     0
 71
     1
 74
     0
110
0.0
120
0.0
130
0.0
111
1.0
121
0.0
131
0.0
112
0.0
122
1.0
132
0.0
 79
     0
146
0.0
  0
LINE
  5
FDA
330
17
100
AcDbEntity
 67
     1
  8
ZUWAKU
 62
     2
100
AcDbLine
 10
172.655
 20
42.7280205533942
 30
0.0
 11
57.6550000000001
 21
42.72802055339421
 31
0.0
  0
LINE
  5
FDB
330
17
100
AcDbEntity
 67
     1
  8
ZUWAKU
 62
     2
100
AcDbLine
 10
172.655
 20
36.7280205533942
 30
0.0
 11
57.6550000000001
 21
36.7280205533942
 31
0.0
  0
LINE
  5
FDD
330
17
100
AcDbEntity
 67
     1
  8
ZUWAKU
 62
     2
100
AcDbLine
 10
172.655
 20
30.7280205533942
 30
0.0
 11
57.6550000000001
 21
30.7280205533942
 31
0.0
  0
LINE
  5
FFD
330
17
100
AcDbEntity
 67
     1
  8
ZUWAKU
 62
     2
100
AcDbLine
 10
69.6550000000001
 20
77.72802055339422
 30
0.0
 11
69.6550000000001
 21
36.7280205533942
 31
0.0
  0
LINE
  5
FFE
330
17
100
AcDbEntity
 67
     1
  8
ZUWAKU
 62
     2
100
AcDbLine
 10
121.655
 20
77.72802055339422
 30
0.0
 11
121.655
 21
36.7280205533942
 31
0.0
  0
LINE
  5
FFF
330
17
100
AcDbEntity
 67
     1
  8
ZUWAKU
 62
     2
100
AcDbLine
 10
135.655
 20
77.72802055339422
 30
0.0
 11
135.655
 21
30.7280205533942
 31
0.0
  0
LINE
  5
1000
330
17
100
AcDbEntity
 67
     1
  8
ZUWAKU
 62
     2
100
AcDbLine
 10
104.655
 20
77.72802055339422
 30
0.0
 11
104.655
 21
30.7280205533942
 31
0.0
  0
LINE
  5
1001
330
17
100
AcDbEntity
 67
     1
  8
ZUWAKU
 62
     2
100
AcDbLine
 10
57.65500000000006
 20
77.72802055339422
 30
0.0
 11
57.6550000000001
 21
6.728020553394181
 31
0.0
  0
TEXT
  5
1002
330
17
100
AcDbEntity
 67
     1
  8
ZUWAKU
 62
     2
100
AcDbText
 10
107.3216666666666
 20
37.9780205533942
 30
0.0
 40
3.5
  1
材　質
 72
     4
 11
113.155
 21
39.7280205533942
 31
0.0
100
AcDbText
  0
LINE
  5
1003
330
17
100
AcDbEntity
 67
     1
  8
ZUWAKU
 62
     2
100
AcDbLine
 10
172.655
 20
18.7280205533942
 30
0.0
 11
-6.344999999999897
 21
18.72802055339421
 31
0.0
  0
LINE
  5
1004
330
17
100
AcDbEntity
 67
     1
  8
ZUWAKU
 62
     2
100
AcDbLine
 10
117.655
 20
12.7280205533942
 30
0.0
 11
72.6550000000001
 21
12.7280205533942
 31
0.0
  0
LINE
  5
1005
330
17
100
AcDbEntity
 67
     1
  8
ZUWAKU
 62
     2
100
AcDbLine
 10
117.655
 20
24.7280205533942
 30
0.0
 11
72.6550000000001
 21
24.7280205533942
 31
0.0
  0
TEXT
  5
1006
330
17
100
AcDbEntity
 67
     1
  8
ZUWAKU
 62
     2
100
AcDbText
 10
81.92166666666677
 20
31.97802055339419
 30
0.0
 40
3.5
  1
設計
 72
     4
 11
85.6550000000001
 21
33.7280205533942
 31
0.0
100
AcDbText
  0
TEXT
  5
1007
330
17
100
AcDbEntity
 67
     1
  8
ZUWAKU
 62
     2
100
AcDbText
 10
77.23833333333344
 20
37.9780205533942
 30
0.0
 40
3.5
  1
品　　　名
 72
     4
 11
87.15500000000011
 21
39.7280205533942
 31
0.0
100
AcDbText
  0
TEXT
  5
1008
330
17
100
AcDbEntity
 67
     1
  8
ZUWAKU
 62
     2
100
AcDbText
 10
58.82166666666678
 20
13.97802055339421
 30
0.0
 40
3.5
  1
納入先
 72
     4
 11
64.65500000000012
 21
15.72802055339421
 31
0.0
100
AcDbText
  0
TEXT
  5
1009
330
17
100
AcDbEntity
 67
     1
  8
ZUWAKU
 62
     2
100
AcDbText
 10
58.82166666666677
 20
25.9780205533942
 30
0.0
 40
3.5
  1
名　称
 72
     4
 11
64.6550000000001
 21
27.7280205533942
 31
0.0
100
AcDbText
  0
TEXT
  5
100A
330
17
100
AcDbEntity
 67
     1
  8
ZUWAKU
 62
     2
100
AcDbText
 10
58.92166666666677
 20
31.97802055339419
 30
0.0
 40
3.5
  1
検認
 72
     4
 11
62.6550000000001
 21
33.7280205533942
 31
0.0
100
AcDbText
  0
TEXT
  5
100B
330
17
100
AcDbEntity
 67
     1
  8
ZUWAKU
 62
     2
100
AcDbText
 10
58.87166666666673
 20
37.9780205533942
 30
0.0
 40
3.5
  1
品 番
 72
     4
 11
63.65500000000007
 21
39.7280205533942
 31
0.0
100
AcDbText
  0
LINE
  5
100C
330
17
100
AcDbEntity
 67
     1
  8
ZUWAKU
 62
     2
100
AcDbLine
 10
80.65500000000007
 20
36.7280205533942
 30
0.0
 11
80.6550000000001
 21
30.7280205533942
 31
0.0
  0
TEXT
  5
100D
330
17
100
AcDbEntity
 67
     1
  8
TITLE
 62
     2
100
AcDbText
 10
89.43833333333341
 20
19.9780205533942
 30
0.0
 40
3.5
  1
全体図
 72
     4
 11
95.15500000000008
 21
21.7280205533942
 31
0.0
100
AcDbText
  0
TEXT
  5
100E
330
17
100
AcDbEntity
 67
     1
  8
DEFPOINTS
 62
     5
100
AcDbText
 10
93.52166666666674
 20
8.094687220060869
 30
0.0
 40
3.5
  1
＃
 72
     4
 11
95.15500000000008
 21
9.728020553394202
 31
0.0
100
AcDbText
  0
TEXT
  5
100F
330
17
100
AcDbEntity
 67
     1
  8
DEFPOINTS
 62
     5
100
AcDbText
 10
93.52166666666674
 20
14.09468722006086
 30
0.0
 40
3.5
  1
＃
 72
     4
 11
95.15500000000008
 21
15.7280205533942
 31
0.0
100
AcDbText
  0
TEXT
  5
1010
330
17
100
AcDbEntity
 67
     1
  8
TITLE
 62
     2
100
AcDbText
 10
83.02166666666675
 20
25.9780205533942
 30
0.0
 40
3.5
  1
スルーサーＰ
 72
     4
 11
95.15500000000008
 21
27.7280205533942
 31
0.0
100
AcDbText
  0
TEXT
  5
1011
330
17
100
AcDbEntity
 67
     1
  8
ZUWAKU
 62
     2
100
AcDbText
 10
105.6883333333334
 20
31.97802055339419
 30
0.0
 40
3.5
  1
日付
 72
     4
 11
109.6550000000001
 21
33.7280205533942
 31
0.0
100
AcDbText
  0
TEXT
  5
1012
330
17
100
AcDbEntity
 67
     1
  8
ZUWAKU
 62
     2
100
AcDbText
 10
142.0216666666666
 20
37.9780205533942
 30
0.0
 40
3.5
  1
記　　　　事
 72
     4
 11
154.155
 21
39.7280205533942
 31
0.0
100
AcDbText
  0
LINE
  5
1013
330
17
100
AcDbEntity
 67
     1
  8
ZUWAKU
 62
     2
100
AcDbLine
 10
120.655
 20
30.7280205533942
 30
0.0
 11
120.655
 21
6.728020553394181
 31
0.0
  0
TEXT
  5
1014
330
17
100
AcDbEntity
 67
     1
  8
ZUWAKU
 62
     2
100
AcDbText
 10
121.7050000000001
 20
13.97802055339421
 30
0.0
 40
3.5
  1
図　番
 72
     4
 11
127.6550000000001
 21
15.72802055339421
 31
0.0
100
AcDbText
  0
TEXT
  5
1015
330
17
100
AcDbEntity
 67
     1
  8
ZUWAKU
 62
     2
100
AcDbText
 10
121.8216666666668
 20
25.9780205533942
 30
0.0
 40
3.5
  1
型　式
 72
     4
 11
127.6550000000001
 21
27.7280205533942
 31
0.0
100
AcDbText
  0
TEXT
  5
1016
330
17
100
AcDbEntity
 67
     1
  8
ZUWAKU
 62
     2
100
AcDbText
 10
122.8216666666666
 20
37.9780205533942
 30
0.0
 40
3.5
  1
重　量
 72
     4
 11
128.655
 21
39.7280205533942
 31
0.0
100
AcDbText
  0
TEXT
  5
1017
330
17
100
AcDbEntity
 67
     1
  8
ZUWAKU
 62
     2
100
AcDbText
 10
136.9216666666666
 20
31.97802055339419
 30
0.0
 40
3.5
  1
尺度
 72
     4
 11
140.655
 21
33.7280205533942
 31
0.0
100
AcDbText
  0
TEXT
  5
1018
330
17
100
AcDbEntity
 67
     1
  8
TITLE
 62
     2
100
AcDbText
 10
127.9883333333333
 20
7.861353886727535
 30
0.0
 40
3.5
  1
ＳＲ３５-０Ｐ-００
 72
     4
 11
146.655
 21
9.728020553394202
 31
0.0
100
AcDbText
  0
TEXT
  5
1019
330
17
100
AcDbEntity
 67
     1
  8
TITLE
 62
     2
100
AcDbText
 10
141.5216666666666
 20
22.86135388672753
 30
0.0
 40
3.5
  1
Ｈ３５－０Ｐ
 72
     4
 11
153.655
 21
24.7280205533942
 31
0.0
100
AcDbText
  0
LINE
  5
1070
330
17
100
AcDbEntity
 67
     1
  8
ZUWAKU
 62
     2
100
AcDbLine
 10
172.655
 20
63.7280205533942
 30
0.0
 11
57.65500000000008
 21
63.72802055339422
 31
0.0
  0
LINE
  5
1071
330
17
100
AcDbEntity
 67
     1
  8
ZUWAKU
 62
     2
100
AcDbLine
 10
172.655
 20
70.7280205533942
 30
0.0
 11
57.65500000000008
 21
70.72802055339422
 31
0.0
  0
LINE
  5
1072
330
17
100
AcDbEntity
 67
     1
  8
ZUWAKU
 62
     2
100
AcDbLine
 10
172.655
 20
77.7280205533942
 30
0.0
 11
57.65500000000008
 21
77.72802055339422
 31
0.0
  0
TEXT
  5
1087
330
17
100
AcDbEntity
 67
     1
  8
ZUWAKU
 62
     2
100
AcDbText
 10
117.6550000000001
 20
31.97802055339419
 30
0.0
 40
3.5
  1
08.04.11
 11
117.6550000000001
 21
33.7280205533942
 31
0.0
100
AcDbText
 73
     2
  0
TEXT
  5
1088
330
17
100
AcDbEntity
 67
     1
  8
ZUWAKU
 62
     2
100
AcDbText
 10
151.655
 20
31.97802055339419
 30
0.0
 40
3.5
  1
1/6
 11
151.655
 21
33.7280205533942
 31
0.0
100
AcDbText
 73
     2
  0
TEXT
  5
2408
330
17
100
AcDbEntity
 67
     1
  8
ZUWAKU
 62
     2
100
AcDbText
 10
62.78000000000006
 20
44.47802055339422
 30
0.0
 40
3.5
  1
1
 72
     4
 11
63.65500000000007
 21
46.22802055339422
 31
0.0
100
AcDbText
  0
TEXT
  5
2409
330
17
100
AcDbEntity
 67
     1
  8
TITLE
 62
     2
100
AcDbText
 10
72.6550000000001
 20
44.47802055339422
 30
0.0
 40
3.5
  1
スルーサーＰ
 11
72.6550000000001
 21
46.22802055339422
 31
0.0
100
AcDbText
 73
     2
  0
TEXT
  5
2412
330
17
100
AcDbEntity
 67
     1
  8
TITLE
 62
     2
100
AcDbText
 10
106.5729330708661
 20
44.47802055339422
 30
0.0
 40
3.5
  1
SS400
 72
     4
 11
113.155
 21
46.22802055339422
 31
0.0
100
AcDbText
  0
TEXT
  5
2414
330
17
100
AcDbEntity
 67
     1
  8
TITLE
 62
     2
100
AcDbText
 10
123.5165735482616
 20
45.0664470051326
 30
0.0
 40
3.5
  1
54kg
 72
     4
 11
128.655
 21
46.22802055339422
 31
0.0
100
AcDbText
  0
LINE
  5
4CB5
330
17
100
AcDbEntity
 67
     1
  8
ZUWAKU
 62
     2
100
AcDbLine
 10
172.655
 20
56.72802055339418
 30
0.0
 11
57.6550000000001
 21
56.7280205533942
 31
0.0
  0
LINE
  5
4CB6
330
17
100
AcDbEntity
 67
     1
  8
ZUWAKU
 62
     2
100
AcDbLine
 10
172.655
 20
49.72802055339418
 30
0.0
 11
57.6550000000001
 21
49.72802055339418
 31
0.0
  0
LINE
  5
4CB7
330
17
100
AcDbEntity
 67
     1
  8
ZUWAKU
 62
     2
100
AcDbLine
 10
172.655
 20
42.72802055339417
 30
0.0
 11
57.6550000000001
 21
42.72802055339417
 31
0.0
  0
TEXT
  5
4CB8
330
17
100
AcDbEntity
 67
     1
  8
ZUWAKU
 62
     2
100
AcDbText
 10
48.49666666666678
 20
19.70085283171964
 30
0.0
 40
3.5
  1
担当
 72
     4
 11
52.15500000000011
 21
21.45085283171964
 31
0.0
100
AcDbText
  0
LINE
  5
4CB9
330
17
100
AcDbEntity
 67
     1
  8
ZUWAKU
 62
     2
100
AcDbLine
 10
16.6550000000001
 20
36.72802055339418
 30
0.0
 11
16.65500000000011
 21
18.72802055339421
 31
0.0
  0
TEXT
  5
4CBA
330
17
100
AcDbEntity
 67
     1
  8
寸法線
100
AcDbText
 10
-2.969999999999919
 20
25.98154767812819
 30
0.0
 40
2.5
  1
A
 72
     4
 11
-1.844999999999919
 21
27.23154767812819
 31
0.0
100
AcDbText
  0
LINE
  5
4CBB
330
17
100
AcDbEntity
 67
     1
  8
寸法線
100
AcDbLine
 10
-1.844999999999919
 20
29.8966111875893
 30
0.0
 11
0.6550000000000793
 21
25.56648416866708
 31
0.0
  0
LINE
  5
4CBC
330
17
100
AcDbEntity
 67
     1
  8
寸法線
100
AcDbLine
 10
-1.844999999999919
 20
29.8966111875893
 30
0.0
 11
-4.344999999999919
 21
25.56648416866708
 31
0.0
  0
TEXT
  5
4CBD
330
17
100
AcDbEntity
 67
     1
  8
ZUWAKU
 62
     2
100
AcDbText
 10
-5.578333333333225
 20
19.70085283171964
 30
0.0
 40
3.5
  1
符号
 72
     4
 11
-1.844999999999891
 21
21.45085283171964
 31
0.0
100
AcDbText
  0
LINE
  5
4CBE
330
17
100
AcDbEntity
 67
     1
  8
ZUWAKU
 62
     2
100
AcDbLine
 10
0.6550000000000793
 20
25.56648416866708
 30
0.0
 11
-4.344999999999919
 21
25.56648416866708
 31
0.0
  0
TEXT
  5
4CBF
330
17
100
AcDbEntity
 67
     1
  8
寸法線
100
AcDbText
 10
-2.844999999999922
 20
32.41386008424326
 30
0.0
 40
2.5
  1
B
 72
     4
 11
-1.844999999999919
 21
33.66386008424326
 31
0.0
100
AcDbText
  0
LINE
  5
4CC0
330
17
100
AcDbEntity
 67
     1
  8
ZUWAKU
 62
     2
100
AcDbLine
 10
0.6550000000000793
 20
31.99879657478219
 30
0.0
 11
-4.344999999999919
 21
31.99879657478219
 31
0.0
  0
LINE
  5
4CC1
330
17
100
AcDbEntity
 67
     1
  8
寸法線
100
AcDbLine
 10
-1.844999999999919
 20
36.32892359370437
 30
0.0
 11
-4.344999999999919
 21
31.99879657478219
 31
0.0
  0
LINE
  5
4CC2
330
17
100
AcDbEntity
 67
     1
  8
寸法線
100
AcDbLine
 10
-1.844999999999919
 20
36.32892359370437
 30
0.0
 11
0.6550000000000793
 21
31.99879657478219
 31
0.0
  0
LINE
  5
4CC3
330
17
100
AcDbEntity
 67
     1
  8
ZUWAKU
 62
     2
100
AcDbLine
 10
2.655000000000106
 20
36.72802055339421
 30
0.0
 11
2.655000000000113
 21
18.72802055339421
 31
0.0
  0
TEXT
  5
4CC4
330
17
100
AcDbEntity
 67
     1
  8
ZUWAKU
 62
     2
100
AcDbText
 10
4.638333333333439
 20
19.70085283171964
 30
0.0
 40
3.5
  1
日 付
 72
     4
 11
9.655000000000107
 21
21.45085283171964
 31
0.0
100
AcDbText
  0
LINE
  5
4CC5
330
17
100
AcDbEntity
 67
     1
  8
ZUWAKU
 62
     2
100
AcDbLine
 10
46.65500000000006
 20
36.72802055339418
 30
0.0
 11
46.65500000000011
 21
18.72802055339421
 31
0.0
  0
TEXT
  5
4CC6
330
17
100
AcDbEntity
 67
     1
  8
ZUWAKU
 62
     2
100
AcDbText
 10
20.57166666666679
 20
19.70085283171964
 30
0.0
 40
3.5
  1
訂 正 内 容
 72
     4
 11
31.65500000000012
 21
21.45085283171964
 31
0.0
100
AcDbText
  0
LINE
  5
4CC7
330
17
100
AcDbEntity
 67
     1
  8
ZUWAKU
 62
     2
100
AcDbLine
 10
-6.344999999999892
 20
6.728020553394181
 30
0.0
 11
-6.344999999999878
 21
36.72802055339421
 31
0.0
  0
TEXT
  5
4CC8
330
17
100
AcDbEntity
 67
     1
  8
ZUWAKU
 62
     2
100
AcDbText
 10
-0.4783333333332485
 20
13.22802055339418
 30
0.0
 40
2.0
  1
株式
 72
     4
 11
1.655000000000085
 21
14.22802055339418
 31
0.0
100
AcDbText
  0
TEXT
  5
4CC9
330
17
100
AcDbEntity
 67
     1
  8
ZUWAKU
 62
     2
100
AcDbText
 10
-0.4783333333332481
 20
10.22802055339418
 30
0.0
 40
2.0
  1
会社
 72
     4
 11
1.655000000000085
 21
11.22802055339418
 31
0.0
100
AcDbText
  0
TEXT
  5
4CCA
330
17
100
AcDbEntity
 67
     1
  8
ZUWAKU
 62
     2
100
AcDbText
 10
5.588333333333409
 20
10.39468722006084
 30
0.0
 40
5.0
  1
三研テクノクリエイト
 41
0.8
 72
     4
 11
28.65500000000007
 21
12.72802055339418
 31
0.0
100
AcDbText
  0
LINE
  5
4CCB
330
17
100
AcDbEntity
 67
     1
  8
ZUWAKU
 62
     2
100
AcDbLine
 10
57.6550000000001
 20
30.72802055339418
 30
0.0
 11
-6.344999999999892
 21
30.72802055339418
 31
0.0
  0
LINE
  5
4CCC
330
17
100
AcDbEntity
 67
     1
  8
ZUWAKU
 62
     2
100
AcDbLine
 10
57.6550000000001
 20
36.72802055339418
 30
0.0
 11
-6.344999999999878
 21
36.72802055339421
 31
0.0
  0
LINE
  5
4CCD
330
17
100
AcDbEntity
 67
     1
  8
ZUWAKU
 62
     2
100
AcDbLine
 10
57.6550000000001
 20
24.72802055339422
 30
0.0
 11
-6.344999999999878
 21
24.72802055339422
 31
0.0
  0
ENDSEC
  0
SECTION
  2
OBJECTS
  0
DICTIONARY
  5
C
330
0
100
AcDbDictionary
281
     1
  3
ACAD_COLOR
350
3C4E
  3
ACAD_GROUP
350
D
  3
ACAD_LAYOUT
350
F76
  3
ACAD_MATERIAL
350
3C4D
  3
ACAD_MLEADERSTYLE
350
4C49
  3
ACAD_MLINESTYLE
350
E
  3
ACAD_PLOTSETTINGS
350
F77
  3
ACAD_PLOTSTYLENAME
350
3C4B
  3
ACAD_SCALELIST
350
4C27
  3
ACAD_TABLESTYLE
350
3C4F
  3
ACAD_VISUALSTYLE
350
4C16
  3
ACDB_RECOMPOSE_DATA
350
4C7F
  3
AcDbVariableDictionary
350
3C55
  3
DWGPROPS
350
4CF0
1001
ACAD
1000
TREAT_AS_HARD
1070
     0
  0
DICTIONARY
  5
4CE1
330
8
100
AcDbDictionary
280
     1
281
     1
  0
DICTIONARY
  5
3CC4
330
2
100
AcDbDictionary
280
     1
281
     1
  3
ACAD_LAYERSTATES
360
3CC5
  0
DICTIONARY
  5
4C65
330
F
100
AcDbDictionary
280
     1
281
     1
  3
ADSK_XREC_LAYER_RECONCILED
360
4C66
  0
DICTIONARY
  5
4C67
330
10B
100
AcDbDictionary
280
     1
281
     1
  3
ADSK_XREC_LAYER_RECONCILED
360
4C68
  0
DICTIONARY
  5
4C69
330
10C
100
AcDbDictionary
280
     1
281
     1
  3
ADSK_XREC_LAYER_RECONCILED
360
4C6A
  0
DICTIONARY
  5
4C6B
330
10D
100
AcDbDictionary
280
     1
281
     1
  3
ADSK_XREC_LAYER_RECONCILED
360
4C6C
  0
DICTIONARY
  5
4C6D
330
10E
100
AcDbDictionary
280
     1
281
     1
  3
ADSK_XREC_LAYER_RECONCILED
360
4C6E
  0
DICTIONARY
  5
4C6F
330
10F
100
AcDbDictionary
280
     1
281
     1
  3
ADSK_XREC_LAYER_RECONCILED
360
4C70
  0
DICTIONARY
  5
4C71
330
2C8
100
AcDbDictionary
280
     1
281
     1
  3
ADSK_XREC_LAYER_RECONCILED
360
4C72
  0
DICTIONARY
  5
4C73
330
2C9
100
AcDbDictionary
280
     1
281
     1
  3
ADSK_XREC_LAYER_RECONCILED
360
4C74
  0
DICTIONARY
  5
4C75
330
4F5
100
AcDbDictionary
280
     1
281
     1
  3
ADSK_XREC_LAYER_RECONCILED
360
4C76
  0
DICTIONARY
  5
4C77
330
4F6
100
AcDbDictionary
280
     1
281
     1
  3
ADSK_XREC_LAYER_RECONCILED
360
4C78
  0
DICTIONARY
  5
3C42
330
1A
100
AcDbDictionary
280
     1
281
     1
  3
ACAD_LAYOUTSELFREF
360
3C43
  3
ACAD_SORTENTS
360
4353
  0
DICTIONARY
  5
3C40
330
17
100
AcDbDictionary
280
     1
281
     1
  3
ACAD_LAYOUTSELFREF
360
3C41
  0
DICTIONARY
  5
4CB0
330
112
100
AcDbDictionary
280
     1
281
     1
  3
ACAD_SORTENTS
360
4CB1
  0
DICTIONARY
  5
4CF1
330
22
100
AcDbDictionary
280
     1
281
     1
  3
ACAD_XREC_ROUNDTRIP
360
4CF2
  0
DICTIONARY
  5
4CF3
330
F6B
100
AcDbDictionary
280
     1
281
     1
  3
ACAD_XREC_ROUNDTRIP
360
4CF4
  0
DICTIONARY
  5
3C4E
102
{ACAD_REACTORS
330
C
102
}
330
C
100
AcDbDictionary
281
     1
  0
DICTIONARY
  5
D
102
{ACAD_REACTORS
330
C
102
}
330
C
100
AcDbDictionary
281
     1
1001
ACAD
1000
TREAT_AS_HARD
1070
     0
  0
DICTIONARY
  5
F76
102
{ACAD_REACTORS
330
C
102
}
330
C
100
AcDbDictionary
281
     1
  3
Model
350
3C51
  3
レイアウト1
350
3C52
1001
ACAD
1000
TREAT_AS_HARD
1070
     0
  0
DICTIONARY
  5
3C4D
102
{ACAD_REACTORS
330
C
102
}
330
C
100
AcDbDictionary
281
     1
  3
ByBlock
350
4C06
  3
ByLayer
350
4BFE
  3
Global
350
4C0E
  0
DICTIONARY
  5
4C49
102
{ACAD_REACTORS
330
C
102
}
330
C
100
AcDbDictionary
281
     1
  3
Standard
350
4C4A
  0
DICTIONARY
  5
E
102
{ACAD_REACTORS
330
C
102
}
330
C
100
AcDbDictionary
281
     1
  3
STANDARD
350
13
1001
ACAD
1000
TREAT_AS_HARD
1070
     0
  0
DICTIONARY
  5
F77
102
{ACAD_REACTORS
330
C
102
}
330
C
100
AcDbDictionary
281
     1
1001
ACAD
1000
TREAT_AS_HARD
1070
     0
  0
ACDBDICTIONARYWDFLT
  5
3C4B
102
{ACAD_REACTORS
330
C
102
}
330
C
100
AcDbDictionary
281
     1
  3
Normal
350
3C4C
100
AcDbDictionaryWithDefault
340
3C4C
  0
DICTIONARY
  5
4C27
102
{ACAD_REACTORS
330
C
102
}
330
C
100
AcDbDictionary
281
     1
  3
A0
350
4C28
  3
A1
350
4C29
  3
A2
350
4C2A
  3
A3
350
4C2B
  3
A4
350
4C2C
  3
A5
350
4C2D
  3
A6
350
4C2E
  3
A7
350
4C2F
  3
A8
350
4C30
  3
A9
350
4C31
  3
B0
350
4C32
  3
B1
350
4C33
  3
B2
350
4C34
  3
B3
350
4C35
  3
B4
350
4C36
  3
B5
350
4C37
  3
B6
350
4C38
  3
B7
350
4C39
  3
B8
350
4C3A
  3
B9
350
4C3B
  3
C0
350
4C3C
  3
C1
350
4C3D
  3
C2
350
4C3E
  3
C3
350
4C3F
  3
C4
350
4C40
  3
C5
350
4C41
  3
C6
350
4C42
  3
C7
350
4C43
  3
C8
350
4C44
  3
C9
350
4C45
  3
D0
350
4C46
  3
D1
350
4C47
  3
D2
350
4C48
  0
DICTIONARY
  5
3C4F
102
{ACAD_REACTORS
330
C
102
}
330
C
100
AcDbDictionary
281
     1
  3
Standard
350
3C50
  0
DICTIONARY
  5
4C16
102
{ACAD_REACTORS
330
C
102
}
330
C
100
AcDbDictionary
281
     1
  3
2dWireframe
350
4C1C
  3
3D Hidden
350
4C1E
  3
3dWireframe
350
4C1D
  3
Basic
350
4C1B
  3
Brighten
350
4C22
  3
ColorChange
350
4C26
  3
Conceptual
350
4C1F
  3
Dim
350
4C21
  3
Facepattern
350
4C25
  3
Flat
350
4C17
  3
FlatWithEdges
350
4C18
  3
Gouraud
350
4C19
  3
GouraudWithEdges
350
4C1A
  3
Linepattern
350
4C24
  3
Realistic
350
4C20
  3
Thicken
350
4C23
  0
XRECORD
  5
4C7F
102
{ACAD_REACTORS
330
C
102
}
330
C
100
AcDbXrecord
280
     1
 90
        1
330
3C50
  0
DICTIONARY
  5
3C55
102
{ACAD_REACTORS
330
C
102
}
330
C
100
AcDbDictionary
281
     1
  3
CANNOSCALE
350
4C7A
  3
CMLEADERSTYLE
350
4C79
  3
CTABLESTYLE
350
3C56
  3
DIMASSOC
350
3C57
  3
INDEXCTL
350
4C7C
  3
PROJECTNAME
350
3C58
  3
SORTENTS
350
4C7B
  0
XRECORD
  5
4CF0
102
{ACAD_REACTORS
330
C
102
}
330
C
100
AcDbXrecord
280
     1
  1
DWGPROPS COOKIE
  2

  3

  4

  6

  7

  8
島田
  9

300
=
301
=
302
=
303
=
304
=
305
=
306
=
307
=
308
=
309
=
 40
0.1777987152777778
 41
2453234.43442654
 42
2455734.702571608
  1

 90
        0
  0
DICTIONARY
  5
3CC5
102
{ACAD_REACTORS
330
3CC4
102
}
330
3CC4
100
AcDbDictionary
281
     1
  0
XRECORD
  5
4C66
102
{ACAD_REACTORS
330
4C65
102
}
330
4C65
100
AcDbXrecord
280
     1
290
     1
  0
XRECORD
  5
4C68
102
{ACAD_REACTORS
330
4C67
102
}
330
4C67
100
AcDbXrecord
280
     1
290
     1
  0
XRECORD
  5
4C6A
102
{ACAD_REACTORS
330
4C69
102
}
330
4C69
100
AcDbXrecord
280
     1
290
     1
  0
XRECORD
  5
4C6C
102
{ACAD_REACTORS
330
4C6B
102
}
330
4C6B
100
AcDbXrecord
280
     1
290
     1
  0
XRECORD
  5
4C6E
102
{ACAD_REACTORS
330
4C6D
102
}
330
4C6D
100
AcDbXrecord
280
     1
290
     1
  0
XRECORD
  5
4C70
102
{ACAD_REACTORS
330
4C6F
102
}
330
4C6F
100
AcDbXrecord
280
     1
290
     1
  0
XRECORD
  5
4C72
102
{ACAD_REACTORS
330
4C71
102
}
330
4C71
100
AcDbXrecord
280
     1
290
     1
  0
XRECORD
  5
4C74
102
{ACAD_REACTORS
330
4C73
102
}
330
4C73
100
AcDbXrecord
280
     1
290
     1
  0
XRECORD
  5
4C76
102
{ACAD_REACTORS
330
4C75
102
}
330
4C75
100
AcDbXrecord
280
     1
290
     1
  0
XRECORD
  5
4C78
102
{ACAD_REACTORS
330
4C77
102
}
330
4C77
100
AcDbXrecord
280
     1
290
     1
  0
XRECORD
  5
3C43
102
{ACAD_REACTORS
330
3C42
102
}
330
3C42
100
AcDbXrecord
280
     1
340
1A
  0
SORTENTSTABLE
  5
4353
102
{ACAD_REACTORS
330
3C42
102
}
330
3C42
100
AcDbSortentsTable
330
1A
331
1BDD
  5
1BE5
331
1BE5
  5
2EFB
331
1781
  5
1781
331
1828
  5
182C
331
2EFB
  5
2F09
331
3475
  5
3480
331
30F7
  5
33A7
331
3436
  5
3444
331
2F79
  5
2F8C
331
1830
  5
1834
331
1B4E
  5
1BE0
331
2F32
  5
2F38
331
343E
  5
3445
331
3446
  5
3454
331
344E
  5
3455
331
41F2
  5
4275
331
3F11
  5
3F45
331
1838
  5
183C
331
1791
  5
1791
331
1840
  5
1844
331
1799
  5
179C
331
2F0B
  5
2F0F
331
348D
  5
3785
331
3456
  5
345A
331
33A7
  5
3425
331
17A1
  5
17A5
331
1AE8
  5
1B4E
331
1B2F
  5
1B9E
331
1B9E
  5
1BE3
331
345E
  5
346B
331
2F62
  5
2F69
331
3466
  5
3479
331
3427
  5
342B
331
3F59
  5
3F5D
331
1BE6
  5
2EFC
331
1782
  5
1782
331
1829
  5
182D
331
2EFC
  5
2F0A
331
1831
  5
1836
331
2F33
  5
2F39
331
3370
  5
3424
331
344F
  5
3456
331
41F3
  5
42FC
331
3F12
  5
3F52
331
3F3A
  5
3F53
331
1839
  5
183D
331
1841
  5
1845
331
179A
  5
179E
331
1851
  5
1B2F
331
2F0C
  5
2F15
331
33A8
  5
3426
331
3457
  5
345B
331
17A2
  5
17A6
331
2F24
  5
2F33
331
3428
  5
342C
331
346F
  5
347C
331
4273
  5
42FD
331
3F52
  5
3F56
331
3F5A
  5
3FD9
331
1BE7
  5
2F06
331
1783
  5
1783
331
182A
  5
182E
331
1832
  5
1837
331
2F34
  5
2F3C
331
2F83
  5
2F90
331
2F3C
  5
2F52
331
2F4C
  5
2F55
331
183A
  5
183E
331
1B60
  5
1BE2
331
1793
  5
1794
331
1842
  5
1851
331
1852
  5
1B41
331
17A3
  5
1828
331
2F15
  5
2F27
331
3458
  5
345E
331
2F64
  5
2F6D
331
4274
  5
4307
331
3F53
  5
3F57
331
3FD9
  5
3FE1
331
3F5B
  5
3FDA
331
3FE1
  5
40DF
331
1AFA
  5
1B60
331
1BE0
  5
1BE6
331
1B41
  5
1BDD
331
1784
  5
1784
331
182B
  5
182F
331
3431
  5
343E
331
1833
  5
1838
331
2F06
  5
2F0B
331
3480
  5
348B
331
40DF
  5
41EE
331
3F44
  5
3F54
331
183B
  5
183F
331
1794
  5
1797
331
1843
  5
1852
331
2F0E
  5
2F20
331
2F8C
  5
30F6
331
179C
  5
17A1
331
3459
  5
3461
331
17A4
  5
1829
331
2F1E
  5
2F29
331
3461
  5
346F
331
342A
  5
3434
331
4275
  5
4308
331
3F54
  5
3F58
331
3FDA
  5
3FE2
331
3F5C
  5
3FDB
331
3FE2
  5
40E0
331
2F75
  5
2F87
331
1785
  5
1785
331
182C
  5
1830
331
2F36
  5
2F4C
331
3479
  5
3481
331
1834
  5
1839
331
3481
  5
348C
331
3442
  5
3446
331
41EE
  5
41F2
331
40E0
  5
41EF
331
3F45
  5
3F55
331
178D
  5
178D
331
183C
  5
1840
331
1844
  5
1AE8
331
2F56
  5
2F60
331
2F0F
  5
2F24
331
345A
  5
3463
331
17A5
  5
182A
331
3423
  5
3427
331
342B
  5
3435
331
3F55
  5
3F59
331
3FDB
  5
3FE3
331
3F5D
  5
3FDC
331
3FE3
  5
40E1
331
1BE2
  5
1BE7
331
177E
  5
177E
331
2F76
  5
2F88
331
30F4
  5
322D
331
182D
  5
1831
331
347A
  5
3483
331
3443
  5
344E
331
41EF
  5
41F3
331
40E1
  5
41F0
331
183D
  5
1841
331
1796
  5
1798
331
1845
  5
1AFA
331
3453
  5
3457
331
348A
  5
35D0
331
179E
  5
17A3
331
2F5F
  5
2F63
331
345B
  5
3466
331
17A6
  5
182B
331
3463
  5
3475
331
2F20
  5
2F32
331
3424
  5
3428
331
346B
  5
347A
331
342C
  5
3436
331
3FDC
  5
3FE4
331
3F56
  5
3F5A
331
3FE4
  5
40E2
331
1BE3
  5
219B
331
177F
  5
177F
331
30F5
  5
322E
331
3434
  5
3442
331
1787
  5
1787
331
182E
  5
1832
331
2F38
  5
2F50
331
322D
  5
33A8
331
1836
  5
183A
331
3483
  5
348D
331
2F87
  5
30F4
331
3444
  5
344F
331
41F0
  5
4273
331
40E2
  5
41F1
331
183E
  5
1842
331
2F50
  5
2F56
331
1797
  5
1799
331
348B
  5
35D5
331
2F58
  5
2F61
331
3454
  5
3458
331
2F60
  5
2F64
331
2F68
  5
2F75
331
3425
  5
3429
331
3F57
  5
3F5B
331
2F29
  5
2F36
331
1780
  5
1780
331
30F6
  5
3370
331
3435
  5
3443
331
182F
  5
1833
331
347C
  5
348A
331
2F39
  5
2F51
331
322E
  5
3423
331
1837
  5
183B
331
3445
  5
3453
331
41F1
  5
4274
331
1788
  5
1788
331
1790
  5
1790
331
183F
  5
1843
331
2F51
  5
2F58
331
2F88
  5
30F5
331
1798
  5
179A
331
2F59
  5
2F62
331
2F90
  5
30F7
331
3455
  5
3459
331
348C
  5
3784
331
219B
  5
2F08
331
2F61
  5
2F68
331
3426
  5
342A
331
2F69
  5
2F76
331
3F58
  5
3F5C
  0
XRECORD
  5
3C41
102
{ACAD_REACTORS
330
3C40
102
}
330
3C40
100
AcDbXrecord
280
     1
340
17
  0
SORTENTSTABLE
  5
4CB1
102
{ACAD_REACTORS
330
4CB0
102
}
330
4CB0
100
AcDbSortentsTable
330
112
  0
XRECORD
  5
4CF2
102
{ACAD_REACTORS
330
4CF1
102
}
330
4CF1
100
AcDbXrecord
280
     1
102
SHADEPLOT
 70
     0
  0
XRECORD
  5
4CF4
102
{ACAD_REACTORS
330
4CF3
102
}
330
4CF3
100
AcDbXrecord
280
     1
102
SHADEPLOT
 70
     0
  0
LAYOUT
  5
3C51
102
{ACAD_XDICTIONARY
360
4CF6
102
}
102
{ACAD_REACTORS
330
F76
102
}
330
F76
100
AcDbPlotSettings
  1

  2
RICOH imagio MP C2500 RPCS
  4

  6

 40
0.0
 41
0.0
 42
0.0
 43
0.0
 44
0.0
 45
0.0
 46
0.0
 47
0.0
 48
0.0
 49
0.0
140
0.0
141
0.0
142
1.0
143
1.0
 70
  1712
 72
     0
 73
     0
 74
     0
  7

 75
     0
147
1.0
148
0.0
149
0.0
100
AcDbLayout
  1
Model
 70
     1
 71
     0
 10
0.0
 20
0.0
 11
12.0
 21
9.0
 12
0.0
 22
0.0
 32
0.0
 14
0.0
 24
0.0
 34
0.0
 15
0.0
 25
0.0
 35
0.0
146
0.0
 13
0.0
 23
0.0
 33
0.0
 16
1.0
 26
0.0
 36
0.0
 17
0.0
 27
1.0
 37
0.0
 76
     0
330
1A
  0
LAYOUT
  5
3C52
102
{ACAD_XDICTIONARY
360
3CC7
102
}
102
{ACAD_REACTORS
330
F76
102
}
330
F76
100
AcDbPlotSettings
  1

  2
RICOH imagio MP C2500 RPCS
  4
A4
  6

 40
5.873749732971191
 41
5.873747825622558
 42
5.873748779296875
 43
5.873748779296875
 44
209.9733276367187
 45
296.9259948730469
 46
0.0
 47
0.0
 48
0.0
 49
0.0
140
0.0
141
0.0
142
1.0
143
36.52072343512639
 70
   688
 72
     0
 73
     1
 74
     1
  7
monochrome.ctb
 75
     0
147
0.0273817138857162
148
5845.438525594513
149
0.479788548708234
100
AcDbLayout
  1
レイアウト1
 70
     1
 71
     1
 10
-238.5807905626231
 20
-8.464306223373881
 11
188.3464590223494
 21
293.4403326496098
 12
0.0
 22
0.0
 32
0.0
 14
-230.1251076440692
 24
-0.0202258741703645
 34
-0.0000000349181948
 15
178.0667480927011
 25
284.9962537062594
 35
0.0000000814935746
146
0.0
 13
0.0
 23
0.0
 33
0.0
 16
1.0
 26
0.0
 36
0.0
 17
0.0
 27
1.0
 37
0.0
 76
     0
330
17
331
22
1001
ACAD_PSEXT
1000
RICOH imagio MP C2500 RPCS
1000
RICOH imagio MP C2500 RPCS
1000
IP_192.168.24.200
1000
RPCS Driver (Windows 2000/XP/Server 2003/Vista)
1070
     0
  0
MATERIAL
  5
4C06
102
{ACAD_XDICTIONARY
360
4C07
102
}
102
{ACAD_REACTORS
330
3C4D
102
}
330
3C4D
100
AcDbMaterial
  1
ByBlock
 72
     0
 43
0.0208333333333333
 43
0.0
 43
0.0
 43
0.0
 43
0.0
 43
0.0208333333333333
 43
0.0
 43
0.0
 43
0.0
 43
0.0
 43
1.0
 43
0.0
 43
0.0
 43
0.0
 43
0.0
 43
1.0
 77
     0
 47
0.0208333333333333
 47
0.0
 47
0.0
 47
0.0
 47
0.0
 47
0.0208333333333333
 47
0.0
 47
0.0
 47
0.0
 47
0.0
 47
1.0
 47
0.0
 47
0.0
 47
0.0
 47
0.0
 47
1.0
171
     0
 49
0.0208333333333333
 49
0.0
 49
0.0
 49
0.0
 49
0.0
 49
0.0208333333333333
 49
0.0
 49
0.0
 49
0.0
 49
0.0
 49
1.0
 49
0.0
 49
0.0
 49
0.0
 49
0.0
 49
1.0
175
     0
142
0.0208333333333333
142
0.0
142
0.0
142
0.0
142
0.0
142
0.0208333333333333
142
0.0
142
0.0
142
0.0
142
0.0
142
1.0
142
0.0
142
0.0
142
0.0
142
0.0
142
1.0
179
     0
144
0.0208333333333333
144
0.0
144
0.0
144
0.0
144
0.0
144
0.0208333333333333
144
0.0
144
0.0
144
0.0
144
0.0
144
1.0
144
0.0
144
0.0
144
0.0
144
0.0
144
1.0
147
0.0208333333333333
147
0.0
147
0.0
147
0.0
147
0.0
147
0.0208333333333333
147
0.0
147
0.0
147
0.0
147
0.0
147
1.0
147
0.0
147
0.0
147
0.0
147
0.0
147
1.0
  0
MATERIAL
  5
4BFE
102
{ACAD_XDICTIONARY
360
4BFF
102
}
102
{ACAD_REACTORS
330
3C4D
102
}
330
3C4D
100
AcDbMaterial
  1
ByLayer
 72
     0
 43
0.0208333333333333
 43
0.0
 43
0.0
 43
0.0
 43
0.0
 43
0.0208333333333333
 43
0.0
 43
0.0
 43
0.0
 43
0.0
 43
1.0
 43
0.0
 43
0.0
 43
0.0
 43
0.0
 43
1.0
 77
     0
 47
0.0208333333333333
 47
0.0
 47
0.0
 47
0.0
 47
0.0
 47
0.0208333333333333
 47
0.0
 47
0.0
 47
0.0
 47
0.0
 47
1.0
 47
0.0
 47
0.0
 47
0.0
 47
0.0
 47
1.0
171
     0
 49
0.0208333333333333
 49
0.0
 49
0.0
 49
0.0
 49
0.0
 49
0.0208333333333333
 49
0.0
 49
0.0
 49
0.0
 49
0.0
 49
1.0
 49
0.0
 49
0.0
 49
0.0
 49
0.0
 49
1.0
175
     0
142
0.0208333333333333
142
0.0
142
0.0
142
0.0
142
0.0
142
0.0208333333333333
142
0.0
142
0.0
142
0.0
142
0.0
142
1.0
142
0.0
142
0.0
142
0.0
142
0.0
142
1.0
179
     0
144
0.0208333333333333
144
0.0
144
0.0
144
0.0
144
0.0
144
0.0208333333333333
144
0.0
144
0.0
144
0.0
144
0.0
144
1.0
144
0.0
144
0.0
144
0.0
144
0.0
144
1.0
147
0.0208333333333333
147
0.0
147
0.0
147
0.0
147
0.0
147
0.0208333333333333
147
0.0
147
0.0
147
0.0
147
0.0
147
1.0
147
0.0
147
0.0
147
0.0
147
0.0
147
1.0
  0
MATERIAL
  5
4C0E
102
{ACAD_XDICTIONARY
360
4C0F
102
}
102
{ACAD_REACTORS
330
3C4D
102
}
330
3C4D
100
AcDbMaterial
  1
Global
 72
     0
 43
0.0208333333333333
 43
0.0
 43
0.0
 43
0.0
 43
0.0
 43
0.0208333333333333
 43
0.0
 43
0.0
 43
0.0
 43
0.0
 43
1.0
 43
0.0
 43
0.0
 43
0.0
 43
0.0
 43
1.0
 77
     0
 47
0.0208333333333333
 47
0.0
 47
0.0
 47
0.0
 47
0.0
 47
0.0208333333333333
 47
0.0
 47
0.0
 47
0.0
 47
0.0
 47
1.0
 47
0.0
 47
0.0
 47
0.0
 47
0.0
 47
1.0
171
     0
 49
0.0208333333333333
 49
0.0
 49
0.0
 49
0.0
 49
0.0
 49
0.0208333333333333
 49
0.0
 49
0.0
 49
0.0
 49
0.0
 49
1.0
 49
0.0
 49
0.0
 49
0.0
 49
0.0
 49
1.0
175
     0
142
0.0208333333333333
142
0.0
142
0.0
142
0.0
142
0.0
142
0.0208333333333333
142
0.0
142
0.0
142
0.0
142
0.0
142
1.0
142
0.0
142
0.0
142
0.0
142
0.0
142
1.0
179
     0
144
0.0208333333333333
144
0.0
144
0.0
144
0.0
144
0.0
144
0.0208333333333333
144
0.0
144
0.0
144
0.0
144
0.0
144
1.0
144
0.0
144
0.0
144
0.0
144
0.0
144
1.0
147
0.0208333333333333
147
0.0
147
0.0
147
0.0
147
0.0
147
0.0208333333333333
147
0.0
147
0.0
147
0.0
147
0.0
147
1.0
147
0.0
147
0.0
147
0.0
147
0.0
147
1.0
  0
MLEADERSTYLE
  5
4C4A
102
{ACAD_REACTORS
330
4C49
102
}
330
4C49
100
AcDbMLeaderStyle
170
     2
171
     1
172
     0
 90
        2
 40
0.0
 41
0.0
173
     1
 91
-1056964608
340
14
 92
       -2
290
     1
 42
0.09
291
     1
 43
0.36
  3
Standard
 44
0.18
300

342
10
174
     1
178
     6
175
     1
176
     0
 93
-1056964608
 45
0.18
292
     0
297
     0
 46
0.18
 94
-1056964608
 47
1.0
 49
1.0
140
1.0
293
     1
141
0.0
294
     1
177
     0
142
1.0
295
     0
296
     0
143
0.125
1001
ACAD_MLEADERVER
1070
     2
  0
MLINESTYLE
  5
13
102
{ACAD_REACTORS
330
E
102
}
330
E
100
AcDbMlineStyle
  2
STANDARD
 70
     0
  3

 62
     0
 51
90.0
 52
90.0
 71
     2
 49
0.5
 62
   256
  6
BYLAYER
 49
-0.5
 62
   256
  6
BYLAYER
  0
ACDBPLACEHOLDER
  5
3C4C
102
{ACAD_REACTORS
330
3C4B
102
}
330
3C4B
  0
SCALE
  5
4C28
102
{ACAD_REACTORS
330
4C27
102
}
330
4C27
100
AcDbScale
 70
     0
300
1:1
140
1.0
141
1.0
290
     1
  0
SCALE
  5
4C29
102
{ACAD_REACTORS
330
4C27
102
}
330
4C27
100
AcDbScale
 70
     0
300
1:2
140
1.0
141
2.0
290
     0
  0
SCALE
  5
4C2A
102
{ACAD_REACTORS
330
4C27
102
}
330
4C27
100
AcDbScale
 70
     0
300
1:4
140
1.0
141
4.0
290
     0
  0
SCALE
  5
4C2B
102
{ACAD_REACTORS
330
4C27
102
}
330
4C27
100
AcDbScale
 70
     0
300
1:5
140
1.0
141
5.0
290
     0
  0
SCALE
  5
4C2C
102
{ACAD_REACTORS
330
4C27
102
}
330
4C27
100
AcDbScale
 70
     0
300
1:8
140
1.0
141
8.0
290
     0
  0
SCALE
  5
4C2D
102
{ACAD_REACTORS
330
4C27
102
}
330
4C27
100
AcDbScale
 70
     0
300
1:10
140
1.0
141
10.0
290
     0
  0
SCALE
  5
4C2E
102
{ACAD_REACTORS
330
4C27
102
}
330
4C27
100
AcDbScale
 70
     0
300
1:16
140
1.0
141
16.0
290
     0
  0
SCALE
  5
4C2F
102
{ACAD_REACTORS
330
4C27
102
}
330
4C27
100
AcDbScale
 70
     0
300
1:20
140
1.0
141
20.0
290
     0
  0
SCALE
  5
4C30
102
{ACAD_REACTORS
330
4C27
102
}
330
4C27
100
AcDbScale
 70
     0
300
1:30
140
1.0
141
30.0
290
     0
  0
SCALE
  5
4C31
102
{ACAD_REACTORS
330
4C27
102
}
330
4C27
100
AcDbScale
 70
     0
300
1:40
140
1.0
141
40.0
290
     0
  0
SCALE
  5
4C32
102
{ACAD_REACTORS
330
4C27
102
}
330
4C27
100
AcDbScale
 70
     0
300
1:50
140
1.0
141
50.0
290
     0
  0
SCALE
  5
4C33
102
{ACAD_REACTORS
330
4C27
102
}
330
4C27
100
AcDbScale
 70
     0
300
1:100
140
1.0
141
100.0
290
     0
  0
SCALE
  5
4C34
102
{ACAD_REACTORS
330
4C27
102
}
330
4C27
100
AcDbScale
 70
     0
300
2:1
140
2.0
141
1.0
290
     0
  0
SCALE
  5
4C35
102
{ACAD_REACTORS
330
4C27
102
}
330
4C27
100
AcDbScale
 70
     0
300
4:1
140
4.0
141
1.0
290
     0
  0
SCALE
  5
4C36
102
{ACAD_REACTORS
330
4C27
102
}
330
4C27
100
AcDbScale
 70
     0
300
8:1
140
8.0
141
1.0
290
     0
  0
SCALE
  5
4C37
102
{ACAD_REACTORS
330
4C27
102
}
330
4C27
100
AcDbScale
 70
     0
300
10:1
140
10.0
141
1.0
290
     0
  0
SCALE
  5
4C38
102
{ACAD_REACTORS
330
4C27
102
}
330
4C27
100
AcDbScale
 70
     0
300
100:1
140
100.0
141
1.0
290
     0
  0
SCALE
  5
4C39
102
{ACAD_REACTORS
330
4C27
102
}
330
4C27
100
AcDbScale
 70
     0
300
1/128" = 1'-0"
140
0.0078125
141
12.0
290
     0
  0
SCALE
  5
4C3A
102
{ACAD_REACTORS
330
4C27
102
}
330
4C27
100
AcDbScale
 70
     0
300
1/64" = 1'-0"
140
0.015625
141
12.0
290
     0
  0
SCALE
  5
4C3B
102
{ACAD_REACTORS
330
4C27
102
}
330
4C27
100
AcDbScale
 70
     0
300
1/32" = 1'-0"
140
0.03125
141
12.0
290
     0
  0
SCALE
  5
4C3C
102
{ACAD_REACTORS
330
4C27
102
}
330
4C27
100
AcDbScale
 70
     0
300
1/16" = 1'-0"
140
0.0625
141
12.0
290
     0
  0
SCALE
  5
4C3D
102
{ACAD_REACTORS
330
4C27
102
}
330
4C27
100
AcDbScale
 70
     0
300
3/32" = 1'-0"
140
0.09375
141
12.0
290
     0
  0
SCALE
  5
4C3E
102
{ACAD_REACTORS
330
4C27
102
}
330
4C27
100
AcDbScale
 70
     0
300
1/8" = 1'-0"
140
0.125
141
12.0
290
     0
  0
SCALE
  5
4C3F
102
{ACAD_REACTORS
330
4C27
102
}
330
4C27
100
AcDbScale
 70
     0
300
3/16" = 1'-0"
140
0.1875
141
12.0
290
     0
  0
SCALE
  5
4C40
102
{ACAD_REACTORS
330
4C27
102
}
330
4C27
100
AcDbScale
 70
     0
300
1/4" = 1'-0"
140
0.25
141
12.0
290
     0
  0
SCALE
  5
4C41
102
{ACAD_REACTORS
330
4C27
102
}
330
4C27
100
AcDbScale
 70
     0
300
3/8" = 1'-0"
140
0.375
141
12.0
290
     0
  0
SCALE
  5
4C42
102
{ACAD_REACTORS
330
4C27
102
}
330
4C27
100
AcDbScale
 70
     0
300
1/2" = 1'-0"
140
0.5
141
12.0
290
     0
  0
SCALE
  5
4C43
102
{ACAD_REACTORS
330
4C27
102
}
330
4C27
100
AcDbScale
 70
     0
300
3/4" = 1'-0"
140
0.75
141
12.0
290
     0
  0
SCALE
  5
4C44
102
{ACAD_REACTORS
330
4C27
102
}
330
4C27
100
AcDbScale
 70
     0
300
1" = 1'-0"
140
1.0
141
12.0
290
     0
  0
SCALE
  5
4C45
102
{ACAD_REACTORS
330
4C27
102
}
330
4C27
100
AcDbScale
 70
     0
300
1-1/2" = 1'-0"
140
1.5
141
12.0
290
     0
  0
SCALE
  5
4C46
102
{ACAD_REACTORS
330
4C27
102
}
330
4C27
100
AcDbScale
 70
     0
300
3" = 1'-0"
140
3.0
141
12.0
290
     0
  0
SCALE
  5
4C47
102
{ACAD_REACTORS
330
4C27
102
}
330
4C27
100
AcDbScale
 70
     0
300
6" = 1'-0"
140
6.0
141
12.0
290
     0
  0
SCALE
  5
4C48
102
{ACAD_REACTORS
330
4C27
102
}
330
4C27
100
AcDbScale
 70
     0
300
1'-0" = 1'-0"
140
12.0
141
12.0
290
     0
  0
TABLESTYLE
  5
3C50
102
{ACAD_XDICTIONARY
360
4C7D
102
}
102
{ACAD_REACTORS
330
3C4F
102
}
330
3C4F
100
AcDbTableStyle
  3
Standard
 70
     0
 71
     0
 40
0.06
 41
0.06
280
     0
281
     0
  7
STANDARD
140
0.18
170
     2
 62
     0
 63
     7
283
     0
274
    -2
284
     1
 64
     0
275
    -2
285
     1
 65
     0
276
    -2
286
     1
 66
     0
277
    -2
287
     1
 67
     0
278
    -2
288
     1
 68
     0
279
    -2
289
     1
 69
     0
  7
STANDARD
140
0.25
170
     5
 62
     0
 63
     7
283
     0
274
    -2
284
     1
 64
     0
275
    -2
285
     1
 65
     0
276
    -2
286
     1
 66
     0
277
    -2
287
     1
 67
     0
278
    -2
288
     1
 68
     0
279
    -2
289
     1
 69
     0
  7
STANDARD
140
0.18
170
     5
 62
     0
 63
     7
283
     0
274
    -2
284
     1
 64
     0
275
    -2
285
     1
 65
     0
276
    -2
286
     1
 66
     0
277
    -2
287
     1
 67
     0
278
    -2
288
     1
 68
     0
279
    -2
289
     1
 69
     0
  0
VISUALSTYLE
  5
4C1C
102
{ACAD_REACTORS
330
4C16
102
}
330
4C16
100
AcDbVisualStyle
  2
2dWireframe
 70
     4
 71
     0
 72
     2
 73
     0
 90
        0
 40
-0.6
 41
-30.0
 62
     5
 63
     7
 74
     1
 91
        4
 64
     7
 65
   257
 75
     1
175
     1
 42
1.0
 92
        0
 66
   257
 43
1.0
 76
     1
 77
     6
 78
     2
 67
     7
 79
     5
170
     0
171
     0
290
     0
174
     0
 93
        1
 44
0.0
173
     0
291
     0
 45
0.0
1001
ACAD
1000
AcDbSavedByObjectVersion
1070
     0
1000
AcDbSavedByObjectVersion
1070
     0
  0
VISUALSTYLE
  5
4C1E
102
{ACAD_REACTORS
330
4C16
102
}
330
4C16
100
AcDbVisualStyle
  2
3D Hidden
 70
     6
 71
     1
 72
     2
 73
     2
 90
        0
 40
-0.6
 41
-30.0
 62
     5
 63
     7
 74
     2
 91
        2
 64
     7
 65
   257
 75
     2
175
     1
 42
40.0
 92
        0
 66
   257
 43
1.0
 76
     1
 77
     6
 78
     2
 67
     7
 79
     3
170
     0
171
     0
290
     0
174
     0
 93
        1
 44
0.0
173
     0
291
     0
 45
0.0
1001
ACAD
1000
AcDbSavedByObjectVersion
1070
     0
1000
AcDbSavedByObjectVersion
1070
     0
  0
VISUALSTYLE
  5
4C1D
102
{ACAD_REACTORS
330
4C16
102
}
330
4C16
100
AcDbVisualStyle
  2
3dWireframe
 70
     5
 71
     0
 72
     2
 73
     0
 90
        0
 40
-0.6
 41
-30.0
 62
     5
 63
     7
 74
     1
 91
        4
 64
     7
 65
   257
 75
     1
175
     1
 42
1.0
 92
        0
 66
   257
 43
1.0
 76
     1
 77
     6
 78
     2
 67
     7
 79
     5
170
     0
171
     0
290
     0
174
     0
 93
        1
 44
0.0
173
     0
291
     0
 45
0.0
1001
ACAD
1000
AcDbSavedByObjectVersion
1070
     0
1000
AcDbSavedByObjectVersion
1070
     0
  0
VISUALSTYLE
  5
4C1B
102
{ACAD_REACTORS
330
4C16
102
}
330
4C16
100
AcDbVisualStyle
  2
Basic
 70
     7
 71
     1
 72
     0
 73
     1
 90
        0
 40
-0.6
 41
-30.0
 62
     5
 63
     7
 74
     0
 91
        4
 64
     7
 65
   257
 75
     1
175
     1
 42
1.0
 92
        8
 66
     7
 43
1.0
 76
     1
 77
     6
 78
     2
 67
     7
 79
     5
170
     0
171
     0
290
     0
174
     0
 93
        1
 44
0.0
173
     0
291
     1
 45
0.0
1001
ACAD
1000
AcDbSavedByObjectVersion
1070
     0
1000
AcDbSavedByObjectVersion
1070
     0
  0
VISUALSTYLE
  5
4C22
102
{ACAD_REACTORS
330
4C16
102
}
330
4C16
100
AcDbVisualStyle
  2
Brighten
 70
    12
 71
     2
 72
     2
 73
     0
 90
        0
 40
-0.6
 41
-30.0
 62
     5
 63
     7
 74
     1
 91
        4
 64
     7
 65
   257
 75
     1
175
     1
 42
1.0
 92
        8
 66
     7
 43
1.0
 76
     1
 77
     6
 78
     2
 67
     7
 79
     5
170
     0
171
     0
290
     0
174
     0
 93
        1
 44
50.0
173
     0
291
     1
 45
0.0
1001
ACAD
1000
AcDbSavedByObjectVersion
1070
     0
1000
AcDbSavedByObjectVersion
1070
     0
  0
VISUALSTYLE
  5
4C26
102
{ACAD_REACTORS
330
4C16
102
}
330
4C16
100
AcDbVisualStyle
  2
ColorChange
 70
    16
 71
     2
 72
     2
 73
     3
 90
        0
 40
-0.6
 41
-30.0
 62
     5
 63
     8
 74
     1
 91
        4
 64
     7
 65
   257
 75
     1
175
     1
 42
1.0
 92
        8
 66
     8
 43
1.0
 76
     1
 77
     6
 78
     2
 67
     7
 79
     5
170
     0
171
     0
290
     0
174
     0
 93
        1
 44
0.0
173
     0
291
     1
 45
0.0
1001
ACAD
1000
AcDbSavedByObjectVersion
1070
     0
1000
AcDbSavedByObjectVersion
1070
     0
  0
VISUALSTYLE
  5
4C1F
102
{ACAD_REACTORS
330
4C16
102
}
330
4C16
100
AcDbVisualStyle
  2
Conceptual
 70
     9
 71
     3
 72
     2
 73
     0
 90
        0
 40
-0.6
 41
-30.0
 62
     5
 63
     7
 74
     2
 91
        2
 64
     7
 65
   257
 75
     1
175
     1
 42
40.0
 92
        8
 66
     7
 43
1.0
 76
     1
 77
     6
 78
     2
 67
     7
 79
     3
170
     0
171
     0
290
     0
174
     0
 93
        1
 44
0.0
173
     0
291
     0
 45
0.0
1001
ACAD
1000
AcDbSavedByObjectVersion
1070
     0
1000
AcDbSavedByObjectVersion
1070
     0
  0
VISUALSTYLE
  5
4C21
102
{ACAD_REACTORS
330
4C16
102
}
330
4C16
100
AcDbVisualStyle
  2
Dim
 70
    11
 71
     2
 72
     2
 73
     0
 90
        0
 40
-0.6
 41
-30.0
 62
     5
 63
     7
 74
     1
 91
        4
 64
     7
 65
   257
 75
     1
175
     1
 42
1.0
 92
        8
 66
     7
 43
1.0
 76
     1
 77
     6
 78
     2
 67
     7
 79
     5
170
     0
171
     0
290
     0
174
     0
 93
        1
 44
-50.0
173
     0
291
     1
 45
0.0
1001
ACAD
1000
AcDbSavedByObjectVersion
1070
     0
1000
AcDbSavedByObjectVersion
1070
     0
  0
VISUALSTYLE
  5
4C25
102
{ACAD_REACTORS
330
4C16
102
}
330
4C16
100
AcDbVisualStyle
  2
Facepattern
 70
    15
 71
     2
 72
     2
 73
     0
 90
        0
 40
-0.6
 41
-30.0
 62
     5
 63
     7
 74
     1
 91
        4
 64
     7
 65
   257
 75
     1
175
     1
 42
1.0
 92
        8
 66
     7
 43
1.0
 76
     1
 77
     6
 78
     2
 67
     7
 79
     5
170
     0
171
     0
290
     0
174
     0
 93
        1
 44
0.0
173
     0
291
     1
 45
0.0
1001
ACAD
1000
AcDbSavedByObjectVersion
1070
     0
1000
AcDbSavedByObjectVersion
1070
     0
  0
VISUALSTYLE
  5
4C17
102
{ACAD_REACTORS
330
4C16
102
}
330
4C16
100
AcDbVisualStyle
  2
Flat
 70
     0
 71
     2
 72
     1
 73
     1
 90
        2
 40
-0.6
 41
30.0
 62
     5
 63
     7
 74
     0
 91
        4
 64
     7
 65
   257
 75
     1
175
     1
 42
1.0
 92
        8
 66
     7
 43
1.0
 76
     1
 77
     6
 78
     2
 67
     7
 79
     5
170
     0
171
     0
290
     0
174
     0
 93
       13
 44
0.0
173
     0
291
     1
 45
0.0
1001
ACAD
1000
AcDbSavedByObjectVersion
1070
     0
1000
AcDbSavedByObjectVersion
1070
     0
  0
VISUALSTYLE
  5
4C18
102
{ACAD_REACTORS
330
4C16
102
}
330
4C16
100
AcDbVisualStyle
  2
FlatWithEdges
 70
     1
 71
     2
 72
     1
 73
     1
 90
        2
 40
-0.6
 41
30.0
 62
     5
 63
     7
 74
     1
 91
        4
 64
     7
 65
   257
 75
     1
175
     1
 42
1.0
 92
        0
 66
   257
 43
1.0
 76
     1
 77
     6
 78
     2
 67
     7
 79
     5
170
     0
171
     0
290
     0
174
     0
 93
       13
 44
0.0
173
     0
291
     1
 45
0.0
1001
ACAD
1000
AcDbSavedByObjectVersion
1070
     0
1000
AcDbSavedByObjectVersion
1070
     0
  0
VISUALSTYLE
  5
4C19
102
{ACAD_REACTORS
330
4C16
102
}
330
4C16
100
AcDbVisualStyle
  2
Gouraud
 70
     2
 71
     2
 72
     2
 73
     1
 90
        2
 40
-0.6
 41
30.0
 62
     5
 63
     7
 74
     0
 91
        4
 64
     7
 65
   257
 75
     1
175
     1
 42
1.0
 92
        0
 66
     7
 43
1.0
 76
     1
 77
     6
 78
     2
 67
     7
 79
     5
170
     0
171
     0
290
     0
174
     0
 93
       13
 44
0.0
173
     0
291
     1
 45
0.0
1001
ACAD
1000
AcDbSavedByObjectVersion
1070
     0
1000
AcDbSavedByObjectVersion
1070
     0
  0
VISUALSTYLE
  5
4C1A
102
{ACAD_REACTORS
330
4C16
102
}
330
4C16
100
AcDbVisualStyle
  2
GouraudWithEdges
 70
     3
 71
     2
 72
     2
 73
     1
 90
        2
 40
-0.6
 41
30.0
 62
     5
 63
     7
 74
     1
 91
        4
 64
     7
 65
   257
 75
     1
175
     1
 42
1.0
 92
        0
 66
   257
 43
1.0
 76
     1
 77
     6
 78
     2
 67
     7
 79
     5
170
     0
171
     0
290
     0
174
     0
 93
       13
 44
0.0
173
     0
291
     1
 45
0.0
1001
ACAD
1000
AcDbSavedByObjectVersion
1070
     0
1000
AcDbSavedByObjectVersion
1070
     0
  0
VISUALSTYLE
  5
4C24
102
{ACAD_REACTORS
330
4C16
102
}
330
4C16
100
AcDbVisualStyle
  2
Linepattern
 70
    14
 71
     2
 72
     2
 73
     0
 90
        0
 40
-0.6
 41
-30.0
 62
     5
 63
     7
 74
     1
 91
        4
 64
     7
 65
   257
 75
     7
175
     7
 42
1.0
 92
        8
 66
     7
 43
1.0
 76
     1
 77
     6
 78
     2
 67
     7
 79
     5
170
     0
171
     0
290
     0
174
     0
 93
        1
 44
0.0
173
     0
291
     1
 45
0.0
1001
ACAD
1000
AcDbSavedByObjectVersion
1070
     0
1000
AcDbSavedByObjectVersion
1070
     0
  0
VISUALSTYLE
  5
4C20
102
{ACAD_REACTORS
330
4C16
102
}
330
4C16
100
AcDbVisualStyle
  2
Realistic
 70
     8
 71
     2
 72
     2
 73
     0
 90
        0
 40
-0.6
 41
-30.0
 62
     5
 63
     7
 74
     1
 91
        0
 64
     7
 65
   257
 75
     1
175
     1
 42
1.0
 92
        8
 66
     8
 43
1.0
 76
     1
 77
     6
 78
     2
 67
     7
 79
     5
170
     0
171
     0
290
     0
174
     0
 93
       13
 44
0.0
173
     0
291
     0
 45
0.0
1001
ACAD
1000
AcDbSavedByObjectVersion
1070
     0
1000
AcDbSavedByObjectVersion
1070
     0
  0
VISUALSTYLE
  5
4C23
102
{ACAD_REACTORS
330
4C16
102
}
330
4C16
100
AcDbVisualStyle
  2
Thicken
 70
    13
 71
     2
 72
     2
 73
     0
 90
        0
 40
-0.6
 41
-30.0
 62
     5
 63
     7
 74
     1
 91
        4
 64
     7
 65
   257
 75
     1
175
     1
 42
1.0
 92
       12
 66
     7
 43
1.0
 76
     1
 77
     6
 78
     2
 67
     7
 79
     5
170
     0
171
     0
290
     0
174
     0
 93
        1
 44
0.0
173
     0
291
     1
 45
0.0
1001
ACAD
1000
AcDbSavedByObjectVersion
1070
     0
1000
AcDbSavedByObjectVersion
1070
     0
  0
DICTIONARYVAR
  5
4C7A
102
{ACAD_REACTORS
330
3C55
102
}
330
3C55
100
DictionaryVariables
280
     0
  1
1:1
  0
DICTIONARYVAR
  5
4C79
102
{ACAD_REACTORS
330
3C55
102
}
330
3C55
100
DictionaryVariables
280
     0
  1
STANDARD
  0
DICTIONARYVAR
  5
3C56
102
{ACAD_REACTORS
330
3C55
102
}
330
3C55
100
DictionaryVariables
280
     0
  1
STANDARD
  0
DICTIONARYVAR
  5
3C57
102
{ACAD_REACTORS
330
3C55
102
}
330
3C55
100
DictionaryVariables
280
     0
  1
1
  0
DICTIONARYVAR
  5
4C7C
102
{ACAD_REACTORS
330
3C55
102
}
330
3C55
100
DictionaryVariables
280
     0
  1
0
  0
DICTIONARYVAR
  5
3C58
102
{ACAD_REACTORS
330
3C55
102
}
330
3C55
100
DictionaryVariables
280
     0
  1

  0
DICTIONARYVAR
  5
4C7B
102
{ACAD_REACTORS
330
3C55
102
}
330
3C55
100
DictionaryVariables
280
     0
  1
127
  0
DICTIONARY
  5
4CF6
330
3C51
100
AcDbDictionary
280
     1
281
     1
  3
ACAD_XREC_ROUNDTRIP
360
4CF7
  0
DICTIONARY
  5
3CC7
330
3C52
100
AcDbDictionary
280
     1
281
     1
  3
ACAD_XREC_ROUNDTRIP
360
4CF8
  3
ADSK_XREC_LAYOUTTHUMBNAIL
360
3CC8
  0
DICTIONARY
  5
4C07
330
4C06
100
AcDbDictionary
280
     1
281
     1
  3
ACAD_XREC_ROUNDTRIP
360
4CFA
  3
BUMPTILE
360
4C09
  3
DIFFUSETILE
360
4C08
  3
OPACITYTILE
360
4C0C
  3
REFLECTIONTILE
360
4C0B
  3
REFRACTIONTILE
360
4C0D
  3
SPECULARTILE
360
4C0A
  0
DICTIONARY
  5
4BFF
330
4BFE
100
AcDbDictionary
280
     1
281
     1
  3
ACAD_XREC_ROUNDTRIP
360
4CF9
  3
BUMPTILE
360
4C01
  3
DIFFUSETILE
360
4C00
  3
OPACITYTILE
360
4C04
  3
REFLECTIONTILE
360
4C03
  3
REFRACTIONTILE
360
4C05
  3
SPECULARTILE
360
4C02
  0
DICTIONARY
  5
4C0F
330
4C0E
100
AcDbDictionary
280
     1
281
     1
  3
ACAD_XREC_ROUNDTRIP
360
4CFB
  3
BUMPTILE
360
4C11
  3
DIFFUSETILE
360
4C10
  3
OPACITYTILE
360
4C14
  3
REFLECTIONTILE
360
4C13
  3
REFRACTIONTILE
360
4C15
  3
SPECULARTILE
360
4C12
  0
DICTIONARY
  5
4C7D
330
3C50
100
AcDbDictionary
280
     1
281
     1
  3
ACAD_ROUNDTRIP_2008_TABLESTYLE_CELLSTYLEMAP
360
4CEF
  3
ACAD_XREC_ROUNDTRIP
360
4CF5
  0
XRECORD
  5
4CF7
102
{ACAD_REACTORS
330
4CF6
102
}
330
4CF6
100
AcDbXrecord
280
     1
102
SHADEPLOT
 70
     0
102
SHADEPLOTRESLEVEL
 70
     2
102
SHADEPLOTCUSTOMDPI
 70
   300
  0
XRECORD
  5
4CF8
102
{ACAD_REACTORS
330
3CC7
102
}
330
3CC7
100
AcDbXrecord
280
     1
102
SHADEPLOT
 70
     0
102
SHADEPLOTRESLEVEL
 70
     2
102
SHADEPLOTCUSTOMDPI
 70
   300
  0
XRECORD
  5
3CC8
102
{ACAD_REACTORS
330
3CC7
102
}
330
3CC7
100
AcDbXrecord
280
     1
310
28000000B40000007F00000001000800000000004C590000000000000000000000010000000000000000000000000000FFFFFF000000000000000000000000000000000000000000000000000000000000000000330000006600000099000000CC000000FF00000000330000333300006633000099330000CC330000FF3300
310
0000660000336600006666000099660000CC660000FF66000000990000339900006699000099990000CC990000FF99000000CC000033CC000066CC000099CC0000CCCC0000FFCC000000FF000033FF000066FF000099FF0000CCFF0000FFFF000000003300330033006600330099003300CC003300FF003300003333003333
310
33006633330099333300CC333300FF33330000663300336633006666330099663300CC663300FF66330000993300339933006699330099993300CC993300FF99330000CC330033CC330066CC330099CC3300CCCC3300FFCC330000FF330033FF330066FF330099FF3300CCFF3300FFFF330000006600330066006600660099
310
006600CC006600FF00660000336600333366006633660099336600CC336600FF33660000666600336666006666660099666600CC666600FF66660000996600339966006699660099996600CC996600FF99660000CC660033CC660066CC660099CC6600CCCC6600FFCC660000FF660033FF660066FF660099FF6600CCFF6600
310
FFFF660000009900330099006600990099009900CC009900FF00990000339900333399006633990099339900CC339900FF33990000669900336699006666990099669900CC669900FF66990000999900339999006699990099999900CC999900FF99990000CC990033CC990066CC990099CC9900CCCC9900FFCC990000FF99
310
0033FF990066FF990099FF9900CCFF9900FFFF99000000CC003300CC006600CC009900CC00CC00CC00FF00CC000033CC003333CC006633CC009933CC00CC33CC00FF33CC000066CC003366CC006666CC009966CC00CC66CC00FF66CC000099CC003399CC006699CC009999CC00CC99CC00FF99CC0000CCCC0033CCCC0066CC
310
CC0099CCCC00CCCCCC00FFCCCC0000FFCC0033FFCC0066FFCC0099FFCC00CCFFCC00FFFFCC000000FF003300FF006600FF009900FF00CC00FF00FF00FF000033FF003333FF006633FF009933FF00CC33FF00FF33FF000066FF003366FF006666FF009966FF00CC66FF00FF66FF000099FF003399FF006699FF009999FF00CC
310
99FF00FF99FF0000CCFF0033CCFF0066CCFF0099CCFF00CCCCFF00FFCCFF0000FFFF0033FFFF0066FFFF0099FFFF00CCFFFF00FFFFFF00000000000D0D0D001A1A1A00282828003535350043434300505050005D5D5D006B6B6B00787878008686860093939300A1A1A100AEAEAE00BBBBBB00C9C9C900D6D6D600E4E4E400
310
F1F1F100FFFFFF0000000000000000000000000000000000000000000000000000000000000000000000000000000000EFEFF5F5F5F5F5F5F5F5F5F5F5F5F5F5F5F5F5F5F5F5F5F5F5F5F5F5F5F5F5F5F5F5F5F5F5F5F5F5F5F5F5F5F5F5F5F5F5F5F5F5F5F5F5F5F5F5F5F5F5F5F5F5F5F5F5F5F5F5F5F5F5F5F5F5F5F5F5
310
F5F5F5F5F5F5F5F5F5F5F5F5F5F5F5F5F5F5F5F5F5F5F5F5F5F5F5F5F5F5F5F5F5F5F5F5F5F5F5F5F5F5F5F5F5F5F5F5F5F5F5F5F5F5F5F5F5F5F5F5F5F5F5F5F5F5F5F5F5F5F5F5F5F5F5F5F5F5F5F5F5F5F5F5F5F5F5F5F5F5F5F5F5F5F5F5F5F5F5F5F5F5F5F5F5F5F5F5F5F5F5F5F5F5F5F5F5F5F5F5F5F5F5F5F5F5F5
310
F5F5F5F5F5F5F5F5F5F5F5F5F5F5F5F5F5F5F5F5F5F5F5F5F5F5F5F5F5F5F5F5F5F5F5F5F5F5F5F5F5F5F5F5F5F5F5F5F5F5F5F5F5F5F5F5F5F5F5F5F5F5F5F5F5F5F5F5F5F5F5F5F5F5F5F5F5F5F5F5F5F5F5F5F5F5F5F5F5F5F5F5F5F5F5F5F5F5F5F5F5F5F5F5F5F5F5F5F5F5F5F5F5F5F5F5F5F5F5F5F5F5F5F5F5F5F5
310
F5F5F5F5F5F5F5F5F5F5F5F5F5F5F5F5F5F5F5F5F5F5F5F5F5F5F5F5E2E2E2E2E2E2E2E2E2E2E2E2E2E2E2E2E2E2E2E2E2E2E2E2E2E2E2E2E2E2E2E2E2E2E2E2E2E2E2E2E2E2E2E2E2E2E2E2E2E2E2E2E2E2E2E2E2E2E2E2E2E2E2E2E2E2E2E2E2E2E2E2E2E2E2E2E2E2E2E2E2E2E2E2E2E2E2E2E2E2E2E2E2E2E2E2E2E2E2
310
E2E2E2E2E2E2E2E2E2E2E2E2E2E2E2E2E2E2E2E2E2E2E2E2E2E2E2E2E2E2E2E2E2E2E2E2E2E2E2E2E2E2E2E2E2E2E2E2E2E2E2E2E2E2E2E2E2E2E2E2E2E2E2E2E2E2E2E2E2E2E2E2E2E2E2E2E2E2F5F5F5E2E2E2E2E2E2E2E2E2E2E2E2E2E2E2E2E2E2E2E2E2E2E2E2E2E2E2E2E2E2E2E2E2E2E2E2E2E2E2E2E2E2E2E2E2E2
310
E2E2E2E2E2E2E2E2E2E2E2E2E2E2E2E2E2E2E2E2E2E2E2E2E2E2E2E2E2E2E2E2E2E2E2E2E2E2E2E2E2E2E2E2E2E2E2E2E2E2E2E2E2E2E2E2E2E2E2E2E2E2E2E2E2E2E2E2E2E2E2E2E2E2E2E2E2E2E2E2E2E2E2E2E2E2E2E2E2E2E2E2E2E2E2E2E2E2E2E2E2E2E2E2E2E2E2E2E2E2E2E2E2E2E2E2E2E2E2E2E2E2E2E2E2E2E2
310
E2E2E2E2F5F5F5E2E2E2F5F5F5F5F5F5F5F5F5F5F5F5F5F5F5F5F5F5F5F5F5F5F5F5F5F5F5F5F5F5F5F5F5F5F5F5F5F5F5F5F5F5F5F5F5F5F5F5F5F5F5F5F5F5F5F5F5F5F5F5F5F5F5F5F5F5F5F5F5F5F5F5F5F5F5F5F5F5F5F5F5F5F5F5F5F5F5F5F5F5F5F5F5F5F5F5F5F5F5F5F5F5F5F5F5F5F5F5F5F5F5F5F5F5F5F5F5
310
F5F5F5F5F5F5F5F5F5F5F5F5F5F5F5F5F5F5F5F5F5F5F5F5F5F5F5F5F5F5F5F5F5F5F5F5F5F5F5F5F5F5F5F5F5F5F5F5F5F5F5F5F5F5E2E2E2F5F5F5E2E2E2F5E2E2E2E2E2E2E2E2E2E2E2E2E2E2E2E2E2E2E2E2E2E2E2E2E2E2E2E2E2E2E2E2E2E2E2E2E2E2E2E2E2E2E2E2E2E2E2E2E2E2E2E2E2E2E2E2E2E2E2E2E2E2E2
310
E2E2E2E2E2E2E2E2E2E2E2E2E2E2E2E2E2E2E2E2E2E2E2E2E2E2E2E2E2E2E2E2E2E2E2E2E2E2E2E2E2E2E2E2E2E2E2E2E2E2E2E2E2E2E2E2E2E2E2E2E2E2E2E2E2E2E2E2E2E2E2E2E2E2E2E2E2E2E2E2E2E2E2E2E2E2E2E2E2E2E2E2E2E2E2E2E2E2E2E2E2E2E2E2E2F5F5E2E2E2F5F5F5E2E2E2F5E2E2E2E2E2E2E2E2E2E2
310
E2E2E2E2E2E2E2E2E2E2E2E2E2E2E2E2E2E2E2E2E2E2E2E2E2E2E2E2E2E2E2E2E2E2E2E2E2E2E2E2E2E2E2E2E2E2E2E2E2E2E2E2E2E2E2E2E2E2E2E2E2E2E2E2E2E2E2E2E2E2E2E2E2E2E2E2E2E2E2E2E2E2E2E2E2E2E2E2E2E2E2E2E2E2E2E2E2E2E2E2E2E2E2E2E2E2E2E2E2E2E2E2E2E2E2E2E2E2E2E2E2E2E2E2E2E2E2
310
E2E2E2E2E2E2E2E2E2E2E2E2E2E2E2E2E2E2E2E2E2E2E2E2E2E2E2E2E2E2E2F5F5E2E2E2F5F5F5E2E2E2F5E2E2E2E2E2E2E2E2E2E2F5F5F5F5F5F5F5F5F5F5F5F5F5F5F5F5F5F5F5F5F5F5F5F5F5F5F5F5F5F5F5F5F5F5F5F5F5F5F5F5F5F5F5F5F5F5F5F5F5F5F5F5F5F5F5F5F5F5F5F5F5F5F5F5F5F5F5F5F5F5F5F5F5F5
310
F5F5F5F5F5F5F5F5DCF5F5F5F5F5F5F5F5F5F5F5F5F5F5F5F5F5F5F5F5F5F5F5F5F5DCF5F5F5F5F5F5F5F5F5F5F5F5F5F5F5F5F5F5F5F5F5F5F5F5F5DCF5F5F5F5F5F5F5F5F5F5F5F5F5F5F5F5F5F5F5F5F5F5E2F5F5E2E2E2F5F5F5E2E2E2F5E2E2E2E2E2E2E2E2E2E2F5E2E2E2E2E2E2E2E2E2E2E2E2E2E2E2E2E2E2E2E2
310
E2E2E2E2E2E2E2E2E2E2E2E2E2E2E2E2E2E2E2E2E2E2E2E2E2E2E2E2E2E2E2E2E2E2E2E2E2E2E2E2E2E2E2E2E2E2E2E2E2E2E2E2E2E2E2E2E2E2E2E2E2DCE2E2E2E2E2E2E2E2E2E2E2E2E2E2E2E2E2E2E2E2E2E2E2E2E2DCE2E2E2E2E2E2E2E2E2E2E2E2E2E2E20FE2E2E2E2E2E2E2E2E2DCE2E2E2DCDCDCDCDCDCDCDCDCDC
310
DCDCDCDCDCDCE2E2F5E2F5F5E2E2E2F5F5F5E2E2E2F5E2E2E2E2E2E2E2E2E2E2F5E2E2E2E2E2E2E2E2E2E2E2E2E2E2E2E2E2E2E2E2E2E2E2E2E2E2E2E2E2E2E2E2E2E2E2E2E2E2E2E2E2E2E2E2E2E2E2E2E2E2E2E2E2E2E2E2E2E2E2E2E2E2E2E2E2E2E2E2E2E2E2E2E2E2E2E2E2E2E2E2E2DCE2DCDCDCDCDCDCDCDCE2DCDC
310
DCDCDCDCDCDCDCDCDCE2DCDCE2DCE2E2E2E2E2E2E2E2E2E2E2E2E2E2E20FE2E2E2E2E2E2E2E2E2DCE2E2E2DCDCDCDCDCDCDCE2DCDCDCE2DCDCDCDCE2E2F5E2F5F5E2E2E2F5F5F5E2E2E2F5E2E2E2E2E2E2E2E2E2E2F5E2E2E2E2E2E2E2E2E2E2E2E2E2E2E2E2E2E2E2E2E2E2E2E2E2E2E2E2E2E2E2E2E2E2E2E2E2E2E2E2E2
310
E2E2E2E2E2E2E2E2E2E2E2E2E2E2E2E2E2E2E2E2E2E2E2E2E2E2E2E2E2E2E2E2E2E2E2E2E2E2E2E2DCE2DCDCDCDCDCDCDCDCDCDCDCE2DCDCDCDCDCDCDCDCDCDCE2E2DCDCDCDCDCDCDCDCDCDCDCDCDCDCDCDC0FDCDCDCDCDCDCDCDCDCDCDCDCE2E2DCE2E2E2E2E2E2E2E2E2E2E2E2E2E2E2E2F5E2F5F5E2E2E2F5F5F5E2E2E2
310
F5E2E2E2E2E2E2E2E2E2E2F5E2E2E2E2E2E2E2E2E2E2E2E2E2E2E2E2E2E2E2E2E2E2E2E2E2E2E2E2E2E2E2E2E2E2E2E2E2E2E2E2E2E2E2E2E2E2E2E2E2E2E2E2E2E2E2E2E2E2E2E2E2E2E2E2E2E2E2E2E2E2E2E2E2E2E2E2E2E2E2E2E2DCE2DCDCDCE2E2DCDCE2E2E2E2E2E2E2E2E2E2E2E2E2DCDCE2E2DCDCDCDCDCDCDCE2
310
E2E2E2E2E2E2E2E20FE2E2E2E2E2E2E2E2E2DCDCDCE2DCDCDCE2E2E2E2E2E2E2E2E2E2E2E2E2E2E2F5E2F5F5E2E2E2F5F5F5E2E2E2F5E2E2E2E2E2E2E2E2E2E2F5E2E2E2E2E2E2E2E2E2E2E2E2E2E2E2E2E2E2E2E2E2E2E2E2E2E2E2E2E2E2E2E2E2E2E2E2E2E2E2E2E2E2E2E2E2E2E2E2E2E2E2E2E2E2E2E2E2E2E2E2E2E2
310
E2E2E2E2E2E2E2E2E2E2E2E2E2E2E2E2E2E2E2DCDCDCDCDCDCDCDCDCDCDCDCDCDCDCDCDCDCDCDCDCDCDCDCDCDCDCDCDCDCDCDCDCDCDCDCDCDCDCDCDCDC0FDCDCDCDCDCDCDCDCDCDCDCDCDCDCDCDCDCDCDCDCDCDCDCDCDCDCDCDCDCDCDCDCE2F5E2E2E2E2F5F5F5E2E2E2F5E2E2E2E2E2E2E2E2E2E2F5E2E2E2E2E2E2E2E2E2
310
E2E2E2E2E2E2E2E2E2E2E2E2E2E2E2E2E2E2E2E2E2E2E2E2E2E2E2E2E2E2E2E2E2E2E2E2E2E2E2E2E2E2E2E2E2E2E2E2E2E2E2E2E2E2E2E2E2E2E2E2E2E2E2E2E2E2E2E2E2E2E2E2DCE2E2DCDCDCDCDCDCDCDCDCDCDCDCDCDCDCDCDCE2E2DCDCDCDCDCE2E2E2E2E2E2E2E2E2E2E2E2E2DCDCDCDCDCE2E2E2E2E2E2E2DCE2E2
310
E2E2E2E2E2E2E2E2E2E2E2E2E2E2E2E2E2E2E2F5E2F5E2E2E2E2F5F5F5E2E2E2F5E2E2E2E2E2E2E2E2E2E2F5E2E2E2E2E2E2E2E2E2E2E2E2E2E2E2E2E2E2E2E2E2E2E2E2E2E2E2E2E2E2E2E2E2E2E2E2E2E2E2E2E2E2E2E2E2E2E2E2E2E2E2E2E2E2E2E2E2E2E2E2E2E2E2E2E2E2E2E2E2E2E2E2E2E2E2E2E2E2E2E2E2DCDC
310
DCDCDCDCDCDCDCDCDCDCDCDCDCDCDCDCDCDCDCDCDCDCDCDCDCE2E2E2E2E2E2E2E2E2E2E2E2E2DCDCDCDCDCE2E2E2E2E2E2E2DCE2E2E2E2E2E2E2E2DCDCDCDCDCDCE2DCDCDCE2E2E2F5E2F5E2E2E2E2F5F5F5E2E2E2F5E2E2E2E2E2E2E2E2E2E2F5E2E2E2E2E2E2E2E2E2E2E2E2E2E2E2E2E2E2E2E2E2E2E2E2E2E2E2E2E2E2
310
E2E2E2E2E2E2E2E2E2E2E2E2E2E2E2E2E2E2E2E2E2E2E2E2E2E2E2E2E2E2E2E2E2E2E2E2E2E2E2E2E2E2E2E2E2E2E2E2E2E2E2DCDCDCDCDCDCDCDCDCDCDCDCDCDCDCDCDCDCDCDCDCDCDCDCDCDCDCDCDCE2DCDCDCDCDCDCDCDCDCDCDCDCDCDCDCDCDCDCDCDCDCDCDCDCDCE2DCDCDCE2E2DCDCDCDCDCDCDCDCDCDCDCE2E2F5E2
310
F5E2E2E2E2F5F5F5E2E2E2F5E2E2E2E2E2E2E2E2E2E2F5E2E2E2E2E2E2E2E2E2E2E2E2E2E2E2E2E2E2E2E2E2E2E2E2E2E2E2E2E2E2E2E2E2E2E2E2E2E2E2E2E2E2E2E2E2E2E2E2E2E2E2E2E2E2E2E2E2E2E2E2E2E2E2E2E2E2E2E2E2E2E2E2E2E2E2E2E2E2E2E2E2DCE2DCDCE2DCDCDCDCDCE2DCDCDCDCE2DCE2E2E2E2E2DC
310
E2DCDCDCDCDCE2DCDCDCE2E2E2E2DCDCDCDCDCDCDCDCDCDCDCE2E2E2E2DCDCDCE2DCDCDCE2E2E2E2E2E2E2E2E2E2E2E2E2E2E2F5E2F5E2E2E2E2F5F5F5E2E2E2F5E2E2E2E2E2E2E2E2E2E2F5E2E2E2E2E2E2E2E2E2E2E2E2E2E2E2E2E2E2E2E2E2E2E2E2E2E2E2E2E2E2E2E2E2E2E2E2E2E2E2E2E2E2E2E2E2E2E2E2E2E2E2
310
E2E2E2E2E2E2E2E2E2E2E2E2E2E2E2E2E2E2E2E2E2E2E2E2E2E2E2E2E2E2DCDCDCDCDCDCDCDCDCDCDCDCDCDCDCDCDCDCDCDCDCDCDCE2DCE2DCDCDCDCDCDCDCDCDCDCDCDCDCDCDCDCDCDCDCDCDCDCDCDCDCDCDCDCDCDCDCDCDCDCDCDCDCDCDCDCDCDCDCDCDCDCDCDCDCE2F5E2E2E2E2F5F5F5E2E2E2F5E2E2E2E2E2E2E2E2E2
310
E2F5E2E2E2E2E2E2E2E2E2E2E2E2E2E2E2E2E2E2E2E2E2E2E2E2E2E2E2E2E2E2E2E2E2E2E2E2E2E2E2E2E2E2E2E2E2E2E2E2E2E2E2E2E2E2E2E2E2E2E2E2E2E2E2E2E2E2E2E2E2E2E2E2E2E2E2E2E2E2E2E2E2DCE2DCDCDCDCDCDCDCDCE2DCDCDCDCE2DCE2E2E2E2E2DCE2DCE2DCDCDCDCDCE2E2E2E2E2DCDCDCDCDCE2E2E2
310
E2E2DCDCDCDCE2E2DCDCDCDCDCDCDCDCDCDCDCE2E2E2DCDCDCE2E2E2E2E2F5E2F5E2E2E2E2F5F5F5E2E2E2F5E2E2E2E2E2E2E2E2E2E2F5E2E2E2E2E2E2E2E2E2E2E2E2E2E2E2E2E2E2E2E2E2E2E2E2E2E2E2E2E2E2E2E2E2E2E2E2E2E2E2E2E2E2E2E2E2E2E2E2E2E2E2E2E2E2E2E2E2E2E2E2E2E2E2E2E2E2E2E2E2E2E2E2
310
E2E2E2E2E2E2E2E2E2DCDCDCDCDCDCDCDCDCDCDCDCDCDCDCDCDCDCDCDCDCDCDCDCDCDCDCDCDCDCDCE2E2E2E2E2DCDCDCDCE2E2E2E2E2E2DCDCDCDCE2E2DCDCDCDCE2DCDCDCDCDCDCE2E2E2DCDCDCE2E2E2E2E2F5E2F5E2E2E2E2F5F5F5E2E2E2F5E2E2E2E2E2E2E2E2E2E2F5E2E2E2E2E2E2E2E2E2E2E2E2E2E2E2E2E2E2E2
310
E2E2E2E2E2E2E2E2E2E2E2E2E2E2E2E2E2E2E2E2E2E2E2E2E2E2E2E2E2E2E2E2E2E2E2E2E2E2E2E2E2E2E2E2E2E2E2E2E2E2E2E2E2E2E2E2E2E2E2E2E2E2DCDCDCDCDCDCDCDCDCDCE2DCDCE2DCDCDCDCE2DCDCE2DCDCDCDCDCDCDCDCDCDCDCDCDCDCDCDCDCDCDCDCDCDCDCDCDCDCDCDCDCDCDCDCDCDCDCDCDCDCDCDCDCDCDC
310
DCDCDCDCDCDCDCDCDCDCE2F5E2E2E2E2F5F5F5E2E2E2F5E2E2E2E2E2E2E2E2E2E2F5E2E2E2E2E2E2E2E2E2E2E2E2E2E2E2E2E2E2E2E2E2E2E2E2E2E2E2E2E2E2E2E2E2E2E2E2E2E2E2E2E2E2E2E2E2E2E2E2E2E2E2E2E2E2E2E2E2E2E2E2E2E2E2E2E2E2E2E2E2E2E2E2E2E2E2E2E2E2E2E2E2DCDCDCDCDCDCDCDCDCDCE2DC
310
DCE2DCDCDCDCE2DCDCE2DCDCDCDCDCDCDCDCDCDCE2E2DCDCDCE2E2E2E2DCDCDCE2E2DCDCDCE2DCDCDCDCDCDCE2DCDCDCE2DCDCDCE2E2E2E2E2E2DCDCE2E2F5E2F5F5E2E2E2F5F5F5E2E2E2F5E2E2E2E2E2E2E2E2E2E2F5E2E2E2E2E2E2E2E2E2E2E2E2E2E2E2E2E2E2E2E2E2E2E2E2E2E2E2E2E2E2E2E2E2E2E2E2E2E2E2E2
310
E2E2E2E2E2E2E2E2E2E2E2E2E2E2E2E2E2E2E2E2E2E2E2E2E2E2E2E2E2E2E2E2E2E2E2E2E2E2E2E2E2DCDCDCDCDCDCDCDCDCDCDCDCDCDCDCDCDCDCDCDCDCDCDCDCDCDCDCDCDCDCDCDCDCDCDCDCDCDCDCDCDCDCDCDCDCDCDCDCDCDCDCDCDCDCDCDCDCDCDCDCDCDCDCDCDCDCDCDCDCDCDCDCDCDCDCE2F5F5E2E2E2F5F5F5E2E2
310
E2F5E2E2E2E2E2E2E2E2E2E2F5E2E2E2E2E2E2E2E2E2E2E2E2E2E2E2E2E2E2E2E2E2E2E2E2E2E2E2E2E2E2E2E2E2E2E2E2E2E2E2E2E2E2E2E2E2E2E2E2E2E2E2E2E2E2E2E2E2E2E2E2E2E2E2E2E2E2E2E2E2E2E2E2E2E2E2E2E2E2E2E2E2DCDCDCDCDCE2E2E2E2DCE2E2E2E2E2E2E2E2E2E2E2E2DCE2E2E2DCE2E2DCE2DCE2
310
DCDCDCE2E2DCDCE2E2DCE2E2E2DCDCDCDCDCDCDCDCDCDCDCDCDCDCE2E2E2E2E2E2E2E2E2E2E2E2E2E2F5E2F5F5E2E2E2F5F5F5E2E2E2F5E2E2E2E2E2E2E2E2E2E2F5E2E2E2E2E2E2E2E2E2E2E2E2E2E2E2E2E2E2E2E2E2E2E2E2E2E2E2E2E2E2E2E2E2E2E2E2E2E2E2E2E2E2E2E2E2E2E2E2E2E2E2E2E2E2E2E2E2E2E2E2E2
310
E2E2E2E2E2E2E2E2E2E2E2E2E2E2E2E2E2E2E2E2DCE2DCE2DCE2E2E2E2DCE2E2E2E2E2E2E2E2E2E2E2E2DCE2E2E2DCE2E2DCE2DCE2DCDCDCDCDCDCDCDCDCDCE2E2E2DCDCDCDCDCDCDCDCDCDCDCDCDCDCE2E2E2E2E2E2E2E2E2E2E2E2E2E2F5E2F5F5E2E2E2F5F5F5E2E2E2F5E2E2E2E2E2E2E2E2E2E2F5E2E2E2E2E2E2E2E2
310
E2E2E2E2E2E2E2E2E2E2E2E2E2E2E2E2E2E2E2E2E2E2E2E2E2E2E2E2E2E2E2E2E2E2E2E2E2E2E2E2E2E2E2E2E2E2E2E2E2E2E2E2E2E2E2E2E2E2E2E2E2E2E2E2E2E2E2E2E2E2E2E2E2DCDCDCDCDCDCDCDCDCDCDCDCDCDCDCDCDCDCDCDCDCDCDCDCDCDCDCDCDCDCDCDCDCDCDCDCDCDCDCDCDCDCDCDCDCDCDCDCDCDCDCDCDCDC
310
DCDCDCDCDCDCDCDCDCDCDCDCDCDCDCDCDCDCDCDCDCE2F5F5E2E2E2F5F5F5E2E2E2F5E2E2E2E2E2E2E2E2E2E2F5E2E2E2E2E2E2E2E2E2E2E2E2E2E2E2E2E2E2E2E2E2E2E2E2E2E2E2E2E2E2E2E2E2E2E2E2E2E2E2E2E2E2E2E2E2E2E2E2E2E2E2E2E2E2E2E2E2E2E2E2E2E2E2E2E2E2E2E2E2E2E2E2E2E2E2E2E2E2E2E2E2DC
310
DCDCDCDCE2E2E2E2DCE2E2E2E2E2E2E2E2E2E2E2E2DCE2E2E2DCE2E2E2E2DCE2E2E2E2E2E2E2E2E2E2E2E2E2E2DCE2E2E2E2E2E2DCE2E2E2E2E2DCE2E2E2E2E2E2E2E2E2E2E2E2E2E2F5E2F5F5E2E2E2F5F5F5E2E2E2F5E2E2E2E2E2E2E2E2E2E2F5E2E2E2E2E2E2E2E2E2E2E2E2E2E2E2E2E2E2E2E2E2E2E2E2E2E2E2E2E2
310
E2E2E2E2E2E2E2E2E2E2E2E2E2E2E2E2E2E2E2E2E2E2E2E2E2E2E2E2E2E2E2E2E2E2E2E2E2E2E2E2E2E2E2E2E2E2E2E2E2E2E2E2DCDCDCE2DCE2E2E2E2DCE2E2E2E2E2E2E2E2E2E2E2E2DCE2E2E2DCE2E2E2E2DCE2E2E2E2E2E2E2E2E2E2E2E2E2E2DCE2E2E2E2E2E2DCE2E2E2E2E2DCE2E2E2E2E2E2E2E2E2E2E2E2E2E2F5
310
E2F5F5E2E2E2F5F5F5E2E2E2F5E2E2E2E2E2E2E2E2E2E2F5E2E2E2E2E2E2E2E2E2E2E2E2E2E2E2E2E2E2E2E2E2E2E2E2E2E2E2E2E2E2E2E2E2E2E2E2E2E2E2E2E2E2E2E2E2E2E2E2E2E2E2E2E2E2E2E2E2E2E2E2E2E2DCDCDCDCDCDCDCDCDCDCDCDCE2E2E2E2E2E2E2DCDCDCDCDCDCDCDCDCDCDCDCDCDCDCDCDCDCDCDCDCDC
310
DCDCDCDCDCDCDCDCDCDCDCDCDCDCDCDCDCDCDCDCDCDCDCDCDCDCDCDCDCDCDCDCDCDCDCDCDCDCDCDCDCDCDCDCDCDCDCDCDCDCDCDCDCE2F5F5E2E2E2F5F5F5E2E2E2F5E2E2E2E2E2E2E2E2E2E2F5E2E2E2E2E2E2E2E2E2E2E2E2E2E2E2E2E2E2E2E2E2E2E2E2E2E2E2E2E2E2E2E2E2E2E2E2E2E2E2E2E2E2E2E2E2E2E2E2E2E2
310
E2E2E2E2E2E2E2E2E2E2E2E2DCDCDCDCDCDCDCE2E2DCDCE2E2E2E2E2E2E2E2E2E2E2E2E2E2E2E2E2E2E2E2E2E2E2E2E2E2E2E2E2E2E2E2E2E2DCE2E2E2E2DCE2E2E2E2E2E2E2E2E2E2E2E2E2E2DCE2E2E2E2E2E2DCE2E2E2E2E2DCE2E2E2E2E2E2E2E2E2E2E2E2E2E2F5E2F5F5E2E2E2F5F5F5E2E2E2F5E2E2E2E2E2E2E2E2
310
E2E2F5E2E2E2E2E2E2E2E2E2E2E2E2E2E2E2E2E2E2E2E2E2E2E2E2E2E2E2E2E2E2E2E2E2E2E2E2E2E2E2E2E2E2E2E2E2E2E2E2E2E2E2E2E2E2E2E2E2E2E2E2E2E2DCDCDCDCDCDCDCDCDCDCDCE2E2E2E2E2E2E2E2E2E2E2E2E2E2E2E2E2E2E2E2E2E2E2E2E2E2E2E2E2E2E2E2E2E2DCE2E2E2E2DCE2E2E2E2E2E2E2E2E2E2E2
310
E2E2E2DCE2E2E2E2E2E2DCE2E2E2E2E2DCE2E2E2E2E2E2E2E2E2E2E2E2E2E2F5E2F5F5E2E2E2F5F5F5E2E2E2F5E2E2E2E2E2E2E2E2E2E2F5E2E2E2E2E2E2E2E2E2E2E2E2E2E2E2E2E2E2E2E2E2E2E2E2E2E2E2E2E2E2E2E2E2E2E2E2E2E2E2E2E2E2E2E2E2E2E2E2E2E2E2E2E2E2E2E2E2E2E2E2E2E2E2E2E2E2E2E2E2E2E2
310
E2E2E2E2E2E2E2E2E2E2E2E2E2E2E2E2E2E2E2E2E2E2E2E2E2E2E2E2E2E2E2E2E2E2E2E2DCDCDCDCDCDCDCDCDCDCDCDCDCDCDCDCDCDCDCDCDCDCDCDCDCDCDCDCDCDCDCDCDCDCDCDCDCDCDCDCDCDCDCDCDCDCDCDCDCE2F5F5E2E2E2F5F5F5E2E2E2F5E2E2E2E2E2E2E2E2E2E2F5E2E2E2E2E2E2E2E2E2E2E2E2E2E2E2E2E2E2
310
E2E2E2E2E2E2E2E2E2E2E2E2E2E2E2E2E2E2E2E2E2E2E2E2E2E2E2E2E2E2E2E2E2E2E2E2E2E2E2E2E2E2E2E2E2E2E2E2E2E2E2E2E2E2E2E2E2E2E2E2E2E2E2E2E2E2E2E2E2E2E2E2E2E2E2E2E2E2E2E2E2E2E2E2E2E2E2E2E2DCE2E2E2E2DCE2E2E2E2E2E2E2E2E2E2E2E2E2E2DCE2E2E2E2E2E2DCE2E2E2E2E2DCE2E2E2E2
310
E2E2E2E2E2E2E2E2E2E2F5E2F5F5E2E2E2F5F5F5E2E2E2F5E2E2E2E2E2E2E2E2E2E2F5E2E2E2E2E2E2E2E2E2E2E2E2E2E2E2E2E2E2E2E2E2E2E2E2E2E2E2E2E2E2E2E2E2E2E2E2E2E2E2E2E2E2E2E2E2E2E2E2E2E2E2E2DCDCDCDCDCDCDCDCDCDCDCDCDCDCDCDCDCDCDCDCDCDCDCDCDCDCDCDCDCDCDCE2E2E2E2E2E2E2E2E2
310
E2E2E2E2E2E2E2E2E2E2E2E2E2E2E2DCE2E2E2E2DCE2E2E2E2E2E2E2E2E2E2E2E2E2E2DCE2E2E2E2E2E2DCE2E2E2E2E2DCE2E2E2E2E2E2E2E2E2E2E2E2E2E2F5E2F5F5E2E2E2F5F5F5E2E2E2F5E2E2E2E2E2E2E2E2E2E2F5E2E2E2E2E2E2E2E2E2E2E2E2E2E2E2E2E2E2E2E2E2E2E2E2E2E2E2E2E2E2E2E2E2E2E2E2E2E2E2
310
E2E2E2E2E2E2E2E2E2E2E2E2E2E2E2DCDCDCDCE2E2E2E2E2E2E2DCDCDCDCE2E2E2E2E2E2E2E2DCDCDCDCE2E2E2E2E2E2E2E2E2E2E2E2E2E2E2E2E2E2E2E2E2E2E2E2E2E2DCDCDCDCDCDCDCDCDCDCDCDCDCDCDCDCDCDCDCDCDCDCDCDCDCDCDCDCDCDCDCDCDCDCDCDCDCDCDCDCDCDCDCDCDCDCDCDCDCE2F5F5E2E2E2F5F5F5E2
310
E2E2F5E2E2E2E2E2E2E2E2E2E2F5E2E2E2E2E2E2E2E2E2E2E2E2E2E2E2E2E2E2E2E2E2E2E2E2E2E2E2E2E2E2E2E2E2E2E2E2E2E2E2E2E2E2E2E2E2E2E2E2E2E2E2E2E2E2DCDCDCDCE2E2E2E2E2E2E2DCDCDCDCE2E2E2E2E2E2E2E2DCDCDCDCE2E2E2E2E2E2E2E2E2E2E2E2E2E2E2E2E2E2E2E2E2E2E2E2E2E2DCE2E2E2E2DC
310
E2E2E2E2E2E2E2E2E2E2E2E2E2E2DCE2E2E2E2E2E2DCE2E2E2E2E2DCE2E2E2E2E2E2E2E2E2E2E2E2E2E2F5E2F5F5E2E2E2F5F5F5E2E2E2F5E2E2E2E2E2E2E2E2E2E2F5E2E2E2E2E2E2E2E2E2E2E2E2E2E2E2E2E2E2E2E2E2E2E2E2E2E2E2E2E2E2E2E2E2E2E2E2E2E2E2E2E2E2E2E2E2E2E2E2E2E2E2E2E2E2DCE2E2DCE2E2
310
E2E2E2E2E2E2E2E2E2E2E2E2E2E2E2E2E2DCE2E2DCE2E2E2E2E2E2E2E2E2E2E2E2E2E2E2E2E2E2E2E2E2E2E2E2E2E2DCE2E2E2E2DCE2E2E2E2E2E2E2E2E2E2E2E2E2E2DCE2E2E2E2E2E2DCE2E2E2E2E2DCE2E2E2E2E2E2E2E2E2E2E2E2E2E2F5E2F5E2E2E2E2F5F5F5E2E2E2F5E2E2E2E2E2E2E2E2E2E2F5E2E2E2E2E2E2E2
310
E2E2E2E2E2E2E2E2E2E2E2E2E2E2E2E2E2E2E2E2E2E2E2E2E2E2E2E2E2E2E2E2E2E2E2E2E2E2E2E2E2E2E2E2E2E2E2DCE2E2DCE2E2E2E2E2E2E2E2E2BEE2E2E2E2E2E2E2E2E2DCE2E2DCE2E2E2E2E2DCE2E2E2E2E2E2E2E2E2E2E2E2E2E2E2E2E2E2E2E2DCDCDCDCDCDCDCDCDCDCDCDCDCDCDCDCDCDCDCDCDCDCDCDCDCDCDC
310
DCDCDCDCDCDCDCDCDCDCDCDCDCDCDCDCDCDCDCDCDCDCE2F5E2E2E2E2F5F5F5E2E2E2F5E2E2E2E2E2E2E2E2E2E2F5E2E2E2E2E2E2E2E2E2E2E2E2E2E2E2E2E2E2E2E2E2E2E2E2E2E2E2E2E2E2E2E2E2E2E2E2E2E2E2E2E2E2E2E2E2E2E2E2E2E2E2E2E2E2DCE2E2DCE2E2E2E2E2E2E2E2E2BEE2E2E2E2E2E2E2E2E2DCE2E2DC
310
E2E2E2E2E2DCE2E2E2E2E2E2E2E2E2E2E2E2E2E2E2E2E2E2E2E2E2E2E2E2E2E2E2E2E2E2E2E2E2E2E2E2E2E2E2E2E2E2E2E2E2E2E2E2E2E2E2E2E2E2E2E2E2E2E2E2E2E2E2E2E2E2E2E2F5E2F5E2E2E2E2F5F5F5E2E2E2F5E2E2E2E2E2E2E2E2E2E2F5E2E2E2E2E2E2E2E2E2E2E2E2E2E2E2E2E2E2E2E2E2E2E2E2E2E2E2E2
310
E2E2E2E2E2E2E2E2E2E2E2E2E2E2E2E2E2E2E2E2E2E2E2E2E2E2DCF5F5BEF5F5F5F5F5F5F5F5F5BEF5F5F5F5F5F5F5F5F5BEF5F5DCDCDCDCDCDCDCE2E2E2E2E2E2E2E2E2E2E2E2E2E2E2E2E2E2E2E2E2E2E2E2E2E2E2E2E2E2E2E2E2E2E2E2E2E2E2E2E2E2E2E2E2E2E2E2E2E2E2E2E2E2E2E2E2E2E2E2E2E2E2E2E2E2E2E2
310
F5E2F5E2E2E2E2F5F5F5E2E2E2F5E2E2E2E2E2E2E2E2E2E2F5E2E2E2E2E2E2E2E2E2E2E2E2E2E2E2E2E2E2E2E2E2E2E2E2E2E2E2E2E2E2E2E2E2E2E2E2E2E2E2E2E2E2E2E2E2E2E2E2E2E2E2E2E2E2F5E2F5BEF5F5F5F5F5F5F5F5F5BEF5F5F5F5F5F5F5F5F5BEF5E2F5E2E2E2DCDCDCE2E2E2E2E2E2E2E2E2E2E2E2E2E2E2
310
E2E2E2E2E2E2E2E2E2E2E2E2E2E2E2E2E2E2E2E2E2E2E2E2E2E2E2E2E2E2E2E2E2E2E2E2E2E2E2E2E2E2E2E2E2E2E2E2E2E2E2E2E2F5E2F5E2E2E2E2F5F5F5E2E2E2F5E2E2E2E2E2E2E2E2E2E2F5E2E2E2E2E2E2E2E2E2E2E2E2E2E2E2E2E2E2E2E2E2E2E2E2E2E2E2E2E2E2E2E2E2E2E2E2E2E2E2E2E2E2E2E2E2E2E2E2E2
310
E2E2E2E2E2F5F5E2BEF5F5F5F5F5F5F5F5F5F5F5F5F5F5F5F5F5F5E2BEE2F5F5E2E2E2DCDCDCE2E2E2E2E2E2E2E2E2E2E2E2E2E2E2E2E2E2E2E2E2E2E2E2E2E2E2E2E2E2E2E2E2E2E2E2E2E2E2E2E2E2E2E2E2E2E2E2E2E2E2E2E2E2E2E2E2E2E2E2E2E2E2E2E2E2E2E2F5E2F5E2E2E2E2F5F5F5E2E2E2F5E2E2E2E2E2E2E2
310
E2E2E2F5E2E2E2E2E2E2E2E2E2E2E2E2E2E2E2E2E2E2E2E2E2E2E2E2E2E2E2E2E2E2E2E2E2E2E2E2E2E2E2E2E2E2E2E2E2E2E2E2E2E2E2E2E2BEBEBEBEBEBEBEBEE2E2E2E2E2F5F5E2E2E2E2E2BEBEBEBEBEBEBEBEDCDCDCDCDCDCE2E2E2E2E2E2E2E2E2E2E2E2E2E2E2E2E2E2E2E2E2E2E2E2E2E2E2E2E2E2E2E2E2E2E2E2
310
E2E2E2E2E2E2E2E2E2E2E2E2E2E2E2E2E2E2E2E2E2E2E2E2E2E2E2E2E2E2E2E2F5E2F5E2E2E2E2F5F5F5E2E2E2F5E2E2E2E2E2E2E2E2E2E2F5E2E2E2E2E2E2E2E2E2E2E2E2E2E2E2E2E2E2E2E2E2E2E2E2E2E2E2E2E2E2E2E2E2E2E2E2E2E2E2E2E2E2E2E2E2E2E2E2E2E2E2E2E2E2F5F5E2BEF5E2E2E2E2E2E2E2F5F5E2E2
310
E2E2E2E2E2F5E2BEE2F5F5E2E2E2E2E2DCE2E2E2E2E2E2E2E2E2E2E2E2E2E2E2E2E2E2E2E2E2E2E2E2E2E2E2E2E2E2E2E2E2E2E2E2E2E2E2E2E2E2E2E2E2E2E2E2E2E2E2E2E2E2E2E2E2E2E2E2E2E2E2E2E2E2E2E2F5E2F5E2E2E2E2F5F5F5E2E2E2F5E2E2E2E2E2E2E2E2E2E2F5E2E2E2E2E2E2E2E2E2E2E2E2E2E2E2E2E2
310
E2E2E2E2E2E2E2E2E2E2E2E2E2E2E2E2E2E2E2E2E2E2E2E2E2E2E2E2E2E2E2E2E2E2E2E2E2F5F5F5BEF5E2E2E2E2E2E2E2F5F5E2E2E2E2E2E2E2E2F5BEF5F5F5E2E2E2E2E2DCE2E2E2E2E2E2E2E2E2E2E2E2E2E2E2E2E2E2E2E2E2E2E2E2E2E2E2E2E2E2E2E2E2E2E2E2E2E2E2E2E2E2E2E2E2E2E2E2E2E2E2E2E2E2E2E2E2
310
E2E2E2E2E2E2E2E2E2E2E2F5E2F5F5E2E2E2F5F5F5E2E2E2F5E2E2E2E2E2E2E2E2E2E2F5E2E2E2E2E2E2E2E2E2E2E2E2E2E2E2E2E2E2E2E2E2E2E2E2E2E2E2E2E2E2E2E2E2E2E2E2E2E2E2E2E2E2E2E2E2E2E2E2E2E2E2E2E2E2F5F5F5BEE2E2E2E2E2E2E2E2F5F5E2E2E2E2E2E2E2E2E2BEF5F5F5E2E2E2E2E2DCE2E2E2E2
310
E2E2E2E2E2E2E2E2E2E2E2E2E2E2E2E2E2E2E2E2E2E2E2E2E2E2E2E2E2E2E2E2E2E2E2E2E2E2E2E2E2E2E2E2E2E2E2E2E2E2E2E2E2E2E2E2E2E2E2E2E2E2E2E2F5E2F5F5E2E2E2F5F5F5E2E2E2F5E2E2E2E2E2E2E2E2E2E2F5E2E2E2E2E2E2E2E2E2E2E2E2E2E2E2E2E2E2E2E2E2E2E2E2E2E2E2E2E2E2E2E2E2E2E2E2E2E2
310
E2E2E2E2E2E2E2E2E2E2E2E2E2E2E2E2F5F5F5BEE2E2E2F5F5E2E2E2F5F5E2E2E2F5F5F5E2E2E2BEF5F5F5E2E2E2E2E2DCE2E2E2E2E2E2E2E2E2E2E2E2E2E2E2E2E2E2E2E2E2E2E2E2E2E2E2E2E2E2E2E2E2E2E2E2E2E2E2E2E2E2E2E2E2E2E2E2E2E2E2E2E2E2E2E2E2E2E2E2E2E2E2E2E2E2E2E2F5E2F5F5E2E2E2F5F5F5
310
E2E2E2F5E2E2E2E2E2E2E2E2E2E2F5E2E2E2E2E2E2E2E2E2E2E2E2E2E2E2E2E2E2E2E2E2E2E2E2E2E2E2E2E2E2E2E2E2E2E2E2E2E2E2E2E2E2E2E2E2E2E2E2E2E2E2E2E2E2F5F5F5E2E2E2BEBEBEBEE2E2F5F5E2E2E2BEBEBEE2E2E2E2F5F5F5E2E2E2E2E2DCE2E2E2E2E2E2E2E2E2E2E2E2E2E2E2E2E2E2E2E2E2E2E2E2E2
310
E2E2E2E2E2E2E2E2E2E2E2E2E2E2E2E2E2E2E2E2E2E2E2E2E2E2E2E2E2E2E2E2E2E2E2E2E2E2E2E2E2E2E2F5E2F5F5E2E2E2F5F5F5E2E2E2F5E2E2E2E2E2E2E2E2E2E2F5E2E2E2E2E2E2E2E2E2E2E2E2E2E2E2E2E2E2E2E2E2E2E2E2E2E2E2E2E2E2E2E2E2E2E2E2E2E2E2E2E2E2E2E2E2E2E2E2E2E2E2E2E2E2F5F5F5E2E2
310
E2E2F5F5E2E2E2F5F5E2E2E2F5F5F5E2E2E2E2F5F5F5E2E2E2E2E2DCE2E2E2E2E2E2E2E2E2E2E2E2E2E2E2E2E2E2E2E2E2E2E2E2E2E2E2E2E2E2E2E2E2E2E2E2E2E2E2E2E2E2E2E2E2E2E2E2E2E2E2E2E2E2E2E2E2E2E2E2E2E2E2E2E2E2E2E2F5E2F5F5E2E2E2F5F5F5E2E2E2F5E2E2E2E2E2E2E2E2E2E2F5E2E2E2E2E2E2
310
E2E2E2E2E2E2E2E2E2E2E2E2E2E2E2E2E2E2E2E2E2E2E2E2E2E2E2E2E2E2E2E2E2E2E2E2E2E2E2E2E2E2E2E2E2E2E2E2F5F5F5E2E2E2E2E2E2E2E2E2F5F5E2E2E2E2E2E2E2E2E2E2F5F5F5E2E2E2E2E2DCE2E2E2E2E2E2E2E2E2E2E2E2E2E2E2E2E2E2E2E2E2E2E2E2E2E2E2E2E2E2E2E2E2E2E2E2E2E2E2E2E2E2E2E2E2E2
310
E2E2E2E2E2E2E2E2E2E2E2E2E2E2E2E2E2E2E2E2E2E2F5E2F5F5E2E2E2F5F5F5E2E2E2F5E2E2E2E2E2E2E2E2E2E2F5E2E2E2E2E2E2E2E2E2E2E2E2E2E2E2E2E2E2E2E2E2E2E2E2E2E2E2E2E2E2E2E2E2E2E2E2E2E2E2E2E2E2E2E2E2E2E2E2E2E2E2E2E2E2F5F5F5E2E2E2E2E2E2E2E2E2F5F5E2E2E2E2E2E2E2E2E2E2F5F5
310
F5E2E2E2E2E2DCE2E2E2E2E2E2E2E2E2E2E2E2E2E2E2E2E2E2E2E2E2E2E2E2E2E2E2E2E2E2E2E2E2E2E2E2E2E2E2E2E2E2E2E2E2E2E2E2E2E2E2E2E2E2E2E2E2E2E2E2E2E2E2E2E2E2E2E2F5E2F5F5E2E2E2F5F5F5E2E2E2F5E2E2E2E2E2E2E2E2E2E2F5E2E2E2E2E2E2E2E2E2E2E2E2E2E2E2E2E2E2E2E2E2E2E2E2E2E2E2
310
E2E2E2E2E2E2E2E2E2E2E2E2E2E2E2E2E2E2E2E2E2E2E2E2E2E2E2F5F5F5E2E2E2E2E2E2E2E2E2F5F5E2E2E2E2E2E2E2E2E2E2F5F5F5E2E2E2DCDCDCE2E2E2E2E2E2E2E2E2E2E2E2E2E2E2E2E2E2E2E2E2E2E2E2E2E2E2E2E2E2E2E2E2E2E2E2E2E2E2E2E2E2E2E2E2E2E2E2E2E2E2E2E2E2E2E2E2E2E2E2E2E2E2E2E2E2E2
310
E2F5E2F5F5E2E2E2F5F5F5E2E2E2F5E2E2E2E2E2E2E2E2E2E2F5E2E2E2E2E2E2E2E2E2E2E2E2E2E2E2E2E2E2E2E2E2E2E2E2E2E2E2E2E2E2E2E2E2E2E2E2E2E2E2E2E2E2E2E2E2E2E2E2E2E2E2E2BEBEF5F5F5F5F5F5F5F5F5F5F5F5F5F5F5F5F5F5F5F5F5F5F5F5F5F5F5BEBEE2DCDCDCE2E2E2E2E2E2E2E2E2E2E2E2E2E2
310
E2E2E2E2E2E2E2E2E2E2E2E2E2E2E2E2E2E2E2E2E2E2E2E2E2E2E2E2E2E2E2E2E2E2E2E2E2E2E2E2E2E2E2E2E2E2E2E2E2E2E2E2E2E2F5E2F5F5E2E2E2F5F5F5E2E2E2F5E2E2E2E2E2E2E2E2E2E2F5E2E2E2E2E2E2E2E2E2E2E2E2E2E2E2E2E2E2E2E2E2E2E2E2E2E2E2E2E2E2E2E2E2E2E2E2E2E2E2E2E2E2E2E2E2E2E2E2
310
E2E2E2E2E2E2F5F5F5F5F5F5F5F5F5F5F5F5F5BEF5F5F5F5F5F5F5F5F5F5F5F5F5E2E2E2DCDCDCE2E2E2E2E2E2E2E2E2E2E2E2E2E2E2E2E2E2E2E2E2E2E2E2E2E2E2E2E2E2E2E2E2E2E2E2E2E2E2E2E2E2E2E2E2E2E2E2E2E2E2E2E2E2E2E2E2E2E2E2E2E2E2E2E2E2E2E2F5E2F5F5E2E2E2F5F5F5E2E2E2F5E2E2E2E2E2E2
310
E2E2E2E2F5E2E2E2E2E2E2E2E2E2E2E2E2E2E2E2E2E2E2E2E2E2E2E2E2E2E2E2E2E2E2E2E2E2E2E2E2E2E2E2E2E2E2E2E2E2E2E2E2E2E2E2E2E2E2F5F5F5E2E2E2E2E2E2E2E2E2F5BEE2E2E2E2E2E2E2E2E2E2F5F5F5E2E2E2E2E2DCE2E2E2E2E2E2E2E2E2E2E2E2E2E2E2E2E2E2E2E2E2E2E2E2E2E2E2E2E2E2E2E2E2E2E2
310
E2E2E2E2E2E2E2E2E2E2E2E2E2E2E2E2E2E2E2E2E2E2E2E2E2E2E2E2E2E2E2E2E2F5E2F5F5E2E2E2F5F5F5E2E2E2F5E2E2E2E2E2E2E2E2E2E2F5E2E2E2E2E2E2E2E2E2E2E2E2E2E2E2E2E2E2E2E2E2E2E2E2E2E2E2E2E2E2E2E2E2E2E2E2E2E2E2E2E2E2E2E2E2E2E2E2E2E2E2E2E2E2F5F5F5E2E2E2E2E2E2E2E2E2F5BEE2
310
E2E2E2E2E2E2E2E2E2F5F5F5E2E2E2E2E2DCE2E2E2E2E2E2E2E2E2E2E2E2E2E2E2E2E2E2E2E2E2E2E2E2E2E2E2E2E2E2E2E2E2E2E2E2E2E2E2E2E2E2E2E2E2E2E2E2E2E2E2E2E2E2E2E2E2E2E2E2E2E2E2E2E2E2E2E2F5E2F5F5E2E2E2F5F5F5E2E2E2F5E2E2E2E2E2E2E2E2E2E2F5E2E2E2E2E2E2E2E2E2E2E2E2E2E2E2E2
310
E2E2E2E2E2E2E2E2E2E2E2E2E2E2E2E2E2E2E2E2E2E2E2E2E2E2E2E2E2E2E2E2E2E2E2E2E2E2F5F5F5E2E2E2E2E2F5E2E2E2F5BEE2E2E2E2BEE2E2E2E2E2F5F5F5E2E2E2E2E2DCE2E2E2E2E2E2E2E2E2E2E2E2E2E2E2E2E2E2E2E2E2E2E2E2E2E2E2E2E2E2E2E2E2E2E2E2E2E2E2E2E2E2E2E2E2E2E2E2E2E2E2E2E2E2E2E2
310
E2E2E2E2E2E2E2E2E2E2E2E2F5E2F5F5E2E2E2F5F5F5E2E2E2F5E2E2E2E2E2E2E2E2E2E2F5E2E2E2E2E2E2E2E2E2E2E2E2E2E2E2E2E2E2E2E2E2E2E2E2E2E2E2E2E2E2E2E2E2E2E2E2E2E2E2E2E2E2E2E2E2E2E2E2E2E2E2E2E2E2F5F5F5E2E2E2BEF5F5BEE2E2F5BEE2E2E2F5BEF5E2E2E2E2F5F5F5E2E2E2E2E2DCE2E2E2
310
E2E2E2E2E2E2E2E2E2E2E2E2E2E2E2E2E2E2E2E2E2E2E2E2E2E2E2E2E2E2E2E2E2E2E2E2E2E2E2E2E2E2E2E2E2E2E2E2E2E2E2E2E2E2E2E2E2E2E2E2E2E2E2E2E2F5E2F5F5E2E2E2F5F5F5E2E2E2F5E2E2E2E2E2E2E2E2E2E2F5E2E2E2E2E2E2E2E2E2E2E2E2E2E2E2E2E2E2E2E2E2E2E2E2E2E2E2E2E2E2E2E2E2E2E2E2E2
310
E2E2E2E2E2E2E2E2E2E2E2E2E2E2E2E2E2F5F5F5E2E2E2E2F5F5E2E2E2F5BEE2E2E2F5BEF5E2E2E2E2F5F5F5E2E2E2E2E2DCE2E2E2E2E2E2E2E2E2E2E2E2E2E2E2E2E2E2E2E2E2E2E2E2E2E2E2E2E2E2E2E2E2E2E2E2E2E2E2E2E2E2E2E2E2E2E2E2E2E2E2E2E2E2E2E2E2E2E2E2E2E2E2E2E2E2E2E2F5E2F5F5E2E2E2F5F5
310
F5E2E2E2F5E2E2E2E2E2E2E2E2E2E2F5E2E2E2E2E2E2E2E2E2E2E2E2E2E2E2E2E2E2E2E2E2E2E2E2E2E2E2E2E2E2E2E2E2E2E2E2E2E2E2E2E2E2E2E2E2E2E2E2E2E2E2E2E2E2F5F5F5BEE2E2E2E2BEE2E2E2F5BEE2E2E2E2BEE2E2E2E2BEF5F5F5E2E2E2E2E2DCE2E2E2E2E2E2E2E2E2E2E2E2E2E2E2E2E2E2E2E2E2E2E2E2
310
E2E2E2E2E2E2E2E2E2E2E2E2E2E2E2E2E2E2E2E2E2E2E2E2E2E2E2E2E2E2E2E2E2E2E2E2E2E2E2E2E2E2E2E2F5E2F5F5E2E2E2F5F5F5E2E2E2F5E2E2E2E2E2E2E2E2E2E2F5E2E2E2E2E2E2E2E2E2E2E2E2E2E2E2E2E2E2E2E2E2E2E2E2E2E2E2E2E2E2E2E2E2E2E2E2E2E2E2E2E2E2E2E2E2E2E2E2E2E2E2E2E2E2F5F5F5BE
310
E2E2E2E2E2E2E2E2F5BEE2E2E2E2E2E2E2E2E2BEF5F5F5E2E2E2E2E2DCE2E2E2E2E2E2E2E2E2E2E2E2E2E2E2E2E2E2E2E2E2E2E2E2E2E2E2E2E2E2E2E2E2E2E2E2E2E2E2E2E2E2E2E2E2E2E2E2E2E2E2E2E2E2E2E2E2E2E2E2E2E2E2E2E2E2E2E2F5E2F5E2E2E2E2F5F5F5E2E2E2F5E2E2E2E2E2E2E2E2E2E2F5E2E2E2E2E2
310
E2E2E2E2E2E2E2E2E2E2E2E2E2E2E2E2E2E2E2E2E2E2E2E2E2E2E2E2E2E2E2E2E2E2E2E2E2E2E2E2E2E2E2E2E2E2E2E2E2F5F5F5BEF5E2E2E2E2E2E2E2F5BEE2E2E2E2E2E2E2F5F5BEF5F5F5E2E2E2E2E2DCE2E2E2E2E2E2E2E2E2E2E2E2E2E2E2E2E2E2E2E2E2E2E2E2E2E2E2E2E2E2E2E2E2E2E2E2E2E2E2E2E2E2E2E2E2
310
E2E2E2E2E2E2E2E2E2E2E2E2E2E2E2E2E2E2E2E2E2E2E2F5E2F5E2E2E2E2F5F5F5E2E2E2F5E2E2E2E2E2E2E2E2E2E2F5E2E2E2E2E2E2E2E2E2E2E2E2E2E2E2E2E2E2E2E2E2E2E2E2E2E2E2E2E2E2E2E2E2E2E2E2E2E2E2E2E2E2E2E2E2E2E2E2E2E2E2E2E2BEBEBEBEBEBEBEBEE2E2E2E2E2F5BEE2E2E2E2E2BEBEBEBEBEBE
310
BEBEDCDCDCDCDCDCE2E2E2E2E2E2E2E2E2E2E2E2E2E2E2E2E2E2E2E2E2E2E2E2E2E2E2E2E2E2E2E2E2E2E2E2E2E2E2E2E2E2E2E2E2E2E2E2E2E2E2E2E2E2E2E2E2E2E2E2E2E2E2E2E2E2E2E2F5E2F5E2E2E2E2F5F5F5E2E2E2F5E2E2E2E2E2E2E2E2E2E2F5E2E2E2E2E2E2E2E2E2E2E2E2E2E2E2E2E2E2E2E2E2E2E2E2E2E2
310
E2E2E2E2E2E2E2E2E2E2E2E2E2E2E2E2E2E2E2E2E2E2E2E2E2E2E2E2F5F5E2BEF5F5F5F5F5F5F5F5F5F5F5F5F5F5F5F5F5F5E2BEE2F5F5E2E2E2DCDCDCE2E2E2E2E2E2E2E2E2E2E2E2E2E2E2E2E2E2E2E2E2E2E2E2E2E2E2E2E2E2E2E2E2E2E2E2E2E2E2E2E2E2E2E2E2E2E2E2E2E2E2E2E2E2E2E2E2E2E2E2E2E2E2E2E2E2
310
E2E2F5E2F5E2E2E2E2F5F5F5E2E2E2F5E2E2E2E2E2E2E2E2E2E2F5E2E2E2E2E2E2E2E2E2E2E2E2E2E2E2E2E2E2E2E2E2E2E2E2E2E2E2E2E2E2E2E2E2E2E2E2E2E2E2E2E2E2E2E2E2E2E2E2E2E2E2E2E2E2F5E2F5BEF5F5F5F5F5F5F5F5F5BEF5F5F5F5F5F5F5F5F5BEF5E2F5E2E2E2DCDCDCE2E2E2E2E2E2E2E2E2E2E2E2E2
310
E2E2E2E2E2E2E2E2E2E2E2E2E2E2E2E2E2E2E2E2E2E2E2E2E2E2E2E2E2E2E2E2E2E2E2E2E2E2E2E2E2E2E2E2E2E2E2E2E2E2E2E2E2E2E2F5E2F5E2E2E2E2F5F5F5E2E2E2F5E2E2E2E2E2E2E2E2E2E2F5E2E2E2E2E2E2E2E2E2E2E2E2E2E2E2E2E2E2E2E2E2E2E2E2E2E2E2E2E2E2E2E2E2E2E2E2E2E2E2E2E2E2E2E2E2E2E2
310
E2E2E2E2E2E2E2F5F5F5BEF5F5F5F5F5F5F5F5F5BEF5F5F5F5F5F5F5F5F5BEF5F5DCDCDCDCDCDCDCE2E2E2E2E2E2E2E2E2E2E2E2E2E2E2E2E2E2E2E2E2E2E2E2E2E2E2E2E2E2E2E2E2E2E2E2E2E2E2E2E2E2E2E2E2E2E2E2E2E2E2E2E2E2E2E2E2E2E2E2E2E2E2E2E2E2E2E2F5E2F5E2E2E2E2F5F5F5E2E2E2F5E2E2E2E2E2
310
E2E2E2E2E2F5E2E2E2E2E2E2E2E2E2E2E2E2E2E2E2E2E2E2E2E2E2E2E2E2E2E2E2E2E2E2E2E2E2E2E2E2E2E2E2E2E2E2E2E2E2E2E2E2E2E2E2E2E2E2E2E2E2BEE2E2E2E2E2E2E2E2E2BEE2E2E2E2E2E2E2E2E2BEE2E2E2E2E2E2E2E2DCE2E2E2E2E2E2E2E2E2E2E2E2E2E2E2E2E2E2E2E2E2E2E2E2E2E2E2E2E2E2E2E2E2E2
310
E2E2E2E2E2E2E2E2E2E2E2E2E2E2E2E2E2E2E2E2E2E2E2E2E2E2E2E2E2E2E2E2E2E2F5E2F5E2E2E2E2F5F5F5E2E2E2F5E2E2E2E2E2E2E2E2E2E2F5E2E2E2E2E2E2E2E2E2E2E2E2E2E2E2E2E2E2E2E2E2E2E2E2E2E2E2E2E2E2E2E2E2E2E2E2E2E2E2E2E2E2E2E2E2E2E2E2E2E2E2E2E2E2E2E2E2E2E2E2E2E2E2E2E2E2E2BE
310
E2E2E2E2E2E2E2E2E2E2E2E2E2E2E2E2E2E2DCE2E2E2E2E2E2E2E2E2E2E2E2E2E2E2E2E2E2E2E2E2E2E2E2E2E2E2E2E2E2E2E2E2E2E2E2E2E2E2E2E2E2E2E2E2E2E2E2E2E2E2E2E2E2E2E2E2E2E2E2E2E2E2E2E2E2E2E2F5E2F5E2E2E2E2F5F5F5E2E2E2F5E2E2E2E2E2E2E2E2E2E2F5E2E2E2E2E2E2E2E2E2E2E2E2E2E2E2
310
E2E2E2E2E2E2E2E2E2E2E2E2E2E2E2E2E2E2E2E2E2E2E2E2E2E2E2E2E2E2E2E2E2E2E2E2E2E2E2E2E2E2E2E2E2E2E2E2E2E2E2E2E2E2E2E2E2E2E2E2E2E2E2E2E2E2E2E2E2E2E2E2E2E2E2E2E2E2E2E2E2E2E2E2E2E2E2E2E2E2E2E2E2E2E2E2E2E2E2E2E2E2E2E2E2E2E2E2E2E2E2E2E2E2E2E2E2E2E2E2E2E2E2E2E2E2E2
310
E2E2E2E2E2E2E2E2E2E2E2E2E2F5E2F5F5E2E2E2F5F5F5E2E2E2F5E2E2E2E2E2E2E2E2E2E2F5E2E2E2E2E2E2E2E2E2E2E2E2E2E2E2E2E2E2E2E2E2E2E2E2E2E2E2E2E2E2E2E2E2E2E2E2E2E2E2E2E2E2E2E2E2E2E2E2E2E2E2E2E2E2E2E2E2E2E2E2E2E2E2E2E2E2E2E2E2E2E2E2E2E2E2E2E2E2E2E2E2E2E2E2E2E2E2E2E2
310
E2E2E2E2E2E2E2E2E2E2E2E2E2E2E2E2E2E2E2E2E2E2E2E2E2E2E2E2E2E2E2E2E2E2E2E2E2E2E2E2E2E2E2E2E2E2E2E2E2E2E2E2E2E2E2E2E2E2E2E2E2E2E2E2E2E2F5E2F5F5E2E2E2F5F5F5E2E2E2F5E2E2E2E2E2E2E2E2E2E2F5E2E2E2E2E2E2E2E2E2E2E2E2E2E2E2E2E2E2E2E2E2E2E2E2E2E2E2E2E2E2E2E2E2E2E2E2
310
E2E2E2E2E2E2E2E2E2E2E2E2E2E2E2E2E2E2E2E2E2E2E2E2E2E2E2E2E2E2E2E2E2E2E2E2E2E2E2E2E2E2E2E2E2E2E2E2E2E2E2E2E2E2E2E2E2E2E2E2E2E2E2E2E2E2E2E2E2E2E2E2E2E2E2E2E2E2E2E2E2E2E2E2E2E2E2E2E2E2E2E2E2E2E2E2E2E2E2E2E2E2E2E2E2E2E2E2E2E2E2E2E2E2E2E2E2E2E2F5E2F5F5E2E2E2F5
310
F5F5E2E2E2F5E2E2E2E2E2E2E2E2E2E2F5E2E2E2E2E2E2E2DCDCDCDCDCDCDCDCDCDCDCDCDCDCDCDCDCDCDCDCDCDCDCDCDCDCDCDCDCDCDCDCDCDCDCDCDCDCDCDCDCDCDCDCE2E2E2E2E2E2E2E2E2E2E2E2E2E2E2E2E2E2E2E2E2E2E2E2E2E2E2E2E2E2E2E2E2E2E2E2E2E2E2E2E2E2E2E2E2E2E2E2E2E2E2E2E2E2E2E2E2E2E2
310
E2E2E2E2E2E2E2E2E2E2E2E2E2E2E2E2E2E2E2E2E2E2E2E2E2E2E2E2E2E2E2E2E2E2E2E2E2E2E2E2E2E2E2E2E2F5E2F5F5E2E2E2F5F5F5E2E2E2F5E2E2E2E2E2E2E2E2E2E2F5E2E2E2E2E2E2E2E2E2DCDCDCDCDCDCDCDCDCDCDCDCDCDCDCDCDCDCDCDCDCDCDCDCDCDCDCDCDCDCDCDCDCDCDCDCDCDCDCDCDCE2E2E2E2E2E2E2
310
E2E2E2E2E2E2E2E2E2E2E2E2DCDCDCDCDCDCDCDCDCDCDCDCDCDCDCE2E2E2E2E2E2E2E2E2E2E2E2E2E2E2E2E2E2E2E2E2E2E2E2E2E2E2E2E2E2E2E2E2E2E2E2E2E2E2E2E2E2E2E2E2E2E2E2E2E2E2E2E2E2E2E2E2E2E2E2E2E2E2E2E2E2E2E2E2E2E2F5E2F5F5E2E2E2F5F5F5E2E2E2F5E2E2E2E2E2E2E2E2E2E2F5E2E2E2E2
310
E2E2E2E2E2DCE2DCDCDCDCDCDCDCDCDCDCDCDCDCDCDCDCDCDCDCDCDCDCE2E2DCDCE2E2DCDCDCDCDCDCDCDCDCDCE2E2E2E2E2E2E2E2E2E2E2E2E2E2E2E2E2E2E2E2DCDCE2E2E2DCDCDCDCE2E2E2E2DCDCE2E2E2E2E2E2E2E2E2E2E2E2E2E2E2E2E2E2E2E2E2E2E2E2E2E2E2E2E2E2E2E2E2E2E2E2E2E2E2E2E2E2E2E2E2E2E2
310
E2E2E2E2E2E2E2E2E2E2E2E2E2E2E2E2E2E2E2E2E2E2E2E2F5E2F5F5E2E2E2F5F5F5E2E2E2F5E2E2E2E2E2E2E2E2E2E2F5E2E2E2E2E2E2E2E2E2E2E2E2E2E2E2E2E2E2E2E2E2E2E2E2E2E2E2E2E2E2E2E2E2E2E2E2E2E2E2E2E2E2E2E2E2E2E2E2E2E2E2E2E2E2E2E2E2E2E2E2E2E2E2E2E2E2E2E2E2DCE2E2E2E2DCDCDCDC
310
E2E2E2E2E2DCE2E2E2E2E2E2E2E2E2E2E2E2E2E2E2E2E2E2E2E2E2E2E2E2E2E2E2E2E2E2E2E2E2E2E2E2E2E2E2E2E2E2E2E2E2E2E2E2E2E2E2E2E2E2E2E2E2E2E2E2E2E2E2E2E2E2E2E2E2E2E2F5E2F5F5E2E2E2F5F5F5E2E2E2F5E2E2E2E2E2E2E2E2E2E2F5E2E2E2E2E2E2E2E2E2E2E2E2E2E2E2E2DCDCE2E2E2E2E2E2E2
310
E2E2E2E2E2E2E2E2E2E2E2E2E2E2E2DCDCE2E2E2E2E2E2E2E2E2E2E2E2E2E2E2E2E2E2E2E2E2E2E2E2E2E2DCDCDCDCE2E2E2E2E2E2E2E2E2DCDCDCDCE2E2E2E2E2E2E2E2E2E2E2E2E2E2E2E2E2E2E2E2E2E2DCDCE2E2E2E2E2E2E2E2E2E2E2E2E2E2E2E2E2E2E2E2E2E2E2E2DCDCE2E2E2E2E2E2E2E2E2E2E2E2E2E2E2E2E2
310
E2E2E2F5E2F5F5E2E2E2F5F5F5E2E2E2F5E2E2E2E2E2E2E2E2E2E2F5E2E2E2E2E2E2E2E2E2E2E2E2E2E2E2E2DCDCDCDCDCDCDCDCDCDCDCDCDCDCDCDCDCDCDCDCDCDCDCDCDCDCE2E2E2E2E2E2E2E2E2E2E2E2E2E2E2E2E2E2E2E2E2E2E2E2E2DCDCDCDCDCDCDCDCDCDCDCDCDCDCDCDCDCDCDCE2E2E2E2E2E2E2E2E2E2E2E2E2
310
E2E2E2E2E2E2E2E2DCDCDCDCDCDCDCDCDCDCDCDCDCDCDCDCDCDCDCDCDCDCDCDCDCDCDCDCE2E2E2E2E2E2E2E2E2E2E2E2E2E2E2E2E2E2E2E2F5E2F5F5E2E2E2F5F5F5E2E2E2F5E2E2E2E2E2E2E2E2E2E2F5E2E2E2E2E2E2E2E2E2E2E2E2E2E2E2E2DCE2E2E2E2E2E2E2E2E2E2DCDCDCDCE2E2E2E2E2E2E2E2E2E2DCE2E2E2E2
310
E2E2DCDCDCDCDCDCDCDCDCDCE2E2E2E2E2E2E2E2E2E2DCDCDCE2E2E2DCDCDCDCE2E2E2DCDCDCE2E2E2E2E2E2E2E2E2E2E2E2E2E2E2E2E2E2E2E2E2E2E2DCE2E2E2E2E2E2E2E2E2E2E2DCDCDCE2E2E2E2E2E2E2E2E2E2E2E2DCE2E2E2E2DCDCDCDCDCDCE2E2E2E2E2E2E2E2E2E2F5E2F5F5E2E2E2F5F5F5E2E2E2F5E2E2E2E2
310
E2E2E2E2E2E2F5E2E2E2E2E2E2E2E2E2E2E2E2E2E2E2E2DCE2E2E2E2E2E2E2E2E2E2E2E2E2E2E2E2E2E2E2E2E2E2E2E2DCE2E2E2E2E2E2DCDCDCDCDCDCDCDCDCDCE2E2E2E2E2E2E2E2E2E2E2DCDCE2E2E2E2E2E2E2E2E2E2E2DCDCE2E2E2E2E2E2E2E2E2E2E2E2E2E2E2E2E2E2E2E2E2E2E2DCE2E2E2E2E2E2E2E2E2E2E2E2
310
E2E2E2E2E2E2E2E2E2E2E2E2E2E2DCE2E2E2E2DCDCDCDCDCDCE2E2E2E2E2E2E2E2E2E2F5E2F5F5E2E2E2F5F5F5E2E2E2F5E2E2E2E2E2E2E2E2E2E2F5E2E2E2E2E2E2E2E2E2E2E2E2E2E2E2E2DCE2E2E2E2E2E2DCDCDCDCDCDCDCDCDCDCDCDCE2E2E2E2E2E2DCE2E2E2E2E2DCDCDCDCDCDCDCDCDCDCDCDCE2E2E2E2E2E2E2E2
310
E2DCDCDCDCDCDCDCDCDCDCDCDCDCDCDCDCE2E2E2E2E2E2E2E2E2E2DCDCDCDCDCDCDCDCDCE2E2E2E2DCDCDCDCDCDCDCDCDCDCDCDCDCDCDCDCDCDCDCDCDCDCDCDCDCDCDCDCE2E2E2E2DCDCDCDCDCDCDCDCDCDCDCDCDCDCE2E2F5E2F5F5E2E2E2F5F5F5E2E2E2F5E2E2E2E2E2E2E2E2E2E2F5E2E2E2E2E2E2E2E2E2E2E2E2E2E2
310
E2E2DCE2E2E2E2E2E2DCE2E2E2E2DCDCE2E2E2E2DCE2E2E2E2E2E2DCE2E2E2E2DCE2DCDCDCDCDCDCE2E2E2E2E2E2E2E2E2E2E2E2E2E2E2DCDCDCDCE2E2E2DCDCDCE2E2E2DCDCE2E2E2E2E2E2E2E2E2E2DCDCDCDCDCDCDCDCE2DCE2E2E2DCE2DCDCE2E2DCE2E2E2E2E2DCDCDCE2E2E2E2E2DCE2E2DCDCE2E2DCE2E2E2DCE2DC
310
DCDCDCDCDCDCDCDCDCDCDCE2E2E2F5E2F5F5E2E2E2F5F5F5E2E2E2F5E2E2E2E2E2E2E2E2E2E2F5E2E2E2E2E2E2E2E2E2E2E2E2E2E2E2E2DCE2E2E2E2E2E2DCE2E2E2E2E2E2E2E2E2E2DCE2E2E2E2E2E2DCE2E2E2DCE2E2DCE2E2DCDCDCE2E2E2E2E2E2E2E2E2E2E2E2E2E2E2DCDCDCDCE2C3E2DCDCDCE2E2E2DCDCE2E2E2E2
310
E2E2E2E2E2E2DCE2E2DCDCDCDCDCE2E2DCE2E2DCE2DCDCE2E2DCE2E2E2E2E2DCDCDCE2E2E2E2E2DCE2E2DCDCE2E2DCE2E2DCE2E2DCE2DCDCDCDCDCDCDCDCDCDCE2E2E2F5E2F5F5E2E2E2F5F5F5E2E2E2F5E2E2E2E2E2E2E2E2E2E2F5E2E2E2E2E2E2E2E2E2E2E2E2E2E2E2E2DCE2E2E2E2E2E2DCE2E2E2E2E2E2E2E2E2E2DC
310
E2E2E2E2E2E2DCE2E2DCE2E2E2E2E2E2E2E2E2E2E2E2E2E2E2E2E2E2E2E2E2E2E2E2DCDCE2DCE2DCDCDCDCDCE2E2E2DCDCE2E2E2E2E2E2E2E2E2E2E2E2E2E2E2E2E2E2E2E2E2DCE2DCE2E2E2E2E2DCE2E2E2E2E2E2BEE2E2E2E2E2E2DCE2E2E2E2E2E2DCE2DCE2E2E2E2E2E2E2E2E2E2E2E2E2E2E2E2E2E2F5E2F5F5E2E2E2
310
F5F5F5E2E2E2F5E2E2E2E2E2E2E2E2E2E2F5E2E2E2E2E2E2E2E2E2E2E2E2E2E2E2E2DCE2E2E2E2E2E2DCE2E2E2E2E2BEE2E2E2E2DCE2E2E2E2E2E2DCE2DCE2E2E2E2E2E2E2E2E2E2E2E2E2E2E2E2E2E2E2E2E2E2E2E2E2DCDCE2DCE2C3E2E2E2E2E2E2E2DCDCE2E2E2E2E2E2E2E2E2E2E2E2E2E2E2E2E2E2E2E2E2E2DCDCE2
310
E2E2E2E2DCE2E2E2E2E2E2BEE2E2E2E2E2E2DCE2E2E2E2E2E2DCDCE2E2E2E2E2E2E2E2E2E2E2E2E2E2E2E2E2E2E2F5E2F5F5E2E2E2F5F5F5E2E2E2F5E2E2E2E2E2E2E2E2E2E2F5E2E2E2E2E2E2E2E2E2E2E2E2E2E2E2E2DCE2BEE2E2E2E2DCE2E2E2E2E2BEE2E2E2E2DCE2E2E2E2BEE2DCDCE2E2E2E2E2E2E2E2E2E2E2E2E2
310
E2E2E2E2E2E2E2E2E2E2E2E2E2DCDCE2DCE2C3E2E2E2E2E2E2E2DCDCE2E2E2E2E2E2E2E2E2E2E2E2E2E2E2E2E2E2DCDCDCDCDCDCF5F5BEF5F5DCF5F5F5F5F5F5BEF5F5F5F5F5F5DCF5F5BEF5F5F5DCDCDCDCDCDCDCDCDCE2E2E2E2E2E2E2E2E2E2E2E2F5E2F5E2E2E2E2F5F5F5E2E2E2F5E2E2E2E2E2E2E2E2E2E2F5E2E2E2
310
E2E2E2E2E2E2E2E2E2E2E2E2E2DCF5BE2D2DF5F5DCF5F5F5F5F5BEF5F5F5F5DCF5F52DF5BEF5DCDCDCDCDCDCDCDCDCDCE2E2E2E2E2E2E2E2E2E2E2E2E2E2E2E2E2E2DCDCF5DCF5C3F5F5F5F5F5F5F52DF5E2E2E2E2E2E2E2E2E2E2E2E2E2E2E2E2E2E2DCDCE2E2E2F5DCF5F5F5E2DCE2E2E2E2E2E2BEE2E2E2E2E2E2DCE2F5
310
F5F5E2DCF5E2E2E2DCDCE2E2DCE2E2E2E2E2E2E2E2E2E2E2E2F5E2F5E2E2E2E2F5F5F5E2E2E2F5E2E2E2E2E2E2E2E2E2E2F5E2E2E2E2E2E2E2E2E2E2E2E2E2E2E2E2F52DBE2D2D2D2DDC2D2D2D2D2D2D2D2D2D2DDC2D2D2D2DBEDCF5E2E2E2E2E2E2E2E2DCE2E2E2E2E2E2E2E2E2E2E2E2E2E2E2E2E2E2F52D2DDCE2C3E2E2
310
E2E2E2E2E2F52DE2E2E2E2E2E2E2E2E2E2E2E2E2E2E2E2E2E2DCDCE2E2E2F5DCF5BEF5F5DCE2E2E2E2E2E2BEE2E2E2E2E2E2DCE2F5BEF5DCE2F5E2E2DCDCDCE2E2DCE2E2E2E2E2E2E2E2E2E2E2E2F5E2F5E2E2E2E2F5F5F5E2E2E2F5E2E2E2E2E2E2E2E2E2E2F5E2E2E2E2E2E2E2E2E2E2E2E2E2E2E2BEBEBEBEBEBEBEBEDC
310
E2E2E2E22D2DE2E2E2E2DCBEBEBEBEDCBEBEBEE2E2E2E2E2E2E2DCE2E2E2E2E2E2E2E2E2E2E2E2E2E2E2E2E2BEBEBEBEDCBEC3BEBEBEBEBEBEBEBEBEE2E2E2E2E2E2E2E2E2E2E2E2E2E2E2E2E2E2DCDCDCDCDCBEF5BEBEBEF5DCE2E2E2E2E2E2BEE2E2E2E2E2E2DCF5BEBEDCF5BEBEE2E2DCDCDCE2E2DCE2E2E2E2E2E2E2E2
310
E2E2E2E2F5E2F5E2E2E2E2F5F5F5E2E2E2F5E2E2E2E2E2E2E2E2E2E2F5E2E2E2E2E2E2E2E2E2E2E2E2E2E2E2E2F52DBEE22DE2E2DCE2E2E2E22D2DE2E2E2E2DCE2E22DDCBE2D2DE2E2E2E2E2E2E2E2DCE2E2E2E2E2E2E2E2E2E2E2E2E2E2E2E2E2E2F5F5E2DCE2C3E2E2E2E2E2E2E2F5F5E2E2E2E2E2E2E2E2E2E2E2E2E2E2
310
E2E2E2E2E2DCE2E2E2F5F5E2BEE2F5DCE2E2E2E2E2E2BEE2E2E2E2E2E2DCE2F5DCE2F5E2F5E2E2DCDCDCE2E2DCE2E2E2E2E2E2E2E2E2E2E2E2F5E2F5E2E2E2E2F5F5F5E2E2E2F5E2E2E2E2E2E2E2E2E2E2F5E2E2E2E2E2E2E2E2E2E2E2E2E2E2E2E2F52DBE2DE2E2E2DCE2E2E2E22D2DE2E2E2E2DCE2E2DC2DBE2D2DE2E2E2
310
E2E2E2E2E2DCE2E2E2E2E2E2E2E2E2E2E2E2E2E2E2E2E2E2F52D2DDCF5C3F5F5F5F5F5F5F52D2DE2E2E2E2E2E2E2E2E2E2E2E2E2E2E2E2E2E2E2DCE2E2E2F5E2F5F5F5F5F5E2E2E2E2E2E2BEE2E2E2E2E2E2F5DCDCF5F5E2E2F5E2E2E2DCDCE2E2DCE2E2E2E2E2E2E2E2E2E2E2E2F5E2F5E2E2E2E2F5F5F5E2E2E2F5E2E2E2
310
E2E2E2E2E2E2E2F5E2E2E2E2E2E2E2E2E2E2E2E2E2E2E2E2F52DBEE2E2E2E2DCE2E2E2E22D2DE2E2E2E2DCE2DCE2E2BE2DF5E2E2E2E2E2E2E2E2DCE2E2E2E2E2E2E2E2E2E2E2E2E2E2E2E2E2E2F5F5E2F5E2C3E2E2E2E2E2E2BEBEBEE2E2E2E2E2E2E2E2E2E2E2E2E2E2E2E2E2E2E2DCE2E2E2F5E2E2BEBEBEBEBEBEE2E2E2
310
E2BEE2E2E2E2BEBEBEBEDCDCDCDCDCDCDCDCDCDCDCE2E2DCE2E2E2E2E2E2E2E2E2E2E2E2F5E2F5E2E2E2E2F5F5F5E2E2E2F5E2E2E2E2E2E2E2E2E2E2F5E2E2E2E2E2E2E2E2E2E2E2E2E2E2E2E2F52DBEE2E2E2E2DCE2E2E2E22D2DE2E2E2E2DCDCE2E2E2BE2DF5E2E2E2E2E2E2E2E2DCE2E2E2E2E2E2E2E2E2E2E2E2E2E2E2
310
E2E2E2F5F5E2F5E2C3E2E2E2E2E2E2E2F5F5E2E2E2E2E2E2E2E2E2E2E2E2E2E2E2E2E2E2E2DCE2E2E2F5E2E2BEE2F5F5F5E2E2E2E2E2BEE2E2E2E2E2F5F5F5E2BEE2E2E2F5E2E2E2DCDCE2E2DCE2E2E2E2E2E2E2E2E2E2E2E2F5E2F5E2E2E2E2F5F5F5E2E2E2F5E2E2E2E2E2E2E2E2E2E2F5E2E2E2E2E2E2E2E2E2E2E2E2E2
310
E2E2E2F52DE2E2E2E2BEF5F5BEE2E22D2DE2E2BEF5DCDCDCDCDCDCDCDCDCDCDCDCDCDCE2E2DCE2E2E2E2E2E2E2E2E2E2E2E2E2E2E2E2E2BEBEBEE2F5E2C3E2E2E2E2E2E2E2F5F5E2E2E2E2E2E2E2E2E2E2E2E2E2E2E2E2E2E2E2DCE2E2E2F5E2E2E2E2E2BEE2E2E2E2E2E2BEE2E2E2E2E2E2BEE2E2E2E2E2E2F5E2E2E2E2DC
310
E2E2DCE2E2E2E2E2E2E2E2E2E2E2E2F5E2F5F5E2E2E2F5F5F5E2E2E2F5E2E2E2E2E2E2E2E2E2E2F5E2E2E2E2E2E2E2E2E2E2E2E2E2E2E2E2F52DE2E2E2E2E2F5F5E2E2E22D2DE2E2E2F5F5E2E2E2E2E22DF5E2E2E2E2DCDCE2E2DCE2E2E2E2E2E2E2E2E2E2E2E2E2E2E2E2E2E2F5F5E2F5E2C3E2E2E2E2E2E2E2F5F5E2E2E2
310
E2E2E2E2E2E2E2E2E2E2E2E2E2E2E2E2DCE2E2E2F5E2E2E2E2E2E2E2E2E2E2E2E2BEE2E2E2E2E2E2E2E2E2E2E2E2E2F5E2E2E2E2DCE2E2DCE2E2E2E2E2E2E2E2E2E2E2E2F5E2F5F5E2E2E2F5F5F5E2E2E2F5E2E2E2E2E2E2E2E2E2E2F5E2E2E2E2E2E2E2E2E2E2E2E2E2E2E2E2F52DE2E2E2E2E2E2E2E2E2E22D2DE2E2E2E2
310
E2E2E2E2E2E22DF5E2E2E2E2DCE2E2E2DCE2E2E2E2E2E2E2E2E2E2E2E2E2E2E2E2E2E2F5F5E2F5E2C3E2E2E2E2E2E2E2F5F5E2E2E2E2E2E2E2E2E2E2E2E2E2E2E2E2E2E2E2DCE2E2E2F5E2E2E2E2E2E2E2E2E2E2E2E2BEE2E2E2E2E2E2E2E2E2E2E2E2E2F5E2E2E2E2DCE2E2DCE2E2E2E2E2E2E2E2E2E2E2E2F5E2F5F5E2E2
310
E2F5F5F5E2E2E2F5E2E2E2E2E2E2E2E2E2E2F5E2E2E2E2E2E2E2E2E2E2E2E2E2E2E2E2F52DE2E2E2E2E2E2E2E2E2E22D2DE2E2E2E2E2E2E2E2E2E22DF5E2E2E2E2DCE2E2E2DCE2E2E2E2E2E2E2E2E2E2E2E2E2E2E2E2E2E2F5F5E2F5E2C3E2E2E2E2E2E2E2F5F5E2E2E2E2E2E2E2E2E2E2E2E2E2E2E2E2E2E2E2DCE2E2E2F5
310
E2E2E2E2E2E2E2E2E2E2E2E2BEE2E2E2E2E2E2E2E2E2E2E2E2E2F5E2E2E2E2DCE2E2DCE2E2E2E2E2E2E2E2E2E2E2E2F5E2F5F5E2E2E2F5F5F5E2E2E2F5E2E2E2E2E2E2E2E2E2E2F5E2E2E2E2E2E2E2E2E2E2E2E2E2E2E2E2F52DE2E2E2E2E2E2E2E2E2E22D2DE2E2E2E2E2E2E2E2E2E22DF5E2E2E2E2DCE2DCDCDCE2E2E2E2
310
E2E2E2E2E2E2E2E2E2E2E2E2E2E2F5F5E2F5E2C3E2E2E2E2E2E2E2F5F5E2E2E2E2E2E2E2E2E2E2E2E2E2E2E2E2E2E2DCDCE2E2E2F5E2E2E2E2E2E2E2E2E2E2E2E2BEE2E2E2E2E2E2E2E2E2E2E2E2E2F5E2E2DCDCDCDCDCDCE2E2E2E2E2E2E2E2E2E2E2E2F5E2F5F5E2E2E2F5F5F5E2E2E2F5E2E2E2E2E2E2E2E2E2E2F5E2E2
310
E2E2E2E2E2E2E2E2E2E2E2E2BEBEF52DBEBEBEBEBEBEBEBEBEBE2D2DBEBEBEBEBEBEBEBEBEBE2DF5BEBEBEDCDCE2DCDCDCE2E2E2E2E2E2E2E2E2E2E2E2E2E2E2E2E2BEBE2D2D2DBEC3BEBEBEBEBEBEBEBEBEBEE2E2E2E2E2E2E2E2E2E2E2E2E2E2E2E2E2DCDCE2BEBEBEBEBEBEBEBEBEBEBEBEBEBEBEBEBEBEBEBEBEBEBEBE
310
BEBEBEBEBEBEBEE2DCDCDCDCDCDCE2E2E2E2E2E2E2E2E2E2E2E2F5E2F5F5E2E2E2F5F5F5E2E2E2F5E2E2E2E2E2E2E2E2E2E2F5E2E2E2E2E2E2E2E2E2E2E2E2E2E2E2E2F52D2D2D2D2D2D2D2D2D2D2D2DBE2D2D2D2D2D2D2D2D2D2D2DF5E2E2E2DCDCE2DCDCDCE2E2E2E2E2E2E2E2E2E2E2E2E2E2E2E2E2E2F52D2D2DE2C3E2
310
E2E2E2E2E2E2F5F5E2E2E2E2E2E2E2E2E2E2E2E2E2E2E2E2E2E2DCDCE2E2E2F5E2E2E2E2E2E2E2E2E2E2E2E2BEE2E2E2E2E2E2E2E2E2E2E2E2E2F5E2E2DCDCDCDCDCDCE2E2E2E2E2E2E2E2E2E2E2E2F5E2F5F5E2E2E2F5F5F5E2E2E2F5E2E2E2E2E2E2E2E2E2E2F5E2E2E2E2E2E2E2E2E2E2E2E2E2E2E2E2F52DE2E2E2E2E2
310
E2E2E2E2E22DBEE2E2E2E2E2E2E2E2E2E22DF5E2E2E2E2DCE2E2E2DCE2E2E2E2E2E2E2E2E2E2E2E2E2E2E2E2E2E2F5F5E2F5E2C3E2E2E2E2E2E2E2F5F5E2E2E2E2E2E2E2E2E2E2E2E2E2E2E2E2E2E2DCDCE2E2E2F5E2E2E2E2E2E2E2E2E2E2E2E2BEE2E2E2E2E2E2E2E2E2E2E2E2E2F5E2E2E2E2DCE2E2DCE2E2E2E2E2E2E2
310
E2E2E2E2E2F5E2F5F5E2E2E2F5F5F5E2E2E2F5E2E2E2E2E2E2E2E2E2E2F5E2E2E2E2E2E2E2E2E2E2E2E2E2E2E2E2F52DE2E2E2E2E2E2E2E2E2E22DBEE2E2E2E2E2E2E2E2E2E22DF5E2E2E2E2DCE2E2E2DCE2E2E2E2E2E2E2E2E2E2E2E2E2E2E2E2E2E2F5F5E2F5E2C3E2E2E2E2E2E2E2F5F5E2E2E2E2E2E2E2E2E2E2E2E2E2
310
E2E2E2E2E2E2DCE2E2E2F5E2E2E2E2E2E2E2E2E2E2E2E2BEE2E2E2E2E2E2E2E2E2E2E2E2E2F5E2E2E2E2DCE2E2DCE2E2E2E2E2E2E2E2E2E2E2E2F5E2F5F5E2E2E2F5F5F5E2E2E2F5E2E2E2E2E2E2E2E2E2E2F5E2E2E2E2E2E2E2E2E2E2E2E2E2E2E2E2F52DE2E2E2E2E2BEE2E2E2E22DBEE2E2E2E2BEE2E2E2E2E22DF5E2E2
310
E2E2DCDCE2E2DCE2E2E2E2E2E2E2E2E2E2E2E2E2E2E2E2E2E2F5F5E2F5E2C3E2E2E2E2E2E2E2F5F5E2E2E2E2E2E2E2E2E2E2E2E2E2E2E2E2E2E2E2DCE2E2E2F5E2E2E2E2E2E2E2E2E2E2E2E2BEE2E2E2E2E2E2E2E2E2E2E2E2E2F5E2E2E2E2DCE2E2DCE2E2E2E2E2E2E2E2E2E2E2E2F5E2F5F5E2E2E2F5F5F5E2E2E2F5E2E2
310
E2E2E2E2E2E2E2E2F5E2E2E2E2E2E2E2E2E2E2E2E2E2E2E2E2F52DE2E2E2E2BEF5F5BEE2E22DBEE2E2BEF5F5DCDCDCDCDCDCDCDCDCDCDCDCDCE2E2DCE2E2E2E2E2E2E2E2E2E2E2E2E2E2E2E2E2BEBEBEE2F5E2C3E2E2E2E2E2E2E2F5F5E2E2E2E2E2E2E2E2E2E2E2E2E2E2E2E2E2E2E2DCE2E2E2F5E2E2E2E2E2E2E2E2E2E2
310
E2E2BEE2E2E2E2E2E2E2E2E2E2E2E2E2F5E2E2E2E2DCE2E2DCE2E2E2E2E2E2E2E2E2E2E2E2F5E2F5F5E2E2E2F5F5F5E2E2E2F5E2E2E2E2E2E2E2E2E2E2F5E2E2E2E2E2E2E2E2E2E2E2E2E2E2E2E2F52DE2E2E2E2E2F5F5E2E2E22DBEE2E2E2F5F5E2E2E2E2E22DF5E2E2E2E2E2E2E2E2DCE2E2E2E2E2E2E2E2E2E2E2E2E2E2
310
E2E2E2E2F5F5E2F5E2C3E2E2E2E2E2E2E2F5F5E2E2E2E2E2E2E2E2E2E2E2E2E2E2E2E2E2E2E2DCE2E2E2F5E2E2E2E2E2BEE2E2E2E2E2E2BEE2E2E2E2E2E2BEE2E2E2E2E2E2F5E2E2E2DCDCE2E2DCE2E2E2E2E2E2E2E2E2E2E2E2F5E2F5F5E2E2E2F5F5F5E2E2E2F5E2E2E2E2E2E2E2E2E2E2F5E2E2E2E2E2E2E2E2E2E2E2E2
310
E2E2E2E2F52DBEE2E2E2E2BEE2E2E2E22DBEE2E2E2E2BEE2E2E2E2BE2DF5E2E2E2E2E2E2E2E2DCE2E2E2E2E2E2E2E2E2E2E2E2E2E2E2E2E2E2F5F5E2F5E2C3E2E2E2E2E2E2BEBEBEE2E2E2E2E2E2E2E2E2E2E2E2E2E2E2E2E2E2E2DCE2E2E2F5E2E2BEBEBEBEBEBEE2E2E2E2BEE2E2E2E2BEBEBEBEDCDCDCDCDCDCDCDCDCDC
310
DCE2E2DCE2E2E2E2E2E2E2E2E2E2E2E2F5E2F5F5E2E2E2F5F5F5E2E2E2F5E2E2E2E2E2E2E2E2E2E2F5E2E2E2E2E2E2E2E2E2E2E2E2E2E2E2E2F52DBEE2E2E2E2E2E2E2E2E22DBEE2E2E2E2E2E2E2E2E2BE2DF5E2E2E2E2E2E2E2E2DCE2E2E2E2E2E2E2E2E2E2E2E2E2E2E2E2E2E2F5F52D2DF5C3F5F5F5F5DCF5F52DF5E2E2
310
E2E2E2E2E2E2E2E2E2E2E2E2E2E2E2E2E2DCE2E2E2F5E2E2F5E2F5F5F5E2E2E2E2E2BEE2E2E2E2E2F5F5F5E2F5E2E2E2F5E2E2E2DCDCE2E2DCE2E2E2E2E2E2E2E2E2E2E2E2F5E2F5F5E2E2E2F5F5F5E2E2E2F5E2E2E2E2E2E2E2E2E2E2F5E2E2E2E2E2E2E2E2E2E2E2E2E2E2E2E2F52DBE2D2DE2E2E2E2E2E2E22DBEE2E2E2
310
E2E2E2E22D2DBE2D2DE2E2E2E2E2E2E2E2DCE2E2E2E2E2E2E2E2E2E2E2E2E2E2E2E2E2E2F5F5F5F5E2C3E2E2DCDCDCE2E2F52DE2E2E2E2E2E2E2E2E2E2E2E2E2E2E2E2E2E2E2DCE2E2E2F5F5F5BEF5F5BEE2E2E2E2E2E2BEE2E2E2E2E2E2BEE2F5BEF5F5E2F5E2E2E2E2DCE2E2DCE2E2E2E2E2E2E2E2E2E2E2E2F5E2F5F5E2
310
E2E2F5F5F5E2E2E2F5E2E2E2E2E2E2E2E2E2E2F5E2E2E2E2E2E2E2E2E2E2E2E2E2E2E2BEBEBEBEBEBEBEBEE2E2E2E2E22DBEE2E2E2E2E2BEBEBEBEBEBEBEBEE2E2E2E2E2E2E2DCE2E2E2E2E2E2E2E2E2E2E2E2E2E2E2E2E2BEBEBEBEBEBEC3BEBEDCDCDCBEBEBEBEE2E2E2E2E2E2E2E2E2E2E2E2E2E2E2E2E2E2E2DCDCDCDC
310
BEF5BEBEBEF5BEE2E2E2E2E2E2BEE2E2E2E2E2E2BEF5BEBEBEF5BEBEE2E2DCDCDCE2E2DCE2E2E2E2E2E2E2E2E2E2E2E2F5E2F5E2E2E2E2F5F5F5E2E2E2F5E2E2E2E2E2E2E2E2E2E2F5E2E2E2E2E2E2E2E2E2E2E2E2E2E2E2E2F52DBEE22D2D2D2D2D2D2D2D2D2D2D2D2D2D2D2D2D2DE2BEE22DE2E2E2E2E2E2E2E2DCE2E2E2
310
E2E2E2E2E2E2E2E2E2E2E2E2E2E2E2F52D2D2DE2C3E2E2DCDCDCE2E2F5F5E2E2E2E2E2E2E2E2E2E2E2E2E2E2E2E2E2E2DCDCE2E2E2F5F5E2BEE2F5E2E2E2E2E2E2E2BEE2E2E2E2E2E2E2E2F5BEE2F5E2F5E2E2DCDCDCE2E2DCE2E2E2E2E2E2E2E2E2E2E2E2F5E2F5E2E2E2E2F5F5F5E2E2E2F5E2E2E2E2E2E2E2E2E2E2F5E2
310
E2E2E2E2E2E2E2E2E2E2E2E2E2E2E2F52DBE2D2D2D2D2D2D2D2D2D2DBE2D2D2D2D2D2D2D2D2DBE2DF5E2E2E2E2E2E2E2E2DCE2E2E2E2E2E2E2E2E2E2E2E2E2E2E2E2E2E2F5F5F52DF5C3F5F5DCDCDCF5F52D2DE2E2E2E2E2E2E2E2E2E2E2E2E2E2E2E2E2E2DCDCE2E2E2F5E2F5F5F5E2E2E2E2E2E2E2E2BEE2E2E2E2E2E2E2
310
E2F5F5F5E2E2F5E2E2E2E2DCE2E2DCE2E2E2E2E2E2E2E2E2E2E2E2F5E2F5E2E2E2E2F5F5F5E2E2E2F5E2E2E2E2E2E2E2E2E2E2F5E2E2E2E2E2E2E2E2E2E2E2E2E2E2E2E2F5F5BEF5F5F5F5F5F5F5F5F5F5BEF5F5F5F5F5F5F5F5F5BEF5DCDCDCDCDCDCDCDCDCDCE2E2E2E2E2E2E2E2E2E2E2E2E2E2E2E2E2E2F5F5E2E2E2C3
310
E2E2E2E2E2E2E2F5F5E2E2E2E2E2E2E2E2E2E2E2E2E2E2E2E2E2E2DCDCE2E2E2F5E2E2BEE2E2E2E2E2E2E2E2E2BEE2E2E2E2E2E2E2E2E2BEE2E2E2F5E2E2E2DCDCE2E2DCE2E2E2E2E2E2E2E2E2E2E2E2F5E2F5E2E2E2E2F5F5F5E2E2E2F5E2E2E2E2E2E2E2E2E2E2F5E2E2E2E2E2E2E2E2E2E2E2E2E2E2E2E2E2E2BEE2E2E2
310
E2E2E2E2E2E2E2BEE2E2E2E2E2E2E2E2E2BEE2E2E2E2E2E2E2E2E2E2E2E2E2E2E2E2E2E2E2E2E2E2E2E2E2E2E2E2E2E2E2E2E2E2C3E2E2E2E2E2E2E2F5F5E2E2E2E2E2E2E2E2E2E2E2E2E2E2E2E2E2E2DCDCDCDCDCDCF5F5DCF5F5F5F5F5F5F5F5F5BEF5F5F5F5F5F5F5F5F5DCF5F5F5DCDCDCDCDCDCDCDCDCE2E2E2E2E2E2
310
E2E2E2E2E2E2F5E2F5E2E2E2E2F5F5F5E2E2E2F5E2E2E2E2E2E2E2E2E2E2F5E2E2E2E2E2E2E2E2E2E2E2E2E2E2E2E2E2E2E2E2E2E2E2E2E2E2E2E2E2BEE2E2E2E2E2E2E2E2E2E2E2E2E2E2E2E2E2E2E2E2E2E2E2E2E2E2E2E2E2E2E2E2E2E2E2E2E2E2E2E2E2E2E2E2C3DCE2DCDCE2E2E2E2E2E2E2E2E2E2E2E2E2E2E2E2E2
310
E2E2E2E2E2E2E2E2E2E2E2DCE2E2DCE2E2E2E2E2E2E2E2E2BEE2E2E2E2E2E2E2E2E2DCE2E2E2DCE2E2E2E2E2E2E2E2E2E2E2E2E2E2E2E2E2E2E2E2F5E2F5E2E2E2E2F5F5F5E2E2E2F5E2E2E2E2E2E2E2E2E2E2F5E2E2E2E2E2E2E2E2E2E2E2E2E2E2E2E2E2E2E2E2E2E2E2E2E2E2E2E2E2E2E2E2E2E2E2E2E2E2E2E2E2E2E2
310
E2E2E2E2E2E2E2E2E2E2E2E2E2E2E2E2E2E2E2E2E2E2E2E2E2E2E2E2E2E2E2DCDCDCDCDCE2E2E2E2E2E2E2E2E2E2E2E2E2E2E2E2E2E2E2E2E2E2E2E2E2E2E2E2DCE2E2DCE2E2E2E2E2E2E2E2E2E2E2E2E2E2E2E2E2E2E2DCE2E2E2DCE2E2E2E2E2E2E2E2E2E2E2E2E2E2E2E2E2E2E2E2F5E2F5E2E2E2E2F5F5F5E2E2E2F5E2
310
E2E2E2E2E2E2E2E2E2F5E2E2E2E2E2E2E2E2E2E2E2E2E2E2E2E2E2E2E2E2E2E2E2E2E2E2E2E2E2E2E2E2E2E2E2E2E2E2E2E2E2E2E2E2E2E2E2E2E2E2E2E2E2E2E2E2E2E2E2E2E2E2E2E2E2E2E2E2E2E2E2E2E2E2C3E2E2E2E2E2E2E2E2E2E2E2E2E2E2E2E2E2E2E2E2E2E2E2E2E2E2E2E2E2E2E2E2DCDCDCDCDCDCDCDCDCDC
310
DCDCDCDCDCDCDCDCDCDCDCDCDCDCDCDCDCDCE2E2E2E2E2E2E2E2E2E2E2E2E2E2E2E2E2E2E2E2F5E2F5E2E2E2E2F5F5F5E2E2E2F5E2E2E2E2E2E2E2E2E2E2F5E2E2E2E2E2E2E2E2E2E2E2E2E2E2E2E2E2E2E2E2E2E2E2E2E2E2E2E2E2E2E2E2E2E2E2E2E2E2E2E2E2E2E2E2E2E2E2E2E2E2E2E2E2E2E2E2E2E2E2E2E2E2E2E2
310
E2E2E2E2E2E2E2E2E2E2E2E2E2E2E2E2E2E2E2E2E2E2E2E2E2E2E2E2E2E2E2E2E2E2E2E2E2E2E2E2E2E2E2DCDCDCDCE2E2E2E2E2E2E2E2DCDCDCE2E2E2E2E2E2E2E2DCDCDCDCE2E2E2E2E2E2E2E2E2E2E2E2E2E2E2E2E2E2E2E2E2F5E2F5E2E2E2E2F5F5F5E2E2E2F5E2E2E2E2E2E2E2E2E2E2F5E2E2E2E2E2E2E2E2E2E2E2
310
E2E2E2E2E2E2E2E2E2E2E2E2E2E2E2E2E2E2E2E2E2E2E2E2E2E2E2E2E2E2E2E2E2E2E2E2E2E2E2E2E2E2E2E2E2E2E2E2E2E2E2E2E2E2E2E2E2E2E2E2E2E2E2E2E2E2E2E2E2E2E2E2E2E2E2E2E2E2E2E2E2E2E2E2E2E2E2E2E2E2E2E2E2E2E2E2DCDCDCDCE2E2E2E2E2E2E2E2DCDCDCE2E2E2E2E2E2E2E2E2DCDCDCE2E2E2E2
310
E2E2E2E2E2E2E2E2E2E2E2E2E2E2E2E2E2F5E2F5F5E2E2E2F5F5F5E2E2E2F5E2E2E2E2E2E2E2E2E2E2F5E2E2E2E2E2E2E2E2E2E2E2E2E2E2E2E2E2E2E2E2E2E2E2E2E2E2E2E2E2E2E2E2E2E2E2E2E2E2E2E2E2E2E2E2E2E2E2E2E2E2E2E2E2E2E2E2E2E2E2E2E2E2E2E2E2E2E2E2E2E2E2E2E2E2E2E2E2E2E2E2E2E2E2E2E2
310
E2E2E2E2E2E2E2E2E2E2E2E2E2E2E2E2E2E2E2E2E2E2E2E2E2E2E2E2E2E2E2E2E2E2E2E2E2E2E2E2E2E2E2E2E2E2E2E2E2E2E2E2E2E2E2E2E2E2E2E2E2E2E2E2E2E2E2E2E2E2F5E2F5F5E2E2E2F5F5F5E2E2E2F5E2E2E2E2E2E2E2E2E2E2F5E2E2E2E2E2E2E2E2E2E2E2E2E2E2E2E2E2E2E2E2E2E2E2E2E2E2E2E2E2E2E2E2
310
E2E2E2E2E2E2E2E2E2E2E2E2E2E2E2E2E2E2E2E2E2E2E2E2E2E2E2E2E2E2E2E2E2E2E2E2E2E2E2E2E2E2E2E2E2E2E2E2E2E2E2E2E2E2E2E2E2E2E2E2E2E2E2E2E2E2E2E2E2E2E2E2E2E2E2E2E2E2E2E2E2E2E2E2E2E2E2E2E2E2E2E2E2E2E2E2E2E2E2E2E2E2E2E2E2E2E2E2E2E2E2E2E2E2E2E2E2E2E2E2E2E2E2F5E2F5F5
310
E2E2E2F5F5F5E2E2E2F5E2E2E2E2E2E2E2E2E2E2F5E2E2E2E2E2E2E2E2E2E2E2E2E2E2E2E2E2E2E2E2E2E2E2E2E2E2E2E2E2E2E2E2E2E2E2E2E2E2E2E2E2E2E2E2E2E2E2E2E2E2E2E2E2E2E2E2E2E2E2E2E2E2E2E2E2E2E2E2E2E2E2E2E2E2E2E2E2E2E2E2E2E2E2E2E2E2E2E2E2E2E2E2E2E2E2E2E2E2E2E2E2E2E2E2E2E2
310
E2E2E2E2E2E2E2E2E2E2E2E2E2E2E2E2E2E2E2E2E2E2E2E2E2E2E2E2E2E2E2E2E2E2E2E2E2E2E2E2E2E2E2E2E2E2E2E2E2F5E2F5F5E2E2E2F5F5F5E2E2E2F5E2E2E2E2E2E2E2E2E2E2F5E2E2E2E2E2E2E2E2E2E2E2E2E2E2E2E2E2E2E2E2E2E2E2E2E2E2E2E2E2E2E2E2E2E2E2E2E2E2E2E2E2E2E2E2E2E2E2E2E2E2E2E2E2
310
E2E2E2E2E2E2E2E2E2E2E2E2E2E2E2E2E2E2E2E2E2E2E2E2E2E2E2E2E2E2E2E2E2E2E2E2E2E2E2E2E2E2E2E2E2E2E2E2E2E2E2E2E2E2E2E2E2E2E2E2E2E2E2E2E2E2E2E2E2E2E2E2E2E2E2E2E2E2E2E2E2E2E2E2E2E2E2E2E2E2E2E2E2E2E2E2E2E2E2E2E2E2F5E2F5F5E2E2E2F5F5F5E2E2E2F5E2E2E2E2E2E2E2E2E2E2F5
310
F5F5F5F5F5F5F5F5F5F5F5F5F5F5F5F5F5F5F5F5F5F5F5F5F5F5F5F5F5F5F5F5F5F5F5F5F5F5F5F5F5F5F5F5F5F5F5F5F5F5F5F5F5F5F5F5F5F5F5F5F5F5F5F5F5F5F5F5F5F5F5F5F5F5F5F5F5F5F5F5F5F5F5F5F5F5F5F5F5F5F5F5F5F5F5F5F5F5F5F5F5F5F5F5F5F5F5F5F5F5F5F5F5F5F5F5F5F5F5F5F5F5F5F5F5F5F5
310
F5F5F5F5F5F5F5F5F5F5F5F5F5F5F5F5F5F5F5F5F5F5F5F5F5F5F5F5F5E2F5F5E2E2E2F5F5F5E2E2E2F5E2E2E2E2E2E2E2E2E2E2E2E2E2E2E2E2E2E2E2E2E2E2E2E2E2E2E2E2E2E2E2E2E2E2E2E2E2E2E2E2E2E2E2E2E2E2E2E2E2E2E2E2E2E2E2E2E2E2E2E2E2E2E2E2E2E2E2E2E2E2E2E2E2E2E2E2E2E2E2E2E2E2E2E2E2
310
E2E2E2E2E2E2E2E2E2E2E2E2E2E2E2E2E2E2E2E2E2E2E2E2E2E2E2E2E2E2E2E2E2E2E2E2E2E2E2E2E2E2E2E2E2E2E2E2E2E2E2E2E2E2E2E2E2E2E2E2E2E2E2E2E2E2E2E2E2E2E2E2E2E2E2E2E2E2E2E2E2E2E2F5F5E2E2E2F5F5F5E2E2E2F5F5F5F5F5F5F5F5F5F5F5F5F5F5F5F5F5F5F5F5F5F5F5F5F5F5F5F5F5F5F5F5F5
310
F5F5F5F5F5F5F5F5F5F5F5F5F5F5F5F5F5F5F5F5F5F5F5F5F5F5F5F5F5F5F5F5F5F5F5F5F5F5F5F5F5F5F5F5F5F5F5F5F5F5F5F5F5F5F5F5F5F5F5F5F5F5F5F5F5F5F5F5F5F5F5F5F5F5F5F5F5F5F5F5F5F5F5F5F5F5F5F5F5F5F5F5F5F5F5F5F5F5F5F5F5F5F5F5F5F5F5F5F5F5F5F5F5F5F5F5F5F5F5F5F5F5F5F5F5F5F5
310
F5F5F5F5F5F5F5F5F5F5F5E2E2E2F5F5F5E2E2E2E2E2E2E2E2E2E2E2E2E2E2E2E2E2E2E2E2E2E2E2E2E2E2E2E2E2E2E2E2E2E2E2E2E2E2E2E2E2E2E2E2E2E2E2E2E2E2E2E2E2E2E2E2E2E2E2E2E2E2E2E2E2E2E2E2E2E2E2E2E2E2E2E2E2E2E2E2E2E2E2E2E2E2E2E2E2E2E2E2E2E2E2E2E2E2E2E2E2E2E2E2E2E2E2E2E2E2
310
E2E2E2E2E2E2E2E2E2E2E2E2E2E2E2E2E2E2E2E2E2E2E2E2E2E2E2E2E2E2E2E2E2E2E2E2E2E2E2E2E2E2E2E2E2E2E2E2E2E2E2E2E2E2E2E2E2E2E2E2E2E2E2E2E2E2E2F5F5F5E2E2E2E2E2E2E2E2E2E2E2E2E2E2E2E2E2E2E2E2E2E2E2E2E2E2E2E2E2E2E2E2E2E2E2E2E2E2E2E2E2E2E2E2E2E2E2E2E2E2E2E2E2E2E2E2E2
310
E2E2E2E2E2E2E2E2E2E2E2E2E2E2E2E2E2E2E2E2E2E2E2E2E2E2E2E2E2E2E2E2E2E2E2E2E2E2E2E2E2E2E2E2E2E2E2E2E2E2E2E2E2E2E2E2E2E2E2E2E2E2E2E2E2E2E2E2E2E2E2E2E2E2E2E2E2E2E2E2E2E2E2E2E2E2E2E2E2E2E2E2E2E2E2E2E2E2E2E2E2E2E2E2E2E2E2E2E2E2E2E2E2E2E2E2E2E2E2E2F5EFF5F5F5F5F5
310
F5F5F5F5F5F5F5F5F5F5F5F5F5F5F5F5F5F5F5F5F5F5F5F5F5F5F5F5F5F5F5F5F5F5F5F5F5F5F5F5F5F5F5F5F5F5F5F5F5F5F5F5F5F5F5F5F5F5F5F5F5F5F5F5F5F5F5F5F5F5F5F5F5F5F5F5F5F5F5F5F5F5F5F5F5F5F5F5F5F5F5F5F5F5F5F5F5F5F5F5F5F5F5F5F5F5F5F5F5F5F5F5F5F5F5F5F5F5F5F5F5F5F5F5F5F5F5
310
F5F5F5F5F5F5F5F5F5F5F5F5F5F5F5F5F5F5F5F5F5F5F5F5F5F5F5F5F5F5F5F5F5F5F5F5F5F5F5F5F5F5F5F5F5F5F5EF
  0
XRECORD
  5
4CFA
102
{ACAD_REACTORS
330
4C07
102
}
330
4C07
100
AcDbXrecord
280
     1
102
MATERIAL
148
0.0
149
0.0
149
0.0
 93
        0
 94
      127
282
     0
 72
     0
 77
     0
171
     0
175
     0
179
     0
273
     0
  0
XRECORD
  5
4C09
102
{ACAD_REACTORS
330
4C07
102
}
330
4C07
100
AcDbXrecord
280
     1
270
     1
271
     1
  0
XRECORD
  5
4C08
102
{ACAD_REACTORS
330
4C07
102
}
330
4C07
100
AcDbXrecord
280
     1
270
     1
271
     1
  0
XRECORD
  5
4C0C
102
{ACAD_REACTORS
330
4C07
102
}
330
4C07
100
AcDbXrecord
280
     1
270
     1
271
     1
  0
XRECORD
  5
4C0B
102
{ACAD_REACTORS
330
4C07
102
}
330
4C07
100
AcDbXrecord
280
     1
270
     1
271
     1
  0
XRECORD
  5
4C0D
102
{ACAD_REACTORS
330
4C07
102
}
330
4C07
100
AcDbXrecord
280
     1
270
     1
271
     1
  0
XRECORD
  5
4C0A
102
{ACAD_REACTORS
330
4C07
102
}
330
4C07
100
AcDbXrecord
280
     1
270
     1
271
     1
  0
XRECORD
  5
4CF9
102
{ACAD_REACTORS
330
4BFF
102
}
330
4BFF
100
AcDbXrecord
280
     1
102
MATERIAL
148
0.0
149
0.0
149
0.0
 93
        0
 94
      127
282
     0
 72
     0
 77
     0
171
     0
175
     0
179
     0
273
     0
  0
XRECORD
  5
4C01
102
{ACAD_REACTORS
330
4BFF
102
}
330
4BFF
100
AcDbXrecord
280
     1
270
     1
271
     1
  0
XRECORD
  5
4C00
102
{ACAD_REACTORS
330
4BFF
102
}
330
4BFF
100
AcDbXrecord
280
     1
270
     1
271
     1
  0
XRECORD
  5
4C04
102
{ACAD_REACTORS
330
4BFF
102
}
330
4BFF
100
AcDbXrecord
280
     1
270
     1
271
     1
  0
XRECORD
  5
4C03
102
{ACAD_REACTORS
330
4BFF
102
}
330
4BFF
100
AcDbXrecord
280
     1
270
     1
271
     1
  0
XRECORD
  5
4C05
102
{ACAD_REACTORS
330
4BFF
102
}
330
4BFF
100
AcDbXrecord
280
     1
270
     1
271
     1
  0
XRECORD
  5
4C02
102
{ACAD_REACTORS
330
4BFF
102
}
330
4BFF
100
AcDbXrecord
280
     1
270
     1
271
     1
  0
XRECORD
  5
4CFB
102
{ACAD_REACTORS
330
4C0F
102
}
330
4C0F
100
AcDbXrecord
280
     1
102
MATERIAL
148
0.0
149
0.0
149
0.0
 93
        0
 94
      127
282
     0
 72
     0
 77
     0
171
     0
175
     0
179
     0
273
     0
  0
XRECORD
  5
4C11
102
{ACAD_REACTORS
330
4C0F
102
}
330
4C0F
100
AcDbXrecord
280
     1
270
     1
271
     1
  0
XRECORD
  5
4C10
102
{ACAD_REACTORS
330
4C0F
102
}
330
4C0F
100
AcDbXrecord
280
     1
270
     1
271
     1
  0
XRECORD
  5
4C14
102
{ACAD_REACTORS
330
4C0F
102
}
330
4C0F
100
AcDbXrecord
280
     1
270
     1
271
     1
  0
XRECORD
  5
4C13
102
{ACAD_REACTORS
330
4C0F
102
}
330
4C0F
100
AcDbXrecord
280
     1
270
     1
271
     1
  0
XRECORD
  5
4C15
102
{ACAD_REACTORS
330
4C0F
102
}
330
4C0F
100
AcDbXrecord
280
     1
270
     1
271
     1
  0
XRECORD
  5
4C12
102
{ACAD_REACTORS
330
4C0F
102
}
330
4C0F
100
AcDbXrecord
280
     1
270
     1
271
     1
  0
CELLSTYLEMAP
  5
4CEF
102
{ACAD_REACTORS
330
4C7D
102
}
330
4C7D
100
AcDbCellStyleMap
 90
        3
300
CELLSTYLE
  1
TABLEFORMAT_BEGIN
 90
        5
170
     1
 91
        0
 92
    32768
 62
   257
 93
        1
300
CONTENTFORMAT
  1
CONTENTFORMAT_BEGIN
 90
        0
 91
        0
 92
        4
 93
        0
300

 40
0.0
140
1.0
 94
        5
 62
     0
340
10
144
0.25
309
CONTENTFORMAT_END
171
     1
301
MARGIN
  1
CELLMARGIN_BEGIN
 40
0.06
 40
0.06
 40
0.06
 40
0.06
 40
0.18
 40
0.18
309
CELLMARGIN_END
 94
        6
 95
        1
302
GRIDFORMAT
  1
GRIDFORMAT_BEGIN
 90
        0
 91
        1
 62
     0
 92
       -2
340
0
 93
        0
 40
0.045
309
GRIDFORMAT_END
 95
        2
302
GRIDFORMAT
  1
GRIDFORMAT_BEGIN
 90
        0
 91
        1
 62
     0
 92
       -2
340
0
 93
        0
 40
0.045
309
GRIDFORMAT_END
 95
        4
302
GRIDFORMAT
  1
GRIDFORMAT_BEGIN
 90
        0
 91
        1
 62
     0
 92
       -2
340
0
 93
        0
 40
0.045
309
GRIDFORMAT_END
 95
        8
302
GRIDFORMAT
  1
GRIDFORMAT_BEGIN
 90
        0
 91
        1
 62
     0
 92
       -2
340
0
 93
        0
 40
0.045
309
GRIDFORMAT_END
 95
       16
302
GRIDFORMAT
  1
GRIDFORMAT_BEGIN
 90
        0
 91
        1
 62
     0
 92
       -2
340
0
 93
        0
 40
0.045
309
GRIDFORMAT_END
 95
       32
302
GRIDFORMAT
  1
GRIDFORMAT_BEGIN
 90
        0
 91
        1
 62
     0
 92
       -2
340
0
 93
        0
 40
0.045
309
GRIDFORMAT_END
309
TABLEFORMAT_END
  1
CELLSTYLE_BEGIN
 90
        1
 91
        1
300
_TITLE
309
CELLSTYLE_END
300
CELLSTYLE
  1
TABLEFORMAT_BEGIN
 90
        5
170
     1
 91
        0
 92
        0
 62
   257
 93
        1
300
CONTENTFORMAT
  1
CONTENTFORMAT_BEGIN
 90
        0
 91
        0
 92
        4
 93
        0
300

 40
0.0
140
1.0
 94
        5
 62
     0
340
10
144
0.18
309
CONTENTFORMAT_END
171
     1
301
MARGIN
  1
CELLMARGIN_BEGIN
 40
0.06
 40
0.06
 40
0.06
 40
0.06
 40
0.18
 40
0.18
309
CELLMARGIN_END
 94
        6
 95
        1
302
GRIDFORMAT
  1
GRIDFORMAT_BEGIN
 90
        0
 91
        1
 62
     0
 92
       -2
340
0
 93
        0
 40
0.045
309
GRIDFORMAT_END
 95
        2
302
GRIDFORMAT
  1
GRIDFORMAT_BEGIN
 90
        0
 91
        1
 62
     0
 92
       -2
340
0
 93
        0
 40
0.045
309
GRIDFORMAT_END
 95
        4
302
GRIDFORMAT
  1
GRIDFORMAT_BEGIN
 90
        0
 91
        1
 62
     0
 92
       -2
340
0
 93
        0
 40
0.045
309
GRIDFORMAT_END
 95
        8
302
GRIDFORMAT
  1
GRIDFORMAT_BEGIN
 90
        0
 91
        1
 62
     0
 92
       -2
340
0
 93
        0
 40
0.045
309
GRIDFORMAT_END
 95
       16
302
GRIDFORMAT
  1
GRIDFORMAT_BEGIN
 90
        0
 91
        1
 62
     0
 92
       -2
340
0
 93
        0
 40
0.045
309
GRIDFORMAT_END
 95
       32
302
GRIDFORMAT
  1
GRIDFORMAT_BEGIN
 90
        0
 91
        1
 62
     0
 92
       -2
340
0
 93
        0
 40
0.045
309
GRIDFORMAT_END
309
TABLEFORMAT_END
  1
CELLSTYLE_BEGIN
 90
        2
 91
        1
300
_HEADER
309
CELLSTYLE_END
300
CELLSTYLE
  1
TABLEFORMAT_BEGIN
 90
        5
170
     1
 91
        0
 92
        0
 62
   257
 93
        1
300
CONTENTFORMAT
  1
CONTENTFORMAT_BEGIN
 90
        0
 91
        0
 92
        4
 93
        0
300

 40
0.0
140
1.0
 94
        2
 62
     0
340
10
144
0.18
309
CONTENTFORMAT_END
171
     1
301
MARGIN
  1
CELLMARGIN_BEGIN
 40
0.06
 40
0.06
 40
0.06
 40
0.06
 40
0.18
 40
0.18
309
CELLMARGIN_END
 94
        6
 95
        1
302
GRIDFORMAT
  1
GRIDFORMAT_BEGIN
 90
        0
 91
        1
 62
     0
 92
       -2
340
0
 93
        0
 40
0.045
309
GRIDFORMAT_END
 95
        2
302
GRIDFORMAT
  1
GRIDFORMAT_BEGIN
 90
        0
 91
        1
 62
     0
 92
       -2
340
0
 93
        0
 40
0.045
309
GRIDFORMAT_END
 95
        4
302
GRIDFORMAT
  1
GRIDFORMAT_BEGIN
 90
        0
 91
        1
 62
     0
 92
       -2
340
0
 93
        0
 40
0.045
309
GRIDFORMAT_END
 95
        8
302
GRIDFORMAT
  1
GRIDFORMAT_BEGIN
 90
        0
 91
        1
 62
     0
 92
       -2
340
0
 93
        0
 40
0.045
309
GRIDFORMAT_END
 95
       16
302
GRIDFORMAT
  1
GRIDFORMAT_BEGIN
 90
        0
 91
        1
 62
     0
 92
       -2
340
0
 93
        0
 40
0.045
309
GRIDFORMAT_END
 95
       32
302
GRIDFORMAT
  1
GRIDFORMAT_BEGIN
 90
        0
 91
        1
 62
     0
 92
       -2
340
0
 93
        0
 40
0.045
309
GRIDFORMAT_END
309
TABLEFORMAT_END
  1
CELLSTYLE_BEGIN
 90
        3
 91
        2
300
_DATA
309
CELLSTYLE_END
  0
XRECORD
  5
4CF5
102
{ACAD_REACTORS
330
4C7D
102
}
330
4C7D
100
AcDbXrecord
280
     1
102
ACAD_ROUNDTRIP_PRE2007_TABLESTYLE
 90
        4
 91
        0
  1

 92
        4
 93
        0
  2

 94
        4
 95
        0
  3

  0
ENDSEC
  0
EOF
