  0
SECTION
  2
HEADER
  9
$ACADVER
  1
AC1015
  9
$ACADMAINTVER
 70
    20
  9
$DWGCODEPAGE
  3
ANSI_932
  9
$INSBASE
 10
0.0
 20
0.0
 30
0.0
  9
$EXTMIN
 10
-2752.66686823517
 20
-230.2448299127127
 30
0.0
  9
$EXTMAX
 10
-713.5181148345392
 20
943.0337175326497
 30
0.0
  9
$LIMMIN
 10
0.0
 20
0.0
  9
$LIMMAX
 10
178.31
 20
285.24
  9
$ORTHOMODE
 70
     1
  9
$REGENMODE
 70
     1
  9
$FILLMODE
 70
     1
  9
$QTEXTMODE
 70
     0
  9
$MIRRTEXT
 70
     0
  9
$LTSCALE
 40
4.0
  9
$ATTMODE
 70
     1
  9
$TEXTSIZE
 40
24.0
  9
$TRACEWID
 40
1.0
  9
$TEXTSTYLE
  7
STANDARD
  9
$CLAYER
  8
実線
  9
$CELTYPE
  6
BYLAYER
  9
$CECOLOR
 62
     1
  9
$CELTSCALE
 40
1.0
  9
$DISPSILH
 70
     0
  9
$DIMSCALE
 40
6.0
  9
$DIMASZ
 40
2.5
  9
$DIMEXO
 40
0.875
  9
$DIMDLI
 40
10.0
  9
$DIMRND
 40
0.0
  9
$DIMDLE
 40
0.0
  9
$DIMEXE
 40
1.0
  9
$DIMTP
 40
0.0
  9
$DIMTM
 40
0.0
  9
$DIMTXT
 40
3.5
  9
$DIMCEN
 40
0.0
  9
$DIMTSZ
 40
0.0
  9
$DIMTOL
 70
     0
  9
$DIMLIM
 70
     0
  9
$DIMTIH
 70
     0
  9
$DIMTOH
 70
     0
  9
$DIMSE1
 70
     0
  9
$DIMSE2
 70
     0
  9
$DIMTAD
 70
     1
  9
$DIMZIN
 70
     8
  9
$DIMBLK
  1

  9
$DIMASO
 70
     1
  9
$DIMSHO
 70
     1
  9
$DIMPOST
  1

  9
$DIMAPOST
  1

  9
$DIMALT
 70
     0
  9
$DIMALTD
 70
     2
  9
$DIMALTF
 40
25.4
  9
$DIMLFAC
 40
1.0
  9
$DIMTOFL
 70
     1
  9
$DIMTVP
 40
0.0
  9
$DIMTIX
 70
     0
  9
$DIMSOXD
 70
     0
  9
$DIMSAH
 70
     1
  9
$DIMBLK1
  1
OPEN
  9
$DIMBLK2
  1
OPEN
  9
$DIMSTYLE
  2
STANDARD
  9
$DIMCLRD
 70
     0
  9
$DIMCLRE
 70
     0
  9
$DIMCLRT
 70
     0
  9
$DIMTFAC
 40
1.0
  9
$DIMGAP
 40
0.875
  9
$DIMJUST
 70
     0
  9
$DIMSD1
 70
     0
  9
$DIMSD2
 70
     0
  9
$DIMTOLJ
 70
     1
  9
$DIMTZIN
 70
     0
  9
$DIMALTZ
 70
     0
  9
$DIMALTTZ
 70
     0
  9
$DIMUPT
 70
     0
  9
$DIMDEC
 70
     3
  9
$DIMTDEC
 70
     3
  9
$DIMALTU
 70
     2
  9
$DIMALTTD
 70
     2
  9
$DIMTXSTY
  7
STANDARD
  9
$DIMAUNIT
 70
     0
  9
$DIMADEC
 70
     0
  9
$DIMALTRND
 40
0.0
  9
$DIMAZIN
 70
     0
  9
$DIMDSEP
 70
    46
  9
$DIMATFIT
 70
     3
  9
$DIMFRAC
 70
     0
  9
$DIMLDRBLK
  1
OPEN
  9
$DIMLUNIT
 70
     2
  9
$DIMLWD
 70
    -2
  9
$DIMLWE
 70
    -2
  9
$DIMTMOVE
 70
     0
  9
$LUNITS
 70
     2
  9
$LUPREC
 70
     3
  9
$SKETCHINC
 40
1.0
  9
$FILLETRAD
 40
0.0
  9
$AUNITS
 70
     0
  9
$AUPREC
 70
     3
  9
$MENU
  1
.
  9
$ELEVATION
 40
0.0
  9
$PELEVATION
 40
0.0
  9
$THICKNESS
 40
0.0
  9
$LIMCHECK
 70
     0
  9
$CHAMFERA
 40
12.0
  9
$CHAMFERB
 40
12.0
  9
$CHAMFERC
 40
20.0
  9
$CHAMFERD
 40
0.0
  9
$SKPOLY
 70
     0
  9
$TDCREATE
 40
2453234.434426540
  9
$TDUCREATE
 40
2453234.059426540
  9
$TDUPDATE
 40
2455734.703790509
  9
$TDUUPDATE
 40
2455734.328790509
  9
$TDINDWG
 40
0.3650960069
  9
$TDUSRTIMER
 40
0.3650775463
  9
$USRTIMER
 70
     1
  9
$ANGBASE
 50
0.0
  9
$ANGDIR
 70
     0
  9
$PDMODE
 70
     0
  9
$PDSIZE
 40
0.0
  9
$PLINEWID
 40
0.0
  9
$SPLFRAME
 70
     0
  9
$SPLINETYPE
 70
     6
  9
$SPLINESEGS
 70
     8
  9
$HANDSEED
  5
63D6
  9
$SURFTAB1
 70
     6
  9
$SURFTAB2
 70
     6
  9
$SURFTYPE
 70
     6
  9
$SURFU
 70
     6
  9
$SURFV
 70
     6
  9
$UCSBASE
  2

  9
$UCSNAME
  2

  9
$UCSORG
 10
0.0
 20
0.0
 30
0.0
  9
$UCSXDIR
 10
1.0
 20
0.0
 30
0.0
  9
$UCSYDIR
 10
0.0
 20
1.0
 30
0.0
  9
$UCSORTHOREF
  2

  9
$UCSORTHOVIEW
 70
     0
  9
$UCSORGTOP
 10
0.0
 20
0.0
 30
0.0
  9
$UCSORGBOTTOM
 10
0.0
 20
0.0
 30
0.0
  9
$UCSORGLEFT
 10
0.0
 20
0.0
 30
0.0
  9
$UCSORGRIGHT
 10
0.0
 20
0.0
 30
0.0
  9
$UCSORGFRONT
 10
0.0
 20
0.0
 30
0.0
  9
$UCSORGBACK
 10
0.0
 20
0.0
 30
0.0
  9
$PUCSBASE
  2

  9
$PUCSNAME
  2

  9
$PUCSORG
 10
0.0
 20
0.0
 30
0.0
  9
$PUCSXDIR
 10
1.0
 20
0.0
 30
0.0
  9
$PUCSYDIR
 10
0.0
 20
1.0
 30
0.0
  9
$PUCSORTHOREF
  2

  9
$PUCSORTHOVIEW
 70
     0
  9
$PUCSORGTOP
 10
0.0
 20
0.0
 30
0.0
  9
$PUCSORGBOTTOM
 10
0.0
 20
0.0
 30
0.0
  9
$PUCSORGLEFT
 10
0.0
 20
0.0
 30
0.0
  9
$PUCSORGRIGHT
 10
0.0
 20
0.0
 30
0.0
  9
$PUCSORGFRONT
 10
0.0
 20
0.0
 30
0.0
  9
$PUCSORGBACK
 10
0.0
 20
0.0
 30
0.0
  9
$USERI1
 70
     0
  9
$USERI2
 70
     0
  9
$USERI3
 70
     0
  9
$USERI4
 70
     0
  9
$USERI5
 70
     0
  9
$USERR1
 40
0.0
  9
$USERR2
 40
0.0
  9
$USERR3
 40
0.0
  9
$USERR4
 40
0.0
  9
$USERR5
 40
0.0
  9
$WORLDVIEW
 70
     1
  9
$SHADEDGE
 70
     3
  9
$SHADEDIF
 70
    70
  9
$TILEMODE
 70
     0
  9
$MAXACTVP
 70
    16
  9
$PINSBASE
 10
0.0
 20
0.0
 30
0.0
  9
$PLIMCHECK
 70
     0
  9
$PEXTMIN
 10
-230.1251076440692
 20
-0.0202258741703645
 30
-0.0000000000112497
  9
$PEXTMAX
 10
178.0667480927011
 20
284.9962537062594
 30
0.0000000000002956
  9
$PLIMMIN
 10
-238.5807905626231
 20
-8.464306223373881
  9
$PLIMMAX
 10
188.3464590223494
 20
293.4403326496098
  9
$UNITMODE
 70
     0
  9
$VISRETAIN
 70
     0
  9
$PLINEGEN
 70
     0
  9
$PSLTSCALE
 70
     1
  9
$TREEDEPTH
 70
  3020
  9
$CMLSTYLE
  2
STANDARD
  9
$CMLJUST
 70
     0
  9
$CMLSCALE
 40
1.0
  9
$PROXYGRAPHICS
 70
     1
  9
$MEASUREMENT
 70
     0
  9
$CELWEIGHT
370
    -1
  9
$ENDCAPS
280
     0
  9
$JOINSTYLE
280
     0
  9
$LWDISPLAY
290
     0
  9
$INSUNITS
 70
     0
  9
$HYPERLINKBASE
  1

  9
$STYLESHEET
  1

  9
$XEDIT
290
     1
  9
$CEPSNTYPE
380
     0
  9
$PSTYLEMODE
290
     1
  9
$FINGERPRINTGUID
  2
{42B026FC-EDA5-41E3-9C3E-E73C54ED70C7}
  9
$VERSIONGUID
  2
{0E2D5A4D-CE12-422E-94EE-2C11AFCE9B6A}
  9
$EXTNAMES
290
     1
  9
$PSVPSCALE
 40
0.0
  9
$OLESTARTUP
290
     0
  0
ENDSEC
  0
SECTION
  2
CLASSES
  0
CLASS
  1
ACDBDICTIONARYWDFLT
  2
AcDbDictionaryWithDefault
  3
ObjectDBX Classes
 90
        0
280
     0
281
     0
  0
CLASS
  1
ACDBPLACEHOLDER
  2
AcDbPlaceHolder
  3
ObjectDBX Classes
 90
        0
280
     0
281
     0
  0
CLASS
  1
LAYOUT
  2
AcDbLayout
  3
ObjectDBX Classes
 90
        0
280
     0
281
     0
  0
CLASS
  1
DICTIONARYVAR
  2
AcDbDictionaryVar
  3
ObjectDBX Classes
 90
        0
280
     0
281
     0
  0
CLASS
  1
TABLESTYLE
  2
AcDbTableStyle
  3
ObjectDBX Classes
 90
     4095
280
     0
281
     0
  0
CLASS
  1
SORTENTSTABLE
  2
AcDbSortentsTable
  3
ObjectDBX Classes
 90
        0
280
     0
281
     0
  0
CLASS
  1
MATERIAL
  2
AcDbMaterial
  3
ObjectDBX Classes
 90
     1153
280
     0
281
     0
  0
CLASS
  1
VISUALSTYLE
  2
AcDbVisualStyle
  3
ObjectDBX Classes
 90
     4095
280
     0
281
     0
  0
CLASS
  1
SCALE
  2
AcDbScale
  3
ObjectDBX Classes
 90
     1153
280
     0
281
     0
  0
CLASS
  1
MLEADERSTYLE
  2
AcDbMLeaderStyle
  3
ACDB_MLEADERSTYLE_CLASS
 90
     4095
280
     0
281
     0
  0
CLASS
  1
CELLSTYLEMAP
  2
AcDbCellStyleMap
  3
ObjectDBX Classes
 90
     1152
280
     0
281
     0
  0
ENDSEC
  0
SECTION
  2
TABLES
  0
TABLE
  2
VPORT
  5
8
102
{ACAD_XDICTIONARY
360
63BB
102
}
330
0
100
AcDbSymbolTable
 70
     1
  0
VPORT
  5
6350
330
8
100
AcDbSymbolTableRecord
100
AcDbViewportTableRecord
  2
*Active
 70
     0
 10
0.0
 20
0.0
 11
1.0
 21
1.0
 12
-1390.127801932686
 22
356.3944465417201
 13
0.0
 23
0.0
 14
5.0
 24
5.0
 15
0.0
 25
0.0
 16
0.0
 26
0.0
 36
1.0
 17
0.0
 27
0.0
 37
0.0
 40
1780.480612035846
 41
1.302295918367347
 42
50.0
 43
0.0
 44
0.0
 50
0.0
 51
0.0
 71
     0
 72
   100
 73
     1
 74
     0
 75
     0
 76
     0
 77
     0
 78
     0
281
     0
 65
     1
110
0.0
120
0.0
130
0.0
111
1.0
121
0.0
131
0.0
112
0.0
122
1.0
132
0.0
 79
     0
146
0.0
  0
ENDTAB
  0
TABLE
  2
LTYPE
  5
5
330
0
100
AcDbSymbolTable
 70
     4
  0
LTYPE
  5
14
330
5
100
AcDbSymbolTableRecord
100
AcDbLinetypeTableRecord
  2
BYBLOCK
 70
     0
  3

 72
    65
 73
     0
 40
0.0
  0
LTYPE
  5
15
330
5
100
AcDbSymbolTableRecord
100
AcDbLinetypeTableRecord
  2
BYLAYER
 70
     0
  3

 72
    65
 73
     0
 40
0.0
  0
LTYPE
  5
16
330
5
100
AcDbSymbolTableRecord
100
AcDbLinetypeTableRecord
  2
CONTINUOUS
 70
     0
  3
Solid line
 72
    65
 73
     0
 40
0.0
  0
LTYPE
  5
6A
330
5
100
AcDbSymbolTableRecord
100
AcDbLinetypeTableRecord
  2
DASHED
 70
     0
  3
__ __ __ __ __ __ __ __ __ __ __ __ __ __ __ __
 72
    65
 73
     2
 40
0.75
 49
0.5
 74
     0
 49
-0.25
 74
     0
  0
LTYPE
  5
124
330
5
100
AcDbSymbolTableRecord
100
AcDbLinetypeTableRecord
  2
CENTER
 70
     0
  3
____ _ ____ _ ____ _ ____ _ ____ _ ____ _ ____ 
 72
    65
 73
     4
 40
2.0
 49
1.25
 74
     0
 49
-0.25
 74
     0
 49
0.25
 74
     0
 49
-0.25
 74
     0
  0
LTYPE
  5
2C5
330
5
100
AcDbSymbolTableRecord
100
AcDbLinetypeTableRecord
  2
PHANTOM
 70
     0
  3
______  __  __  ______  __  __  ______  __  __ 
 72
    65
 73
     6
 40
2.5
 49
1.25
 74
     0
 49
-0.25
 74
     0
 49
0.25
 74
     0
 49
-0.25
 74
     0
 49
0.25
 74
     0
 49
-0.25
 74
     0
  0
ENDTAB
  0
TABLE
  2
LAYER
  5
2
102
{ACAD_XDICTIONARY
360
56B3
102
}
330
0
100
AcDbSymbolTable
 70
    11
  0
LAYER
  5
F
102
{ACAD_XDICTIONARY
360
6321
102
}
330
2
100
AcDbSymbolTableRecord
100
AcDbLayerTableRecord
  2
0
 70
     0
 62
     5
  6
CONTINUOUS
370
    -3
390
5620
  0
LAYER
  5
10B
102
{ACAD_XDICTIONARY
360
6323
102
}
330
2
100
AcDbSymbolTableRecord
100
AcDbLayerTableRecord
  2
細線
 70
     0
 62
     3
  6
CONTINUOUS
370
    -3
390
5620
  0
LAYER
  5
10C
102
{ACAD_XDICTIONARY
360
6325
102
}
330
2
100
AcDbSymbolTableRecord
100
AcDbLayerTableRecord
  2
実線
 70
     0
 62
     7
  6
CONTINUOUS
370
    -3
390
5620
  0
LAYER
  5
10D
102
{ACAD_XDICTIONARY
360
6327
102
}
330
2
100
AcDbSymbolTableRecord
100
AcDbLayerTableRecord
  2
破線
 70
     0
 62
     4
  6
DASHED
370
    -3
390
5620
  0
LAYER
  5
10E
102
{ACAD_XDICTIONARY
360
6329
102
}
330
2
100
AcDbSymbolTableRecord
100
AcDbLayerTableRecord
  2
中心線
 70
     0
 62
     1
  6
CENTER
370
    -3
390
5620
  0
LAYER
  5
10F
102
{ACAD_XDICTIONARY
360
632B
102
}
330
2
100
AcDbSymbolTableRecord
100
AcDbLayerTableRecord
  2
寸法線
 70
     0
 62
     2
  6
CONTINUOUS
370
    -3
390
5620
  0
LAYER
  5
2C8
102
{ACAD_XDICTIONARY
360
632D
102
}
330
2
100
AcDbSymbolTableRecord
100
AcDbLayerTableRecord
  2
仮線
 70
     0
 62
     5
  6
CONTINUOUS
370
    -3
390
5620
  0
LAYER
  5
2C9
102
{ACAD_XDICTIONARY
360
632F
102
}
330
2
100
AcDbSymbolTableRecord
100
AcDbLayerTableRecord
  2
仮想線
 70
     0
 62
     6
  6
PHANTOM
370
    -3
390
5620
  0
LAYER
  5
4F5
102
{ACAD_XDICTIONARY
360
6331
102
}
330
2
100
AcDbSymbolTableRecord
100
AcDbLayerTableRecord
  2
TITLE
 70
     0
 62
     7
  6
CONTINUOUS
370
    -3
390
5620
  0
LAYER
  5
4F6
102
{ACAD_XDICTIONARY
360
6333
102
}
330
2
100
AcDbSymbolTableRecord
100
AcDbLayerTableRecord
  2
ZUWAKU
 70
     0
 62
     3
  6
CONTINUOUS
370
    -3
390
5620
  0
LAYER
  5
84F
330
2
100
AcDbSymbolTableRecord
100
AcDbLayerTableRecord
  2
DEFPOINTS
 70
     0
 62
     7
  6
CONTINUOUS
290
     0
370
    -3
390
5620
  0
ENDTAB
  0
TABLE
  2
STYLE
  5
3
330
0
100
AcDbSymbolTable
 70
     1
  0
STYLE
  5
10
330
3
100
AcDbSymbolTableRecord
100
AcDbTextStyleTableRecord
  2
STANDARD
 70
     0
 40
0.0
 41
1.0
 50
0.0
 71
     0
 42
24.0
  3
C:\Program Files\AutoCAD LT\isocp.shx
  4
C:\Program Files\AutoCAD LT\extfont.shx
  0
ENDTAB
  0
TABLE
  2
VIEW
  5
6
330
0
100
AcDbSymbolTable
 70
     0
  0
ENDTAB
  0
TABLE
  2
UCS
  5
7
330
0
100
AcDbSymbolTable
 70
     0
  0
ENDTAB
  0
TABLE
  2
APPID
  5
9
330
0
100
AcDbSymbolTable
 70
     4
  0
APPID
  5
11
330
9
100
AcDbSymbolTableRecord
100
AcDbRegAppTableRecord
  2
ACAD
 70
     0
  0
APPID
  5
5628
330
9
100
AcDbSymbolTableRecord
100
AcDbRegAppTableRecord
  2
ACAD_PSEXT
 70
     0
  0
APPID
  5
58DD
330
9
100
AcDbSymbolTableRecord
100
AcDbRegAppTableRecord
  2
ACAD_EXEMPT_FROM_CAD_STANDARDS
 70
     0
  0
APPID
  5
62FB
330
9
100
AcDbSymbolTableRecord
100
AcDbRegAppTableRecord
  2
ACAD_MLEADERVER
 70
     0
  0
ENDTAB
  0
TABLE
  2
DIMSTYLE
  5
A
330
0
100
AcDbSymbolTable
 70
     1
100
AcDbDimStyleTable
 71
     1
340
1D
  0
DIMSTYLE
105
1D
102
{ACAD_REACTORS
330
50B6
330
50B7
330
50B8
330
50BC
330
50BD
330
50BE
330
5144
330
5147
330
5154
330
5196
330
51A1
330
51A2
330
51A3
330
51A4
330
51A5
330
51A9
330
51BF
330
5202
330
5203
330
520F
330
5210
330
5211
330
5221
330
523D
330
5B65
330
5B66
330
5B67
330
5B68
330
5C46
330
5C47
330
5C48
102
}
330
A
100
AcDbSymbolTableRecord
100
AcDbDimStyleTableRecord
  2
STANDARD
 70
     0
 40
6.0
 41
2.5
 42
0.875
 43
10.0
 44
1.0
 73
     0
 74
     0
 77
     1
 78
     8
140
3.5
141
0.0
147
0.875
172
     1
173
     1
271
     3
272
     3
340
10
341
112
343
112
344
112
  0
ENDTAB
  0
TABLE
  2
BLOCK_RECORD
  5
1
330
0
100
AcDbSymbolTable
 70
    61
  0
BLOCK_RECORD
  5
1A
102
{ACAD_XDICTIONARY
360
5616
102
}
330
1
100
AcDbSymbolTableRecord
100
AcDbBlockTableRecord
  2
*MODEL_SPACE
340
5625
  0
BLOCK_RECORD
  5
17
102
{ACAD_XDICTIONARY
360
5614
102
}
330
1
100
AcDbSymbolTableRecord
100
AcDbBlockTableRecord
  2
*PAPER_SPACE
340
5626
  0
BLOCK_RECORD
  5
112
102
{ACAD_XDICTIONARY
360
636C
102
}
330
1
100
AcDbSymbolTableRecord
100
AcDbBlockTableRecord
  2
_OPEN
340
0
102
{BLKREFS
331
5480
331
5481
331
5489
331
548A
331
549B
331
549C
331
54B2
331
54B3
331
54BA
331
54BB
331
54C3
331
54C4
331
54D1
331
54D2
331
54DE
331
54DF
331
54E6
331
54E7
331
54F8
331
54F9
331
554C
331
554D
331
555A
331
555B
331
51A8
331
51F2
331
56BE
331
56BF
331
58F5
331
58F6
331
591B
331
591C
331
5A88
331
5A89
331
5AAC
331
5AAD
331
5AB5
331
5AB6
331
5ADB
331
5ADC
331
5B5F
331
5B60
331
5BC2
331
5BC3
331
5BD4
331
5BD5
331
5BDD
331
5BDE
331
5BE6
331
5BE7
331
5C1B
331
5C1C
331
5C29
331
5C2A
331
5C37
331
5C38
331
5D10
331
5D11
331
5D19
331
5D1A
331
5D24
331
5D25
331
5D2D
331
5D2E
331
5D38
331
5D39
331
5D43
331
5D44
331
5D5D
331
5D5E
331
5D66
331
5D67
331
5D71
331
5D72
331
5D92
331
5D93
331
5DA8
331
5DA9
331
5E6E
331
5E6F
331
5E84
331
5E85
331
5E8D
331
5E8E
331
5E96
331
5E97
331
5E9F
331
5EA0
331
5EA8
331
5EA9
331
5F28
331
5F29
331
5F45
331
5F46
331
5F4E
331
5F4F
331
5F76
331
5F77
331
5F93
331
5F94
331
5F9E
331
5F9F
331
5FCF
331
5FD0
331
5FDC
331
5FDD
331
5FE5
331
5FE6
331
5FF0
331
5FF1
331
5FFB
331
5FFC
331
6004
331
6005
331
600F
331
6010
331
601A
331
601B
331
6027
331
6028
102
}
  0
BLOCK_RECORD
  5
5252
330
1
100
AcDbSymbolTableRecord
100
AcDbBlockTableRecord
  2
*D1
340
0
  0
BLOCK_RECORD
  5
525E
330
1
100
AcDbSymbolTableRecord
100
AcDbBlockTableRecord
  2
*D2
340
0
  0
BLOCK_RECORD
  5
526A
330
1
100
AcDbSymbolTableRecord
100
AcDbBlockTableRecord
  2
*D3
340
0
  0
BLOCK_RECORD
  5
5276
330
1
100
AcDbSymbolTableRecord
100
AcDbBlockTableRecord
  2
*D4
340
0
  0
BLOCK_RECORD
  5
5282
330
1
100
AcDbSymbolTableRecord
100
AcDbBlockTableRecord
  2
*D5
340
0
  0
BLOCK_RECORD
  5
528E
330
1
100
AcDbSymbolTableRecord
100
AcDbBlockTableRecord
  2
*D6
340
0
  0
BLOCK_RECORD
  5
529A
330
1
100
AcDbSymbolTableRecord
100
AcDbBlockTableRecord
  2
*D7
340
0
  0
BLOCK_RECORD
  5
52BE
330
1
100
AcDbSymbolTableRecord
100
AcDbBlockTableRecord
  2
*D10
340
0
  0
BLOCK_RECORD
  5
52D6
330
1
100
AcDbSymbolTableRecord
100
AcDbBlockTableRecord
  2
*D12
340
0
  0
BLOCK_RECORD
  5
5336
330
1
100
AcDbSymbolTableRecord
100
AcDbBlockTableRecord
  2
*D19
340
0
  0
BLOCK_RECORD
  5
534E
330
1
100
AcDbSymbolTableRecord
100
AcDbBlockTableRecord
  2
*D21
340
0
  0
BLOCK_RECORD
  5
535E
330
1
100
AcDbSymbolTableRecord
100
AcDbBlockTableRecord
  2
*D22
340
0
  0
BLOCK_RECORD
  5
536E
330
1
100
AcDbSymbolTableRecord
100
AcDbBlockTableRecord
  2
*D23
340
0
  0
BLOCK_RECORD
  5
537A
330
1
100
AcDbSymbolTableRecord
100
AcDbBlockTableRecord
  2
*D24
340
0
  0
BLOCK_RECORD
  5
5386
330
1
100
AcDbSymbolTableRecord
100
AcDbBlockTableRecord
  2
*D25
340
0
  0
BLOCK_RECORD
  5
5392
330
1
100
AcDbSymbolTableRecord
100
AcDbBlockTableRecord
  2
*D26
340
0
  0
BLOCK_RECORD
  5
53CA
330
1
100
AcDbSymbolTableRecord
100
AcDbBlockTableRecord
  2
*D30
340
0
  0
BLOCK_RECORD
  5
53D6
330
1
100
AcDbSymbolTableRecord
100
AcDbBlockTableRecord
  2
*D31
340
0
  0
BLOCK_RECORD
  5
53E2
330
1
100
AcDbSymbolTableRecord
100
AcDbBlockTableRecord
  2
*D32
340
0
  0
BLOCK_RECORD
  5
53FA
330
1
100
AcDbSymbolTableRecord
100
AcDbBlockTableRecord
  2
*D34
340
0
  0
BLOCK_RECORD
  5
5406
330
1
100
AcDbSymbolTableRecord
100
AcDbBlockTableRecord
  2
*D35
340
0
  0
BLOCK_RECORD
  5
5414
330
1
100
AcDbSymbolTableRecord
100
AcDbBlockTableRecord
  2
*D36
340
0
  0
BLOCK_RECORD
  5
5422
330
1
100
AcDbSymbolTableRecord
100
AcDbBlockTableRecord
  2
*D37
340
0
  0
BLOCK_RECORD
  5
5430
330
1
100
AcDbSymbolTableRecord
100
AcDbBlockTableRecord
  2
*D38
340
0
  0
BLOCK_RECORD
  5
5B69
330
1
100
AcDbSymbolTableRecord
100
AcDbBlockTableRecord
  2
*D41
340
0
  0
BLOCK_RECORD
  5
5B75
330
1
100
AcDbSymbolTableRecord
100
AcDbBlockTableRecord
  2
*D42
340
0
  0
BLOCK_RECORD
  5
5B81
330
1
100
AcDbSymbolTableRecord
100
AcDbBlockTableRecord
  2
*D43
340
0
  0
BLOCK_RECORD
  5
5B8D
330
1
100
AcDbSymbolTableRecord
100
AcDbBlockTableRecord
  2
*D44
340
0
  0
BLOCK_RECORD
  5
5C49
330
1
100
AcDbSymbolTableRecord
100
AcDbBlockTableRecord
  2
*D48
340
0
  0
BLOCK_RECORD
  5
5C55
330
1
100
AcDbSymbolTableRecord
100
AcDbBlockTableRecord
  2
*D49
340
0
  0
BLOCK_RECORD
  5
5C63
330
1
100
AcDbSymbolTableRecord
100
AcDbBlockTableRecord
  2
*D50
340
0
  0
BLOCK_RECORD
  5
6351
102
{ACAD_XDICTIONARY
360
636B
102
}
330
1
100
AcDbSymbolTableRecord
100
AcDbBlockTableRecord
  2
A$C6EFD5426
340
0
  0
ENDTAB
  0
ENDSEC
  0
SECTION
  2
BLOCKS
  0
BLOCK
  5
1B
330
1A
100
AcDbEntity
  8
0
100
AcDbBlockBegin
  2
*MODEL_SPACE
 70
     0
 10
0.0
 20
0.0
 30
0.0
  3
*MODEL_SPACE
  1

  0
ENDBLK
  5
1C
330
1A
100
AcDbEntity
  8
0
100
AcDbBlockEnd
  0
BLOCK
  5
18
330
17
100
AcDbEntity
 67
     1
  8
0
100
AcDbBlockBegin
  2
*PAPER_SPACE
 70
     0
 10
0.0
 20
0.0
 30
0.0
  3
*PAPER_SPACE
  1

  0
ENDBLK
  5
19
330
17
100
AcDbEntity
 67
     1
  8
0
100
AcDbBlockEnd
  0
BLOCK
  5
113
330
112
100
AcDbEntity
  8
0
100
AcDbBlockBegin
  2
_OPEN
 70
     0
 10
0.0
 20
0.0
 30
0.0
  3
_OPEN
  1

  0
LINE
  5
114
330
112
100
AcDbEntity
  8
0
  6
ByBlock
 62
     0
100
AcDbLine
 10
-1.0
 20
0.1666666666666666
 30
0.0
 11
0.0
 21
0.0
 31
0.0
  0
LINE
  5
115
330
112
100
AcDbEntity
  8
0
  6
ByBlock
 62
     0
100
AcDbLine
 10
0.0
 20
0.0
 30
0.0
 11
-1.0
 21
-0.1666666666666666
 31
0.0
  0
LINE
  5
116
330
112
100
AcDbEntity
  8
0
  6
ByBlock
 62
     0
100
AcDbLine
 10
0.0
 20
0.0
 30
0.0
 11
-1.0
 21
0.0
 31
0.0
  0
ENDBLK
  5
117
330
112
100
AcDbEntity
  8
0
100
AcDbBlockEnd
  0
BLOCK
  5
525C
330
5252
100
AcDbEntity
  8
0
100
AcDbBlockBegin
  2
*D1
 70
     1
 10
0.0
 20
0.0
 30
0.0
  3
*D1
  1

  0
LINE
  5
5FD7
330
5252
100
AcDbEntity
  8
寸法線
 62
     0
370
    -2
100
AcDbLine
 10
-1733.250394489855
 20
171.7555466231133
 30
0.0
 11
-1663.000394489855
 21
171.7555466231132
 31
0.0
  0
LINE
  5
5FD8
330
5252
100
AcDbEntity
  8
寸法線
 62
     0
370
    -2
100
AcDbLine
 10
-1753.75
 20
201.7555466231133
 30
0.0
 11
-1663.000394489855
 21
201.7555466231133
 31
0.0
  0
LINE
  5
5FD9
330
5252
100
AcDbEntity
  8
寸法線
 62
     0
370
    -2
100
AcDbLine
 10
-1669.000394489855
 20
156.7555466231133
 30
0.0
 11
-1669.000394489855
 21
141.7555466231132
 31
0.0
  0
LINE
  5
5FDA
330
5252
100
AcDbEntity
  8
寸法線
 62
     0
370
    -2
100
AcDbLine
 10
-1669.000394489855
 20
216.7555466231133
 30
0.0
 11
-1669.000394489855
 21
231.7555466231133
 31
0.0
  0
LINE
  5
5FDB
330
5252
100
AcDbEntity
  8
寸法線
 62
     0
370
    -2
100
AcDbLine
 10
-1669.000394489855
 20
171.7555466231132
 30
0.0
 11
-1669.000394489855
 21
201.7555466231133
 31
0.0
  0
INSERT
  5
5FDC
330
5252
100
AcDbEntity
  8
寸法線
 62
     0
370
    -2
100
AcDbBlockReference
  2
_OPEN
 10
-1669.000394489855
 20
171.7555466231132
 30
0.0
 41
15.0
 42
15.0
 43
15.0
 50
90.0
  0
INSERT
  5
5FDD
330
5252
100
AcDbEntity
  8
寸法線
 62
     0
370
    -2
100
AcDbBlockReference
  2
_OPEN
 10
-1669.000394489855
 20
201.7555466231133
 30
0.0
 41
15.0
 42
15.0
 43
15.0
 50
270.0
  0
MTEXT
  5
5FDE
330
5252
100
AcDbEntity
  8
寸法線
 62
     0
100
AcDbMText
 10
-1684.750394489855
 20
186.755546623113
 30
0.0
 40
21.0
 41
0.0
 71
     5
 72
     1
  1
\A1;30
 11
0.0000000000000001
 21
1.0
 31
0.0
 73
     1
 44
1.0
1001
ACAD
1000
MTEXTBEGIN
1070
    73
1070
     1
1070
    44
1040
1.0
1070
    74
1070
     0
1000
MTEXTEND
  0
POINT
  5
5FDF
330
5252
100
AcDbEntity
  8
DEFPOINTS
 62
     0
100
AcDbPoint
 10
-1738.500394489855
 20
171.7555466231133
 30
0.0
  0
POINT
  5
5FE0
330
5252
100
AcDbEntity
  8
DEFPOINTS
 62
     0
100
AcDbPoint
 10
-1759.0
 20
201.7555466231133
 30
0.0
  0
POINT
  5
5FE1
330
5252
100
AcDbEntity
  8
DEFPOINTS
 62
     0
100
AcDbPoint
 10
-1669.000394489855
 20
201.7555466231133
 30
0.0
  0
ENDBLK
  5
525D
330
5252
100
AcDbEntity
  8
0
100
AcDbBlockEnd
  0
BLOCK
  5
5268
330
525E
100
AcDbEntity
  8
0
100
AcDbBlockBegin
  2
*D2
 70
     1
 10
0.0
 20
0.0
 30
0.0
  3
*D2
  1

  0
LINE
  5
5FE2
330
525E
100
AcDbEntity
  8
寸法線
 62
     0
370
    -2
100
AcDbLine
 10
-1733.250394489855
 20
-38.24445337688668
 30
0.0
 11
-1663.000394489855
 21
-38.24445337688671
 31
0.0
  0
LINE
  5
5FE3
330
525E
100
AcDbEntity
  8
寸法線
 62
     0
370
    -2
100
AcDbLine
 10
-1733.250394489855
 20
171.7555466231133
 30
0.0
 11
-1663.000394489855
 21
171.7555466231132
 31
0.0
  0
LINE
  5
5FE4
330
525E
100
AcDbEntity
  8
寸法線
 62
     0
370
    -2
100
AcDbLine
 10
-1669.000394489855
 20
-23.2444533768867
 30
0.0
 11
-1669.000394489855
 21
156.7555466231133
 31
0.0
  0
INSERT
  5
5FE5
330
525E
100
AcDbEntity
  8
寸法線
 62
     0
370
    -2
100
AcDbBlockReference
  2
_OPEN
 10
-1669.000394489855
 20
-38.24445337688671
 30
0.0
 41
15.0
 42
15.0
 43
15.0
 50
270.0
  0
INSERT
  5
5FE6
330
525E
100
AcDbEntity
  8
寸法線
 62
     0
370
    -2
100
AcDbBlockReference
  2
_OPEN
 10
-1669.000394489855
 20
171.7555466231132
 30
0.0
 41
15.0
 42
15.0
 43
15.0
 50
90.0
  0
MTEXT
  5
5FE7
330
525E
100
AcDbEntity
  8
寸法線
 62
     0
100
AcDbMText
 10
-1684.752461418989
 20
66.75554662311302
 30
0.0
 40
21.0
 41
0.0
 71
     5
 72
     1
  1
\A1;210
 11
0.0000000000000001
 21
1.0
 31
0.0
 73
     1
 44
1.0
1001
ACAD
1000
MTEXTBEGIN
1070
    73
1070
     1
1070
    44
1040
1.0
1070
    74
1070
     0
1000
MTEXTEND
  0
POINT
  5
5FE8
330
525E
100
AcDbEntity
  8
DEFPOINTS
 62
     0
100
AcDbPoint
 10
-1738.500394489855
 20
-38.24445337688668
 30
0.0
  0
POINT
  5
5FE9
330
525E
100
AcDbEntity
  8
DEFPOINTS
 62
     0
100
AcDbPoint
 10
-1738.500394489855
 20
171.7555466231133
 30
0.0
  0
POINT
  5
5FEA
330
525E
100
AcDbEntity
  8
DEFPOINTS
 62
     0
100
AcDbPoint
 10
-1669.000394489855
 20
171.7555466231132
 30
0.0
  0
ENDBLK
  5
5269
330
525E
100
AcDbEntity
  8
0
100
AcDbBlockEnd
  0
BLOCK
  5
5274
330
526A
100
AcDbEntity
  8
0
100
AcDbBlockBegin
  2
*D3
 70
     1
 10
0.0
 20
0.0
 30
0.0
  3
*D3
  1

  0
LINE
  5
5FEB
330
526A
100
AcDbEntity
  8
寸法線
 62
     0
370
    -2
100
AcDbLine
 10
-1753.75
 20
-68.24445337688667
 30
0.0
 11
-1663.000394489855
 21
-68.24445337688668
 31
0.0
  0
LINE
  5
5FEC
330
526A
100
AcDbEntity
  8
寸法線
 62
     0
370
    -2
100
AcDbLine
 10
-1733.250394489855
 20
-38.24445337688668
 30
0.0
 11
-1663.000394489855
 21
-38.24445337688671
 31
0.0
  0
LINE
  5
5FED
330
526A
100
AcDbEntity
  8
寸法線
 62
     0
370
    -2
100
AcDbLine
 10
-1669.000394489855
 20
-83.2444533768867
 30
0.0
 11
-1669.000394489855
 21
-98.24445337688672
 31
0.0
  0
LINE
  5
5FEE
330
526A
100
AcDbEntity
  8
寸法線
 62
     0
370
    -2
100
AcDbLine
 10
-1669.000394489855
 20
-23.2444533768867
 30
0.0
 11
-1669.000394489855
 21
-8.244453376886692
 31
0.0
  0
LINE
  5
5FEF
330
526A
100
AcDbEntity
  8
寸法線
 62
     0
370
    -2
100
AcDbLine
 10
-1669.000394489855
 20
-68.24445337688668
 30
0.0
 11
-1669.000394489855
 21
-38.24445337688671
 31
0.0
  0
INSERT
  5
5FF0
330
526A
100
AcDbEntity
  8
寸法線
 62
     0
370
    -2
100
AcDbBlockReference
  2
_OPEN
 10
-1669.000394489855
 20
-68.24445337688668
 30
0.0
 41
15.0
 42
15.0
 43
15.0
 50
90.0
  0
INSERT
  5
5FF1
330
526A
100
AcDbEntity
  8
寸法線
 62
     0
370
    -2
100
AcDbBlockReference
  2
_OPEN
 10
-1669.000394489855
 20
-38.24445337688671
 30
0.0
 41
15.0
 42
15.0
 43
15.0
 50
270.0
  0
MTEXT
  5
5FF2
330
526A
100
AcDbEntity
  8
寸法線
 62
     0
100
AcDbMText
 10
-1684.750394489855
 20
-53.24445337688695
 30
0.0
 40
21.0
 41
0.0
 71
     5
 72
     1
  1
\A1;30
 11
0.0000000000000001
 21
1.0
 31
0.0
 73
     1
 44
1.0
1001
ACAD
1000
MTEXTBEGIN
1070
    73
1070
     1
1070
    44
1040
1.0
1070
    74
1070
     0
1000
MTEXTEND
  0
POINT
  5
5FF3
330
526A
100
AcDbEntity
  8
DEFPOINTS
 62
     0
100
AcDbPoint
 10
-1759.0
 20
-68.24445337688667
 30
0.0
  0
POINT
  5
5FF4
330
526A
100
AcDbEntity
  8
DEFPOINTS
 62
     0
100
AcDbPoint
 10
-1738.500394489855
 20
-38.24445337688668
 30
0.0
  0
POINT
  5
5FF5
330
526A
100
AcDbEntity
  8
DEFPOINTS
 62
     0
100
AcDbPoint
 10
-1669.000394489855
 20
-38.24445337688671
 30
0.0
  0
ENDBLK
  5
5275
330
526A
100
AcDbEntity
  8
0
100
AcDbBlockEnd
  0
BLOCK
  5
5280
330
5276
100
AcDbEntity
  8
0
100
AcDbBlockBegin
  2
*D4
 70
     1
 10
0.0
 20
0.0
 30
0.0
  3
*D4
  1

  0
LINE
  5
5FF6
330
5276
100
AcDbEntity
  8
寸法線
 62
     0
370
    -2
100
AcDbLine
 10
-1789.000394489855
 20
-93.99445337688666
 30
0.0
 11
-1789.000394489855
 21
-164.2444533768866
 31
0.0
  0
LINE
  5
5FF7
330
5276
100
AcDbEntity
  8
寸法線
 62
     0
370
    -2
100
AcDbLine
 10
-1759.0
 20
-73.49445337688667
 30
0.0
 11
-1759.0
 21
-164.2444533768866
 31
0.0
  0
LINE
  5
5FF8
330
5276
100
AcDbEntity
  8
寸法線
 62
     0
370
    -2
100
AcDbLine
 10
-1804.000394489855
 20
-158.2444533768866
 30
0.0
 11
-1819.000394489855
 21
-158.2444533768866
 31
0.0
  0
LINE
  5
5FF9
330
5276
100
AcDbEntity
  8
寸法線
 62
     0
370
    -2
100
AcDbLine
 10
-1744.0
 20
-158.2444533768866
 30
0.0
 11
-1729.0
 21
-158.2444533768866
 31
0.0
  0
LINE
  5
5FFA
330
5276
100
AcDbEntity
  8
寸法線
 62
     0
370
    -2
100
AcDbLine
 10
-1789.000394489855
 20
-158.2444533768866
 30
0.0
 11
-1759.0
 21
-158.2444533768866
 31
0.0
  0
INSERT
  5
5FFB
330
5276
100
AcDbEntity
  8
寸法線
 62
     0
370
    -2
100
AcDbBlockReference
  2
_OPEN
 10
-1789.000394489855
 20
-158.2444533768866
 30
0.0
 41
15.0
 42
15.0
 43
15.0
  0
INSERT
  5
5FFC
330
5276
100
AcDbEntity
  8
寸法線
 62
     0
370
    -2
100
AcDbBlockReference
  2
_OPEN
 10
-1759.0
 20
-158.2444533768866
 30
0.0
 41
15.0
 42
15.0
 43
15.0
 50
180.0
  0
MTEXT
  5
5FFD
330
5276
100
AcDbEntity
  8
寸法線
 62
     0
100
AcDbMText
 10
-1774.000197244928
 20
-142.4944533768866
 30
0.0
 40
21.0
 41
0.0
 71
     5
 72
     1
  1
\A1;30
 73
     1
 44
1.0
1001
ACAD
1000
MTEXTBEGIN
1070
    73
1070
     1
1070
    44
1040
1.0
1070
    74
1070
     0
1000
MTEXTEND
  0
POINT
  5
5FFE
330
5276
100
AcDbEntity
  8
DEFPOINTS
 62
     0
100
AcDbPoint
 10
-1789.000394489855
 20
-88.74445337688667
 30
0.0
  0
POINT
  5
5FFF
330
5276
100
AcDbEntity
  8
DEFPOINTS
 62
     0
100
AcDbPoint
 10
-1759.0
 20
-68.24445337688667
 30
0.0
  0
POINT
  5
6000
330
5276
100
AcDbEntity
  8
DEFPOINTS
 62
     0
100
AcDbPoint
 10
-1759.0
 20
-158.2444533768866
 30
0.0
  0
ENDBLK
  5
5281
330
5276
100
AcDbEntity
  8
0
100
AcDbBlockEnd
  0
BLOCK
  5
528C
330
5282
100
AcDbEntity
  8
0
100
AcDbBlockBegin
  2
*D5
 70
     1
 10
0.0
 20
0.0
 30
0.0
  3
*D5
  1

  0
LINE
  5
6001
330
5282
100
AcDbEntity
  8
寸法線
 62
     0
370
    -2
100
AcDbLine
 10
-1999.000394489855
 20
-93.99445337688666
 30
0.0
 11
-1999.000394489855
 21
-164.2444533768866
 31
0.0
  0
LINE
  5
6002
330
5282
100
AcDbEntity
  8
寸法線
 62
     0
370
    -2
100
AcDbLine
 10
-1789.000394489855
 20
-93.99445337688666
 30
0.0
 11
-1789.000394489855
 21
-164.2444533768866
 31
0.0
  0
LINE
  5
6003
330
5282
100
AcDbEntity
  8
寸法線
 62
     0
370
    -2
100
AcDbLine
 10
-1984.000394489855
 20
-158.2444533768866
 30
0.0
 11
-1804.000394489855
 21
-158.2444533768866
 31
0.0
  0
INSERT
  5
6004
330
5282
100
AcDbEntity
  8
寸法線
 62
     0
370
    -2
100
AcDbBlockReference
  2
_OPEN
 10
-1999.000394489855
 20
-158.2444533768866
 30
0.0
 41
15.0
 42
15.0
 43
15.0
 50
180.0
  0
INSERT
  5
6005
330
5282
100
AcDbEntity
  8
寸法線
 62
     0
370
    -2
100
AcDbBlockReference
  2
_OPEN
 10
-1789.000394489855
 20
-158.2444533768866
 30
0.0
 41
15.0
 42
15.0
 43
15.0
  0
MTEXT
  5
6006
330
5282
100
AcDbEntity
  8
寸法線
 62
     0
100
AcDbMText
 10
-1894.000394489855
 20
-142.4923864477527
 30
0.0
 40
21.0
 41
0.0
 71
     5
 72
     1
  1
\A1;210
 73
     1
 44
1.0
1001
ACAD
1000
MTEXTBEGIN
1070
    73
1070
     1
1070
    44
1040
1.0
1070
    74
1070
     0
1000
MTEXTEND
  0
POINT
  5
6007
330
5282
100
AcDbEntity
  8
DEFPOINTS
 62
     0
100
AcDbPoint
 10
-1999.000394489855
 20
-88.74445337688667
 30
0.0
  0
POINT
  5
6008
330
5282
100
AcDbEntity
  8
DEFPOINTS
 62
     0
100
AcDbPoint
 10
-1789.000394489855
 20
-88.74445337688667
 30
0.0
  0
POINT
  5
6009
330
5282
100
AcDbEntity
  8
DEFPOINTS
 62
     0
100
AcDbPoint
 10
-1789.000394489855
 20
-158.2444533768866
 30
0.0
  0
ENDBLK
  5
528D
330
5282
100
AcDbEntity
  8
0
100
AcDbBlockEnd
  0
BLOCK
  5
5298
330
528E
100
AcDbEntity
  8
0
100
AcDbBlockBegin
  2
*D6
 70
     1
 10
0.0
 20
0.0
 30
0.0
  3
*D6
  1

  0
LINE
  5
600A
330
528E
100
AcDbEntity
  8
寸法線
 62
     0
370
    -2
100
AcDbLine
 10
-2029.0
 20
-73.49445337688667
 30
0.0
 11
-2029.0
 21
-164.2444533768866
 31
0.0
  0
LINE
  5
600B
330
528E
100
AcDbEntity
  8
寸法線
 62
     0
370
    -2
100
AcDbLine
 10
-1999.000394489855
 20
-93.99445337688666
 30
0.0
 11
-1999.000394489855
 21
-164.2444533768866
 31
0.0
  0
LINE
  5
600C
330
528E
100
AcDbEntity
  8
寸法線
 62
     0
370
    -2
100
AcDbLine
 10
-2044.0
 20
-158.2444533768866
 30
0.0
 11
-2059.0
 21
-158.2444533768866
 31
0.0
  0
LINE
  5
600D
330
528E
100
AcDbEntity
  8
寸法線
 62
     0
370
    -2
100
AcDbLine
 10
-1984.000394489855
 20
-158.2444533768866
 30
0.0
 11
-1969.000394489855
 21
-158.2444533768866
 31
0.0
  0
LINE
  5
600E
330
528E
100
AcDbEntity
  8
寸法線
 62
     0
370
    -2
100
AcDbLine
 10
-2029.0
 20
-158.2444533768866
 30
0.0
 11
-1999.000394489855
 21
-158.2444533768866
 31
0.0
  0
INSERT
  5
600F
330
528E
100
AcDbEntity
  8
寸法線
 62
     0
370
    -2
100
AcDbBlockReference
  2
_OPEN
 10
-2029.0
 20
-158.2444533768866
 30
0.0
 41
15.0
 42
15.0
 43
15.0
  0
INSERT
  5
6010
330
528E
100
AcDbEntity
  8
寸法線
 62
     0
370
    -2
100
AcDbBlockReference
  2
_OPEN
 10
-1999.000394489855
 20
-158.2444533768866
 30
0.0
 41
15.0
 42
15.0
 43
15.0
 50
180.0
  0
MTEXT
  5
6011
330
528E
100
AcDbEntity
  8
寸法線
 62
     0
100
AcDbMText
 10
-2014.000197244928
 20
-142.4944533768866
 30
0.0
 40
21.0
 41
0.0
 71
     5
 72
     1
  1
\A1;30
 73
     1
 44
1.0
1001
ACAD
1000
MTEXTBEGIN
1070
    73
1070
     1
1070
    44
1040
1.0
1070
    74
1070
     0
1000
MTEXTEND
  0
POINT
  5
6012
330
528E
100
AcDbEntity
  8
DEFPOINTS
 62
     0
100
AcDbPoint
 10
-2029.0
 20
-68.24445337688667
 30
0.0
  0
POINT
  5
6013
330
528E
100
AcDbEntity
  8
DEFPOINTS
 62
     0
100
AcDbPoint
 10
-1999.000394489855
 20
-88.74445337688667
 30
0.0
  0
POINT
  5
6014
330
528E
100
AcDbEntity
  8
DEFPOINTS
 62
     0
100
AcDbPoint
 10
-1999.000394489855
 20
-158.2444533768866
 30
0.0
  0
ENDBLK
  5
5299
330
528E
100
AcDbEntity
  8
0
100
AcDbBlockEnd
  0
BLOCK
  5
52A4
330
529A
100
AcDbEntity
  8
0
100
AcDbBlockBegin
  2
*D7
 70
     1
 10
0.0
 20
0.0
 30
0.0
  3
*D7
  1

  0
LINE
  5
5E81
330
529A
100
AcDbEntity
  8
寸法線
 62
     0
370
    -2
100
AcDbLine
 10
-2370.258795931178
 20
674.8233822082343
 30
0.0
 11
-2232.508795931178
 21
674.823382208234
 31
0.0
  0
LINE
  5
5E82
330
529A
100
AcDbEntity
  8
寸法線
 62
     0
370
    -2
100
AcDbLine
 10
-2370.258795931178
 20
774.8233822082343
 30
0.0
 11
-2232.508795931178
 21
774.8233822082339
 31
0.0
  0
LINE
  5
5E83
330
529A
100
AcDbEntity
  8
寸法線
 62
     0
370
    -2
100
AcDbLine
 10
-2238.508795931177
 20
689.8233822082342
 30
0.0
 11
-2238.508795931177
 21
759.8233822082343
 31
0.0
  0
INSERT
  5
5E84
330
529A
100
AcDbEntity
  8
寸法線
 62
     0
370
    -2
100
AcDbBlockReference
  2
_OPEN
 10
-2238.508795931177
 20
674.823382208234
 30
0.0
 41
15.0
 42
15.0
 43
15.0
 50
270.0
  0
INSERT
  5
5E85
330
529A
100
AcDbEntity
  8
寸法線
 62
     0
370
    -2
100
AcDbBlockReference
  2
_OPEN
 10
-2238.508795931177
 20
774.8233822082339
 30
0.0
 41
15.0
 42
15.0
 43
15.0
 50
90.0
  0
MTEXT
  5
5E86
330
529A
100
AcDbEntity
  8
寸法線
 62
     0
100
AcDbMText
 10
-2254.258795931177
 20
724.8233822082339
 30
0.0
 40
21.0
 41
0.0
 71
     5
 72
     1
  1
\A1;b
 11
0.0000000000000001
 21
1.0
 31
0.0
 73
     1
 44
1.0
1001
ACAD
1000
MTEXTBEGIN
1070
    73
1070
     1
1070
    44
1040
1.0
1070
    74
1070
     0
1000
MTEXTEND
  0
POINT
  5
5E87
330
529A
100
AcDbEntity
  8
DEFPOINTS
 62
     0
100
AcDbPoint
 10
-2375.508795931177
 20
674.8233822082343
 30
0.0
  0
POINT
  5
5E88
330
529A
100
AcDbEntity
  8
DEFPOINTS
 62
     0
100
AcDbPoint
 10
-2375.508795931177
 20
774.8233822082343
 30
0.0
  0
POINT
  5
5E89
330
529A
100
AcDbEntity
  8
DEFPOINTS
 62
     0
100
AcDbPoint
 10
-2238.508795931177
 20
774.8233822082339
 30
0.0
  0
ENDBLK
  5
52A5
330
529A
100
AcDbEntity
  8
0
100
AcDbBlockEnd
  0
BLOCK
  5
52C8
330
52BE
100
AcDbEntity
  8
0
100
AcDbBlockBegin
  2
*D10
 70
     1
 10
0.0
 20
0.0
 30
0.0
  3
*D10
  1

  0
LINE
  5
5E8A
330
52BE
100
AcDbEntity
  8
寸法線
 62
     0
370
    -2
100
AcDbLine
 10
-2580.508795931177
 20
584.5729999999997
 30
0.0
 11
-2580.508795931177
 21
453.8233822082343
 31
0.0
  0
LINE
  5
5E8B
330
52BE
100
AcDbEntity
  8
寸法線
 62
     0
370
    -2
100
AcDbLine
 10
-2310.508795931177
 20
584.5729999999997
 30
0.0
 11
-2310.508795931177
 21
453.8233822082343
 31
0.0
  0
LINE
  5
5E8C
330
52BE
100
AcDbEntity
  8
寸法線
 62
     0
370
    -2
100
AcDbLine
 10
-2565.508795931177
 20
459.8233822082343
 30
0.0
 11
-2325.508795931177
 21
459.8233822082343
 31
0.0
  0
INSERT
  5
5E8D
330
52BE
100
AcDbEntity
  8
寸法線
 62
     0
370
    -2
100
AcDbBlockReference
  2
_OPEN
 10
-2580.508795931177
 20
459.8233822082343
 30
0.0
 41
15.0
 42
15.0
 43
15.0
 50
180.0
  0
INSERT
  5
5E8E
330
52BE
100
AcDbEntity
  8
寸法線
 62
     0
370
    -2
100
AcDbBlockReference
  2
_OPEN
 10
-2310.508795931177
 20
459.8233822082343
 30
0.0
 41
15.0
 42
15.0
 43
15.0
  0
MTEXT
  5
5E8F
330
52BE
100
AcDbEntity
  8
寸法線
 62
     0
100
AcDbMText
 10
-2445.508795931177
 20
475.575449137368
 30
0.0
 40
21.0
 41
0.0
 71
     5
 72
     1
  1
\A1;270
 73
     1
 44
1.0
1001
ACAD
1000
MTEXTBEGIN
1070
    73
1070
     1
1070
    44
1040
1.0
1070
    74
1070
     0
1000
MTEXTEND
  0
POINT
  5
5E90
330
52BE
100
AcDbEntity
  8
DEFPOINTS
 62
     0
100
AcDbPoint
 10
-2580.508795931177
 20
589.8229999999997
 30
0.0
  0
POINT
  5
5E91
330
52BE
100
AcDbEntity
  8
DEFPOINTS
 62
     0
100
AcDbPoint
 10
-2310.508795931177
 20
589.8229999999997
 30
0.0
  0
POINT
  5
5E92
330
52BE
100
AcDbEntity
  8
DEFPOINTS
 62
     0
100
AcDbPoint
 10
-2310.508795931177
 20
459.8233822082343
 30
0.0
  0
ENDBLK
  5
52C9
330
52BE
100
AcDbEntity
  8
0
100
AcDbBlockEnd
  0
BLOCK
  5
52E0
330
52D6
100
AcDbEntity
  8
0
100
AcDbBlockBegin
  2
*D12
 70
     1
 10
0.0
 20
0.0
 30
0.0
  3
*D12
  1

  0
LINE
  5
5E93
330
52D6
100
AcDbEntity
  8
寸法線
 62
     0
370
    -2
100
AcDbLine
 10
-2495.508795931177
 20
649.5733822082343
 30
0.0
 11
-2495.508795931177
 21
501.8233822082343
 31
0.0
  0
LINE
  5
5E94
330
52D6
100
AcDbEntity
  8
寸法線
 62
     0
370
    -2
100
AcDbLine
 10
-2395.508795931178
 20
649.5733822082343
 30
0.0
 11
-2395.508795931178
 21
501.8233822082343
 31
0.0
  0
LINE
  5
5E95
330
52D6
100
AcDbEntity
  8
寸法線
 62
     0
370
    -2
100
AcDbLine
 10
-2480.508795931177
 20
507.8233822082343
 30
0.0
 11
-2410.508795931178
 21
507.8233822082343
 31
0.0
  0
INSERT
  5
5E96
330
52D6
100
AcDbEntity
  8
寸法線
 62
     0
370
    -2
100
AcDbBlockReference
  2
_OPEN
 10
-2495.508795931177
 20
507.8233822082343
 30
0.0
 41
15.0
 42
15.0
 43
15.0
 50
180.0
  0
INSERT
  5
5E97
330
52D6
100
AcDbEntity
  8
寸法線
 62
     0
370
    -2
100
AcDbBlockReference
  2
_OPEN
 10
-2395.508795931178
 20
507.8233822082343
 30
0.0
 41
15.0
 42
15.0
 43
15.0
  0
MTEXT
  5
5E98
330
52D6
100
AcDbEntity
  8
寸法線
 62
     0
100
AcDbMText
 10
-2445.508795931178
 20
523.5733822082343
 30
0.0
 40
21.0
 41
0.0
 71
     5
 72
     1
  1
\A1;a
 73
     1
 44
1.0
1001
ACAD
1000
MTEXTBEGIN
1070
    73
1070
     1
1070
    44
1040
1.0
1070
    74
1070
     0
1000
MTEXTEND
  0
POINT
  5
5E99
330
52D6
100
AcDbEntity
  8
DEFPOINTS
 62
     0
100
AcDbPoint
 10
-2495.508795931177
 20
654.8233822082343
 30
0.0
  0
POINT
  5
5E9A
330
52D6
100
AcDbEntity
  8
DEFPOINTS
 62
     0
100
AcDbPoint
 10
-2395.508795931178
 20
654.8233822082343
 30
0.0
  0
POINT
  5
5E9B
330
52D6
100
AcDbEntity
  8
DEFPOINTS
 62
     0
100
AcDbPoint
 10
-2395.508795931178
 20
507.8233822082343
 30
0.0
  0
ENDBLK
  5
52E1
330
52D6
100
AcDbEntity
  8
0
100
AcDbBlockEnd
  0
BLOCK
  5
5340
330
5336
100
AcDbEntity
  8
0
100
AcDbBlockBegin
  2
*D19
 70
     1
 10
0.0
 20
0.0
 30
0.0
  3
*D19
  1

  0
LINE
  5
5E9C
330
5336
100
AcDbEntity
  8
寸法線
 62
     0
370
    -2
100
AcDbLine
 10
-2305.258795931177
 20
589.8229999999997
 30
0.0
 11
-2184.508795931177
 21
589.8229999999996
 31
0.0
  0
LINE
  5
5E9D
330
5336
100
AcDbEntity
  8
寸法線
 62
     0
370
    -2
100
AcDbLine
 10
-2305.258795931177
 20
859.8229999999999
 30
0.0
 11
-2184.508795931177
 21
859.8229999999997
 31
0.0
  0
LINE
  5
5E9E
330
5336
100
AcDbEntity
  8
寸法線
 62
     0
370
    -2
100
AcDbLine
 10
-2190.508795931177
 20
604.8229999999996
 30
0.0
 11
-2190.508795931177
 21
844.8229999999997
 31
0.0
  0
INSERT
  5
5E9F
330
5336
100
AcDbEntity
  8
寸法線
 62
     0
370
    -2
100
AcDbBlockReference
  2
_OPEN
 10
-2190.508795931177
 20
589.8229999999996
 30
0.0
 41
15.0
 42
15.0
 43
15.0
 50
270.0
  0
INSERT
  5
5EA0
330
5336
100
AcDbEntity
  8
寸法線
 62
     0
370
    -2
100
AcDbBlockReference
  2
_OPEN
 10
-2190.508795931177
 20
859.8229999999997
 30
0.0
 41
15.0
 42
15.0
 43
15.0
 50
90.0
  0
MTEXT
  5
5EA1
330
5336
100
AcDbEntity
  8
寸法線
 62
     0
100
AcDbMText
 10
-2206.260862860311
 20
724.8229999999992
 30
0.0
 40
21.0
 41
0.0
 71
     5
 72
     1
  1
\A1;270
 11
0.0000000000000001
 21
1.0
 31
0.0
 73
     1
 44
1.0
1001
ACAD
1000
MTEXTBEGIN
1070
    73
1070
     1
1070
    44
1040
1.0
1070
    74
1070
     0
1000
MTEXTEND
  0
POINT
  5
5EA2
330
5336
100
AcDbEntity
  8
DEFPOINTS
 62
     0
100
AcDbPoint
 10
-2310.508795931177
 20
589.8229999999997
 30
0.0
  0
POINT
  5
5EA3
330
5336
100
AcDbEntity
  8
DEFPOINTS
 62
     0
100
AcDbPoint
 10
-2310.508795931177
 20
859.8229999999999
 30
0.0
  0
POINT
  5
5EA4
330
5336
100
AcDbEntity
  8
DEFPOINTS
 62
     0
100
AcDbPoint
 10
-2190.508795931177
 20
859.8229999999997
 30
0.0
  0
ENDBLK
  5
5341
330
5336
100
AcDbEntity
  8
0
100
AcDbBlockEnd
  0
BLOCK
  5
535C
330
534E
100
AcDbEntity
  8
0
100
AcDbBlockBegin
  2
*D21
 70
     1
 10
0.0
 20
0.0
 30
0.0
  3
*D21
  1

  0
LINE
  5
5D33
330
534E
100
AcDbEntity
  8
寸法線
 62
     0
370
    -2
100
AcDbLine
 10
-1673.164897106012
 20
574.5733822082343
 30
0.0
 11
-1673.164897106012
 21
453.8233822082343
 31
0.0
  0
LINE
  5
5D34
330
534E
100
AcDbEntity
  8
寸法線
 62
     0
370
    -2
100
AcDbLine
 10
-1661.164897106012
 20
574.5733822082343
 30
0.0
 11
-1661.164897106012
 21
453.8233822082343
 31
0.0
  0
LINE
  5
5D35
330
534E
100
AcDbEntity
  8
寸法線
 62
     0
370
    -2
100
AcDbLine
 10
-1688.164897106012
 20
459.8233822082343
 30
0.0
 11
-1703.164897106011
 21
459.8233822082343
 31
0.0
  0
LINE
  5
5D36
330
534E
100
AcDbEntity
  8
寸法線
 62
     0
370
    -2
100
AcDbLine
 10
-1646.164897106012
 20
459.8233822082343
 30
0.0
 11
-1631.164897106012
 21
459.8233822082343
 31
0.0
  0
LINE
  5
5D37
330
534E
100
AcDbEntity
  8
寸法線
 62
     0
370
    -2
100
AcDbLine
 10
-1673.164897106012
 20
459.8233822082343
 30
0.0
 11
-1661.164897106012
 21
459.8233822082343
 31
0.0
  0
INSERT
  5
5D38
330
534E
100
AcDbEntity
  8
寸法線
 62
     0
370
    -2
100
AcDbBlockReference
  2
_OPEN
 10
-1673.164897106012
 20
459.8233822082343
 30
0.0
 41
15.0
 42
15.0
 43
15.0
  0
INSERT
  5
5D39
330
534E
100
AcDbEntity
  8
寸法線
 62
     0
370
    -2
100
AcDbBlockReference
  2
_OPEN
 10
-1661.164897106012
 20
459.8233822082343
 30
0.0
 41
15.0
 42
15.0
 43
15.0
 50
180.0
  0
MTEXT
  5
5D3A
330
534E
100
AcDbEntity
  8
寸法線
 62
     0
100
AcDbMText
 10
-1667.164897106012
 20
475.575449137368
 30
0.0
 40
21.0
 41
0.0
 71
     5
 72
     1
  1
\A1;12
 73
     1
 44
1.0
1001
ACAD
1000
MTEXTBEGIN
1070
    73
1070
     1
1070
    44
1040
1.0
1070
    74
1070
     0
1000
MTEXTEND
  0
POINT
  5
5D3B
330
534E
100
AcDbEntity
  8
DEFPOINTS
 62
     0
100
AcDbPoint
 10
-1673.164897106012
 20
579.8233822082343
 30
0.0
  0
POINT
  5
5D3C
330
534E
100
AcDbEntity
  8
DEFPOINTS
 62
     0
100
AcDbPoint
 10
-1661.164897106012
 20
579.8233822082343
 30
0.0
  0
POINT
  5
5D3D
330
534E
100
AcDbEntity
  8
DEFPOINTS
 62
     0
100
AcDbPoint
 10
-1661.164897106012
 20
459.8233822082343
 30
0.0
  0
ENDBLK
  5
535D
330
534E
100
AcDbEntity
  8
0
100
AcDbBlockEnd
  0
BLOCK
  5
536C
330
535E
100
AcDbEntity
  8
0
100
AcDbBlockBegin
  2
*D22
 70
     1
 10
0.0
 20
0.0
 30
0.0
  3
*D22
  1

  0
LINE
  5
5D3E
330
535E
100
AcDbEntity
  8
寸法線
 62
     0
370
    -2
100
AcDbLine
 10
-1869.164897106012
 20
584.5729999999997
 30
0.0
 11
-1869.164897106012
 21
453.8233822082343
 31
0.0
  0
LINE
  5
5D3F
330
535E
100
AcDbEntity
  8
寸法線
 62
     0
370
    -2
100
AcDbLine
 10
-1857.164897106012
 20
584.5729999999997
 30
0.0
 11
-1857.164897106012
 21
453.8233822082343
 31
0.0
  0
LINE
  5
5D40
330
535E
100
AcDbEntity
  8
寸法線
 62
     0
370
    -2
100
AcDbLine
 10
-1884.164897106012
 20
459.8233822082343
 30
0.0
 11
-1899.164897106012
 21
459.8233822082343
 31
0.0
  0
LINE
  5
5D41
330
535E
100
AcDbEntity
  8
寸法線
 62
     0
370
    -2
100
AcDbLine
 10
-1842.164897106012
 20
459.8233822082343
 30
0.0
 11
-1827.164897106012
 21
459.8233822082343
 31
0.0
  0
LINE
  5
5D42
330
535E
100
AcDbEntity
  8
寸法線
 62
     0
370
    -2
100
AcDbLine
 10
-1869.164897106012
 20
459.8233822082343
 30
0.0
 11
-1857.164897106012
 21
459.8233822082343
 31
0.0
  0
INSERT
  5
5D43
330
535E
100
AcDbEntity
  8
寸法線
 62
     0
370
    -2
100
AcDbBlockReference
  2
_OPEN
 10
-1869.164897106012
 20
459.8233822082343
 30
0.0
 41
15.0
 42
15.0
 43
15.0
  0
INSERT
  5
5D44
330
535E
100
AcDbEntity
  8
寸法線
 62
     0
370
    -2
100
AcDbBlockReference
  2
_OPEN
 10
-1857.164897106012
 20
459.8233822082343
 30
0.0
 41
15.0
 42
15.0
 43
15.0
 50
180.0
  0
MTEXT
  5
5D45
330
535E
100
AcDbEntity
  8
寸法線
 62
     0
100
AcDbMText
 10
-1863.164897106012
 20
475.575449137368
 30
0.0
 40
21.0
 41
0.0
 71
     5
 72
     1
  1
\A1;12
 73
     1
 44
1.0
1001
ACAD
1000
MTEXTBEGIN
1070
    73
1070
     1
1070
    44
1040
1.0
1070
    74
1070
     0
1000
MTEXTEND
  0
POINT
  5
5D46
330
535E
100
AcDbEntity
  8
DEFPOINTS
 62
     0
100
AcDbPoint
 10
-1869.164897106012
 20
589.8229999999997
 30
0.0
  0
POINT
  5
5D47
330
535E
100
AcDbEntity
  8
DEFPOINTS
 62
     0
100
AcDbPoint
 10
-1857.164897106012
 20
589.8229999999997
 30
0.0
  0
POINT
  5
5D48
330
535E
100
AcDbEntity
  8
DEFPOINTS
 62
     0
100
AcDbPoint
 10
-1857.164897106012
 20
459.8233822082343
 30
0.0
  0
ENDBLK
  5
536D
330
535E
100
AcDbEntity
  8
0
100
AcDbBlockEnd
  0
BLOCK
  5
5378
330
536E
100
AcDbEntity
  8
0
100
AcDbBlockBegin
  2
*D23
 70
     1
 10
0.0
 20
0.0
 30
0.0
  3
*D23
  1

  0
LINE
  5
5D2A
330
536E
100
AcDbEntity
  8
寸法線
 62
     0
370
    -2
100
AcDbLine
 10
-1857.164897106012
 20
564.5733822082343
 30
0.0
 11
-1857.164897106012
 21
453.8233822082343
 31
0.0
  0
LINE
  5
5D2B
330
536E
100
AcDbEntity
  8
寸法線
 62
     0
370
    -2
100
AcDbLine
 10
-1673.164897106012
 20
574.5733822082343
 30
0.0
 11
-1673.164897106012
 21
453.8233822082343
 31
0.0
  0
LINE
  5
5D2C
330
536E
100
AcDbEntity
  8
寸法線
 62
     0
370
    -2
100
AcDbLine
 10
-1842.164897106012
 20
459.8233822082343
 30
0.0
 11
-1688.164897106012
 21
459.8233822082343
 31
0.0
  0
INSERT
  5
5D2D
330
536E
100
AcDbEntity
  8
寸法線
 62
     0
370
    -2
100
AcDbBlockReference
  2
_OPEN
 10
-1857.164897106012
 20
459.8233822082343
 30
0.0
 41
15.0
 42
15.0
 43
15.0
 50
180.0
  0
INSERT
  5
5D2E
330
536E
100
AcDbEntity
  8
寸法線
 62
     0
370
    -2
100
AcDbBlockReference
  2
_OPEN
 10
-1673.164897106012
 20
459.8233822082343
 30
0.0
 41
15.0
 42
15.0
 43
15.0
  0
MTEXT
  5
5D2F
330
536E
100
AcDbEntity
  8
寸法線
 62
     0
100
AcDbMText
 10
-1765.164897106012
 20
475.5733822082341
 30
0.0
 40
21.0
 41
0.0
 71
     5
 72
     1
  1
\A1;184
 73
     1
 44
1.0
1001
ACAD
1000
MTEXTBEGIN
1070
    73
1070
     1
1070
    44
1040
1.0
1070
    74
1070
     0
1000
MTEXTEND
  0
POINT
  5
5D30
330
536E
100
AcDbEntity
  8
DEFPOINTS
 62
     0
100
AcDbPoint
 10
-1857.164897106012
 20
569.8233822082342
 30
0.0
  0
POINT
  5
5D31
330
536E
100
AcDbEntity
  8
DEFPOINTS
 62
     0
100
AcDbPoint
 10
-1673.164897106012
 20
579.8233822082343
 30
0.0
  0
POINT
  5
5D32
330
536E
100
AcDbEntity
  8
DEFPOINTS
 62
     0
100
AcDbPoint
 10
-1673.164897106012
 20
459.8233822082343
 30
0.0
  0
ENDBLK
  5
5379
330
536E
100
AcDbEntity
  8
0
100
AcDbBlockEnd
  0
BLOCK
  5
5384
330
537A
100
AcDbEntity
  8
0
100
AcDbBlockBegin
  2
*D24
 70
     1
 10
0.0
 20
0.0
 30
0.0
  3
*D24
  1

  0
LINE
  5
5D63
330
537A
100
AcDbEntity
  8
寸法線
 62
     0
370
    -2
100
AcDbLine
 10
-1869.164897106012
 20
584.5733822082343
 30
0.0
 11
-1869.164897106012
 21
405.8233822082343
 31
0.0
  0
LINE
  5
5D64
330
537A
100
AcDbEntity
  8
寸法線
 62
     0
370
    -2
100
AcDbLine
 10
-1661.164897106012
 20
574.5733822082343
 30
0.0
 11
-1661.164897106012
 21
405.8233822082343
 31
0.0
  0
LINE
  5
5D65
330
537A
100
AcDbEntity
  8
寸法線
 62
     0
370
    -2
100
AcDbLine
 10
-1854.164897106012
 20
411.8233822082343
 30
0.0
 11
-1676.164897106012
 21
411.8233822082343
 31
0.0
  0
INSERT
  5
5D66
330
537A
100
AcDbEntity
  8
寸法線
 62
     0
370
    -2
100
AcDbBlockReference
  2
_OPEN
 10
-1869.164897106012
 20
411.8233822082343
 30
0.0
 41
15.0
 42
15.0
 43
15.0
 50
180.0
  0
INSERT
  5
5D67
330
537A
100
AcDbEntity
  8
寸法線
 62
     0
370
    -2
100
AcDbBlockReference
  2
_OPEN
 10
-1661.164897106012
 20
411.8233822082343
 30
0.0
 41
15.0
 42
15.0
 43
15.0
  0
MTEXT
  5
5D68
330
537A
100
AcDbEntity
  8
寸法線
 62
     0
100
AcDbMText
 10
-1765.164897106012
 20
427.5754491373681
 30
0.0
 40
21.0
 41
0.0
 71
     5
 72
     1
  1
\A1;208
 73
     1
 44
1.0
1001
ACAD
1000
MTEXTBEGIN
1070
    73
1070
     1
1070
    44
1040
1.0
1070
    74
1070
     0
1000
MTEXTEND
  0
POINT
  5
5D69
330
537A
100
AcDbEntity
  8
DEFPOINTS
 62
     0
100
AcDbPoint
 10
-1869.164897106012
 20
589.8233822082342
 30
0.0
  0
POINT
  5
5D6A
330
537A
100
AcDbEntity
  8
DEFPOINTS
 62
     0
100
AcDbPoint
 10
-1661.164897106012
 20
579.8233822082343
 30
0.0
  0
POINT
  5
5D6B
330
537A
100
AcDbEntity
  8
DEFPOINTS
 62
     0
100
AcDbPoint
 10
-1661.164897106012
 20
411.8233822082343
 30
0.0
  0
ENDBLK
  5
5385
330
537A
100
AcDbEntity
  8
0
100
AcDbBlockEnd
  0
BLOCK
  5
5390
330
5386
100
AcDbEntity
  8
0
100
AcDbBlockBegin
  2
*D25
 70
     1
 10
0.0
 20
0.0
 30
0.0
  3
*D25
  1

  0
LINE
  5
5D16
330
5386
100
AcDbEntity
  8
寸法線
 62
     0
370
    -2
100
AcDbLine
 10
-1832.164897106012
 20
593.5733822082343
 30
0.0
 11
-1832.164897106012
 21
501.8233822082343
 31
0.0
  0
LINE
  5
5D17
330
5386
100
AcDbEntity
  8
寸法線
 62
     0
370
    -2
100
AcDbLine
 10
-1673.164897106012
 20
574.5733822082343
 30
0.0
 11
-1673.164897106012
 21
501.8233822082343
 31
0.0
  0
LINE
  5
5D18
330
5386
100
AcDbEntity
  8
寸法線
 62
     0
370
    -2
100
AcDbLine
 10
-1817.164897106012
 20
507.8233822082343
 30
0.0
 11
-1688.164897106012
 21
507.8233822082343
 31
0.0
  0
INSERT
  5
5D19
330
5386
100
AcDbEntity
  8
寸法線
 62
     0
370
    -2
100
AcDbBlockReference
  2
_OPEN
 10
-1832.164897106012
 20
507.8233822082343
 30
0.0
 41
15.0
 42
15.0
 43
15.0
 50
180.0
  0
INSERT
  5
5D1A
330
5386
100
AcDbEntity
  8
寸法線
 62
     0
370
    -2
100
AcDbBlockReference
  2
_OPEN
 10
-1673.164897106012
 20
507.8233822082343
 30
0.0
 41
15.0
 42
15.0
 43
15.0
  0
MTEXT
  5
5D1B
330
5386
100
AcDbEntity
  8
寸法線
 62
     0
100
AcDbMText
 10
-1752.664897106012
 20
523.5733822082343
 30
0.0
 40
21.0
 41
0.0
 71
     5
 72
     1
  1
\A1;159
 73
     1
 44
1.0
1001
ACAD
1000
MTEXTBEGIN
1070
    73
1070
     1
1070
    44
1040
1.0
1070
    74
1070
     0
1000
MTEXTEND
  0
POINT
  5
5D1C
330
5386
100
AcDbEntity
  8
DEFPOINTS
 62
     0
100
AcDbPoint
 10
-1832.164897106012
 20
598.8233822082342
 30
0.0
  0
POINT
  5
5D1D
330
5386
100
AcDbEntity
  8
DEFPOINTS
 62
     0
100
AcDbPoint
 10
-1673.164897106012
 20
579.8233822082343
 30
0.0
  0
POINT
  5
5D1E
330
5386
100
AcDbEntity
  8
DEFPOINTS
 62
     0
100
AcDbPoint
 10
-1673.164897106012
 20
507.8233822082343
 30
0.0
  0
ENDBLK
  5
5391
330
5386
100
AcDbEntity
  8
0
100
AcDbBlockEnd
  0
BLOCK
  5
539E
330
5392
100
AcDbEntity
  8
0
100
AcDbBlockBegin
  2
*D26
 70
     1
 10
0.0
 20
0.0
 30
0.0
  3
*D26
  1

  0
LINE
  5
5D1F
330
5392
100
AcDbEntity
  8
寸法線
 62
     0
370
    -2
100
AcDbLine
 10
-1857.164897106012
 20
584.5733822082343
 30
0.0
 11
-1857.164897106012
 21
501.8233822082343
 31
0.0
  0
LINE
  5
5D20
330
5392
100
AcDbEntity
  8
寸法線
 62
     0
370
    -2
100
AcDbLine
 10
-1832.164897106012
 20
593.5733822082343
 30
0.0
 11
-1832.164897106012
 21
501.8233822082343
 31
0.0
  0
LINE
  5
5D21
330
5392
100
AcDbEntity
  8
寸法線
 62
     0
370
    -2
100
AcDbLine
 10
-1872.164897106012
 20
507.8233822082343
 30
0.0
 11
-1887.164897106012
 21
507.8233822082343
 31
0.0
  0
LINE
  5
5D22
330
5392
100
AcDbEntity
  8
寸法線
 62
     0
370
    -2
100
AcDbLine
 10
-1817.164897106012
 20
507.8233822082343
 30
0.0
 11
-1802.164897106012
 21
507.8233822082343
 31
0.0
  0
LINE
  5
5D23
330
5392
100
AcDbEntity
  8
寸法線
 62
     0
370
    -2
100
AcDbLine
 10
-1857.164897106012
 20
507.8233822082343
 30
0.0
 11
-1832.164897106012
 21
507.8233822082343
 31
0.0
  0
INSERT
  5
5D24
330
5392
100
AcDbEntity
  8
寸法線
 62
     0
370
    -2
100
AcDbBlockReference
  2
_OPEN
 10
-1857.164897106012
 20
507.8233822082343
 30
0.0
 41
15.0
 42
15.0
 43
15.0
  0
INSERT
  5
5D25
330
5392
100
AcDbEntity
  8
寸法線
 62
     0
370
    -2
100
AcDbBlockReference
  2
_OPEN
 10
-1832.164897106012
 20
507.8233822082343
 30
0.0
 41
15.0
 42
15.0
 43
15.0
 50
180.0
  0
MTEXT
  5
5D26
330
5392
100
AcDbEntity
  8
寸法線
 62
     0
100
AcDbMText
 10
-1844.664897106012
 20
523.5754491373682
 30
0.0
 40
21.0
 41
0.0
 71
     5
 72
     1
  1
\A1;25
 73
     1
 44
1.0
1001
ACAD
1000
MTEXTBEGIN
1070
    73
1070
     1
1070
    44
1040
1.0
1070
    74
1070
     0
1000
MTEXTEND
  0
POINT
  5
5D27
330
5392
100
AcDbEntity
  8
DEFPOINTS
 62
     0
100
AcDbPoint
 10
-1857.164897106012
 20
589.8233822082342
 30
0.0
  0
POINT
  5
5D28
330
5392
100
AcDbEntity
  8
DEFPOINTS
 62
     0
100
AcDbPoint
 10
-1832.164897106012
 20
598.8233822082342
 30
0.0
  0
POINT
  5
5D29
330
5392
100
AcDbEntity
  8
DEFPOINTS
 62
     0
100
AcDbPoint
 10
-1832.164897106012
 20
507.8233822082343
 30
0.0
  0
ENDBLK
  5
539F
330
5392
100
AcDbEntity
  8
0
100
AcDbBlockEnd
  0
BLOCK
  5
53D4
330
53CA
100
AcDbEntity
  8
0
100
AcDbBlockBegin
  2
*D30
 70
     1
 10
0.0
 20
0.0
 30
0.0
  3
*D30
  1

  0
LINE
  5
5D0D
330
53CA
100
AcDbEntity
  8
寸法線
 62
     0
370
    -2
100
AcDbLine
 10
-1709.914897106012
 20
808.8233822082342
 30
0.0
 11
-1709.164897106012
 21
808.8233822082342
 31
0.0
  0
LINE
  5
5D0E
330
53CA
100
AcDbEntity
  8
寸法線
 62
     0
370
    -2
100
AcDbLine
 10
-1709.914897106012
 20
850.8233822082342
 30
0.0
 11
-1709.164897106012
 21
850.8233822082342
 31
0.0
  0
LINE
  5
5D0F
330
53CA
100
AcDbEntity
  8
寸法線
 62
     0
370
    -2
100
AcDbLine
 10
-1715.164897106012
 20
823.8233822082342
 30
0.0
 11
-1715.164897106012
 21
835.8233822082343
 31
0.0
  0
INSERT
  5
5D10
330
53CA
100
AcDbEntity
  8
寸法線
 62
     0
370
    -2
100
AcDbBlockReference
  2
_OPEN
 10
-1715.164897106012
 20
808.8233822082342
 30
0.0
 41
15.0
 42
15.0
 43
15.0
 50
270.0
  0
INSERT
  5
5D11
330
53CA
100
AcDbEntity
  8
寸法線
 62
     0
370
    -2
100
AcDbBlockReference
  2
_OPEN
 10
-1715.164897106012
 20
850.8233822082342
 30
0.0
 41
15.0
 42
15.0
 43
15.0
 50
90.0
  0
MTEXT
  5
5D12
330
53CA
100
AcDbEntity
  8
寸法線
 62
     0
100
AcDbMText
 10
-1730.916964035146
 20
829.8233822082341
 30
0.0
 40
21.0
 41
0.0
 71
     5
 72
     1
  1
\A1;%%C42
 11
0.0000000000000001
 21
1.0
 31
0.0
 73
     1
 44
1.0
1001
ACAD
1000
MTEXTBEGIN
1070
    73
1070
     1
1070
    44
1040
1.0
1070
    74
1070
     0
1000
MTEXTEND
  0
POINT
  5
5D13
330
53CA
100
AcDbEntity
  8
DEFPOINTS
 62
     0
100
AcDbPoint
 10
-1715.164897106012
 20
808.8233822082342
 30
0.0
  0
POINT
  5
5D14
330
53CA
100
AcDbEntity
  8
DEFPOINTS
 62
     0
100
AcDbPoint
 10
-1715.164897106012
 20
850.8233822082342
 30
0.0
  0
POINT
  5
5D15
330
53CA
100
AcDbEntity
  8
DEFPOINTS
 62
     0
100
AcDbPoint
 10
-1715.164897106012
 20
850.8233822082342
 30
0.0
  0
ENDBLK
  5
53D5
330
53CA
100
AcDbEntity
  8
0
100
AcDbBlockEnd
  0
BLOCK
  5
53E0
330
53D6
100
AcDbEntity
  8
0
100
AcDbBlockBegin
  2
*D31
 70
     1
 10
0.0
 20
0.0
 30
0.0
  3
*D31
  1

  0
LINE
  5
5AD8
330
53D6
100
AcDbEntity
  8
寸法線
 62
     0
370
    -2
100
AcDbLine
 10
-1268.395
 20
574.5733822082343
 30
0.0
 11
-1268.395
 21
453.8233822082343
 31
0.0
  0
LINE
  5
5AD9
330
53D6
100
AcDbEntity
  8
寸法線
 62
     0
370
    -2
100
AcDbLine
 10
-978.3950006787463
 20
574.5733822082343
 30
0.0
 11
-978.3950006787463
 21
453.8233822082343
 31
0.0
  0
LINE
  5
5ADA
330
53D6
100
AcDbEntity
  8
寸法線
 62
     0
370
    -2
100
AcDbLine
 10
-1253.395
 20
459.8233822082343
 30
0.0
 11
-993.3950006787464
 21
459.8233822082343
 31
0.0
  0
INSERT
  5
5ADB
330
53D6
100
AcDbEntity
  8
寸法線
 62
     0
370
    -2
100
AcDbBlockReference
  2
_OPEN
 10
-1268.395
 20
459.8233822082343
 30
0.0
 41
15.0
 42
15.0
 43
15.0
 50
180.0
  0
INSERT
  5
5ADC
330
53D6
100
AcDbEntity
  8
寸法線
 62
     0
370
    -2
100
AcDbBlockReference
  2
_OPEN
 10
-978.3950006787463
 20
459.8233822082343
 30
0.0
 41
15.0
 42
15.0
 43
15.0
  0
MTEXT
  5
5ADD
330
53D6
100
AcDbEntity
  8
寸法線
 62
     0
100
AcDbMText
 10
-1123.395000339373
 20
475.575449137368
 30
0.0
 40
21.0
 41
0.0
 71
     5
 72
     1
  1
\A1;290
 73
     1
 44
1.0
1001
ACAD
1000
MTEXTBEGIN
1070
    73
1070
     1
1070
    44
1040
1.0
1070
    74
1070
     0
1000
MTEXTEND
  0
POINT
  5
5ADE
330
53D6
100
AcDbEntity
  8
DEFPOINTS
 62
     0
100
AcDbPoint
 10
-1268.395
 20
579.8233822082343
 30
0.0
  0
POINT
  5
5ADF
330
53D6
100
AcDbEntity
  8
DEFPOINTS
 62
     0
100
AcDbPoint
 10
-978.3950006787463
 20
579.8233822082343
 30
0.0
  0
POINT
  5
5AE0
330
53D6
100
AcDbEntity
  8
DEFPOINTS
 62
     0
100
AcDbPoint
 10
-978.3950006787463
 20
459.8233822082343
 30
0.0
  0
ENDBLK
  5
53E1
330
53D6
100
AcDbEntity
  8
0
100
AcDbBlockEnd
  0
BLOCK
  5
53EC
330
53E2
100
AcDbEntity
  8
0
100
AcDbBlockBegin
  2
*D32
 70
     1
 10
0.0
 20
0.0
 30
0.0
  3
*D32
  1

  0
LINE
  5
5A85
330
53E2
100
AcDbEntity
  8
寸法線
 62
     0
370
    -2
100
AcDbLine
 10
-1193.395000678746
 20
625.5733822082342
 30
0.0
 11
-1193.395000678746
 21
501.8233822082343
 31
0.0
  0
LINE
  5
5A86
330
53E2
100
AcDbEntity
  8
寸法線
 62
     0
370
    -2
100
AcDbLine
 10
-1053.395000678746
 20
625.5733822082342
 30
0.0
 11
-1053.395000678746
 21
501.8233822082343
 31
0.0
  0
LINE
  5
5A87
330
53E2
100
AcDbEntity
  8
寸法線
 62
     0
370
    -2
100
AcDbLine
 10
-1178.395000678746
 20
507.8233822082343
 30
0.0
 11
-1068.395000678746
 21
507.8233822082343
 31
0.0
  0
INSERT
  5
5A88
330
53E2
100
AcDbEntity
  8
寸法線
 62
     0
370
    -2
100
AcDbBlockReference
  2
_OPEN
 10
-1193.395000678746
 20
507.8233822082343
 30
0.0
 41
15.0
 42
15.0
 43
15.0
 50
180.0
  0
INSERT
  5
5A89
330
53E2
100
AcDbEntity
  8
寸法線
 62
     0
370
    -2
100
AcDbBlockReference
  2
_OPEN
 10
-1053.395000678746
 20
507.8233822082343
 30
0.0
 41
15.0
 42
15.0
 43
15.0
  0
MTEXT
  5
5A8A
330
53E2
100
AcDbEntity
  8
寸法線
 62
     0
100
AcDbMText
 10
-1123.395000678746
 20
523.5733822082343
 30
0.0
 40
21.0
 41
0.0
 71
     5
 72
     1
  1
\A1;140
 73
     1
 44
1.0
1001
ACAD
1000
MTEXTBEGIN
1070
    73
1070
     1
1070
    44
1040
1.0
1070
    74
1070
     0
1000
MTEXTEND
  0
POINT
  5
5A8B
330
53E2
100
AcDbEntity
  8
DEFPOINTS
 62
     0
100
AcDbPoint
 10
-1193.395000678746
 20
630.8233822082343
 30
0.0
  0
POINT
  5
5A8C
330
53E2
100
AcDbEntity
  8
DEFPOINTS
 62
     0
100
AcDbPoint
 10
-1053.395000678746
 20
630.8233822082343
 30
0.0
  0
POINT
  5
5A8D
330
53E2
100
AcDbEntity
  8
DEFPOINTS
 62
     0
100
AcDbPoint
 10
-1053.395000678746
 20
507.8233822082343
 30
0.0
  0
ENDBLK
  5
53ED
330
53E2
100
AcDbEntity
  8
0
100
AcDbBlockEnd
  0
BLOCK
  5
5404
330
53FA
100
AcDbEntity
  8
0
100
AcDbBlockBegin
  2
*D34
 70
     1
 10
0.0
 20
0.0
 30
0.0
  3
*D34
  1

  0
LINE
  5
5F4B
330
53FA
100
AcDbEntity
  8
寸法線
 62
     0
370
    -2
100
AcDbLine
 10
-1284.145000678746
 20
619.8233822082344
 30
0.0
 11
-1322.395000678746
 21
619.8233822082344
 31
0.0
  0
LINE
  5
5F4C
330
53FA
100
AcDbEntity
  8
寸法線
 62
     0
370
    -2
100
AcDbLine
 10
-1284.145000678746
 20
829.8233822082345
 30
0.0
 11
-1322.395000678746
 21
829.8233822082345
 31
0.0
  0
LINE
  5
5F4D
330
53FA
100
AcDbEntity
  8
寸法線
 62
     0
370
    -2
100
AcDbLine
 10
-1316.395000678746
 20
634.8233822082343
 30
0.0
 11
-1316.395000678746
 21
814.8233822082344
 31
0.0
  0
INSERT
  5
5F4E
330
53FA
100
AcDbEntity
  8
寸法線
 62
     0
370
    -2
100
AcDbBlockReference
  2
_OPEN
 10
-1316.395000678746
 20
619.8233822082344
 30
0.0
 41
15.0
 42
15.0
 43
15.0
 50
270.0
  0
INSERT
  5
5F4F
330
53FA
100
AcDbEntity
  8
寸法線
 62
     0
370
    -2
100
AcDbBlockReference
  2
_OPEN
 10
-1316.395000678746
 20
829.8233822082345
 30
0.0
 41
15.0
 42
15.0
 43
15.0
 50
90.0
  0
MTEXT
  5
5F50
330
53FA
100
AcDbEntity
  8
寸法線
 62
     0
100
AcDbMText
 10
-1332.14706760788
 20
724.8233822082339
 30
0.0
 40
21.0
 41
0.0
 71
     5
 72
     1
  1
\A1;210
 11
0.0000000000000001
 21
1.0
 31
0.0
 73
     1
 44
1.0
1001
ACAD
1000
MTEXTBEGIN
1070
    73
1070
     1
1070
    44
1040
1.0
1070
    74
1070
     0
1000
MTEXTEND
  0
POINT
  5
5F51
330
53FA
100
AcDbEntity
  8
DEFPOINTS
 62
     0
100
AcDbPoint
 10
-1278.895000678746
 20
619.8233822082343
 30
0.0
  0
POINT
  5
5F52
330
53FA
100
AcDbEntity
  8
DEFPOINTS
 62
     0
100
AcDbPoint
 10
-1278.895000678746
 20
829.8233822082343
 30
0.0
  0
POINT
  5
5F53
330
53FA
100
AcDbEntity
  8
DEFPOINTS
 62
     0
100
AcDbPoint
 10
-1316.395000678746
 20
829.8233822082345
 30
0.0
  0
ENDBLK
  5
5405
330
53FA
100
AcDbEntity
  8
0
100
AcDbBlockEnd
  0
BLOCK
  5
5412
330
5406
100
AcDbEntity
  8
0
100
AcDbBlockBegin
  2
*D35
 70
     1
 10
0.0
 20
0.0
 30
0.0
  3
*D35
  1

  0
LINE
  5
5AB2
330
5406
100
AcDbEntity
  8
寸法線
 62
     0
370
    -2
100
AcDbLine
 10
-1268.395
 20
574.5733822082343
 30
0.0
 11
-1268.395
 21
501.8233822082343
 31
0.0
  0
LINE
  5
5AB3
330
5406
100
AcDbEntity
  8
寸法線
 62
     0
370
    -2
100
AcDbLine
 10
-1193.395000678746
 20
625.5733822082342
 30
0.0
 11
-1193.395000678746
 21
501.8233822082343
 31
0.0
  0
LINE
  5
5AB4
330
5406
100
AcDbEntity
  8
寸法線
 62
     0
370
    -2
100
AcDbLine
 10
-1253.395
 20
507.8233822082343
 30
0.0
 11
-1208.395000678746
 21
507.8233822082343
 31
0.0
  0
INSERT
  5
5AB5
330
5406
100
AcDbEntity
  8
寸法線
 62
     0
370
    -2
100
AcDbBlockReference
  2
_OPEN
 10
-1268.395
 20
507.8233822082343
 30
0.0
 41
15.0
 42
15.0
 43
15.0
 50
180.0
  0
INSERT
  5
5AB6
330
5406
100
AcDbEntity
  8
寸法線
 62
     0
370
    -2
100
AcDbBlockReference
  2
_OPEN
 10
-1193.395000678746
 20
507.8233822082343
 30
0.0
 41
15.0
 42
15.0
 43
15.0
  0
MTEXT
  5
5AB7
330
5406
100
AcDbEntity
  8
寸法線
 62
     0
100
AcDbMText
 10
-1230.895000339373
 20
523.5733822082343
 30
0.0
 40
21.0
 41
0.0
 71
     5
 72
     1
  1
\A1;75
 73
     1
 44
1.0
1001
ACAD
1000
MTEXTBEGIN
1070
    73
1070
     1
1070
    44
1040
1.0
1070
    74
1070
     0
1000
MTEXTEND
  0
POINT
  5
5AB8
330
5406
100
AcDbEntity
  8
DEFPOINTS
 62
     0
100
AcDbPoint
 10
-1268.395
 20
579.8233822082343
 30
0.0
  0
POINT
  5
5AB9
330
5406
100
AcDbEntity
  8
DEFPOINTS
 62
     0
100
AcDbPoint
 10
-1193.395000678746
 20
630.8233822082343
 30
0.0
  0
POINT
  5
5ABA
330
5406
100
AcDbEntity
  8
DEFPOINTS
 62
     0
100
AcDbPoint
 10
-1193.395000678746
 20
507.8233822082343
 30
0.0
  0
ENDBLK
  5
5413
330
5406
100
AcDbEntity
  8
0
100
AcDbBlockEnd
  0
BLOCK
  5
5420
330
5414
100
AcDbEntity
  8
0
100
AcDbBlockBegin
  2
*D36
 70
     1
 10
0.0
 20
0.0
 30
0.0
  3
*D36
  1

  0
LINE
  5
5F23
330
5414
100
AcDbEntity
  8
寸法線
 62
     0
370
    -2
100
AcDbLine
 10
-1273.645
 20
579.8233822082343
 30
0.0
 11
-1322.395000678747
 21
579.8233822082344
 31
0.0
  0
LINE
  5
5F24
330
5414
100
AcDbEntity
  8
寸法線
 62
     0
370
    -2
100
AcDbLine
 10
-1284.145000678746
 20
619.8233822082344
 30
0.0
 11
-1322.395000678747
 21
619.8233822082344
 31
0.0
  0
LINE
  5
5F25
330
5414
100
AcDbEntity
  8
寸法線
 62
     0
370
    -2
100
AcDbLine
 10
-1316.395000678747
 20
564.8233822082344
 30
0.0
 11
-1316.395000678747
 21
549.8233822082344
 31
0.0
  0
LINE
  5
5F26
330
5414
100
AcDbEntity
  8
寸法線
 62
     0
370
    -2
100
AcDbLine
 10
-1316.395000678747
 20
634.8233822082343
 30
0.0
 11
-1316.395000678747
 21
649.8233822082344
 31
0.0
  0
LINE
  5
5F27
330
5414
100
AcDbEntity
  8
寸法線
 62
     0
370
    -2
100
AcDbLine
 10
-1316.395000678747
 20
579.8233822082344
 30
0.0
 11
-1316.395000678747
 21
619.8233822082344
 31
0.0
  0
INSERT
  5
5F28
330
5414
100
AcDbEntity
  8
寸法線
 62
     0
370
    -2
100
AcDbBlockReference
  2
_OPEN
 10
-1316.395000678747
 20
579.8233822082344
 30
0.0
 41
15.0
 42
15.0
 43
15.0
 50
90.0
  0
INSERT
  5
5F29
330
5414
100
AcDbEntity
  8
寸法線
 62
     0
370
    -2
100
AcDbBlockReference
  2
_OPEN
 10
-1316.395000678747
 20
619.8233822082344
 30
0.0
 41
15.0
 42
15.0
 43
15.0
 50
270.0
  0
MTEXT
  5
5F2A
330
5414
100
AcDbEntity
  8
寸法線
 62
     0
100
AcDbMText
 10
-1332.145000678747
 20
599.823382208234
 30
0.0
 40
21.0
 41
0.0
 71
     5
 72
     1
  1
\A1;40
 11
0.0000000000000001
 21
1.0
 31
0.0
 73
     1
 44
1.0
1001
ACAD
1000
MTEXTBEGIN
1070
    73
1070
     1
1070
    44
1040
1.0
1070
    74
1070
     0
1000
MTEXTEND
  0
POINT
  5
5F2B
330
5414
100
AcDbEntity
  8
DEFPOINTS
 62
     0
100
AcDbPoint
 10
-1268.395
 20
579.8233822082343
 30
0.0
  0
POINT
  5
5F2C
330
5414
100
AcDbEntity
  8
DEFPOINTS
 62
     0
100
AcDbPoint
 10
-1278.895000678746
 20
619.8233822082343
 30
0.0
  0
POINT
  5
5F2D
330
5414
100
AcDbEntity
  8
DEFPOINTS
 62
     0
100
AcDbPoint
 10
-1316.395000678747
 20
619.8233822082344
 30
0.0
  0
ENDBLK
  5
5421
330
5414
100
AcDbEntity
  8
0
100
AcDbBlockEnd
  0
BLOCK
  5
542E
330
5422
100
AcDbEntity
  8
0
100
AcDbBlockBegin
  2
*D37
 70
     1
 10
0.0
 20
0.0
 30
0.0
  3
*D37
  1

  0
LINE
  5
5F40
330
5422
100
AcDbEntity
  8
寸法線
 62
     0
370
    -2
100
AcDbLine
 10
-1284.145000678746
 20
829.8233822082345
 30
0.0
 11
-1322.395000678745
 21
829.8233822082345
 31
0.0
  0
LINE
  5
5F41
330
5422
100
AcDbEntity
  8
寸法線
 62
     0
370
    -2
100
AcDbLine
 10
-1273.645000678746
 20
869.8233822082343
 30
0.0
 11
-1322.395000678745
 21
869.8233822082343
 31
0.0
  0
LINE
  5
5F42
330
5422
100
AcDbEntity
  8
寸法線
 62
     0
370
    -2
100
AcDbLine
 10
-1316.395000678746
 20
814.8233822082344
 30
0.0
 11
-1316.395000678746
 21
799.8233822082344
 31
0.0
  0
LINE
  5
5F43
330
5422
100
AcDbEntity
  8
寸法線
 62
     0
370
    -2
100
AcDbLine
 10
-1316.395000678746
 20
884.8233822082343
 30
0.0
 11
-1316.395000678746
 21
899.8233822082344
 31
0.0
  0
LINE
  5
5F44
330
5422
100
AcDbEntity
  8
寸法線
 62
     0
370
    -2
100
AcDbLine
 10
-1316.395000678746
 20
829.8233822082345
 30
0.0
 11
-1316.395000678746
 21
869.8233822082343
 31
0.0
  0
INSERT
  5
5F45
330
5422
100
AcDbEntity
  8
寸法線
 62
     0
370
    -2
100
AcDbBlockReference
  2
_OPEN
 10
-1316.395000678746
 20
829.8233822082345
 30
0.0
 41
15.0
 42
15.0
 43
15.0
 50
90.0
  0
INSERT
  5
5F46
330
5422
100
AcDbEntity
  8
寸法線
 62
     0
370
    -2
100
AcDbBlockReference
  2
_OPEN
 10
-1316.395000678746
 20
869.8233822082343
 30
0.0
 41
15.0
 42
15.0
 43
15.0
 50
270.0
  0
MTEXT
  5
5F47
330
5422
100
AcDbEntity
  8
寸法線
 62
     0
100
AcDbMText
 10
-1332.145000678746
 20
849.8233822082342
 30
0.0
 40
21.0
 41
0.0
 71
     5
 72
     1
  1
\A1;40
 11
0.0000000000000001
 21
1.0
 31
0.0
 73
     1
 44
1.0
1001
ACAD
1000
MTEXTBEGIN
1070
    73
1070
     1
1070
    44
1040
1.0
1070
    74
1070
     0
1000
MTEXTEND
  0
POINT
  5
5F48
330
5422
100
AcDbEntity
  8
DEFPOINTS
 62
     0
100
AcDbPoint
 10
-1278.895000678746
 20
829.8233822082343
 30
0.0
  0
POINT
  5
5F49
330
5422
100
AcDbEntity
  8
DEFPOINTS
 62
     0
100
AcDbPoint
 10
-1268.395000678746
 20
869.8233822082343
 30
0.0
  0
POINT
  5
5F4A
330
5422
100
AcDbEntity
  8
DEFPOINTS
 62
     0
100
AcDbPoint
 10
-1316.395000678746
 20
869.8233822082343
 30
0.0
  0
ENDBLK
  5
542F
330
5422
100
AcDbEntity
  8
0
100
AcDbBlockEnd
  0
BLOCK
  5
543C
330
5430
100
AcDbEntity
  8
0
100
AcDbBlockBegin
  2
*D38
 70
     1
 10
0.0
 20
0.0
 30
0.0
  3
*D38
  1

  0
LINE
  5
5AA9
330
5430
100
AcDbEntity
  8
寸法線
 62
     0
370
    -2
100
AcDbLine
 10
-1053.395000678746
 20
625.5733822082342
 30
0.0
 11
-1053.395000678746
 21
501.8233822082343
 31
0.0
  0
LINE
  5
5AAA
330
5430
100
AcDbEntity
  8
寸法線
 62
     0
370
    -2
100
AcDbLine
 10
-978.3950006787463
 20
574.5733822082343
 30
0.0
 11
-978.3950006787463
 21
501.8233822082343
 31
0.0
  0
LINE
  5
5AAB
330
5430
100
AcDbEntity
  8
寸法線
 62
     0
370
    -2
100
AcDbLine
 10
-1038.395000678746
 20
507.8233822082343
 30
0.0
 11
-993.3950006787464
 21
507.8233822082343
 31
0.0
  0
INSERT
  5
5AAC
330
5430
100
AcDbEntity
  8
寸法線
 62
     0
370
    -2
100
AcDbBlockReference
  2
_OPEN
 10
-1053.395000678746
 20
507.8233822082343
 30
0.0
 41
15.0
 42
15.0
 43
15.0
 50
180.0
  0
INSERT
  5
5AAD
330
5430
100
AcDbEntity
  8
寸法線
 62
     0
370
    -2
100
AcDbBlockReference
  2
_OPEN
 10
-978.3950006787463
 20
507.8233822082343
 30
0.0
 41
15.0
 42
15.0
 43
15.0
  0
MTEXT
  5
5AAE
330
5430
100
AcDbEntity
  8
寸法線
 62
     0
100
AcDbMText
 10
-1015.895000678746
 20
523.5733822082343
 30
0.0
 40
21.0
 41
0.0
 71
     5
 72
     1
  1
\A1;75
 73
     1
 44
1.0
1001
ACAD
1000
MTEXTBEGIN
1070
    73
1070
     1
1070
    44
1040
1.0
1070
    74
1070
     0
1000
MTEXTEND
  0
POINT
  5
5AAF
330
5430
100
AcDbEntity
  8
DEFPOINTS
 62
     0
100
AcDbPoint
 10
-1053.395000678746
 20
630.8233822082343
 30
0.0
  0
POINT
  5
5AB0
330
5430
100
AcDbEntity
  8
DEFPOINTS
 62
     0
100
AcDbPoint
 10
-978.3950006787463
 20
579.8233822082343
 30
0.0
  0
POINT
  5
5AB1
330
5430
100
AcDbEntity
  8
DEFPOINTS
 62
     0
100
AcDbPoint
 10
-978.3950006787463
 20
507.8233822082343
 30
0.0
  0
ENDBLK
  5
543D
330
5430
100
AcDbEntity
  8
0
100
AcDbBlockEnd
  0
BLOCK
  5
5B73
330
5B69
100
AcDbEntity
  8
0
 62
     1
100
AcDbBlockBegin
  2
*D41
 70
     1
 10
0.0
 20
0.0
 30
0.0
  3
*D41
  1

  0
LINE
  5
5BBF
330
5B69
100
AcDbEntity
  8
寸法線
 62
     0
370
    -2
100
AcDbLine
 10
-973.145
 20
579.8233822082343
 30
0.0
 11
-852.3949993212537
 21
579.8233822082343
 31
0.0
  0
LINE
  5
5BC0
330
5B69
100
AcDbEntity
  8
寸法線
 62
     0
370
    -2
100
AcDbLine
 10
-973.1449993212539
 20
869.8233822082343
 30
0.0
 11
-852.3949993212537
 21
869.8233822082343
 31
0.0
  0
LINE
  5
5BC1
330
5B69
100
AcDbEntity
  8
寸法線
 62
     0
370
    -2
100
AcDbLine
 10
-858.394999321254
 20
594.8233822082342
 30
0.0
 11
-858.3949993212538
 21
854.8233822082343
 31
0.0
  0
INSERT
  5
5BC2
330
5B69
100
AcDbEntity
  8
寸法線
 62
     0
370
    -2
100
AcDbBlockReference
  2
_OPEN
 10
-858.394999321254
 20
579.8233822082343
 30
0.0
 41
15.0
 42
15.0
 43
15.0
 50
270.0
  0
INSERT
  5
5BC3
330
5B69
100
AcDbEntity
  8
寸法線
 62
     0
370
    -2
100
AcDbBlockReference
  2
_OPEN
 10
-858.3949993212538
 20
869.8233822082343
 30
0.0
 41
15.0
 42
15.0
 43
15.0
 50
90.0
  0
MTEXT
  5
5BC4
330
5B69
100
AcDbEntity
  8
寸法線
 62
     0
100
AcDbMText
 10
-874.147066250388
 20
724.8233822082339
 30
0.0
 40
21.0
 41
0.0
 71
     5
 72
     1
  1
\A1;290
 11
0.0000000000000001
 21
1.0
 31
0.0
 73
     1
 44
1.0
1001
ACAD
1000
MTEXTBEGIN
1070
    73
1070
     1
1070
    44
1040
1.0
1070
    74
1070
     0
1000
MTEXTEND
  0
POINT
  5
5BC5
330
5B69
100
AcDbEntity
  8
DEFPOINTS
 62
     0
100
AcDbPoint
 10
-978.395
 20
579.8233822082343
 30
0.0
  0
POINT
  5
5BC6
330
5B69
100
AcDbEntity
  8
DEFPOINTS
 62
     0
100
AcDbPoint
 10
-978.3949993212539
 20
869.8233822082343
 30
0.0
  0
POINT
  5
5BC7
330
5B69
100
AcDbEntity
  8
DEFPOINTS
 62
     0
100
AcDbPoint
 10
-858.3949993212538
 20
869.8233822082343
 30
0.0
  0
ENDBLK
  5
5B74
330
5B69
100
AcDbEntity
  8
0
 62
     1
100
AcDbBlockEnd
  0
BLOCK
  5
5B7F
330
5B75
100
AcDbEntity
  8
0
 62
     1
100
AcDbBlockBegin
  2
*D42
 70
     1
 10
0.0
 20
0.0
 30
0.0
  3
*D42
  1

  0
LINE
  5
5BDA
330
5B75
100
AcDbEntity
  8
寸法線
 62
     0
370
    -2
100
AcDbLine
 10
-1019.144999321254
 20
654.8233822082343
 30
0.0
 11
-900.3949993212538
 21
654.8233822082343
 31
0.0
  0
LINE
  5
5BDB
330
5B75
100
AcDbEntity
  8
寸法線
 62
     0
370
    -2
100
AcDbLine
 10
-1019.144999321254
 20
794.8233822082343
 30
0.0
 11
-900.3949993212536
 21
794.8233822082343
 31
0.0
  0
LINE
  5
5BDC
330
5B75
100
AcDbEntity
  8
寸法線
 62
     0
370
    -2
100
AcDbLine
 10
-906.3949993212537
 20
669.8233822082343
 30
0.0
 11
-906.3949993212537
 21
779.8233822082343
 31
0.0
  0
INSERT
  5
5BDD
330
5B75
100
AcDbEntity
  8
寸法線
 62
     0
370
    -2
100
AcDbBlockReference
  2
_OPEN
 10
-906.3949993212537
 20
654.8233822082343
 30
0.0
 41
15.0
 42
15.0
 43
15.0
 50
270.0
  0
INSERT
  5
5BDE
330
5B75
100
AcDbEntity
  8
寸法線
 62
     0
370
    -2
100
AcDbBlockReference
  2
_OPEN
 10
-906.3949993212537
 20
794.8233822082343
 30
0.0
 41
15.0
 42
15.0
 43
15.0
 50
90.0
  0
MTEXT
  5
5BDF
330
5B75
100
AcDbEntity
  8
寸法線
 62
     0
100
AcDbMText
 10
-922.1449993212539
 20
724.8233822082339
 30
0.0
 40
21.0
 41
0.0
 71
     5
 72
     1
  1
\A1;140
 11
0.0000000000000001
 21
1.0
 31
0.0
 73
     1
 44
1.0
1001
ACAD
1000
MTEXTBEGIN
1070
    73
1070
     1
1070
    44
1040
1.0
1070
    74
1070
     0
1000
MTEXTEND
  0
POINT
  5
5BE0
330
5B75
100
AcDbEntity
  8
DEFPOINTS
 62
     0
100
AcDbPoint
 10
-1024.394999321254
 20
654.8233822082343
 30
0.0
  0
POINT
  5
5BE1
330
5B75
100
AcDbEntity
  8
DEFPOINTS
 62
     0
100
AcDbPoint
 10
-1024.394999321254
 20
794.8233822082343
 30
0.0
  0
POINT
  5
5BE2
330
5B75
100
AcDbEntity
  8
DEFPOINTS
 62
     0
100
AcDbPoint
 10
-906.3949993212537
 20
794.8233822082343
 30
0.0
  0
ENDBLK
  5
5B80
330
5B75
100
AcDbEntity
  8
0
 62
     1
100
AcDbBlockEnd
  0
BLOCK
  5
5B8B
330
5B81
100
AcDbEntity
  8
0
 62
     1
100
AcDbBlockBegin
  2
*D43
 70
     1
 10
0.0
 20
0.0
 30
0.0
  3
*D43
  1

  0
LINE
  5
5BE3
330
5B81
100
AcDbEntity
  8
寸法線
 62
     0
370
    -2
100
AcDbLine
 10
-973.145
 20
579.8233822082343
 30
0.0
 11
-900.3949993212538
 21
579.8233822082343
 31
0.0
  0
LINE
  5
5BE4
330
5B81
100
AcDbEntity
  8
寸法線
 62
     0
370
    -2
100
AcDbLine
 10
-1019.144999321254
 20
654.8233822082343
 30
0.0
 11
-900.3949993212538
 21
654.8233822082343
 31
0.0
  0
LINE
  5
5BE5
330
5B81
100
AcDbEntity
  8
寸法線
 62
     0
370
    -2
100
AcDbLine
 10
-906.3949993212537
 20
594.8233822082342
 30
0.0
 11
-906.3949993212537
 21
639.8233822082342
 31
0.0
  0
INSERT
  5
5BE6
330
5B81
100
AcDbEntity
  8
寸法線
 62
     0
370
    -2
100
AcDbBlockReference
  2
_OPEN
 10
-906.3949993212537
 20
579.8233822082343
 30
0.0
 41
15.0
 42
15.0
 43
15.0
 50
270.0
  0
INSERT
  5
5BE7
330
5B81
100
AcDbEntity
  8
寸法線
 62
     0
370
    -2
100
AcDbBlockReference
  2
_OPEN
 10
-906.3949993212537
 20
654.8233822082343
 30
0.0
 41
15.0
 42
15.0
 43
15.0
 50
90.0
  0
MTEXT
  5
5BE8
330
5B81
100
AcDbEntity
  8
寸法線
 62
     0
100
AcDbMText
 10
-922.1449993212539
 20
617.3233822082344
 30
0.0
 40
21.0
 41
0.0
 71
     5
 72
     1
  1
\A1;75
 11
0.0000000000000001
 21
1.0
 31
0.0
 73
     1
 44
1.0
1001
ACAD
1000
MTEXTBEGIN
1070
    73
1070
     1
1070
    44
1040
1.0
1070
    74
1070
     0
1000
MTEXTEND
  0
POINT
  5
5BE9
330
5B81
100
AcDbEntity
  8
DEFPOINTS
 62
     0
100
AcDbPoint
 10
-978.395
 20
579.8233822082343
 30
0.0
  0
POINT
  5
5BEA
330
5B81
100
AcDbEntity
  8
DEFPOINTS
 62
     0
100
AcDbPoint
 10
-1024.394999321254
 20
654.8233822082343
 30
0.0
  0
POINT
  5
5BEB
330
5B81
100
AcDbEntity
  8
DEFPOINTS
 62
     0
100
AcDbPoint
 10
-906.3949993212537
 20
654.8233822082343
 30
0.0
  0
ENDBLK
  5
5B8C
330
5B81
100
AcDbEntity
  8
0
 62
     1
100
AcDbBlockEnd
  0
BLOCK
  5
5B97
330
5B8D
100
AcDbEntity
  8
0
 62
     1
100
AcDbBlockBegin
  2
*D44
 70
     1
 10
0.0
 20
0.0
 30
0.0
  3
*D44
  1

  0
LINE
  5
5BD1
330
5B8D
100
AcDbEntity
  8
寸法線
 62
     0
370
    -2
100
AcDbLine
 10
-1019.144999321254
 20
794.8233822082343
 30
0.0
 11
-900.3949993212536
 21
794.8233822082343
 31
0.0
  0
LINE
  5
5BD2
330
5B8D
100
AcDbEntity
  8
寸法線
 62
     0
370
    -2
100
AcDbLine
 10
-973.1449993212539
 20
869.8233822082343
 30
0.0
 11
-900.3949993212536
 21
869.8233822082343
 31
0.0
  0
LINE
  5
5BD3
330
5B8D
100
AcDbEntity
  8
寸法線
 62
     0
370
    -2
100
AcDbLine
 10
-906.3949993212537
 20
809.8233822082343
 30
0.0
 11
-906.3949993212537
 21
854.8233822082343
 31
0.0
  0
INSERT
  5
5BD4
330
5B8D
100
AcDbEntity
  8
寸法線
 62
     0
370
    -2
100
AcDbBlockReference
  2
_OPEN
 10
-906.3949993212537
 20
794.8233822082343
 30
0.0
 41
15.0
 42
15.0
 43
15.0
 50
270.0
  0
INSERT
  5
5BD5
330
5B8D
100
AcDbEntity
  8
寸法線
 62
     0
370
    -2
100
AcDbBlockReference
  2
_OPEN
 10
-906.3949993212537
 20
869.8233822082343
 30
0.0
 41
15.0
 42
15.0
 43
15.0
 50
90.0
  0
MTEXT
  5
5BD6
330
5B8D
100
AcDbEntity
  8
寸法線
 62
     0
100
AcDbMText
 10
-922.1449993212539
 20
832.3233822082343
 30
0.0
 40
21.0
 41
0.0
 71
     5
 72
     1
  1
\A1;75
 11
0.0000000000000001
 21
1.0
 31
0.0
 73
     1
 44
1.0
1001
ACAD
1000
MTEXTBEGIN
1070
    73
1070
     1
1070
    44
1040
1.0
1070
    74
1070
     0
1000
MTEXTEND
  0
POINT
  5
5BD7
330
5B8D
100
AcDbEntity
  8
DEFPOINTS
 62
     0
100
AcDbPoint
 10
-1024.394999321254
 20
794.8233822082343
 30
0.0
  0
POINT
  5
5BD8
330
5B8D
100
AcDbEntity
  8
DEFPOINTS
 62
     0
100
AcDbPoint
 10
-978.3949993212539
 20
869.8233822082343
 30
0.0
  0
POINT
  5
5BD9
330
5B8D
100
AcDbEntity
  8
DEFPOINTS
 62
     0
100
AcDbPoint
 10
-906.3949993212537
 20
869.8233822082343
 30
0.0
  0
ENDBLK
  5
5B98
330
5B8D
100
AcDbEntity
  8
0
 62
     1
100
AcDbBlockEnd
  0
BLOCK
  5
5C53
330
5C49
100
AcDbEntity
  8
0
 62
     1
100
AcDbBlockBegin
  2
*D48
 70
     1
 10
0.0
 20
0.0
 30
0.0
  3
*D48
  1

  0
LINE
  5
5F90
330
5C49
100
AcDbEntity
  8
寸法線
 62
     0
370
    -2
100
AcDbLine
 10
-1228.395000678746
 20
885.5733822082344
 30
0.0
 11
-1228.395000678746
 21
923.8233828869804
 31
0.0
  0
LINE
  5
5F91
330
5C49
100
AcDbEntity
  8
寸法線
 62
     0
370
    -2
100
AcDbLine
 10
-1018.395000678746
 20
885.5733822082344
 30
0.0
 11
-1018.395000678746
 21
923.8233828869804
 31
0.0
  0
LINE
  5
5F92
330
5C49
100
AcDbEntity
  8
寸法線
 62
     0
370
    -2
100
AcDbLine
 10
-1213.395000678746
 20
917.8233828869805
 30
0.0
 11
-1033.395000678746
 21
917.8233828869805
 31
0.0
  0
INSERT
  5
5F93
330
5C49
100
AcDbEntity
  8
寸法線
 62
     0
370
    -2
100
AcDbBlockReference
  2
_OPEN
 10
-1228.395000678746
 20
917.8233828869805
 30
0.0
 41
15.0
 42
15.0
 43
15.0
 50
180.0
  0
INSERT
  5
5F94
330
5C49
100
AcDbEntity
  8
寸法線
 62
     0
370
    -2
100
AcDbBlockReference
  2
_OPEN
 10
-1018.395000678746
 20
917.8233828869805
 30
0.0
 41
15.0
 42
15.0
 43
15.0
  0
MTEXT
  5
5F95
330
5C49
100
AcDbEntity
  8
寸法線
 62
     0
100
AcDbMText
 10
-1123.395000678746
 20
933.5754498161143
 30
0.0
 40
21.0
 41
0.0
 71
     5
 72
     1
  1
\A1;210
 73
     1
 44
1.0
1001
ACAD
1000
MTEXTBEGIN
1070
    73
1070
     1
1070
    44
1040
1.0
1070
    74
1070
     0
1000
MTEXTEND
  0
POINT
  5
5F96
330
5C49
100
AcDbEntity
  8
DEFPOINTS
 62
     0
100
AcDbPoint
 10
-1228.395000678746
 20
880.3233822082344
 30
0.0
  0
POINT
  5
5F97
330
5C49
100
AcDbEntity
  8
DEFPOINTS
 62
     0
100
AcDbPoint
 10
-1018.395000678746
 20
880.3233822082344
 30
0.0
  0
POINT
  5
5F98
330
5C49
100
AcDbEntity
  8
DEFPOINTS
 62
     0
100
AcDbPoint
 10
-1018.395000678746
 20
917.8233828869805
 30
0.0
  0
ENDBLK
  5
5C54
330
5C49
100
AcDbEntity
  8
0
 62
     1
100
AcDbBlockEnd
  0
BLOCK
  5
5C61
330
5C55
100
AcDbEntity
  8
0
 62
     1
100
AcDbBlockBegin
  2
*D49
 70
     1
 10
0.0
 20
0.0
 30
0.0
  3
*D49
  1

  0
LINE
  5
5F71
330
5C55
100
AcDbEntity
  8
寸法線
 62
     0
370
    -2
100
AcDbLine
 10
-1268.395000678746
 20
875.0733822082343
 30
0.0
 11
-1268.395000678746
 21
923.8233828869812
 31
0.0
  0
LINE
  5
5F72
330
5C55
100
AcDbEntity
  8
寸法線
 62
     0
370
    -2
100
AcDbLine
 10
-1228.395000678746
 20
885.5733822082344
 30
0.0
 11
-1228.395000678746
 21
923.8233828869812
 31
0.0
  0
LINE
  5
5F73
330
5C55
100
AcDbEntity
  8
寸法線
 62
     0
370
    -2
100
AcDbLine
 10
-1283.395000678746
 20
917.8233828869814
 30
0.0
 11
-1298.395000678746
 21
917.8233828869814
 31
0.0
  0
LINE
  5
5F74
330
5C55
100
AcDbEntity
  8
寸法線
 62
     0
370
    -2
100
AcDbLine
 10
-1213.395000678746
 20
917.8233828869814
 30
0.0
 11
-1198.395000678746
 21
917.8233828869814
 31
0.0
  0
LINE
  5
5F75
330
5C55
100
AcDbEntity
  8
寸法線
 62
     0
370
    -2
100
AcDbLine
 10
-1268.395000678746
 20
917.8233828869814
 30
0.0
 11
-1228.395000678746
 21
917.8233828869814
 31
0.0
  0
INSERT
  5
5F76
330
5C55
100
AcDbEntity
  8
寸法線
 62
     0
370
    -2
100
AcDbBlockReference
  2
_OPEN
 10
-1268.395000678746
 20
917.8233828869814
 30
0.0
 41
15.0
 42
15.0
 43
15.0
  0
INSERT
  5
5F77
330
5C55
100
AcDbEntity
  8
寸法線
 62
     0
370
    -2
100
AcDbBlockReference
  2
_OPEN
 10
-1228.395000678746
 20
917.8233828869814
 30
0.0
 41
15.0
 42
15.0
 43
15.0
 50
180.0
  0
MTEXT
  5
5F78
330
5C55
100
AcDbEntity
  8
寸法線
 62
     0
100
AcDbMText
 10
-1248.395000678746
 20
933.5733828869813
 30
0.0
 40
21.0
 41
0.0
 71
     5
 72
     1
  1
\A1;40
 73
     1
 44
1.0
1001
ACAD
1000
MTEXTBEGIN
1070
    73
1070
     1
1070
    44
1040
1.0
1070
    74
1070
     0
1000
MTEXTEND
  0
POINT
  5
5F79
330
5C55
100
AcDbEntity
  8
DEFPOINTS
 62
     0
100
AcDbPoint
 10
-1268.395000678746
 20
869.8233822082343
 30
0.0
  0
POINT
  5
5F7A
330
5C55
100
AcDbEntity
  8
DEFPOINTS
 62
     0
100
AcDbPoint
 10
-1228.395000678746
 20
880.3233822082344
 30
0.0
  0
POINT
  5
5F7B
330
5C55
100
AcDbEntity
  8
DEFPOINTS
 62
     0
100
AcDbPoint
 10
-1228.395000678746
 20
917.8233828869814
 30
0.0
  0
ENDBLK
  5
5C62
330
5C55
100
AcDbEntity
  8
0
 62
     1
100
AcDbBlockEnd
  0
BLOCK
  5
5C6F
330
5C63
100
AcDbEntity
  8
0
 62
     1
100
AcDbBlockBegin
  2
*D50
 70
     1
 10
0.0
 20
0.0
 30
0.0
  3
*D50
  1

  0
LINE
  5
5F99
330
5C63
100
AcDbEntity
  8
寸法線
 62
     0
370
    -2
100
AcDbLine
 10
-1018.395000678746
 20
885.5733822082344
 30
0.0
 11
-1018.395000678746
 21
923.8233828869804
 31
0.0
  0
LINE
  5
5F9A
330
5C63
100
AcDbEntity
  8
寸法線
 62
     0
370
    -2
100
AcDbLine
 10
-978.3950006787462
 20
875.0733828869805
 30
0.0
 11
-978.3950006787462
 21
923.8233828869804
 31
0.0
  0
LINE
  5
5F9B
330
5C63
100
AcDbEntity
  8
寸法線
 62
     0
370
    -2
100
AcDbLine
 10
-1033.395000678746
 20
917.8233828869799
 30
0.0
 11
-1048.395000678746
 21
917.8233828869799
 31
0.0
  0
LINE
  5
5F9C
330
5C63
100
AcDbEntity
  8
寸法線
 62
     0
370
    -2
100
AcDbLine
 10
-963.3950006787459
 20
917.8233828869799
 30
0.0
 11
-948.3950006787459
 21
917.8233828869799
 31
0.0
  0
LINE
  5
5F9D
330
5C63
100
AcDbEntity
  8
寸法線
 62
     0
370
    -2
100
AcDbLine
 10
-1018.395000678746
 20
917.8233828869799
 30
0.0
 11
-978.3950006787462
 21
917.8233828869799
 31
0.0
  0
INSERT
  5
5F9E
330
5C63
100
AcDbEntity
  8
寸法線
 62
     0
370
    -2
100
AcDbBlockReference
  2
_OPEN
 10
-1018.395000678746
 20
917.8233828869799
 30
0.0
 41
15.0
 42
15.0
 43
15.0
  0
INSERT
  5
5F9F
330
5C63
100
AcDbEntity
  8
寸法線
 62
     0
370
    -2
100
AcDbBlockReference
  2
_OPEN
 10
-978.3950006787462
 20
917.8233828869799
 30
0.0
 41
15.0
 42
15.0
 43
15.0
 50
180.0
  0
MTEXT
  5
5FA0
330
5C63
100
AcDbEntity
  8
寸法線
 62
     0
100
AcDbMText
 10
-998.3950006787459
 20
933.5733828869804
 30
0.0
 40
21.0
 41
0.0
 71
     5
 72
     1
  1
\A1;40
 73
     1
 44
1.0
1001
ACAD
1000
MTEXTBEGIN
1070
    73
1070
     1
1070
    44
1040
1.0
1070
    74
1070
     0
1000
MTEXTEND
  0
POINT
  5
5FA1
330
5C63
100
AcDbEntity
  8
DEFPOINTS
 62
     0
100
AcDbPoint
 10
-1018.395000678746
 20
880.3233822082344
 30
0.0
  0
POINT
  5
5FA2
330
5C63
100
AcDbEntity
  8
DEFPOINTS
 62
     0
100
AcDbPoint
 10
-978.3950006787462
 20
869.8233828869804
 30
0.0
  0
POINT
  5
5FA3
330
5C63
100
AcDbEntity
  8
DEFPOINTS
 62
     0
100
AcDbPoint
 10
-978.3950006787462
 20
917.8233828869799
 30
0.0
  0
ENDBLK
  5
5C70
330
5C63
100
AcDbEntity
  8
0
 62
     1
100
AcDbBlockEnd
  0
BLOCK
  5
636E
330
6351
100
AcDbEntity
  8
0
 62
     1
100
AcDbBlockBegin
  2
A$C6EFD5426
 70
     0
 10
0.0
 20
0.0
 30
0.0
  3
A$C6EFD5426
  1

  0
LINE
  5
6352
330
6351
100
AcDbEntity
  8
ZUWAKU
 62
     2
100
AcDbLine
 10
114.9999999999999
 20
50.0
 30
0.0
 11
0.0
 21
50.00000000000003
 31
0.0
  0
LINE
  5
6353
330
6351
100
AcDbEntity
  8
ZUWAKU
 62
     2
100
AcDbLine
 10
114.9999999999999
 20
43.0
 30
0.0
 11
0.0
 21
43.0
 31
0.0
  0
LINE
  5
6354
330
6351
100
AcDbEntity
  8
ZUWAKU
 62
     2
100
AcDbLine
 10
114.9999999999999
 20
36.0
 30
0.0
 11
0.0
 21
36.0
 31
0.0
  0
TEXT
  5
6355
330
6351
100
AcDbEntity
  8
ZUWAKU
 62
     2
100
AcDbText
 10
-9.158333333333333
 20
12.97283227832545
 30
0.0
 40
3.5
  1
担当
 72
     4
 11
-5.5
 21
14.72283227832545
 31
0.0
100
AcDbText
  0
LINE
  5
6356
330
6351
100
AcDbEntity
  8
ZUWAKU
 62
     2
100
AcDbLine
 10
-41.0
 20
30.0
 30
0.0
 11
-41.0
 21
12.00000000000003
 31
0.0
  0
TEXT
  5
6357
330
6351
100
AcDbEntity
  8
寸法線
100
AcDbText
 10
-60.62500000000002
 20
19.25352712473401
 30
0.0
 40
2.5
  1
A
 72
     4
 11
-59.50000000000002
 21
20.50352712473401
 31
0.0
100
AcDbText
  0
LINE
  5
6358
330
6351
100
AcDbEntity
  8
寸法線
100
AcDbLine
 10
-59.50000000000002
 20
23.16859063419511
 30
0.0
 11
-57.00000000000002
 21
18.8384636152729
 31
0.0
  0
LINE
  5
6359
330
6351
100
AcDbEntity
  8
寸法線
100
AcDbLine
 10
-59.50000000000002
 20
23.16859063419511
 30
0.0
 11
-62.00000000000002
 21
18.8384636152729
 31
0.0
  0
TEXT
  5
635A
330
6351
100
AcDbEntity
  8
ZUWAKU
 62
     2
100
AcDbText
 10
-63.23333333333334
 20
12.97283227832545
 30
0.0
 40
3.5
  1
符号
 72
     4
 11
-59.5
 21
14.72283227832545
 31
0.0
100
AcDbText
  0
LINE
  5
635B
330
6351
100
AcDbEntity
  8
ZUWAKU
 62
     2
100
AcDbLine
 10
-57.00000000000002
 20
18.8384636152729
 30
0.0
 11
-62.00000000000002
 21
18.8384636152729
 31
0.0
  0
TEXT
  5
635C
330
6351
100
AcDbEntity
  8
寸法線
100
AcDbText
 10
-60.50000000000002
 20
25.68583953084908
 30
0.0
 40
2.5
  1
B
 72
     4
 11
-59.50000000000002
 21
26.93583953084908
 31
0.0
100
AcDbText
  0
LINE
  5
635D
330
6351
100
AcDbEntity
  8
ZUWAKU
 62
     2
100
AcDbLine
 10
-57.00000000000002
 20
25.270776021388
 30
0.0
 11
-62.00000000000002
 21
25.270776021388
 31
0.0
  0
LINE
  5
635E
330
6351
100
AcDbEntity
  8
寸法線
100
AcDbLine
 10
-59.50000000000002
 20
29.6009030403102
 30
0.0
 11
-62.00000000000002
 21
25.270776021388
 31
0.0
  0
LINE
  5
635F
330
6351
100
AcDbEntity
  8
寸法線
100
AcDbLine
 10
-59.50000000000002
 20
29.6009030403102
 30
0.0
 11
-57.00000000000002
 21
25.270776021388
 31
0.0
  0
LINE
  5
6360
330
6351
100
AcDbEntity
  8
ZUWAKU
 62
     2
100
AcDbLine
 10
-55.0
 20
30.00000000000003
 30
0.0
 11
-55.0
 21
12.00000000000003
 31
0.0
  0
TEXT
  5
6361
330
6351
100
AcDbEntity
  8
ZUWAKU
 62
     2
100
AcDbText
 10
-53.01666666666666
 20
12.97283227832545
 30
0.0
 40
3.5
  1
日 付
 72
     4
 11
-48.0
 21
14.72283227832545
 31
0.0
100
AcDbText
  0
LINE
  5
6362
330
6351
100
AcDbEntity
  8
ZUWAKU
 62
     2
100
AcDbLine
 10
-11.00000000000004
 20
30.0
 30
0.0
 11
-11.0
 21
12.00000000000003
 31
0.0
  0
TEXT
  5
6363
330
6351
100
AcDbEntity
  8
ZUWAKU
 62
     2
100
AcDbText
 10
-37.08333333333333
 20
12.97283227832545
 30
0.0
 40
3.5
  1
訂 正 内 容
 72
     4
 11
-26.0
 21
14.72283227832545
 31
0.0
100
AcDbText
  0
LINE
  5
6364
330
6351
100
AcDbEntity
  8
ZUWAKU
 62
     2
100
AcDbLine
 10
-64.0
 20
0.0
 30
0.0
 11
-63.99999999999998
 21
30.00000000000003
 31
0.0
  0
TEXT
  5
6365
330
6351
100
AcDbEntity
  8
ZUWAKU
 62
     2
100
AcDbText
 10
-58.13333333333336
 20
6.5
 30
0.0
 40
2.0
  1
株式
 72
     4
 11
-56.00000000000002
 21
7.5
 31
0.0
100
AcDbText
  0
TEXT
  5
6366
330
6351
100
AcDbEntity
  8
ZUWAKU
 62
     2
100
AcDbText
 10
-58.13333333333336
 20
3.5
 30
0.0
 40
2.0
  1
会社
 72
     4
 11
-56.00000000000002
 21
4.5
 31
0.0
100
AcDbText
  0
TEXT
  5
6367
330
6351
100
AcDbEntity
  8
ZUWAKU
 62
     2
100
AcDbText
 10
-52.0666666666667
 20
3.666666666666666
 30
0.0
 40
5.0
  1
三研テクノクリエイト
 41
0.8
 72
     4
 11
-29.00000000000004
 21
6.0
 31
0.0
100
AcDbText
  0
LINE
  5
6368
330
6351
100
AcDbEntity
  8
ZUWAKU
 62
     2
100
AcDbLine
 10
0.0
 20
24.0
 30
0.0
 11
-64.0
 21
24.0
 31
0.0
  0
LINE
  5
6369
330
6351
100
AcDbEntity
  8
ZUWAKU
 62
     2
100
AcDbLine
 10
0.0
 20
30.0
 30
0.0
 11
-63.99999999999998
 21
30.00000000000003
 31
0.0
  0
LINE
  5
636A
330
6351
100
AcDbEntity
  8
ZUWAKU
 62
     2
100
AcDbLine
 10
0.0
 20
18.00000000000003
 30
0.0
 11
-63.99999999999998
 21
18.00000000000003
 31
0.0
  0
ENDBLK
  5
636F
330
6351
100
AcDbEntity
  8
0
 62
     1
100
AcDbBlockEnd
  0
ENDSEC
  0
SECTION
  2
ENTITIES
  0
MTEXT
  5
2ECF
330
1A
100
AcDbEntity
  8
寸法線
100
AcDbMText
 10
2916.485061327331
 20
-554.5291334419808
 30
0.0
 40
21.0
 41
0.0
 71
     9
 72
     5
  1

 73
     1
 44
1.0
1001
ACAD
1000
MTEXTBEGIN
1070
    73
1070
     1
1070
    44
1040
1.0
1070
    74
1070
     0
1000
MTEXTEND
  0
MTEXT
  5
35CE
330
1A
100
AcDbEntity
  8
寸法線
100
AcDbMText
 10
1488.129678076306
 20
-829.9839714598734
 30
0.0
 40
21.0
 41
0.0
 71
     9
 72
     5
  1

 73
     1
 44
1.0
1001
ACAD
1000
MTEXTBEGIN
1070
    73
1070
     1
1070
    44
1040
1.0
1070
    74
1070
     0
1000
MTEXTEND
  0
MTEXT
  5
3E5A
330
1A
100
AcDbEntity
  8
寸法線
100
AcDbMText
 10
2786.01016763352
 20
-2147.603077609083
 30
0.0
 40
21.0
 41
0.0
 71
     9
 72
     5
  1

 73
     1
 44
1.0
1001
ACAD
1000
MTEXTBEGIN
1070
    73
1070
     1
1070
    44
1040
1.0
1070
    74
1070
     0
1000
MTEXTEND
  0
DIMENSION
  5
50B6
330
1A
100
AcDbEntity
  8
寸法線
100
AcDbDimension
  2
*D1
 10
-1669.000394489855
 20
201.7555466231133
 30
0.0
 11
-1669.000394489855
 21
186.755546623113
 31
0.0
 70
   160
 71
     5
 42
30.00000000000003
  3
STANDARD
100
AcDbAlignedDimension
 13
-1738.500394489855
 23
171.7555466231133
 33
0.0
 14
-1759.0
 24
201.7555466231133
 34
0.0
 50
90.0
100
AcDbRotatedDimension
  0
DIMENSION
  5
50B7
330
1A
100
AcDbEntity
  8
寸法線
100
AcDbDimension
  2
*D2
 10
-1669.000394489855
 20
171.7555466231132
 30
0.0
 11
-1684.752461418989
 21
66.75554662311302
 31
0.0
 70
    32
 71
     5
 42
210.0
  3
STANDARD
100
AcDbAlignedDimension
 13
-1738.500394489855
 23
-38.24445337688668
 33
0.0
 14
-1738.500394489855
 24
171.7555466231133
 34
0.0
 50
90.0
100
AcDbRotatedDimension
  0
DIMENSION
  5
50B8
330
1A
100
AcDbEntity
  8
寸法線
100
AcDbDimension
  2
*D3
 10
-1669.000394489855
 20
-38.24445337688671
 30
0.0
 11
-1669.000394489855
 21
-53.24445337688696
 31
0.0
 70
   160
 71
     5
 42
30.0
  3
STANDARD
100
AcDbAlignedDimension
 13
-1759.0
 23
-68.24445337688667
 33
0.0
 14
-1738.500394489855
 24
-38.24445337688668
 34
0.0
 50
90.0
100
AcDbRotatedDimension
  0
DIMENSION
  5
50BC
330
1A
100
AcDbEntity
  8
寸法線
100
AcDbDimension
  2
*D4
 10
-1759.0
 20
-158.2444533768866
 30
0.0
 11
-1774.000197244928
 21
-158.2444533768866
 31
0.0
 70
   160
 71
     5
 42
30.00039448985513
  3
STANDARD
100
AcDbAlignedDimension
 13
-1789.000394489855
 23
-88.74445337688667
 33
0.0
 14
-1759.0
 24
-68.24445337688667
 34
0.0
100
AcDbRotatedDimension
  0
DIMENSION
  5
50BD
330
1A
100
AcDbEntity
  8
寸法線
100
AcDbDimension
  2
*D5
 10
-1789.000394489855
 20
-158.2444533768866
 30
0.0
 11
-1894.000394489855
 21
-142.4923864477527
 31
0.0
 70
    32
 71
     5
 42
210.0
  3
STANDARD
100
AcDbAlignedDimension
 13
-1999.000394489855
 23
-88.74445337688667
 33
0.0
 14
-1789.000394489855
 24
-88.74445337688667
 34
0.0
100
AcDbRotatedDimension
  0
DIMENSION
  5
50BE
330
1A
100
AcDbEntity
  8
寸法線
100
AcDbDimension
  2
*D6
 10
-1999.000394489855
 20
-158.2444533768866
 30
0.0
 11
-2014.000197244928
 21
-158.2444533768866
 31
0.0
 70
   160
 71
     5
 42
29.99960551014487
  3
STANDARD
100
AcDbAlignedDimension
 13
-2029.0
 23
-68.24445337688667
 33
0.0
 14
-1999.000394489855
 24
-88.74445337688667
 34
0.0
100
AcDbRotatedDimension
  0
LINE
  5
50C7
330
1A
100
AcDbEntity
  8
実線
100
AcDbLine
 10
-2029.0
 20
201.7555466231133
 30
0.0
 11
-1759.0
 21
201.7555466231133
 31
0.0
  0
LINE
  5
50C8
330
1A
100
AcDbEntity
  8
実線
100
AcDbLine
 10
-2029.0
 20
-68.24445337688667
 30
0.0
 11
-1759.0
 21
-68.24445337688667
 31
0.0
  0
LINE
  5
50C9
330
1A
100
AcDbEntity
  8
実線
100
AcDbLine
 10
-2029.000394489855
 20
-68.244
 30
0.0
 11
-2029.000394489855
 21
201.756
 31
0.0
  0
LINE
  5
50CC
330
1A
100
AcDbEntity
  8
実線
100
AcDbLine
 10
-1768.000394489856
 20
-20.24445337688666
 30
0.0
 11
-1768.000394489856
 21
153.7555466231133
 31
0.0
  0
LINE
  5
50CD
330
1A
100
AcDbEntity
  8
実線
100
AcDbLine
 10
-1777.000394489855
 20
-20.24445337688666
 30
0.0
 11
-1777.000394489855
 21
153.7555466231133
 31
0.0
  0
LINE
  5
50CE
330
1A
100
AcDbEntity
  8
実線
100
AcDbLine
 10
-2011.000394489855
 20
-20.24445337688666
 30
0.0
 11
-2011.000394489855
 21
153.7555466231133
 31
0.0
  0
LINE
  5
50CF
330
1A
100
AcDbEntity
  8
実線
100
AcDbLine
 10
-2020.000394489855
 20
-20.24445337688666
 30
0.0
 11
-2020.000394489855
 21
153.7555466231133
 31
0.0
  0
LINE
  5
50D0
330
1A
100
AcDbEntity
  8
実線
100
AcDbLine
 10
-1898.500394489855
 20
62.25554662311331
 30
0.0
 11
-1898.500394489855
 21
-48.74445337688666
 31
0.0
  0
LINE
  5
50D1
330
1A
100
AcDbEntity
  8
実線
100
AcDbLine
 10
-1889.500394489855
 20
62.25554662311331
 30
0.0
 11
-1889.500394489855
 21
-48.74445337688666
 31
0.0
  0
LINE
  5
50D2
330
1A
100
AcDbEntity
  8
実線
100
AcDbLine
 10
-1759.000394489855
 20
-68.244
 30
0.0
 11
-1759.000394489855
 21
201.756
 31
0.0
  0
LINE
  5
50D4
330
1A
100
AcDbEntity
  8
実線
100
AcDbLine
 10
-1807.000394489855
 20
-50.24445337688668
 30
0.0
 11
-1981.000394489855
 21
-50.24445337688668
 31
0.0
  0
LINE
  5
50D5
330
1A
100
AcDbEntity
  8
実線
100
AcDbLine
 10
-1807.000394489855
 20
-59.24445337688664
 30
0.0
 11
-1981.000394489855
 21
-59.24445337688664
 31
0.0
  0
CIRCLE
  5
50D7
330
1A
100
AcDbEntity
  8
実線
100
AcDbCircle
 10
-1999.000394489855
 20
-38.24445337688668
 30
0.0
 40
21.0
  0
LINE
  5
50DC
330
1A
100
AcDbEntity
  8
実線
100
AcDbLine
 10
-1981.000394489855
 20
-59.24445337688664
 30
0.0
 11
-1981.000394489855
 21
-50.24445337688668
 31
0.0
  0
LINE
  5
50DD
330
1A
100
AcDbEntity
  8
実線
100
AcDbLine
 10
-1898.500394489855
 20
-48.74445337688666
 30
0.0
 11
-1889.500394489855
 21
-48.74445337688666
 31
0.0
  0
LINE
  5
50DF
330
1A
100
AcDbEntity
  8
中心線
100
AcDbLine
 10
-1964.000394489855
 20
16.75554662311333
 30
0.0
 11
-1924.000394489855
 21
16.75554662311333
 31
0.0
  0
LINE
  5
50E2
330
1A
100
AcDbEntity
  8
実線
100
AcDbLine
 10
-2020.000394489855
 20
-20.24445337688666
 30
0.0
 11
-2011.000394489855
 21
-20.24445337688666
 31
0.0
  0
LINE
  5
50E4
330
1A
100
AcDbEntity
  8
中心線
100
AcDbLine
 10
-1944.000394489855
 20
-3.244453376886665
 30
0.0
 11
-1944.000394489855
 21
36.75554662311333
 31
0.0
  0
CIRCLE
  5
50EA
330
1A
100
AcDbEntity
  8
実線
100
AcDbCircle
 10
-1944.000394489855
 20
16.75554662311333
 30
0.0
 40
12.5
  0
CIRCLE
  5
50EC
330
1A
100
AcDbEntity
  8
実線
100
AcDbCircle
 10
-1789.000394489855
 20
-38.24445337688668
 30
0.0
 40
21.0
  0
LINE
  5
50EF
330
1A
100
AcDbEntity
  8
実線
100
AcDbLine
 10
-1807.000394489855
 20
-59.24445337688664
 30
0.0
 11
-1807.000394489855
 21
-50.24445337688668
 31
0.0
  0
LINE
  5
50F5
330
1A
100
AcDbEntity
  8
中心線
100
AcDbLine
 10
-1844.000394489855
 20
-3.244453376886665
 30
0.0
 11
-1844.000394489855
 21
36.75554662311333
 31
0.0
  0
LINE
  5
50F9
330
1A
100
AcDbEntity
  8
中心線
100
AcDbLine
 10
-1864.000394489855
 20
16.75554662311333
 30
0.0
 11
-1824.000394489855
 21
16.75554662311333
 31
0.0
  0
CIRCLE
  5
50FB
330
1A
100
AcDbEntity
  8
実線
100
AcDbCircle
 10
-1844.000394489855
 20
16.75554662311333
 30
0.0
 40
12.5
  0
LINE
  5
5100
330
1A
100
AcDbEntity
  8
実線
100
AcDbLine
 10
-1768.000394489856
 20
-20.24445337688666
 30
0.0
 11
-1777.000394489855
 21
-20.24445337688666
 31
0.0
  0
LINE
  5
5103
330
1A
100
AcDbEntity
  8
実線
100
AcDbLine
 10
-2010.000394489855
 20
71.25554662311333
 30
0.0
 11
-1778.000394489855
 21
71.25554662311333
 31
0.0
  0
LINE
  5
5104
330
1A
100
AcDbEntity
  8
実線
100
AcDbLine
 10
-2010.000394489855
 20
62.25554662311331
 30
0.0
 11
-1778.000394489855
 21
62.25554662311331
 31
0.0
  0
LINE
  5
5105
330
1A
100
AcDbEntity
  8
実線
100
AcDbLine
 10
-1807.000394489855
 20
183.7555466231133
 30
0.0
 11
-1981.000394489855
 21
183.7555466231133
 31
0.0
  0
LINE
  5
5106
330
1A
100
AcDbEntity
  8
実線
100
AcDbLine
 10
-1807.000394489855
 20
192.7555466231133
 30
0.0
 11
-1981.000394489855
 21
192.7555466231133
 31
0.0
  0
LINE
  5
5107
330
1A
100
AcDbEntity
  8
実線
100
AcDbLine
 10
-1889.500394489855
 20
182.2555466231133
 30
0.0
 11
-1889.500394489855
 21
71.25554662311333
 31
0.0
  0
LINE
  5
5108
330
1A
100
AcDbEntity
  8
実線
100
AcDbLine
 10
-1898.500394489855
 20
182.2555466231133
 30
0.0
 11
-1898.500394489855
 21
71.25554662311333
 31
0.0
  0
LINE
  5
510C
330
1A
100
AcDbEntity
  8
中心線
100
AcDbLine
 10
-1924.000394489855
 20
116.7555466231133
 30
0.0
 11
-1964.000394489854
 21
116.7555466231133
 31
0.0
  0
LINE
  5
510E
330
1A
100
AcDbEntity
  8
実線
100
AcDbLine
 10
-2010.000394489855
 20
62.25554662311331
 30
0.0
 11
-2010.000394489855
 21
71.25554662311333
 31
0.0
  0
LINE
  5
5110
330
1A
100
AcDbEntity
  8
中心線
100
AcDbLine
 10
-1944.000394489855
 20
136.7555466231133
 30
0.0
 11
-1944.000394489855
 21
96.75554662311334
 31
0.0
  0
CIRCLE
  5
5116
330
1A
100
AcDbEntity
  8
実線
100
AcDbCircle
 10
-1944.000377990046
 20
116.7555456137288
 30
0.0
 40
12.5
  0
CIRCLE
  5
5117
330
1A
100
AcDbEntity
  8
実線
100
AcDbCircle
 10
-1999.000394489855
 20
171.7555466231133
 30
0.0
 40
21.0
  0
LINE
  5
5118
330
1A
100
AcDbEntity
  8
実線
100
AcDbLine
 10
-2020.000394489855
 20
153.7555466231133
 30
0.0
 11
-2011.000394489855
 21
153.7555466231133
 31
0.0
  0
LINE
  5
511A
330
1A
100
AcDbEntity
  8
実線
100
AcDbLine
 10
-1981.000394489855
 20
192.7555466231133
 30
0.0
 11
-1981.000394489855
 21
183.7555466231133
 31
0.0
  0
LINE
  5
511E
330
1A
100
AcDbEntity
  8
実線
100
AcDbLine
 10
-1898.500394489855
 20
182.2555466231133
 30
0.0
 11
-1889.500394489855
 21
182.2555466231133
 31
0.0
  0
LINE
  5
5120
330
1A
100
AcDbEntity
  8
中心線
100
AcDbLine
 10
-1844.000394489854
 20
136.7555466231133
 30
0.0
 11
-1844.000394489854
 21
96.75554662311334
 31
0.0
  0
LINE
  5
5121
330
1A
100
AcDbEntity
  8
中心線
100
AcDbLine
 10
-1824.000394489855
 20
116.7555466231133
 30
0.0
 11
-1864.000394489855
 21
116.7555466231133
 31
0.0
  0
CIRCLE
  5
5125
330
1A
100
AcDbEntity
  8
実線
100
AcDbCircle
 10
-1844.000377990047
 20
116.7555456137292
 30
0.0
 40
12.5
  0
LINE
  5
512B
330
1A
100
AcDbEntity
  8
実線
100
AcDbLine
 10
-1778.000394489855
 20
71.25554662311333
 30
0.0
 11
-1778.000394489855
 21
62.25554662311331
 31
0.0
  0
CIRCLE
  5
512D
330
1A
100
AcDbEntity
  8
実線
100
AcDbCircle
 10
-1789.000394489855
 20
171.7555466231133
 30
0.0
 40
21.0
  0
LINE
  5
5130
330
1A
100
AcDbEntity
  8
実線
100
AcDbLine
 10
-1768.000394489856
 20
153.7555466231133
 30
0.0
 11
-1777.000394489855
 21
153.7555466231133
 31
0.0
  0
LINE
  5
5131
330
1A
100
AcDbEntity
  8
実線
100
AcDbLine
 10
-1807.000394489855
 20
192.7555466231133
 30
0.0
 11
-1807.000394489855
 21
183.7555466231133
 31
0.0
  0
CIRCLE
  5
5138
330
1A
100
AcDbEntity
  8
破線
100
AcDbCircle
 10
-2340.508795931178
 20
829.8233822082343
 30
0.0
 40
21.0
  0
CIRCLE
  5
5139
330
1A
100
AcDbEntity
  8
破線
100
AcDbCircle
 10
-2340.508795931178
 20
619.8233822082343
 30
0.0
 40
21.0
  0
LINE
  5
513A
330
1A
100
AcDbEntity
  8
破線
100
AcDbLine
 10
-2561.508795931179
 20
720.3233822082343
 30
0.0
 11
-2329.508795931177
 21
720.3233822082343
 31
0.0
  0
LINE
  5
513B
330
1A
100
AcDbEntity
  8
破線
100
AcDbLine
 10
-2561.508795931179
 20
729.3233822082343
 30
0.0
 11
-2329.508795931177
 21
729.3233822082343
 31
0.0
  0
DIMENSION
  5
5144
330
1A
100
AcDbEntity
  8
寸法線
100
AcDbDimension
  2
*D7
 10
-2238.508795931177
 20
774.8233822082339
 30
0.0
 11
-2254.258795931177
 21
724.8233822082339
 31
0.0
 70
    32
  1
b
 71
     5
 42
100.0
  3
STANDARD
100
AcDbAlignedDimension
 13
-2375.508795931177
 23
674.8233822082343
 33
0.0
 14
-2375.508795931177
 24
774.8233822082343
 34
0.0
 50
90.0
100
AcDbRotatedDimension
  0
DIMENSION
  5
5147
330
1A
100
AcDbEntity
  8
寸法線
100
AcDbDimension
  2
*D10
 10
-2310.508795931177
 20
459.8233822082343
 30
0.0
 11
-2445.508795931177
 21
475.575449137368
 31
0.0
 70
    32
 71
     5
 42
270.0
  3
STANDARD
100
AcDbAlignedDimension
 13
-2580.508795931177
 23
589.8229999999997
 33
0.0
 14
-2310.508795931177
 24
589.8229999999997
 34
0.0
100
AcDbRotatedDimension
  0
LINE
  5
514A
330
1A
100
AcDbEntity
  8
実線
100
AcDbLine
 10
-2580.509
 20
589.8233822082342
 30
0.0
 11
-2310.509
 21
589.8233822082342
 31
0.0
  0
LINE
  5
514B
330
1A
100
AcDbEntity
  8
実線
100
AcDbLine
 10
-2580.509
 20
859.8233822082343
 30
0.0
 11
-2310.509
 21
859.8233822082343
 31
0.0
  0
LINE
  5
514D
330
1A
100
AcDbEntity
  8
破線
100
AcDbLine
 10
-2441.008795931177
 20
720.3233822082343
 30
0.0
 11
-2441.008795931177
 21
609.3233822082343
 31
0.0
  0
LINE
  5
514E
330
1A
100
AcDbEntity
  8
破線
100
AcDbLine
 10
-2450.008795931177
 20
720.3233822082343
 30
0.0
 11
-2450.008795931177
 21
609.3233822082343
 31
0.0
  0
CIRCLE
  5
514F
330
1A
100
AcDbEntity
  8
破線
100
AcDbCircle
 10
-2550.508795931178
 20
619.8233822082343
 30
0.0
 40
21.0
  0
DIMENSION
  5
5154
330
1A
100
AcDbEntity
  8
寸法線
100
AcDbDimension
  2
*D12
 10
-2395.508795931178
 20
507.8233822082343
 30
0.0
 11
-2445.508795931178
 21
523.5733822082343
 31
0.0
 70
    32
  1
a
 71
     5
 42
99.99999999999909
  3
STANDARD
100
AcDbAlignedDimension
 13
-2495.508795931177
 23
654.8233822082343
 33
0.0
 14
-2395.508795931178
 24
654.8233822082343
 34
0.0
100
AcDbRotatedDimension
  0
LINE
  5
5155
330
1A
100
AcDbEntity
  8
中心線
100
AcDbLine
 10
-2445.509
 20
874.8233822082342
 30
0.0
 11
-2445.508812388573
 21
574.8233822082343
 31
0.0
  0
LINE
  5
5156
330
1A
100
AcDbEntity
  8
実線
100
AcDbLine
 10
-2580.508795931177
 20
589.8229999999997
 30
0.0
 11
-2580.508795931177
 21
859.8229999999999
 31
0.0
  0
LINE
  5
515D
330
1A
100
AcDbEntity
  8
破線
100
AcDbLine
 10
-2358.508795931177
 20
598.8233822082342
 30
0.0
 11
-2532.508795931177
 21
598.8233822082342
 31
0.0
  0
LINE
  5
515E
330
1A
100
AcDbEntity
  8
破線
100
AcDbLine
 10
-2358.508795931177
 20
607.8233822082343
 30
0.0
 11
-2532.508795931177
 21
607.8233822082343
 31
0.0
  0
LINE
  5
5163
330
1A
100
AcDbEntity
  8
破線
100
AcDbLine
 10
-2532.508795931177
 20
598.8233822082342
 30
0.0
 11
-2532.508795931177
 21
607.8233822082343
 31
0.0
  0
LINE
  5
5166
330
1A
100
AcDbEntity
  8
破線
100
AcDbLine
 10
-2520.508795931179
 20
598.8233822082342
 30
0.0
 11
-2520.508795931179
 21
607.8233822082343
 31
0.0
  0
LINE
  5
5167
330
1A
100
AcDbEntity
  8
破線
100
AcDbLine
 10
-2450.008795931177
 20
609.3233822082343
 30
0.0
 11
-2441.008795931177
 21
609.3233822082343
 31
0.0
  0
LINE
  5
5168
330
1A
100
AcDbEntity
  8
破線
100
AcDbLine
 10
-2358.508795931177
 20
598.8233822082342
 30
0.0
 11
-2358.508795931177
 21
607.8233822082343
 31
0.0
  0
LINE
  5
5169
330
1A
100
AcDbEntity
  8
破線
100
AcDbLine
 10
-2370.508795931177
 20
598.8233822082342
 30
0.0
 11
-2370.508795931177
 21
607.8233822082343
 31
0.0
  0
CIRCLE
  5
516D
330
1A
100
AcDbEntity
  8
破線
100
AcDbCircle
 10
-2550.508795931178
 20
829.8233822082343
 30
0.0
 40
21.0
  0
LINE
  5
516E
330
1A
100
AcDbEntity
  8
破線
100
AcDbLine
 10
-2450.008795931177
 20
840.3233822082343
 30
0.0
 11
-2450.008795931177
 21
729.3233822082343
 31
0.0
  0
LINE
  5
516F
330
1A
100
AcDbEntity
  8
破線
100
AcDbLine
 10
-2441.008795931177
 20
840.3233822082343
 30
0.0
 11
-2441.008795931177
 21
729.3233822082343
 31
0.0
  0
CIRCLE
  5
5173
330
1A
100
AcDbEntity
  8
実線
100
AcDbCircle
 10
-2495.508795931177
 20
774.8233822082343
 30
0.0
 40
12.5
  0
LINE
  5
5174
330
1A
100
AcDbEntity
  8
中心線
100
AcDbLine
 10
-2475.508795931177
 20
774.8233822082343
 30
0.0
 11
-2515.508795931177
 21
774.8233822082343
 31
0.0
  0
LINE
  5
5175
330
1A
100
AcDbEntity
  8
中心線
100
AcDbLine
 10
-2515.508795931177
 20
674.8233822082343
 30
0.0
 11
-2475.508795931177
 21
674.8233822082343
 31
0.0
  0
CIRCLE
  5
5176
330
1A
100
AcDbEntity
  8
実線
100
AcDbCircle
 10
-2495.508795931177
 20
674.8233822082343
 30
0.0
 40
12.5
  0
LINE
  5
5177
330
1A
100
AcDbEntity
  8
破線
100
AcDbLine
 10
-2571.508795931177
 20
637.8233822082343
 30
0.0
 11
-2571.508795931177
 21
811.8233822082343
 31
0.0
  0
LINE
  5
5178
330
1A
100
AcDbEntity
  8
破線
100
AcDbLine
 10
-2562.508795931178
 20
637.8233822082343
 30
0.0
 11
-2562.508795931178
 21
811.8233822082343
 31
0.0
  0
LINE
  5
5179
330
1A
100
AcDbEntity
  8
破線
100
AcDbLine
 10
-2561.508795931179
 20
720.3233822082343
 30
0.0
 11
-2561.508795931179
 21
729.3233822082343
 31
0.0
  0
LINE
  5
517A
330
1A
100
AcDbEntity
  8
破線
100
AcDbLine
 10
-2571.508795931177
 20
637.8233822082343
 30
0.0
 11
-2562.508795931178
 21
637.8233822082343
 31
0.0
  0
LINE
  5
517B
330
1A
100
AcDbEntity
  8
破線
100
AcDbLine
 10
-2571.508795931177
 20
649.8233822082343
 30
0.0
 11
-2562.508795931178
 21
649.8233822082343
 31
0.0
  0
LINE
  5
517C
330
1A
100
AcDbEntity
  8
中心線
100
AcDbLine
 10
-2495.508795931177
 20
654.8233822082343
 30
0.0
 11
-2495.508795931177
 21
694.8233822082343
 31
0.0
  0
LINE
  5
517D
330
1A
100
AcDbEntity
  8
破線
100
AcDbLine
 10
-2571.508795931177
 20
811.8233822082343
 30
0.0
 11
-2562.508795931178
 21
811.8233822082343
 31
0.0
  0
LINE
  5
517E
330
1A
100
AcDbEntity
  8
破線
100
AcDbLine
 10
-2571.508795931177
 20
799.8233822082343
 30
0.0
 11
-2562.508795931178
 21
799.8233822082343
 31
0.0
  0
LINE
  5
517F
330
1A
100
AcDbEntity
  8
中心線
100
AcDbLine
 10
-2495.508795931177
 20
794.8233822082343
 30
0.0
 11
-2495.508795931177
 21
754.8233822082343
 31
0.0
  0
LINE
  5
5180
330
1A
100
AcDbEntity
  8
中心線
100
AcDbLine
 10
-2415.508795931177
 20
674.8233822082343
 30
0.0
 11
-2375.508795931177
 21
674.8233822082343
 31
0.0
  0
CIRCLE
  5
5181
330
1A
100
AcDbEntity
  8
実線
100
AcDbCircle
 10
-2395.508795931178
 20
674.8233822082343
 30
0.0
 40
12.5
  0
LINE
  5
5182
330
1A
100
AcDbEntity
  8
中心線
100
AcDbLine
 10
-2395.508795931178
 20
654.8233822082343
 30
0.0
 11
-2395.508795931178
 21
694.8233822082343
 31
0.0
  0
LINE
  5
5183
330
1A
100
AcDbEntity
  8
中心線
100
AcDbLine
 10
-2375.508795931177
 20
774.8233822082343
 30
0.0
 11
-2415.508795931177
 21
774.8233822082343
 31
0.0
  0
CIRCLE
  5
5184
330
1A
100
AcDbEntity
  8
実線
100
AcDbCircle
 10
-2395.508795931177
 20
774.8233822082343
 30
0.0
 40
12.5
  0
LINE
  5
5185
330
1A
100
AcDbEntity
  8
中心線
100
AcDbLine
 10
-2395.508795931177
 20
794.8233822082343
 30
0.0
 11
-2395.508795931177
 21
754.8233822082343
 31
0.0
  0
LINE
  5
5186
330
1A
100
AcDbEntity
  8
破線
100
AcDbLine
 10
-2358.508795931177
 20
850.8233822082342
 30
0.0
 11
-2532.508795931177
 21
850.8233822082342
 31
0.0
  0
LINE
  5
5187
330
1A
100
AcDbEntity
  8
破線
100
AcDbLine
 10
-2358.508795931177
 20
841.8233822082342
 30
0.0
 11
-2532.508795931177
 21
841.8233822082342
 31
0.0
  0
LINE
  5
518E
330
1A
100
AcDbEntity
  8
破線
100
AcDbLine
 10
-2532.508795931177
 20
850.8233822082342
 30
0.0
 11
-2532.508795931177
 21
841.8233822082342
 31
0.0
  0
LINE
  5
518F
330
1A
100
AcDbEntity
  8
破線
100
AcDbLine
 10
-2520.508795931179
 20
850.8233822082342
 30
0.0
 11
-2520.508795931179
 21
841.8233822082342
 31
0.0
  0
LINE
  5
5190
330
1A
100
AcDbEntity
  8
破線
100
AcDbLine
 10
-2450.008795931177
 20
840.3233822082343
 30
0.0
 11
-2441.008795931177
 21
840.3233822082343
 31
0.0
  0
LINE
  5
5192
330
1A
100
AcDbEntity
  8
破線
100
AcDbLine
 10
-2358.508795931177
 20
850.8233822082342
 30
0.0
 11
-2358.508795931177
 21
841.8233822082342
 31
0.0
  0
LINE
  5
5193
330
1A
100
AcDbEntity
  8
破線
100
AcDbLine
 10
-2370.508795931177
 20
850.8233822082342
 30
0.0
 11
-2370.508795931177
 21
841.8233822082342
 31
0.0
  0
DIMENSION
  5
5196
330
1A
100
AcDbEntity
  8
寸法線
100
AcDbDimension
  2
*D19
 10
-2190.508795931177
 20
859.8229999999997
 30
0.0
 11
-2206.260862860311
 21
724.8229999999992
 31
0.0
 70
    32
 71
     5
 42
270.0000000000001
  3
STANDARD
100
AcDbAlignedDimension
 13
-2310.508795931177
 23
589.8229999999997
 33
0.0
 14
-2310.508795931177
 24
859.8229999999999
 34
0.0
 50
90.0
100
AcDbRotatedDimension
  0
LINE
  5
5197
330
1A
100
AcDbEntity
  8
実線
100
AcDbLine
 10
-2310.508795931177
 20
589.8229999999997
 30
0.0
 11
-2310.508795931177
 21
859.8229999999999
 31
0.0
  0
LINE
  5
5198
330
1A
100
AcDbEntity
  8
仮想線
100
AcDbLine
 10
-1797.701844851831
 20
534.8233822082343
 30
0.0
 11
-1797.701844851831
 21
914.8233822082342
 31
0.0
  0
LINE
  5
5199
330
1A
100
AcDbEntity
  8
実線
100
AcDbLine
 10
-1661.164897106012
 20
579.8233822082343
 30
0.0
 11
-1661.164897106012
 21
869.8233822082343
 31
0.0
  0
LINE
  5
519A
330
1A
100
AcDbEntity
  8
実線
100
AcDbLine
 10
-1673.164897106012
 20
579.8233822082343
 30
0.0
 11
-1673.164897106012
 21
869.8233822082343
 31
0.0
  0
LINE
  5
519B
330
1A
100
AcDbEntity
  8
実線
100
AcDbLine
 10
-1857.164897106012
 20
589.8229999999997
 30
0.0
 11
-1857.164897106012
 21
859.8229999999999
 31
0.0
  0
LINE
  5
519C
330
1A
100
AcDbEntity
  8
実線
100
AcDbLine
 10
-1869.164897106012
 20
589.8229999999997
 30
0.0
 11
-1869.164897106012
 21
859.8229999999999
 31
0.0
  0
DIMENSION
  5
51A1
330
1A
100
AcDbEntity
  8
寸法線
100
AcDbDimension
  2
*D21
 10
-1661.164897106012
 20
459.8233822082343
 30
0.0
 11
-1667.164897106012
 21
459.8233822082343
 31
0.0
 70
   160
 71
     5
 42
12.0
  3
STANDARD
100
AcDbAlignedDimension
 13
-1673.164897106012
 23
579.8233822082343
 33
0.0
 14
-1661.164897106012
 24
579.8233822082343
 34
0.0
100
AcDbRotatedDimension
1001
ACAD
1000
DSTYLE
1002
{
1070
    40
1040
6.0
1002
}
  0
DIMENSION
  5
51A2
330
1A
100
AcDbEntity
  8
寸法線
100
AcDbDimension
  2
*D22
 10
-1857.164897106012
 20
459.8233822082343
 30
0.0
 11
-1863.164897106012
 21
459.8233822082343
 31
0.0
 70
   160
 71
     5
 42
12.0
  3
STANDARD
100
AcDbAlignedDimension
 13
-1869.164897106012
 23
589.8229999999997
 33
0.0
 14
-1857.164897106012
 24
589.8229999999997
 34
0.0
100
AcDbRotatedDimension
1001
ACAD
1000
DSTYLE
1002
{
1070
    40
1040
6.0
1002
}
  0
DIMENSION
  5
51A3
330
1A
100
AcDbEntity
  8
寸法線
100
AcDbDimension
  2
*D23
 10
-1673.164897106012
 20
459.8233822082343
 30
0.0
 11
-1765.164897106012
 21
475.5733822082341
 31
0.0
 70
    32
 71
     5
 42
184.0
  3
STANDARD
100
AcDbAlignedDimension
 13
-1857.164897106012
 23
569.8233822082342
 33
0.0
 14
-1673.164897106012
 24
579.8233822082343
 34
0.0
100
AcDbRotatedDimension
1001
ACAD
1000
DSTYLE
1002
{
1070
    40
1040
6.0
1002
}
  0
DIMENSION
  5
51A4
330
1A
100
AcDbEntity
  8
寸法線
100
AcDbDimension
  2
*D24
 10
-1661.164897106012
 20
411.8233822082343
 30
0.0
 11
-1765.164897106012
 21
427.5754491373681
 31
0.0
 70
    32
 71
     5
 42
208.0
  3
STANDARD
100
AcDbAlignedDimension
 13
-1869.164897106012
 23
589.8233822082342
 33
0.0
 14
-1661.164897106012
 24
579.8233822082343
 34
0.0
100
AcDbRotatedDimension
1001
ACAD
1000
DSTYLE
1002
{
1070
    40
1040
6.0
1002
}
  0
DIMENSION
  5
51A5
330
1A
100
AcDbEntity
  8
寸法線
100
AcDbDimension
  2
*D25
 10
-1673.164897106012
 20
507.8233822082343
 30
0.0
 11
-1752.664897106012
 21
523.5733822082343
 31
0.0
 70
    32
 71
     5
 42
159.0
  3
STANDARD
100
AcDbAlignedDimension
 13
-1832.164897106012
 23
598.8233822082342
 33
0.0
 14
-1673.164897106012
 24
579.8233822082343
 34
0.0
100
AcDbRotatedDimension
1001
ACAD
1000
DSTYLE
1002
{
1070
    40
1040
6.0
1002
}
  0
LINE
  5
51A6
330
1A
100
AcDbEntity
  8
実線
100
AcDbLine
 10
-1857.164897106012
 20
598.8233822082342
 30
0.0
 11
-1673.164897106012
 21
598.8233822082344
 31
0.0
  0
LINE
  5
51A7
330
1A
100
AcDbEntity
  8
中心線
100
AcDbLine
 10
-1879.164897106012
 20
619.8233822082343
 30
0.0
 11
-1651.165
 21
619.8233822082343
 31
0.0
  0
INSERT
  5
51A8
330
1A
100
AcDbEntity
  8
寸法線
100
AcDbBlockReference
  2
_OPEN
 10
-1797.701844851831
 20
549.8233822082343
 30
0.0
 41
15.0
 42
15.0
 43
15.0
 50
180.0
  0
DIMENSION
  5
51A9
330
1A
100
AcDbEntity
  8
寸法線
100
AcDbDimension
  2
*D26
 10
-1832.164897106012
 20
507.8233822082343
 30
0.0
 11
-1844.664897106012
 21
507.8233822082343
 31
0.0
 70
   160
 71
     5
 42
25.0
  3
STANDARD
100
AcDbAlignedDimension
 13
-1857.164897106012
 23
589.8233822082342
 33
0.0
 14
-1832.164897106012
 24
598.8233822082342
 34
0.0
100
AcDbRotatedDimension
1001
ACAD
1000
DSTYLE
1002
{
1070
    40
1040
6.0
1002
}
  0
LINE
  5
51AA
330
1A
100
AcDbEntity
  8
実線
100
AcDbLine
 10
-1869.164897106012
 20
589.8233822082342
 30
0.0
 11
-1857.164897106012
 21
589.8233822082342
 31
0.0
  0
LINE
  5
51AB
330
1A
100
AcDbEntity
  8
破線
100
AcDbLine
 10
-1832.164897106012
 20
607.8233822082343
 30
0.0
 11
-1832.164897106012
 21
598.8233822082342
 31
0.0
  0
LINE
  5
51AC
330
1A
100
AcDbEntity
  8
破線
100
AcDbLine
 10
-1857.164897106012
 20
607.8233822082343
 30
0.0
 11
-1832.164897106012
 21
607.8233822082343
 31
0.0
  0
LINE
  5
51AE
330
1A
100
AcDbEntity
  8
実線
100
AcDbLine
 10
-1673.164897106012
 20
579.8233822082343
 30
0.0
 11
-1661.164897106012
 21
579.8233822082343
 31
0.0
  0
LINE
  5
51AF
330
1A
100
AcDbEntity
  8
寸法線
100
AcDbLine
 10
-1782.701844851831
 20
549.8233822082343
 30
0.0
 11
-1770.305109666006
 21
549.8233822082343
 31
0.0
  0
TEXT
  5
51B0
330
1A
100
AcDbEntity
  8
寸法線
100
AcDbText
 10
-1768.046622484802
 20
538.6233822082342
 30
0.0
 40
21.0
  1
Ａ
 72
     4
 11
-1758.246622484802
 21
549.8233822082343
 31
0.0
100
AcDbText
  0
LINE
  5
51B4
330
1A
100
AcDbEntity
  8
破線
100
AcDbLine
 10
-2328.508795931178
 20
637.8233822082343
 30
0.0
 11
-2328.508795931178
 21
811.8233822082343
 31
0.0
  0
LINE
  5
51B5
330
1A
100
AcDbEntity
  8
破線
100
AcDbLine
 10
-2319.508795931178
 20
637.8233822082343
 30
0.0
 11
-2319.508795931178
 21
811.8233822082343
 31
0.0
  0
LINE
  5
51B6
330
1A
100
AcDbEntity
  8
破線
100
AcDbLine
 10
-2329.508795931177
 20
729.3233822082343
 30
0.0
 11
-2329.508795931177
 21
720.3233822082343
 31
0.0
  0
LINE
  5
51B7
330
1A
100
AcDbEntity
  8
破線
100
AcDbLine
 10
-2319.508795931178
 20
637.8233822082343
 30
0.0
 11
-2328.508795931178
 21
637.8233822082343
 31
0.0
  0
LINE
  5
51B8
330
1A
100
AcDbEntity
  8
破線
100
AcDbLine
 10
-2319.508795931178
 20
649.8233822082343
 30
0.0
 11
-2328.508795931178
 21
649.8233822082343
 31
0.0
  0
LINE
  5
51B9
330
1A
100
AcDbEntity
  8
破線
100
AcDbLine
 10
-2319.508795931178
 20
811.8233822082343
 30
0.0
 11
-2328.508795931178
 21
811.8233822082343
 31
0.0
  0
LINE
  5
51BA
330
1A
100
AcDbEntity
  8
破線
100
AcDbLine
 10
-2319.508795931178
 20
799.8233822082343
 30
0.0
 11
-2328.508795931178
 21
799.8233822082343
 31
0.0
  0
DIMENSION
  5
51BF
330
1A
100
AcDbEntity
  8
寸法線
100
AcDbDimension
  2
*D30
 10
-1715.164897106012
 20
850.8233822082342
 30
0.0
 11
-1715.164897106012
 21
829.8233822082341
 31
0.0
 70
   160
  1
%%C<>
 71
     5
 42
42.0
  3
STANDARD
100
AcDbAlignedDimension
 13
-1715.164897106012
 23
808.8233822082342
 33
0.0
 14
-1715.164897106012
 24
850.8233822082342
 34
0.0
 50
90.0
100
AcDbRotatedDimension
1001
ACAD
1000
DSTYLE
1002
{
1070
    40
1040
6.0
1002
}
  0
LINE
  5
51C0
330
1A
100
AcDbEntity
  8
実線
100
AcDbLine
 10
-1832.164897106012
 20
640.8233822082343
 30
0.0
 11
-1673.164897106012
 21
640.8233822082343
 31
0.0
  0
LINE
  5
51C1
330
1A
100
AcDbEntity
  8
実線
100
AcDbLine
 10
-1832.164897106012
 20
808.8233822082342
 30
0.0
 11
-1673.164897106012
 21
808.8233822082342
 31
0.0
  0
LINE
  5
51C2
330
1A
100
AcDbEntity
  8
中心線
100
AcDbLine
 10
-1884.164897106012
 20
724.8233822082343
 30
0.0
 11
-1646.165
 21
724.8233822082343
 31
0.0
  0
LINE
  5
51C3
330
1A
100
AcDbEntity
  8
実線
100
AcDbLine
 10
-1832.164897106012
 20
637.823382208234
 30
0.0
 11
-1832.164897106012
 21
811.8233822082343
 31
0.0
  0
LINE
  5
51C4
330
1A
100
AcDbEntity
  8
中心線
100
AcDbLine
 10
-1879.164897106012
 20
674.8233822082343
 30
0.0
 11
-1847.165
 21
674.8233822082343
 31
0.0
  0
LINE
  5
51C7
330
1A
100
AcDbEntity
  8
実線
100
AcDbLine
 10
-1857.164897106012
 20
640.8233822082343
 30
0.0
 11
-1848.164897106012
 21
640.8233822082343
 31
0.0
  0
LINE
  5
51C8
330
1A
100
AcDbEntity
  8
破線
100
AcDbLine
 10
-1848.164897106012
 20
640.8233822082343
 30
0.0
 11
-1832.164897106012
 21
640.8233822082343
 31
0.0
  0
LINE
  5
51C9
330
1A
100
AcDbEntity
  8
実線
100
AcDbLine
 10
-1845.164897106012
 20
637.8233822082343
 30
0.0
 11
-1832.164897106012
 21
637.823382208234
 31
0.0
  0
LINE
  5
51CA
330
1A
100
AcDbEntity
  8
実線
100
AcDbLine
 10
-1857.164897106012
 20
649.8233822082343
 30
0.0
 11
-1845.164897106012
 21
637.8233822082343
 31
0.0
  0
LINE
  5
51D3
330
1A
100
AcDbEntity
  8
破線
100
AcDbLine
 10
-1857.164897106012
 20
720.3233822082343
 30
0.0
 11
-1832.164897106012
 21
720.3233822082343
 31
0.0
  0
LINE
  5
51D4
330
1A
100
AcDbEntity
  8
中心線
100
AcDbLine
 10
-1879.164897106012
 20
774.8233822082343
 30
0.0
 11
-1847.165
 21
774.8233822082343
 31
0.0
  0
LINE
  5
51DB
330
1A
100
AcDbEntity
  8
破線
100
AcDbLine
 10
-1857.164897106012
 20
729.3233822082343
 30
0.0
 11
-1832.164897106012
 21
729.3233822082343
 31
0.0
  0
LINE
  5
51DC
330
1A
100
AcDbEntity
  8
破線
100
AcDbLine
 10
-1848.164897106012
 20
808.8233822082342
 30
0.0
 11
-1832.164897106012
 21
808.8233822082342
 31
0.0
  0
LINE
  5
51DD
330
1A
100
AcDbEntity
  8
実線
100
AcDbLine
 10
-1845.164897106012
 20
811.8233822082343
 30
0.0
 11
-1832.164897106012
 21
811.8233822082343
 31
0.0
  0
LINE
  5
51DE
330
1A
100
AcDbEntity
  8
実線
100
AcDbLine
 10
-1857.164897106012
 20
799.8233822082343
 30
0.0
 11
-1845.164897106012
 21
811.8233822082343
 31
0.0
  0
LINE
  5
51DF
330
1A
100
AcDbEntity
  8
実線
100
AcDbLine
 10
-1857.164897106012
 20
808.8233822082342
 30
0.0
 11
-1848.164897106012
 21
808.8233822082342
 31
0.0
  0
LINE
  5
51F0
330
1A
100
AcDbEntity
  8
実線
100
AcDbLine
 10
-1857.164897106012
 20
850.8233822082342
 30
0.0
 11
-1673.164897106012
 21
850.8233822082344
 31
0.0
  0
LINE
  5
51F1
330
1A
100
AcDbEntity
  8
中心線
100
AcDbLine
 10
-1879.164897106012
 20
829.8233822082343
 30
0.0
 11
-1651.165
 21
829.8233822082343
 31
0.0
  0
INSERT
  5
51F2
330
1A
100
AcDbEntity
  8
寸法線
100
AcDbBlockReference
  2
_OPEN
 10
-1797.701844851831
 20
899.8233822082342
 30
0.0
 41
15.0
 42
15.0
 43
15.0
 50
180.0
  0
LINE
  5
51F3
330
1A
100
AcDbEntity
  8
実線
100
AcDbLine
 10
-1869.164897106012
 20
859.8233822082343
 30
0.0
 11
-1857.164897106012
 21
859.8233822082343
 31
0.0
  0
LINE
  5
51F4
330
1A
100
AcDbEntity
  8
破線
100
AcDbLine
 10
-1857.164897106012
 20
841.8233822082342
 30
0.0
 11
-1832.164897106012
 21
841.8233822082342
 31
0.0
  0
LINE
  5
51F5
330
1A
100
AcDbEntity
  8
破線
100
AcDbLine
 10
-1832.164897106012
 20
841.8233822082342
 30
0.0
 11
-1832.164897106012
 21
850.8233822082342
 31
0.0
  0
LINE
  5
51F6
330
1A
100
AcDbEntity
  8
実線
100
AcDbLine
 10
-1673.164897106012
 20
869.8233822082343
 30
0.0
 11
-1661.164897106012
 21
869.8233822082343
 31
0.0
  0
LINE
  5
51F9
330
1A
100
AcDbEntity
  8
寸法線
100
AcDbLine
 10
-1782.701844851831
 20
899.8233822082342
 30
0.0
 11
-1770.305109666006
 21
899.8233822082342
 31
0.0
  0
TEXT
  5
51FA
330
1A
100
AcDbEntity
  8
寸法線
100
AcDbText
 10
-1768.046622484802
 20
888.6233822082342
 30
0.0
 40
21.0
  1
Ａ
 72
     4
 11
-1758.246622484802
 21
899.8233822082342
 31
0.0
100
AcDbText
  0
CIRCLE
  5
5200
330
1A
100
AcDbEntity
  8
実線
100
AcDbCircle
 10
-1018.395000678746
 20
829.8233822082343
 30
0.0
 40
21.25
  0
LINE
  5
5201
330
1A
100
AcDbEntity
  8
実線
100
AcDbLine
 10
-1268.395000678746
 20
869.8233822082343
 30
0.0
 11
-978.395
 21
869.8233822082343
 31
0.0
  0
DIMENSION
  5
5202
330
1A
100
AcDbEntity
  8
寸法線
100
AcDbDimension
  2
*D31
 10
-978.3950006787463
 20
459.8233822082343
 30
0.0
 11
-1123.395000339373
 21
459.8233822082343
 31
0.0
 70
   160
 71
     5
 42
289.9999993212536
  3
STANDARD
100
AcDbAlignedDimension
 13
-1268.395
 23
579.8233822082343
 33
0.0
 14
-978.3950006787463
 24
579.8233822082343
 34
0.0
100
AcDbRotatedDimension
  0
DIMENSION
  5
5203
330
1A
100
AcDbEntity
  8
寸法線
100
AcDbDimension
  2
*D32
 10
-1053.395000678746
 20
507.8233822082343
 30
0.0
 11
-1123.395000678746
 21
523.5733822082343
 31
0.0
 70
    32
 71
     5
 42
140.0
  3
STANDARD
100
AcDbAlignedDimension
 13
-1193.395000678746
 23
630.8233822082343
 33
0.0
 14
-1053.395000678746
 24
630.8233822082343
 34
0.0
100
AcDbRotatedDimension
  0
LINE
  5
5204
330
1A
100
AcDbEntity
  8
中心線
100
AcDbLine
 10
-1293.395
 20
724.8233822082343
 30
0.0
 11
-953.395
 21
724.8233822082343
 31
0.0
  0
LINE
  5
5205
330
1A
100
AcDbEntity
  8
実線
100
AcDbLine
 10
-1268.395
 20
579.8233822082343
 30
0.0
 11
-978.3950006787463
 21
579.8233822082343
 31
0.0
  0
LINE
  5
520D
330
1A
100
AcDbEntity
  8
実線
100
AcDbLine
 10
-1268.395000678746
 20
579.823
 30
0.0
 11
-1268.395000678746
 21
869.8233822082343
 31
0.0
  0
DIMENSION
  5
520F
330
1A
100
AcDbEntity
  8
寸法線
100
AcDbDimension
  2
*D34
 10
-1316.395000678746
 20
829.8233822082345
 30
0.0
 11
-1332.14706760788
 21
724.8233822082339
 31
0.0
 70
    32
 71
     5
 42
210.0
  3
STANDARD
100
AcDbAlignedDimension
 13
-1278.895000678746
 23
619.8233822082343
 33
0.0
 14
-1278.895000678746
 24
829.8233822082343
 34
0.0
 50
90.0
100
AcDbRotatedDimension
  0
DIMENSION
  5
5210
330
1A
100
AcDbEntity
  8
寸法線
100
AcDbDimension
  2
*D35
 10
-1193.395000678746
 20
507.8233822082343
 30
0.0
 11
-1230.895000339373
 21
507.8233822082343
 31
0.0
 70
   160
 71
     5
 42
74.99999932125387
  3
STANDARD
100
AcDbAlignedDimension
 13
-1268.395
 23
579.8233822082343
 33
0.0
 14
-1193.395000678746
 24
630.8233822082343
 34
0.0
100
AcDbRotatedDimension
  0
DIMENSION
  5
5211
330
1A
100
AcDbEntity
  8
寸法線
100
AcDbDimension
  2
*D36
 10
-1316.395000678747
 20
619.8233822082344
 30
0.0
 11
-1316.395000678747
 21
599.823382208234
 31
0.0
 70
   160
 71
     5
 42
40.0
  3
STANDARD
100
AcDbAlignedDimension
 13
-1268.395
 23
579.8233822082343
 33
0.0
 14
-1278.895000678746
 24
619.8233822082343
 34
0.0
 50
90.0
100
AcDbRotatedDimension
  0
LINE
  5
5216
330
1A
100
AcDbEntity
  8
中心線
100
AcDbLine
 10
-1222.395000678746
 20
654.8233822082343
 30
0.0
 11
-1164.395000678746
 21
654.8233822082343
 31
0.0
  0
ARC
  5
5217
330
1A
100
AcDbEntity
  8
実線
100
AcDbCircle
 10
-1188.395000678746
 20
654.8233822082343
 30
0.0
 40
10.0
100
AcDbArc
 50
270.0
 51
90.0
  0
ARC
  5
5218
330
1A
100
AcDbEntity
  8
実線
100
AcDbCircle
 10
-1198.395000678746
 20
654.8233822082343
 30
0.0
 40
10.0
100
AcDbArc
 50
90.0
 51
270.0
  0
LINE
  5
5219
330
1A
100
AcDbEntity
  8
中心線
100
AcDbLine
 10
-1193.395000678746
 20
678.8233822082343
 30
0.0
 11
-1193.395000678746
 21
630.8233822082343
 31
0.0
  0
LINE
  5
521A
330
1A
100
AcDbEntity
  8
実線
100
AcDbLine
 10
-1198.395000678746
 20
644.8233822082343
 30
0.0
 11
-1188.395000678746
 21
644.8233822082343
 31
0.0
  0
LINE
  5
521B
330
1A
100
AcDbEntity
  8
実線
100
AcDbLine
 10
-1198.395000678746
 20
664.8233822082342
 30
0.0
 11
-1188.395000678746
 21
664.8233822082342
 31
0.0
  0
DIMENSION
  5
5221
330
1A
100
AcDbEntity
  8
寸法線
100
AcDbDimension
  2
*D37
 10
-1316.395000678746
 20
869.8233822082343
 30
0.0
 11
-1316.395000678746
 21
849.8233822082342
 31
0.0
 70
   160
 71
     5
 42
40.0
  3
STANDARD
100
AcDbAlignedDimension
 13
-1278.895000678746
 23
829.8233822082343
 33
0.0
 14
-1268.395000678746
 24
869.8233822082343
 34
0.0
 50
90.0
100
AcDbRotatedDimension
  0
LINE
  5
5230
330
1A
100
AcDbEntity
  8
中心線
100
AcDbLine
 10
-1222.395000678746
 20
794.8233822082343
 30
0.0
 11
-1164.395000678746
 21
794.8233822082343
 31
0.0
  0
LINE
  5
5231
330
1A
100
AcDbEntity
  8
中心線
100
AcDbLine
 10
-1193.395000678746
 20
818.8233822082343
 30
0.0
 11
-1193.395000678746
 21
770.8233822082343
 31
0.0
  0
LINE
  5
5232
330
1A
100
AcDbEntity
  8
実線
100
AcDbLine
 10
-1198.395000678746
 20
804.8233822082343
 30
0.0
 11
-1188.395000678746
 21
804.8233822082343
 31
0.0
  0
LINE
  5
5233
330
1A
100
AcDbEntity
  8
実線
100
AcDbLine
 10
-1198.395000678746
 20
784.8233822082343
 30
0.0
 11
-1188.395000678746
 21
784.8233822082343
 31
0.0
  0
ARC
  5
5234
330
1A
100
AcDbEntity
  8
実線
100
AcDbCircle
 10
-1198.395000678746
 20
794.8233822082343
 30
0.0
 40
10.0
100
AcDbArc
 50
90.0
 51
270.0
  0
ARC
  5
5235
330
1A
100
AcDbEntity
  8
実線
100
AcDbCircle
 10
-1188.395000678746
 20
794.8233822082343
 30
0.0
 40
10.0
100
AcDbArc
 50
270.0
 51
90.0
  0
LINE
  5
523C
330
1A
100
AcDbEntity
  8
実線
100
AcDbLine
 10
-978.3950005789304
 20
579.8233822082343
 30
0.0
 11
-978.395
 21
869.8233822082343
 31
0.0
  0
DIMENSION
  5
523D
330
1A
100
AcDbEntity
  8
寸法線
100
AcDbDimension
  2
*D38
 10
-978.3950006787463
 20
507.8233822082343
 30
0.0
 11
-1015.895000678746
 21
507.8233822082343
 31
0.0
 70
   160
 71
     5
 42
74.99999999999976
  3
STANDARD
100
AcDbAlignedDimension
 13
-1053.395000678746
 23
630.8233822082343
 33
0.0
 14
-978.3950006787463
 24
579.8233822082343
 34
0.0
100
AcDbRotatedDimension
  0
LINE
  5
523E
330
1A
100
AcDbEntity
  8
中心線
100
AcDbLine
 10
-1082.395000678746
 20
654.8233822082343
 30
0.0
 11
-1024.395000678746
 21
654.8233822082343
 31
0.0
  0
ARC
  5
523F
330
1A
100
AcDbEntity
  8
実線
100
AcDbCircle
 10
-1048.395000678746
 20
654.8233822082343
 30
0.0
 40
10.0
100
AcDbArc
 50
270.0
 51
90.0
  0
LINE
  5
5240
330
1A
100
AcDbEntity
  8
中心線
100
AcDbLine
 10
-1053.395000678746
 20
678.8233822082343
 30
0.0
 11
-1053.395000678746
 21
630.8233822082343
 31
0.0
  0
ARC
  5
5241
330
1A
100
AcDbEntity
  8
実線
100
AcDbCircle
 10
-1058.395000678746
 20
654.8233822082343
 30
0.0
 40
10.0
100
AcDbArc
 50
90.0
 51
270.0
  0
LINE
  5
5242
330
1A
100
AcDbEntity
  8
実線
100
AcDbLine
 10
-1058.395000678746
 20
644.8233822082343
 30
0.0
 11
-1048.395000678746
 21
644.8233822082343
 31
0.0
  0
LINE
  5
5243
330
1A
100
AcDbEntity
  8
実線
100
AcDbLine
 10
-1058.395000678746
 20
664.8233822082342
 30
0.0
 11
-1048.395000678746
 21
664.8233822082342
 31
0.0
  0
LINE
  5
524C
330
1A
100
AcDbEntity
  8
中心線
100
AcDbLine
 10
-1082.395000678746
 20
794.8233822082343
 30
0.0
 11
-1024.395000678746
 21
794.8233822082343
 31
0.0
  0
LINE
  5
524D
330
1A
100
AcDbEntity
  8
中心線
100
AcDbLine
 10
-1053.395000678746
 20
818.8233822082343
 30
0.0
 11
-1053.395000678746
 21
770.8233822082343
 31
0.0
  0
LINE
  5
524E
330
1A
100
AcDbEntity
  8
実線
100
AcDbLine
 10
-1058.395000678746
 20
804.8233822082343
 30
0.0
 11
-1048.395000678746
 21
804.8233822082343
 31
0.0
  0
LINE
  5
524F
330
1A
100
AcDbEntity
  8
実線
100
AcDbLine
 10
-1058.395000678746
 20
784.8233822082343
 30
0.0
 11
-1048.395000678746
 21
784.8233822082343
 31
0.0
  0
ARC
  5
5250
330
1A
100
AcDbEntity
  8
実線
100
AcDbCircle
 10
-1048.395000678746
 20
794.8233822082343
 30
0.0
 40
10.0
100
AcDbArc
 50
270.0
 51
90.0
  0
ARC
  5
5251
330
1A
100
AcDbEntity
  8
実線
100
AcDbCircle
 10
-1058.395000678746
 20
794.8233822082343
 30
0.0
 40
10.0
100
AcDbArc
 50
90.0
 51
270.0
  0
LINE
  5
596F
330
1A
100
AcDbEntity
  8
中心線
100
AcDbLine
 10
-1651.165
 20
794.8233822082343
 30
0.0
 11
-1683.165
 21
794.8233822082343
 31
0.0
  0
LINE
  5
5970
330
1A
100
AcDbEntity
  8
中心線
100
AcDbLine
 10
-1651.165
 20
654.8233822082343
 30
0.0
 11
-1683.165
 21
654.8233822082343
 31
0.0
  0
MTEXT
  5
5AEC
330
1A
100
AcDbEntity
  8
寸法線
100
AcDbMText
 10
-720.9589183572557
 20
515.2630025079862
 30
0.0
 40
21.0
 41
0.0
 71
     9
 72
     5
  1
4-20×30長穴
 73
     1
 44
1.0
1001
ACAD
1000
MTEXTBEGIN
1070
    73
1070
     1
1070
    44
1040
1.0
1070
    74
1070
     0
1000
MTEXTEND
  0
MTEXT
  5
5AED
330
1A
100
AcDbEntity
  8
寸法線
100
AcDbMText
 10
-820.8128918831201
 20
476.5694907446444
 30
0.0
 40
21.0
 41
0.0
 71
     9
 72
     5
  1
(ｱﾝｶｰ用)
 73
     1
 44
1.0
1001
ACAD
1000
MTEXTBEGIN
1070
    73
1070
     1
1070
    44
1040
1.0
1070
    74
1070
     0
1000
MTEXTEND
  0
LINE
  5
5AEE
330
1A
100
AcDbEntity
  8
寸法線
100
AcDbLine
 10
-906.3950006787459
 20
507.8233822082343
 30
0.0
 11
-713.5181148345392
 21
507.8233822082343
 31
0.0
  0
LEADER
  5
5AEF
330
1A
100
AcDbEntity
  8
寸法線
100
AcDbLeader
  3
STANDARD
 76
     2
 10
-1044.280622401084
 20
645.7090039305727
 30
0.0
 10
-906.3950006787459
 20
507.8233822082343
 30
0.0
1001
ACAD
1000
DSTYLE
1002
{
1070
   147
1040
0.875
1070
    77
1070
     0
1002
}
  0
CIRCLE
  5
5AFC
330
1A
100
AcDbEntity
  8
実線
100
AcDbCircle
 10
-1018.395000678746
 20
829.8233822082343
 30
0.0
 40
21.0
  0
CIRCLE
  5
5B03
330
1A
100
AcDbEntity
  8
実線
100
AcDbCircle
 10
-1018.395000678746
 20
619.8233822082343
 30
0.0
 40
21.25
  0
CIRCLE
  5
5B04
330
1A
100
AcDbEntity
  8
実線
100
AcDbCircle
 10
-1018.395000678746
 20
619.8233822082343
 30
0.0
 40
21.0
  0
CIRCLE
  5
5B05
330
1A
100
AcDbEntity
  8
実線
100
AcDbCircle
 10
-1228.395000678746
 20
829.8233822082343
 30
0.0
 40
21.25
  0
CIRCLE
  5
5B06
330
1A
100
AcDbEntity
  8
実線
100
AcDbCircle
 10
-1228.395000678746
 20
829.8233822082343
 30
0.0
 40
21.0
  0
CIRCLE
  5
5B07
330
1A
100
AcDbEntity
  8
実線
100
AcDbCircle
 10
-1228.395000678746
 20
619.8233822082343
 30
0.0
 40
21.25
  0
CIRCLE
  5
5B08
330
1A
100
AcDbEntity
  8
実線
100
AcDbCircle
 10
-1228.395000678746
 20
619.8233822082343
 30
0.0
 40
21.0
  0
DIMENSION
  5
5B65
330
1A
100
AcDbEntity
  8
寸法線
100
AcDbDimension
  2
*D41
 10
-858.3949993212538
 20
869.8233822082343
 30
0.0
 11
-874.147066250388
 21
724.8233822082339
 31
0.0
 70
    32
 71
     5
 42
290.0
  3
STANDARD
100
AcDbAlignedDimension
 13
-978.395
 23
579.8233822082343
 33
0.0
 14
-978.3949993212539
 24
869.8233822082343
 34
0.0
 50
90.0
100
AcDbRotatedDimension
  0
DIMENSION
  5
5B66
330
1A
100
AcDbEntity
  8
寸法線
100
AcDbDimension
  2
*D42
 10
-906.3949993212537
 20
794.8233822082343
 30
0.0
 11
-922.1449993212539
 21
724.8233822082339
 31
0.0
 70
    32
 71
     5
 42
140.0
  3
STANDARD
100
AcDbAlignedDimension
 13
-1024.394999321254
 23
654.8233822082343
 33
0.0
 14
-1024.394999321254
 24
794.8233822082343
 34
0.0
 50
90.0
100
AcDbRotatedDimension
  0
DIMENSION
  5
5B67
330
1A
100
AcDbEntity
  8
寸法線
100
AcDbDimension
  2
*D43
 10
-906.3949993212537
 20
654.8233822082343
 30
0.0
 11
-906.3949993212538
 21
617.3233822082344
 31
0.0
 70
   160
 71
     5
 42
75.0
  3
STANDARD
100
AcDbAlignedDimension
 13
-978.395
 23
579.8233822082343
 33
0.0
 14
-1024.394999321254
 24
654.8233822082343
 34
0.0
 50
90.0
100
AcDbRotatedDimension
  0
DIMENSION
  5
5B68
330
1A
100
AcDbEntity
  8
寸法線
100
AcDbDimension
  2
*D44
 10
-906.3949993212537
 20
869.8233822082343
 30
0.0
 11
-906.3949993212538
 21
832.3233822082343
 31
0.0
 70
   160
 71
     5
 42
75.0
  3
STANDARD
100
AcDbAlignedDimension
 13
-1024.394999321254
 23
794.8233822082343
 33
0.0
 14
-978.3949993212539
 24
869.8233822082343
 34
0.0
 50
90.0
100
AcDbRotatedDimension
  0
DIMENSION
  5
5C46
330
1A
100
AcDbEntity
  8
寸法線
100
AcDbDimension
  2
*D48
 10
-1018.395000678746
 20
917.8233828869805
 30
0.0
 11
-1123.395000678746
 21
933.5754498161143
 31
0.0
 70
    32
 71
     5
 42
209.9999999999999
  3
STANDARD
100
AcDbAlignedDimension
 13
-1228.395000678746
 23
880.3233822082344
 33
0.0
 14
-1018.395000678746
 24
880.3233822082344
 34
0.0
100
AcDbRotatedDimension
  0
DIMENSION
  5
5C47
330
1A
100
AcDbEntity
  8
寸法線
100
AcDbDimension
  2
*D49
 10
-1228.395000678746
 20
917.8233828869814
 30
0.0
 11
-1248.395000678746
 21
917.8233828869814
 31
0.0
 70
   160
 71
     5
 42
40.00000000000023
  3
STANDARD
100
AcDbAlignedDimension
 13
-1268.395000678746
 23
869.8233822082343
 33
0.0
 14
-1228.395000678746
 24
880.3233822082344
 34
0.0
100
AcDbRotatedDimension
  0
DIMENSION
  5
5C48
330
1A
100
AcDbEntity
  8
寸法線
100
AcDbDimension
  2
*D50
 10
-978.3950006787462
 20
917.8233828869799
 30
0.0
 11
-998.3950006787459
 21
917.8233828869799
 31
0.0
 70
   160
 71
     5
 42
39.99999999999989
  3
STANDARD
100
AcDbAlignedDimension
 13
-1018.395000678746
 23
880.3233822082344
 33
0.0
 14
-978.3950006787462
 24
869.8233828869804
 34
0.0
100
AcDbRotatedDimension
  0
LEADER
  5
5DEA
330
1A
100
AcDbEntity
  8
寸法線
100
AcDbLeader
  3
STANDARD
 76
     3
 10
-2386.669972446283
 20
665.98453616348
 30
0.0
 10
-2228.508605483961
 20
507.8227655164136
 30
0.0
 10
-2070.1171181711
 20
507.8227655164136
 30
0.0
1001
ACAD
1000
DSTYLE
1002
{
1070
   147
1040
0.875
1070
    77
1070
     0
1002
}
  0
MTEXT
  5
5DEB
330
1A
100
AcDbEntity
  8
寸法線
100
AcDbMText
 10
-2139.510966084575
 20
515.2623858161653
 30
0.0
 40
21.0
 41
0.0
 71
     9
 72
     5
  1
4-φ25
 73
     1
 44
1.0
1001
ACAD
1000
MTEXTBEGIN
1070
    73
1070
     1
1070
    44
1040
1.0
1070
    74
1070
     0
1000
MTEXTEND
  0
MTEXT
  5
5DEC
330
1A
100
AcDbEntity
  8
寸法線
100
AcDbMText
 10
-2217.496426982998
 20
479.9554813304563
 30
0.0
 40
21.0
 41
0.0
 71
     7
 72
     5
  1
(切梁取付用)
 73
     1
 44
1.0
1001
ACAD
1000
MTEXTBEGIN
1070
    73
1070
     1
1070
    44
1040
1.0
1070
    74
1070
     0
1000
MTEXTEND
  0
TEXT
  5
5DF5
330
1A
100
AcDbEntity
  8
寸法線
100
AcDbText
 10
-2741.864097259254
 20
399.4993940132683
 30
0.0
 40
24.0
  1
ａ,ｂ：穴開け位置は切梁メーカー仕様による。
100
AcDbText
  0
LINE
  5
5DF6
330
1A
100
AcDbEntity
  8
寸法線
100
AcDbLine
 10
-2752.66686823517
 20
387.8237602194833
 30
0.0
 11
-2143.025269390078
 21
387.8237602194833
 31
0.0
  0
TEXT
  5
5DFF
330
1A
100
AcDbEntity
  8
寸法線
100
AcDbText
 10
-1956.578404876476
 20
-223.5160050753688
 30
0.0
 40
24.0
  1
断面Ａ－Ａ
100
AcDbText
  0
LINE
  5
5E00
330
1A
100
AcDbEntity
  8
寸法線
100
AcDbLine
 10
-1967.980672116007
 20
-230.2448299127127
 30
0.0
 11
-1807.446712480876
 21
-230.2448299127127
 31
0.0
  0
MTEXT
  5
5EB7
330
1A
100
AcDbEntity
  8
寸法線
100
AcDbMText
 10
-1451.185424438991
 20
514.0568989250533
 30
0.0
 40
21.0
 41
0.0
 71
     7
 72
     5
  1
4-φ42.5
 73
     1
 44
1.0
1001
ACAD
1000
MTEXTBEGIN
1070
    73
1070
     1
1070
    44
1040
1.0
1070
    74
1070
     0
1000
MTEXTEND
  0
LEADER
  5
5EB8
330
1A
100
AcDbEntity
  8
寸法線
100
AcDbLeader
  3
STANDARD
 76
     2
 10
-1243.421019100214
 20
604.7975975916073
 30
0.0
 10
-1340.395234483587
 20
507.8233822082343
 30
0.0
211
-1.0
221
0.0
231
0.0
1001
ACAD
1000
DSTYLE
1002
{
1070
   147
1040
0.875
1070
    77
1070
     0
1002
}
  0
LINE
  5
5EB9
330
1A
100
AcDbEntity
  8
寸法線
100
AcDbLine
 10
-1340.395234483587
 20
507.8233822082343
 30
0.0
 11
-1454.945641780216
 21
507.8233822082343
 31
0.0
  0
LINE
  5
5EC4
330
1A
100
AcDbEntity
  8
中心線
100
AcDbLine
 10
-1123.395
 20
894.8233822082343
 30
0.0
 11
-1123.395
 21
554.8233822082344
 31
0.0
  0
LINE
  5
5EE6
330
1A
100
AcDbEntity
  8
中心線
100
AcDbLine
 10
-1228.395000678746
 20
880.3233822082344
 30
0.0
 11
-1228.395000678746
 21
787.8233822082343
 31
0.0
  0
LINE
  5
5EE7
330
1A
100
AcDbEntity
  8
中心線
100
AcDbLine
 10
-1278.895000678746
 20
829.8233822082343
 30
0.0
 11
-1186.395000678746
 21
829.8233822082343
 31
0.0
  0
LINE
  5
5EF0
330
1A
100
AcDbEntity
  8
中心線
100
AcDbLine
 10
-1018.395000678746
 20
880.3233822082344
 30
0.0
 11
-1018.395000678746
 21
787.8233822082343
 31
0.0
  0
LINE
  5
5EF1
330
1A
100
AcDbEntity
  8
中心線
100
AcDbLine
 10
-1068.895000678746
 20
829.8233822082343
 30
0.0
 11
-976.3950006787467
 21
829.8233822082343
 31
0.0
  0
LINE
  5
5EFA
330
1A
100
AcDbEntity
  8
中心線
100
AcDbLine
 10
-1228.395000678746
 20
670.3233822082344
 30
0.0
 11
-1228.395000678746
 21
577.8233822082342
 31
0.0
  0
LINE
  5
5EFB
330
1A
100
AcDbEntity
  8
中心線
100
AcDbLine
 10
-1278.895000678746
 20
619.8233822082343
 30
0.0
 11
-1186.395000678746
 21
619.8233822082343
 31
0.0
  0
LINE
  5
5F04
330
1A
100
AcDbEntity
  8
中心線
100
AcDbLine
 10
-1018.395000678746
 20
670.3233822082344
 30
0.0
 11
-1018.395000678746
 21
577.8233822082342
 31
0.0
  0
LINE
  5
5F05
330
1A
100
AcDbEntity
  8
中心線
100
AcDbLine
 10
-1068.895000678746
 20
619.8233822082343
 30
0.0
 11
-976.3950006787467
 21
619.8233822082343
 31
0.0
  0
LINE
  5
6105
330
1A
100
AcDbEntity
  8
中心線
100
AcDbLine
 10
-2550.508795931178
 20
869.8233822082345
 30
0.0
 11
-2550.508795931178
 21
789.8233822082345
 31
0.0
  0
LINE
  5
6106
330
1A
100
AcDbEntity
  8
中心線
100
AcDbLine
 10
-2590.508795931178
 20
829.8233822082343
 30
0.0
 11
-2510.508795931178
 21
829.8233822082343
 31
0.0
  0
LINE
  5
6107
330
1A
100
AcDbEntity
  8
中心線
100
AcDbLine
 10
-2340.508795931178
 20
869.8233822082345
 30
0.0
 11
-2340.508795931178
 21
789.8233822082345
 31
0.0
  0
LINE
  5
6108
330
1A
100
AcDbEntity
  8
中心線
100
AcDbLine
 10
-2380.508795931178
 20
829.8233822082343
 30
0.0
 11
-2300.508795931178
 21
829.8233822082343
 31
0.0
  0
LINE
  5
6109
330
1A
100
AcDbEntity
  8
中心線
100
AcDbLine
 10
-2550.508795931178
 20
659.8233822082345
 30
0.0
 11
-2550.508795931178
 21
579.8233822082345
 31
0.0
  0
LINE
  5
610A
330
1A
100
AcDbEntity
  8
中心線
100
AcDbLine
 10
-2590.508795931178
 20
619.8233822082343
 30
0.0
 11
-2510.508795931178
 21
619.8233822082343
 31
0.0
  0
LINE
  5
610D
330
1A
100
AcDbEntity
  8
中心線
100
AcDbLine
 10
-2340.508795931178
 20
659.8233822082345
 30
0.0
 11
-2340.508795931178
 21
579.8233822082345
 31
0.0
  0
LINE
  5
610E
330
1A
100
AcDbEntity
  8
中心線
100
AcDbLine
 10
-2380.508795931178
 20
619.8233822082343
 30
0.0
 11
-2300.508795931178
 21
619.8233822082343
 31
0.0
  0
LINE
  5
6111
330
1A
100
AcDbEntity
  8
中心線
100
AcDbLine
 10
-2595.508906194286
 20
724.8232884025204
 30
0.0
 11
-2295.508906194287
 21
724.823476013948
 31
0.0
  0
LINE
  5
6112
330
1A
100
AcDbEntity
  8
中心線
100
AcDbLine
 10
-1999.000394489856
 20
211.755928831348
 30
0.0
 11
-1999.000394489856
 21
131.755928831348
 31
0.0
  0
LINE
  5
6113
330
1A
100
AcDbEntity
  8
中心線
100
AcDbLine
 10
-2039.000394489856
 20
171.7559288313478
 30
0.0
 11
-1959.000394489856
 21
171.7559288313478
 31
0.0
  0
LINE
  5
6114
330
1A
100
AcDbEntity
  8
中心線
100
AcDbLine
 10
-1789.000394489856
 20
211.755928831348
 30
0.0
 11
-1789.000394489856
 21
131.755928831348
 31
0.0
  0
LINE
  5
6115
330
1A
100
AcDbEntity
  8
中心線
100
AcDbLine
 10
-1829.000394489856
 20
171.7559288313478
 30
0.0
 11
-1749.000394489856
 21
171.7559288313478
 31
0.0
  0
LINE
  5
6116
330
1A
100
AcDbEntity
  8
中心線
100
AcDbLine
 10
-1999.000394489856
 20
1.755928831348001
 30
0.0
 11
-1999.000394489856
 21
-78.244071168652
 31
0.0
  0
LINE
  5
6117
330
1A
100
AcDbEntity
  8
中心線
100
AcDbLine
 10
-2039.000394489856
 20
-38.24407116865223
 30
0.0
 11
-1959.000394489856
 21
-38.24407116865223
 31
0.0
  0
LINE
  5
6118
330
1A
100
AcDbEntity
  8
中心線
100
AcDbLine
 10
-1789.000394489856
 20
1.755928831348001
 30
0.0
 11
-1789.000394489856
 21
-78.244071168652
 31
0.0
  0
LINE
  5
6119
330
1A
100
AcDbEntity
  8
中心線
100
AcDbLine
 10
-1829.000394489856
 20
-38.24407116865223
 30
0.0
 11
-1749.000394489856
 21
-38.24407116865223
 31
0.0
  0
LINE
  5
611A
330
1A
100
AcDbEntity
  8
中心線
100
AcDbLine
 10
-1894.000394489855
 20
216.7555466231133
 30
0.0
 11
-1894.000206878428
 21
-83.24445337688667
 31
0.0
  0
LINE
  5
611B
330
1A
100
AcDbEntity
  8
中心線
100
AcDbLine
 10
-2044.000300684142
 20
66.7554528173996
 30
0.0
 11
-1744.000300684141
 21
66.75564042882706
 31
0.0
  0
LINE
  5
6316
330
1A
100
AcDbEntity
  8
実線
100
AcDbLine
 10
-1661.164897106012
 20
846.2043822082344
 30
0.0
 11
-1661.164897106012
 21
813.4423822082341
 31
0.0
  0
LINE
  5
6317
330
1A
100
AcDbEntity
  8
寸法線
100
AcDbLine
 10
-1667.164897106012
 20
850.8233822082344
 30
0.0
 11
-1667.164897106012
 21
850.8233822082344
 31
0.0
  0
LINE
  5
6318
330
1A
100
AcDbEntity
  8
破線
100
AcDbLine
 10
-1661.164897106012
 20
847.3595477814964
 30
0.0
 11
-1667.164897106012
 21
850.8236493966345
 31
0.0
  0
LINE
  5
6319
330
1A
100
AcDbEntity
  8
破線
100
AcDbLine
 10
-1661.164897106012
 20
812.2877510117723
 30
0.0
 11
-1667.164897106012
 21
808.8236493966345
 31
0.0
  0
LINE
  5
631A
330
1A
100
AcDbEntity
  8
破線
100
AcDbLine
 10
-1667.164434322128
 20
850.8233822082344
 30
0.0
 11
-1673.164897106012
 21
850.8233822082344
 31
0.0
  0
LINE
  5
631B
330
1A
100
AcDbEntity
  8
破線
100
AcDbLine
 10
-1667.164897106012
 20
808.8236493966345
 30
0.0
 11
-1673.164897106012
 21
808.8236428398632
 31
0.0
  0
LINE
  5
631C
330
1A
100
AcDbEntity
  8
寸法線
100
AcDbLine
 10
-1667.164897106012
 20
640.8233822082343
 30
0.0
 11
-1667.164897106012
 21
640.8233822082343
 31
0.0
  0
LINE
  5
631D
330
1A
100
AcDbEntity
  8
破線
100
AcDbLine
 10
-1661.164897106012
 20
637.3595477814965
 30
0.0
 11
-1667.164897106012
 21
640.8236493966342
 31
0.0
  0
LINE
  5
631E
330
1A
100
AcDbEntity
  8
破線
100
AcDbLine
 10
-1661.164897106012
 20
602.2877510117721
 30
0.0
 11
-1667.164897106012
 21
598.8236493966342
 31
0.0
  0
LINE
  5
631F
330
1A
100
AcDbEntity
  8
破線
100
AcDbLine
 10
-1667.164434322128
 20
640.8233822082343
 30
0.0
 11
-1673.164897106012
 21
640.8233822082343
 31
0.0
  0
LINE
  5
6320
330
1A
100
AcDbEntity
  8
破線
100
AcDbLine
 10
-1667.164897106012
 20
598.8236493966342
 30
0.0
 11
-1673.164897106012
 21
598.8236428398631
 31
0.0
  0
VIEWPORT
  5
22
102
{ACAD_XDICTIONARY
360
63CB
102
}
330
17
100
AcDbEntity
 67
     1
  8
0
100
AcDbViewport
 10
-26.02917977568405
 20
142.4880139160445
 30
0.0
 40
410.6750660266664
 41
319.7845437994448
 68
     1
 69
     1
 12
-26.02917977568405
 22
142.4880139160445
 13
0.0
 23
0.0
 14
1.0
 24
1.0
 15
10.0
 25
10.0
 16
0.0
 26
0.0
 36
1.0
 17
0.0
 27
0.0
 37
0.0
 42
50.0
 43
0.0
 44
0.0
 45
319.7845437994448
 50
0.0
 51
0.0
 72
   100
 90
    32768
  1

281
     0
 71
     1
 74
     0
110
0.0
120
0.0
130
0.0
111
1.0
121
0.0
131
0.0
112
0.0
122
1.0
132
0.0
 79
     0
146
0.0
  0
LINE
  5
E14
330
17
100
AcDbEntity
 67
     1
  8
DEFPOINTS
100
AcDbLine
 10
178.0599999999999
 20
284.99
 30
0.0
 11
178.0599999999999
 21
274.99
 31
0.0
  0
LINE
  5
E15
330
17
100
AcDbEntity
 67
     1
  8
DEFPOINTS
100
AcDbLine
 10
-230.12
 20
284.9899999999998
 30
0.0
 11
-230.12
 21
274.9899999999998
 31
0.0
  0
LINE
  5
E16
330
17
100
AcDbEntity
 67
     1
  8
DEFPOINTS
100
AcDbLine
 10
-230.12
 20
284.9899999999998
 30
0.0
 11
-220.06
 21
284.9899999999998
 31
0.0
  0
LINE
  5
E17
330
17
100
AcDbEntity
 67
     1
  8
DEFPOINTS
100
AcDbLine
 10
178.06
 20
0.0000000000000799
 30
0.0
 11
168.06
 21
0.0000000000000799
 31
0.0
  0
LINE
  5
E1B
330
17
100
AcDbEntity
 67
     1
  8
DEFPOINTS
100
AcDbLine
 10
-230.1199999999999
 20
9.999999999999886
 30
0.0
 11
-230.1199999999999
 21
-0.0000000000001137
 31
0.0
  0
LINE
  5
E1C
330
17
100
AcDbEntity
 67
     1
  8
DEFPOINTS
100
AcDbLine
 10
178.06
 20
10.00000000000007
 30
0.0
 11
178.06
 21
0.0000000000000799
 31
0.0
  0
LINE
  5
E1D
330
17
100
AcDbEntity
 67
     1
  8
DEFPOINTS
100
AcDbLine
 10
168.0599999999999
 20
284.99
 30
0.0
 11
178.0599999999999
 21
284.99
 31
0.0
  0
LINE
  5
E1E
330
17
100
AcDbEntity
 67
     1
  8
DEFPOINTS
100
AcDbLine
 10
-220.06
 20
-0.0000000000001137
 30
0.0
 11
-230.1199999999999
 21
-0.0000000000001137
 31
0.0
  0
LINE
  5
E20
330
17
100
AcDbEntity
 67
     1
  8
ZUWAKU
 62
     7
100
AcDbLine
 10
172.6549999999999
 20
280.7280205533942
 30
0.0
 11
172.655
 21
6.728020553394202
 31
0.0
  0
MTEXT
  5
EB9
330
17
100
AcDbEntity
 67
     1
  8
実線
100
AcDbMText
 10
36.05971463168272
 20
25.13192253593833
 30
0.0
 40
3.5
 41
57.13637628431556
 71
     1
 72
     5
  1

 73
     1
 44
1.0
1001
ACAD
1000
MTEXTBEGIN
1070
    73
1070
     1
1070
    44
1040
1.0
1070
    74
1070
     0
1000
MTEXTEND
  0
MTEXT
  5
EBA
330
17
100
AcDbEntity
 67
     1
  8
実線
100
AcDbMText
 10
60.40477930934763
 20
64.60177102984051
 30
0.0
 40
3.5
 41
52.16799573785332
 71
     1
 72
     5
  1

 73
     1
 44
1.0
1001
ACAD
1000
MTEXTBEGIN
1070
    73
1070
     1
1070
    44
1040
1.0
1070
    74
1070
     0
1000
MTEXTEND
  0
LINE
  5
EBD
330
17
100
AcDbEntity
 67
     1
  8
ZUWAKU
 62
     7
100
AcDbLine
 10
172.655
 20
6.728020553394202
 30
0.0
 11
-204.3449999999999
 21
6.728020553394202
 31
0.0
  0
MTEXT
  5
EBF
330
17
100
AcDbEntity
 67
     1
  8
ZUWAKU
100
AcDbMText
 10
120.9216525254086
 20
9.39733673440115
 30
0.0
 40
3.5
 41
8.903056410044085
 71
     1
 72
     5
  1

 73
     1
 44
1.0
1001
ACAD
1000
MTEXTBEGIN
1070
    73
1070
     1
1070
    44
1040
1.0
1070
    74
1070
     0
1000
MTEXTEND
  0
LINE
  5
F68
330
17
100
AcDbEntity
 67
     1
  8
ZUWAKU
 62
     7
100
AcDbLine
 10
-204.345
 20
280.7280205533942
 30
0.0
 11
-204.3449999999999
 21
6.728020553394202
 31
0.0
  0
LINE
  5
F69
330
17
100
AcDbEntity
 67
     1
  8
ZUWAKU
 62
     7
100
AcDbLine
 10
-204.345
 20
280.7280205533942
 30
0.0
 11
172.6549999999999
 21
280.7280205533942
 31
0.0
  0
VIEWPORT
  5
F6B
102
{ACAD_XDICTIONARY
360
63CD
102
}
330
17
100
AcDbEntity
 67
     1
  8
DEFPOINTS
100
AcDbViewport
 10
-26.03
 20
142.4949999999999
 30
0.0
 40
408.1800000000002
 41
284.9899999999997
 68
     2
 69
     2
 12
-1866.948834827033
 22
215.3337456152403
 13
0.0
 23
0.0
 14
5.0
 24
5.0
 15
0.0
 25
0.0
 16
0.0
 26
0.0
 36
1.0
 17
0.0
 27
0.0
 37
0.0
 42
50.0
 43
0.0
 44
0.0
 45
1709.939999999997
 50
0.0
 51
0.0
 72
   100
 90
    32768
  1

281
     0
 71
     1
 74
     0
110
0.0
120
0.0
130
0.0
111
1.0
121
0.0
131
0.0
112
0.0
122
1.0
132
0.0
 79
     0
146
0.0
  0
LINE
  5
FDA
330
17
100
AcDbEntity
 67
     1
  8
ZUWAKU
 62
     2
100
AcDbLine
 10
172.655
 20
42.7280205533942
 30
0.0
 11
57.6550000000001
 21
42.72802055339421
 31
0.0
  0
LINE
  5
FDB
330
17
100
AcDbEntity
 67
     1
  8
ZUWAKU
 62
     2
100
AcDbLine
 10
172.655
 20
36.7280205533942
 30
0.0
 11
57.6550000000001
 21
36.7280205533942
 31
0.0
  0
LINE
  5
FDD
330
17
100
AcDbEntity
 67
     1
  8
ZUWAKU
 62
     2
100
AcDbLine
 10
172.655
 20
30.7280205533942
 30
0.0
 11
57.6550000000001
 21
30.7280205533942
 31
0.0
  0
TEXT
  5
FF8
330
17
100
AcDbEntity
 67
     1
  8
TITLE
 62
     2
100
AcDbText
 10
123.7360125246395
 20
44.9786025169436
 30
0.0
 40
3.5
  1
25kg
 72
     4
 11
128.655
 21
46.2280205533942
 31
0.0
100
AcDbText
  0
TEXT
  5
FF9
330
17
100
AcDbEntity
 67
     1
  8
TITLE
 62
     2
100
AcDbText
 10
106.5729330708661
 20
44.4780205533942
 30
0.0
 40
3.5
  1
SS400
 72
     4
 11
113.155
 21
46.2280205533942
 31
0.0
100
AcDbText
  0
TEXT
  5
FFB
330
17
100
AcDbEntity
 67
     1
  8
TITLE
 62
     2
100
AcDbText
 10
72.6550000000001
 20
44.4780205533942
 30
0.0
 40
3.5
  1
スルーサーＰ
 11
72.6550000000001
 21
46.2280205533942
 31
0.0
100
AcDbText
 73
     2
  0
TEXT
  5
FFC
330
17
100
AcDbEntity
 67
     1
  8
ZUWAKU
 62
     2
100
AcDbText
 10
62.78000000000006
 20
44.4780205533942
 30
0.0
 40
3.5
  1
1
 72
     4
 11
63.65500000000007
 21
46.2280205533942
 31
0.0
100
AcDbText
  0
LINE
  5
FFD
330
17
100
AcDbEntity
 67
     1
  8
ZUWAKU
 62
     2
100
AcDbLine
 10
69.6550000000001
 20
77.72802055339422
 30
0.0
 11
69.6550000000001
 21
36.7280205533942
 31
0.0
  0
LINE
  5
FFE
330
17
100
AcDbEntity
 67
     1
  8
ZUWAKU
 62
     2
100
AcDbLine
 10
121.655
 20
77.7280205533942
 30
0.0
 11
121.655
 21
36.7280205533942
 31
0.0
  0
LINE
  5
FFF
330
17
100
AcDbEntity
 67
     1
  8
ZUWAKU
 62
     2
100
AcDbLine
 10
135.655
 20
77.7280205533942
 30
0.0
 11
135.655
 21
30.7280205533942
 31
0.0
  0
LINE
  5
1000
330
17
100
AcDbEntity
 67
     1
  8
ZUWAKU
 62
     2
100
AcDbLine
 10
104.6549999999999
 20
77.72802055339422
 30
0.0
 11
104.655
 21
30.7280205533942
 31
0.0
  0
LINE
  5
1001
330
17
100
AcDbEntity
 67
     1
  8
ZUWAKU
 62
     2
100
AcDbLine
 10
57.65500000000008
 20
77.72802055339422
 30
0.0
 11
57.6550000000001
 21
6.728020553394181
 31
0.0
  0
TEXT
  5
1002
330
17
100
AcDbEntity
 67
     1
  8
ZUWAKU
 62
     2
100
AcDbText
 10
107.3216666666666
 20
37.9780205533942
 30
0.0
 40
3.5
  1
材　質
 72
     4
 11
113.155
 21
39.7280205533942
 31
0.0
100
AcDbText
  0
LINE
  5
1003
330
17
100
AcDbEntity
 67
     1
  8
ZUWAKU
 62
     2
100
AcDbLine
 10
172.655
 20
18.7280205533942
 30
0.0
 11
-6.344999999999897
 21
18.72802055339421
 31
0.0
  0
LINE
  5
1004
330
17
100
AcDbEntity
 67
     1
  8
ZUWAKU
 62
     2
100
AcDbLine
 10
117.655
 20
12.7280205533942
 30
0.0
 11
72.6550000000001
 21
12.7280205533942
 31
0.0
  0
LINE
  5
1005
330
17
100
AcDbEntity
 67
     1
  8
ZUWAKU
 62
     2
100
AcDbLine
 10
117.655
 20
24.7280205533942
 30
0.0
 11
72.6550000000001
 21
24.7280205533942
 31
0.0
  0
TEXT
  5
1006
330
17
100
AcDbEntity
 67
     1
  8
ZUWAKU
 62
     2
100
AcDbText
 10
81.92166666666677
 20
31.97802055339419
 30
0.0
 40
3.5
  1
設計
 72
     4
 11
85.6550000000001
 21
33.7280205533942
 31
0.0
100
AcDbText
  0
TEXT
  5
1007
330
17
100
AcDbEntity
 67
     1
  8
ZUWAKU
 62
     2
100
AcDbText
 10
77.23833333333344
 20
37.9780205533942
 30
0.0
 40
3.5
  1
品　　　名
 72
     4
 11
87.15500000000011
 21
39.7280205533942
 31
0.0
100
AcDbText
  0
TEXT
  5
1008
330
17
100
AcDbEntity
 67
     1
  8
ZUWAKU
 62
     2
100
AcDbText
 10
58.82166666666678
 20
13.97802055339421
 30
0.0
 40
3.5
  1
納入先
 72
     4
 11
64.65500000000012
 21
15.72802055339421
 31
0.0
100
AcDbText
  0
TEXT
  5
1009
330
17
100
AcDbEntity
 67
     1
  8
ZUWAKU
 62
     2
100
AcDbText
 10
58.82166666666677
 20
25.9780205533942
 30
0.0
 40
3.5
  1
名　称
 72
     4
 11
64.6550000000001
 21
27.7280205533942
 31
0.0
100
AcDbText
  0
TEXT
  5
100A
330
17
100
AcDbEntity
 67
     1
  8
ZUWAKU
 62
     2
100
AcDbText
 10
58.92166666666677
 20
31.97802055339419
 30
0.0
 40
3.5
  1
検認
 72
     4
 11
62.6550000000001
 21
33.7280205533942
 31
0.0
100
AcDbText
  0
TEXT
  5
100B
330
17
100
AcDbEntity
 67
     1
  8
ZUWAKU
 62
     2
100
AcDbText
 10
58.87166666666673
 20
37.9780205533942
 30
0.0
 40
3.5
  1
品 番
 72
     4
 11
63.65500000000007
 21
39.7280205533942
 31
0.0
100
AcDbText
  0
LINE
  5
100C
330
17
100
AcDbEntity
 67
     1
  8
ZUWAKU
 62
     2
100
AcDbLine
 10
80.65500000000007
 20
36.7280205533942
 30
0.0
 11
80.6550000000001
 21
30.7280205533942
 31
0.0
  0
TEXT
  5
100D
330
17
100
AcDbEntity
 67
     1
  8
TITLE
 62
     2
100
AcDbText
 10
89.43833333333341
 20
19.9780205533942
 30
0.0
 40
3.5
  1
全体図
 72
     4
 11
95.15500000000008
 21
21.7280205533942
 31
0.0
100
AcDbText
  0
TEXT
  5
100E
330
17
100
AcDbEntity
 67
     1
  8
DEFPOINTS
 62
     5
100
AcDbText
 10
93.52166666666674
 20
8.094687220060869
 30
0.0
 40
3.5
  1
＃
 72
     4
 11
95.15500000000008
 21
9.728020553394202
 31
0.0
100
AcDbText
  0
TEXT
  5
100F
330
17
100
AcDbEntity
 67
     1
  8
DEFPOINTS
 62
     5
100
AcDbText
 10
93.52166666666674
 20
14.09468722006086
 30
0.0
 40
3.5
  1
＃
 72
     4
 11
95.15500000000008
 21
15.7280205533942
 31
0.0
100
AcDbText
  0
TEXT
  5
1010
330
17
100
AcDbEntity
 67
     1
  8
TITLE
 62
     2
100
AcDbText
 10
83.02166666666675
 20
25.9780205533942
 30
0.0
 40
3.5
  1
スルーサーＰ
 72
     4
 11
95.15500000000008
 21
27.7280205533942
 31
0.0
100
AcDbText
  0
TEXT
  5
1011
330
17
100
AcDbEntity
 67
     1
  8
ZUWAKU
 62
     2
100
AcDbText
 10
105.6883333333334
 20
31.97802055339419
 30
0.0
 40
3.5
  1
日付
 72
     4
 11
109.6550000000001
 21
33.7280205533942
 31
0.0
100
AcDbText
  0
TEXT
  5
1012
330
17
100
AcDbEntity
 67
     1
  8
ZUWAKU
 62
     2
100
AcDbText
 10
142.0216666666666
 20
37.9780205533942
 30
0.0
 40
3.5
  1
記　　　　事
 72
     4
 11
154.155
 21
39.7280205533942
 31
0.0
100
AcDbText
  0
LINE
  5
1013
330
17
100
AcDbEntity
 67
     1
  8
ZUWAKU
 62
     2
100
AcDbLine
 10
120.655
 20
30.7280205533942
 30
0.0
 11
120.655
 21
6.728020553394181
 31
0.0
  0
TEXT
  5
1014
330
17
100
AcDbEntity
 67
     1
  8
ZUWAKU
 62
     2
100
AcDbText
 10
121.7050000000001
 20
13.97802055339421
 30
0.0
 40
3.5
  1
図　番
 72
     4
 11
127.6550000000001
 21
15.72802055339421
 31
0.0
100
AcDbText
  0
TEXT
  5
1015
330
17
100
AcDbEntity
 67
     1
  8
ZUWAKU
 62
     2
100
AcDbText
 10
121.8216666666668
 20
25.9780205533942
 30
0.0
 40
3.5
  1
型　式
 72
     4
 11
127.6550000000001
 21
27.7280205533942
 31
0.0
100
AcDbText
  0
TEXT
  5
1016
330
17
100
AcDbEntity
 67
     1
  8
ZUWAKU
 62
     2
100
AcDbText
 10
122.8216666666666
 20
37.9780205533942
 30
0.0
 40
3.5
  1
重　量
 72
     4
 11
128.655
 21
39.7280205533942
 31
0.0
100
AcDbText
  0
TEXT
  5
1017
330
17
100
AcDbEntity
 67
     1
  8
ZUWAKU
 62
     2
100
AcDbText
 10
136.9216666666666
 20
31.97802055339419
 30
0.0
 40
3.5
  1
尺度
 72
     4
 11
140.655
 21
33.7280205533942
 31
0.0
100
AcDbText
  0
TEXT
  5
1018
330
17
100
AcDbEntity
 67
     1
  8
TITLE
 62
     2
100
AcDbText
 10
128.2383333333333
 20
8.361353886727563
 30
0.0
 40
3.5
  1
ＳＲ２５－０Ｐ－００
 72
     4
 11
148.655
 21
10.22802055339423
 31
0.0
100
AcDbText
  0
TEXT
  5
1019
330
17
100
AcDbEntity
 67
     1
  8
TITLE
 62
     2
100
AcDbText
 10
141.5216666666666
 20
22.86135388672753
 30
0.0
 40
3.5
  1
Ｈ２５－０Ｐ
 72
     4
 11
153.655
 21
24.7280205533942
 31
0.0
100
AcDbText
  0
LINE
  5
1070
330
17
100
AcDbEntity
 67
     1
  8
ZUWAKU
 62
     2
100
AcDbLine
 10
172.655
 20
63.7280205533942
 30
0.0
 11
57.65500000000008
 21
63.72802055339422
 31
0.0
  0
LINE
  5
1071
330
17
100
AcDbEntity
 67
     1
  8
ZUWAKU
 62
     2
100
AcDbLine
 10
172.655
 20
70.7280205533942
 30
0.0
 11
57.65500000000008
 21
70.72802055339422
 31
0.0
  0
LINE
  5
1072
330
17
100
AcDbEntity
 67
     1
  8
ZUWAKU
 62
     2
100
AcDbLine
 10
172.655
 20
77.7280205533942
 30
0.0
 11
57.65500000000008
 21
77.72802055339422
 31
0.0
  0
TEXT
  5
1087
330
17
100
AcDbEntity
 67
     1
  8
ZUWAKU
 62
     2
100
AcDbText
 10
117.6550000000001
 20
31.97802055339419
 30
0.0
 40
3.5
  1
09.08.28
 11
117.6550000000001
 21
33.7280205533942
 31
0.0
100
AcDbText
 73
     2
  0
TEXT
  5
1088
330
17
100
AcDbEntity
 67
     1
  8
ZUWAKU
 62
     2
100
AcDbText
 10
151.655
 20
31.97802055339419
 30
0.0
 40
3.5
  1
1/6
 11
151.655
 21
33.7280205533942
 31
0.0
100
AcDbText
 73
     2
  0
LINE
  5
638F
330
17
100
AcDbEntity
 67
     1
  8
ZUWAKU
 62
     2
100
AcDbLine
 10
172.655
 20
56.7280205533942
 30
0.0
 11
57.6550000000001
 21
56.72802055339422
 31
0.0
  0
LINE
  5
6390
330
17
100
AcDbEntity
 67
     1
  8
ZUWAKU
 62
     2
100
AcDbLine
 10
172.655
 20
49.7280205533942
 30
0.0
 11
57.6550000000001
 21
49.7280205533942
 31
0.0
  0
LINE
  5
6391
330
17
100
AcDbEntity
 67
     1
  8
ZUWAKU
 62
     2
100
AcDbLine
 10
172.655
 20
42.7280205533942
 30
0.0
 11
57.6550000000001
 21
42.7280205533942
 31
0.0
  0
TEXT
  5
6392
330
17
100
AcDbEntity
 67
     1
  8
ZUWAKU
 62
     2
100
AcDbText
 10
48.49666666666678
 20
19.70085283171966
 30
0.0
 40
3.5
  1
担当
 72
     4
 11
52.15500000000011
 21
21.45085283171966
 31
0.0
100
AcDbText
  0
LINE
  5
6393
330
17
100
AcDbEntity
 67
     1
  8
ZUWAKU
 62
     2
100
AcDbLine
 10
16.6550000000001
 20
36.7280205533942
 30
0.0
 11
16.65500000000011
 21
18.72802055339423
 31
0.0
  0
TEXT
  5
6394
330
17
100
AcDbEntity
 67
     1
  8
寸法線
100
AcDbText
 10
-2.969999999999919
 20
25.98154767812821
 30
0.0
 40
2.5
  1
A
 72
     4
 11
-1.844999999999919
 21
27.23154767812821
 31
0.0
100
AcDbText
  0
LINE
  5
6395
330
17
100
AcDbEntity
 67
     1
  8
寸法線
100
AcDbLine
 10
-1.844999999999919
 20
29.89661118758931
 30
0.0
 11
0.6550000000000793
 21
25.5664841686671
 31
0.0
  0
LINE
  5
6396
330
17
100
AcDbEntity
 67
     1
  8
寸法線
100
AcDbLine
 10
-1.844999999999919
 20
29.89661118758931
 30
0.0
 11
-4.344999999999919
 21
25.5664841686671
 31
0.0
  0
TEXT
  5
6397
330
17
100
AcDbEntity
 67
     1
  8
ZUWAKU
 62
     2
100
AcDbText
 10
-5.578333333333225
 20
19.70085283171966
 30
0.0
 40
3.5
  1
符号
 72
     4
 11
-1.844999999999891
 21
21.45085283171966
 31
0.0
100
AcDbText
  0
LINE
  5
6398
330
17
100
AcDbEntity
 67
     1
  8
ZUWAKU
 62
     2
100
AcDbLine
 10
0.6550000000000793
 20
25.5664841686671
 30
0.0
 11
-4.344999999999919
 21
25.5664841686671
 31
0.0
  0
TEXT
  5
6399
330
17
100
AcDbEntity
 67
     1
  8
寸法線
100
AcDbText
 10
-2.844999999999922
 20
32.41386008424328
 30
0.0
 40
2.5
  1
B
 72
     4
 11
-1.844999999999919
 21
33.66386008424328
 31
0.0
100
AcDbText
  0
LINE
  5
639A
330
17
100
AcDbEntity
 67
     1
  8
ZUWAKU
 62
     2
100
AcDbLine
 10
0.6550000000000793
 20
31.9987965747822
 30
0.0
 11
-4.344999999999919
 21
31.9987965747822
 31
0.0
  0
LINE
  5
639B
330
17
100
AcDbEntity
 67
     1
  8
寸法線
100
AcDbLine
 10
-1.844999999999919
 20
36.32892359370439
 30
0.0
 11
-4.344999999999919
 21
31.9987965747822
 31
0.0
  0
LINE
  5
639C
330
17
100
AcDbEntity
 67
     1
  8
寸法線
100
AcDbLine
 10
-1.844999999999919
 20
36.32892359370439
 30
0.0
 11
0.6550000000000793
 21
31.9987965747822
 31
0.0
  0
LINE
  5
639D
330
17
100
AcDbEntity
 67
     1
  8
ZUWAKU
 62
     2
100
AcDbLine
 10
2.655000000000106
 20
36.72802055339423
 30
0.0
 11
2.655000000000113
 21
18.72802055339423
 31
0.0
  0
TEXT
  5
639E
330
17
100
AcDbEntity
 67
     1
  8
ZUWAKU
 62
     2
100
AcDbText
 10
4.638333333333439
 20
19.70085283171966
 30
0.0
 40
3.5
  1
日 付
 72
     4
 11
9.655000000000107
 21
21.45085283171966
 31
0.0
100
AcDbText
  0
LINE
  5
639F
330
17
100
AcDbEntity
 67
     1
  8
ZUWAKU
 62
     2
100
AcDbLine
 10
46.65500000000006
 20
36.7280205533942
 30
0.0
 11
46.65500000000011
 21
18.72802055339423
 31
0.0
  0
TEXT
  5
63A0
330
17
100
AcDbEntity
 67
     1
  8
ZUWAKU
 62
     2
100
AcDbText
 10
20.57166666666679
 20
19.70085283171966
 30
0.0
 40
3.5
  1
訂 正 内 容
 72
     4
 11
31.65500000000012
 21
21.45085283171966
 31
0.0
100
AcDbText
  0
LINE
  5
63A1
330
17
100
AcDbEntity
 67
     1
  8
ZUWAKU
 62
     2
100
AcDbLine
 10
-6.344999999999892
 20
6.728020553394202
 30
0.0
 11
-6.344999999999878
 21
36.72802055339423
 31
0.0
  0
TEXT
  5
63A2
330
17
100
AcDbEntity
 67
     1
  8
ZUWAKU
 62
     2
100
AcDbText
 10
-0.4783333333332485
 20
13.2280205533942
 30
0.0
 40
2.0
  1
株式
 72
     4
 11
1.655000000000085
 21
14.2280205533942
 31
0.0
100
AcDbText
  0
TEXT
  5
63A3
330
17
100
AcDbEntity
 67
     1
  8
ZUWAKU
 62
     2
100
AcDbText
 10
-0.4783333333332481
 20
10.2280205533942
 30
0.0
 40
2.0
  1
会社
 72
     4
 11
1.655000000000085
 21
11.2280205533942
 31
0.0
100
AcDbText
  0
TEXT
  5
63A4
330
17
100
AcDbEntity
 67
     1
  8
ZUWAKU
 62
     2
100
AcDbText
 10
5.588333333333409
 20
10.39468722006086
 30
0.0
 40
5.0
  1
三研テクノクリエイト
 41
0.8
 72
     4
 11
28.65500000000007
 21
12.7280205533942
 31
0.0
100
AcDbText
  0
LINE
  5
63A5
330
17
100
AcDbEntity
 67
     1
  8
ZUWAKU
 62
     2
100
AcDbLine
 10
57.6550000000001
 20
30.7280205533942
 30
0.0
 11
-6.344999999999892
 21
30.7280205533942
 31
0.0
  0
LINE
  5
63A6
330
17
100
AcDbEntity
 67
     1
  8
ZUWAKU
 62
     2
100
AcDbLine
 10
57.6550000000001
 20
36.7280205533942
 30
0.0
 11
-6.344999999999878
 21
36.72802055339423
 31
0.0
  0
LINE
  5
63A7
330
17
100
AcDbEntity
 67
     1
  8
ZUWAKU
 62
     2
100
AcDbLine
 10
57.6550000000001
 20
24.72802055339423
 30
0.0
 11
-6.344999999999878
 21
24.72802055339423
 31
0.0
  0
ENDSEC
  0
SECTION
  2
OBJECTS
  0
DICTIONARY
  5
C
330
0
100
AcDbDictionary
281
     1
  3
ACAD_COLOR
350
5622
  3
ACAD_GROUP
350
D
  3
ACAD_LAYOUT
350
F76
  3
ACAD_MATERIAL
350
5621
  3
ACAD_MLEADERSTYLE
350
62F9
  3
ACAD_MLINESTYLE
350
E
  3
ACAD_PLOTSETTINGS
350
F77
  3
ACAD_PLOTSTYLENAME
350
561F
  3
ACAD_SCALELIST
350
62D7
  3
ACAD_TABLESTYLE
350
5623
  3
ACAD_VISUALSTYLE
350
62C6
  3
ACDB_RECOMPOSE_DATA
350
633B
  3
AcDbVariableDictionary
350
5629
  3
DWGPROPS
350
63CA
1001
ACAD
1000
TREAT_AS_HARD
1070
     0
  0
DICTIONARY
  5
63BB
330
8
100
AcDbDictionary
280
     1
281
     1
  0
DICTIONARY
  5
56B3
330
2
100
AcDbDictionary
280
     1
281
     1
  3
ACAD_LAYERSTATES
360
56B4
  0
DICTIONARY
  5
6321
330
F
100
AcDbDictionary
280
     1
281
     1
  3
ADSK_XREC_LAYER_RECONCILED
360
6322
  0
DICTIONARY
  5
6323
330
10B
100
AcDbDictionary
280
     1
281
     1
  3
ADSK_XREC_LAYER_RECONCILED
360
6324
  0
DICTIONARY
  5
6325
330
10C
100
AcDbDictionary
280
     1
281
     1
  3
ADSK_XREC_LAYER_RECONCILED
360
6326
  0
DICTIONARY
  5
6327
330
10D
100
AcDbDictionary
280
     1
281
     1
  3
ADSK_XREC_LAYER_RECONCILED
360
6328
  0
DICTIONARY
  5
6329
330
10E
100
AcDbDictionary
280
     1
281
     1
  3
ADSK_XREC_LAYER_RECONCILED
360
632A
  0
DICTIONARY
  5
632B
330
10F
100
AcDbDictionary
280
     1
281
     1
  3
ADSK_XREC_LAYER_RECONCILED
360
632C
  0
DICTIONARY
  5
632D
330
2C8
100
AcDbDictionary
280
     1
281
     1
  3
ADSK_XREC_LAYER_RECONCILED
360
632E
  0
DICTIONARY
  5
632F
330
2C9
100
AcDbDictionary
280
     1
281
     1
  3
ADSK_XREC_LAYER_RECONCILED
360
6330
  0
DICTIONARY
  5
6331
330
4F5
100
AcDbDictionary
280
     1
281
     1
  3
ADSK_XREC_LAYER_RECONCILED
360
6332
  0
DICTIONARY
  5
6333
330
4F6
100
AcDbDictionary
280
     1
281
     1
  3
ADSK_XREC_LAYER_RECONCILED
360
6334
  0
DICTIONARY
  5
5616
330
1A
100
AcDbDictionary
280
     1
281
     1
  3
ACAD_LAYOUTSELFREF
360
5617
  3
ACAD_SORTENTS
360
5CB0
  0
DICTIONARY
  5
5614
330
17
100
AcDbDictionary
280
     1
281
     1
  3
ACAD_LAYOUTSELFREF
360
5615
  0
DICTIONARY
  5
636C
330
112
100
AcDbDictionary
280
     1
281
     1
  3
ACAD_SORTENTS
360
638B
  0
DICTIONARY
  5
636B
330
6351
100
AcDbDictionary
280
     1
281
     1
  0
DICTIONARY
  5
63CB
330
22
100
AcDbDictionary
280
     1
281
     1
  3
ACAD_XREC_ROUNDTRIP
360
63CC
  0
DICTIONARY
  5
63CD
330
F6B
100
AcDbDictionary
280
     1
281
     1
  3
ACAD_XREC_ROUNDTRIP
360
63CE
  0
DICTIONARY
  5
5622
102
{ACAD_REACTORS
330
C
102
}
330
C
100
AcDbDictionary
281
     1
  0
DICTIONARY
  5
D
102
{ACAD_REACTORS
330
C
102
}
330
C
100
AcDbDictionary
281
     1
1001
ACAD
1000
TREAT_AS_HARD
1070
     0
  0
DICTIONARY
  5
F76
102
{ACAD_REACTORS
330
C
102
}
330
C
100
AcDbDictionary
281
     1
  3
Model
350
5625
  3
レイアウト1
350
5626
1001
ACAD
1000
TREAT_AS_HARD
1070
     0
  0
DICTIONARY
  5
5621
102
{ACAD_REACTORS
330
C
102
}
330
C
100
AcDbDictionary
281
     1
  3
ByBlock
350
62B6
  3
ByLayer
350
62AE
  3
Global
350
62BE
  0
DICTIONARY
  5
62F9
102
{ACAD_REACTORS
330
C
102
}
330
C
100
AcDbDictionary
281
     1
  3
Standard
350
62FA
  0
DICTIONARY
  5
E
102
{ACAD_REACTORS
330
C
102
}
330
C
100
AcDbDictionary
281
     1
  3
STANDARD
350
13
1001
ACAD
1000
TREAT_AS_HARD
1070
     0
  0
DICTIONARY
  5
F77
102
{ACAD_REACTORS
330
C
102
}
330
C
100
AcDbDictionary
281
     1
1001
ACAD
1000
TREAT_AS_HARD
1070
     0
  0
ACDBDICTIONARYWDFLT
  5
561F
102
{ACAD_REACTORS
330
C
102
}
330
C
100
AcDbDictionary
281
     1
  3
Normal
350
5620
100
AcDbDictionaryWithDefault
340
5620
  0
DICTIONARY
  5
62D7
102
{ACAD_REACTORS
330
C
102
}
330
C
100
AcDbDictionary
281
     1
  3
A0
350
62D8
  3
A1
350
62D9
  3
A2
350
62DA
  3
A3
350
62DB
  3
A4
350
62DC
  3
A5
350
62DD
  3
A6
350
62DE
  3
A7
350
62DF
  3
A8
350
62E0
  3
A9
350
62E1
  3
B0
350
62E2
  3
B1
350
62E3
  3
B2
350
62E4
  3
B3
350
62E5
  3
B4
350
62E6
  3
B5
350
62E7
  3
B6
350
62E8
  3
B7
350
62E9
  3
B8
350
62EA
  3
B9
350
62EB
  3
C0
350
62EC
  3
C1
350
62ED
  3
C2
350
62EE
  3
C3
350
62EF
  3
C4
350
62F0
  3
C5
350
62F1
  3
C6
350
62F2
  3
C7
350
62F3
  3
C8
350
62F4
  3
C9
350
62F5
  3
D0
350
62F6
  3
D1
350
62F7
  3
D2
350
62F8
  0
DICTIONARY
  5
5623
102
{ACAD_REACTORS
330
C
102
}
330
C
100
AcDbDictionary
281
     1
  3
Standard
350
5624
  0
DICTIONARY
  5
62C6
102
{ACAD_REACTORS
330
C
102
}
330
C
100
AcDbDictionary
281
     1
  3
2dWireframe
350
62CC
  3
3D Hidden
350
62CE
  3
3dWireframe
350
62CD
  3
Basic
350
62CB
  3
Brighten
350
62D2
  3
ColorChange
350
62D6
  3
Conceptual
350
62CF
  3
Dim
350
62D1
  3
Facepattern
350
62D5
  3
Flat
350
62C7
  3
FlatWithEdges
350
62C8
  3
Gouraud
350
62C9
  3
GouraudWithEdges
350
62CA
  3
Linepattern
350
62D4
  3
Realistic
350
62D0
  3
Thicken
350
62D3
  0
XRECORD
  5
633B
102
{ACAD_REACTORS
330
C
102
}
330
C
100
AcDbXrecord
280
     1
 90
        1
330
5624
  0
DICTIONARY
  5
5629
102
{ACAD_REACTORS
330
C
102
}
330
C
100
AcDbDictionary
281
     1
  3
CANNOSCALE
350
6336
  3
CMLEADERSTYLE
350
6335
  3
CTABLESTYLE
350
562A
  3
DIMASSOC
350
562B
  3
INDEXCTL
350
6338
  3
PROJECTNAME
350
562C
  3
SORTENTS
350
6337
  0
XRECORD
  5
63CA
102
{ACAD_REACTORS
330
C
102
}
330
C
100
AcDbXrecord
280
     1
  1
DWGPROPS COOKIE
  2

  3

  4

  6

  7

  8
島田
  9

300
=
301
=
302
=
303
=
304
=
305
=
306
=
307
=
308
=
309
=
 40
0.3650958217592592
 41
2453234.43442654
 42
2455734.703790509
  1

 90
        0
  0
DICTIONARY
  5
56B4
102
{ACAD_REACTORS
330
56B3
102
}
330
56B3
100
AcDbDictionary
281
     1
  0
XRECORD
  5
6322
102
{ACAD_REACTORS
330
6321
102
}
330
6321
100
AcDbXrecord
280
     1
290
     1
  0
XRECORD
  5
6324
102
{ACAD_REACTORS
330
6323
102
}
330
6323
100
AcDbXrecord
280
     1
290
     1
  0
XRECORD
  5
6326
102
{ACAD_REACTORS
330
6325
102
}
330
6325
100
AcDbXrecord
280
     1
290
     1
  0
XRECORD
  5
6328
102
{ACAD_REACTORS
330
6327
102
}
330
6327
100
AcDbXrecord
280
     1
290
     1
  0
XRECORD
  5
632A
102
{ACAD_REACTORS
330
6329
102
}
330
6329
100
AcDbXrecord
280
     1
290
     1
  0
XRECORD
  5
632C
102
{ACAD_REACTORS
330
632B
102
}
330
632B
100
AcDbXrecord
280
     1
290
     1
  0
XRECORD
  5
632E
102
{ACAD_REACTORS
330
632D
102
}
330
632D
100
AcDbXrecord
280
     1
290
     1
  0
XRECORD
  5
6330
102
{ACAD_REACTORS
330
632F
102
}
330
632F
100
AcDbXrecord
280
     1
290
     1
  0
XRECORD
  5
6332
102
{ACAD_REACTORS
330
6331
102
}
330
6331
100
AcDbXrecord
280
     1
290
     1
  0
XRECORD
  5
6334
102
{ACAD_REACTORS
330
6333
102
}
330
6333
100
AcDbXrecord
280
     1
290
     1
  0
XRECORD
  5
5617
102
{ACAD_REACTORS
330
5616
102
}
330
5616
100
AcDbXrecord
280
     1
340
1A
  0
SORTENTSTABLE
  5
5CB0
102
{ACAD_REACTORS
330
5616
102
}
330
5616
100
AcDbSortentsTable
330
1A
331
5C46
  5
5CB1
331
5166
  5
5166
331
51DC
  5
51DF
331
516E
  5
516E
331
51A5
  5
51A5
331
51F4
  5
51FA
331
5100
  5
5100
331
5176
  5
5176
331
517E
  5
517E
331
51B5
  5
51B6
331
5204
  5
520D
331
5233
  5
523C
331
5243
  5
524E
331
5108
  5
5108
331
50C9
  5
50C9
331
5186
  5
5186
331
5110
  5
5110
331
50D1
  5
50D1
331
5147
  5
5147
331
5118
  5
5118
331
514F
  5
514F
331
518E
  5
518E
331
5196
  5
5196
331
5C47
  5
5CB2
331
3E5A
  5
3E5A
331
5120
  5
5120
331
5167
  5
5167
331
51DD
  5
51EA
331
50F9
  5
50F9
331
5130
  5
5130
331
516F
  5
516F
331
51A6
  5
51A6
331
51F5
  5
51FB
331
5138
  5
5138
331
5177
  5
5177
331
51AE
  5
51AF
331
517F
  5
517F
331
51B6
  5
51B7
331
5205
  5
520F
331
5234
  5
523D
331
523C
  5
5240
331
5187
  5
5187
331
520D
  5
5215
331
50D2
  5
50D2
331
518F
  5
518F
331
5197
  5
5197
331
50E2
  5
50E2
331
524C
  5
5250
331
5B03
  5
5B07
331
50EA
  5
50EA
331
5121
  5
5121
331
51DE
  5
51F0
331
5168
  5
5168
331
51A7
  5
51A8
331
51F6
  5
51FC
331
5131
  5
5131
331
51AF
  5
51B0
331
5139
  5
5139
331
5178
  5
5178
331
51B7
  5
51B8
331
5C48
  5
5CB3
331
5235
  5
523E
331
523D
  5
5241
331
5180
  5
5180
331
51BF
  5
51C0
331
5216
  5
521A
331
5190
  5
5190
331
511A
  5
511A
331
51C7
  5
51CA
331
5AEC
  5
5AFC
331
524D
  5
5251
331
5AFC
  5
5B06
331
5B04
  5
5B08
331
5198
  5
5198
331
5169
  5
5169
331
51DF
  5
51F1
331
51A8
  5
51A9
331
50BC
  5
50BC
331
50FB
  5
50FB
331
513A
  5
513A
331
5103
  5
5103
331
5179
  5
5179
331
51B0
  5
51B4
331
523E
  5
5242
331
51B8
  5
51B9
331
50CC
  5
50CC
331
5181
  5
5181
331
520F
  5
5216
331
50D4
  5
50D4
331
514A
  5
514A
331
51C0
  5
51C1
331
50DC
  5
50DC
331
51C8
  5
51D3
331
5217
  5
521B
331
50E4
  5
50E4
331
5AED
  5
5B03
331
524E
  5
596F
331
5B05
  5
5B65
331
50EC
  5
50EC
331
5199
  5
5199
331
51A1
  5
51A1
331
51F0
  5
51F3
331
512B
  5
512B
331
51A9
  5
51AA
331
50BD
  5
50BD
331
5200
  5
5204
331
513B
  5
513B
331
5104
  5
5104
331
517A
  5
517A
331
5B65
  5
5C46
331
596F
  5
5AEE
331
523F
  5
5243
331
51B9
  5
51BA
331
510C
  5
510C
331
50CD
  5
50CD
331
5182
  5
5182
331
50D5
  5
50D5
331
514B
  5
514B
331
51C1
  5
51C3
331
5210
  5
5217
331
51C9
  5
51D4
331
5218
  5
5221
331
35CE
  5
35CE
331
50DD
  5
50DD
331
5192
  5
5192
331
5AEE
  5
5B04
331
524F
  5
5970
331
5B06
  5
5B66
331
5163
  5
5163
331
519A
  5
519A
331
51F1
  5
51F5
331
50B6
  5
50B6
331
50F5
  5
50F5
331
51A2
  5
51A2
331
51F9
  5
5200
331
50BE
  5
50BE
331
5173
  5
5173
331
51AA
  5
51AB
331
5201
  5
5205
331
5105
  5
5105
331
517B
  5
517B
331
5230
  5
5234
331
5B66
  5
5C47
331
5240
  5
5244
331
5183
  5
5183
331
50CE
  5
50CE
331
5144
  5
5144
331
51BA
  5
51BF
331
2ECF
  5
2ECF
331
51C2
  5
51C7
331
5211
  5
5218
331
51CA
  5
51DB
331
5219
  5
5222
331
5154
  5
5154
331
5193
  5
5193
331
5970
  5
5AEF
331
5AEF
  5
5B05
331
5250
  5
5AEC
331
5B07
  5
5B67
331
5125
  5
5125
331
519B
  5
519B
331
51F2
  5
51F6
331
50B7
  5
50B7
331
512D
  5
512D
331
51A3
  5
51A3
331
51FA
  5
5201
331
5174
  5
5174
331
51AB
  5
51AC
331
5106
  5
5106
331
50C7
  5
50C7
331
517C
  5
517C
331
5202
  5
5208
331
5221
  5
5231
331
5231
  5
5235
331
5B67
  5
5C48
331
5241
  5
524C
331
510E
  5
510E
331
50CF
  5
50CF
331
5184
  5
5184
331
50D7
  5
50D7
331
5116
  5
5116
331
514D
  5
514D
331
51C3
  5
51C8
331
521A
  5
522F
331
511E
  5
511E
331
50DF
  5
50DF
331
5155
  5
5155
331
515D
  5
515D
331
51D3
  5
51DC
331
5251
  5
5AED
331
50EF
  5
50EF
331
519C
  5
519C
331
51DB
  5
51DE
331
50B8
  5
50B8
331
516D
  5
516D
331
51A4
  5
51A4
331
51F3
  5
51F9
331
5175
  5
5175
331
51AC
  5
51AD
331
5107
  5
5107
331
517D
  5
517D
331
51B4
  5
51B5
331
5203
  5
520C
331
5B08
  5
5B68
331
5232
  5
523B
331
5B68
  5
5CAF
331
5242
  5
524D
331
50C8
  5
50C8
331
50D0
  5
50D0
331
5185
  5
5185
331
5117
  5
5117
331
514E
  5
514E
331
51C4
  5
51C9
331
521B
  5
5230
331
5156
  5
5156
331
515E
  5
515E
331
51D4
  5
51DD
  0
XRECORD
  5
5615
102
{ACAD_REACTORS
330
5614
102
}
330
5614
100
AcDbXrecord
280
     1
340
17
  0
SORTENTSTABLE
  5
638B
102
{ACAD_REACTORS
330
636C
102
}
330
636C
100
AcDbSortentsTable
330
112
  0
XRECORD
  5
63CC
102
{ACAD_REACTORS
330
63CB
102
}
330
63CB
100
AcDbXrecord
280
     1
102
SHADEPLOT
 70
     0
  0
XRECORD
  5
63CE
102
{ACAD_REACTORS
330
63CD
102
}
330
63CD
100
AcDbXrecord
280
     1
102
SHADEPLOT
 70
     0
  0
LAYOUT
  5
5625
102
{ACAD_XDICTIONARY
360
63D0
102
}
102
{ACAD_REACTORS
330
F76
102
}
330
F76
100
AcDbPlotSettings
  1

  2
RICOH imagio MP C2500 RPCS
  4

  6

 40
0.0
 41
0.0
 42
0.0
 43
0.0
 44
0.0
 45
0.0
 46
0.0
 47
0.0
 48
0.0
 49
0.0
140
0.0
141
0.0
142
1.0
143
1.0
 70
  1712
 72
     0
 73
     0
 74
     0
  7

 75
     0
147
1.0
148
0.0
149
0.0
100
AcDbLayout
  1
Model
 70
     1
 71
     0
 10
0.0
 20
0.0
 11
12.0
 21
9.0
 12
0.0
 22
0.0
 32
0.0
 14
0.0
 24
0.0
 34
0.0
 15
0.0
 25
0.0
 35
0.0
146
0.0
 13
0.0
 23
0.0
 33
0.0
 16
1.0
 26
0.0
 36
0.0
 17
0.0
 27
1.0
 37
0.0
 76
     0
330
1A
  0
LAYOUT
  5
5626
102
{ACAD_XDICTIONARY
360
56B6
102
}
102
{ACAD_REACTORS
330
F76
102
}
330
F76
100
AcDbPlotSettings
  1

  2
RICOH imagio MP C2500 RPCS
  4
A4
  6

 40
5.873749732971191
 41
5.873747825622558
 42
5.873748779296875
 43
5.873748779296875
 44
209.9733276367187
 45
296.9259948730469
 46
0.0
 47
0.0
 48
0.0
 49
0.0
140
0.0
141
0.0
142
1.0
143
36.52072343512639
 70
   688
 72
     0
 73
     1
 74
     1
  7
monochrome.ctb
 75
     0
147
0.0273817138857162
148
5845.438525594513
149
0.479788548708234
100
AcDbLayout
  1
レイアウト1
 70
     1
 71
     1
 10
-238.5807905626231
 20
-8.464306223373881
 11
188.3464590223494
 21
293.4403326496098
 12
0.0
 22
0.0
 32
0.0
 14
-230.1251076440692
 24
-0.0202258741703645
 34
-0.0000000000112497
 15
178.0667480927011
 25
284.9962537062594
 35
0.0000000000002956
146
0.0
 13
0.0
 23
0.0
 33
0.0
 16
1.0
 26
0.0
 36
0.0
 17
0.0
 27
1.0
 37
0.0
 76
     0
330
17
331
22
1001
ACAD_PSEXT
1000
RICOH imagio MP C2500 RPCS
1000
RICOH imagio MP C2500 RPCS
1000
IP_192.168.24.200
1000
RPCS Driver (Windows 2000/XP/Server 2003/Vista)
1070
     0
  0
MATERIAL
  5
62B6
102
{ACAD_XDICTIONARY
360
62B7
102
}
102
{ACAD_REACTORS
330
5621
102
}
330
5621
100
AcDbMaterial
  1
ByBlock
 72
     0
 43
0.0208333333333333
 43
0.0
 43
0.0
 43
0.0
 43
0.0
 43
0.0208333333333333
 43
0.0
 43
0.0
 43
0.0
 43
0.0
 43
1.0
 43
0.0
 43
0.0
 43
0.0
 43
0.0
 43
1.0
 77
     0
 47
0.0208333333333333
 47
0.0
 47
0.0
 47
0.0
 47
0.0
 47
0.0208333333333333
 47
0.0
 47
0.0
 47
0.0
 47
0.0
 47
1.0
 47
0.0
 47
0.0
 47
0.0
 47
0.0
 47
1.0
171
     0
 49
0.0208333333333333
 49
0.0
 49
0.0
 49
0.0
 49
0.0
 49
0.0208333333333333
 49
0.0
 49
0.0
 49
0.0
 49
0.0
 49
1.0
 49
0.0
 49
0.0
 49
0.0
 49
0.0
 49
1.0
175
     0
142
0.0208333333333333
142
0.0
142
0.0
142
0.0
142
0.0
142
0.0208333333333333
142
0.0
142
0.0
142
0.0
142
0.0
142
1.0
142
0.0
142
0.0
142
0.0
142
0.0
142
1.0
179
     0
144
0.0208333333333333
144
0.0
144
0.0
144
0.0
144
0.0
144
0.0208333333333333
144
0.0
144
0.0
144
0.0
144
0.0
144
1.0
144
0.0
144
0.0
144
0.0
144
0.0
144
1.0
147
0.0208333333333333
147
0.0
147
0.0
147
0.0
147
0.0
147
0.0208333333333333
147
0.0
147
0.0
147
0.0
147
0.0
147
1.0
147
0.0
147
0.0
147
0.0
147
0.0
147
1.0
  0
MATERIAL
  5
62AE
102
{ACAD_XDICTIONARY
360
62AF
102
}
102
{ACAD_REACTORS
330
5621
102
}
330
5621
100
AcDbMaterial
  1
ByLayer
 72
     0
 43
0.0208333333333333
 43
0.0
 43
0.0
 43
0.0
 43
0.0
 43
0.0208333333333333
 43
0.0
 43
0.0
 43
0.0
 43
0.0
 43
1.0
 43
0.0
 43
0.0
 43
0.0
 43
0.0
 43
1.0
 77
     0
 47
0.0208333333333333
 47
0.0
 47
0.0
 47
0.0
 47
0.0
 47
0.0208333333333333
 47
0.0
 47
0.0
 47
0.0
 47
0.0
 47
1.0
 47
0.0
 47
0.0
 47
0.0
 47
0.0
 47
1.0
171
     0
 49
0.0208333333333333
 49
0.0
 49
0.0
 49
0.0
 49
0.0
 49
0.0208333333333333
 49
0.0
 49
0.0
 49
0.0
 49
0.0
 49
1.0
 49
0.0
 49
0.0
 49
0.0
 49
0.0
 49
1.0
175
     0
142
0.0208333333333333
142
0.0
142
0.0
142
0.0
142
0.0
142
0.0208333333333333
142
0.0
142
0.0
142
0.0
142
0.0
142
1.0
142
0.0
142
0.0
142
0.0
142
0.0
142
1.0
179
     0
144
0.0208333333333333
144
0.0
144
0.0
144
0.0
144
0.0
144
0.0208333333333333
144
0.0
144
0.0
144
0.0
144
0.0
144
1.0
144
0.0
144
0.0
144
0.0
144
0.0
144
1.0
147
0.0208333333333333
147
0.0
147
0.0
147
0.0
147
0.0
147
0.0208333333333333
147
0.0
147
0.0
147
0.0
147
0.0
147
1.0
147
0.0
147
0.0
147
0.0
147
0.0
147
1.0
  0
MATERIAL
  5
62BE
102
{ACAD_XDICTIONARY
360
62BF
102
}
102
{ACAD_REACTORS
330
5621
102
}
330
5621
100
AcDbMaterial
  1
Global
 72
     0
 43
0.0208333333333333
 43
0.0
 43
0.0
 43
0.0
 43
0.0
 43
0.0208333333333333
 43
0.0
 43
0.0
 43
0.0
 43
0.0
 43
1.0
 43
0.0
 43
0.0
 43
0.0
 43
0.0
 43
1.0
 77
     0
 47
0.0208333333333333
 47
0.0
 47
0.0
 47
0.0
 47
0.0
 47
0.0208333333333333
 47
0.0
 47
0.0
 47
0.0
 47
0.0
 47
1.0
 47
0.0
 47
0.0
 47
0.0
 47
0.0
 47
1.0
171
     0
 49
0.0208333333333333
 49
0.0
 49
0.0
 49
0.0
 49
0.0
 49
0.0208333333333333
 49
0.0
 49
0.0
 49
0.0
 49
0.0
 49
1.0
 49
0.0
 49
0.0
 49
0.0
 49
0.0
 49
1.0
175
     0
142
0.0208333333333333
142
0.0
142
0.0
142
0.0
142
0.0
142
0.0208333333333333
142
0.0
142
0.0
142
0.0
142
0.0
142
1.0
142
0.0
142
0.0
142
0.0
142
0.0
142
1.0
179
     0
144
0.0208333333333333
144
0.0
144
0.0
144
0.0
144
0.0
144
0.0208333333333333
144
0.0
144
0.0
144
0.0
144
0.0
144
1.0
144
0.0
144
0.0
144
0.0
144
0.0
144
1.0
147
0.0208333333333333
147
0.0
147
0.0
147
0.0
147
0.0
147
0.0208333333333333
147
0.0
147
0.0
147
0.0
147
0.0
147
1.0
147
0.0
147
0.0
147
0.0
147
0.0
147
1.0
  0
MLEADERSTYLE
  5
62FA
102
{ACAD_REACTORS
330
62F9
102
}
330
62F9
100
AcDbMLeaderStyle
170
     2
171
     1
172
     0
 90
        2
 40
0.0
 41
0.0
173
     1
 91
-1056964608
340
14
 92
       -2
290
     1
 42
0.09
291
     1
 43
0.36
  3
Standard
 44
0.18
300

342
10
174
     1
178
     6
175
     1
176
     0
 93
-1056964608
 45
0.18
292
     0
297
     0
 46
0.18
 94
-1056964608
 47
1.0
 49
1.0
140
1.0
293
     1
141
0.0
294
     1
177
     0
142
1.0
295
     0
296
     0
143
0.125
1001
ACAD_MLEADERVER
1070
     2
  0
MLINESTYLE
  5
13
102
{ACAD_REACTORS
330
E
102
}
330
E
100
AcDbMlineStyle
  2
STANDARD
 70
     0
  3

 62
     0
 51
90.0
 52
90.0
 71
     2
 49
0.5
 62
   256
  6
BYLAYER
 49
-0.5
 62
   256
  6
BYLAYER
  0
ACDBPLACEHOLDER
  5
5620
102
{ACAD_REACTORS
330
561F
102
}
330
561F
  0
SCALE
  5
62D8
102
{ACAD_REACTORS
330
62D7
102
}
330
62D7
100
AcDbScale
 70
     0
300
1:1
140
1.0
141
1.0
290
     1
  0
SCALE
  5
62D9
102
{ACAD_REACTORS
330
62D7
102
}
330
62D7
100
AcDbScale
 70
     0
300
1:2
140
1.0
141
2.0
290
     0
  0
SCALE
  5
62DA
102
{ACAD_REACTORS
330
62D7
102
}
330
62D7
100
AcDbScale
 70
     0
300
1:4
140
1.0
141
4.0
290
     0
  0
SCALE
  5
62DB
102
{ACAD_REACTORS
330
62D7
102
}
330
62D7
100
AcDbScale
 70
     0
300
1:5
140
1.0
141
5.0
290
     0
  0
SCALE
  5
62DC
102
{ACAD_REACTORS
330
62D7
102
}
330
62D7
100
AcDbScale
 70
     0
300
1:8
140
1.0
141
8.0
290
     0
  0
SCALE
  5
62DD
102
{ACAD_REACTORS
330
62D7
102
}
330
62D7
100
AcDbScale
 70
     0
300
1:10
140
1.0
141
10.0
290
     0
  0
SCALE
  5
62DE
102
{ACAD_REACTORS
330
62D7
102
}
330
62D7
100
AcDbScale
 70
     0
300
1:16
140
1.0
141
16.0
290
     0
  0
SCALE
  5
62DF
102
{ACAD_REACTORS
330
62D7
102
}
330
62D7
100
AcDbScale
 70
     0
300
1:20
140
1.0
141
20.0
290
     0
  0
SCALE
  5
62E0
102
{ACAD_REACTORS
330
62D7
102
}
330
62D7
100
AcDbScale
 70
     0
300
1:30
140
1.0
141
30.0
290
     0
  0
SCALE
  5
62E1
102
{ACAD_REACTORS
330
62D7
102
}
330
62D7
100
AcDbScale
 70
     0
300
1:40
140
1.0
141
40.0
290
     0
  0
SCALE
  5
62E2
102
{ACAD_REACTORS
330
62D7
102
}
330
62D7
100
AcDbScale
 70
     0
300
1:50
140
1.0
141
50.0
290
     0
  0
SCALE
  5
62E3
102
{ACAD_REACTORS
330
62D7
102
}
330
62D7
100
AcDbScale
 70
     0
300
1:100
140
1.0
141
100.0
290
     0
  0
SCALE
  5
62E4
102
{ACAD_REACTORS
330
62D7
102
}
330
62D7
100
AcDbScale
 70
     0
300
2:1
140
2.0
141
1.0
290
     0
  0
SCALE
  5
62E5
102
{ACAD_REACTORS
330
62D7
102
}
330
62D7
100
AcDbScale
 70
     0
300
4:1
140
4.0
141
1.0
290
     0
  0
SCALE
  5
62E6
102
{ACAD_REACTORS
330
62D7
102
}
330
62D7
100
AcDbScale
 70
     0
300
8:1
140
8.0
141
1.0
290
     0
  0
SCALE
  5
62E7
102
{ACAD_REACTORS
330
62D7
102
}
330
62D7
100
AcDbScale
 70
     0
300
10:1
140
10.0
141
1.0
290
     0
  0
SCALE
  5
62E8
102
{ACAD_REACTORS
330
62D7
102
}
330
62D7
100
AcDbScale
 70
     0
300
100:1
140
100.0
141
1.0
290
     0
  0
SCALE
  5
62E9
102
{ACAD_REACTORS
330
62D7
102
}
330
62D7
100
AcDbScale
 70
     0
300
1/128" = 1'-0"
140
0.0078125
141
12.0
290
     0
  0
SCALE
  5
62EA
102
{ACAD_REACTORS
330
62D7
102
}
330
62D7
100
AcDbScale
 70
     0
300
1/64" = 1'-0"
140
0.015625
141
12.0
290
     0
  0
SCALE
  5
62EB
102
{ACAD_REACTORS
330
62D7
102
}
330
62D7
100
AcDbScale
 70
     0
300
1/32" = 1'-0"
140
0.03125
141
12.0
290
     0
  0
SCALE
  5
62EC
102
{ACAD_REACTORS
330
62D7
102
}
330
62D7
100
AcDbScale
 70
     0
300
1/16" = 1'-0"
140
0.0625
141
12.0
290
     0
  0
SCALE
  5
62ED
102
{ACAD_REACTORS
330
62D7
102
}
330
62D7
100
AcDbScale
 70
     0
300
3/32" = 1'-0"
140
0.09375
141
12.0
290
     0
  0
SCALE
  5
62EE
102
{ACAD_REACTORS
330
62D7
102
}
330
62D7
100
AcDbScale
 70
     0
300
1/8" = 1'-0"
140
0.125
141
12.0
290
     0
  0
SCALE
  5
62EF
102
{ACAD_REACTORS
330
62D7
102
}
330
62D7
100
AcDbScale
 70
     0
300
3/16" = 1'-0"
140
0.1875
141
12.0
290
     0
  0
SCALE
  5
62F0
102
{ACAD_REACTORS
330
62D7
102
}
330
62D7
100
AcDbScale
 70
     0
300
1/4" = 1'-0"
140
0.25
141
12.0
290
     0
  0
SCALE
  5
62F1
102
{ACAD_REACTORS
330
62D7
102
}
330
62D7
100
AcDbScale
 70
     0
300
3/8" = 1'-0"
140
0.375
141
12.0
290
     0
  0
SCALE
  5
62F2
102
{ACAD_REACTORS
330
62D7
102
}
330
62D7
100
AcDbScale
 70
     0
300
1/2" = 1'-0"
140
0.5
141
12.0
290
     0
  0
SCALE
  5
62F3
102
{ACAD_REACTORS
330
62D7
102
}
330
62D7
100
AcDbScale
 70
     0
300
3/4" = 1'-0"
140
0.75
141
12.0
290
     0
  0
SCALE
  5
62F4
102
{ACAD_REACTORS
330
62D7
102
}
330
62D7
100
AcDbScale
 70
     0
300
1" = 1'-0"
140
1.0
141
12.0
290
     0
  0
SCALE
  5
62F5
102
{ACAD_REACTORS
330
62D7
102
}
330
62D7
100
AcDbScale
 70
     0
300
1-1/2" = 1'-0"
140
1.5
141
12.0
290
     0
  0
SCALE
  5
62F6
102
{ACAD_REACTORS
330
62D7
102
}
330
62D7
100
AcDbScale
 70
     0
300
3" = 1'-0"
140
3.0
141
12.0
290
     0
  0
SCALE
  5
62F7
102
{ACAD_REACTORS
330
62D7
102
}
330
62D7
100
AcDbScale
 70
     0
300
6" = 1'-0"
140
6.0
141
12.0
290
     0
  0
SCALE
  5
62F8
102
{ACAD_REACTORS
330
62D7
102
}
330
62D7
100
AcDbScale
 70
     0
300
1'-0" = 1'-0"
140
12.0
141
12.0
290
     0
  0
TABLESTYLE
  5
5624
102
{ACAD_XDICTIONARY
360
6339
102
}
102
{ACAD_REACTORS
330
5623
102
}
330
5623
100
AcDbTableStyle
  3
Standard
 70
     0
 71
     0
 40
0.06
 41
0.06
280
     0
281
     0
  7
STANDARD
140
0.18
170
     2
 62
     0
 63
     7
283
     0
274
    -2
284
     1
 64
     0
275
    -2
285
     1
 65
     0
276
    -2
286
     1
 66
     0
277
    -2
287
     1
 67
     0
278
    -2
288
     1
 68
     0
279
    -2
289
     1
 69
     0
  7
STANDARD
140
0.25
170
     5
 62
     0
 63
     7
283
     0
274
    -2
284
     1
 64
     0
275
    -2
285
     1
 65
     0
276
    -2
286
     1
 66
     0
277
    -2
287
     1
 67
     0
278
    -2
288
     1
 68
     0
279
    -2
289
     1
 69
     0
  7
STANDARD
140
0.18
170
     5
 62
     0
 63
     7
283
     0
274
    -2
284
     1
 64
     0
275
    -2
285
     1
 65
     0
276
    -2
286
     1
 66
     0
277
    -2
287
     1
 67
     0
278
    -2
288
     1
 68
     0
279
    -2
289
     1
 69
     0
  0
VISUALSTYLE
  5
62CC
102
{ACAD_REACTORS
330
62C6
102
}
330
62C6
100
AcDbVisualStyle
  2
2dWireframe
 70
     4
 71
     0
 72
     2
 73
     0
 90
        0
 40
-0.6
 41
-30.0
 62
     5
 63
     7
 74
     1
 91
        4
 64
     7
 65
   257
 75
     1
175
     1
 42
1.0
 92
        0
 66
   257
 43
1.0
 76
     1
 77
     6
 78
     2
 67
     7
 79
     5
170
     0
171
     0
290
     0
174
     0
 93
        1
 44
0.0
173
     0
291
     0
 45
0.0
1001
ACAD
1000
AcDbSavedByObjectVersion
1070
     0
1000
AcDbSavedByObjectVersion
1070
     0
  0
VISUALSTYLE
  5
62CE
102
{ACAD_REACTORS
330
62C6
102
}
330
62C6
100
AcDbVisualStyle
  2
3D Hidden
 70
     6
 71
     1
 72
     2
 73
     2
 90
        0
 40
-0.6
 41
-30.0
 62
     5
 63
     7
 74
     2
 91
        2
 64
     7
 65
   257
 75
     2
175
     1
 42
40.0
 92
        0
 66
   257
 43
1.0
 76
     1
 77
     6
 78
     2
 67
     7
 79
     3
170
     0
171
     0
290
     0
174
     0
 93
        1
 44
0.0
173
     0
291
     0
 45
0.0
1001
ACAD
1000
AcDbSavedByObjectVersion
1070
     0
1000
AcDbSavedByObjectVersion
1070
     0
  0
VISUALSTYLE
  5
62CD
102
{ACAD_REACTORS
330
62C6
102
}
330
62C6
100
AcDbVisualStyle
  2
3dWireframe
 70
     5
 71
     0
 72
     2
 73
     0
 90
        0
 40
-0.6
 41
-30.0
 62
     5
 63
     7
 74
     1
 91
        4
 64
     7
 65
   257
 75
     1
175
     1
 42
1.0
 92
        0
 66
   257
 43
1.0
 76
     1
 77
     6
 78
     2
 67
     7
 79
     5
170
     0
171
     0
290
     0
174
     0
 93
        1
 44
0.0
173
     0
291
     0
 45
0.0
1001
ACAD
1000
AcDbSavedByObjectVersion
1070
     0
1000
AcDbSavedByObjectVersion
1070
     0
  0
VISUALSTYLE
  5
62CB
102
{ACAD_REACTORS
330
62C6
102
}
330
62C6
100
AcDbVisualStyle
  2
Basic
 70
     7
 71
     1
 72
     0
 73
     1
 90
        0
 40
-0.6
 41
-30.0
 62
     5
 63
     7
 74
     0
 91
        4
 64
     7
 65
   257
 75
     1
175
     1
 42
1.0
 92
        8
 66
     7
 43
1.0
 76
     1
 77
     6
 78
     2
 67
     7
 79
     5
170
     0
171
     0
290
     0
174
     0
 93
        1
 44
0.0
173
     0
291
     1
 45
0.0
1001
ACAD
1000
AcDbSavedByObjectVersion
1070
     0
1000
AcDbSavedByObjectVersion
1070
     0
  0
VISUALSTYLE
  5
62D2
102
{ACAD_REACTORS
330
62C6
102
}
330
62C6
100
AcDbVisualStyle
  2
Brighten
 70
    12
 71
     2
 72
     2
 73
     0
 90
        0
 40
-0.6
 41
-30.0
 62
     5
 63
     7
 74
     1
 91
        4
 64
     7
 65
   257
 75
     1
175
     1
 42
1.0
 92
        8
 66
     7
 43
1.0
 76
     1
 77
     6
 78
     2
 67
     7
 79
     5
170
     0
171
     0
290
     0
174
     0
 93
        1
 44
50.0
173
     0
291
     1
 45
0.0
1001
ACAD
1000
AcDbSavedByObjectVersion
1070
     0
1000
AcDbSavedByObjectVersion
1070
     0
  0
VISUALSTYLE
  5
62D6
102
{ACAD_REACTORS
330
62C6
102
}
330
62C6
100
AcDbVisualStyle
  2
ColorChange
 70
    16
 71
     2
 72
     2
 73
     3
 90
        0
 40
-0.6
 41
-30.0
 62
     5
 63
     8
 74
     1
 91
        4
 64
     7
 65
   257
 75
     1
175
     1
 42
1.0
 92
        8
 66
     8
 43
1.0
 76
     1
 77
     6
 78
     2
 67
     7
 79
     5
170
     0
171
     0
290
     0
174
     0
 93
        1
 44
0.0
173
     0
291
     1
 45
0.0
1001
ACAD
1000
AcDbSavedByObjectVersion
1070
     0
1000
AcDbSavedByObjectVersion
1070
     0
  0
VISUALSTYLE
  5
62CF
102
{ACAD_REACTORS
330
62C6
102
}
330
62C6
100
AcDbVisualStyle
  2
Conceptual
 70
     9
 71
     3
 72
     2
 73
     0
 90
        0
 40
-0.6
 41
-30.0
 62
     5
 63
     7
 74
     2
 91
        2
 64
     7
 65
   257
 75
     1
175
     1
 42
40.0
 92
        8
 66
     7
 43
1.0
 76
     1
 77
     6
 78
     2
 67
     7
 79
     3
170
     0
171
     0
290
     0
174
     0
 93
        1
 44
0.0
173
     0
291
     0
 45
0.0
1001
ACAD
1000
AcDbSavedByObjectVersion
1070
     0
1000
AcDbSavedByObjectVersion
1070
     0
  0
VISUALSTYLE
  5
62D1
102
{ACAD_REACTORS
330
62C6
102
}
330
62C6
100
AcDbVisualStyle
  2
Dim
 70
    11
 71
     2
 72
     2
 73
     0
 90
        0
 40
-0.6
 41
-30.0
 62
     5
 63
     7
 74
     1
 91
        4
 64
     7
 65
   257
 75
     1
175
     1
 42
1.0
 92
        8
 66
     7
 43
1.0
 76
     1
 77
     6
 78
     2
 67
     7
 79
     5
170
     0
171
     0
290
     0
174
     0
 93
        1
 44
-50.0
173
     0
291
     1
 45
0.0
1001
ACAD
1000
AcDbSavedByObjectVersion
1070
     0
1000
AcDbSavedByObjectVersion
1070
     0
  0
VISUALSTYLE
  5
62D5
102
{ACAD_REACTORS
330
62C6
102
}
330
62C6
100
AcDbVisualStyle
  2
Facepattern
 70
    15
 71
     2
 72
     2
 73
     0
 90
        0
 40
-0.6
 41
-30.0
 62
     5
 63
     7
 74
     1
 91
        4
 64
     7
 65
   257
 75
     1
175
     1
 42
1.0
 92
        8
 66
     7
 43
1.0
 76
     1
 77
     6
 78
     2
 67
     7
 79
     5
170
     0
171
     0
290
     0
174
     0
 93
        1
 44
0.0
173
     0
291
     1
 45
0.0
1001
ACAD
1000
AcDbSavedByObjectVersion
1070
     0
1000
AcDbSavedByObjectVersion
1070
     0
  0
VISUALSTYLE
  5
62C7
102
{ACAD_REACTORS
330
62C6
102
}
330
62C6
100
AcDbVisualStyle
  2
Flat
 70
     0
 71
     2
 72
     1
 73
     1
 90
        2
 40
-0.6
 41
30.0
 62
     5
 63
     7
 74
     0
 91
        4
 64
     7
 65
   257
 75
     1
175
     1
 42
1.0
 92
        8
 66
     7
 43
1.0
 76
     1
 77
     6
 78
     2
 67
     7
 79
     5
170
     0
171
     0
290
     0
174
     0
 93
       13
 44
0.0
173
     0
291
     1
 45
0.0
1001
ACAD
1000
AcDbSavedByObjectVersion
1070
     0
1000
AcDbSavedByObjectVersion
1070
     0
  0
VISUALSTYLE
  5
62C8
102
{ACAD_REACTORS
330
62C6
102
}
330
62C6
100
AcDbVisualStyle
  2
FlatWithEdges
 70
     1
 71
     2
 72
     1
 73
     1
 90
        2
 40
-0.6
 41
30.0
 62
     5
 63
     7
 74
     1
 91
        4
 64
     7
 65
   257
 75
     1
175
     1
 42
1.0
 92
        0
 66
   257
 43
1.0
 76
     1
 77
     6
 78
     2
 67
     7
 79
     5
170
     0
171
     0
290
     0
174
     0
 93
       13
 44
0.0
173
     0
291
     1
 45
0.0
1001
ACAD
1000
AcDbSavedByObjectVersion
1070
     0
1000
AcDbSavedByObjectVersion
1070
     0
  0
VISUALSTYLE
  5
62C9
102
{ACAD_REACTORS
330
62C6
102
}
330
62C6
100
AcDbVisualStyle
  2
Gouraud
 70
     2
 71
     2
 72
     2
 73
     1
 90
        2
 40
-0.6
 41
30.0
 62
     5
 63
     7
 74
     0
 91
        4
 64
     7
 65
   257
 75
     1
175
     1
 42
1.0
 92
        0
 66
     7
 43
1.0
 76
     1
 77
     6
 78
     2
 67
     7
 79
     5
170
     0
171
     0
290
     0
174
     0
 93
       13
 44
0.0
173
     0
291
     1
 45
0.0
1001
ACAD
1000
AcDbSavedByObjectVersion
1070
     0
1000
AcDbSavedByObjectVersion
1070
     0
  0
VISUALSTYLE
  5
62CA
102
{ACAD_REACTORS
330
62C6
102
}
330
62C6
100
AcDbVisualStyle
  2
GouraudWithEdges
 70
     3
 71
     2
 72
     2
 73
     1
 90
        2
 40
-0.6
 41
30.0
 62
     5
 63
     7
 74
     1
 91
        4
 64
     7
 65
   257
 75
     1
175
     1
 42
1.0
 92
        0
 66
   257
 43
1.0
 76
     1
 77
     6
 78
     2
 67
     7
 79
     5
170
     0
171
     0
290
     0
174
     0
 93
       13
 44
0.0
173
     0
291
     1
 45
0.0
1001
ACAD
1000
AcDbSavedByObjectVersion
1070
     0
1000
AcDbSavedByObjectVersion
1070
     0
  0
VISUALSTYLE
  5
62D4
102
{ACAD_REACTORS
330
62C6
102
}
330
62C6
100
AcDbVisualStyle
  2
Linepattern
 70
    14
 71
     2
 72
     2
 73
     0
 90
        0
 40
-0.6
 41
-30.0
 62
     5
 63
     7
 74
     1
 91
        4
 64
     7
 65
   257
 75
     7
175
     7
 42
1.0
 92
        8
 66
     7
 43
1.0
 76
     1
 77
     6
 78
     2
 67
     7
 79
     5
170
     0
171
     0
290
     0
174
     0
 93
        1
 44
0.0
173
     0
291
     1
 45
0.0
1001
ACAD
1000
AcDbSavedByObjectVersion
1070
     0
1000
AcDbSavedByObjectVersion
1070
     0
  0
VISUALSTYLE
  5
62D0
102
{ACAD_REACTORS
330
62C6
102
}
330
62C6
100
AcDbVisualStyle
  2
Realistic
 70
     8
 71
     2
 72
     2
 73
     0
 90
        0
 40
-0.6
 41
-30.0
 62
     5
 63
     7
 74
     1
 91
        0
 64
     7
 65
   257
 75
     1
175
     1
 42
1.0
 92
        8
 66
     8
 43
1.0
 76
     1
 77
     6
 78
     2
 67
     7
 79
     5
170
     0
171
     0
290
     0
174
     0
 93
       13
 44
0.0
173
     0
291
     0
 45
0.0
1001
ACAD
1000
AcDbSavedByObjectVersion
1070
     0
1000
AcDbSavedByObjectVersion
1070
     0
  0
VISUALSTYLE
  5
62D3
102
{ACAD_REACTORS
330
62C6
102
}
330
62C6
100
AcDbVisualStyle
  2
Thicken
 70
    13
 71
     2
 72
     2
 73
     0
 90
        0
 40
-0.6
 41
-30.0
 62
     5
 63
     7
 74
     1
 91
        4
 64
     7
 65
   257
 75
     1
175
     1
 42
1.0
 92
       12
 66
     7
 43
1.0
 76
     1
 77
     6
 78
     2
 67
     7
 79
     5
170
     0
171
     0
290
     0
174
     0
 93
        1
 44
0.0
173
     0
291
     1
 45
0.0
1001
ACAD
1000
AcDbSavedByObjectVersion
1070
     0
1000
AcDbSavedByObjectVersion
1070
     0
  0
DICTIONARYVAR
  5
6336
102
{ACAD_REACTORS
330
5629
102
}
330
5629
100
DictionaryVariables
280
     0
  1
1:1
  0
DICTIONARYVAR
  5
6335
102
{ACAD_REACTORS
330
5629
102
}
330
5629
100
DictionaryVariables
280
     0
  1
STANDARD
  0
DICTIONARYVAR
  5
562A
102
{ACAD_REACTORS
330
5629
102
}
330
5629
100
DictionaryVariables
280
     0
  1
STANDARD
  0
DICTIONARYVAR
  5
562B
102
{ACAD_REACTORS
330
5629
102
}
330
5629
100
DictionaryVariables
280
     0
  1
1
  0
DICTIONARYVAR
  5
6338
102
{ACAD_REACTORS
330
5629
102
}
330
5629
100
DictionaryVariables
280
     0
  1
0
  0
DICTIONARYVAR
  5
562C
102
{ACAD_REACTORS
330
5629
102
}
330
5629
100
DictionaryVariables
280
     0
  1

  0
DICTIONARYVAR
  5
6337
102
{ACAD_REACTORS
330
5629
102
}
330
5629
100
DictionaryVariables
280
     0
  1
127
  0
DICTIONARY
  5
63D0
330
5625
100
AcDbDictionary
280
     1
281
     1
  3
ACAD_XREC_ROUNDTRIP
360
63D1
  0
DICTIONARY
  5
56B6
330
5626
100
AcDbDictionary
280
     1
281
     1
  3
ACAD_XREC_ROUNDTRIP
360
63D2
  3
ADSK_XREC_LAYOUTTHUMBNAIL
360
56B7
  0
DICTIONARY
  5
62B7
330
62B6
100
AcDbDictionary
280
     1
281
     1
  3
ACAD_XREC_ROUNDTRIP
360
63D4
  3
BUMPTILE
360
62B9
  3
DIFFUSETILE
360
62B8
  3
OPACITYTILE
360
62BC
  3
REFLECTIONTILE
360
62BB
  3
REFRACTIONTILE
360
62BD
  3
SPECULARTILE
360
62BA
  0
DICTIONARY
  5
62AF
330
62AE
100
AcDbDictionary
280
     1
281
     1
  3
ACAD_XREC_ROUNDTRIP
360
63D3
  3
BUMPTILE
360
62B1
  3
DIFFUSETILE
360
62B0
  3
OPACITYTILE
360
62B4
  3
REFLECTIONTILE
360
62B3
  3
REFRACTIONTILE
360
62B5
  3
SPECULARTILE
360
62B2
  0
DICTIONARY
  5
62BF
330
62BE
100
AcDbDictionary
280
     1
281
     1
  3
ACAD_XREC_ROUNDTRIP
360
63D5
  3
BUMPTILE
360
62C1
  3
DIFFUSETILE
360
62C0
  3
OPACITYTILE
360
62C4
  3
REFLECTIONTILE
360
62C3
  3
REFRACTIONTILE
360
62C5
  3
SPECULARTILE
360
62C2
  0
DICTIONARY
  5
6339
330
5624
100
AcDbDictionary
280
     1
281
     1
  3
ACAD_ROUNDTRIP_2008_TABLESTYLE_CELLSTYLEMAP
360
63C9
  3
ACAD_XREC_ROUNDTRIP
360
63CF
  0
XRECORD
  5
63D1
102
{ACAD_REACTORS
330
63D0
102
}
330
63D0
100
AcDbXrecord
280
     1
102
SHADEPLOT
 70
     0
102
SHADEPLOTRESLEVEL
 70
     2
102
SHADEPLOTCUSTOMDPI
 70
   300
  0
XRECORD
  5
63D2
102
{ACAD_REACTORS
330
56B6
102
}
330
56B6
100
AcDbXrecord
280
     1
102
SHADEPLOT
 70
     0
102
SHADEPLOTRESLEVEL
 70
     2
102
SHADEPLOTCUSTOMDPI
 70
   300
  0
XRECORD
  5
56B7
102
{ACAD_REACTORS
330
56B6
102
}
330
56B6
100
AcDbXrecord
280
     1
310
28000000B40000007F00000001000800000000004C590000000000000000000000010000000000000000000000000000FFFFFF000000000000000000000000000000000000000000000000000000000000000000330000006600000099000000CC000000FF00000000330000333300006633000099330000CC330000FF3300
310
0000660000336600006666000099660000CC660000FF66000000990000339900006699000099990000CC990000FF99000000CC000033CC000066CC000099CC0000CCCC0000FFCC000000FF000033FF000066FF000099FF0000CCFF0000FFFF000000003300330033006600330099003300CC003300FF003300003333003333
310
33006633330099333300CC333300FF33330000663300336633006666330099663300CC663300FF66330000993300339933006699330099993300CC993300FF99330000CC330033CC330066CC330099CC3300CCCC3300FFCC330000FF330033FF330066FF330099FF3300CCFF3300FFFF330000006600330066006600660099
310
006600CC006600FF00660000336600333366006633660099336600CC336600FF33660000666600336666006666660099666600CC666600FF66660000996600339966006699660099996600CC996600FF99660000CC660033CC660066CC660099CC6600CCCC6600FFCC660000FF660033FF660066FF660099FF6600CCFF6600
310
FFFF660000009900330099006600990099009900CC009900FF00990000339900333399006633990099339900CC339900FF33990000669900336699006666990099669900CC669900FF66990000999900339999006699990099999900CC999900FF99990000CC990033CC990066CC990099CC9900CCCC9900FFCC990000FF99
310
0033FF990066FF990099FF9900CCFF9900FFFF99000000CC003300CC006600CC009900CC00CC00CC00FF00CC000033CC003333CC006633CC009933CC00CC33CC00FF33CC000066CC003366CC006666CC009966CC00CC66CC00FF66CC000099CC003399CC006699CC009999CC00CC99CC00FF99CC0000CCCC0033CCCC0066CC
310
CC0099CCCC00CCCCCC00FFCCCC0000FFCC0033FFCC0066FFCC0099FFCC00CCFFCC00FFFFCC000000FF003300FF006600FF009900FF00CC00FF00FF00FF000033FF003333FF006633FF009933FF00CC33FF00FF33FF000066FF003366FF006666FF009966FF00CC66FF00FF66FF000099FF003399FF006699FF009999FF00CC
310
99FF00FF99FF0000CCFF0033CCFF0066CCFF0099CCFF00CCCCFF00FFCCFF0000FFFF0033FFFF0066FFFF0099FFFF00CCFFFF00FFFFFF00000000000D0D0D001A1A1A00282828003535350043434300505050005D5D5D006B6B6B00787878008686860093939300A1A1A100AEAEAE00BBBBBB00C9C9C900D6D6D600E4E4E400
310
F1F1F100FFFFFF0000000000000000000000000000000000000000000000000000000000000000000000000000000000F5F5F5F5F5F5F5F5F5F5F5F5F5F5F5F5F5F5F5F5F5F5F5F5F5F5F5F5F5F5F5F5F5F5F5F5F5F5F5F5F5F5F5F5F5F5F5F5F5F5F5F5F5F5F5F5F5F5F5F5F5F5F5F5F5F5F5F5F5F5F5F5F5F5F5F5F5F5F5
310
F5F5F5F5F5F5F5F5F5F5F5F5F5F5F5F5F5F5F5F5F5F5F5F5F5F5F5F5F5F5F5F5F5F5F5F5F5F5F5F5F5F5F5F5F5F5F5F5F5F5F5F5F5F5F5F5F5F5F5F5F5F5F5F5F5F5F5F5F5F5F5F5F5F5F5F5F5F5F5F5F5F5F5F5F5F5F5F5F5F5F5F5F5F5F5F5F5F5F5F5F5F5E2E2E2E2E2E2E2E2E2E2E2E2E2E2E2E2E2E2E2E2E2E2E2E2E2
310
E2E2E2E2E2E2E2E2E2E2E2E2E2E2E2E2E2E2E2E2E2E2E2E2E2E2E2E2E2E2E2E2E2E2E2E2E2E2E2E2E2E2E2E2E2E2E2E2E2E2E2E2E2E2E2E2E2E2E2E2E2E2E2E2E2E2E2E2E2E2E2E2E2E2E2E2E2E2E2E2E2E2E2E2E2E2E2E2E2E2E2E2E2E2E2E2E2E2E2E2E2E2E2E2E2E2E2E2E2E2E2E2E2E2E2E2E2E2E2E2E2E2E2E2E2E2E2
310
E2E2E2E2E2E2E2E2E2E2E2E2E2E2E2E2E2E2E2E2E2E2E2E2E2F5F5F5E2E2E2E2E2E2E2E2E2E2E2E2E2E2E2E2E2E2E2E2E2E2E2E2E2E2E2E2E2E2E2E2E2E2E2E2E2E2E2E2E2E2E2E2E2E2E2E2E2E2E2E2E2E2E2E2E2E2E2E2E2E2E2E2E2E2E2E2E2E2E2E2E2E2E2E2E2E2E2E2E2E2E2E2E2E2E2E2E2E2E2E2E2E2E2E2E2E2E2
310
E2E2E2E2E2E2E2E2E2E2E2E2E2E2E2E2E2E2E2E2E2E2E2E2E2E2E2E2E2E2E2E2E2E2E2E2E2E2E2E2E2E2E2E2E2E2E2E2E2E2E2E2E2E2E2E2E2E2E2E2E2E2E2E2E2E2E2E2E2E2E2E2E2E2E2E2E2E2F5F5F5E2E2E2E2E2E2E2E2E2E2E2E2E2E2E2E2E2E2E2E2E2E2E2E2E2E2E2E2E2E2E2E2E2E2E2E2E2E2E2E2E2E2E2E2E2E2
310
E2E2E2E2E2E2E2E2E2E2E2E2E2E2E2E2E2E2E2E2E2E2E2E2E2E2E2E2E2E2E2E2E2E2E2E2E2E2E2E2E2E2E2E2E2E2E2E2E2E2E2E2E2E2E2E2E2E2E2E2E2E2E2E2E2E2E2E2E2E2E2E2E2E2E2E2E2E2E2E2E2E2E2E2E2E2E2E2E2E2E2E2E2E2E2E2E2E2E2E2E2E2E2E2E2E2E2E2E2E2E2E2E2E2E2E2E2E2E2E2E2E2E2E2E2E2E2
310
E2E2E2E2F5F5F5E2E2E2F5F5F5F5F5F5F5F5F5F5F5F5F5F5F5F5F5F5F5F5F5F5F5F5F5F5F5F5F5F5F5F5F5F5F5F5F5F5F5F5F5F5F5F5F5F5F5F5F5F5F5F5F5F5F5F5F5F5F5F5F5F5F5F5F5F5F5F5F5F5F5F5F5F5F5F5F5F5F5F5F5F5F5F5F5F5F5F5F5F5F5F5F5F5F5F5F5F5F5F5F5F5F5F5F5F5F5F5F5F5F5F5F5F5F5F5F5
310
F5F5F5F5F5F5F5F5F5F5F5F5F5F5F5F5F5F5F5F5F5F5F5F5F5F5F5F5F5F5F5F5F5F5F5F5F5F5F5F5F5F5F5F5F5F5F5F5F5F5F5F5F5F5E2E2E2F5F5F5E2E2E2F5E2E2E2E2E2E2E2E2E2E2E2E2E2E2E2E2E2E2E2E2E2E2E2E2E2E2E2E2E2E2E2E2E2E2E2E2E2E2E2E2E2E2E2E2E2E2E2E2E2E2E2E2E2E2E2E2E2E2E2E2E2E2E2
310
E2E2E2E2E2E2E2E2E2E2E2E2E2E2E2E2E2E2E2E2E2E2E2E2E2E2E2E2E2E2E2E2E2E2E2E2E2E2E2E2E2E2E2E2E2E2E2E2E2E2E2E2E2E2E2E2E2E2E2E2E2E2E2E2E2E2E2E2E2E2E2E2E2E2E2E2E2E2E2E2E2E2E2E2E2E2E2E2E2E2E2E2E2E2E2E2E2E2E2E2E2E2E2E2E2F5F5E2E2E2F5F5F5E2E2E2F5E2E2E2E2E2E2E2E2E2E2
310
F5F5F5F5F5F5F5F5F5F5F5F5F5F5F5F5F5F5F5F5F5F5F5F5F5F5F5F5F5F5F5F5F5F5F5F5F5F5F5F5F5F5F5F5F5F5F5F5F5F5F5F5F5F5F5F5F5F5F5F5F5F5F5F5F5F5F5F5F5F5F5F5F5F5F5F5F5F5F5F5F5F5DCF5F5F5F5F5F5F5F5F5F5F5F5F5F5F5F5F5F5F5F5F5F5F5F5F5DCF5F5F5F5F5F5F5F5F5F5F5F5F5F5F5F5F5F5
310
F5F5F5F5F5F5F5DCF5F5F5F5F5F5F5F5F5F5F5F5F5F5F5F5F5F5F5F5F5F5E2F5F5E2E2E2F5F5F5E2E2E2F5E2E2E2E2E2E2E2E2E2E2F5E2E2E2E2E2E2E2E2E2E2E2E2E2E2E2E2E2E2E2E2E2E2E2E2E2E2E2E2E2E2E2E2E2E2E2E2E2E2E2E2E2E2E2E2E2E2E2E2E2E2E2E2E2E2E2E2E2E2E2E2E2E2E2E2E2E2E2E2E2E2E2E2E2
310
E2E2E2E2E2E2E2E2DCE2E2E2E2E2E2E2E2E2E2E2E2E2E2E2E2E2E2E2E2E2E2E2E2E2DCE2E2E2E2E2E2E2E2E2E2E2E2E2E2E20FE2E2E2E2E2E2E2E2E2DCE2E2E2DCDCDCDCDCDCDCE2E2DCDCE2E2E2DCDCDCE2F5E2F5F5E2E2E2F5F5F5E2E2E2F5E2E2E2E2E2E2E2E2E2E2F5E2E2E2E2E2E2E2E2E2E2E2E2E2E2E2E2E2E2E2E2
310
E2E2E2E2E2E2E2E2E2E2E2E2E2E2E2E2E2E2E2E2E2E2E2E2E2E2E2E2E2E2E2E2E2E2E2E2E2E2E2E2E2E2E2E2E2E2E2E2E2E2E2E2E2E2E2E2E2E2E2E2E2DCE2DCDCDCDCDCDCDCDCE2DCE2DCE2DCE2DCDCDCDCDCE2DCE2E2DCE2E2E2E2E2E2E2E2E2E2E2E2E2E2E20FE2E2E2E2E2E2E2E2E2DCE2E2E2DCDCDCDCDCDCDCDCDCDC
310
DCDCDCDCDCDCDCE2F5E2F5F5E2E2E2F5F5F5E2E2E2F5E2E2E2E2E2E2E2E2E2E2F5E2E2E2E2E2E2E2E2E2E2E2E2E2E2E2E2E2E2E2E2E2E2E2E2E2E2E2E2E2E2E2E2E2E2E2E2E2E2E2E2E2E2E2E2E2E2E2E2E2E2E2E2E2E2E2E2E2E2E2E2E2E2E2E2E2E2E2E2E2E2E2E2E2E2E2E2E2E2E2E2E2DCE2DCDCDCDCDCDCDCDCDCDCDC
310
E2DCDCDCDCDCDCDCDCE2DCDCE2DCDCDCDCDCDCDCDCDCDCDCDCDCDCDCDCDCDCDCDCDCDCDCDCDCDCDCDCDCE2E2DCE2E2E2E2E2E2E2E2E2E2E2E2E2E2E2E2F5E2F5F5E2E2E2F5F5F5E2E2E2F5E2E2E2E2E2E2E2E2E2E2F5E2E2E2E2E2E2E2E2E2E2E2E2E2E2E2E2E2E2E2E2E2E2E2E2E2E2E2E2E2E2E2E2E2E2E2E2E2E2E2E2E2
310
E2E2E2E2E2E2E2E2E2E2E2E2E2E2E2E2E2E2E2E2E2E2E2E2E2E2E2E2E2E2E2E2E2E2E2E2E2E2E2E2DCE2DCDCDCDCDCDCDCDCDCDCE2E2DCDCE2DCDCE2E2E2DCDCE2E2DCDCDCDCDCDCDCE2E2E2E2E2E2E2E2E20FE2E2E2E2E2E2E2E2E2DCDCDCE2DCDCDCE2E2E2E2E2E2E2E2E2E2E2E2E2E2E2F5E2F5F5E2E2E2F5F5F5E2E2E2
310
F5E2E2E2E2E2E2E2E2E2E2F5E2E2E2E2E2E2E2E2E2E2E2E2E2E2E2E2E2E2E2E2E2E2E2E2E2E2E2E2E2E2E2E2E2E2E2E2E2E2E2E2E2E2E2E2E2E2E2E2E2E2E2E2E2E2E2E2E2E2E2E2E2E2E2E2E2E2E2E2E2E2E2E2E2E2E2E2E2E2E2E2E2DCDCDCDCDCDCDCDCDCDCDCDCDCDCDCDCDCDCDCDCDCDCDCDCDCDCDCDCDCDCDCDCDCDC
310
DCDCDCDCDCDCDCDC0FDCDCDCDCDCDCDCDCDCDCDCDCDCDCDCDCDCDCDCDCDCDCDCDCDCDCDCDCDCDCDCDCE2F5F5E2E2E2F5F5F5E2E2E2F5E2E2E2E2E2E2E2E2E2E2F5E2E2E2E2E2E2E2E2E2E2E2E2E2E2E2E2E2E2E2E2E2E2E2E2E2E2E2E2E2E2E2E2E2E2E2E2E2E2E2E2E2E2E2E2E2E2E2E2E2E2E2E2E2E2E2E2E2E2E2E2E2E2
310
E2E2E2E2E2E2E2E2E2E2E2E2E2E2E2E2E2E2E2DCE2E2DCDCDCDCDCDCDCDCDCDCDCDCDCDCDCDCDCE2E2DCDCDCDCDCE2E2E2E2E2E2E2E2E2E2E2E2E2DCDCDCDCDCE2E2E2E2E2E2E2DCE2E2E2E2E2E2E2E2E2E2E2E2E2E2E2E2E2E2E2E2E2F5E2F5E2E2E2E2F5F5F5E2E2E2F5E2E2E2E2E2E2E2E2E2E2F5E2E2E2E2E2E2E2E2E2
310
E2E2E2E2E2E2E2E2E2E2E2E2E2E2E2E2E2E2E2E2E2E2E2E2E2E2E2E2E2E2E2E2E2E2E2E2E2E2E2E2E2E2E2E2E2E2E2E2E2E2E2E2E2E2E2E2E2E2E2E2E2E2E2E2E2E2E2E2E2E2E2E2DCDCDCDCDCDCDCDCDCDCDCDCDCDCDCDCDCDCDCDCDCDCDCDCDCDCDCE2E2E2E2E2E2E2E2E2E2E2E2E2DCDCDCDCDCE2E2E2E2E2E2E2DCE2E2
310
E2E2E2E2E2E2DCDCDCDCDCDCE2DCDCDCE2E2E2F5E2F5E2E2E2E2F5F5F5E2E2E2F5E2E2E2E2E2E2E2E2E2E2F5E2E2E2E2E2E2E2E2E2E2E2E2E2E2E2E2E2E2E2E2E2E2E2E2E2E2E2E2E2E2E2E2E2E2E2E2E2E2E2E2E2E2E2E2E2E2E2E2E2E2E2E2E2E2E2E2E2E2E2E2E2E2E2E2E2E2E2E2E2E2E2E2E2E2E2E2E2E2E2E2E2DCE2
310
E2DCDCDCDCDCDCDCE2DCDCDCE2E2DCE2E2E2E2E2DCDCDCDCDCDCDCE2E2DCE2DCDCDCDCDCDCDCDCDCDCDCDCDCDCDCDCDCDCDCDCDCDCE2E2E2DCE2E2DCDCDCDCDCDCDCDCDCDCDCE2E2F5E2F5E2E2E2E2F5F5F5E2E2E2F5E2E2E2E2E2E2E2E2E2E2F5E2E2E2E2E2E2E2E2E2E2E2E2E2E2E2E2E2E2E2E2E2E2E2E2E2E2E2E2E2E2
310
E2E2E2E2E2E2E2E2E2E2E2E2E2E2E2E2E2E2E2E2E2E2E2E2E2E2E2E2E2E2E2E2E2E2E2E2E2E2E2E2E2E2E2E2E2E2E2E2E2E2E2DCDCDCDCDCDCDCDCDCDCDCDCDCDCDCDCDCDCDCDCDCDCDCE2DCDCDCDCDCE2DCDCDCE2E2E2E2DCDCDCDCDCDCDCDCDCDCDCE2E2E2E2DCDCDCE2DCDCDCE2E2DCDCDCDCDCDCE2E2DCDCDCE2E2F5E2
310
F5E2E2E2E2F5F5F5E2E2E2F5E2E2E2E2E2E2E2E2E2E2F5E2E2E2E2E2E2E2E2E2E2E2E2E2E2E2E2E2E2E2E2E2E2E2E2E2E2E2E2E2E2E2E2E2E2E2E2E2E2E2E2E2E2E2E2E2E2E2E2E2E2E2E2E2E2E2E2E2E2E2E2E2E2E2E2E2E2E2E2E2E2E2E2E2E2E2E2E2E2E2E2E2DCDCDCDCDCDCDCDCDCDCDCDCDCDCDCDCDCDCDCDCDCDCDC
310
E2DCE2DCDCDCDCDCDCDCDCDCDCDCDCDCDCDCDCDCDCDCDCDCDCDCDCDCDCDCDCDCDCDCDCDCDCDCDCDCDCDCDCDCDCDCDCDCDCDCDCDCE2F5E2E2E2E2F5F5F5E2E2E2F5E2E2E2E2E2E2E2E2E2E2F5E2E2E2E2E2E2E2E2E2E2E2E2E2E2E2E2E2E2E2E2E2E2E2E2E2E2E2E2E2E2E2E2E2E2E2E2E2E2E2E2E2E2E2E2E2E2E2E2E2E2E2
310
E2E2E2E2E2E2E2E2E2E2E2E2E2E2E2E2E2E2E2E2E2E2E2E2E2E2E2E2E2E2DCE2DCDCDCDCDCDCDCDCE2DCDCDCDCE2DCE2E2E2E2E2DCE2DCE2DCDCDCDCDCE2E2E2E2E2DCDCDCDCE2E2E2E2E2E2DCDCDCDCE2E2DCDCDCDCDCDCDCDCDCDCDCE2E2E2DCDCDCE2E2E2E2E2F5E2F5E2E2E2E2F5F5F5E2E2E2F5E2E2E2E2E2E2E2E2E2
310
E2F5E2E2E2E2E2E2E2E2E2E2E2E2E2E2E2E2E2E2E2E2E2E2E2E2E2E2E2E2E2E2E2E2E2E2E2E2E2E2E2E2E2E2E2E2E2E2E2E2E2E2E2E2E2E2E2E2E2E2E2E2E2E2E2E2E2E2E2E2E2E2E2E2E2E2E2E2E2E2E2E2E2DCDCDCDCDCDCDCDCDCDCDCDCDCDCDCDCDCDCDCDCDCDCDCDCDCDCDCDCDCDCDCE2E2E2E2E2DCDCDCDCDCE2E2E2
310
E2E2DCDCDCDCE2E2DCDCDCDCDCDCDCDCDCDCDCE2E2E2DCDCDCE2E2E2E2E2F5E2F5E2E2E2E2F5F5F5E2E2E2F5E2E2E2E2E2E2E2E2E2E2F5E2E2E2E2E2E2E2E2E2E2E2E2E2E2E2E2E2E2E2E2E2E2E2E2E2E2E2E2E2E2E2E2E2E2E2E2E2E2E2E2E2E2E2E2E2E2E2E2E2E2E2E2E2E2E2E2E2E2E2E2E2E2E2E2E2E2E2E2E2E2E2E2
310
E2E2E2E2E2E2E2E2E2DCDCDCDCDCDCDCDCDCDCE2DCDCE2DCDCDCDCE2DCDCE2DCDCDCDCDCDCDCDCDCDCDCDCDCDCDCDCDCDCDCDCDCDCDCDCDCDCDCDCDCDCDCDCDCDCDCDCDCDCDCDCDCDCDCDCDCDCDCDCDCDCDCDCDCE2F5E2E2E2E2F5F5F5E2E2E2F5E2E2E2E2E2E2E2E2E2E2F5E2E2E2E2E2E2E2E2E2E2E2E2E2E2E2E2E2E2E2
310
E2E2E2E2E2E2E2E2E2E2E2E2E2E2E2E2E2E2E2E2E2E2E2E2E2E2E2E2E2E2E2E2E2E2E2E2E2E2E2E2E2E2E2E2E2E2E2E2E2E2E2E2E2E2E2E2E2E2E2E2E2E2DCDCDCDCDCDCDCDCDCDCE2DCDCE2DCDCDCDCE2DCDCE2DCDCDCDCDCDCDCDCDCDCE2E2DCDCDCE2E2E2E2DCDCDCE2E2DCDCDCE2DCDCDCDCDCDCE2DCDCDCE2DCDCDCE2
310
E2E2E2E2E2DCDCE2E2F5E2F5E2E2E2E2F5F5F5E2E2E2F5E2E2E2E2E2E2E2E2E2E2F5E2E2E2E2E2E2E2E2E2E2E2E2E2E2E2E2E2E2E2E2E2E2E2E2E2E2E2E2E2E2E2E2E2E2E2E2E2E2E2E2E2E2E2E2E2E2E2E2E2E2E2E2E2E2E2E2E2E2E2E2E2E2E2E2E2E2E2E2E2E2E2E2E2E2E2E2E2E2E2E2E2DCDCDCDCDCDCDCDCDCDCDCDC
310
DCDCDCDCDCDCDCDCDCDCDCDCDCDCDCDCDCDCDCDCDCDCDCDCDCDCDCDCDCDCDCDCDCDCDCDCDCDCDCDCDCDCDCDCDCDCDCDCDCDCDCDCDCDCDCDCDCDCDCDCDCDCDCE2F5F5E2E2E2F5F5F5E2E2E2F5E2E2E2E2E2E2E2E2E2E2F5E2E2E2E2E2E2E2E2E2E2E2E2E2E2E2E2E2E2E2E2E2E2E2E2E2E2E2E2E2E2E2E2E2E2E2E2E2E2E2E2
310
E2E2E2E2E2E2E2E2E2E2E2E2E2E2E2E2E2E2E2E2E2E2E2E2E2E2E2E2E2E2E2E2E2E2E2E2E2E2E2E2E2DCDCDCDCDCE2E2E2E2DCE2E2E2E2E2E2E2E2E2E2E2E2DCE2E2E2DCE2E2DCE2DCE2DCDCDCE2E2DCE2E2E2DCE2E2E2DCDCDCDCDCDCDCDCDCDCDCDCDCDCE2E2E2E2E2E2E2E2E2E2E2E2E2E2F5E2F5F5E2E2E2F5F5F5E2E2
310
E2F5E2E2E2E2E2E2E2E2E2E2F5E2E2E2E2E2E2E2E2E2E2E2E2E2E2E2E2E2E2E2E2E2E2E2E2E2E2E2E2E2E2E2E2E2E2E2E2E2E2E2E2E2E2E2E2E2E2E2E2E2E2E2E2E2E2E2E2E2E2E2E2E2E2E2E2E2E2E2E2E2E2E2E2E2E2E2E2E2E2E2E2E2DCDCDCDCDCE2E2E2E2DCE2E2E2E2E2E2E2E2E2E2E2E2DCE2E2E2DCE2E2DCE2DCE2
310
DCDCDCDCDCDCDCDCDCDCE2E2E2DCDCDCDCDCDCDCDCE2DCDCDCDCDCE2E2E2E2E2E2E2E2E2E2E2E2E2E2F5E2F5F5E2E2E2F5F5F5E2E2E2F5E2E2E2E2E2E2E2E2E2E2F5E2E2E2E2E2E2E2E2E2E2E2E2E2E2E2E2E2E2E2E2E2E2E2E2E2E2E2E2E2E2E2E2E2E2E2E2E2E2E2E2E2E2E2E2E2E2E2E2E2E2E2E2E2E2E2E2E2E2E2E2E2
310
E2E2E2E2E2E2E2E2E2E2E2E2E2E2E2E2E2E2E2E2DCDCDCDCDCDCDCDCDCDCDCDCDCDCDCDCDCDCDCDCDCDCDCDCDCDCDCDCDCDCDCDCDCDCDCDCDCDCDCDCDCDCDCDCDCDCDCDCDCDCDCDCDCDCDCDCDCDCDCDCDCDCDCDCDCDCDCDCDCDCDCDCDCDCDCE2F5F5E2E2E2F5F5F5E2E2E2F5E2E2E2E2E2E2E2E2E2E2F5E2E2E2E2E2E2E2E2
310
E2E2E2E2E2E2E2E2E2E2E2E2E2E2E2E2E2E2E2E2E2E2E2E2E2E2E2E2E2E2E2E2E2E2E2E2E2E2E2E2E2E2E2E2E2E2E2E2E2E2E2E2E2E2E2E2E2E2E2E2E2E2E2E2E2E2E2E2E2E2E2E2E2DCDCDCDCDCE2E2E2E2DCE2E2E2E2E2E2E2E2E2E2E2E2DCE2E2E2DCE2E2E2E2DCE2E2E2E2E2E2E2E2E2E2E2E2E2E2DCE2E2E2E2E2E2DC
310
E2E2E2E2E2DCE2E2E2E2E2E2E2E2E2E2E2E2E2E2F5E2F5F5E2E2E2F5F5F5E2E2E2F5E2E2E2E2E2E2E2E2E2E2F5E2E2E2E2E2E2E2E2E2E2E2E2E2E2E2E2E2E2E2E2E2E2E2E2E2E2E2E2E2E2E2E2E2E2E2E2E2E2E2E2E2E2E2E2E2E2E2E2E2E2E2E2E2E2E2E2E2E2E2E2E2E2E2E2E2E2E2E2E2E2E2E2E2E2E2E2E2E2E2E2E2DC
310
DCDCDCDCE2E2E2E2DCE2E2E2E2E2E2E2E2E2E2E2E2DCE2E2E2DCE2E2E2E2DCE2E2E2E2E2E2E2E2E2E2E2E2E2E2DCE2E2E2E2E2E2DCE2E2E2E2E2DCE2E2E2E2E2E2E2E2E2E2E2E2E2E2F5E2F5F5E2E2E2F5F5F5E2E2E2F5E2E2E2E2E2E2E2E2E2E2F5E2E2E2E2E2E2E2E2E2E2E2E2E2E2E2E2E2E2E2E2E2E2E2E2E2E2E2E2E2
310
E2E2E2E2E2E2E2E2E2E2E2E2E2E2E2E2E2E2E2E2E2E2E2E2E2E2E2E2E2E2E2E2E2E2E2E2E2E2E2E2E2E2E2E2E2E2E2E2E2E2E2E2DCDCDCDCDCDCDCDCDCDCDCDCDCDCDCDCDCDCDCDCDCDCDCDCDCDCDCDCDCDCDCDCDCDCDCDCDCDCDCDCDCDCDCDCDCDCDCDCDCDCDCDCDCDCDCDCDCDCDCDCDCDCDCDCDCDCDCDCDCDCDCDCDCDCDC
310
E2F5F5E2E2E2F5F5F5E2E2E2F5E2E2E2E2E2E2E2E2E2E2F5E2E2E2E2E2E2E2E2E2E2E2E2E2E2E2E2E2E2E2E2E2E2E2E2E2E2E2E2E2E2E2E2E2E2E2E2E2E2E2E2E2E2E2E2E2E2E2E2E2E2E2E2E2E2E2E2E2E2E2E2E2E2E2E2E2E2E2E2E2E2E2E2E2E2E2E2E2E2E2E2E2E2E2E2E2E2E2E2E2E2E2E2E2E2E2E2E2E2E2E2E2E2E2
310
E2E2E2E2DCE2E2E2E2DCE2E2E2E2E2E2E2E2E2E2E2E2E2E2DCE2E2E2E2E2E2DCE2E2E2E2E2DCE2E2E2E2E2E2E2E2E2E2E2E2E2E2F5E2F5F5E2E2E2F5F5F5E2E2E2F5E2E2E2E2E2E2E2E2E2E2F5E2E2E2E2E2E2E2E2E2E2E2E2E2E2E2E2E2E2E2E2E2E2E2E2E2E2E2E2E2E2E2E2E2E2E2E2E2E2E2E2E2E2E2E2E2E2E2E2E2E2
310
E2E2E2E2E2E2E2E2E2E2E2E2E2E2E2E2E2E2E2E2E2E2E2E2E2E2E2E2E2E2E2E2E2E2E2E2E2E2E2E2E2E2E2E2E2E2E2E2E2E2E2E2E2E2E2E2E2DCE2E2E2E2DCE2E2E2E2E2E2E2E2E2E2E2E2E2E2DCE2E2E2E2E2E2DCE2E2E2E2E2DCE2E2E2E2E2E2E2E2E2E2E2E2E2E2F5E2F5F5E2E2E2F5F5F5E2E2E2F5E2E2E2E2E2E2E2E2
310
E2E2F5E2E2E2E2E2E2E2E2E2E2E2E2E2E2E2E2E2E2E2E2E2E2E2E2E2E2E2E2E2E2E2E2E2E2E2E2E2E2E2E2E2E2E2E2E2E2E2E2E2E2E2E2E2E2E2E2E2E2E2E2E2E2E2E2E2E2E2E2E2E2E2E2E2E2E2E2E2E2E2E2E2E2E2E2E2E2E2E2E2E2E2E2E2E2E2E2E2E2E2E2E2E2E2E2E2E2E2DCDCDCDCDCDCDCDCDCDCDCDCDCDCDCDCDC
310
DCDCDCDCDCDCDCDCDCDCDCDCDCDCDCDCDCDCDCDCDCDCDCDCDCDCDCDCDCDCDCDCE2F5F5E2E2E2F5F5F5E2E2E2F5E2E2E2E2E2E2E2E2E2E2F5E2E2E2E2E2E2E2E2E2E2E2E2E2E2E2E2E2E2E2E2E2E2E2E2E2E2E2E2E2E2E2E2E2E2E2E2E2E2E2E2E2E2E2E2E2E2E2E2E2E2E2E2E2E2E2E2E2E2E2E2E2E2E2E2E2E2E2E2E2E2E2
310
E2E2E2E2E2E2E2E2E2E2E2E2E2E2E2E2E2E2E2E2E2E2E2E2E2E2E2E2E2E2E2E2E2E2E2E2DCE2E2E2E2DCE2E2E2E2E2E2E2E2E2E2E2E2E2E2DCE2E2E2E2E2E2DCE2E2E2E2E2DCE2E2E2E2E2E2E2E2E2E2E2E2E2E2F5E2F5F5E2E2E2F5F5F5E2E2E2F5E2E2E2E2E2E2E2E2E2E2F5E2E2E2E2E2E2E2E2E2E2E2E2E2E2E2E2E2E2
310
E2E2E2E2E2E2E2E2E2E2E2E2E2E2E2E2E2E2E2E2E2E2E2E2E2E2E2E2E2E2E2E2E2E2E2E2E2E2E2E2E2E2E2E2E2E2E2E2DCDCDCDCDCDCDCDCDCDCDCDCE2E2E2E2E2E2E2E2E2E2E2E2E2E2E2E2E2E2E2E2E2E2E2E2E2E2E2E2E2DCE2E2E2E2DCE2E2E2E2E2E2E2E2E2E2E2E2E2E2DCE2E2E2E2E2E2DCE2E2E2E2E2DCE2E2E2E2
310
E2E2E2E2E2E2E2E2E2E2F5E2F5F5E2E2E2F5F5F5E2E2E2F5E2E2E2E2E2E2E2E2E2E2F5E2E2E2E2E2E2E2E2E2E2E2E2E2E2E2E2E2E2E2E2E2E2E2E2E2E2E2E2E2E2E2E2E2E2E2E2E2E2E2E2E2E2E2E2E2E2E2E2E2E2E2E2E2E2E2E2E2E2E2E2E2E2E2E2E2E2DCDCDCDCDCDCDCDCDCDCDCE2E2E2E2E2E2E2E2E2E2E2E2E2E2E2
310
E2E2E2E2E2E2E2E2E2E2E2E2E2E2E2DCDCDCDCDCDCDCDCDCDCDCDCDCDCDCDCDCDCDCDCDCDCDCDCDCDCDCDCDCDCDCDCDCDCDCDCDCDCDCDCDCDCDCDCDCDCDCDCDCE2F5F5E2E2E2F5F5F5E2E2E2F5E2E2E2E2E2E2E2E2E2E2F5E2E2E2E2E2E2E2E2E2E2E2E2E2E2E2E2E2E2E2E2E2E2E2E2E2E2E2E2E2E2E2E2E2E2E2E2E2E2E2
310
E2E2E2E2E2E2E2E2E2E2E2E2E2E2E2E2E2E2E2E2E2E2E2E2E2E2E2DCDCDCDCDCDCE2E2E2DCE2E2E2E2E2E2E2E2E2E2E2E2E2E2E2E2E2E2E2E2E2E2E2E2E2E2E2E2E2E2E2DCE2E2E2E2DCE2E2E2E2E2E2E2E2E2E2E2E2E2E2DCE2E2E2E2E2E2DCE2E2E2E2E2DCE2E2E2E2E2E2E2E2E2E2E2E2E2E2F5E2F5F5E2E2E2F5F5F5E2
310
E2E2F5E2E2E2E2E2E2E2E2E2E2F5E2E2E2E2E2E2E2E2E2E2E2E2E2E2E2E2E2E2E2E2E2E2E2E2E2E2E2E2E2E2E2E2E2E2E2E2E2E2E2E2E2E2E2E2E2E2E2E2E2E2E2E2E2E2E2E2E2E2E2E2E2E2E2E2E2E2E2E2E2E2E2E2E2E2E2E2E2E2E2E2E2E2E2E2E2E2E2E2E2E2E2E2E2E2E2E2E2E2E2E2E2E2E2E2E2E2E2DCE2E2E2E2DC
310
E2E2E2E2E2E2E2E2E2E2E2E2E2E2DCE2E2E2E2E2E2DCE2E2E2E2E2DCE2E2E2E2E2E2E2E2E2E2E2E2E2E2F5E2F5F5E2E2E2F5F5F5E2E2E2F5E2E2E2E2E2E2E2E2E2E2F5E2E2E2E2E2E2E2E2E2E2E2E2E2E2E2E2E2E2E2E2E2E2E2E2E2E2E2E2E2E2E2E2E2E2E2E2E2E2E2E2E2E2E2E2E2E2E2E2E2E2E2E2E2E2E2E2E2E2E2E2
310
E2E2E2E2E2E2E2E2E2E2E2E2E2E2E2E2E2E2E2E2E2E2E2E2E2E2E2E2E2E2E2E2E2E2E2E2E2E2E2E2E2E2E2E2E2E2E2DCDCDCDCDCDCDCDCDCDCDCDCDCDCDCDCDCDCDCDCDCDCDCDCDCDCDCDCDCDCDCDCDCDCDCDCDCDCDCDCDCDCDCDCDCDCDCDCDCE2F5E2E2E2E2F5F5F5E2E2E2F5E2E2E2E2E2E2E2E2E2E2F5E2E2E2E2E2E2E2
310
E2E2E2E2E2E2E2E2E2E2E2E2E2E2E2E2E2E2E2E2E2E2E2E2E2E2E2E2E2E2E2E2E2E2E2E2E2E2E2E2E2E2E2E2E2E2E2E2E2E2E2E2DCDCDCDCDCDCDCDCDCDCDCDCDCDCDCDCDCDCDCDCDCDCDCDCE2E2E2E2E2E2E2E2E2E2E2E2E2E2E2E2E2E2E2E2E2E2E2E2E2E2E2E2E2E2E2E2E2E2E2E2E2E2E2E2E2E2E2E2E2E2E2E2E2E2E2
310
E2E2E2E2E2E2E2E2E2E2E2E2E2E2E2E2E2E2E2E2E2F5E2F5E2E2E2E2F5F5F5E2E2E2F5E2E2E2E2E2E2E2E2E2E2F5E2E2E2E2E2E2E2E2E2E2E2E2E2E2E2E2E2E2E2E2E2E2E2E2E2E2E2E2E2E2E2E2E2E2E2E2E2E2E2E2E2E2E2E2E2E2E2E2E2E2E2E2E2E2E2E2E2E2E2E2E2DCDCDCE2E2E2E2E2DCDCDCDCE2E2E2E2E2DCDCDC
310
E2E2E2E2E2E2E2E2E2E2E2E2E2E2E2E2E2E2E2E2E2E2E2E2E2E2E2E2E2E2E2E2E2E2E2E2E2E2E2E2E2E2E2E2E2E2E2E2E2E2E2E2E2E2E2E2E2E2E2E2E2E2E2E2E2E2E2E2E2E2E2E2E2E2F5E2F5E2E2E2E2F5F5F5E2E2E2F5E2E2E2E2E2E2E2E2E2E2F5E2E2E2E2E2E2E2E2E2E2E2E2E2E2E2E2E2E2E2E2E2E2E2E2E2E2E2E2
310
E2E2E2E2E2E2E2E2E2E2E2E2E2E2E2E2E2E2E2E2E2E2E2E2E2E2E2E2E2E2E2E2E2DCDCDCE2E2E2E2E2DCDCDCDCE2E2E2E2E2DCDCDCE2E2E2E2E2E2E2E2E2E2E2E2E2E2E2E2E2E2E2E2E2E2E2E2E2E2E2E2E2E2E2E2E2E2E2E2E2E2E2E2E2E2E2E2E2E2E2E2E2E2E2E2E2E2E2E2E2E2E2E2E2E2E2E2E2E2E2E2E2E2E2E2E2E2
310
F5E2F5E2E2E2E2F5F5F5E2E2E2F5E2E2E2E2E2E2E2E2E2E2F5E2E2E2E2E2E2E2E2E2E2E2E2E2E2E2E2E2E2E2E2E2E2E2E2E2E2E2E2E2E2E2E2E2E2E2E2E2E2E2E2E2E2E2E2E2E2E2E2E2E2E2E2E2E2E2E2E2E2E2E2E2DCE2DCE2E2E2E2E2E2E2E2E2E2E2E2E2E2DCE2DCE2E2E2E2E2E2E2E2E2E2E2E2E2E2E2E2E2E2E2E2E2
310
E2E2E2E2E2E2E2E2E2E2E2E2E2E2E2E2E2E2E2E2E2E2E2E2E2E2E2E2E2E2E2E2E2E2E2E2E2E2E2E2E2E2E2E2E2E2E2E2E2E2E2E2E2F5E2F5E2E2E2E2F5F5F5E2E2E2F5E2E2E2E2E2E2E2E2E2E2F5E2E2E2E2E2E2E2E2E2E2E2E2E2E2E2E2E2E2E2E2E2E2E2E2E2E2E2E2E2E2E2E2E2E2E2E2E2E2E2E2E2E2E2E2E2E2E2E2E2
310
E2E2E2E2E2E2E2E2E2E2E2E2DCE2DCE2E2E2E2E2E2E2E2E2E2E2E2E2E2DCE2DCE2E2E2E2E2DCE2E2E2E2E2E2E2E2E2E2E2E2E2E2E2E2E2E2E2E2E2E2E2E2E2E2E2E2E2E2E2E2E2E2E2E2E2E2E2E2E2E2E2E2E2E2E2E2E2E2E2E2E2E2E2E2E2E2E2E2E2E2E2E2E2E2E2E2F5E2F5E2E2E2E2F5F5F5E2E2E2F5E2E2E2E2E2E2E2
310
E2E2E2F5E2E2E2E2E2E2E2E2E2E2E2E2E2E2E2E2E2E2E2E2E2E2E2E2E2E2E2E2E2E2E2E2E2E2E2E2E2E2E2E2E2E2E2E2E2E2E2E2E2E2E2E2E2E2E2E2E2E2E2E2E2DCE2DCE2E2E2E2E2E2E2BEE2E2E2E2E2E2DCE2DCE2E2E2E2E2DCE2E2E2E2E2E2E2E2E2E2E2E2E2E2E2E2E2E2E2E2E2E2E2E2E2E2E2E2E2E2E2E2E2E2E2E2
310
E2E2E2E2E2E2E2E2E2E2E2E2E2E2E2E2E2E2E2E2E2E2E2E2E2E2E2E2E2E2E2E2F5E2F5E2E2E2E2F5F5F5E2E2E2F5E2E2E2E2E2E2E2E2E2E2F5E2E2E2E2E2E2E2E2E2E2E2E2E2E2E2E2E2E2E2E2E2E2E2E2E2E2E2E2E2E2E2E2E2E2E2E2E2E2E2E2E2E2E2E2E2E2E2E2E2E2E2E2E2E2E2E2E2E2E2E2E2F5F5BEF5F5F5F5F5F5
310
F5BEF5F5F5F5F5F5BEF5F5DCDCDCDCDCDCDCE2E2E2E2E2E2E2E2E2E2E2E2E2E2E2E2E2E2E2E2E2E2E2E2E2E2E2E2E2E2E2E2E2E2E2E2E2E2E2E2E2E2E2E2E2E2E2E2E2E2E2E2E2E2E2E2E2E2E2E2E2E2E2E2E2E2E2F5E2F5E2E2E2E2F5F5F5E2E2E2F5E2E2E2E2E2E2E2E2E2E2F5E2E2E2E2E2E2E2E2E2E2E2E2E2E2E2E2E2
310
E2E2E2E2E2E2E2E2E2E2E2E2E2E2E2E2E2E2E2E2E2E2E2E2E2E2E2E2E2E2E2E2E2E2E2E2E2E2E2E2E2E2E2E2F5F5BEF5F5F5F5F5F5F5BEF5F5F5F5F5F5BEF5F5E2E2E2DCDCDCE2E2E2E2E2E2E2E2E2E2E2E2E2E2E2E2E2E2E2E2E2E2E2E2E2E2E2E2E2E2E2E2E2E2E2E2E2E2E2E2E2E2E2E2E2E2E2E2E2E2E2E2E2E2E2E2E2
310
E2E2E2E2E2E2E2E2E2E2E2F5E2F5F5E2E2E2F5F5F5E2E2E2F5E2E2E2E2E2E2E2E2E2E2F5E2E2E2E2E2E2E2E2E2E2E2E2E2E2E2E2E2E2E2E2E2E2E2E2E2E2E2E2E2E2E2E2E2E2E2E2E2E2E2E2E2E2E2E2E2E2E2E2E2E2E2E2E2E2E2E2E2E2E2E2E2BEBEBEBEBEBEF5F5F5F5BEF5F5F5BEBEBEBEBEBEBEDCDCDCDCDCDCE2E2E2
310
E2E2E2E2E2E2E2E2E2E2E2E2E2E2E2E2E2E2E2E2E2E2E2E2E2E2E2E2E2E2E2E2E2E2E2E2E2E2E2E2E2E2E2E2E2E2E2E2E2E2E2E2E2E2E2E2E2E2E2E2E2E2E2E2F5E2F5F5E2E2E2F5F5F5E2E2E2F5E2E2E2E2E2E2E2E2E2E2F5E2E2E2E2E2E2E2E2E2E2E2E2E2E2E2E2E2E2E2E2E2E2E2E2E2E2E2E2E2E2E2E2E2E2E2E2E2E2
310
E2E2E2E2E2E2E2E2E2E2E2E2E2E2E2E2E2E2E2E2E2E2E2F5F5BEF5E2E2E2E2E2F5BEE2E2E2E2E2F5BEF5F5E2E2E2E2E2DCE2E2E2E2E2E2E2E2E2E2E2E2E2E2E2E2E2E2E2E2E2E2E2E2E2E2E2E2E2E2E2E2E2E2E2E2E2E2E2E2E2E2E2E2E2E2E2E2E2E2E2E2E2E2E2E2E2E2E2E2E2E2E2E2E2E2E2E2F5E2F5F5E2E2E2F5F5F5
310
E2E2E2F5E2E2E2E2E2E2E2E2E2E2F5E2E2E2E2E2E2E2E2E2E2E2E2E2E2E2E2E2E2E2E2E2E2E2E2E2E2E2E2E2E2E2E2E2E2E2E2E2E2E2E2E2E2E2E2E2E2E2E2E2E2E2E2E2E2E2E2E2E2E2E2E2F5F5BEE2E2E2E2E2E2F5BEE2E2E2E2E2E2BEF5F5E2E2E2E2E2DCE2E2E2E2E2E2E2E2E2E2E2E2E2E2E2E2E2E2E2E2E2E2E2E2E2
310
E2E2E2E2E2E2E2E2E2E2E2E2E2E2E2E2E2E2E2E2E2E2E2E2E2E2E2E2E2E2E2E2E2E2E2E2E2E2E2E2E2E2E2F5E2F5F5E2E2E2F5F5F5E2E2E2F5E2E2E2E2E2E2E2E2E2E2F5E2E2E2E2E2E2E2E2E2E2E2E2E2E2E2E2E2E2E2E2E2E2E2E2E2E2E2E2E2E2E2E2E2E2E2E2E2E2E2E2E2E2E2E2E2E2E2E2E2E2E2E2E2E2E2E2E2E2E2
310
E2E2F5F5BEE2E2E2F5E2E2F5BEE2E2F5E2E2E2BEF5F5E2E2E2E2E2DCE2E2E2E2E2E2E2E2E2E2E2E2E2E2E2E2E2E2E2E2E2E2E2E2E2E2E2E2E2E2E2E2E2E2E2E2E2E2E2E2E2E2E2E2E2E2E2E2E2E2E2E2E2E2E2E2E2E2E2E2E2E2E2E2E2E2E2E2F5E2F5F5E2E2E2F5F5F5E2E2E2F5E2E2E2E2E2E2E2E2E2E2F5E2E2E2E2E2E2
310
E2E2E2E2E2E2E2E2E2E2E2E2E2E2E2E2E2E2E2E2E2E2E2E2E2E2E2E2E2E2E2E2E2E2E2E2E2E2E2E2E2E2E2E2E2E2E2E2E2E2E2E2E2E2E2F5F5F5E2E2F5F5F5BEF5BEE2F5BEF5E2E2E2F5F5E2E2E2E2E2DCE2E2E2E2E2E2E2E2E2E2E2E2E2E2E2E2E2E2E2E2E2E2E2E2E2E2E2E2E2E2E2E2E2E2E2E2E2E2E2E2E2E2E2E2E2E2
310
E2E2E2E2E2E2E2E2E2E2E2E2E2E2E2E2E2E2E2E2E2E2F5E2F5F5E2E2E2F5F5F5E2E2E2F5E2E2E2E2E2E2E2E2E2E2F5E2E2E2E2E2E2E2E2E2E2E2E2E2E2E2E2E2E2E2E2E2E2E2E2E2E2E2E2E2E2E2E2E2E2E2E2E2E2E2E2E2E2E2E2E2E2E2E2E2E2E2E2E2E2E2E2E2E2E2E2E2F5F5F5E2E2E2F5F5E2F5BEE2F5F5F5E2E2E2F5
310
F5E2E2E2E2E2DCE2E2E2E2E2E2E2E2E2E2E2E2E2E2E2E2E2E2E2E2E2E2E2E2E2E2E2E2E2E2E2E2E2E2E2E2E2E2E2E2E2E2E2E2E2E2E2E2E2E2E2E2E2E2E2E2E2E2E2E2E2E2E2E2E2E2E2E2F5E2F5F5E2E2E2F5F5F5E2E2E2F5E2E2E2E2E2E2E2E2E2E2F5E2E2E2E2E2E2E2E2E2E2E2E2E2E2E2E2E2E2E2E2E2E2E2E2E2E2E2
310
E2E2E2E2E2E2E2E2E2E2E2E2E2E2E2E2E2E2E2E2E2E2E2E2E2E2E2E2E2E2E2E2E2E2F5F5F5E2E2E2BEE2E2F5BEE2E2BEE2E2E2E2F5F5E2E2E2E2E2DCE2E2E2E2E2E2E2E2E2E2E2E2E2E2E2E2E2E2E2E2E2E2E2E2E2E2E2E2E2E2E2E2E2E2E2E2E2E2E2E2E2E2E2E2E2E2E2E2E2E2E2E2E2E2E2E2E2E2E2E2E2E2E2E2E2E2E2
310
E2F5E2F5F5E2E2E2F5F5F5E2E2E2F5E2E2E2E2E2E2E2E2E2E2F5E2E2E2E2E2E2E2E2E2E2E2E2E2E2E2E2E2E2E2E2E2E2E2E2E2E2E2E2E2E2E2E2E2E2E2E2E2E2E2E2E2E2E2E2E2E2E2E2E2E2E2E2E2E2E2E2E2E2E2E2E2F5F5F5F5F5F5F5F5F5F5BEF5F5F5F5F5F5F5F5F5E2E2E2DCDCDCE2E2E2E2E2E2E2E2E2E2E2E2E2E2
310
E2E2E2E2E2E2E2E2E2E2E2E2E2E2E2E2E2E2E2E2E2E2E2E2E2E2E2E2E2E2E2E2E2E2E2E2E2E2E2E2E2E2E2E2E2E2E2E2E2E2E2E2E2E2F5E2F5F5E2E2E2F5F5F5E2E2E2F5E2E2E2E2E2E2E2E2E2E2F5E2E2E2E2E2E2E2E2E2E2E2E2E2E2E2E2E2E2E2E2E2E2E2E2E2E2E2E2E2E2E2E2E2E2E2E2E2E2E2E2E2E2E2E2E2E2E2E2
310
E2E2E2E2E2E2E2E2E2E2E2E2BEBEBEBEBEBEBEBEBEBEBEBEBEBEBEBEBEBEBEBEBEBEE2E2DCDCDCE2E2E2E2E2E2E2E2E2E2E2E2E2E2E2E2E2E2E2E2E2E2E2E2E2E2E2E2E2E2E2E2E2E2E2E2E2E2E2E2E2E2E2E2E2E2E2E2E2E2E2E2E2E2E2E2E2E2E2E2E2E2E2E2E2E2E2E2F5E2F5F5E2E2E2F5F5F5E2E2E2F5E2E2E2E2E2E2
310
E2E2E2E2F5E2E2E2E2E2E2E2E2E2E2E2E2E2E2E2E2E2E2E2E2E2E2E2E2E2E2E2E2E2E2E2E2E2E2E2E2E2E2E2E2E2E2E2E2E2E2E2E2E2E2E2E2E2E2E2E2E2E2E2E2E2F5F5F5E2E2E2E2E2E2F5BEE2E2E2E2E2E2E2F5F5E2E2E2DCDCDCE2E2E2E2E2E2E2E2E2E2E2E2E2E2E2E2E2E2E2E2E2E2E2E2E2E2E2E2E2E2E2E2E2E2E2
310
E2E2E2E2E2E2E2E2E2E2E2E2E2E2E2E2E2E2E2E2E2E2E2E2E2E2E2E2E2E2E2E2E2F5E2F5F5E2E2E2F5F5F5E2E2E2F5E2E2E2E2E2E2E2E2E2E2F5E2E2E2E2E2E2E2E2E2E2E2E2E2E2E2E2E2E2E2E2E2E2E2E2E2E2E2E2E2E2E2E2E2E2E2E2E2E2E2E2E2E2E2E2E2E2E2E2E2E2E2E2E2E2E2E2E2E2E2E2E2F5F5F5E2E2E2F5E2
310
E2F5BEE2E2F5E2E2E2E2F5F5E2E2E2E2E2DCE2E2E2E2E2E2E2E2E2E2E2E2E2E2E2E2E2E2E2E2E2E2E2E2E2E2E2E2E2E2E2E2E2E2E2E2E2E2E2E2E2E2E2E2E2E2E2E2E2E2E2E2E2E2E2E2E2E2E2E2E2E2E2E2E2E2E2E2F5E2F5F5E2E2E2F5F5F5E2E2E2F5E2E2E2E2E2E2E2E2E2E2F5E2E2E2E2E2E2E2E2E2E2E2E2E2E2E2E2
310
E2E2E2E2E2E2E2E2E2E2E2E2E2E2E2E2E2E2E2E2E2E2E2E2E2E2E2E2E2E2E2E2E2E2E2E2E2E2E2E2E2E2E2E2E2F5F5F5E2E2F5F5F5BEF5BEE2F5BEF5E2E2E2F5F5E2E2E2E2E2DCE2E2E2E2E2E2E2E2E2E2E2E2E2E2E2E2E2E2E2E2E2E2E2E2E2E2E2E2E2E2E2E2E2E2E2E2E2E2E2E2E2E2E2E2E2E2E2E2E2E2E2E2E2E2E2E2
310
E2E2E2E2E2E2E2E2E2E2E2E2F5E2F5F5E2E2E2F5F5F5E2E2E2F5E2E2E2E2E2E2E2E2E2E2F5E2E2E2E2E2E2E2E2E2E2E2E2E2E2E2E2E2E2E2E2E2E2E2E2E2E2E2E2E2E2E2E2E2E2E2E2E2E2E2E2E2E2E2E2E2E2E2E2E2E2E2E2E2E2E2E2E2E2E2E2E2F5F5BEE2E2E2F5F5E2F5BEE2F5F5F5E2E2BEF5F5E2E2E2E2E2DCE2E2E2
310
E2E2E2E2E2E2E2E2E2E2E2E2E2E2E2E2E2E2E2E2E2E2E2E2E2E2E2E2E2E2E2E2E2E2E2E2E2E2E2E2E2E2E2E2E2E2E2E2E2E2E2E2E2E2E2E2E2E2E2E2E2E2E2E2E2F5E2F5F5E2E2E2F5F5F5E2E2E2F5E2E2E2E2E2E2E2E2E2E2F5E2E2E2E2E2E2E2E2E2E2E2E2E2E2E2E2E2E2E2E2E2E2E2E2E2E2E2E2E2E2E2E2E2E2E2E2E2
310
E2E2E2E2E2E2E2E2E2E2E2E2E2E2E2E2E2E2E2E2E2E2E2E2F5F5BEE2E2E2BEE2E2F5BEE2E2BEE2E2E2BEF5F5E2E2E2E2E2DCE2E2E2E2E2E2E2E2E2E2E2E2E2E2E2E2E2E2E2E2E2E2E2E2E2E2E2E2E2E2E2E2E2E2E2E2E2E2E2E2E2E2E2E2E2E2E2E2E2E2E2E2E2E2E2E2E2E2E2E2E2E2E2E2E2E2E2E2F5E2F5F5E2E2E2F5F5
310
F5E2E2E2F5E2E2E2E2E2E2E2E2E2E2F5E2E2E2E2E2E2E2E2E2E2E2E2E2E2E2E2E2E2E2E2E2E2E2E2E2E2E2E2E2E2E2E2E2E2E2E2E2E2E2E2E2E2E2E2E2E2E2E2E2E2E2E2E2E2E2E2E2E2E2E2E2F5F5BEF5E2E2E2E2E2F5BEE2E2E2E2E2F5BEF5F5E2E2E2E2E2DCE2E2E2E2E2E2E2E2E2E2E2E2E2E2E2E2E2E2E2E2E2E2E2E2
310
E2E2E2E2E2E2E2E2E2E2E2E2E2E2E2E2E2E2E2E2E2E2E2E2E2E2E2E2E2E2E2E2E2E2E2E2E2E2E2E2E2E2E2E2F5E2F5E2E2E2E2F5F5F5E2E2E2F5E2E2E2E2E2E2E2E2E2E2F5E2E2E2E2E2E2E2E2E2E2E2E2E2E2E2E2E2E2E2E2E2E2E2E2E2E2E2E2E2E2E2E2E2E2E2E2E2E2E2E2E2E2E2E2E2E2E2E2E2E2E2E2E2E2E2E2E2E2
310
E2E2E2BEBEBEBEBEBEE2E2E2F5BEE2E2E2BEBEBEBEBEBEBEDCDCDCDCDCDCE2E2E2E2E2E2E2E2E2E2E2E2E2E2E2E2E2E2E2E2E2E2E2E2E2E2E2E2E2E2E2E2E2E2E2E2E2E2E2E2E2E2E2E2E2E2E2E2E2E2E2E2E2E2E2E2E2E2E2E2E2E2E2E2E2E2E2F5E2F5E2E2E2E2F5F5F5E2E2E2F5E2E2E2E2E2E2E2E2E2E2F5E2E2E2E2E2
310
E2E2E2E2E2E2E2E2E2E2E2E2E2E2E2E2E2E2E2E2E2E2E2E2E2E2E2E2E2E2E2E2E2E2E2E2E2E2E2E2E2E2E2E2E2E2E2E2E2E2E2E2E2E2E2E2F5F5BEF5F5F5F5F5F5F5BEF5F5F5F5F5F5BEF5F5E2E2E2DCDCDCE2E2E2E2E2E2E2E2E2E2E2E2E2E2E2E2E2E2E2E2E2E2E2E2E2E2E2E2E2E2E2E2E2E2E2E2E2E2E2E2E2E2E2E2E2
310
E2E2E2E2E2E2E2E2E2E2E2E2E2E2E2E2E2E2E2E2E2E2E2F5E2F5E2E2E2E2F5F5F5E2E2E2F5E2E2E2E2E2E2E2E2E2E2F5E2E2E2E2E2E2E2E2E2E2E2E2E2E2E2E2E2E2E2E2E2E2E2E2E2E2E2E2E2E2E2E2E2E2E2E2E2E2E2E2E2E2E2E2E2E2E2E2E2E2E2E2E2E2E2E2E2E2E2E2E2F5F5BEF5F5F5F5F5F5F5BEF5F5F5F5F5F5BE
310
F5F5DCDCDCDCDCDCDCE2E2E2E2E2E2E2E2E2E2E2E2E2E2E2E2E2E2E2E2E2E2E2E2E2E2E2E2E2E2E2E2E2E2E2E2E2E2E2E2E2E2E2E2E2E2E2E2E2E2E2E2E2E2E2E2E2E2E2E2E2E2E2E2E2E2E2F5E2F5E2E2E2E2F5F5F5E2E2E2F5E2E2E2E2E2E2E2E2E2E2F5E2E2E2E2E2E2E2E2E2E2E2E2E2E2E2E2E2E2E2E2E2E2E2E2E2E2
310
E2E2E2E2E2E2E2E2E2E2E2E2E2E2E2E2E2E2E2E2E2E2E2E2E2E2E2E2E2E2E2E2E2E2E2E2E2BEE2E2E2E2E2E2E2BEE2E2E2E2E2E2BEE2E2E2E2E2E2E2DCE2E2E2E2E2E2E2E2E2E2E2E2E2E2E2E2E2E2E2E2E2E2E2E2E2E2E2E2E2E2E2E2E2E2E2E2E2E2E2E2E2E2E2E2E2E2E2E2E2E2E2E2E2E2E2E2E2E2E2E2E2E2E2E2E2E2
310
E2E2F5E2F5E2E2E2E2F5F5F5E2E2E2F5E2E2E2E2E2E2E2E2E2E2F5E2E2E2E2E2E2E2E2E2E2E2E2E2E2E2E2E2E2E2E2E2E2E2E2E2E2E2E2E2E2E2E2E2E2E2E2E2E2E2E2E2E2E2E2E2E2E2E2E2E2E2E2E2E2E2E2E2E2E2E2E2E2E2E2E2E2E2E2E2E2E2E2E2E2E2E2E2E2E2E2E2E2E2E2E2E2DCE2E2E2E2E2E2E2E2E2E2E2E2E2
310
E2E2E2E2E2E2E2E2E2E2E2E2E2E2E2E2E2E2E2E2E2E2E2E2E2E2E2E2E2E2E2E2E2E2E2E2E2E2E2E2E2E2E2E2E2E2E2E2E2E2E2E2E2E2E2F5E2F5E2E2E2E2F5F5F5E2E2E2F5E2E2E2E2E2E2E2E2E2E2F5E2E2E2E2E2E2E2E2E2E2E2E2E2E2E2E2E2E2E2E2E2E2E2E2E2E2E2E2E2E2E2E2E2E2E2E2E2E2E2E2E2E2E2E2E2E2E2
310
E2E2E2E2E2E2E2E2E2E2E2E2E2E2E2E2E2E2E2E2E2E2E2E2E2E2E2E2E2E2E2E2E2E2E2E2E2E2E2E2E2E2E2E2E2E2E2E2E2E2E2E2E2E2E2E2E2E2E2E2E2E2E2E2E2E2E2E2E2E2E2E2E2E2E2E2E2E2E2E2E2E2E2E2E2E2E2E2E2E2E2E2E2E2E2E2E2E2E2E2E2E2E2E2E2E2E2E2F5E2F5E2E2E2E2F5F5F5E2E2E2F5E2E2E2E2E2
310
E2E2E2E2E2F5E2E2E2E2E2E2E2E2E2E2E2E2E2E2E2E2E2E2E2E2E2E2E2E2E2E2E2E2E2E2E2E2E2E2E2E2E2E2E2E2E2E2E2E2E2E2E2E2E2E2E2E2E2E2E2E2E2E2E2E2E2E2E2E2E2E2E2E2E2E2E2E2E2E2E2E2E2E2E2E2E2E2E2E2E2E2E2E2E2E2E2E2E2E2E2E2E2E2E2E2E2E2E2E2E2E2E2E2E2E2E2E2E2E2E2E2E2E2E2E2E2
310
E2E2E2E2E2E2E2E2E2E2E2E2E2E2E2E2E2E2E2E2E2E2E2E2E2E2E2E2E2E2E2E2E2E2F5E2F5E2E2E2E2F5F5F5E2E2E2F5E2E2E2E2E2E2E2E2E2E2F5E2E2E2E2E2E2E2E2E2E2E2E2E2E2E2E2E2E2E2E2E2E2E2E2E2E2E2E2E2E2E2E2E2E2E2E2E2E2E2E2E2E2E2E2E2E2E2E2E2E2E2E2E2E2E2E2E2E2E2E2E2E2E2E2E2E2E2E2
310
E2E2E2E2E2E2E2E2E2E2E2E2E2E2E2E2E2E2E2E2E2E2E2E2E2E2E2E2E2E2E2E2E2E2E2E2E2E2E2E2E2E2E2E2E2E2E2E2E2E2E2E2E2E2E2E2E2E2E2E2E2E2E2E2E2E2E2E2E2E2E2E2E2E2E2E2E2E2E2E2E2E2E2E2E2E2E2F5E2F5E2E2E2E2F5F5F5E2E2E2F5E2E2E2E2E2E2E2E2E2E2F5E2E2E2E2E2E2E2E2E2E2E2E2E2E2E2
310
E2E2E2E2E2E2E2E2E2E2E2E2E2E2E2E2E2E2E2E2E2E2E2E2E2E2E2E2E2E2E2E2E2E2E2E2E2E2E2E2E2E2E2E2E2E2E2E2E2E2E2E2E2E2E2E2E2E2E2E2E2E2E2E2E2E2E2E2E2E2E2E2E2E2E2E2E2E2E2E2E2E2E2E2E2E2E2E2E2E2E2E2E2E2E2E2E2E2E2E2E2E2E2E2E2E2E2E2E2E2E2E2E2E2E2E2E2E2E2E2E2E2E2E2E2E2E2
310
E2E2E2E2E2E2E2E2E2E2E2E2E2F5E2F5F5E2E2E2F5F5F5E2E2E2F5E2E2E2E2E2E2E2E2E2E2F5E2E2E2E2E2E2E2E2E2E2E2E2E2E2E2E2E2E2E2E2E2E2E2E2E2E2E2E2E2E2E2E2E2E2E2E2E2E2E2E2E2E2E2E2E2E2E2E2E2E2E2E2E2E2E2E2E2E2E2E2E2E2E2E2E2E2E2E2E2E2E2E2E2E2E2E2E2E2E2E2E2E2E2E2E2E2E2E2E2
310
E2E2E2E2E2E2E2E2E2E2E2E2E2E2E2E2E2E2E2E2E2E2E2E2E2E2E2E2E2E2E2E2E2E2E2E2E2E2E2E2E2E2E2E2E2E2E2E2E2E2E2E2E2E2E2E2E2E2E2E2E2E2E2E2E2E2F5E2F5F5E2E2E2F5F5F5E2E2E2F5E2E2E2E2E2E2E2E2E2E2F5E2E2E2E2E2E2E2E2E2E2E2E2E2E2E2E2E2E2E2E2E2E2E2E2E2E2E2E2E2E2E2E2E2E2E2E2
310
E2E2E2E2E2E2E2E2E2E2E2E2E2E2E2E2E2E2E2E2E2E2E2E2E2E2E2E2E2E2E2E2E2E2E2E2E2E2E2E2E2E2E2E2E2E2E2E2E2E2E2E2E2E2E2E2E2E2E2E2E2E2E2E2E2E2E2E2E2E2E2E2E2E2E2E2E2E2E2E2E2E2E2E2E2E2E2E2E2E2E2E2E2E2E2E2E2E2E2E2E2E2E2E2E2E2E2E2E2E2E2E2E2E2E2E2E2E2E2F5E2F5F5E2E2E2F5
310
F5F5E2E2E2F5E2E2E2E2E2E2E2E2E2E2F5E2E2E2E2E2E2E2E2E2E2E2E2E2E2E2E2E2E2E2E2E2E2E2E2E2E2E2E2E2E2E2E2E2E2E2E2E2E2E2E2E2E2E2E2E2E2E2E2E2E2E2E2E2E2E2E2E2E2E2E2E2E2E2E2E2E2E2E2E2E2E2E2E2E2E2E2E2E2E2E2E2E2E2E2E2E2E2E2E2E2E2E2E2E2E2E2E2E2E2E2E2E2E2E2E2E2E2E2E2E2
310
E2E2E2E2E2E2E2E2E2E2E2E2E2E2E2E2E2E2E2E2E2E2E2E2E2E2E2E2E2E2E2E2E2E2E2E2E2E2E2E2E2E2E2E2E2F5E2F5F5E2E2E2F5F5F5E2E2E2F5E2E2E2E2E2E2E2E2E2E2F5E2E2E2E2E2E2E2E2E2E2E2E2E2E2E2E2E2E2E2E2E2E2E2E2E2E2E2E2E2E2E2E2E2E2E2E2E2E2E2E2E2E2E2E2E2E2E2E2E2E2E2E2E2E2E2E2E2
310
E2E2E2E2E2E2E2E2E2E2E2E2E2E2E2E2E2E2E2E2E2E2E2E2E2E2E2E2E2E2E2E2E2E2E2E2E2E2E2E2E2E2E2E2E2E2E2E2E2E2E2E2E2E2E2E2E2E2E2E2E2E2E2E2E2E2E2E2E2E2E2E2E2E2E2E2E2E2E2E2E2E2E2E2E2E2E2E2E2E2E2E2E2E2E2E2E2E2F5E2F5F5E2E2E2F5F5F5E2E2E2F5E2E2E2E2E2E2E2E2E2E2F5E2E2E2E2
310
E2E2E2E2E2E2E2E2E2E2E2E2E2E2E2E2E2E2E2E2E2E2E2E2E2E2E2E2E2E2E2E2E2E2E2E2E2E2E2E2E2E2E2E2E2E2E2E2E2E2E2E2E2E2E2E2E2E2E2E2E2E2E2E2E2E2E2E2E2E2E2E2E2E2E2E2E2E2E2E2E2E2E2E2E2E2E2E2E2E2E2E2E2E2E2E2E2E2E2E2E2E2E2E2E2E2E2E2E2E2E2E2E2E2E2E2E2E2E2E2E2E2E2E2E2E2E2
310
E2E2E2E2E2E2E2E2E2E2E2E2E2E2E2E2E2E2E2E2E2E2E2E2F5E2F5F5E2E2E2F5F5F5E2E2E2F5E2E2E2E2E2E2E2E2E2E2F5E2E2E2E2E2E2E2E2E2E2E2E2E2E2E2E2E2E2E2E2E2E2E2E2E2E2E2E2E2E2E2E2E2E2E2E2E2E2E2E2E2E2E2E2E2E2E2E2E2E2E2E2E2E2E2E2E2E2E2E2E2E2E2E2E2E2E2E2E2E2E2E2E2E2E2E2E2E2
310
E2E2E2E2E2E2E2E2E2E2E2E2E2E2E2E2E2E2E2E2E2E2E2E2E2E2E2E2E2E2E2E2E2E2E2E2E2E2E2E2E2E2E2E2E2E2E2E2E2E2E2E2E2E2E2E2E2E2E2E2E2E2E2E2E2E2E2E2E2E2E2E2E2E2E2E2E2F5E2F5F5E2E2E2F5F5F5E2E2E2F5E2E2E2E2E2E2E2E2E2E2F5E2E2E2E2E2E2E2E2E2E2E2DCDCDCDCDCDCDCDCDCDCDCDCDCDC
310
DCDCDCDCDCDCDCDCDCDCDCDCDCDCDCDCDCDCDCDCDCDCDCDCDCDCDCDCDCE2E2E2E2E2E2E2E2E2E2E2E2E2E2E2E2E2E2E2E2E2E2E2E2E2E2E2E2E2E2E2E2E2E2E2E2E2E2E2E2E2E2E2E2E2E2E2E2E2E2E2E2E2E2E2E2E2E2E2E2E2E2E2E2E2E2E2E2E2E2E2E2E2E2E2E2E2E2E2E2E2E2E2E2E2E2E2E2E2E2E2E2E2E2E2E2E2E2
310
E2E2E2F5E2F5F5E2E2E2F5F5F5E2E2E2F5E2E2E2E2E2E2E2E2E2E2F5E2E2E2E2E2E2E2E2E2E2E2E2DCDCDCDCDCDCE2DCDCDCDCDCDCDCDCDCDCDCDCDCDCDCDCDCDCE2E2DCDCE2E2DCDCDCDCDCDCDCDCDCDCDCE2E2E2E2E2E2E2E2E2E2E2E2E2E2E2E2E2E2DCDCE2E2E2E2E2E2E2E2E2E2E2E2DCDCE2E2E2E2E2E2E2E2E2E2E2
310
E2E2E2E2E2E2E2E2E2E2E2E2E2E2E2E2E2E2E2E2E2E2E2E2E2E2E2E2E2E2E2E2E2E2E2E2E2E2E2E2E2E2E2E2E2E2E2E2E2E2E2E2E2E2E2E2F5E2F5F5E2E2E2F5F5F5E2E2E2F5E2E2E2E2E2E2E2E2E2E2F5E2E2E2E2E2E2E2E2E2E2E2E2DCDCE2DCDCDCE2DCDCDCDCDCDCDCDCDCDCDCDCDCDCDCDCDCDCDCDCDCDCDCDCDCDCDC
310
DCDCDCDCDCDCDCE2E2E2E2E2E2E2E2E2E2E2E2E2E2E2E2E2E2E2DCDCDCDCDCDCDCDCDCDCDCDCDCDCDCDCE2E2E2E2E2E2E2E2E2E2E2E2E2E2E2E2E2E2E2E2E2E2E2E2E2E2E2E2E2E2E2E2E2E2E2E2E2E2E2E2E2E2E2E2E2E2E2E2E2E2E2E2E2E2E2E2E2E2E2E2E2E2E2E2E2E2E2F5E2F5F5E2E2E2F5F5F5E2E2E2F5E2E2E2E2
310
E2E2E2E2E2E2F5E2E2E2E2E2E2E2E2E2E2E2E2E2E2E2E2E2E2E2E2E2E2E2E2E2E2E2E2E2E2E2E2E2E2E2E2E2E2E2E2E2E2E2E2E2E2E2E2E2E2E2E2E2E2E2E2E2E2E2E2E2E2E2E2E2E2E2E2E2E2E2E2DCE2E2E2E2E2DCDCDCDCE2E2E2E2E2DCE2E2E2E2E2E2E2E2E2E2E2E2E2E2E2E2E2E2E2E2E2E2E2E2E2E2E2E2E2E2E2E2
310
E2E2E2E2E2E2E2E2E2E2E2E2E2E2E2E2E2E2E2E2E2E2E2E2E2E2E2E2E2E2E2E2E2E2E2F5E2F5F5E2E2E2F5F5F5E2E2E2F5E2E2E2E2E2E2E2E2E2E2F5E2E2E2E2E2E2E2E2E2E2E2E2E2E2E2E2E2E2E2E2E2E2E2E2E2E2E2E2E2E2E2E2E2E2E2E2E2E2E2E2E2E2E2E2E2E2E2E2E2E2E2E2E2E2E2E2E2E2E2E2E2E2E2E2E2E2E2
310
E2E2E2E2E2DCE2E2E2E2E2E2E2E2E2E2E2E2E2E2DCE2E2E2E2E2E2E2E2E2E2E2E2E2E2E2E2E2E2E2E2E2E2E2E2E2E2E2E2E2E2E2E2E2E2E2E2E2E2E2E2E2E2E2E2E2E2E2E2E2E2E2E2E2E2E2E2E2E2E2E2E2E2E2E2E2E2E2F5E2F5F5E2E2E2F5F5F5E2E2E2F5E2E2E2E2E2E2E2E2E2E2F5E2E2E2E2E2E2E2E2E2E2E2E2E2E2
310
E2E2E2E2E2E2E2E2E2DCDCDCDCDCDCDCDCDCDCDCDCDCDCDCDCDCDCDCDCE2E2E2E2E2E2E2E2E2E2E2E2E2E2E2E2E2E2E2E2E2E2E2E2E2E2E2DCDCDCDCDCDCDCDCDCDCDCDCDCDCDCDCDCDCDCDCE2E2E2E2E2E2E2E2E2E2E2E2E2E2E2E2E2E2E2E2E2E2E2E2DCDCDCDCDCDCDCDCDCDCDCDCDCDCDCDCDCDCDCDCDCE2E2E2E2E2E2
310
E2E2E2E2E2E2E2E2E2E2E2E2E2E2F5E2F5F5E2E2E2F5F5F5E2E2E2F5E2E2E2E2E2E2E2E2E2E2F5E2E2E2E2E2E2E2E2E2E2E2E2E2E2E2E2E2E2E2E2E2E2E2DCE2E2E2E2E2E2E2DCDCDCDCE2E2E2E2E2E2E2DCE2E2E2E2E2DCDCDCDCDCDCDCDCDCDCDCE2E2E2E2E2E2E2E2E2E2E2E2E2DCDCE2E2E2E2DCDCDCDCE2E2E2E2DCDC
310
E2E2E2E2E2E2E2E2E2E2E2E2E2E2E2E2E2E2E2E2E2E2E2E2E2E2DCE2E2E2E2E2E2E2E2DCDCDCE2E2E2E2E2E2E2E2DCE2E2E2E2DCDCDCDCDCDCDCE2E2E2E2E2E2E2E2E2F5E2F5F5E2E2E2F5F5F5E2E2E2F5E2E2E2E2E2E2E2E2E2E2F5E2E2E2E2E2E2E2E2E2E2E2E2E2E2E2E2E2E2E2E2E2E2E2DCE2E2E2E2E2E2E2DCDCDCDC
310
E2E2E2E2E2E2E2DCE2E2E2E2E2DCDCDCDCDCDCDCDCDCDCDCE2E2E2E2E2E2E2E2E2E2E2E2E2DCDCE2E2E2E2E2DCDCE2E2E2E2E2DCDCE2E2E2E2E2E2E2E2E2E2E2E2E2E2E2E2E2E2E2E2E2E2E2E2E2E2DCE2E2E2E2E2E2E2E2DCDCDCE2E2E2E2E2E2E2E2DCE2E2E2E2DCDCDCDCDCDCDCE2E2E2E2E2E2E2E2E2F5E2F5F5E2E2E2
310
F5F5F5E2E2E2F5E2E2E2E2E2E2E2E2E2E2F5E2E2E2E2E2E2E2E2E2E2E2E2E2E2E2E2E2E2E2E2E2E2E2DCE2E2E2E2E2DCDCDCDCDCDCDCDCE2E2E2E2E2DCE2E2E2E2DCDCDCDCDCDCDCDCDCDCDCDCE2E2E2E2E2E2E2E2E2E2E2E2DCDCDCDCDCDCDCDCDCDCDCDCDCDCDCDCDCE2E2E2E2E2E2E2E2E2E2E2E2E2DCDCDCDCDCDCDCDC
310
DCE2E2E2E2DCDCDCDCDCDCDCDCDCDCDCDCDCDCDCDCDCDCDCDCDCE2E2E2E2DCDCDCDCDCDCDCDCDCDCDCDCDCDCE2E2F5E2F5E2E2E2E2F5F5F5E2E2E2F5E2E2E2E2E2E2E2E2E2E2F5E2E2E2E2E2E2E2E2E2E2E2E2E2E2E2E2E2E2E2E2E2E2E2DCE2E2E2E2E2DCE2E2DCDCE2E2DCE2E2E2E2E2DCE2E2E2DCE2DCDCDCDCDCDCDCE2
310
E2E2E2E2E2E2E2E2E2E2E2E2E2E2E2E2DCDCDCDCE2E2E2DCDCDCDCE2E2E2DCDCE2E2E2E2E2E2E2E2E2E2E2E2E2DCDCDCDCDCDCDCDCE2DCE2E2E2DCE2DCDCE2DCE2E2E2DCDCDCE2E2E2DCE2DCDCE2DCE2E2E2DCE2E2DCDCDCDCDCDCDCDCDCDCDCDCE2E2F5E2F5E2E2E2E2F5F5F5E2E2E2F5E2E2E2E2E2E2E2E2E2E2F5E2E2E2
310
E2E2E2E2E2E2E2E2E2E2E2E2E2E2E2E2E2E2E2E2DCE2E2E2E2E2DCE2E2DCE2E2E2DCE2E2E2E2E2DCE2E2DCE2E2DCE2DCDCDCDCDCE2E2E2E2E2E2E2E2E2E2E2E2E2E2E2E2E2DCDCDCDCE2C3E2DCDCDCDCE2E2E2DCDCE2E2E2E2E2E2E2E2E2E2E2E2E2E2DCE2DCDCDCDCDCE2E2DCE2E2DCE2DCDCE2DCE2E2E2DCDCDCE2E2E2DC
310
E2DCDCE2DCE2E2DCE2E2E2DCE2DCDCDCDCDCDCDCDCDCDCE2E2F5E2F5E2E2E2E2F5F5F5E2E2E2F5E2E2E2E2E2E2E2E2E2E2F5E2E2E2E2E2E2E2E2E2E2E2E2E2E2E2E2E2E2E2E2E2E2E2DCE2E2E2E2E2DCE2E2E2E2E2E2DCE2E2E2E2E2DCE2DCE2E2E2E2E2E2E2E2E2E2E2E2E2E2E2E2E2E2E2E2E2E2E2E2E2E2E2DCDCE2DCE2
310
DCDCDCDCDCE2E2E2E2DCDCE2E2E2E2E2E2E2E2E2E2E2E2E2E2E2E2E2E2E2E2E2E2E2DCDCE2DCE2E2E2E2DCE2E2E2E2E2E2E2E2E2DCE2E2E2E2DCE2DCE2E2E2E2E2E2E2E2E2E2E2E2E2E2E2E2E2E2F5E2F5E2E2E2E2F5F5F5E2E2E2F5E2E2E2E2E2E2E2E2E2E2F5E2E2E2E2E2E2E2E2E2E2E2E2E2E2E2E2E2E2E2E2E2E2E2DC
310
E2E2E2E2E2DCE2E2E2E2E2E2DCE2E2E2E2E2DCDCE2E2E2E2E2E2E2E2E2E2E2E2E2E2E2E2E2E2E2E2E2E2E2E2E2E2E2E2DCDCE2DCE2C3E2E2DCE2E2E2E2E2DCDCE2E2E2E2E2E2E2E2E2E2E2E2E2E2E2E2E2E2E2E2E2E2DCDCE2DCDCE2E2E2E2DCE2E2E2E2BEE2E2E2E2DCE2E2E2E2DCDCE2E2E2E2E2E2E2E2E2E2E2E2E2E2E2
310
E2E2E2E2F5E2F5E2E2E2E2F5F5F5E2E2E2F5E2E2E2E2E2E2E2E2E2E2F5E2E2E2E2E2E2E2E2E2E2E2E2E2E2E2E2E2E2E2E2E2E2E2DCE2BEE2E2E2DCE2E2BEE2E2E2DCE2E2E2BEE2DCE2E2E2E2E2E2E2E2E2E2E2E2E2E2E2E2E2E2E2E2E2E2E2E2E2E2E2E2E2DCDCE2DCE2C3E2E2E2E2E2E2E2E2F5F5E2E2E2E2E2E2E2E2E2E2
310
E2E2E2E2E2E2E2E2E2E2E2E2DCDCDCDCDCF5F5BEF5DCF5F5F5F5BEF5F5F5F5DCF5BEF5F5DCDCDCDCDCDCDCDCDCDCE2E2E2E2E2E2E2E2E2E2E2F5E2F5E2E2E2E2F5F5F5E2E2E2F5E2E2E2E2E2E2E2E2E2E2F5E2E2E2E2E2E2E2E2E2E2E2E2E2E2E2E2E2E2E2E2E2E2E2F5F5BEF5F5F5DCF5F5BEF5F5F5DCF5F5F5BEDCF5DCDC
310
DCDCDCDCDCDCDCE2E2E2E2E2E2E2E2E2E2E2E2E2E2E2E2E2E2E2E2F5F5E2DCE2C3E2E2E2E2E2E2E2E2F5F5E2E2E2E2E2E2E2E2E2E2E2E2E2E2E2E2E2E2E2E2E2DCDCDCE2E2F5DCE2BEE2DCE2E2E2E2BEE2E2E2E2DCE2BEE2DCF5E2E2E2E2DCE2E2DCE2E2E2E2E2E2E2E2E2E2E2E2F5E2F5E2E2E2E2F5F5F5E2E2E2F5E2E2E2
310
E2E2E2E2E2E2E2F5E2E2E2E2E2E2E2E2E2E2E2E2E2E2E2E2E2E2E2E2E2E2E2F52DBE2D2D2D2D2D2D2D2D2D2D2D2D2D2DBE2DF5E2E2E2E2E2E2E2DCE2E2E2E2E2E2E2E2E2E2E2E2E2E2E2E2E2E2E2E2E2F52D2D2DF5F5F5F5F5F5F5F5F5F52D2DE2E2E2E2E2E2E2E2E2E2E2E2E2E2E2E2E2E2E2E2E2DCDCDCE2E2F5E2DCBEF5
310
DCE2E2E2E2BEE2E2E2E2DCF5BEF5E2F5E2E2DCE2DCE2E2DCE2E2E2E2E2E2E2E2E2E2E2E2F5E2F5E2E2E2E2F5F5F5E2E2E2F5E2E2E2E2E2E2E2E2E2E2F5E2E2E2E2E2E2E2E2E2E2E2E2E2E2E2E2E2E2E2E2E2E2BEBEBEBEBEBEBEDCE2E2BE2DE2E2DCBEBEBEBEBEBEBEE2E2E2E2E2E2DCE2E2E2E2E2E2E2E2E2E2E2E2E2E2E2
310
E2E2E2E2E2E2BEBEBEBEBEBEBEBEBEBEBEBEBEBEBEBEE2E2E2E2E2E2E2E2E2E2E2E2E2E2E2E2E2E2E2E2E2E2DCDCDCBEBEBEBEBEBEBEBEE2E2E2BEE2E2E2BEBEBEBEBEBEBEE2E2DCDCDCE2E2DCE2E2E2E2E2E2E2E2E2E2E2E2F5E2F5F5E2E2E2F5F5F5E2E2E2F5E2E2E2E2E2E2E2E2E2E2F5E2E2E2E2E2E2E2E2E2E2E2E2E2
310
E2E2E2E2E2E2E2E2E2E2F52DBE2DE2E2DCE2E2BE2DE2E2DCE2DC2DBE2DF5E2E2E2E2E2E2E2DCE2E2E2E2E2E2E2E2E2E2E2E2E2E2E2E2E2E2E2E2E2F5F5F5F5F5F5F5F5F5F5F5F5F5F52D2DE2E2E2E2E2E2E2E2E2E2E2E2E2E2E2E2E2E2E2E2E2E2DCDCE2E2F5E2F5BEF5BEE2E2E2E2BEE2E2E2E2BEF5BEF5E2F5E2E2DCDCDC
310
E2E2DCE2E2E2E2E2E2E2E2E2E2E2E2F5E2F5F5E2E2E2F5F5F5E2E2E2F5E2E2E2E2E2E2E2E2E2E2F5E2E2E2E2E2E2E2E2E2E2E2E2E2E2E2E2E2E2E2E2E2E2E2F52DBEE2E2E2BEE2E2BE2DE2E2BEDCE2E2BE2DF5E2E2E2E2E2E2E2DCE2E2E2E2E2E2E2E2E2E2E2E2E2E2E2E2E2E2E2E2E2F5F5E2F5E2C3E2E2E2E2E2E2E2BEBE
310
BEE2E2E2E2E2E2E2E2E2E2E2E2E2E2E2E2E2E2E2E2E2E2E2DCE2E2F5E2E2BEF5F5F5BEE2E2BEE2E2BEF5DCF5BEDCDCDCDCDCDCDCDCE2E2DCE2E2E2E2E2E2E2E2E2E2E2E2F5E2F5F5E2E2E2F5F5F5E2E2E2F5E2E2E2E2E2E2E2E2E2E2F5E2E2E2E2E2E2E2E2E2E2E2E2E2E2E2E2E2E2E2E2E2E2E2F52DBEE2E2F5BEF5E2BE2D
310
E2F5BEDCE2E2BE2DF5E2E2E2E2E2E2E2DCE2E2E2E2E2E2E2E2E2E2E2E2E2E2E2E2E2E2E2E2E2F5F5E2F5E2C3E2E2E2E2E2E2E2E2F5F5E2E2E2E2E2E2E2E2E2E2E2E2E2E2E2E2E2E2E2E2E2E2E2DCE2E2F5E2E2BEF5F5F5E2E2E2BEE2E2E2F5F5F5BEE2E2F5E2E2E2E2DCE2E2DCE2E2E2E2E2E2E2E2E2E2E2E2F5E2F5F5E2E2
310
E2F5F5F5E2E2E2F5E2E2E2E2E2E2E2E2E2E2F5E2E2E2E2E2E2E2E2E2E2E2E2E2E2E2E2E2E2E2E2E2E2E2F52DE2E2E2F5BEF5E2BE2DE2F5BEF5DCDCDC2DF5DCDCDCDCDCE2E2DCE2E2E2E2E2E2E2E2E2E2E2E2E2E2E2E2E2E2E2E2E2BEBEBEF5E2C3E2E2E2E2E2E2E2E2F5F5E2E2E2E2E2E2E2E2E2E2E2E2E2E2E2E2E2E2E2E2
310
E2E2E2DCE2E2F5E2E2BEE2BEE2E2E2E2BEE2E2E2E2BEE2BEE2E2F5E2E2E2E2DCE2E2DCE2E2E2E2E2E2E2E2E2E2E2E2F5E2F5F5E2E2E2F5F5F5E2E2E2F5E2E2E2E2E2E2E2E2E2E2F5E2E2E2E2E2E2E2E2E2E2E2E2E2E2E2E2E2E2E2E2E2E2E2F52DE2E2E2E2BEE2E2BE2DE2E2BEE2E2E2E22DF5E2E2E2E2DCE2E2DCE2E2E2E2
310
E2E2E2E2E2E2E2E2E2E2E2E2E2E2E2E2E2F5F5E2F5E2C3E2E2E2E2E2E2E2E2F5F5E2E2E2E2E2E2E2E2E2E2E2E2E2E2E2E2E2E2E2E2E2E2E2DCE2E2F5E2E2E2E2E2E2E2E2E2BEE2E2E2E2E2E2E2E2E2F5E2E2E2E2DCE2E2DCE2E2E2E2E2E2E2E2E2E2E2E2F5E2F5F5E2E2E2F5F5F5E2E2E2F5E2E2E2E2E2E2E2E2E2E2F5E2E2
310
E2E2E2E2E2E2E2E2E2E2E2E2E2E2E2E2E2E2E2E2E2F52DE2E2E2E2E2E2E2BE2DE2E2E2E2E2E2E22DF5E2E2E2E2DCDCDCDCE2E2E2E2E2E2E2E2E2E2E2E2E2E2E2E2E2E2E2E2E2F5F5E2F5E2C3E2E2E2E2E2E2E2E2F5F5E2E2E2E2E2E2E2E2E2E2E2E2E2E2E2E2E2E2E2E2E2DCDCDCE2E2F5E2E2E2E2E2E2E2E2E2BEE2E2E2E2
310
E2E2E2E2E2F5E2E2DCDCDCE2DCDCE2E2E2E2E2E2E2E2E2E2E2E2F5E2F5F5E2E2E2F5F5F5E2E2E2F5E2E2E2E2E2E2E2E2E2E2F5E2E2E2E2E2E2E2E2E2E2E2E2E2E2E2E2E2E2E2E2E2E2BEBEBEBEBEBEBEBEBEBEBEBEBEBEBEBEBEBEBEBEBEBEE2DCDCDCDCDCDCE2E2E2E2E2E2E2E2E2E2E2E2E2E2E2E2E2E2E2E2BEBE2D2D2D
310
BEBEBEBEBEBEBEBEBEBEBEBEBEE2E2E2E2E2E2E2E2E2E2E2E2E2E2E2E2E2E2E2E2DCDCDCBEBEF5BEBEBEBEBEBEBEBEBEBEBEBEBEBEBEBEBEBEBEF5BEBEDCDCDCE2DCDCE2E2E2E2E2E2E2E2E2E2E2E2F5E2F5F5E2E2E2F5F5F5E2E2E2F5E2E2E2E2E2E2E2E2E2E2F5E2E2E2E2E2E2E2E2E2E2E2E2E2E2E2E2E2E2E2E2E2E2E2
310
F52D2D2D2D2D2D2D2D2D2D2D2D2D2D2D2D2D2DF5E2E2E2DCDCDCDCDCE2E2E2E2E2E2E2E2E2E2E2E2E2E2E2E2E2E2E2E2E2F52D2D2DE2C3E2E2E2E2E2E2E2E2F5F5E2E2E2E2E2E2E2E2E2E2E2E2E2E2E2E2E2E2E2E2E2DCDCDCE2E2F5E2E2E2E2E2E2E2E2E2BEE2E2E2E2E2E2E2E2E2F5E2E2DCDCDCE2DCDCE2E2E2E2E2E2E2
310
E2E2E2E2E2F5E2F5F5E2E2E2F5F5F5E2E2E2F5E2E2E2E2E2E2E2E2E2E2F5E2E2E2E2E2E2E2E2E2E2E2E2E2E2E2E2E2E2E2E2E2E2E2F52DE2E2E2E2BEE2E22D2DE2E2BEE2E2E2E22DF5E2E2E2E2DCE2E2DCE2E2E2E2E2E2E2E2E2E2E2E2E2E2E2E2E2E2E2E2E2F5F5E2F5E2C3E2E2E2E2E2E2E2E2F5F5E2E2E2E2E2E2E2E2E2
310
E2E2E2E2E2E2E2E2E2E2E2E2E2E2DCE2E2F5E2E2E2E2E2E2E2E2E2BEE2E2E2E2E2E2E2E2E2F5E2E2E2E2DCE2E2DCE2E2E2E2E2E2E2E2E2E2E2E2F5E2F5F5E2E2E2F5F5F5E2E2E2F5E2E2E2E2E2E2E2E2E2E2F5E2E2E2E2E2E2E2E2E2E2E2E2E2E2E2E2E2E2E2E2E2E2E2F52DE2E2E2F5BEF5E22D2DE2F5BEF5E2E2E22DF5E2
310
E2E2E2DCE2E2DCE2E2E2E2E2E2E2E2E2E2E2E2E2E2E2E2E2E2E2E2E2F5F5E2F5E2C3E2E2E2E2E2E2E2E2F5F5E2E2E2E2E2E2E2E2E2E2E2E2E2E2E2E2E2E2E2E2E2E2E2DCE2E2F5E2E2E2E2BEE2E2E2E2BEE2E2E2E2BEE2E2E2E2F5E2E2E2E2DCE2E2DCE2E2E2E2E2E2E2E2E2E2E2E2F5E2F5F5E2E2E2F5F5F5E2E2E2F5E2E2
310
E2E2E2E2E2E2E2E2F5E2E2E2E2E2E2E2E2E2E2E2E2E2E2E2E2E2E2E2E2E2E2E2F52DE2E2E2BEBEBEE22D2DE2F5BEF5DCDCDC2DF5DCDCDCDCDCE2E2DCE2E2E2E2E2E2E2E2E2E2E2E2E2E2E2E2E2E2E2E2E2BEBEBEF5E2C3E2E2E2E2E2E2E2E2F5F5E2E2E2E2E2E2E2E2E2E2E2E2E2E2E2E2E2E2E2E2E2E2E2DCE2E2F5E2E2E2
310
E2F5E2E2E2E2BEE2E2E2F5F5E2E2E2E2F5E2E2E2E2DCE2E2DCE2E2E2E2E2E2E2E2E2E2E2E2F5E2F5F5E2E2E2F5F5F5E2E2E2F5E2E2E2E2E2E2E2E2E2E2F5E2E2E2E2E2E2E2E2E2E2E2E2E2E2E2E2E2E2E2E2E2E2E2F52DBEE2E2E2BEE2E22D2DE2E2BEE2E2E2BE2DF5E2E2E2E2E2E2E2DCE2E2E2E2E2E2E2E2E2E2E2E2E2E2
310
E2E2E2E2E2E2E2F5F5E2F5E2C3E2E2E2E2E2E2E2BEBEBEE2E2E2E2E2E2E2E2E2E2E2E2E2E2E2E2E2E2E2E2E2E2E2DCE2E2F5E2E2BEF5BEF5BEE2E2BEE2E2BEF5BEF5BEDCDCDCDCDCDCDCDCE2E2DCE2E2E2E2E2E2E2E2E2E2E2E2F5E2F5F5E2E2E2F5F5F5E2E2E2F5E2E2E2E2E2E2E2E2E2E2F5E2E2E2E2E2E2E2E2E2E2E2E2
310
E2E2E2E2E2E2E2E2E2E2E2F52DBE2DE2E2E2E2E22D2DE2E2E2E2E22DBE2DF5E2E2E2E2E2E2E2DCE2E2E2E2E2E2E2E2E2E2E2E2E2E2E2E2E2E2E2E2E2F5F5F5F5F5F5F5F5F5F5F5F5F5F52D2DE2E2E2E2E2E2E2E2E2E2E2E2E2E2E2E2E2E2E2E2E2E2E2DCE2E2F5E2E2BEF5F5F5E2E2E2BEE2E2E2F5F5F5BEE2E2F5E2E2E2E2
310
DCE2E2DCE2E2E2E2E2E2E2E2E2E2E2E2F5E2F5F5E2E2E2F5F5F5E2E2E2F5E2E2E2E2E2E2E2E2E2E2F5E2E2E2E2E2E2E2E2E2E2E2E2E2E2E2E2E2E2E2E2E2E2E2F52DBE2D2DE2E2E2E22D2DE2E2E2E22D2DBE2DF5E2E2E2E2E2E2E2DCE2E2E2E2E2E2E2E2E2E2E2E2E2E2E2E2E2E2E2E2E2F5F5E2E2E2C3E2E2E2DCDCDCE2E2
310
F5F5E2E2E2E2E2E2E2E2E2E2E2E2E2E2E2E2E2E2E2E2E2E2DCDCE2E2F5E2F5BEF5BEE2E2E2E2BEE2E2E2E2BEF5BEF5E2F5E2E2DCDCDCE2E2DCE2E2E2E2E2E2E2E2E2E2E2E2F5E2F5F5E2E2E2F5F5F5E2E2E2F5E2E2E2E2E2E2E2E2E2E2F5E2E2E2E2E2E2E2E2E2E2E2E2E2E2E2E2E2E2E2E2E2E2BEBEBEBEBEBEBE2D2D2D2D
310
2D2D2D2DBEBEBEBEBEBEBEE2E2E2E2E2E2DCE2E2E2E2E2E2E2E2E2E2E2E2E2E2E2E2E2E2E2E2E2BE2D2D2DBEBEBEBEBEBEBEBEBEBEBEBEE2E2E2E2E2E2E2E2E2E2E2E2E2E2E2E2E2E2E2E2E2DCDCDCDCBEBEBEBEBEBEBEBEE2E2E2BEE2E2E2BEBEBEBEBEBEBEE2E2DCDCDCE2E2DCE2E2E2E2E2E2E2E2E2E2E2E2F5E2F5E2E2
310
E2E2F5F5F5E2E2E2F5E2E2E2E2E2E2E2E2E2E2F5E2E2E2E2E2E2E2E2E2E2E2E2E2E2E2E2E2E2E2E2E2E2E2F52DBE2D2D2D2D2D2D2D2D2D2D2D2D2D2DBE2DF5E2E2E2E2E2E2E2DCE2E2E2E2E2E2E2E2E2E2E2E2E2E2E2E2E2E2E2E2E2F5F5F52DF5F5F5F5F5F5F5F5F5F52D2DE2E2E2E2E2E2E2E2E2E2E2E2E2E2E2E2E2E2E2
310
E2E2DCDCDCE2E2F5E2F5BEF5E2E2E2E2E2BEE2E2E2E2E2F5BEF5E2F5E2E2E2E2DCE2E2DCE2E2E2E2E2E2E2E2E2E2E2E2F5E2F5E2E2E2E2F5F5F5E2E2E2F5E2E2E2E2E2E2E2E2E2E2F5E2E2E2E2E2E2E2E2E2E2E2E2E2E2E2E2E2E2E2E2E2E2E2F5F5BEF5F5F5F5F5F5BEF5F5F5F5F5F5F5BEF5F5DCDCDCDCDCDCDCDCDCE2E2
310
E2E2E2E2E2E2E2E2E2E2E2E2E2E2E2E2E2E2F5F5E2E2E2C3E2E2E2E2E2E2E2E2F5F5E2E2E2E2E2E2E2E2E2E2E2E2E2E2E2E2E2E2E2E2E2DCDCDCDCDCDCF5F5BEF5F5F5F5F5F5BEF5F5F5F5F5F5BEF5F5DCDCDCDCDCDCDCDCDCDCE2E2E2E2E2E2E2E2E2E2E2F5E2F5E2E2E2E2F5F5F5E2E2E2F5E2E2E2E2E2E2E2E2E2E2F5E2
310
E2E2E2E2E2E2E2E2E2E2E2E2E2E2E2E2E2E2E2E2E2E2E2E2E2E2E2E2E2E2E2BEE2E2E2E2E2E2E2E2E2E2E2E2E2E2E2E2E2E2E2E2E2E2E2E2E2E2E2E2E2E2E2E2E2E2E2E2E2E2E2E2E2E2E2E2C3E2E2E2E2E2E2E2E2E2E2E2E2E2E2E2E2E2E2E2E2E2E2E2E2E2E2E2E2E2E2E2E2DCDCE2E2DCE2E2BEE2E2E2E2E2E2BEE2E2E2
310
E2E2E2BEE2E2DCE2E2E2E2E2E2E2E2E2E2E2E2E2E2E2E2E2E2E2E2F5E2F5E2E2E2E2F5F5F5E2E2E2F5E2E2E2E2E2E2E2E2E2E2F5E2E2E2E2E2E2E2E2E2E2E2E2E2E2E2E2E2E2E2E2E2E2E2E2E2E2E2E2E2E2E2E2E2E2E2E2E2E2E2E2E2E2E2E2E2E2E2E2E2E2E2E2E2E2E2E2E2E2E2E2E2E2E2E2E2E2E2E2E2E2E2E2E2E2E2
310
E2E2DCDCDCDCDCE2E2E2E2E2E2E2E2E2E2E2E2E2E2E2E2E2E2E2E2E2E2E2E2E2E2E2E2E2DCE2E2DCE2E2DCE2E2E2E2E2E2BEE2E2E2E2E2E2DCE2E2DCE2E2E2E2E2E2E2E2E2E2E2E2E2E2E2E2E2E2E2E2F5E2F5E2E2E2E2F5F5F5E2E2E2F5E2E2E2E2E2E2E2E2E2E2F5E2E2E2E2E2E2E2E2E2E2E2E2E2E2E2E2E2E2E2E2E2E2
310
E2E2E2E2E2E2E2E2E2E2E2E2E2E2E2E2E2E2E2E2E2E2E2E2E2E2E2E2E2E2E2E2E2E2E2E2E2E2E2E2E2E2E2E2E2E2E2E2E2E2E2E2E2E2E2C3DCE2DCE2E2E2E2E2E2E2E2E2E2E2E2E2E2E2E2E2E2E2E2E2E2E2E2E2E2E2E2E2E2E2E2DCDCE2E2DCDCE2E2E2E2E2E2E2E2E2E2E2DCDCE2E2DCDCE2E2E2E2E2E2E2E2E2E2E2E2E2
310
E2E2E2E2E2E2F5E2F5E2E2E2E2F5F5F5E2E2E2F5E2E2E2E2E2E2E2E2E2E2F5E2E2E2E2E2E2E2E2E2E2E2E2E2E2E2E2E2E2E2E2E2E2E2E2E2E2E2E2E2E2E2E2E2E2E2E2E2E2E2E2E2E2E2E2E2E2E2E2E2E2E2E2E2E2E2E2E2E2E2E2E2E2E2E2E2E2E2E2E2E2E2E2E2E2E2E2E2E2E2E2E2E2E2E2E2E2E2E2E2E2E2E2E2E2E2E2
310
E2E2E2E2E2E2E2E2E2E2E2E2E2E2E2E2DCDCDCDCDCDCDCDCDCDCDCDCDCDCDCDCDCDCDCDCDCDCDCDCDCE2E2E2E2E2E2E2E2E2E2E2E2E2E2E2E2E2E2F5E2F5E2E2E2E2F5F5F5E2E2E2F5E2E2E2E2E2E2E2E2E2E2F5E2E2E2E2E2E2E2E2E2E2E2E2E2E2E2E2E2E2E2E2E2E2E2E2E2E2E2E2E2E2E2E2E2E2E2E2E2E2E2E2E2E2E2
310
E2E2E2E2E2E2E2E2E2E2E2E2E2E2E2E2E2E2E2E2E2E2E2E2E2E2E2E2E2E2E2E2E2E2E2E2E2E2E2E2E2E2E2E2E2E2E2E2E2E2E2E2E2E2E2E2E2E2E2E2E2E2E2E2E2E2E2E2E2E2E2E2DCDCE2E2E2E2E2E2DCDCDCE2E2E2E2E2E2DCDCE2E2E2E2E2E2E2E2E2E2E2E2E2E2E2E2E2E2E2E2E2F5E2F5E2E2E2E2F5F5F5E2E2E2F5E2
310
E2E2E2E2E2E2E2E2E2F5E2E2E2E2E2E2E2E2E2E2E2E2E2E2E2E2E2E2E2E2E2E2E2E2E2E2E2E2E2E2E2E2E2E2E2E2E2E2E2E2E2E2E2E2E2E2E2E2E2E2E2E2E2E2E2E2E2E2E2E2E2E2E2E2E2E2E2E2E2E2E2E2E2E2E2E2E2E2E2E2E2E2E2E2E2E2E2E2E2E2E2E2E2E2E2E2E2E2E2E2E2E2E2E2E2E2E2E2E2E2E2E2E2E2E2E2E2
310
E2E2E2E2E2E2E2E2E2E2E2E2E2E2E2E2E2E2E2E2E2E2E2E2E2E2E2E2E2E2E2E2E2E2E2E2E2E2F5E2F5E2E2E2E2F5F5F5E2E2E2F5E2E2E2E2E2E2E2E2E2E2F5E2E2E2E2E2E2E2E2E2E2E2E2E2E2E2E2E2E2E2E2E2E2E2E2E2E2E2E2E2E2E2E2E2E2E2E2E2E2E2E2E2E2E2E2E2E2E2E2E2E2E2E2E2E2E2E2E2E2E2E2E2E2E2E2
310
E2E2E2E2E2E2E2E2E2E2E2E2E2E2E2E2E2E2E2E2E2E2E2E2E2E2E2E2E2E2E2E2E2E2E2E2E2E2E2E2E2E2E2E2E2E2E2E2E2E2E2E2E2E2E2E2E2E2E2E2E2E2E2E2E2E2E2E2E2E2E2E2E2E2E2E2E2E2E2E2E2E2E2E2E2E2E2E2E2E2E2F5E2F5F5E2E2E2F5F5F5E2E2E2F5E2E2E2E2E2E2E2E2E2E2F5E2E2E2E2E2E2E2E2E2E2E2
310
E2E2E2E2E2E2E2E2E2E2E2E2E2E2E2E2E2E2E2E2E2E2E2E2E2E2E2E2E2E2E2E2E2E2E2E2E2E2E2E2E2E2E2E2E2E2E2E2E2E2E2E2E2E2E2E2E2E2E2E2E2E2E2E2E2E2E2E2E2E2E2E2E2E2E2E2E2E2E2E2E2E2E2E2E2E2E2E2E2E2E2E2E2E2E2E2E2E2E2E2E2E2E2E2E2E2E2E2E2E2E2E2E2E2E2E2E2E2E2E2E2E2E2E2E2E2E2
310
E2E2E2E2E2E2E2E2E2E2E2E2E2E2E2E2E2F5E2F5F5E2E2E2F5F5F5E2E2E2F5E2E2E2E2E2E2E2E2E2E2F5E2E2E2E2E2E2E2E2E2E2E2E2E2E2E2E2E2E2E2E2E2E2E2E2E2E2E2E2E2E2E2E2E2E2E2E2E2E2E2E2E2E2E2E2E2E2E2E2E2E2E2E2E2E2E2E2E2E2E2E2E2E2E2E2E2E2E2E2E2E2E2E2E2E2E2E2E2E2E2E2E2E2E2E2E2
310
E2E2E2E2E2E2E2E2E2E2E2E2E2E2E2E2E2E2E2E2E2E2E2E2E2E2E2E2E2E2E2E2E2E2E2E2E2E2E2E2E2E2E2E2E2E2E2E2E2E2E2E2E2E2E2E2E2E2E2E2E2E2E2E2E2E2E2E2E2E2F5E2F5F5E2E2E2F5F5F5E2E2E2F5E2E2E2E2E2E2E2E2E2E2F5E2E2E2E2E2E2E2E2E2E2E2E2E2E2E2E2E2E2E2E2E2E2E2E2E2E2E2E2E2E2E2E2
310
E2E2E2E2E2E2E2E2E2E2E2E2E2E2E2E2E2E2E2E2E2E2E2E2E2E2E2E2E2E2E2E2E2E2E2E2E2E2E2E2E2E2E2E2E2E2E2E2E2E2E2E2E2E2E2E2E2E2E2E2E2E2E2E2E2E2E2E2E2E2E2E2E2E2E2E2E2E2E2E2E2E2E2E2E2E2E2E2E2E2E2E2E2E2E2E2E2E2E2E2E2E2E2E2E2E2E2E2E2E2E2E2E2E2E2E2E2E2E2E2E2E2E2F5E2F5F5
310
E2E2E2F5F5F5E2E2E2F5E2E2E2E2E2E2E2E2E2E2F5E2E2E2E2E2E2E2E2E2E2E2E2E2E2E2E2E2E2E2E2E2E2E2E2E2E2E2E2E2E2E2E2E2E2E2E2E2E2E2E2E2E2E2E2E2E2E2E2E2E2E2E2E2E2E2E2E2E2E2E2E2E2E2E2E2E2E2E2E2E2E2E2E2E2E2E2E2E2E2E2E2E2E2E2E2E2E2E2E2E2E2E2E2E2E2E2E2E2E2E2E2E2E2E2E2E2
310
E2E2E2E2E2E2E2E2E2E2E2E2E2E2E2E2E2E2E2E2E2E2E2E2E2E2E2E2E2E2E2E2E2E2E2E2E2E2E2E2E2E2E2E2E2E2E2E2E2F5E2F5F5E2E2E2F5F5F5E2E2E2F5E2E2E2E2E2E2E2E2E2E2F5E2E2E2E2E2E2E2E2E2E2E2E2E2E2E2E2E2E2E2E2E2E2E2E2E2E2E2E2E2E2E2E2E2E2E2E2E2E2E2E2E2E2E2E2E2E2E2E2E2E2E2E2E2
310
E2E2E2E2E2E2E2E2E2E2E2E2E2E2E2E2E2E2E2E2E2E2E2E2E2E2E2E2E2E2E2E2E2E2E2E2E2E2E2E2E2E2E2E2E2E2E2E2E2E2E2E2E2E2E2E2E2E2E2E2E2E2E2E2E2E2E2E2E2E2E2E2E2E2E2E2E2E2E2E2E2E2E2E2E2E2E2E2E2E2E2E2E2E2E2E2E2E2E2E2E2E2F5E2F5F5E2E2E2F5F5F5E2E2E2F5E2E2E2E2E2E2E2E2E2E2F5
310
F5F5F5F5F5F5F5F5F5F5F5F5F5F5F5F5F5F5F5F5F5F5F5F5F5F5F5F5F5F5F5F5F5F5F5F5F5F5F5F5F5F5F5F5F5F5F5F5F5F5F5F5F5F5F5F5F5F5F5F5F5F5F5F5F5F5F5F5F5F5F5F5F5F5F5F5F5F5F5F5F5F5F5F5F5F5F5F5F5F5F5F5F5F5F5F5F5F5F5F5F5F5F5F5F5F5F5F5F5F5F5F5F5F5F5F5F5F5F5F5F5F5F5F5F5F5F5
310
F5F5F5F5F5F5F5F5F5F5F5F5F5F5F5F5F5F5F5F5F5F5F5F5F5F5F5F5F5E2F5F5E2E2E2F5F5F5E2E2E2F5F5F5F5F5F5F5F5F5F5F5F5F5F5F5F5F5F5F5F5F5F5F5F5F5F5F5F5F5F5F5F5F5F5F5F5F5F5F5F5F5F5F5F5F5F5F5F5F5F5F5F5F5F5F5F5F5F5F5F5F5F5F5F5F5F5F5F5F5F5F5F5F5F5F5F5F5F5F5F5F5F5F5F5F5F5
310
F5F5F5F5F5F5F5F5F5F5F5F5F5F5F5F5F5F5F5F5F5F5F5F5F5F5F5F5F5F5F5F5F5F5F5F5F5F5F5F5F5F5F5F5F5F5F5F5F5F5F5F5F5F5F5F5F5F5F5F5F5F5F5F5F5F5F5F5F5F5F5F5F5F5F5F5F5F5F5F5F5F5F5F5F5E2E2E2F5F5F5E2E2E2E2E2E2E2E2E2E2E2E2E2E2E2E2E2E2E2E2E2E2E2E2E2E2E2E2E2E2E2E2E2E2E2E2
310
E2E2E2E2E2E2E2E2E2E2E2E2E2E2E2E2E2E2E2E2E2E2E2E2E2E2E2E2E2E2E2E2E2E2E2E2E2E2E2E2E2E2E2E2E2E2E2E2E2E2E2E2E2E2E2E2E2E2E2E2E2E2E2E2E2E2E2E2E2E2E2E2E2E2E2E2E2E2E2E2E2E2E2E2E2E2E2E2E2E2E2E2E2E2E2E2E2E2E2E2E2E2E2E2E2E2E2E2E2E2E2E2E2E2E2E2E2E2E2E2E2E2E2E2E2E2E2
310
E2E2E2E2E2E2E2E2E2E2E2E2E2E2F5F5F5E2E2E2E2E2E2E2E2E2E2E2E2E2E2E2E2E2E2E2E2E2E2E2E2E2E2E2E2E2E2E2E2E2E2E2E2E2E2E2E2E2E2E2E2E2E2E2E2E2E2E2E2E2E2E2E2E2E2E2E2E2E2E2E2E2E2E2E2E2E2E2E2E2E2E2E2E2E2E2E2E2E2E2E2E2E2E2E2E2E2E2E2E2E2E2E2E2E2E2E2E2E2E2E2E2E2E2E2E2E2
310
E2E2E2E2E2E2E2E2E2E2E2E2E2E2E2E2E2E2E2E2E2E2E2E2E2E2E2E2E2E2E2E2E2E2E2E2E2E2E2E2E2E2E2E2E2E2E2E2E2E2E2E2E2E2E2E2E2E2E2E2E2E2E2E2E2E2E2F5F5F5E2E2E2E2E2E2E2E2E2E2E2E2E2E2E2E2E2E2E2E2E2E2E2E2E2E2E2E2E2E2E2E2E2E2E2E2E2E2E2E2E2E2E2E2E2E2E2E2E2E2E2E2E2E2E2E2E2
310
E2E2E2E2E2E2E2E2E2E2E2E2E2E2E2E2E2E2E2E2E2E2E2E2E2E2E2E2E2E2E2E2E2E2E2E2E2E2E2E2E2E2E2E2E2E2E2E2E2E2E2E2E2E2E2E2E2E2E2E2E2E2E2E2E2E2E2E2E2E2E2E2E2E2E2E2E2E2E2E2E2E2E2E2E2E2E2E2E2E2E2E2E2E2E2E2E2E2E2E2E2E2E2E2E2E2E2E2E2E2E2E2E2E2E2E2E2E2E2E2F5EFF5F5F5F5F5
310
F5F5F5F5F5F5F5F5F5F5F5F5F5F5F5F5F5F5F5F5F5F5F5F5F5F5F5F5F5F5F5F5F5F5F5F5F5F5F5F5F5F5F5F5F5F5F5F5F5F5F5F5F5F5F5F5F5F5F5F5F5F5F5F5F5F5F5F5F5F5F5F5F5F5F5F5F5F5F5F5F5F5F5F5F5F5F5F5F5F5F5F5F5F5F5F5F5F5F5F5F5F5F5F5F5F5F5F5F5F5F5F5F5F5F5F5F5F5F5F5F5F5F5F5F5F5F5
310
F5F5F5F5F5F5F5F5F5F5F5F5F5F5F5F5F5F5F5F5F5F5F5F5F5F5F5F5F5F5F5F5F5F5F5F5F5F5F5F5F5F5F5F5F5F5F5EF
  0
XRECORD
  5
63D4
102
{ACAD_REACTORS
330
62B7
102
}
330
62B7
100
AcDbXrecord
280
     1
102
MATERIAL
148
0.0
149
0.0
149
0.0
 93
        0
 94
      127
282
     0
 72
     0
 77
     0
171
     0
175
     0
179
     0
273
     0
  0
XRECORD
  5
62B9
102
{ACAD_REACTORS
330
62B7
102
}
330
62B7
100
AcDbXrecord
280
     1
270
     1
271
     1
  0
XRECORD
  5
62B8
102
{ACAD_REACTORS
330
62B7
102
}
330
62B7
100
AcDbXrecord
280
     1
270
     1
271
     1
  0
XRECORD
  5
62BC
102
{ACAD_REACTORS
330
62B7
102
}
330
62B7
100
AcDbXrecord
280
     1
270
     1
271
     1
  0
XRECORD
  5
62BB
102
{ACAD_REACTORS
330
62B7
102
}
330
62B7
100
AcDbXrecord
280
     1
270
     1
271
     1
  0
XRECORD
  5
62BD
102
{ACAD_REACTORS
330
62B7
102
}
330
62B7
100
AcDbXrecord
280
     1
270
     1
271
     1
  0
XRECORD
  5
62BA
102
{ACAD_REACTORS
330
62B7
102
}
330
62B7
100
AcDbXrecord
280
     1
270
     1
271
     1
  0
XRECORD
  5
63D3
102
{ACAD_REACTORS
330
62AF
102
}
330
62AF
100
AcDbXrecord
280
     1
102
MATERIAL
148
0.0
149
0.0
149
0.0
 93
        0
 94
      127
282
     0
 72
     0
 77
     0
171
     0
175
     0
179
     0
273
     0
  0
XRECORD
  5
62B1
102
{ACAD_REACTORS
330
62AF
102
}
330
62AF
100
AcDbXrecord
280
     1
270
     1
271
     1
  0
XRECORD
  5
62B0
102
{ACAD_REACTORS
330
62AF
102
}
330
62AF
100
AcDbXrecord
280
     1
270
     1
271
     1
  0
XRECORD
  5
62B4
102
{ACAD_REACTORS
330
62AF
102
}
330
62AF
100
AcDbXrecord
280
     1
270
     1
271
     1
  0
XRECORD
  5
62B3
102
{ACAD_REACTORS
330
62AF
102
}
330
62AF
100
AcDbXrecord
280
     1
270
     1
271
     1
  0
XRECORD
  5
62B5
102
{ACAD_REACTORS
330
62AF
102
}
330
62AF
100
AcDbXrecord
280
     1
270
     1
271
     1
  0
XRECORD
  5
62B2
102
{ACAD_REACTORS
330
62AF
102
}
330
62AF
100
AcDbXrecord
280
     1
270
     1
271
     1
  0
XRECORD
  5
63D5
102
{ACAD_REACTORS
330
62BF
102
}
330
62BF
100
AcDbXrecord
280
     1
102
MATERIAL
148
0.0
149
0.0
149
0.0
 93
        0
 94
      127
282
     0
 72
     0
 77
     0
171
     0
175
     0
179
     0
273
     0
  0
XRECORD
  5
62C1
102
{ACAD_REACTORS
330
62BF
102
}
330
62BF
100
AcDbXrecord
280
     1
270
     1
271
     1
  0
XRECORD
  5
62C0
102
{ACAD_REACTORS
330
62BF
102
}
330
62BF
100
AcDbXrecord
280
     1
270
     1
271
     1
  0
XRECORD
  5
62C4
102
{ACAD_REACTORS
330
62BF
102
}
330
62BF
100
AcDbXrecord
280
     1
270
     1
271
     1
  0
XRECORD
  5
62C3
102
{ACAD_REACTORS
330
62BF
102
}
330
62BF
100
AcDbXrecord
280
     1
270
     1
271
     1
  0
XRECORD
  5
62C5
102
{ACAD_REACTORS
330
62BF
102
}
330
62BF
100
AcDbXrecord
280
     1
270
     1
271
     1
  0
XRECORD
  5
62C2
102
{ACAD_REACTORS
330
62BF
102
}
330
62BF
100
AcDbXrecord
280
     1
270
     1
271
     1
  0
CELLSTYLEMAP
  5
63C9
102
{ACAD_REACTORS
330
6339
102
}
330
6339
100
AcDbCellStyleMap
 90
        3
300
CELLSTYLE
  1
TABLEFORMAT_BEGIN
 90
        5
170
     1
 91
        0
 92
    32768
 62
   257
 93
        1
300
CONTENTFORMAT
  1
CONTENTFORMAT_BEGIN
 90
        0
 91
        0
 92
        4
 93
        0
300

 40
0.0
140
1.0
 94
        5
 62
     0
340
10
144
0.25
309
CONTENTFORMAT_END
171
     1
301
MARGIN
  1
CELLMARGIN_BEGIN
 40
0.06
 40
0.06
 40
0.06
 40
0.06
 40
0.18
 40
0.18
309
CELLMARGIN_END
 94
        6
 95
        1
302
GRIDFORMAT
  1
GRIDFORMAT_BEGIN
 90
        0
 91
        1
 62
     0
 92
       -2
340
0
 93
        0
 40
0.045
309
GRIDFORMAT_END
 95
        2
302
GRIDFORMAT
  1
GRIDFORMAT_BEGIN
 90
        0
 91
        1
 62
     0
 92
       -2
340
0
 93
        0
 40
0.045
309
GRIDFORMAT_END
 95
        4
302
GRIDFORMAT
  1
GRIDFORMAT_BEGIN
 90
        0
 91
        1
 62
     0
 92
       -2
340
0
 93
        0
 40
0.045
309
GRIDFORMAT_END
 95
        8
302
GRIDFORMAT
  1
GRIDFORMAT_BEGIN
 90
        0
 91
        1
 62
     0
 92
       -2
340
0
 93
        0
 40
0.045
309
GRIDFORMAT_END
 95
       16
302
GRIDFORMAT
  1
GRIDFORMAT_BEGIN
 90
        0
 91
        1
 62
     0
 92
       -2
340
0
 93
        0
 40
0.045
309
GRIDFORMAT_END
 95
       32
302
GRIDFORMAT
  1
GRIDFORMAT_BEGIN
 90
        0
 91
        1
 62
     0
 92
       -2
340
0
 93
        0
 40
0.045
309
GRIDFORMAT_END
309
TABLEFORMAT_END
  1
CELLSTYLE_BEGIN
 90
        1
 91
        1
300
_TITLE
309
CELLSTYLE_END
300
CELLSTYLE
  1
TABLEFORMAT_BEGIN
 90
        5
170
     1
 91
        0
 92
        0
 62
   257
 93
        1
300
CONTENTFORMAT
  1
CONTENTFORMAT_BEGIN
 90
        0
 91
        0
 92
        4
 93
        0
300

 40
0.0
140
1.0
 94
        5
 62
     0
340
10
144
0.18
309
CONTENTFORMAT_END
171
     1
301
MARGIN
  1
CELLMARGIN_BEGIN
 40
0.06
 40
0.06
 40
0.06
 40
0.06
 40
0.18
 40
0.18
309
CELLMARGIN_END
 94
        6
 95
        1
302
GRIDFORMAT
  1
GRIDFORMAT_BEGIN
 90
        0
 91
        1
 62
     0
 92
       -2
340
0
 93
        0
 40
0.045
309
GRIDFORMAT_END
 95
        2
302
GRIDFORMAT
  1
GRIDFORMAT_BEGIN
 90
        0
 91
        1
 62
     0
 92
       -2
340
0
 93
        0
 40
0.045
309
GRIDFORMAT_END
 95
        4
302
GRIDFORMAT
  1
GRIDFORMAT_BEGIN
 90
        0
 91
        1
 62
     0
 92
       -2
340
0
 93
        0
 40
0.045
309
GRIDFORMAT_END
 95
        8
302
GRIDFORMAT
  1
GRIDFORMAT_BEGIN
 90
        0
 91
        1
 62
     0
 92
       -2
340
0
 93
        0
 40
0.045
309
GRIDFORMAT_END
 95
       16
302
GRIDFORMAT
  1
GRIDFORMAT_BEGIN
 90
        0
 91
        1
 62
     0
 92
       -2
340
0
 93
        0
 40
0.045
309
GRIDFORMAT_END
 95
       32
302
GRIDFORMAT
  1
GRIDFORMAT_BEGIN
 90
        0
 91
        1
 62
     0
 92
       -2
340
0
 93
        0
 40
0.045
309
GRIDFORMAT_END
309
TABLEFORMAT_END
  1
CELLSTYLE_BEGIN
 90
        2
 91
        1
300
_HEADER
309
CELLSTYLE_END
300
CELLSTYLE
  1
TABLEFORMAT_BEGIN
 90
        5
170
     1
 91
        0
 92
        0
 62
   257
 93
        1
300
CONTENTFORMAT
  1
CONTENTFORMAT_BEGIN
 90
        0
 91
        0
 92
        4
 93
        0
300

 40
0.0
140
1.0
 94
        2
 62
     0
340
10
144
0.18
309
CONTENTFORMAT_END
171
     1
301
MARGIN
  1
CELLMARGIN_BEGIN
 40
0.06
 40
0.06
 40
0.06
 40
0.06
 40
0.18
 40
0.18
309
CELLMARGIN_END
 94
        6
 95
        1
302
GRIDFORMAT
  1
GRIDFORMAT_BEGIN
 90
        0
 91
        1
 62
     0
 92
       -2
340
0
 93
        0
 40
0.045
309
GRIDFORMAT_END
 95
        2
302
GRIDFORMAT
  1
GRIDFORMAT_BEGIN
 90
        0
 91
        1
 62
     0
 92
       -2
340
0
 93
        0
 40
0.045
309
GRIDFORMAT_END
 95
        4
302
GRIDFORMAT
  1
GRIDFORMAT_BEGIN
 90
        0
 91
        1
 62
     0
 92
       -2
340
0
 93
        0
 40
0.045
309
GRIDFORMAT_END
 95
        8
302
GRIDFORMAT
  1
GRIDFORMAT_BEGIN
 90
        0
 91
        1
 62
     0
 92
       -2
340
0
 93
        0
 40
0.045
309
GRIDFORMAT_END
 95
       16
302
GRIDFORMAT
  1
GRIDFORMAT_BEGIN
 90
        0
 91
        1
 62
     0
 92
       -2
340
0
 93
        0
 40
0.045
309
GRIDFORMAT_END
 95
       32
302
GRIDFORMAT
  1
GRIDFORMAT_BEGIN
 90
        0
 91
        1
 62
     0
 92
       -2
340
0
 93
        0
 40
0.045
309
GRIDFORMAT_END
309
TABLEFORMAT_END
  1
CELLSTYLE_BEGIN
 90
        3
 91
        2
300
_DATA
309
CELLSTYLE_END
  0
XRECORD
  5
63CF
102
{ACAD_REACTORS
330
6339
102
}
330
6339
100
AcDbXrecord
280
     1
102
ACAD_ROUNDTRIP_PRE2007_TABLESTYLE
 90
        4
 91
        0
  1

 92
        4
 93
        0
  2

 94
        4
 95
        0
  3

  0
ENDSEC
  0
EOF
