  0
SECTION
  2
HEADER
  9
$ACADVER
  1
AC1015
  9
$ACADMAINTVER
 70
    20
  9
$DWGCODEPAGE
  3
ANSI_932
  9
$INSBASE
 10
0.0
 20
0.0
 30
0.0
  9
$EXTMIN
 10
898.385883659639
 20
-2300.604977637361
 30
0.0
  9
$EXTMAX
 10
2922.53463706027
 20
-1175.328732283465
 30
0.0
  9
$LIMMIN
 10
0.0
 20
0.0
  9
$LIMMAX
 10
178.31
 20
285.24
  9
$ORTHOMODE
 70
     1
  9
$REGENMODE
 70
     1
  9
$FILLMODE
 70
     1
  9
$QTEXTMODE
 70
     0
  9
$MIRRTEXT
 70
     0
  9
$LTSCALE
 40
4.0
  9
$ATTMODE
 70
     1
  9
$TEXTSIZE
 40
24.0
  9
$TRACEWID
 40
1.0
  9
$TEXTSTYLE
  7
STANDARD
  9
$CLAYER
  8
寸法線
  9
$CELTYPE
  6
BYLAYER
  9
$CECOLOR
 62
   256
  9
$CELTSCALE
 40
1.0
  9
$DISPSILH
 70
     0
  9
$DIMSCALE
 40
6.0
  9
$DIMASZ
 40
2.5
  9
$DIMEXO
 40
0.875
  9
$DIMDLI
 40
10.0
  9
$DIMRND
 40
0.0
  9
$DIMDLE
 40
0.0
  9
$DIMEXE
 40
1.0
  9
$DIMTP
 40
0.0
  9
$DIMTM
 40
0.0
  9
$DIMTXT
 40
3.5
  9
$DIMCEN
 40
0.0
  9
$DIMTSZ
 40
0.0
  9
$DIMTOL
 70
     0
  9
$DIMLIM
 70
     0
  9
$DIMTIH
 70
     0
  9
$DIMTOH
 70
     0
  9
$DIMSE1
 70
     0
  9
$DIMSE2
 70
     0
  9
$DIMTAD
 70
     1
  9
$DIMZIN
 70
     8
  9
$DIMBLK
  1

  9
$DIMASO
 70
     1
  9
$DIMSHO
 70
     1
  9
$DIMPOST
  1

  9
$DIMAPOST
  1

  9
$DIMALT
 70
     0
  9
$DIMALTD
 70
     2
  9
$DIMALTF
 40
25.4
  9
$DIMLFAC
 40
1.0
  9
$DIMTOFL
 70
     1
  9
$DIMTVP
 40
0.0
  9
$DIMTIX
 70
     0
  9
$DIMSOXD
 70
     0
  9
$DIMSAH
 70
     1
  9
$DIMBLK1
  1
OPEN
  9
$DIMBLK2
  1
OPEN
  9
$DIMSTYLE
  2
STANDARD
  9
$DIMCLRD
 70
     0
  9
$DIMCLRE
 70
     0
  9
$DIMCLRT
 70
     0
  9
$DIMTFAC
 40
1.0
  9
$DIMGAP
 40
0.875
  9
$DIMJUST
 70
     0
  9
$DIMSD1
 70
     0
  9
$DIMSD2
 70
     0
  9
$DIMTOLJ
 70
     1
  9
$DIMTZIN
 70
     0
  9
$DIMALTZ
 70
     0
  9
$DIMALTTZ
 70
     0
  9
$DIMUPT
 70
     0
  9
$DIMDEC
 70
     3
  9
$DIMTDEC
 70
     3
  9
$DIMALTU
 70
     2
  9
$DIMALTTD
 70
     2
  9
$DIMTXSTY
  7
STANDARD
  9
$DIMAUNIT
 70
     0
  9
$DIMADEC
 70
     0
  9
$DIMALTRND
 40
0.0
  9
$DIMAZIN
 70
     0
  9
$DIMDSEP
 70
    46
  9
$DIMATFIT
 70
     3
  9
$DIMFRAC
 70
     0
  9
$DIMLDRBLK
  1
OPEN
  9
$DIMLUNIT
 70
     2
  9
$DIMLWD
 70
    -2
  9
$DIMLWE
 70
    -2
  9
$DIMTMOVE
 70
     0
  9
$LUNITS
 70
     2
  9
$LUPREC
 70
     3
  9
$SKETCHINC
 40
1.0
  9
$FILLETRAD
 40
0.0
  9
$AUNITS
 70
     0
  9
$AUPREC
 70
     3
  9
$MENU
  1
.
  9
$ELEVATION
 40
0.0
  9
$PELEVATION
 40
0.0
  9
$THICKNESS
 40
0.0
  9
$LIMCHECK
 70
     0
  9
$CHAMFERA
 40
12.0
  9
$CHAMFERB
 40
12.0
  9
$CHAMFERC
 40
20.0
  9
$CHAMFERD
 40
0.0
  9
$SKPOLY
 70
     0
  9
$TDCREATE
 40
2453234.434426540
  9
$TDUCREATE
 40
2453234.059426540
  9
$TDUPDATE
 40
2455734.704101018
  9
$TDUUPDATE
 40
2455734.329101019
  9
$TDINDWG
 40
0.5729899306
  9
$TDUSRTIMER
 40
0.5726696296
  9
$USRTIMER
 70
     1
  9
$ANGBASE
 50
0.0
  9
$ANGDIR
 70
     0
  9
$PDMODE
 70
     0
  9
$PDSIZE
 40
0.0
  9
$PLINEWID
 40
0.0
  9
$SPLFRAME
 70
     0
  9
$SPLINETYPE
 70
     6
  9
$SPLINESEGS
 70
     8
  9
$HANDSEED
  5
7817
  9
$SURFTAB1
 70
     6
  9
$SURFTAB2
 70
     6
  9
$SURFTYPE
 70
     6
  9
$SURFU
 70
     6
  9
$SURFV
 70
     6
  9
$UCSBASE
  2

  9
$UCSNAME
  2

  9
$UCSORG
 10
0.0
 20
0.0
 30
0.0
  9
$UCSXDIR
 10
1.0
 20
0.0
 30
0.0
  9
$UCSYDIR
 10
0.0
 20
1.0
 30
0.0
  9
$UCSORTHOREF
  2

  9
$UCSORTHOVIEW
 70
     0
  9
$UCSORGTOP
 10
0.0
 20
0.0
 30
0.0
  9
$UCSORGBOTTOM
 10
0.0
 20
0.0
 30
0.0
  9
$UCSORGLEFT
 10
0.0
 20
0.0
 30
0.0
  9
$UCSORGRIGHT
 10
0.0
 20
0.0
 30
0.0
  9
$UCSORGFRONT
 10
0.0
 20
0.0
 30
0.0
  9
$UCSORGBACK
 10
0.0
 20
0.0
 30
0.0
  9
$PUCSBASE
  2

  9
$PUCSNAME
  2

  9
$PUCSORG
 10
0.0
 20
0.0
 30
0.0
  9
$PUCSXDIR
 10
1.0
 20
0.0
 30
0.0
  9
$PUCSYDIR
 10
0.0
 20
1.0
 30
0.0
  9
$PUCSORTHOREF
  2

  9
$PUCSORTHOVIEW
 70
     0
  9
$PUCSORGTOP
 10
0.0
 20
0.0
 30
0.0
  9
$PUCSORGBOTTOM
 10
0.0
 20
0.0
 30
0.0
  9
$PUCSORGLEFT
 10
0.0
 20
0.0
 30
0.0
  9
$PUCSORGRIGHT
 10
0.0
 20
0.0
 30
0.0
  9
$PUCSORGFRONT
 10
0.0
 20
0.0
 30
0.0
  9
$PUCSORGBACK
 10
0.0
 20
0.0
 30
0.0
  9
$USERI1
 70
     0
  9
$USERI2
 70
     0
  9
$USERI3
 70
     0
  9
$USERI4
 70
     0
  9
$USERI5
 70
     0
  9
$USERR1
 40
0.0
  9
$USERR2
 40
0.0
  9
$USERR3
 40
0.0
  9
$USERR4
 40
0.0
  9
$USERR5
 40
0.0
  9
$WORLDVIEW
 70
     1
  9
$SHADEDGE
 70
     3
  9
$SHADEDIF
 70
    70
  9
$TILEMODE
 70
     0
  9
$MAXACTVP
 70
    16
  9
$PINSBASE
 10
0.0
 20
0.0
 30
0.0
  9
$PLIMCHECK
 70
     0
  9
$PEXTMIN
 10
-230.1251076440692
 20
-0.0202258741703645
 30
-0.0000000000112497
  9
$PEXTMAX
 10
178.0667480927011
 20
284.9962537062594
 30
0.0000000000002956
  9
$PLIMMIN
 10
-238.5807905626231
 20
-8.464306223373881
  9
$PLIMMAX
 10
188.3464590223494
 20
293.4403326496098
  9
$UNITMODE
 70
     0
  9
$VISRETAIN
 70
     0
  9
$PLINEGEN
 70
     0
  9
$PSLTSCALE
 70
     1
  9
$TREEDEPTH
 70
  3020
  9
$CMLSTYLE
  2
STANDARD
  9
$CMLJUST
 70
     0
  9
$CMLSCALE
 40
1.0
  9
$PROXYGRAPHICS
 70
     1
  9
$MEASUREMENT
 70
     0
  9
$CELWEIGHT
370
    -1
  9
$ENDCAPS
280
     0
  9
$JOINSTYLE
280
     0
  9
$LWDISPLAY
290
     0
  9
$INSUNITS
 70
     0
  9
$HYPERLINKBASE
  1

  9
$STYLESHEET
  1

  9
$XEDIT
290
     1
  9
$CEPSNTYPE
380
     0
  9
$PSTYLEMODE
290
     1
  9
$FINGERPRINTGUID
  2
{214C064E-0336-45E9-A63C-E8F53036DB41}
  9
$VERSIONGUID
  2
{627BB796-781E-487C-ABB5-6AD5A200E8BB}
  9
$EXTNAMES
290
     1
  9
$PSVPSCALE
 40
0.0
  9
$OLESTARTUP
290
     0
  0
ENDSEC
  0
SECTION
  2
CLASSES
  0
CLASS
  1
ACDBDICTIONARYWDFLT
  2
AcDbDictionaryWithDefault
  3
ObjectDBX Classes
 90
        0
280
     0
281
     0
  0
CLASS
  1
DICTIONARYVAR
  2
AcDbDictionaryVar
  3
ObjectDBX Classes
 90
        0
280
     0
281
     0
  0
CLASS
  1
TABLESTYLE
  2
AcDbTableStyle
  3
ObjectDBX Classes
 90
     4095
280
     0
281
     0
  0
CLASS
  1
ACDBPLACEHOLDER
  2
AcDbPlaceHolder
  3
ObjectDBX Classes
 90
        0
280
     0
281
     0
  0
CLASS
  1
LAYOUT
  2
AcDbLayout
  3
ObjectDBX Classes
 90
        0
280
     0
281
     0
  0
CLASS
  1
SORTENTSTABLE
  2
AcDbSortentsTable
  3
ObjectDBX Classes
 90
        0
280
     0
281
     0
  0
CLASS
  1
MATERIAL
  2
AcDbMaterial
  3
ObjectDBX Classes
 90
     1153
280
     0
281
     0
  0
CLASS
  1
VISUALSTYLE
  2
AcDbVisualStyle
  3
ObjectDBX Classes
 90
     4095
280
     0
281
     0
  0
CLASS
  1
SCALE
  2
AcDbScale
  3
ObjectDBX Classes
 90
     1153
280
     0
281
     0
  0
CLASS
  1
MLEADERSTYLE
  2
AcDbMLeaderStyle
  3
ACDB_MLEADERSTYLE_CLASS
 90
     4095
280
     0
281
     0
  0
CLASS
  1
CELLSTYLEMAP
  2
AcDbCellStyleMap
  3
ObjectDBX Classes
 90
     1152
280
     0
281
     0
  0
ENDSEC
  0
SECTION
  2
TABLES
  0
TABLE
  2
VPORT
  5
8
102
{ACAD_XDICTIONARY
360
77FC
102
}
330
0
100
AcDbSymbolTable
 70
     1
  0
VPORT
  5
77A6
330
8
100
AcDbSymbolTableRecord
100
AcDbViewportTableRecord
  2
*Active
 70
     0
 10
0.0
 20
0.0
 11
1.0
 21
1.0
 12
2202.516012330094
 22
-1737.930376769858
 13
0.0
 23
0.0
 14
5.0
 24
5.0
 15
0.0
 25
0.0
 16
0.0
 26
0.0
 36
1.0
 17
0.0
 27
0.0
 37
0.0
 40
1704.656099468977
 41
1.302295918367347
 42
50.0
 43
0.0
 44
0.0
 50
0.0
 51
0.0
 71
     0
 72
   100
 73
     1
 74
     0
 75
     0
 76
     0
 77
     0
 78
     0
281
     0
 65
     1
110
0.0
120
0.0
130
0.0
111
1.0
121
0.0
131
0.0
112
0.0
122
1.0
132
0.0
 79
     0
146
0.0
  0
ENDTAB
  0
TABLE
  2
LTYPE
  5
5
330
0
100
AcDbSymbolTable
 70
     4
  0
LTYPE
  5
14
330
5
100
AcDbSymbolTableRecord
100
AcDbLinetypeTableRecord
  2
BYBLOCK
 70
     0
  3

 72
    65
 73
     0
 40
0.0
  0
LTYPE
  5
15
330
5
100
AcDbSymbolTableRecord
100
AcDbLinetypeTableRecord
  2
BYLAYER
 70
     0
  3

 72
    65
 73
     0
 40
0.0
  0
LTYPE
  5
16
330
5
100
AcDbSymbolTableRecord
100
AcDbLinetypeTableRecord
  2
CONTINUOUS
 70
     0
  3
Solid line
 72
    65
 73
     0
 40
0.0
  0
LTYPE
  5
6A
330
5
100
AcDbSymbolTableRecord
100
AcDbLinetypeTableRecord
  2
DASHED
 70
     0
  3
__ __ __ __ __ __ __ __ __ __ __ __ __ __ __ __
 72
    65
 73
     2
 40
0.75
 49
0.5
 74
     0
 49
-0.25
 74
     0
  0
LTYPE
  5
124
330
5
100
AcDbSymbolTableRecord
100
AcDbLinetypeTableRecord
  2
CENTER
 70
     0
  3
____ _ ____ _ ____ _ ____ _ ____ _ ____ _ ____ 
 72
    65
 73
     4
 40
2.0
 49
1.25
 74
     0
 49
-0.25
 74
     0
 49
0.25
 74
     0
 49
-0.25
 74
     0
  0
LTYPE
  5
2C5
330
5
100
AcDbSymbolTableRecord
100
AcDbLinetypeTableRecord
  2
PHANTOM
 70
     0
  3
______  __  __  ______  __  __  ______  __  __ 
 72
    65
 73
     6
 40
2.5
 49
1.25
 74
     0
 49
-0.25
 74
     0
 49
0.25
 74
     0
 49
-0.25
 74
     0
 49
0.25
 74
     0
 49
-0.25
 74
     0
  0
ENDTAB
  0
TABLE
  2
LAYER
  5
2
102
{ACAD_XDICTIONARY
360
6690
102
}
330
0
100
AcDbSymbolTable
 70
    11
  0
LAYER
  5
F
102
{ACAD_XDICTIONARY
360
7777
102
}
330
2
100
AcDbSymbolTableRecord
100
AcDbLayerTableRecord
  2
0
 70
     0
 62
     5
  6
CONTINUOUS
370
    -3
390
6684
  0
LAYER
  5
10B
102
{ACAD_XDICTIONARY
360
7779
102
}
330
2
100
AcDbSymbolTableRecord
100
AcDbLayerTableRecord
  2
細線
 70
     0
 62
     3
  6
CONTINUOUS
370
    -3
390
6684
  0
LAYER
  5
10C
102
{ACAD_XDICTIONARY
360
777B
102
}
330
2
100
AcDbSymbolTableRecord
100
AcDbLayerTableRecord
  2
実線
 70
     0
 62
     7
  6
CONTINUOUS
370
    -3
390
6684
  0
LAYER
  5
10D
102
{ACAD_XDICTIONARY
360
777D
102
}
330
2
100
AcDbSymbolTableRecord
100
AcDbLayerTableRecord
  2
破線
 70
     0
 62
     4
  6
DASHED
370
    -3
390
6684
  0
LAYER
  5
10E
102
{ACAD_XDICTIONARY
360
777F
102
}
330
2
100
AcDbSymbolTableRecord
100
AcDbLayerTableRecord
  2
中心線
 70
     0
 62
     1
  6
CENTER
370
    -3
390
6684
  0
LAYER
  5
10F
102
{ACAD_XDICTIONARY
360
7781
102
}
330
2
100
AcDbSymbolTableRecord
100
AcDbLayerTableRecord
  2
寸法線
 70
     0
 62
     2
  6
CONTINUOUS
370
    -3
390
6684
  0
LAYER
  5
2C8
102
{ACAD_XDICTIONARY
360
7783
102
}
330
2
100
AcDbSymbolTableRecord
100
AcDbLayerTableRecord
  2
仮線
 70
     0
 62
     5
  6
CONTINUOUS
370
    -3
390
6684
  0
LAYER
  5
2C9
102
{ACAD_XDICTIONARY
360
7785
102
}
330
2
100
AcDbSymbolTableRecord
100
AcDbLayerTableRecord
  2
仮想線
 70
     0
 62
     6
  6
PHANTOM
370
    -3
390
6684
  0
LAYER
  5
4F5
102
{ACAD_XDICTIONARY
360
7787
102
}
330
2
100
AcDbSymbolTableRecord
100
AcDbLayerTableRecord
  2
TITLE
 70
     0
 62
     7
  6
CONTINUOUS
370
    -3
390
6684
  0
LAYER
  5
4F6
102
{ACAD_XDICTIONARY
360
7789
102
}
330
2
100
AcDbSymbolTableRecord
100
AcDbLayerTableRecord
  2
ZUWAKU
 70
     0
 62
     3
  6
CONTINUOUS
370
    -3
390
6684
  0
LAYER
  5
84F
330
2
100
AcDbSymbolTableRecord
100
AcDbLayerTableRecord
  2
DEFPOINTS
 70
     0
 62
     7
  6
CONTINUOUS
290
     0
370
    -3
390
6684
  0
ENDTAB
  0
TABLE
  2
STYLE
  5
3
330
0
100
AcDbSymbolTable
 70
     1
  0
STYLE
  5
10
330
3
100
AcDbSymbolTableRecord
100
AcDbTextStyleTableRecord
  2
STANDARD
 70
     0
 40
0.0
 41
1.0
 50
0.0
 71
     0
 42
24.0
  3
C:\Program Files\AutoCAD LT\isocp.shx
  4
C:\Program Files\AutoCAD LT\extfont.shx
  0
ENDTAB
  0
TABLE
  2
VIEW
  5
6
330
0
100
AcDbSymbolTable
 70
     0
  0
ENDTAB
  0
TABLE
  2
UCS
  5
7
330
0
100
AcDbSymbolTable
 70
     0
  0
ENDTAB
  0
TABLE
  2
APPID
  5
9
330
0
100
AcDbSymbolTable
 70
     4
  0
APPID
  5
11
330
9
100
AcDbSymbolTableRecord
100
AcDbRegAppTableRecord
  2
ACAD
 70
     0
  0
APPID
  5
668C
330
9
100
AcDbSymbolTableRecord
100
AcDbRegAppTableRecord
  2
ACAD_PSEXT
 70
     0
  0
APPID
  5
67F3
330
9
100
AcDbSymbolTableRecord
100
AcDbRegAppTableRecord
  2
ACAD_EXEMPT_FROM_CAD_STANDARDS
 70
     0
  0
APPID
  5
774F
330
9
100
AcDbSymbolTableRecord
100
AcDbRegAppTableRecord
  2
ACAD_MLEADERVER
 70
     0
  0
ENDTAB
  0
TABLE
  2
DIMSTYLE
  5
A
330
0
100
AcDbSymbolTable
 70
     1
100
AcDbDimStyleTable
 71
     1
340
1D
  0
DIMSTYLE
105
1D
102
{ACAD_REACTORS
330
611B
330
611E
330
6142
330
6143
330
619C
330
619E
330
61A0
330
61A3
330
61A4
330
61A8
330
61B8
330
61C3
330
61C5
330
61DF
330
61E0
330
61E2
330
61E4
330
6269
330
6271
330
6272
330
6275
330
6276
330
628C
330
629A
330
721C
330
7229
330
7236
330
7243
330
728F
330
729E
330
72AB
102
}
330
A
100
AcDbSymbolTableRecord
100
AcDbDimStyleTableRecord
  2
STANDARD
 70
     0
 40
6.0
 41
2.5
 42
0.875
 43
10.0
 44
1.0
 73
     0
 74
     0
 77
     1
 78
     8
140
3.5
141
0.0
147
0.875
172
     1
173
     1
271
     3
272
     3
340
10
341
112
343
112
344
112
  0
ENDTAB
  0
TABLE
  2
BLOCK_RECORD
  5
1
330
0
100
AcDbSymbolTable
 70
    75
  0
BLOCK_RECORD
  5
1A
102
{ACAD_XDICTIONARY
360
667A
102
}
330
1
100
AcDbSymbolTableRecord
100
AcDbBlockTableRecord
  2
*MODEL_SPACE
340
6689
  0
BLOCK_RECORD
  5
17
102
{ACAD_XDICTIONARY
360
6678
102
}
330
1
100
AcDbSymbolTableRecord
100
AcDbBlockTableRecord
  2
*PAPER_SPACE
340
668A
  0
BLOCK_RECORD
  5
112
102
{ACAD_XDICTIONARY
360
77C2
102
}
330
1
100
AcDbSymbolTableRecord
100
AcDbBlockTableRecord
  2
_OPEN
340
0
102
{BLKREFS
331
6503
331
6504
331
6515
331
6516
331
6527
331
6528
331
6539
331
653A
331
6547
331
6548
331
6653
331
6654
331
6584
331
6585
331
658D
331
658E
331
6596
331
6597
331
65A4
331
65A5
331
65B1
331
65B2
331
65BE
331
65BF
331
65C6
331
65C7
331
61FD
331
6B2D
331
6B2E
331
6CB2
331
6CB3
331
6CDB
331
6CDC
331
6D03
331
6D04
331
6D84
331
6D85
331
6DD2
331
6DD3
331
6DF0
331
6DF1
331
6E1B
331
6E1C
331
6E39
331
6E3A
331
6E6E
331
6E6F
331
6E7B
331
6E7C
331
6E99
331
6E9A
331
6EA4
331
6EA5
331
6FB0
331
6FB1
331
6FB9
331
6FBA
331
6FC4
331
6FC5
331
6FCD
331
6FCE
331
6FD8
331
6FD9
331
6FE3
331
6FE4
331
7001
331
7002
331
700A
331
700B
331
70A6
331
70A7
331
70C4
331
70C5
331
70CF
331
70D0
331
710E
331
710F
331
7117
331
7118
331
716D
331
716E
331
71C3
331
71C4
331
71D2
331
71D3
331
71DF
331
71E0
331
7207
331
7208
331
7221
331
7222
331
722E
331
722F
331
723B
331
723C
331
7248
331
7249
331
7260
331
7261
331
7272
331
7273
331
7288
331
7289
331
7296
331
7297
331
72A3
331
72A4
331
72B2
331
72B3
331
72D5
331
72D6
331
72E3
331
72E4
331
72EE
331
72EF
331
72F7
331
72F8
331
7300
331
7301
331
7309
331
730A
331
7312
331
7313
331
7325
331
7326
331
732E
331
732F
331
7343
331
7344
331
735A
331
735B
331
7367
331
7368
331
73A3
331
73A4
331
73B3
331
73D4
331
73D5
331
73FF
331
7400
331
7420
331
7421
331
742B
331
742C
331
746A
331
746B
331
7477
331
7478
102
}
  0
BLOCK_RECORD
  5
62B6
330
1
100
AcDbSymbolTableRecord
100
AcDbBlockTableRecord
  2
*D1
340
0
  0
BLOCK_RECORD
  5
62C2
330
1
100
AcDbSymbolTableRecord
100
AcDbBlockTableRecord
  2
*D2
340
0
  0
BLOCK_RECORD
  5
62CE
330
1
100
AcDbSymbolTableRecord
100
AcDbBlockTableRecord
  2
*D3
340
0
  0
BLOCK_RECORD
  5
62DA
330
1
100
AcDbSymbolTableRecord
100
AcDbBlockTableRecord
  2
*D4
340
0
  0
BLOCK_RECORD
  5
62E6
330
1
100
AcDbSymbolTableRecord
100
AcDbBlockTableRecord
  2
*D5
340
0
  0
BLOCK_RECORD
  5
62F2
330
1
100
AcDbSymbolTableRecord
100
AcDbBlockTableRecord
  2
*D6
340
0
  0
BLOCK_RECORD
  5
62FE
330
1
100
AcDbSymbolTableRecord
100
AcDbBlockTableRecord
  2
*D7
340
0
  0
BLOCK_RECORD
  5
630A
330
1
100
AcDbSymbolTableRecord
100
AcDbBlockTableRecord
  2
*D8
340
0
  0
BLOCK_RECORD
  5
631A
330
1
100
AcDbSymbolTableRecord
100
AcDbBlockTableRecord
  2
*D9
340
0
  0
BLOCK_RECORD
  5
6326
330
1
100
AcDbSymbolTableRecord
100
AcDbBlockTableRecord
  2
*D10
340
0
  0
BLOCK_RECORD
  5
633E
330
1
100
AcDbSymbolTableRecord
100
AcDbBlockTableRecord
  2
*D12
340
0
  0
BLOCK_RECORD
  5
6356
330
1
100
AcDbSymbolTableRecord
100
AcDbBlockTableRecord
  2
*D14
340
0
  0
BLOCK_RECORD
  5
636E
330
1
100
AcDbSymbolTableRecord
100
AcDbBlockTableRecord
  2
*D16
340
0
  0
BLOCK_RECORD
  5
6396
330
1
100
AcDbSymbolTableRecord
100
AcDbBlockTableRecord
  2
*D19
340
0
  0
BLOCK_RECORD
  5
63A2
330
1
100
AcDbSymbolTableRecord
100
AcDbBlockTableRecord
  2
*D20
340
0
  0
BLOCK_RECORD
  5
63BE
330
1
100
AcDbSymbolTableRecord
100
AcDbBlockTableRecord
  2
*D22
340
0
  0
BLOCK_RECORD
  5
63CE
330
1
100
AcDbSymbolTableRecord
100
AcDbBlockTableRecord
  2
*D23
340
0
  0
BLOCK_RECORD
  5
643A
330
1
100
AcDbSymbolTableRecord
100
AcDbBlockTableRecord
  2
*D31
340
0
  0
BLOCK_RECORD
  5
6452
330
1
100
AcDbSymbolTableRecord
100
AcDbBlockTableRecord
  2
*D33
340
0
  0
BLOCK_RECORD
  5
645E
330
1
100
AcDbSymbolTableRecord
100
AcDbBlockTableRecord
  2
*D34
340
0
  0
BLOCK_RECORD
  5
646A
330
1
100
AcDbSymbolTableRecord
100
AcDbBlockTableRecord
  2
*D35
340
0
  0
BLOCK_RECORD
  5
6478
330
1
100
AcDbSymbolTableRecord
100
AcDbBlockTableRecord
  2
*D36
340
0
  0
BLOCK_RECORD
  5
6486
330
1
100
AcDbSymbolTableRecord
100
AcDbBlockTableRecord
  2
*D37
340
0
  0
BLOCK_RECORD
  5
6494
330
1
100
AcDbSymbolTableRecord
100
AcDbBlockTableRecord
  2
*D38
340
0
  0
BLOCK_RECORD
  5
721D
330
1
100
AcDbSymbolTableRecord
100
AcDbBlockTableRecord
  2
*D55
340
0
  0
BLOCK_RECORD
  5
722A
330
1
100
AcDbSymbolTableRecord
100
AcDbBlockTableRecord
  2
*D56
340
0
  0
BLOCK_RECORD
  5
7237
330
1
100
AcDbSymbolTableRecord
100
AcDbBlockTableRecord
  2
*D57
340
0
  0
BLOCK_RECORD
  5
7244
330
1
100
AcDbSymbolTableRecord
100
AcDbBlockTableRecord
  2
*D58
340
0
  0
BLOCK_RECORD
  5
7290
330
1
100
AcDbSymbolTableRecord
100
AcDbBlockTableRecord
  2
*D59
340
0
  0
BLOCK_RECORD
  5
729F
330
1
100
AcDbSymbolTableRecord
100
AcDbBlockTableRecord
  2
*D60
340
0
  0
BLOCK_RECORD
  5
72AC
330
1
100
AcDbSymbolTableRecord
100
AcDbBlockTableRecord
  2
*D61
340
0
  0
BLOCK_RECORD
  5
7759
102
{ACAD_XDICTIONARY
360
7766
102
}
330
1
100
AcDbSymbolTableRecord
100
AcDbBlockTableRecord
  2
A$C0AB47383
340
0
  0
ENDTAB
  0
ENDSEC
  0
SECTION
  2
BLOCKS
  0
BLOCK
  5
1B
330
1A
100
AcDbEntity
  8
0
100
AcDbBlockBegin
  2
*MODEL_SPACE
 70
     0
 10
0.0
 20
0.0
 30
0.0
  3
*MODEL_SPACE
  1

  0
ENDBLK
  5
1C
330
1A
100
AcDbEntity
  8
0
100
AcDbBlockEnd
  0
BLOCK
  5
18
330
17
100
AcDbEntity
 67
     1
  8
0
100
AcDbBlockBegin
  2
*PAPER_SPACE
 70
     0
 10
0.0
 20
0.0
 30
0.0
  3
*PAPER_SPACE
  1

  0
ENDBLK
  5
19
330
17
100
AcDbEntity
 67
     1
  8
0
100
AcDbBlockEnd
  0
BLOCK
  5
113
330
112
100
AcDbEntity
  8
0
100
AcDbBlockBegin
  2
_OPEN
 70
     0
 10
0.0
 20
0.0
 30
0.0
  3
_OPEN
  1

  0
LINE
  5
114
330
112
100
AcDbEntity
  8
0
  6
ByBlock
 62
     0
100
AcDbLine
 10
-1.0
 20
0.1666666666666666
 30
0.0
 11
0.0
 21
0.0
 31
0.0
  0
LINE
  5
115
330
112
100
AcDbEntity
  8
0
  6
ByBlock
 62
     0
100
AcDbLine
 10
0.0
 20
0.0
 30
0.0
 11
-1.0
 21
-0.1666666666666666
 31
0.0
  0
LINE
  5
116
330
112
100
AcDbEntity
  8
0
  6
ByBlock
 62
     0
100
AcDbLine
 10
0.0
 20
0.0
 30
0.0
 11
-1.0
 21
0.0
 31
0.0
  0
ENDBLK
  5
117
330
112
100
AcDbEntity
  8
0
100
AcDbBlockEnd
  0
BLOCK
  5
62C0
330
62B6
100
AcDbEntity
  8
0
100
AcDbBlockBegin
  2
*D1
 70
     1
 10
0.0
 20
0.0
 30
0.0
  3
*D1
  1

  0
LINE
  5
730F
330
62B6
100
AcDbEntity
  8
寸法線
 62
     0
370
    -2
100
AcDbLine
 10
1781.887854788797
 20
-1523.786765516414
 30
0.0
 11
1781.887854788797
 21
-1682.537
 31
0.0
  0
LINE
  5
7310
330
62B6
100
AcDbEntity
  8
寸法線
 62
     0
370
    -2
100
AcDbLine
 10
1989.887854788797
 20
-1513.786765516415
 30
0.0
 11
1989.887854788797
 21
-1682.537
 31
0.0
  0
LINE
  5
7311
330
62B6
100
AcDbEntity
  8
寸法線
 62
     0
370
    -2
100
AcDbLine
 10
1796.887854788797
 20
-1676.537
 30
0.0
 11
1974.887854788797
 21
-1676.537
 31
0.0
  0
INSERT
  5
7312
330
62B6
100
AcDbEntity
  8
寸法線
 62
     0
370
    -2
100
AcDbBlockReference
  2
_OPEN
 10
1781.887854788797
 20
-1676.537
 30
0.0
 41
15.0
 42
15.0
 43
15.0
 50
180.0
  0
INSERT
  5
7313
330
62B6
100
AcDbEntity
  8
寸法線
 62
     0
370
    -2
100
AcDbBlockReference
  2
_OPEN
 10
1989.887854788797
 20
-1676.537
 30
0.0
 41
15.0
 42
15.0
 43
15.0
  0
MTEXT
  5
7314
330
62B6
100
AcDbEntity
  8
寸法線
 62
     0
100
AcDbMText
 10
1885.887854788797
 20
-1660.784933070866
 30
0.0
 40
21.0
 41
0.0
 71
     5
 72
     1
  1
\A1;208
 73
     1
 44
1.0
1001
ACAD
1000
MTEXTBEGIN
1070
    73
1070
     1
1070
    44
1040
1.0
1070
    74
1070
     0
1000
MTEXTEND
  0
POINT
  5
7315
330
62B6
100
AcDbEntity
  8
DEFPOINTS
 62
     0
100
AcDbPoint
 10
1781.887854788797
 20
-1518.536765516414
 30
0.0
  0
POINT
  5
7316
330
62B6
100
AcDbEntity
  8
DEFPOINTS
 62
     0
100
AcDbPoint
 10
1989.887854788797
 20
-1508.536765516415
 30
0.0
  0
POINT
  5
7317
330
62B6
100
AcDbEntity
  8
DEFPOINTS
 62
     0
100
AcDbPoint
 10
1989.887854788797
 20
-1676.537
 30
0.0
  0
ENDBLK
  5
62C1
330
62B6
100
AcDbEntity
  8
0
100
AcDbBlockEnd
  0
BLOCK
  5
62CC
330
62C2
100
AcDbEntity
  8
0
100
AcDbBlockBegin
  2
*D2
 70
     1
 10
0.0
 20
0.0
 30
0.0
  3
*D2
  1

  0
LINE
  5
6FAB
330
62C2
100
AcDbEntity
  8
寸法線
 62
     0
370
    -2
100
AcDbLine
 10
1847.052357404953
 20
-2182.354601101536
 30
0.0
 11
1847.052357404953
 21
-2234.604601101535
 31
0.0
  0
LINE
  5
6FAC
330
62C2
100
AcDbEntity
  8
寸法線
 62
     0
370
    -2
100
AcDbLine
 10
1877.052357404954
 20
-2161.855
 30
0.0
 11
1877.052357404954
 21
-2234.604601101535
 31
0.0
  0
LINE
  5
6FAD
330
62C2
100
AcDbEntity
  8
寸法線
 62
     0
370
    -2
100
AcDbLine
 10
1832.052357404953
 20
-2228.604601101535
 30
0.0
 11
1817.052357404953
 21
-2228.604601101535
 31
0.0
  0
LINE
  5
6FAE
330
62C2
100
AcDbEntity
  8
寸法線
 62
     0
370
    -2
100
AcDbLine
 10
1892.052357404954
 20
-2228.604601101535
 30
0.0
 11
1907.052357404954
 21
-2228.604601101535
 31
0.0
  0
LINE
  5
6FAF
330
62C2
100
AcDbEntity
  8
寸法線
 62
     0
370
    -2
100
AcDbLine
 10
1847.052357404953
 20
-2228.604601101535
 30
0.0
 11
1877.052357404954
 21
-2228.604601101535
 31
0.0
  0
INSERT
  5
6FB0
330
62C2
100
AcDbEntity
  8
寸法線
 62
     0
370
    -2
100
AcDbBlockReference
  2
_OPEN
 10
1847.052357404953
 20
-2228.604601101535
 30
0.0
 41
15.0
 42
15.0
 43
15.0
  0
INSERT
  5
6FB1
330
62C2
100
AcDbEntity
  8
寸法線
 62
     0
370
    -2
100
AcDbBlockReference
  2
_OPEN
 10
1877.052357404954
 20
-2228.604601101535
 30
0.0
 41
15.0
 42
15.0
 43
15.0
 50
180.0
  0
MTEXT
  5
6FB2
330
62C2
100
AcDbEntity
  8
寸法線
 62
     0
100
AcDbMText
 10
1862.052357404953
 20
-2212.854601101535
 30
0.0
 40
21.0
 41
0.0
 71
     5
 72
     1
  1
\A1;30
 73
     1
 44
1.0
1001
ACAD
1000
MTEXTBEGIN
1070
    73
1070
     1
1070
    44
1040
1.0
1070
    74
1070
     0
1000
MTEXTEND
  0
POINT
  5
6FB3
330
62C2
100
AcDbEntity
  8
DEFPOINTS
 62
     0
100
AcDbPoint
 10
1847.052357404953
 20
-2177.104601101536
 30
0.0
  0
POINT
  5
6FB4
330
62C2
100
AcDbEntity
  8
DEFPOINTS
 62
     0
100
AcDbPoint
 10
1877.052357404954
 20
-2156.605
 30
0.0
  0
POINT
  5
6FB5
330
62C2
100
AcDbEntity
  8
DEFPOINTS
 62
     0
100
AcDbPoint
 10
1877.052357404954
 20
-2228.604601101535
 30
0.0
  0
ENDBLK
  5
62CD
330
62C2
100
AcDbEntity
  8
0
100
AcDbBlockEnd
  0
BLOCK
  5
62D8
330
62CE
100
AcDbEntity
  8
0
100
AcDbBlockBegin
  2
*D3
 70
     1
 10
0.0
 20
0.0
 30
0.0
  3
*D3
  1

  0
LINE
  5
6FB6
330
62CE
100
AcDbEntity
  8
寸法線
 62
     0
370
    -2
100
AcDbLine
 10
1667.052357404954
 20
-2182.354601101536
 30
0.0
 11
1667.052357404954
 21
-2234.604601101535
 31
0.0
  0
LINE
  5
6FB7
330
62CE
100
AcDbEntity
  8
寸法線
 62
     0
370
    -2
100
AcDbLine
 10
1847.052357404953
 20
-2182.354601101536
 30
0.0
 11
1847.052357404953
 21
-2234.604601101535
 31
0.0
  0
LINE
  5
6FB8
330
62CE
100
AcDbEntity
  8
寸法線
 62
     0
370
    -2
100
AcDbLine
 10
1682.052357404954
 20
-2228.604601101535
 30
0.0
 11
1832.052357404953
 21
-2228.604601101535
 31
0.0
  0
INSERT
  5
6FB9
330
62CE
100
AcDbEntity
  8
寸法線
 62
     0
370
    -2
100
AcDbBlockReference
  2
_OPEN
 10
1667.052357404954
 20
-2228.604601101535
 30
0.0
 41
15.0
 42
15.0
 43
15.0
 50
180.0
  0
INSERT
  5
6FBA
330
62CE
100
AcDbEntity
  8
寸法線
 62
     0
370
    -2
100
AcDbBlockReference
  2
_OPEN
 10
1847.052357404953
 20
-2228.604601101535
 30
0.0
 41
15.0
 42
15.0
 43
15.0
  0
MTEXT
  5
6FBB
330
62CE
100
AcDbEntity
  8
寸法線
 62
     0
100
AcDbMText
 10
1757.052357404953
 20
-2212.854601101535
 30
0.0
 40
21.0
 41
0.0
 71
     5
 72
     1
  1
\A1;180
 73
     1
 44
1.0
1001
ACAD
1000
MTEXTBEGIN
1070
    73
1070
     1
1070
    44
1040
1.0
1070
    74
1070
     0
1000
MTEXTEND
  0
POINT
  5
6FBC
330
62CE
100
AcDbEntity
  8
DEFPOINTS
 62
     0
100
AcDbPoint
 10
1667.052357404954
 20
-2177.104601101536
 30
0.0
  0
POINT
  5
6FBD
330
62CE
100
AcDbEntity
  8
DEFPOINTS
 62
     0
100
AcDbPoint
 10
1847.052357404953
 20
-2177.104601101536
 30
0.0
  0
POINT
  5
6FBE
330
62CE
100
AcDbEntity
  8
DEFPOINTS
 62
     0
100
AcDbPoint
 10
1847.052357404953
 20
-2228.604601101535
 30
0.0
  0
ENDBLK
  5
62D9
330
62CE
100
AcDbEntity
  8
0
100
AcDbBlockEnd
  0
BLOCK
  5
62E4
330
62DA
100
AcDbEntity
  8
0
100
AcDbBlockBegin
  2
*D4
 70
     1
 10
0.0
 20
0.0
 30
0.0
  3
*D4
  1

  0
LINE
  5
6FBF
330
62DA
100
AcDbEntity
  8
寸法線
 62
     0
370
    -2
100
AcDbLine
 10
1637.052357404954
 20
-2161.855
 30
0.0
 11
1637.052357404954
 21
-2234.604601101535
 31
0.0
  0
LINE
  5
6FC0
330
62DA
100
AcDbEntity
  8
寸法線
 62
     0
370
    -2
100
AcDbLine
 10
1667.052357404954
 20
-2182.354601101536
 30
0.0
 11
1667.052357404954
 21
-2234.604601101535
 31
0.0
  0
LINE
  5
6FC1
330
62DA
100
AcDbEntity
  8
寸法線
 62
     0
370
    -2
100
AcDbLine
 10
1622.052357404954
 20
-2228.604601101535
 30
0.0
 11
1607.052357404954
 21
-2228.604601101535
 31
0.0
  0
LINE
  5
6FC2
330
62DA
100
AcDbEntity
  8
寸法線
 62
     0
370
    -2
100
AcDbLine
 10
1682.052357404954
 20
-2228.604601101535
 30
0.0
 11
1697.052357404954
 21
-2228.604601101535
 31
0.0
  0
LINE
  5
6FC3
330
62DA
100
AcDbEntity
  8
寸法線
 62
     0
370
    -2
100
AcDbLine
 10
1637.052357404954
 20
-2228.604601101535
 30
0.0
 11
1667.052357404954
 21
-2228.604601101535
 31
0.0
  0
INSERT
  5
6FC4
330
62DA
100
AcDbEntity
  8
寸法線
 62
     0
370
    -2
100
AcDbBlockReference
  2
_OPEN
 10
1637.052357404954
 20
-2228.604601101535
 30
0.0
 41
15.0
 42
15.0
 43
15.0
  0
INSERT
  5
6FC5
330
62DA
100
AcDbEntity
  8
寸法線
 62
     0
370
    -2
100
AcDbBlockReference
  2
_OPEN
 10
1667.052357404954
 20
-2228.604601101535
 30
0.0
 41
15.0
 42
15.0
 43
15.0
 50
180.0
  0
MTEXT
  5
6FC6
330
62DA
100
AcDbEntity
  8
寸法線
 62
     0
100
AcDbMText
 10
1652.052357404954
 20
-2212.854601101535
 30
0.0
 40
21.0
 41
0.0
 71
     5
 72
     1
  1
\A1;30
 73
     1
 44
1.0
1001
ACAD
1000
MTEXTBEGIN
1070
    73
1070
     1
1070
    44
1040
1.0
1070
    74
1070
     0
1000
MTEXTEND
  0
POINT
  5
6FC7
330
62DA
100
AcDbEntity
  8
DEFPOINTS
 62
     0
100
AcDbPoint
 10
1637.052357404954
 20
-2156.605
 30
0.0
  0
POINT
  5
6FC8
330
62DA
100
AcDbEntity
  8
DEFPOINTS
 62
     0
100
AcDbPoint
 10
1667.052357404954
 20
-2177.104601101536
 30
0.0
  0
POINT
  5
6FC9
330
62DA
100
AcDbEntity
  8
DEFPOINTS
 62
     0
100
AcDbPoint
 10
1667.052357404954
 20
-2228.604601101535
 30
0.0
  0
ENDBLK
  5
62E5
330
62DA
100
AcDbEntity
  8
0
100
AcDbBlockEnd
  0
BLOCK
  5
62F0
330
62E6
100
AcDbEntity
  8
0
100
AcDbBlockBegin
  2
*D5
 70
     1
 10
0.0
 20
0.0
 30
0.0
  3
*D5
  1

  0
LINE
  5
6FCA
330
62E6
100
AcDbEntity
  8
寸法線
 62
     0
370
    -2
100
AcDbLine
 10
1902.802357404953
 20
-2126.604601101536
 30
0.0
 11
1955.052357404954
 21
-2126.604601101536
 31
0.0
  0
LINE
  5
6FCB
330
62E6
100
AcDbEntity
  8
寸法線
 62
     0
370
    -2
100
AcDbLine
 10
1902.802357404953
 20
-1946.604601101536
 30
0.0
 11
1955.052357404954
 21
-1946.604601101536
 31
0.0
  0
LINE
  5
6FCC
330
62E6
100
AcDbEntity
  8
寸法線
 62
     0
370
    -2
100
AcDbLine
 10
1949.052357404954
 20
-2111.604601101536
 30
0.0
 11
1949.052357404954
 21
-1961.604601101536
 31
0.0
  0
INSERT
  5
6FCD
330
62E6
100
AcDbEntity
  8
寸法線
 62
     0
370
    -2
100
AcDbBlockReference
  2
_OPEN
 10
1949.052357404954
 20
-2126.604601101536
 30
0.0
 41
15.0
 42
15.0
 43
15.0
 50
270.0
  0
INSERT
  5
6FCE
330
62E6
100
AcDbEntity
  8
寸法線
 62
     0
370
    -2
100
AcDbBlockReference
  2
_OPEN
 10
1949.052357404954
 20
-1946.604601101536
 30
0.0
 41
15.0
 42
15.0
 43
15.0
 50
90.0
  0
MTEXT
  5
6FCF
330
62E6
100
AcDbEntity
  8
寸法線
 62
     0
100
AcDbMText
 10
1933.302357404954
 20
-2036.604601101536
 30
0.0
 40
21.0
 41
0.0
 71
     5
 72
     1
  1
\A1;180
 11
0.0000000000000001
 21
1.0
 31
0.0
 73
     1
 44
1.0
1001
ACAD
1000
MTEXTBEGIN
1070
    73
1070
     1
1070
    44
1040
1.0
1070
    74
1070
     0
1000
MTEXTEND
  0
POINT
  5
6FD0
330
62E6
100
AcDbEntity
  8
DEFPOINTS
 62
     0
100
AcDbPoint
 10
1897.552357404953
 20
-2126.604601101536
 30
0.0
  0
POINT
  5
6FD1
330
62E6
100
AcDbEntity
  8
DEFPOINTS
 62
     0
100
AcDbPoint
 10
1897.552357404953
 20
-1946.604601101536
 30
0.0
  0
POINT
  5
6FD2
330
62E6
100
AcDbEntity
  8
DEFPOINTS
 62
     0
100
AcDbPoint
 10
1949.052357404954
 20
-1946.604601101536
 30
0.0
  0
ENDBLK
  5
62F1
330
62E6
100
AcDbEntity
  8
0
100
AcDbBlockEnd
  0
BLOCK
  5
62FC
330
62F2
100
AcDbEntity
  8
0
100
AcDbBlockBegin
  2
*D6
 70
     1
 10
0.0
 20
0.0
 30
0.0
  3
*D6
  1

  0
LINE
  5
6FD3
330
62F2
100
AcDbEntity
  8
寸法線
 62
     0
370
    -2
100
AcDbLine
 10
1882.302
 20
-2156.604601101535
 30
0.0
 11
1955.052357404954
 21
-2156.604601101535
 31
0.0
  0
LINE
  5
6FD4
330
62F2
100
AcDbEntity
  8
寸法線
 62
     0
370
    -2
100
AcDbLine
 10
1902.802357404953
 20
-2126.604601101536
 30
0.0
 11
1955.052357404954
 21
-2126.604601101536
 31
0.0
  0
LINE
  5
6FD5
330
62F2
100
AcDbEntity
  8
寸法線
 62
     0
370
    -2
100
AcDbLine
 10
1949.052357404953
 20
-2171.604601101535
 30
0.0
 11
1949.052357404953
 21
-2186.604601101535
 31
0.0
  0
LINE
  5
6FD6
330
62F2
100
AcDbEntity
  8
寸法線
 62
     0
370
    -2
100
AcDbLine
 10
1949.052357404953
 20
-2111.604601101536
 30
0.0
 11
1949.052357404953
 21
-2096.604601101536
 31
0.0
  0
LINE
  5
6FD7
330
62F2
100
AcDbEntity
  8
寸法線
 62
     0
370
    -2
100
AcDbLine
 10
1949.052357404953
 20
-2156.604601101535
 30
0.0
 11
1949.052357404953
 21
-2126.604601101536
 31
0.0
  0
INSERT
  5
6FD8
330
62F2
100
AcDbEntity
  8
寸法線
 62
     0
370
    -2
100
AcDbBlockReference
  2
_OPEN
 10
1949.052357404953
 20
-2156.604601101535
 30
0.0
 41
15.0
 42
15.0
 43
15.0
 50
90.0
  0
INSERT
  5
6FD9
330
62F2
100
AcDbEntity
  8
寸法線
 62
     0
370
    -2
100
AcDbBlockReference
  2
_OPEN
 10
1949.052357404953
 20
-2126.604601101536
 30
0.0
 41
15.0
 42
15.0
 43
15.0
 50
270.0
  0
MTEXT
  5
6FDA
330
62F2
100
AcDbEntity
  8
寸法線
 62
     0
100
AcDbMText
 10
1933.302357404954
 20
-2141.604601101535
 30
0.0
 40
21.0
 41
0.0
 71
     5
 72
     1
  1
\A1;30
 11
0.0000000000000001
 21
1.0
 31
0.0
 73
     1
 44
1.0
1001
ACAD
1000
MTEXTBEGIN
1070
    73
1070
     1
1070
    44
1040
1.0
1070
    74
1070
     0
1000
MTEXTEND
  0
POINT
  5
6FDB
330
62F2
100
AcDbEntity
  8
DEFPOINTS
 62
     0
100
AcDbPoint
 10
1877.052
 20
-2156.604601101535
 30
0.0
  0
POINT
  5
6FDC
330
62F2
100
AcDbEntity
  8
DEFPOINTS
 62
     0
100
AcDbPoint
 10
1897.552357404953
 20
-2126.604601101536
 30
0.0
  0
POINT
  5
6FDD
330
62F2
100
AcDbEntity
  8
DEFPOINTS
 62
     0
100
AcDbPoint
 10
1949.052357404953
 20
-2126.604601101536
 30
0.0
  0
ENDBLK
  5
62FD
330
62F2
100
AcDbEntity
  8
0
100
AcDbBlockEnd
  0
BLOCK
  5
6308
330
62FE
100
AcDbEntity
  8
0
100
AcDbBlockBegin
  2
*D7
 70
     1
 10
0.0
 20
0.0
 30
0.0
  3
*D7
  1

  0
LINE
  5
6FDE
330
62FE
100
AcDbEntity
  8
寸法線
 62
     0
370
    -2
100
AcDbLine
 10
1902.802357404953
 20
-1946.604601101536
 30
0.0
 11
1955.052357404954
 21
-1946.604601101536
 31
0.0
  0
LINE
  5
6FDF
330
62FE
100
AcDbEntity
  8
寸法線
 62
     0
370
    -2
100
AcDbLine
 10
1882.302357404954
 20
-1916.605
 30
0.0
 11
1955.052357404954
 21
-1916.605
 31
0.0
  0
LINE
  5
6FE0
330
62FE
100
AcDbEntity
  8
寸法線
 62
     0
370
    -2
100
AcDbLine
 10
1949.052357404953
 20
-1961.604601101536
 30
0.0
 11
1949.052357404953
 21
-1976.604601101536
 31
0.0
  0
LINE
  5
6FE1
330
62FE
100
AcDbEntity
  8
寸法線
 62
     0
370
    -2
100
AcDbLine
 10
1949.052357404953
 20
-1901.605
 30
0.0
 11
1949.052357404953
 21
-1886.605
 31
0.0
  0
LINE
  5
6FE2
330
62FE
100
AcDbEntity
  8
寸法線
 62
     0
370
    -2
100
AcDbLine
 10
1949.052357404953
 20
-1946.604601101536
 30
0.0
 11
1949.052357404953
 21
-1916.605
 31
0.0
  0
INSERT
  5
6FE3
330
62FE
100
AcDbEntity
  8
寸法線
 62
     0
370
    -2
100
AcDbBlockReference
  2
_OPEN
 10
1949.052357404953
 20
-1946.604601101536
 30
0.0
 41
15.0
 42
15.0
 43
15.0
 50
90.0
  0
INSERT
  5
6FE4
330
62FE
100
AcDbEntity
  8
寸法線
 62
     0
370
    -2
100
AcDbBlockReference
  2
_OPEN
 10
1949.052357404953
 20
-1916.605
 30
0.0
 41
15.0
 42
15.0
 43
15.0
 50
270.0
  0
MTEXT
  5
6FE5
330
62FE
100
AcDbEntity
  8
寸法線
 62
     0
100
AcDbMText
 10
1933.302357404954
 20
-1931.604800550768
 30
0.0
 40
21.0
 41
0.0
 71
     5
 72
     1
  1
\A1;30
 11
0.0000000000000001
 21
1.0
 31
0.0
 73
     1
 44
1.0
1001
ACAD
1000
MTEXTBEGIN
1070
    73
1070
     1
1070
    44
1040
1.0
1070
    74
1070
     0
1000
MTEXTEND
  0
POINT
  5
6FE6
330
62FE
100
AcDbEntity
  8
DEFPOINTS
 62
     0
100
AcDbPoint
 10
1897.552357404953
 20
-1946.604601101536
 30
0.0
  0
POINT
  5
6FE7
330
62FE
100
AcDbEntity
  8
DEFPOINTS
 62
     0
100
AcDbPoint
 10
1877.052357404954
 20
-1916.605
 30
0.0
  0
POINT
  5
6FE8
330
62FE
100
AcDbEntity
  8
DEFPOINTS
 62
     0
100
AcDbPoint
 10
1949.052357404953
 20
-1916.605
 30
0.0
  0
ENDBLK
  5
6309
330
62FE
100
AcDbEntity
  8
0
100
AcDbBlockEnd
  0
BLOCK
  5
6318
330
630A
100
AcDbEntity
  8
0
100
AcDbBlockBegin
  2
*D8
 70
     1
 10
0.0
 20
0.0
 30
0.0
  3
*D8
  1

  0
LINE
  5
70A1
330
630A
100
AcDbEntity
  8
寸法線
 62
     0
370
    -2
100
AcDbLine
 10
1977.887854788797
 20
-1513.786765516415
 30
0.0
 11
1977.887854788797
 21
-1634.537
 31
0.0
  0
LINE
  5
70A2
330
630A
100
AcDbEntity
  8
寸法線
 62
     0
370
    -2
100
AcDbLine
 10
1989.887854788797
 20
-1513.786765516415
 30
0.0
 11
1989.887854788797
 21
-1634.537
 31
0.0
  0
LINE
  5
70A3
330
630A
100
AcDbEntity
  8
寸法線
 62
     0
370
    -2
100
AcDbLine
 10
1962.887854788797
 20
-1628.537
 30
0.0
 11
1947.887854788797
 21
-1628.537
 31
0.0
  0
LINE
  5
70A4
330
630A
100
AcDbEntity
  8
寸法線
 62
     0
370
    -2
100
AcDbLine
 10
2004.887854788797
 20
-1628.537
 30
0.0
 11
2019.887854788797
 21
-1628.537
 31
0.0
  0
LINE
  5
70A5
330
630A
100
AcDbEntity
  8
寸法線
 62
     0
370
    -2
100
AcDbLine
 10
1977.887854788797
 20
-1628.537
 30
0.0
 11
1989.887854788797
 21
-1628.537
 31
0.0
  0
INSERT
  5
70A6
330
630A
100
AcDbEntity
  8
寸法線
 62
     0
370
    -2
100
AcDbBlockReference
  2
_OPEN
 10
1977.887854788797
 20
-1628.537
 30
0.0
 41
15.0
 42
15.0
 43
15.0
  0
INSERT
  5
70A7
330
630A
100
AcDbEntity
  8
寸法線
 62
     0
370
    -2
100
AcDbBlockReference
  2
_OPEN
 10
1989.887854788797
 20
-1628.537
 30
0.0
 41
15.0
 42
15.0
 43
15.0
 50
180.0
  0
MTEXT
  5
70A8
330
630A
100
AcDbEntity
  8
寸法線
 62
     0
100
AcDbMText
 10
1983.887854788797
 20
-1612.784933070866
 30
0.0
 40
21.0
 41
0.0
 71
     5
 72
     1
  1
\A1;12
 73
     1
 44
1.0
1001
ACAD
1000
MTEXTBEGIN
1070
    73
1070
     1
1070
    44
1040
1.0
1070
    74
1070
     0
1000
MTEXTEND
  0
POINT
  5
70A9
330
630A
100
AcDbEntity
  8
DEFPOINTS
 62
     0
100
AcDbPoint
 10
1977.887854788797
 20
-1508.536765516415
 30
0.0
  0
POINT
  5
70AA
330
630A
100
AcDbEntity
  8
DEFPOINTS
 62
     0
100
AcDbPoint
 10
1989.887854788797
 20
-1508.536765516415
 30
0.0
  0
POINT
  5
70AB
330
630A
100
AcDbEntity
  8
DEFPOINTS
 62
     0
100
AcDbPoint
 10
1989.887854788797
 20
-1628.537
 30
0.0
  0
ENDBLK
  5
6319
330
630A
100
AcDbEntity
  8
0
100
AcDbBlockEnd
  0
BLOCK
  5
6324
330
631A
100
AcDbEntity
  8
0
100
AcDbBlockBegin
  2
*D9
 70
     1
 10
0.0
 20
0.0
 30
0.0
  3
*D9
  1

  0
LINE
  5
716A
330
631A
100
AcDbEntity
  8
寸法線
 62
     0
370
    -2
100
AcDbLine
 10
1940.804521455463
 20
-1309.536765516415
 30
0.0
 11
1941.887854788797
 21
-1309.536765516415
 31
0.0
  0
LINE
  5
716B
330
631A
100
AcDbEntity
  8
寸法線
 62
     0
370
    -2
100
AcDbLine
 10
1930.637854788797
 20
-1267.536765516415
 30
0.0
 11
1929.887854788797
 21
-1267.536765516415
 31
0.0
  0
LINE
  5
716C
330
631A
100
AcDbEntity
  8
寸法線
 62
     0
370
    -2
100
AcDbLine
 10
1935.887854788797
 20
-1294.536765516415
 30
0.0
 11
1935.887854788797
 21
-1282.536765516415
 31
0.0
  0
INSERT
  5
716D
330
631A
100
AcDbEntity
  8
寸法線
 62
     0
370
    -2
100
AcDbBlockReference
  2
_OPEN
 10
1935.887854788797
 20
-1309.536765516415
 30
0.0
 41
15.0
 42
15.0
 43
15.0
 50
270.0
  0
INSERT
  5
716E
330
631A
100
AcDbEntity
  8
寸法線
 62
     0
370
    -2
100
AcDbBlockReference
  2
_OPEN
 10
1935.887854788797
 20
-1267.536765516415
 30
0.0
 41
15.0
 42
15.0
 43
15.0
 50
90.0
  0
MTEXT
  5
716F
330
631A
100
AcDbEntity
  8
寸法線
 62
     0
100
AcDbMText
 10
1920.135787859663
 20
-1288.536765516415
 30
0.0
 40
21.0
 41
0.0
 71
     5
 72
     1
  1
\A1;%%C42
 11
0.0000000000000001
 21
1.0
 31
0.0
 73
     1
 44
1.0
1001
ACAD
1000
MTEXTBEGIN
1070
    73
1070
     1
1070
    44
1040
1.0
1070
    74
1070
     0
1000
MTEXTEND
  0
POINT
  5
7170
330
631A
100
AcDbEntity
  8
DEFPOINTS
 62
     0
100
AcDbPoint
 10
1935.554521455463
 20
-1309.536765516415
 30
0.0
  0
POINT
  5
7171
330
631A
100
AcDbEntity
  8
DEFPOINTS
 62
     0
100
AcDbPoint
 10
1935.887854788797
 20
-1267.536765516415
 30
0.0
  0
POINT
  5
7172
330
631A
100
AcDbEntity
  8
DEFPOINTS
 62
     0
100
AcDbPoint
 10
1935.887854788797
 20
-1267.536765516415
 30
0.0
  0
ENDBLK
  5
6325
330
631A
100
AcDbEntity
  8
0
100
AcDbBlockEnd
  0
BLOCK
  5
6330
330
6326
100
AcDbEntity
  8
0
100
AcDbBlockBegin
  2
*D10
 70
     1
 10
0.0
 20
0.0
 30
0.0
  3
*D10
  1

  0
LINE
  5
6FFE
330
6326
100
AcDbEntity
  8
寸法線
 62
     0
370
    -2
100
AcDbLine
 10
1280.793955963631
 20
-1428.536765516415
 30
0.0
 11
1403.543955963631
 21
-1428.536765516415
 31
0.0
  0
LINE
  5
6FFF
330
6326
100
AcDbEntity
  8
寸法線
 62
     0
370
    -2
100
AcDbLine
 10
1280.793955963631
 20
-1328.536765516415
 30
0.0
 11
1403.543955963631
 21
-1328.536765516415
 31
0.0
  0
LINE
  5
7000
330
6326
100
AcDbEntity
  8
寸法線
 62
     0
370
    -2
100
AcDbLine
 10
1397.543955963631
 20
-1413.536765516415
 30
0.0
 11
1397.543955963631
 21
-1343.536765516415
 31
0.0
  0
INSERT
  5
7001
330
6326
100
AcDbEntity
  8
寸法線
 62
     0
370
    -2
100
AcDbBlockReference
  2
_OPEN
 10
1397.543955963631
 20
-1428.536765516415
 30
0.0
 41
15.0
 42
15.0
 43
15.0
 50
270.0
  0
INSERT
  5
7002
330
6326
100
AcDbEntity
  8
寸法線
 62
     0
370
    -2
100
AcDbBlockReference
  2
_OPEN
 10
1397.543955963631
 20
-1328.536765516415
 30
0.0
 41
15.0
 42
15.0
 43
15.0
 50
90.0
  0
MTEXT
  5
7003
330
6326
100
AcDbEntity
  8
寸法線
 62
     0
100
AcDbMText
 10
1381.793955963631
 20
-1378.536765516415
 30
0.0
 40
21.0
 41
0.0
 71
     5
 72
     1
  1
\A1;b
 11
0.0000000000000001
 21
1.0
 31
0.0
 73
     1
 44
1.0
1001
ACAD
1000
MTEXTBEGIN
1070
    73
1070
     1
1070
    44
1040
1.0
1070
    74
1070
     0
1000
MTEXTEND
  0
POINT
  5
7004
330
6326
100
AcDbEntity
  8
DEFPOINTS
 62
     0
100
AcDbPoint
 10
1275.543955963631
 20
-1428.536765516415
 30
0.0
  0
POINT
  5
7005
330
6326
100
AcDbEntity
  8
DEFPOINTS
 62
     0
100
AcDbPoint
 10
1275.543955963631
 20
-1328.536765516415
 30
0.0
  0
POINT
  5
7006
330
6326
100
AcDbEntity
  8
DEFPOINTS
 62
     0
100
AcDbPoint
 10
1397.543955963631
 20
-1328.536765516415
 30
0.0
  0
ENDBLK
  5
6331
330
6326
100
AcDbEntity
  8
0
100
AcDbBlockEnd
  0
BLOCK
  5
6348
330
633E
100
AcDbEntity
  8
0
100
AcDbBlockBegin
  2
*D12
 70
     1
 10
0.0
 20
0.0
 30
0.0
  3
*D12
  1

  0
LINE
  5
7007
330
633E
100
AcDbEntity
  8
寸法線
 62
     0
370
    -2
100
AcDbLine
 10
1330.793955963631
 20
-1498.537
 30
0.0
 11
1451.543955963631
 21
-1498.537
 31
0.0
  0
LINE
  5
7008
330
633E
100
AcDbEntity
  8
寸法線
 62
     0
370
    -2
100
AcDbLine
 10
1330.794
 20
-1258.536765516415
 30
0.0
 11
1451.543955963631
 21
-1258.536765516415
 31
0.0
  0
LINE
  5
7009
330
633E
100
AcDbEntity
  8
寸法線
 62
     0
370
    -2
100
AcDbLine
 10
1445.543955963631
 20
-1483.537
 30
0.0
 11
1445.543955963631
 21
-1273.536765516415
 31
0.0
  0
INSERT
  5
700A
330
633E
100
AcDbEntity
  8
寸法線
 62
     0
370
    -2
100
AcDbBlockReference
  2
_OPEN
 10
1445.543955963631
 20
-1498.537
 30
0.0
 41
15.0
 42
15.0
 43
15.0
 50
270.0
  0
INSERT
  5
700B
330
633E
100
AcDbEntity
  8
寸法線
 62
     0
370
    -2
100
AcDbBlockReference
  2
_OPEN
 10
1445.543955963631
 20
-1258.536765516415
 30
0.0
 41
15.0
 42
15.0
 43
15.0
 50
90.0
  0
MTEXT
  5
700C
330
633E
100
AcDbEntity
  8
寸法線
 62
     0
100
AcDbMText
 10
1429.791889034497
 20
-1378.536882758207
 30
0.0
 40
21.0
 41
0.0
 71
     5
 72
     1
  1
\A1;240
 11
0.0000000000000001
 21
1.0
 31
0.0
 73
     1
 44
1.0
1001
ACAD
1000
MTEXTBEGIN
1070
    73
1070
     1
1070
    44
1040
1.0
1070
    74
1070
     0
1000
MTEXTEND
  0
POINT
  5
700D
330
633E
100
AcDbEntity
  8
DEFPOINTS
 62
     0
100
AcDbPoint
 10
1325.543955963631
 20
-1498.537
 30
0.0
  0
POINT
  5
700E
330
633E
100
AcDbEntity
  8
DEFPOINTS
 62
     0
100
AcDbPoint
 10
1325.544
 20
-1258.536765516415
 30
0.0
  0
POINT
  5
700F
330
633E
100
AcDbEntity
  8
DEFPOINTS
 62
     0
100
AcDbPoint
 10
1445.543955963631
 20
-1258.536765516415
 30
0.0
  0
ENDBLK
  5
6349
330
633E
100
AcDbEntity
  8
0
100
AcDbBlockEnd
  0
BLOCK
  5
6360
330
6356
100
AcDbEntity
  8
0
100
AcDbBlockBegin
  2
*D14
 70
     1
 10
0.0
 20
0.0
 30
0.0
  3
*D14
  1

  0
LINE
  5
732B
330
6356
100
AcDbEntity
  8
寸法線
 62
     0
370
    -2
100
AcDbLine
 10
1085.543955963631
 20
-1503.787
 30
0.0
 11
1085.543955963631
 21
-1634.537
 31
0.0
  0
LINE
  5
732C
330
6356
100
AcDbEntity
  8
寸法線
 62
     0
370
    -2
100
AcDbLine
 10
1325.543955963631
 20
-1503.787
 30
0.0
 11
1325.543955963631
 21
-1634.537
 31
0.0
  0
LINE
  5
732D
330
6356
100
AcDbEntity
  8
寸法線
 62
     0
370
    -2
100
AcDbLine
 10
1100.543955963631
 20
-1628.537
 30
0.0
 11
1310.543955963631
 21
-1628.537
 31
0.0
  0
INSERT
  5
732E
330
6356
100
AcDbEntity
  8
寸法線
 62
     0
370
    -2
100
AcDbBlockReference
  2
_OPEN
 10
1085.543955963631
 20
-1628.537
 30
0.0
 41
15.0
 42
15.0
 43
15.0
 50
180.0
  0
INSERT
  5
732F
330
6356
100
AcDbEntity
  8
寸法線
 62
     0
370
    -2
100
AcDbBlockReference
  2
_OPEN
 10
1325.543955963631
 20
-1628.537
 30
0.0
 41
15.0
 42
15.0
 43
15.0
  0
MTEXT
  5
7330
330
6356
100
AcDbEntity
  8
寸法線
 62
     0
100
AcDbMText
 10
1205.543955963631
 20
-1612.784933070866
 30
0.0
 40
21.0
 41
0.0
 71
     5
 72
     1
  1
\A1;240
 73
     1
 44
1.0
1001
ACAD
1000
MTEXTBEGIN
1070
    73
1070
     1
1070
    44
1040
1.0
1070
    74
1070
     0
1000
MTEXTEND
  0
POINT
  5
7331
330
6356
100
AcDbEntity
  8
DEFPOINTS
 62
     0
100
AcDbPoint
 10
1085.543955963631
 20
-1498.537
 30
0.0
  0
POINT
  5
7332
330
6356
100
AcDbEntity
  8
DEFPOINTS
 62
     0
100
AcDbPoint
 10
1325.543955963631
 20
-1498.537
 30
0.0
  0
POINT
  5
7333
330
6356
100
AcDbEntity
  8
DEFPOINTS
 62
     0
100
AcDbPoint
 10
1325.543955963631
 20
-1628.537
 30
0.0
  0
ENDBLK
  5
6361
330
6356
100
AcDbEntity
  8
0
100
AcDbBlockEnd
  0
BLOCK
  5
6378
330
636E
100
AcDbEntity
  8
0
100
AcDbBlockBegin
  2
*D16
 70
     1
 10
0.0
 20
0.0
 30
0.0
  3
*D16
  1

  0
LINE
  5
7322
330
636E
100
AcDbEntity
  8
寸法線
 62
     0
370
    -2
100
AcDbLine
 10
1155.543955963631
 20
-1453.786765516415
 30
0.0
 11
1155.543955963631
 21
-1586.537
 31
0.0
  0
LINE
  5
7323
330
636E
100
AcDbEntity
  8
寸法線
 62
     0
370
    -2
100
AcDbLine
 10
1255.543955963631
 20
-1453.786765516415
 30
0.0
 11
1255.543955963631
 21
-1586.537
 31
0.0
  0
LINE
  5
7324
330
636E
100
AcDbEntity
  8
寸法線
 62
     0
370
    -2
100
AcDbLine
 10
1170.543955963631
 20
-1580.537
 30
0.0
 11
1240.543955963631
 21
-1580.537
 31
0.0
  0
INSERT
  5
7325
330
636E
100
AcDbEntity
  8
寸法線
 62
     0
370
    -2
100
AcDbBlockReference
  2
_OPEN
 10
1155.543955963631
 20
-1580.537
 30
0.0
 41
15.0
 42
15.0
 43
15.0
 50
180.0
  0
INSERT
  5
7326
330
636E
100
AcDbEntity
  8
寸法線
 62
     0
370
    -2
100
AcDbBlockReference
  2
_OPEN
 10
1255.543955963631
 20
-1580.537
 30
0.0
 41
15.0
 42
15.0
 43
15.0
  0
MTEXT
  5
7327
330
636E
100
AcDbEntity
  8
寸法線
 62
     0
100
AcDbMText
 10
1205.543955963631
 20
-1564.787
 30
0.0
 40
21.0
 41
0.0
 71
     5
 72
     1
  1
\A1;a
 73
     1
 44
1.0
1001
ACAD
1000
MTEXTBEGIN
1070
    73
1070
     1
1070
    44
1040
1.0
1070
    74
1070
     0
1000
MTEXTEND
  0
POINT
  5
7328
330
636E
100
AcDbEntity
  8
DEFPOINTS
 62
     0
100
AcDbPoint
 10
1155.543955963631
 20
-1448.536765516415
 30
0.0
  0
POINT
  5
7329
330
636E
100
AcDbEntity
  8
DEFPOINTS
 62
     0
100
AcDbPoint
 10
1255.543955963631
 20
-1448.536765516415
 30
0.0
  0
POINT
  5
732A
330
636E
100
AcDbEntity
  8
DEFPOINTS
 62
     0
100
AcDbPoint
 10
1255.543955963631
 20
-1580.537
 30
0.0
  0
ENDBLK
  5
6379
330
636E
100
AcDbEntity
  8
0
100
AcDbBlockEnd
  0
BLOCK
  5
63A0
330
6396
100
AcDbEntity
  8
0
100
AcDbBlockBegin
  2
*D19
 70
     1
 10
0.0
 20
0.0
 30
0.0
  3
*D19
  1

  0
LINE
  5
72EB
330
6396
100
AcDbEntity
  8
寸法線
 62
     0
370
    -2
100
AcDbLine
 10
1818.887854788797
 20
-1494.786765516415
 30
0.0
 11
1818.887854788797
 21
-1586.537
 31
0.0
  0
LINE
  5
72EC
330
6396
100
AcDbEntity
  8
寸法線
 62
     0
370
    -2
100
AcDbLine
 10
1977.887854788797
 20
-1513.786765516415
 30
0.0
 11
1977.887854788797
 21
-1586.537
 31
0.0
  0
LINE
  5
72ED
330
6396
100
AcDbEntity
  8
寸法線
 62
     0
370
    -2
100
AcDbLine
 10
1833.887854788797
 20
-1580.537
 30
0.0
 11
1962.887854788797
 21
-1580.537
 31
0.0
  0
INSERT
  5
72EE
330
6396
100
AcDbEntity
  8
寸法線
 62
     0
370
    -2
100
AcDbBlockReference
  2
_OPEN
 10
1818.887854788797
 20
-1580.537
 30
0.0
 41
15.0
 42
15.0
 43
15.0
 50
180.0
  0
INSERT
  5
72EF
330
6396
100
AcDbEntity
  8
寸法線
 62
     0
370
    -2
100
AcDbBlockReference
  2
_OPEN
 10
1977.887854788797
 20
-1580.537
 30
0.0
 41
15.0
 42
15.0
 43
15.0
  0
MTEXT
  5
72F0
330
6396
100
AcDbEntity
  8
寸法線
 62
     0
100
AcDbMText
 10
1898.387854788797
 20
-1564.787
 30
0.0
 40
21.0
 41
0.0
 71
     5
 72
     1
  1
\A1;159
 73
     1
 44
1.0
1001
ACAD
1000
MTEXTBEGIN
1070
    73
1070
     1
1070
    44
1040
1.0
1070
    74
1070
     0
1000
MTEXTEND
  0
POINT
  5
72F1
330
6396
100
AcDbEntity
  8
DEFPOINTS
 62
     0
100
AcDbPoint
 10
1818.887854788797
 20
-1489.536765516415
 30
0.0
  0
POINT
  5
72F2
330
6396
100
AcDbEntity
  8
DEFPOINTS
 62
     0
100
AcDbPoint
 10
1977.887854788797
 20
-1508.536765516415
 30
0.0
  0
POINT
  5
72F3
330
6396
100
AcDbEntity
  8
DEFPOINTS
 62
     0
100
AcDbPoint
 10
1977.887854788797
 20
-1580.537
 30
0.0
  0
ENDBLK
  5
63A1
330
6396
100
AcDbEntity
  8
0
100
AcDbBlockEnd
  0
BLOCK
  5
63AE
330
63A2
100
AcDbEntity
  8
0
100
AcDbBlockBegin
  2
*D20
 70
     1
 10
0.0
 20
0.0
 30
0.0
  3
*D20
  1

  0
LINE
  5
70BF
330
63A2
100
AcDbEntity
  8
寸法線
 62
     0
370
    -2
100
AcDbLine
 10
1793.887854788797
 20
-1523.786765516414
 30
0.0
 11
1793.887854788797
 21
-1586.537
 31
0.0
  0
LINE
  5
70C0
330
63A2
100
AcDbEntity
  8
寸法線
 62
     0
370
    -2
100
AcDbLine
 10
1818.887854788797
 20
-1494.786765516415
 30
0.0
 11
1818.887854788797
 21
-1586.537
 31
0.0
  0
LINE
  5
70C1
330
63A2
100
AcDbEntity
  8
寸法線
 62
     0
370
    -2
100
AcDbLine
 10
1778.887854788797
 20
-1580.537
 30
0.0
 11
1763.887854788797
 21
-1580.537
 31
0.0
  0
LINE
  5
70C2
330
63A2
100
AcDbEntity
  8
寸法線
 62
     0
370
    -2
100
AcDbLine
 10
1833.887854788797
 20
-1580.537
 30
0.0
 11
1848.887854788797
 21
-1580.537
 31
0.0
  0
LINE
  5
70C3
330
63A2
100
AcDbEntity
  8
寸法線
 62
     0
370
    -2
100
AcDbLine
 10
1793.887854788797
 20
-1580.537
 30
0.0
 11
1818.887854788797
 21
-1580.537
 31
0.0
  0
INSERT
  5
70C4
330
63A2
100
AcDbEntity
  8
寸法線
 62
     0
370
    -2
100
AcDbBlockReference
  2
_OPEN
 10
1793.887854788797
 20
-1580.537
 30
0.0
 41
15.0
 42
15.0
 43
15.0
  0
INSERT
  5
70C5
330
63A2
100
AcDbEntity
  8
寸法線
 62
     0
370
    -2
100
AcDbBlockReference
  2
_OPEN
 10
1818.887854788797
 20
-1580.537
 30
0.0
 41
15.0
 42
15.0
 43
15.0
 50
180.0
  0
MTEXT
  5
70C6
330
63A2
100
AcDbEntity
  8
寸法線
 62
     0
100
AcDbMText
 10
1806.387854788797
 20
-1564.784933070866
 30
0.0
 40
21.0
 41
0.0
 71
     5
 72
     1
  1
\A1;25
 73
     1
 44
1.0
1001
ACAD
1000
MTEXTBEGIN
1070
    73
1070
     1
1070
    44
1040
1.0
1070
    74
1070
     0
1000
MTEXTEND
  0
POINT
  5
70C7
330
63A2
100
AcDbEntity
  8
DEFPOINTS
 62
     0
100
AcDbPoint
 10
1793.887854788797
 20
-1518.536765516414
 30
0.0
  0
POINT
  5
70C8
330
63A2
100
AcDbEntity
  8
DEFPOINTS
 62
     0
100
AcDbPoint
 10
1818.887854788797
 20
-1489.536765516415
 30
0.0
  0
POINT
  5
70C9
330
63A2
100
AcDbEntity
  8
DEFPOINTS
 62
     0
100
AcDbPoint
 10
1818.887854788797
 20
-1580.537
 30
0.0
  0
ENDBLK
  5
63AF
330
63A2
100
AcDbEntity
  8
0
100
AcDbBlockEnd
  0
BLOCK
  5
63CC
330
63BE
100
AcDbEntity
  8
0
100
AcDbBlockBegin
  2
*D22
 70
     1
 10
0.0
 20
0.0
 30
0.0
  3
*D22
  1

  0
LINE
  5
70CA
330
63BE
100
AcDbEntity
  8
寸法線
 62
     0
370
    -2
100
AcDbLine
 10
1781.887854788797
 20
-1503.787
 30
0.0
 11
1781.887854788797
 21
-1634.537
 31
0.0
  0
LINE
  5
70CB
330
63BE
100
AcDbEntity
  8
寸法線
 62
     0
370
    -2
100
AcDbLine
 10
1793.887854788797
 20
-1503.787
 30
0.0
 11
1793.887854788797
 21
-1634.537
 31
0.0
  0
LINE
  5
70CC
330
63BE
100
AcDbEntity
  8
寸法線
 62
     0
370
    -2
100
AcDbLine
 10
1766.887854788797
 20
-1628.537
 30
0.0
 11
1751.887854788797
 21
-1628.537
 31
0.0
  0
LINE
  5
70CD
330
63BE
100
AcDbEntity
  8
寸法線
 62
     0
370
    -2
100
AcDbLine
 10
1808.887854788797
 20
-1628.537
 30
0.0
 11
1823.887854788797
 21
-1628.537
 31
0.0
  0
LINE
  5
70CE
330
63BE
100
AcDbEntity
  8
寸法線
 62
     0
370
    -2
100
AcDbLine
 10
1781.887854788797
 20
-1628.537
 30
0.0
 11
1793.887854788797
 21
-1628.537
 31
0.0
  0
INSERT
  5
70CF
330
63BE
100
AcDbEntity
  8
寸法線
 62
     0
370
    -2
100
AcDbBlockReference
  2
_OPEN
 10
1781.887854788797
 20
-1628.537
 30
0.0
 41
15.0
 42
15.0
 43
15.0
  0
INSERT
  5
70D0
330
63BE
100
AcDbEntity
  8
寸法線
 62
     0
370
    -2
100
AcDbBlockReference
  2
_OPEN
 10
1793.887854788797
 20
-1628.537
 30
0.0
 41
15.0
 42
15.0
 43
15.0
 50
180.0
  0
MTEXT
  5
70D1
330
63BE
100
AcDbEntity
  8
寸法線
 62
     0
100
AcDbMText
 10
1787.887854788797
 20
-1612.784933070866
 30
0.0
 40
21.0
 41
0.0
 71
     5
 72
     1
  1
\A1;12
 73
     1
 44
1.0
1001
ACAD
1000
MTEXTBEGIN
1070
    73
1070
     1
1070
    44
1040
1.0
1070
    74
1070
     0
1000
MTEXTEND
  0
POINT
  5
70D2
330
63BE
100
AcDbEntity
  8
DEFPOINTS
 62
     0
100
AcDbPoint
 10
1781.887854788797
 20
-1498.537
 30
0.0
  0
POINT
  5
70D3
330
63BE
100
AcDbEntity
  8
DEFPOINTS
 62
     0
100
AcDbPoint
 10
1793.887854788797
 20
-1498.537
 30
0.0
  0
POINT
  5
70D4
330
63BE
100
AcDbEntity
  8
DEFPOINTS
 62
     0
100
AcDbPoint
 10
1793.887854788797
 20
-1628.537
 30
0.0
  0
ENDBLK
  5
63CD
330
63BE
100
AcDbEntity
  8
0
100
AcDbBlockEnd
  0
BLOCK
  5
63D8
330
63CE
100
AcDbEntity
  8
0
100
AcDbBlockBegin
  2
*D23
 70
     1
 10
0.0
 20
0.0
 30
0.0
  3
*D23
  1

  0
LINE
  5
7306
330
63CE
100
AcDbEntity
  8
寸法線
 62
     0
370
    -2
100
AcDbLine
 10
1793.887854788797
 20
-1523.786765516414
 30
0.0
 11
1793.887854788797
 21
-1634.537
 31
0.0
  0
LINE
  5
7307
330
63CE
100
AcDbEntity
  8
寸法線
 62
     0
370
    -2
100
AcDbLine
 10
1977.887854788797
 20
-1513.786765516415
 30
0.0
 11
1977.887854788797
 21
-1634.537
 31
0.0
  0
LINE
  5
7308
330
63CE
100
AcDbEntity
  8
寸法線
 62
     0
370
    -2
100
AcDbLine
 10
1808.887854788797
 20
-1628.537
 30
0.0
 11
1962.887854788797
 21
-1628.537
 31
0.0
  0
INSERT
  5
7309
330
63CE
100
AcDbEntity
  8
寸法線
 62
     0
370
    -2
100
AcDbBlockReference
  2
_OPEN
 10
1793.887854788797
 20
-1628.537
 30
0.0
 41
15.0
 42
15.0
 43
15.0
 50
180.0
  0
INSERT
  5
730A
330
63CE
100
AcDbEntity
  8
寸法線
 62
     0
370
    -2
100
AcDbBlockReference
  2
_OPEN
 10
1977.887854788797
 20
-1628.537
 30
0.0
 41
15.0
 42
15.0
 43
15.0
  0
MTEXT
  5
730B
330
63CE
100
AcDbEntity
  8
寸法線
 62
     0
100
AcDbMText
 10
1885.887854788797
 20
-1612.787
 30
0.0
 40
21.0
 41
0.0
 71
     5
 72
     1
  1
\A1;184
 73
     1
 44
1.0
1001
ACAD
1000
MTEXTBEGIN
1070
    73
1070
     1
1070
    44
1040
1.0
1070
    74
1070
     0
1000
MTEXTEND
  0
POINT
  5
730C
330
63CE
100
AcDbEntity
  8
DEFPOINTS
 62
     0
100
AcDbPoint
 10
1793.887854788797
 20
-1518.536765516414
 30
0.0
  0
POINT
  5
730D
330
63CE
100
AcDbEntity
  8
DEFPOINTS
 62
     0
100
AcDbPoint
 10
1977.887854788797
 20
-1508.536765516415
 30
0.0
  0
POINT
  5
730E
330
63CE
100
AcDbEntity
  8
DEFPOINTS
 62
     0
100
AcDbPoint
 10
1977.887854788797
 20
-1628.537
 30
0.0
  0
ENDBLK
  5
63D9
330
63CE
100
AcDbEntity
  8
0
100
AcDbBlockEnd
  0
BLOCK
  5
6444
330
643A
100
AcDbEntity
  8
0
100
AcDbBlockBegin
  2
*D31
 70
     1
 10
0.0
 20
0.0
 30
0.0
  3
*D31
  1

  0
LINE
  5
726F
330
643A
100
AcDbEntity
  8
寸法線
 62
     0
370
    -2
100
AcDbLine
 10
2390.407751216063
 20
-1468.536765516414
 30
0.0
 11
2343.657751216063
 21
-1468.536765516414
 31
0.0
  0
LINE
  5
7270
330
643A
100
AcDbEntity
  8
寸法線
 62
     0
370
    -2
100
AcDbLine
 10
2390.407751216063
 20
-1288.536765516415
 30
0.0
 11
2343.657751216063
 21
-1288.536765516415
 31
0.0
  0
LINE
  5
7271
330
643A
100
AcDbEntity
  8
寸法線
 62
     0
370
    -2
100
AcDbLine
 10
2349.657751216062
 20
-1453.536765516414
 30
0.0
 11
2349.657751216062
 21
-1303.536765516415
 31
0.0
  0
INSERT
  5
7272
330
643A
100
AcDbEntity
  8
寸法線
 62
     0
370
    -2
100
AcDbBlockReference
  2
_OPEN
 10
2349.657751216062
 20
-1468.536765516414
 30
0.0
 41
15.0
 42
15.0
 43
15.0
 50
270.0
  0
INSERT
  5
7273
330
643A
100
AcDbEntity
  8
寸法線
 62
     0
370
    -2
100
AcDbBlockReference
  2
_OPEN
 10
2349.657751216062
 20
-1288.536765516415
 30
0.0
 41
15.0
 42
15.0
 43
15.0
 50
90.0
  0
MTEXT
  5
7274
330
643A
100
AcDbEntity
  8
寸法線
 62
     0
100
AcDbMText
 10
2333.907751216063
 20
-1378.536765516418
 30
0.0
 40
21.0
 41
0.0
 71
     5
 72
     1
  1
\A1;180
 11
0.0000000000000001
 21
1.0
 31
0.0
 73
     1
 44
1.0
1001
ACAD
1000
MTEXTBEGIN
1070
    73
1070
     1
1070
    44
1040
1.0
1070
    74
1070
     0
1000
MTEXTEND
  0
POINT
  5
7275
330
643A
100
AcDbEntity
  8
DEFPOINTS
 62
     0
100
AcDbPoint
 10
2395.657751216063
 20
-1468.536765516414
 30
0.0
  0
POINT
  5
7276
330
643A
100
AcDbEntity
  8
DEFPOINTS
 62
     0
100
AcDbPoint
 10
2395.657751216063
 20
-1288.536765516415
 30
0.0
  0
POINT
  5
7277
330
643A
100
AcDbEntity
  8
DEFPOINTS
 62
     0
100
AcDbPoint
 10
2349.657751216062
 20
-1288.536765516415
 30
0.0
  0
ENDBLK
  5
6445
330
643A
100
AcDbEntity
  8
0
100
AcDbBlockEnd
  0
BLOCK
  5
645C
330
6452
100
AcDbEntity
  8
0
100
AcDbBlockBegin
  2
*D33
 70
     1
 10
0.0
 20
0.0
 30
0.0
  3
*D33
  1

  0
LINE
  5
72FD
330
6452
100
AcDbEntity
  8
寸法線
 62
     0
370
    -2
100
AcDbLine
 10
2397.657751216062
 20
-1513.787
 30
0.0
 11
2397.657751216062
 21
-1634.537
 31
0.0
  0
LINE
  5
72FE
330
6452
100
AcDbEntity
  8
寸法線
 62
     0
370
    -2
100
AcDbLine
 10
2657.657751216066
 20
-1513.787
 30
0.0
 11
2657.657751216066
 21
-1634.537
 31
0.0
  0
LINE
  5
72FF
330
6452
100
AcDbEntity
  8
寸法線
 62
     0
370
    -2
100
AcDbLine
 10
2412.657751216062
 20
-1628.537
 30
0.0
 11
2642.657751216066
 21
-1628.537
 31
0.0
  0
INSERT
  5
7300
330
6452
100
AcDbEntity
  8
寸法線
 62
     0
370
    -2
100
AcDbBlockReference
  2
_OPEN
 10
2397.657751216062
 20
-1628.537
 30
0.0
 41
15.0
 42
15.0
 43
15.0
 50
180.0
  0
INSERT
  5
7301
330
6452
100
AcDbEntity
  8
寸法線
 62
     0
370
    -2
100
AcDbBlockReference
  2
_OPEN
 10
2657.657751216066
 20
-1628.537
 30
0.0
 41
15.0
 42
15.0
 43
15.0
  0
MTEXT
  5
7302
330
6452
100
AcDbEntity
  8
寸法線
 62
     0
100
AcDbMText
 10
2527.657751216064
 20
-1612.784933070866
 30
0.0
 40
21.0
 41
0.0
 71
     5
 72
     1
  1
\A1;260
 73
     1
 44
1.0
1001
ACAD
1000
MTEXTBEGIN
1070
    73
1070
     1
1070
    44
1040
1.0
1070
    74
1070
     0
1000
MTEXTEND
  0
POINT
  5
7303
330
6452
100
AcDbEntity
  8
DEFPOINTS
 62
     0
100
AcDbPoint
 10
2397.657751216062
 20
-1508.537
 30
0.0
  0
POINT
  5
7304
330
6452
100
AcDbEntity
  8
DEFPOINTS
 62
     0
100
AcDbPoint
 10
2657.657751216066
 20
-1508.537
 30
0.0
  0
POINT
  5
7305
330
6452
100
AcDbEntity
  8
DEFPOINTS
 62
     0
100
AcDbPoint
 10
2657.657751216066
 20
-1628.537
 30
0.0
  0
ENDBLK
  5
645D
330
6452
100
AcDbEntity
  8
0
100
AcDbBlockEnd
  0
BLOCK
  5
6468
330
645E
100
AcDbEntity
  8
0
100
AcDbBlockBegin
  2
*D34
 70
     1
 10
0.0
 20
0.0
 30
0.0
  3
*D34
  1

  0
LINE
  5
72F4
330
645E
100
AcDbEntity
  8
寸法線
 62
     0
370
    -2
100
AcDbLine
 10
2472.657751216063
 20
-1462.786765516415
 30
0.0
 11
2472.657751216063
 21
-1586.537
 31
0.0
  0
LINE
  5
72F5
330
645E
100
AcDbEntity
  8
寸法線
 62
     0
370
    -2
100
AcDbLine
 10
2582.657751216063
 20
-1462.786765516415
 30
0.0
 11
2582.657751216063
 21
-1586.537
 31
0.0
  0
LINE
  5
72F6
330
645E
100
AcDbEntity
  8
寸法線
 62
     0
370
    -2
100
AcDbLine
 10
2487.657751216063
 20
-1580.537
 30
0.0
 11
2567.657751216063
 21
-1580.537
 31
0.0
  0
INSERT
  5
72F7
330
645E
100
AcDbEntity
  8
寸法線
 62
     0
370
    -2
100
AcDbBlockReference
  2
_OPEN
 10
2472.657751216063
 20
-1580.537
 30
0.0
 41
15.0
 42
15.0
 43
15.0
 50
180.0
  0
INSERT
  5
72F8
330
645E
100
AcDbEntity
  8
寸法線
 62
     0
370
    -2
100
AcDbBlockReference
  2
_OPEN
 10
2582.657751216063
 20
-1580.537
 30
0.0
 41
15.0
 42
15.0
 43
15.0
  0
MTEXT
  5
72F9
330
645E
100
AcDbEntity
  8
寸法線
 62
     0
100
AcDbMText
 10
2527.657751216063
 20
-1564.787
 30
0.0
 40
21.0
 41
0.0
 71
     5
 72
     1
  1
\A1;110
 73
     1
 44
1.0
1001
ACAD
1000
MTEXTBEGIN
1070
    73
1070
     1
1070
    44
1040
1.0
1070
    74
1070
     0
1000
MTEXTEND
  0
POINT
  5
72FA
330
645E
100
AcDbEntity
  8
DEFPOINTS
 62
     0
100
AcDbPoint
 10
2472.657751216063
 20
-1457.536765516415
 30
0.0
  0
POINT
  5
72FB
330
645E
100
AcDbEntity
  8
DEFPOINTS
 62
     0
100
AcDbPoint
 10
2582.657751216063
 20
-1457.536765516415
 30
0.0
  0
POINT
  5
72FC
330
645E
100
AcDbEntity
  8
DEFPOINTS
 62
     0
100
AcDbPoint
 10
2582.657751216063
 20
-1580.537
 30
0.0
  0
ENDBLK
  5
6469
330
645E
100
AcDbEntity
  8
0
100
AcDbBlockEnd
  0
BLOCK
  5
6476
330
646A
100
AcDbEntity
  8
0
100
AcDbBlockBegin
  2
*D35
 70
     1
 10
0.0
 20
0.0
 30
0.0
  3
*D35
  1

  0
LINE
  5
725B
330
646A
100
AcDbEntity
  8
寸法線
 62
     0
370
    -2
100
AcDbLine
 10
2392.407751216062
 20
-1508.537
 30
0.0
 11
2343.657751216063
 21
-1508.537
 31
0.0
  0
LINE
  5
725C
330
646A
100
AcDbEntity
  8
寸法線
 62
     0
370
    -2
100
AcDbLine
 10
2390.407751216063
 20
-1468.536765516414
 30
0.0
 11
2343.657751216063
 21
-1468.536765516414
 31
0.0
  0
LINE
  5
725D
330
646A
100
AcDbEntity
  8
寸法線
 62
     0
370
    -2
100
AcDbLine
 10
2349.657751216062
 20
-1523.537
 30
0.0
 11
2349.657751216062
 21
-1538.537
 31
0.0
  0
LINE
  5
725E
330
646A
100
AcDbEntity
  8
寸法線
 62
     0
370
    -2
100
AcDbLine
 10
2349.657751216062
 20
-1453.536765516414
 30
0.0
 11
2349.657751216062
 21
-1438.536765516414
 31
0.0
  0
LINE
  5
725F
330
646A
100
AcDbEntity
  8
寸法線
 62
     0
370
    -2
100
AcDbLine
 10
2349.657751216062
 20
-1508.537
 30
0.0
 11
2349.657751216062
 21
-1468.536765516414
 31
0.0
  0
INSERT
  5
7260
330
646A
100
AcDbEntity
  8
寸法線
 62
     0
370
    -2
100
AcDbBlockReference
  2
_OPEN
 10
2349.657751216062
 20
-1508.537
 30
0.0
 41
15.0
 42
15.0
 43
15.0
 50
90.0
  0
INSERT
  5
7261
330
646A
100
AcDbEntity
  8
寸法線
 62
     0
370
    -2
100
AcDbBlockReference
  2
_OPEN
 10
2349.657751216062
 20
-1468.536765516414
 30
0.0
 41
15.0
 42
15.0
 43
15.0
 50
270.0
  0
MTEXT
  5
7262
330
646A
100
AcDbEntity
  8
寸法線
 62
     0
100
AcDbMText
 10
2333.907751216063
 20
-1488.536882758207
 30
0.0
 40
21.0
 41
0.0
 71
     5
 72
     1
  1
\A1;40
 11
0.0000000000000001
 21
1.0
 31
0.0
 73
     1
 44
1.0
1001
ACAD
1000
MTEXTBEGIN
1070
    73
1070
     1
1070
    44
1040
1.0
1070
    74
1070
     0
1000
MTEXTEND
  0
POINT
  5
7263
330
646A
100
AcDbEntity
  8
DEFPOINTS
 62
     0
100
AcDbPoint
 10
2397.657751216062
 20
-1508.537
 30
0.0
  0
POINT
  5
7264
330
646A
100
AcDbEntity
  8
DEFPOINTS
 62
     0
100
AcDbPoint
 10
2395.657751216063
 20
-1468.536765516414
 30
0.0
  0
POINT
  5
7265
330
646A
100
AcDbEntity
  8
DEFPOINTS
 62
     0
100
AcDbPoint
 10
2349.657751216062
 20
-1468.536765516414
 30
0.0
  0
ENDBLK
  5
6477
330
646A
100
AcDbEntity
  8
0
100
AcDbBlockEnd
  0
BLOCK
  5
6484
330
6478
100
AcDbEntity
  8
0
100
AcDbBlockBegin
  2
*D36
 70
     1
 10
0.0
 20
0.0
 30
0.0
  3
*D36
  1

  0
LINE
  5
710B
330
6478
100
AcDbEntity
  8
寸法線
 62
     0
370
    -2
100
AcDbLine
 10
2397.657751216062
 20
-1513.787
 30
0.0
 11
2397.657751216062
 21
-1586.537
 31
0.0
  0
LINE
  5
710C
330
6478
100
AcDbEntity
  8
寸法線
 62
     0
370
    -2
100
AcDbLine
 10
2472.657751216063
 20
-1462.786765516415
 30
0.0
 11
2472.657751216063
 21
-1586.537
 31
0.0
  0
LINE
  5
710D
330
6478
100
AcDbEntity
  8
寸法線
 62
     0
370
    -2
100
AcDbLine
 10
2412.657751216062
 20
-1580.537
 30
0.0
 11
2457.657751216063
 21
-1580.537
 31
0.0
  0
INSERT
  5
710E
330
6478
100
AcDbEntity
  8
寸法線
 62
     0
370
    -2
100
AcDbBlockReference
  2
_OPEN
 10
2397.657751216062
 20
-1580.537
 30
0.0
 41
15.0
 42
15.0
 43
15.0
 50
180.0
  0
INSERT
  5
710F
330
6478
100
AcDbEntity
  8
寸法線
 62
     0
370
    -2
100
AcDbBlockReference
  2
_OPEN
 10
2472.657751216063
 20
-1580.537
 30
0.0
 41
15.0
 42
15.0
 43
15.0
  0
MTEXT
  5
7110
330
6478
100
AcDbEntity
  8
寸法線
 62
     0
100
AcDbMText
 10
2435.157751216062
 20
-1564.787
 30
0.0
 40
21.0
 41
0.0
 71
     5
 72
     1
  1
\A1;75
 73
     1
 44
1.0
1001
ACAD
1000
MTEXTBEGIN
1070
    73
1070
     1
1070
    44
1040
1.0
1070
    74
1070
     0
1000
MTEXTEND
  0
POINT
  5
7111
330
6478
100
AcDbEntity
  8
DEFPOINTS
 62
     0
100
AcDbPoint
 10
2397.657751216062
 20
-1508.537
 30
0.0
  0
POINT
  5
7112
330
6478
100
AcDbEntity
  8
DEFPOINTS
 62
     0
100
AcDbPoint
 10
2472.657751216063
 20
-1457.536765516415
 30
0.0
  0
POINT
  5
7113
330
6478
100
AcDbEntity
  8
DEFPOINTS
 62
     0
100
AcDbPoint
 10
2472.657751216063
 20
-1580.537
 30
0.0
  0
ENDBLK
  5
6485
330
6478
100
AcDbEntity
  8
0
100
AcDbBlockEnd
  0
BLOCK
  5
6492
330
6486
100
AcDbEntity
  8
0
100
AcDbBlockBegin
  2
*D37
 70
     1
 10
0.0
 20
0.0
 30
0.0
  3
*D37
  1

  0
LINE
  5
7114
330
6486
100
AcDbEntity
  8
寸法線
 62
     0
370
    -2
100
AcDbLine
 10
2582.657751216063
 20
-1462.786765516415
 30
0.0
 11
2582.657751216063
 21
-1586.537
 31
0.0
  0
LINE
  5
7115
330
6486
100
AcDbEntity
  8
寸法線
 62
     0
370
    -2
100
AcDbLine
 10
2657.657751216066
 20
-1513.787
 30
0.0
 11
2657.657751216066
 21
-1586.537
 31
0.0
  0
LINE
  5
7116
330
6486
100
AcDbEntity
  8
寸法線
 62
     0
370
    -2
100
AcDbLine
 10
2597.657751216063
 20
-1580.537
 30
0.0
 11
2642.657751216066
 21
-1580.537
 31
0.0
  0
INSERT
  5
7117
330
6486
100
AcDbEntity
  8
寸法線
 62
     0
370
    -2
100
AcDbBlockReference
  2
_OPEN
 10
2582.657751216063
 20
-1580.537
 30
0.0
 41
15.0
 42
15.0
 43
15.0
 50
180.0
  0
INSERT
  5
7118
330
6486
100
AcDbEntity
  8
寸法線
 62
     0
370
    -2
100
AcDbBlockReference
  2
_OPEN
 10
2657.657751216066
 20
-1580.537
 30
0.0
 41
15.0
 42
15.0
 43
15.0
  0
MTEXT
  5
7119
330
6486
100
AcDbEntity
  8
寸法線
 62
     0
100
AcDbMText
 10
2620.157751216066
 20
-1564.787
 30
0.0
 40
21.0
 41
0.0
 71
     5
 72
     1
  1
\A1;75
 73
     1
 44
1.0
1001
ACAD
1000
MTEXTBEGIN
1070
    73
1070
     1
1070
    44
1040
1.0
1070
    74
1070
     0
1000
MTEXTEND
  0
POINT
  5
711A
330
6486
100
AcDbEntity
  8
DEFPOINTS
 62
     0
100
AcDbPoint
 10
2582.657751216063
 20
-1457.536765516415
 30
0.0
  0
POINT
  5
711B
330
6486
100
AcDbEntity
  8
DEFPOINTS
 62
     0
100
AcDbPoint
 10
2657.657751216066
 20
-1508.537
 30
0.0
  0
POINT
  5
711C
330
6486
100
AcDbEntity
  8
DEFPOINTS
 62
     0
100
AcDbPoint
 10
2657.657751216066
 20
-1580.537
 30
0.0
  0
ENDBLK
  5
6493
330
6486
100
AcDbEntity
  8
0
100
AcDbBlockEnd
  0
BLOCK
  5
64A0
330
6494
100
AcDbEntity
  8
0
100
AcDbBlockBegin
  2
*D38
 70
     1
 10
0.0
 20
0.0
 30
0.0
  3
*D38
  1

  0
LINE
  5
7283
330
6494
100
AcDbEntity
  8
寸法線
 62
     0
370
    -2
100
AcDbLine
 10
2390.407751216063
 20
-1288.536765516415
 30
0.0
 11
2343.657751216062
 21
-1288.536765516415
 31
0.0
  0
LINE
  5
7284
330
6494
100
AcDbEntity
  8
寸法線
 62
     0
370
    -2
100
AcDbLine
 10
2392.407751216062
 20
-1248.537
 30
0.0
 11
2343.657751216062
 21
-1248.537
 31
0.0
  0
LINE
  5
7285
330
6494
100
AcDbEntity
  8
寸法線
 62
     0
370
    -2
100
AcDbLine
 10
2349.657751216062
 20
-1303.536765516415
 30
0.0
 11
2349.657751216062
 21
-1318.536765516415
 31
0.0
  0
LINE
  5
7286
330
6494
100
AcDbEntity
  8
寸法線
 62
     0
370
    -2
100
AcDbLine
 10
2349.657751216062
 20
-1233.537
 30
0.0
 11
2349.657751216062
 21
-1218.537
 31
0.0
  0
LINE
  5
7287
330
6494
100
AcDbEntity
  8
寸法線
 62
     0
370
    -2
100
AcDbLine
 10
2349.657751216062
 20
-1288.536765516415
 30
0.0
 11
2349.657751216062
 21
-1248.537
 31
0.0
  0
INSERT
  5
7288
330
6494
100
AcDbEntity
  8
寸法線
 62
     0
370
    -2
100
AcDbBlockReference
  2
_OPEN
 10
2349.657751216062
 20
-1288.536765516415
 30
0.0
 41
15.0
 42
15.0
 43
15.0
 50
90.0
  0
INSERT
  5
7289
330
6494
100
AcDbEntity
  8
寸法線
 62
     0
370
    -2
100
AcDbBlockReference
  2
_OPEN
 10
2349.657751216062
 20
-1248.537
 30
0.0
 41
15.0
 42
15.0
 43
15.0
 50
270.0
  0
MTEXT
  5
728A
330
6494
100
AcDbEntity
  8
寸法線
 62
     0
100
AcDbMText
 10
2333.907751216063
 20
-1268.536882758207
 30
0.0
 40
21.0
 41
0.0
 71
     5
 72
     1
  1
\A1;40
 11
0.0000000000000001
 21
1.0
 31
0.0
 73
     1
 44
1.0
1001
ACAD
1000
MTEXTBEGIN
1070
    73
1070
     1
1070
    44
1040
1.0
1070
    74
1070
     0
1000
MTEXTEND
  0
POINT
  5
728B
330
6494
100
AcDbEntity
  8
DEFPOINTS
 62
     0
100
AcDbPoint
 10
2395.657751216063
 20
-1288.536765516415
 30
0.0
  0
POINT
  5
728C
330
6494
100
AcDbEntity
  8
DEFPOINTS
 62
     0
100
AcDbPoint
 10
2397.657751216062
 20
-1248.537
 30
0.0
  0
POINT
  5
728D
330
6494
100
AcDbEntity
  8
DEFPOINTS
 62
     0
100
AcDbPoint
 10
2349.657751216062
 20
-1248.537
 30
0.0
  0
ENDBLK
  5
64A1
330
6494
100
AcDbEntity
  8
0
100
AcDbBlockEnd
  0
BLOCK
  5
7227
330
721D
100
AcDbEntity
  8
0
100
AcDbBlockBegin
  2
*D55
 70
     1
 10
0.0
 20
0.0
 30
0.0
  3
*D55
  1

  0
LINE
  5
721E
330
721D
100
AcDbEntity
  8
寸法線
 62
     0
370
    -2
100
AcDbLine
 10
2662.907751216066
 20
-1248.537
 30
0.0
 11
2735.657751216066
 21
-1248.537
 31
0.0
  0
LINE
  5
721F
330
721D
100
AcDbEntity
  8
寸法線
 62
     0
370
    -2
100
AcDbLine
 10
2616.907751216062
 20
-1323.536765516415
 30
0.0
 11
2735.657751216066
 21
-1323.536765516415
 31
0.0
  0
LINE
  5
7220
330
721D
100
AcDbEntity
  8
寸法線
 62
     0
370
    -2
100
AcDbLine
 10
2729.657751216067
 20
-1263.537
 30
0.0
 11
2729.657751216067
 21
-1308.536765516415
 31
0.0
  0
INSERT
  5
7221
330
721D
100
AcDbEntity
  8
寸法線
 62
     0
370
    -2
100
AcDbBlockReference
  2
_OPEN
 10
2729.657751216067
 20
-1248.537
 30
0.0
 41
15.0
 42
15.0
 43
15.0
 50
90.0
  0
INSERT
  5
7222
330
721D
100
AcDbEntity
  8
寸法線
 62
     0
370
    -2
100
AcDbBlockReference
  2
_OPEN
 10
2729.657751216067
 20
-1323.536765516415
 30
0.0
 41
15.0
 42
15.0
 43
15.0
 50
270.0
  0
MTEXT
  5
7223
330
721D
100
AcDbEntity
  8
寸法線
 62
     0
100
AcDbMText
 10
2713.907751216067
 20
-1286.036882758207
 30
0.0
 40
21.0
 41
0.0
 71
     5
 72
     1
  1
\A1;75
 11
0.0000000000000001
 21
1.0
 31
0.0
 73
     1
 44
1.0
1001
ACAD
1000
MTEXTBEGIN
1070
    73
1070
     1
1070
    44
1040
1.0
1070
    74
1070
     0
1000
MTEXTEND
  0
POINT
  5
7224
330
721D
100
AcDbEntity
  8
DEFPOINTS
 62
     0
100
AcDbPoint
 10
2657.657751216066
 20
-1248.537
 30
0.0
  0
POINT
  5
7225
330
721D
100
AcDbEntity
  8
DEFPOINTS
 62
     0
100
AcDbPoint
 10
2611.657751216062
 20
-1323.536765516415
 30
0.0
  0
POINT
  5
7226
330
721D
100
AcDbEntity
  8
DEFPOINTS
 62
     0
100
AcDbPoint
 10
2729.657751216067
 20
-1323.536765516415
 30
0.0
  0
ENDBLK
  5
7228
330
721D
100
AcDbEntity
  8
0
100
AcDbBlockEnd
  0
BLOCK
  5
7234
330
722A
100
AcDbEntity
  8
0
100
AcDbBlockBegin
  2
*D56
 70
     1
 10
0.0
 20
0.0
 30
0.0
  3
*D56
  1

  0
LINE
  5
722B
330
722A
100
AcDbEntity
  8
寸法線
 62
     0
370
    -2
100
AcDbLine
 10
2616.907751216062
 20
-1323.536765516415
 30
0.0
 11
2735.657751216066
 21
-1323.536765516415
 31
0.0
  0
LINE
  5
722C
330
722A
100
AcDbEntity
  8
寸法線
 62
     0
370
    -2
100
AcDbLine
 10
2616.907751216062
 20
-1433.536765516415
 30
0.0
 11
2735.657751216066
 21
-1433.536765516415
 31
0.0
  0
LINE
  5
722D
330
722A
100
AcDbEntity
  8
寸法線
 62
     0
370
    -2
100
AcDbLine
 10
2729.657751216067
 20
-1338.536765516415
 30
0.0
 11
2729.657751216067
 21
-1418.536765516415
 31
0.0
  0
INSERT
  5
722E
330
722A
100
AcDbEntity
  8
寸法線
 62
     0
370
    -2
100
AcDbBlockReference
  2
_OPEN
 10
2729.657751216067
 20
-1323.536765516415
 30
0.0
 41
15.0
 42
15.0
 43
15.0
 50
90.0
  0
INSERT
  5
722F
330
722A
100
AcDbEntity
  8
寸法線
 62
     0
370
    -2
100
AcDbBlockReference
  2
_OPEN
 10
2729.657751216067
 20
-1433.536765516415
 30
0.0
 41
15.0
 42
15.0
 43
15.0
 50
270.0
  0
MTEXT
  5
7230
330
722A
100
AcDbEntity
  8
寸法線
 62
     0
100
AcDbMText
 10
2713.907751216067
 20
-1378.536765516414
 30
0.0
 40
21.0
 41
0.0
 71
     5
 72
     1
  1
\A1;110
 11
0.0000000000000001
 21
1.0
 31
0.0
 73
     1
 44
1.0
1001
ACAD
1000
MTEXTBEGIN
1070
    73
1070
     1
1070
    44
1040
1.0
1070
    74
1070
     0
1000
MTEXTEND
  0
POINT
  5
7231
330
722A
100
AcDbEntity
  8
DEFPOINTS
 62
     0
100
AcDbPoint
 10
2611.657751216062
 20
-1323.536765516415
 30
0.0
  0
POINT
  5
7232
330
722A
100
AcDbEntity
  8
DEFPOINTS
 62
     0
100
AcDbPoint
 10
2611.657751216062
 20
-1433.536765516415
 30
0.0
  0
POINT
  5
7233
330
722A
100
AcDbEntity
  8
DEFPOINTS
 62
     0
100
AcDbPoint
 10
2729.657751216067
 20
-1433.536765516415
 30
0.0
  0
ENDBLK
  5
7235
330
722A
100
AcDbEntity
  8
0
100
AcDbBlockEnd
  0
BLOCK
  5
7241
330
7237
100
AcDbEntity
  8
0
100
AcDbBlockBegin
  2
*D57
 70
     1
 10
0.0
 20
0.0
 30
0.0
  3
*D57
  1

  0
LINE
  5
7238
330
7237
100
AcDbEntity
  8
寸法線
 62
     0
370
    -2
100
AcDbLine
 10
2616.907751216062
 20
-1433.536765516415
 30
0.0
 11
2735.657751216066
 21
-1433.536765516415
 31
0.0
  0
LINE
  5
7239
330
7237
100
AcDbEntity
  8
寸法線
 62
     0
370
    -2
100
AcDbLine
 10
2662.907751216066
 20
-1508.537
 30
0.0
 11
2735.657751216066
 21
-1508.537
 31
0.0
  0
LINE
  5
723A
330
7237
100
AcDbEntity
  8
寸法線
 62
     0
370
    -2
100
AcDbLine
 10
2729.657751216067
 20
-1448.536765516415
 30
0.0
 11
2729.657751216067
 21
-1493.537
 31
0.0
  0
INSERT
  5
723B
330
7237
100
AcDbEntity
  8
寸法線
 62
     0
370
    -2
100
AcDbBlockReference
  2
_OPEN
 10
2729.657751216067
 20
-1433.536765516415
 30
0.0
 41
15.0
 42
15.0
 43
15.0
 50
90.0
  0
INSERT
  5
723C
330
7237
100
AcDbEntity
  8
寸法線
 62
     0
370
    -2
100
AcDbBlockReference
  2
_OPEN
 10
2729.657751216067
 20
-1508.537
 30
0.0
 41
15.0
 42
15.0
 43
15.0
 50
270.0
  0
MTEXT
  5
723D
330
7237
100
AcDbEntity
  8
寸法線
 62
     0
100
AcDbMText
 10
2713.907751216067
 20
-1471.036882758207
 30
0.0
 40
21.0
 41
0.0
 71
     5
 72
     1
  1
\A1;75
 11
0.0000000000000001
 21
1.0
 31
0.0
 73
     1
 44
1.0
1001
ACAD
1000
MTEXTBEGIN
1070
    73
1070
     1
1070
    44
1040
1.0
1070
    74
1070
     0
1000
MTEXTEND
  0
POINT
  5
723E
330
7237
100
AcDbEntity
  8
DEFPOINTS
 62
     0
100
AcDbPoint
 10
2611.657751216062
 20
-1433.536765516415
 30
0.0
  0
POINT
  5
723F
330
7237
100
AcDbEntity
  8
DEFPOINTS
 62
     0
100
AcDbPoint
 10
2657.657751216066
 20
-1508.537
 30
0.0
  0
POINT
  5
7240
330
7237
100
AcDbEntity
  8
DEFPOINTS
 62
     0
100
AcDbPoint
 10
2729.657751216067
 20
-1508.537
 30
0.0
  0
ENDBLK
  5
7242
330
7237
100
AcDbEntity
  8
0
100
AcDbBlockEnd
  0
BLOCK
  5
724E
330
7244
100
AcDbEntity
  8
0
100
AcDbBlockBegin
  2
*D58
 70
     1
 10
0.0
 20
0.0
 30
0.0
  3
*D58
  1

  0
LINE
  5
7245
330
7244
100
AcDbEntity
  8
寸法線
 62
     0
370
    -2
100
AcDbLine
 10
2662.907751216066
 20
-1248.537
 30
0.0
 11
2783.657751216066
 21
-1248.537
 31
0.0
  0
LINE
  5
7246
330
7244
100
AcDbEntity
  8
寸法線
 62
     0
370
    -2
100
AcDbLine
 10
2662.907751216066
 20
-1508.537
 30
0.0
 11
2783.657751216066
 21
-1508.537
 31
0.0
  0
LINE
  5
7247
330
7244
100
AcDbEntity
  8
寸法線
 62
     0
370
    -2
100
AcDbLine
 10
2777.657751216066
 20
-1263.537
 30
0.0
 11
2777.657751216066
 21
-1493.537
 31
0.0
  0
INSERT
  5
7248
330
7244
100
AcDbEntity
  8
寸法線
 62
     0
370
    -2
100
AcDbBlockReference
  2
_OPEN
 10
2777.657751216066
 20
-1248.537
 30
0.0
 41
15.0
 42
15.0
 43
15.0
 50
90.0
  0
INSERT
  5
7249
330
7244
100
AcDbEntity
  8
寸法線
 62
     0
370
    -2
100
AcDbBlockReference
  2
_OPEN
 10
2777.657751216066
 20
-1508.537
 30
0.0
 41
15.0
 42
15.0
 43
15.0
 50
270.0
  0
MTEXT
  5
724A
330
7244
100
AcDbEntity
  8
寸法線
 62
     0
100
AcDbMText
 10
2761.905684286933
 20
-1378.536999999999
 30
0.0
 40
21.0
 41
0.0
 71
     5
 72
     1
  1
\A1;260
 11
0.0000000000000001
 21
1.0
 31
0.0
 73
     1
 44
1.0
1001
ACAD
1000
MTEXTBEGIN
1070
    73
1070
     1
1070
    44
1040
1.0
1070
    74
1070
     0
1000
MTEXTEND
  0
POINT
  5
724B
330
7244
100
AcDbEntity
  8
DEFPOINTS
 62
     0
100
AcDbPoint
 10
2657.657751216066
 20
-1248.537
 30
0.0
  0
POINT
  5
724C
330
7244
100
AcDbEntity
  8
DEFPOINTS
 62
     0
100
AcDbPoint
 10
2657.657751216066
 20
-1508.537
 30
0.0
  0
POINT
  5
724D
330
7244
100
AcDbEntity
  8
DEFPOINTS
 62
     0
100
AcDbPoint
 10
2777.657751216066
 20
-1508.537
 30
0.0
  0
ENDBLK
  5
724F
330
7244
100
AcDbEntity
  8
0
100
AcDbBlockEnd
  0
BLOCK
  5
729C
330
7290
100
AcDbEntity
  8
0
100
AcDbBlockBegin
  2
*D59
 70
     1
 10
0.0
 20
0.0
 30
0.0
  3
*D59
  1

  0
LINE
  5
7291
330
7290
100
AcDbEntity
  8
寸法線
 62
     0
370
    -2
100
AcDbLine
 10
2397.657751216062
 20
-1243.287
 30
0.0
 11
2397.657751216062
 21
-1194.537
 31
0.0
  0
LINE
  5
7292
330
7290
100
AcDbEntity
  8
寸法線
 62
     0
370
    -2
100
AcDbLine
 10
2437.657751216062
 20
-1241.286765516415
 30
0.0
 11
2437.657751216062
 21
-1194.537
 31
0.0
  0
LINE
  5
7293
330
7290
100
AcDbEntity
  8
寸法線
 62
     0
370
    -2
100
AcDbLine
 10
2382.657751216062
 20
-1200.537
 30
0.0
 11
2367.657751216062
 21
-1200.537
 31
0.0
  0
LINE
  5
7294
330
7290
100
AcDbEntity
  8
寸法線
 62
     0
370
    -2
100
AcDbLine
 10
2452.657751216062
 20
-1200.537
 30
0.0
 11
2467.657751216062
 21
-1200.537
 31
0.0
  0
LINE
  5
7295
330
7290
100
AcDbEntity
  8
寸法線
 62
     0
370
    -2
100
AcDbLine
 10
2397.657751216062
 20
-1200.537
 30
0.0
 11
2437.657751216062
 21
-1200.537
 31
0.0
  0
INSERT
  5
7296
330
7290
100
AcDbEntity
  8
寸法線
 62
     0
370
    -2
100
AcDbBlockReference
  2
_OPEN
 10
2397.657751216062
 20
-1200.537
 30
0.0
 41
15.0
 42
15.0
 43
15.0
  0
INSERT
  5
7297
330
7290
100
AcDbEntity
  8
寸法線
 62
     0
370
    -2
100
AcDbBlockReference
  2
_OPEN
 10
2437.657751216062
 20
-1200.537
 30
0.0
 41
15.0
 42
15.0
 43
15.0
 50
180.0
  0
MTEXT
  5
7298
330
7290
100
AcDbEntity
  8
寸法線
 62
     0
100
AcDbMText
 10
2417.657751216062
 20
-1184.787
 30
0.0
 40
21.0
 41
0.0
 71
     5
 72
     1
  1
\A1;40
 73
     1
 44
1.0
1001
ACAD
1000
MTEXTBEGIN
1070
    73
1070
     1
1070
    44
1040
1.0
1070
    74
1070
     0
1000
MTEXTEND
  0
POINT
  5
7299
330
7290
100
AcDbEntity
  8
DEFPOINTS
 62
     0
100
AcDbPoint
 10
2397.657751216062
 20
-1248.537
 30
0.0
  0
POINT
  5
729A
330
7290
100
AcDbEntity
  8
DEFPOINTS
 62
     0
100
AcDbPoint
 10
2437.657751216062
 20
-1246.536765516415
 30
0.0
  0
POINT
  5
729B
330
7290
100
AcDbEntity
  8
DEFPOINTS
 62
     0
100
AcDbPoint
 10
2437.657751216062
 20
-1200.537
 30
0.0
  0
ENDBLK
  5
729D
330
7290
100
AcDbEntity
  8
0
100
AcDbBlockEnd
  0
BLOCK
  5
72A9
330
729F
100
AcDbEntity
  8
0
100
AcDbBlockBegin
  2
*D60
 70
     1
 10
0.0
 20
0.0
 30
0.0
  3
*D60
  1

  0
LINE
  5
72A0
330
729F
100
AcDbEntity
  8
寸法線
 62
     0
370
    -2
100
AcDbLine
 10
2437.657751216062
 20
-1241.286765516415
 30
0.0
 11
2437.657751216062
 21
-1194.537
 31
0.0
  0
LINE
  5
72A1
330
729F
100
AcDbEntity
  8
寸法線
 62
     0
370
    -2
100
AcDbLine
 10
2617.657751216063
 20
-1241.286765516415
 30
0.0
 11
2617.657751216063
 21
-1194.537
 31
0.0
  0
LINE
  5
72A2
330
729F
100
AcDbEntity
  8
寸法線
 62
     0
370
    -2
100
AcDbLine
 10
2452.657751216062
 20
-1200.537
 30
0.0
 11
2602.657751216063
 21
-1200.537
 31
0.0
  0
INSERT
  5
72A3
330
729F
100
AcDbEntity
  8
寸法線
 62
     0
370
    -2
100
AcDbBlockReference
  2
_OPEN
 10
2437.657751216062
 20
-1200.537
 30
0.0
 41
15.0
 42
15.0
 43
15.0
 50
180.0
  0
INSERT
  5
72A4
330
729F
100
AcDbEntity
  8
寸法線
 62
     0
370
    -2
100
AcDbBlockReference
  2
_OPEN
 10
2617.657751216063
 20
-1200.537
 30
0.0
 41
15.0
 42
15.0
 43
15.0
  0
MTEXT
  5
72A5
330
729F
100
AcDbEntity
  8
寸法線
 62
     0
100
AcDbMText
 10
2527.657751216063
 20
-1184.787
 30
0.0
 40
21.0
 41
0.0
 71
     5
 72
     1
  1
\A1;180
 73
     1
 44
1.0
1001
ACAD
1000
MTEXTBEGIN
1070
    73
1070
     1
1070
    44
1040
1.0
1070
    74
1070
     0
1000
MTEXTEND
  0
POINT
  5
72A6
330
729F
100
AcDbEntity
  8
DEFPOINTS
 62
     0
100
AcDbPoint
 10
2437.657751216062
 20
-1246.536765516415
 30
0.0
  0
POINT
  5
72A7
330
729F
100
AcDbEntity
  8
DEFPOINTS
 62
     0
100
AcDbPoint
 10
2617.657751216063
 20
-1246.536765516415
 30
0.0
  0
POINT
  5
72A8
330
729F
100
AcDbEntity
  8
DEFPOINTS
 62
     0
100
AcDbPoint
 10
2617.657751216063
 20
-1200.537
 30
0.0
  0
ENDBLK
  5
72AA
330
729F
100
AcDbEntity
  8
0
100
AcDbBlockEnd
  0
BLOCK
  5
72B8
330
72AC
100
AcDbEntity
  8
0
100
AcDbBlockBegin
  2
*D61
 70
     1
 10
0.0
 20
0.0
 30
0.0
  3
*D61
  1

  0
LINE
  5
72AD
330
72AC
100
AcDbEntity
  8
寸法線
 62
     0
370
    -2
100
AcDbLine
 10
2617.657751216063
 20
-1241.286765516415
 30
0.0
 11
2617.657751216063
 21
-1194.537
 31
0.0
  0
LINE
  5
72AE
330
72AC
100
AcDbEntity
  8
寸法線
 62
     0
370
    -2
100
AcDbLine
 10
2657.657751216066
 20
-1243.287
 30
0.0
 11
2657.657751216066
 21
-1194.537
 31
0.0
  0
LINE
  5
72AF
330
72AC
100
AcDbEntity
  8
寸法線
 62
     0
370
    -2
100
AcDbLine
 10
2602.657751216063
 20
-1200.537
 30
0.0
 11
2587.657751216063
 21
-1200.537
 31
0.0
  0
LINE
  5
72B0
330
72AC
100
AcDbEntity
  8
寸法線
 62
     0
370
    -2
100
AcDbLine
 10
2672.657751216066
 20
-1200.537
 30
0.0
 11
2687.657751216066
 21
-1200.537
 31
0.0
  0
LINE
  5
72B1
330
72AC
100
AcDbEntity
  8
寸法線
 62
     0
370
    -2
100
AcDbLine
 10
2617.657751216063
 20
-1200.537
 30
0.0
 11
2657.657751216066
 21
-1200.537
 31
0.0
  0
INSERT
  5
72B2
330
72AC
100
AcDbEntity
  8
寸法線
 62
     0
370
    -2
100
AcDbBlockReference
  2
_OPEN
 10
2617.657751216063
 20
-1200.537
 30
0.0
 41
15.0
 42
15.0
 43
15.0
  0
INSERT
  5
72B3
330
72AC
100
AcDbEntity
  8
寸法線
 62
     0
370
    -2
100
AcDbBlockReference
  2
_OPEN
 10
2657.657751216066
 20
-1200.537
 30
0.0
 41
15.0
 42
15.0
 43
15.0
 50
180.0
  0
MTEXT
  5
72B4
330
72AC
100
AcDbEntity
  8
寸法線
 62
     0
100
AcDbMText
 10
2637.657751216065
 20
-1184.787
 30
0.0
 40
21.0
 41
0.0
 71
     5
 72
     1
  1
\A1;40
 73
     1
 44
1.0
1001
ACAD
1000
MTEXTBEGIN
1070
    73
1070
     1
1070
    44
1040
1.0
1070
    74
1070
     0
1000
MTEXTEND
  0
POINT
  5
72B5
330
72AC
100
AcDbEntity
  8
DEFPOINTS
 62
     0
100
AcDbPoint
 10
2617.657751216063
 20
-1246.536765516415
 30
0.0
  0
POINT
  5
72B6
330
72AC
100
AcDbEntity
  8
DEFPOINTS
 62
     0
100
AcDbPoint
 10
2657.657751216066
 20
-1248.537
 30
0.0
  0
POINT
  5
72B7
330
72AC
100
AcDbEntity
  8
DEFPOINTS
 62
     0
100
AcDbPoint
 10
2657.657751216066
 20
-1200.537
 30
0.0
  0
ENDBLK
  5
72B9
330
72AC
100
AcDbEntity
  8
0
100
AcDbBlockEnd
  0
BLOCK
  5
7768
330
7759
100
AcDbEntity
  8
0
100
AcDbBlockBegin
  2
A$C0AB47383
 70
     0
 10
0.0
 20
0.0
 30
0.0
  3
A$C0AB47383
  1

  0
LINE
  5
775A
330
7759
100
AcDbEntity
  8
中心線
100
AcDbLine
 10
7.029561351132997
 20
55.0
 30
0.0
 11
-19.98812412204893
 21
55.0
 31
0.0
  0
LINE
  5
775B
330
7759
100
AcDbEntity
  8
中心線
100
AcDbLine
 10
7.029561351132997
 20
-55.0
 30
0.0
 11
-19.98812412204893
 21
-55.0
 31
0.0
  0
LINE
  5
775C
330
7759
100
AcDbEntity
  8
寸法線
100
AcDbLine
 10
-6.0
 20
111.0
 30
0.0
 11
-6.0
 21
111.0
 31
0.0
  0
LINE
  5
775D
330
7759
100
AcDbEntity
  8
破線
100
AcDbLine
 10
0.0
 20
107.536165573262
 30
0.0
 11
-6.0
 21
111.0002671884001
 31
0.0
  0
LINE
  5
775E
330
7759
100
AcDbEntity
  8
破線
100
AcDbLine
 10
0.0
 20
72.46436880353805
 30
0.0
 11
-6.0
 21
69.00026718840013
 31
0.0
  0
LINE
  5
775F
330
7759
100
AcDbEntity
  8
破線
100
AcDbLine
 10
-5.999537216116093
 20
111.0
 30
0.0
 11
-12.0
 21
111.0
 31
0.0
  0
LINE
  5
7760
330
7759
100
AcDbEntity
  8
破線
100
AcDbLine
 10
-6.0
 20
69.00026718840013
 30
0.0
 11
-12.0
 21
69.00026063162886
 31
0.0
  0
LINE
  5
7761
330
7759
100
AcDbEntity
  8
寸法線
100
AcDbLine
 10
-6.0
 20
-69.0
 30
0.0
 11
-6.0
 21
-69.0
 31
0.0
  0
LINE
  5
7762
330
7759
100
AcDbEntity
  8
破線
100
AcDbLine
 10
0.0
 20
-72.463834426738
 30
0.0
 11
-6.0
 21
-68.9997328116001
 31
0.0
  0
LINE
  5
7763
330
7759
100
AcDbEntity
  8
破線
100
AcDbLine
 10
0.0
 20
-107.5356311964619
 30
0.0
 11
-6.0
 21
-110.9997328116001
 31
0.0
  0
LINE
  5
7764
330
7759
100
AcDbEntity
  8
破線
100
AcDbLine
 10
-5.999537216116093
 20
-69.0
 30
0.0
 11
-12.0
 21
-69.0
 31
0.0
  0
LINE
  5
7765
330
7759
100
AcDbEntity
  8
破線
100
AcDbLine
 10
-6.0
 20
-110.9997328116001
 30
0.0
 11
-12.0
 21
-110.9997393683711
 31
0.0
  0
ENDBLK
  5
7769
330
7759
100
AcDbEntity
  8
0
100
AcDbBlockEnd
  0
ENDSEC
  0
SECTION
  2
ENTITIES
  0
MTEXT
  5
2ECF
330
1A
100
AcDbEntity
  8
寸法線
100
AcDbMText
 10
2916.485061327331
 20
-554.5291334419808
 30
0.0
 40
21.0
 41
0.0
 71
     9
 72
     5
  1

 73
     1
 44
1.0
1001
ACAD
1000
MTEXTBEGIN
1070
    73
1070
     1
1070
    44
1040
1.0
1070
    74
1070
     0
1000
MTEXTEND
  0
DIMENSION
  5
611B
330
1A
100
AcDbEntity
  8
寸法線
100
AcDbDimension
  2
*D1
 10
1989.887854788797
 20
-1676.537
 30
0.0
 11
1885.887854788797
 21
-1676.537
 31
0.0
 70
   160
 71
     5
 42
208.0
  3
STANDARD
100
AcDbAlignedDimension
 13
1781.887854788797
 23
-1518.536765516414
 33
0.0
 14
1989.887854788797
 24
-1508.536765516415
 34
0.0
100
AcDbRotatedDimension
1001
ACAD
1000
DSTYLE
1002
{
1070
    40
1040
6.0
1002
}
  0
MTEXT
  5
611C
330
1A
100
AcDbEntity
  8
寸法線
100
AcDbMText
 10
2915.093833537553
 20
-1573.097145216663
 30
0.0
 40
21.0
 41
0.0
 71
     9
 72
     5
  1
4-20×30長穴
 73
     1
 44
1.0
1001
ACAD
1000
MTEXTBEGIN
1070
    73
1070
     1
1070
    44
1040
1.0
1070
    74
1070
     0
1000
MTEXTEND
  0
DIMENSION
  5
611E
330
1A
100
AcDbEntity
  8
寸法線
100
AcDbDimension
  2
*D2
 10
1877.052357404954
 20
-2228.604601101535
 30
0.0
 11
1862.052357404953
 21
-2228.604601101535
 31
0.0
 70
   160
 71
     5
 42
30.00000000000091
  3
STANDARD
100
AcDbAlignedDimension
 13
1847.052357404953
 23
-2177.104601101536
 33
0.0
 14
1877.052357404954
 24
-2156.605
 34
0.0
100
AcDbRotatedDimension
  0
LINE
  5
6125
330
1A
100
AcDbEntity
  8
実線
100
AcDbLine
 10
1637.052
 20
-2156.604601101535
 30
0.0
 11
1877.052
 21
-2156.604601101535
 31
0.0
  0
LINE
  5
6127
330
1A
100
AcDbEntity
  8
実線
100
AcDbLine
 10
1637.052
 20
-1916.604601101536
 30
0.0
 11
1877.052
 21
-1916.604601101536
 31
0.0
  0
LINE
  5
612A
330
1A
100
AcDbEntity
  8
実線
100
AcDbLine
 10
1868.052357404954
 20
-1964.604601101536
 30
0.0
 11
1868.052357404954
 21
-2108.604601101535
 31
0.0
  0
LINE
  5
612B
330
1A
100
AcDbEntity
  8
実線
100
AcDbLine
 10
1859.052357404953
 20
-1964.604601101536
 30
0.0
 11
1859.052357404953
 21
-2108.604601101535
 31
0.0
  0
LINE
  5
612C
330
1A
100
AcDbEntity
  8
実線
100
AcDbLine
 10
1646.052357404954
 20
-2108.604601101535
 30
0.0
 11
1646.052357404954
 21
-1964.604601101536
 31
0.0
  0
LINE
  5
612D
330
1A
100
AcDbEntity
  8
実線
100
AcDbLine
 10
1655.052357404954
 20
-2108.604601101535
 30
0.0
 11
1655.052357404954
 21
-1964.604601101536
 31
0.0
  0
LINE
  5
612E
330
1A
100
AcDbEntity
  8
実線
100
AcDbLine
 10
1761.552357404954
 20
-2041.104601101536
 30
0.0
 11
1761.552357404954
 21
-2137.104601101535
 31
0.0
  0
LINE
  5
612F
330
1A
100
AcDbEntity
  8
実線
100
AcDbLine
 10
1752.552357404954
 20
-2041.104601101536
 30
0.0
 11
1752.552357404954
 21
-2137.104601101535
 31
0.0
  0
LINE
  5
6132
330
1A
100
AcDbEntity
  8
実線
100
AcDbLine
 10
1637.052357404954
 20
-2156.605
 30
0.0
 11
1637.052357404954
 21
-1916.605
 31
0.0
  0
LINE
  5
6134
330
1A
100
AcDbEntity
  8
中心線
100
AcDbLine
 10
1707.052357404954
 20
-2106.604601101536
 30
0.0
 11
1707.052357404954
 21
-2066.604601101535
 31
0.0
  0
CIRCLE
  5
6136
330
1A
100
AcDbEntity
  8
実線
100
AcDbCircle
 10
1707.052357404954
 20
-2086.604601101536
 30
0.0
 40
12.5
  0
LINE
  5
613A
330
1A
100
AcDbEntity
  8
中心線
100
AcDbLine
 10
1807.052357404954
 20
-2106.604601101536
 30
0.0
 11
1807.052357404954
 21
-2066.604601101535
 31
0.0
  0
CIRCLE
  5
613B
330
1A
100
AcDbEntity
  8
実線
100
AcDbCircle
 10
1807.052357404954
 20
-2086.604601101536
 30
0.0
 40
12.5
  0
TEXT
  5
6140
330
1A
100
AcDbEntity
  8
寸法線
100
AcDbText
 10
1694.474347018332
 20
-2293.876152800017
 30
0.0
 40
24.0
  1
断面Ａ－Ａ
100
AcDbText
  0
LINE
  5
6141
330
1A
100
AcDbEntity
  8
寸法線
100
AcDbLine
 10
1683.072079778801
 20
-2300.604977637361
 30
0.0
 11
1843.606039413932
 21
-2300.604977637361
 31
0.0
  0
DIMENSION
  5
6142
330
1A
100
AcDbEntity
  8
寸法線
100
AcDbDimension
  2
*D3
 10
1847.052357404953
 20
-2228.604601101535
 30
0.0
 11
1757.052357404953
 21
-2212.854601101535
 31
0.0
 70
    32
 71
     5
 42
179.9999999999991
  3
STANDARD
100
AcDbAlignedDimension
 13
1667.052357404954
 23
-2177.104601101536
 33
0.0
 14
1847.052357404953
 24
-2177.104601101536
 34
0.0
100
AcDbRotatedDimension
  0
DIMENSION
  5
6143
330
1A
100
AcDbEntity
  8
寸法線
100
AcDbDimension
  2
*D4
 10
1667.052357404954
 20
-2228.604601101535
 30
0.0
 11
1652.052357404954
 21
-2228.604601101535
 31
0.0
 70
   160
 71
     5
 42
30.0
  3
STANDARD
100
AcDbAlignedDimension
 13
1637.052357404954
 23
-2156.605
 33
0.0
 14
1667.052357404954
 24
-2177.104601101536
 34
0.0
100
AcDbRotatedDimension
  0
LINE
  5
6144
330
1A
100
AcDbEntity
  8
実線
100
AcDbLine
 10
1829.052357404954
 20
-2147.604601101535
 30
0.0
 11
1685.052357404954
 21
-2147.604601101535
 31
0.0
  0
LINE
  5
6145
330
1A
100
AcDbEntity
  8
実線
100
AcDbLine
 10
1829.052357404954
 20
-2138.604601101536
 30
0.0
 11
1685.052357404954
 21
-2138.604601101536
 31
0.0
  0
CIRCLE
  5
6146
330
1A
100
AcDbEntity
  8
実線
100
AcDbCircle
 10
1667.052357404954
 20
-2126.604601101536
 30
0.0
 40
21.0
  0
LINE
  5
614B
330
1A
100
AcDbEntity
  8
実線
100
AcDbLine
 10
1685.052357404954
 20
-2147.604601101535
 30
0.0
 11
1685.052357404954
 21
-2138.604601101536
 31
0.0
  0
LINE
  5
614E
330
1A
100
AcDbEntity
  8
実線
100
AcDbLine
 10
1646.052357404954
 20
-2108.604601101535
 30
0.0
 11
1655.052357404954
 21
-2108.604601101535
 31
0.0
  0
CIRCLE
  5
6153
330
1A
100
AcDbEntity
  8
実線
100
AcDbCircle
 10
1847.052357404953
 20
-2126.604601101536
 30
0.0
 40
21.0
  0
LINE
  5
6154
330
1A
100
AcDbEntity
  8
実線
100
AcDbLine
 10
1752.552357404954
 20
-2137.104601101535
 30
0.0
 11
1761.552357404954
 21
-2137.104601101535
 31
0.0
  0
LINE
  5
6158
330
1A
100
AcDbEntity
  8
実線
100
AcDbLine
 10
1829.052357404954
 20
-2147.604601101535
 30
0.0
 11
1829.052357404954
 21
-2138.604601101536
 31
0.0
  0
LINE
  5
615C
330
1A
100
AcDbEntity
  8
実線
100
AcDbLine
 10
1868.052357404954
 20
-2108.604601101535
 30
0.0
 11
1859.052357404953
 21
-2108.604601101535
 31
0.0
  0
TEXT
  5
615D
330
1A
100
AcDbEntity
  8
寸法線
100
AcDbText
 10
909.188654635554
 20
-1688.860988194966
 30
0.0
 40
24.0
  1
ａ,ｂ：穴開け位置は切梁メーカー仕様による。
100
AcDbText
  0
LINE
  5
615E
330
1A
100
AcDbEntity
  8
寸法線
100
AcDbLine
 10
898.385883659639
 20
-1700.536621988751
 30
0.0
 11
1508.02748250473
 21
-1700.536621988751
 31
0.0
  0
LINE
  5
6163
330
1A
100
AcDbEntity
  8
実線
100
AcDbLine
 10
1761.552357404954
 20
-1936.104601101536
 30
0.0
 11
1761.552357404954
 21
-2032.104601101536
 31
0.0
  0
LINE
  5
6164
330
1A
100
AcDbEntity
  8
実線
100
AcDbLine
 10
1752.552357404954
 20
-1936.104601101536
 30
0.0
 11
1752.552357404954
 21
-2032.104601101536
 31
0.0
  0
LINE
  5
6169
330
1A
100
AcDbEntity
  8
中心線
100
AcDbLine
 10
1807.052357404954
 20
-1966.604601101536
 30
0.0
 11
1807.052357404954
 21
-2006.604601101535
 31
0.0
  0
LINE
  5
616E
330
1A
100
AcDbEntity
  8
中心線
100
AcDbLine
 10
1707.052357404954
 20
-1966.604601101536
 30
0.0
 11
1707.052357404954
 21
-2006.604601101535
 31
0.0
  0
LINE
  5
616F
330
1A
100
AcDbEntity
  8
実線
100
AcDbLine
 10
1656.052357404954
 20
-2032.104601101536
 30
0.0
 11
1858.052357404954
 21
-2032.104601101536
 31
0.0
  0
LINE
  5
6170
330
1A
100
AcDbEntity
  8
実線
100
AcDbLine
 10
1656.052357404954
 20
-2041.104601101536
 30
0.0
 11
1858.052357404954
 21
-2041.104601101536
 31
0.0
  0
LINE
  5
6171
330
1A
100
AcDbEntity
  8
中心線
100
AcDbLine
 10
1687.052357404954
 20
-2086.604601101536
 30
0.0
 11
1727.052357404954
 21
-2086.604601101536
 31
0.0
  0
LINE
  5
6175
330
1A
100
AcDbEntity
  8
実線
100
AcDbLine
 10
1656.052357404954
 20
-2041.104601101536
 30
0.0
 11
1656.052357404954
 21
-2032.104601101536
 31
0.0
  0
LINE
  5
6177
330
1A
100
AcDbEntity
  8
中心線
100
AcDbLine
 10
1787.052357404954
 20
-2086.604601101536
 30
0.0
 11
1827.052357404954
 21
-2086.604601101536
 31
0.0
  0
LINE
  5
617C
330
1A
100
AcDbEntity
  8
実線
100
AcDbLine
 10
1858.052357404954
 20
-2032.104601101536
 30
0.0
 11
1858.052357404954
 21
-2041.104601101536
 31
0.0
  0
LINE
  5
617D
330
1A
100
AcDbEntity
  8
実線
100
AcDbLine
 10
1685.052357404954
 20
-1934.604601101536
 30
0.0
 11
1829.052357404954
 21
-1934.604601101536
 31
0.0
  0
LINE
  5
617E
330
1A
100
AcDbEntity
  8
実線
100
AcDbLine
 10
1685.052357404954
 20
-1925.604601101536
 30
0.0
 11
1829.052357404954
 21
-1925.604601101536
 31
0.0
  0
LINE
  5
617F
330
1A
100
AcDbEntity
  8
中心線
100
AcDbLine
 10
1727.052357404954
 20
-1986.604601101536
 30
0.0
 11
1687.052357404954
 21
-1986.604601101536
 31
0.0
  0
CIRCLE
  5
6181
330
1A
100
AcDbEntity
  8
実線
100
AcDbCircle
 10
1667.052357404954
 20
-1946.604601101536
 30
0.0
 40
21.0
  0
LINE
  5
6182
330
1A
100
AcDbEntity
  8
実線
100
AcDbLine
 10
1646.052357404954
 20
-1964.604601101536
 30
0.0
 11
1655.052357404954
 21
-1964.604601101536
 31
0.0
  0
CIRCLE
  5
6186
330
1A
100
AcDbEntity
  8
実線
100
AcDbCircle
 10
1707.052373904762
 20
-1986.60460211092
 30
0.0
 40
12.5
  0
LINE
  5
618C
330
1A
100
AcDbEntity
  8
実線
100
AcDbLine
 10
1685.052357404954
 20
-1925.604601101536
 30
0.0
 11
1685.052357404954
 21
-1934.604601101536
 31
0.0
  0
CIRCLE
  5
618F
330
1A
100
AcDbEntity
  8
実線
100
AcDbCircle
 10
1847.052357404953
 20
-1946.604601101536
 30
0.0
 40
21.0
  0
CIRCLE
  5
6190
330
1A
100
AcDbEntity
  8
実線
100
AcDbCircle
 10
1807.052373904762
 20
-1986.60460211092
 30
0.0
 40
12.5
  0
LINE
  5
6191
330
1A
100
AcDbEntity
  8
中心線
100
AcDbLine
 10
1827.052357404954
 20
-1986.604601101536
 30
0.0
 11
1787.052357404954
 21
-1986.604601101536
 31
0.0
  0
LINE
  5
6196
330
1A
100
AcDbEntity
  8
実線
100
AcDbLine
 10
1868.052357404954
 20
-1964.604601101536
 30
0.0
 11
1859.052357404953
 21
-1964.604601101536
 31
0.0
  0
LINE
  5
6197
330
1A
100
AcDbEntity
  8
実線
100
AcDbLine
 10
1752.552357404954
 20
-1936.104601101536
 30
0.0
 11
1761.552357404954
 21
-1936.104601101536
 31
0.0
  0
LINE
  5
6199
330
1A
100
AcDbEntity
  8
実線
100
AcDbLine
 10
1829.052357404954
 20
-1925.604601101536
 30
0.0
 11
1829.052357404954
 21
-1934.604601101536
 31
0.0
  0
DIMENSION
  5
619C
330
1A
100
AcDbEntity
  8
寸法線
100
AcDbDimension
  2
*D5
 10
1949.052357404954
 20
-1946.604601101536
 30
0.0
 11
1933.302357404954
 21
-2036.604601101536
 31
0.0
 70
    32
 71
     5
 42
180.0
  3
STANDARD
100
AcDbAlignedDimension
 13
1897.552357404953
 23
-2126.604601101536
 33
0.0
 14
1897.552357404953
 24
-1946.604601101536
 34
0.0
 50
90.0
100
AcDbRotatedDimension
  0
LINE
  5
619D
330
1A
100
AcDbEntity
  8
実線
100
AcDbLine
 10
1877.052357404954
 20
-2156.605
 30
0.0
 11
1877.052357404954
 21
-1916.605
 31
0.0
  0
DIMENSION
  5
619E
330
1A
100
AcDbEntity
  8
寸法線
100
AcDbDimension
  2
*D6
 10
1949.052357404953
 20
-2126.604601101536
 30
0.0
 11
1949.052357404954
 21
-2141.604601101535
 31
0.0
 70
   160
 71
     5
 42
29.99999999999909
  3
STANDARD
100
AcDbAlignedDimension
 13
1877.052
 23
-2156.604601101535
 33
0.0
 14
1897.552357404953
 24
-2126.604601101536
 34
0.0
 50
90.0
100
AcDbRotatedDimension
  0
DIMENSION
  5
61A0
330
1A
100
AcDbEntity
  8
寸法線
100
AcDbDimension
  2
*D7
 10
1949.052357404953
 20
-1916.605
 30
0.0
 11
1949.052357404954
 21
-1931.604800550768
 31
0.0
 70
   160
 71
     5
 42
29.99960110153597
  3
STANDARD
100
AcDbAlignedDimension
 13
1897.552357404953
 23
-1946.604601101536
 33
0.0
 14
1877.052357404954
 24
-1916.605
 34
0.0
 50
90.0
100
AcDbRotatedDimension
  0
MTEXT
  5
61A2
330
1A
100
AcDbEntity
  8
寸法線
100
AcDbMText
 10
2815.239860011689
 20
-1611.790656980005
 30
0.0
 40
21.0
 41
0.0
 71
     9
 72
     5
  1
(ｱﾝｶｰ用)
 73
     1
 44
1.0
1001
ACAD
1000
MTEXTBEGIN
1070
    73
1070
     1
1070
    44
1040
1.0
1070
    74
1070
     0
1000
MTEXTEND
  0
DIMENSION
  5
61A3
330
1A
100
AcDbEntity
  8
寸法線
100
AcDbDimension
  2
*D8
 10
1989.887854788797
 20
-1628.537
 30
0.0
 11
1983.887854788797
 21
-1628.537
 31
0.0
 70
   160
 71
     5
 42
12.0
  3
STANDARD
100
AcDbAlignedDimension
 13
1977.887854788797
 23
-1508.536765516415
 33
0.0
 14
1989.887854788797
 24
-1508.536765516415
 34
0.0
100
AcDbRotatedDimension
1001
ACAD
1000
DSTYLE
1002
{
1070
    40
1040
6.0
1002
}
  0
DIMENSION
  5
61A4
330
1A
100
AcDbEntity
  8
寸法線
100
AcDbDimension
  2
*D9
 10
1935.887854788797
 20
-1267.536765516415
 30
0.0
 11
1935.887854788797
 21
-1288.536765516415
 31
0.0
 70
   160
  1
%%C<>
 71
     5
 42
42.0
  3
STANDARD
100
AcDbAlignedDimension
 13
1935.554521455463
 23
-1309.536765516415
 33
0.0
 14
1935.887854788797
 24
-1267.536765516415
 34
0.0
 50
90.0
100
AcDbRotatedDimension
1001
ACAD
1000
DSTYLE
1002
{
1070
    40
1040
6.0
1002
}
  0
LINE
  5
61A7
330
1A
100
AcDbEntity
  8
実線
100
AcDbLine
 10
1818.887854788797
 20
-1450.536765516415
 30
0.0
 11
1818.887854788797
 21
-1306.536765516415
 31
0.0
  0
DIMENSION
  5
61A8
330
1A
100
AcDbEntity
  8
寸法線
100
AcDbDimension
  2
*D10
 10
1397.543955963631
 20
-1328.536765516415
 30
0.0
 11
1381.793955963631
 21
-1378.536765516415
 31
0.0
 70
    32
  1
b
 71
     5
 42
100.0
  3
STANDARD
100
AcDbAlignedDimension
 13
1275.543955963631
 23
-1428.536765516415
 33
0.0
 14
1275.543955963631
 24
-1328.536765516415
 34
0.0
 50
90.0
100
AcDbRotatedDimension
  0
LINE
  5
61A9
330
1A
100
AcDbEntity
  8
破線
100
AcDbLine
 10
1201.043955963631
 20
-1278.036765516415
 30
0.0
 11
1201.043955963631
 21
-1374.036765516414
 31
0.0
  0
LINE
  5
61AA
330
1A
100
AcDbEntity
  8
破線
100
AcDbLine
 10
1210.043955963631
 20
-1278.036765516415
 30
0.0
 11
1210.043955963631
 21
-1374.036765516414
 31
0.0
  0
LINE
  5
61AB
330
1A
100
AcDbEntity
  8
破線
100
AcDbLine
 10
1307.543955963631
 20
-1306.536765516415
 30
0.0
 11
1307.543955963631
 21
-1450.536765516415
 31
0.0
  0
LINE
  5
61AC
330
1A
100
AcDbEntity
  8
破線
100
AcDbLine
 10
1316.543955963632
 20
-1306.536765516415
 30
0.0
 11
1316.543955963632
 21
-1450.536765516415
 31
0.0
  0
LINE
  5
61AD
330
1A
100
AcDbEntity
  8
破線
100
AcDbLine
 10
1103.543955963631
 20
-1450.536765516415
 30
0.0
 11
1103.543955963631
 21
-1306.536765516415
 31
0.0
  0
LINE
  5
61AE
330
1A
100
AcDbEntity
  8
破線
100
AcDbLine
 10
1094.543955963631
 20
-1450.536765516415
 30
0.0
 11
1094.543955963631
 21
-1306.536765516415
 31
0.0
  0
LINE
  5
61AF
330
1A
100
AcDbEntity
  8
実線
100
AcDbLine
 10
1977.887854788797
 20
-1508.536765516415
 30
0.0
 11
1977.887854788797
 21
-1248.536765516415
 31
0.0
  0
LINE
  5
61B0
330
1A
100
AcDbEntity
  8
実線
100
AcDbLine
 10
1989.887854788797
 20
-1508.536765516415
 30
0.0
 11
1989.887854788797
 21
-1248.536765516415
 31
0.0
  0
LINE
  5
61B1
330
1A
100
AcDbEntity
  8
実線
100
AcDbLine
 10
1793.887854788797
 20
-1498.537
 30
0.0
 11
1793.887854788797
 21
-1258.537
 31
0.0
  0
LINE
  5
61B2
330
1A
100
AcDbEntity
  8
実線
100
AcDbLine
 10
1781.887854788797
 20
-1498.537
 30
0.0
 11
1781.887854788797
 21
-1258.537
 31
0.0
  0
LINE
  5
61B3
330
1A
100
AcDbEntity
  8
仮想線
100
AcDbLine
 10
1853.350907042978
 20
-1553.536765516415
 30
0.0
 11
1853.350907042978
 21
-1203.536765516414
 31
0.0
  0
LINE
  5
61B4
330
1A
100
AcDbEntity
  8
実線
100
AcDbLine
 10
1325.543955963631
 20
-1498.537
 30
0.0
 11
1325.543955963631
 21
-1258.537
 31
0.0
  0
LINE
  5
61B6
330
1A
100
AcDbEntity
  8
実線
100
AcDbLine
 10
1085.543955963631
 20
-1498.537
 30
0.0
 11
1085.543955963631
 21
-1258.537
 31
0.0
  0
DIMENSION
  5
61B8
330
1A
100
AcDbEntity
  8
寸法線
100
AcDbDimension
  2
*D12
 10
1445.543955963631
 20
-1258.536765516415
 30
0.0
 11
1429.791889034497
 21
-1378.536882758207
 31
0.0
 70
    32
 71
     5
 42
240.000234483585
  3
STANDARD
100
AcDbAlignedDimension
 13
1325.543955963631
 23
-1498.537
 33
0.0
 14
1325.544
 24
-1258.536765516415
 34
0.0
 50
90.0
100
AcDbRotatedDimension
  0
LINE
  5
61BA
330
1A
100
AcDbEntity
  8
破線
100
AcDbLine
 10
1104.543955963632
 20
-1383.036765516415
 30
0.0
 11
1306.543955963631
 21
-1383.036765516415
 31
0.0
  0
LINE
  5
61BB
330
1A
100
AcDbEntity
  8
破線
100
AcDbLine
 10
1104.543955963631
 20
-1374.036765516414
 30
0.0
 11
1306.543955963631
 21
-1374.036765516414
 31
0.0
  0
LINE
  5
61BC
330
1A
100
AcDbEntity
  8
破線
100
AcDbLine
 10
1277.543955963631
 20
-1480.536765516415
 30
0.0
 11
1133.543955963631
 21
-1480.536765516415
 31
0.0
  0
LINE
  5
61BD
330
1A
100
AcDbEntity
  8
破線
100
AcDbLine
 10
1277.543955963631
 20
-1489.536765516415
 30
0.0
 11
1133.543955963631
 21
-1489.536765516415
 31
0.0
  0
LINE
  5
61BF
330
1A
100
AcDbEntity
  8
中心線
100
AcDbLine
 10
1235.543955963631
 20
-1428.536765516415
 30
0.0
 11
1275.543955963631
 21
-1428.536765516415
 31
0.0
  0
CIRCLE
  5
61C0
330
1A
100
AcDbEntity
  8
実線
100
AcDbCircle
 10
1255.543955963631
 20
-1428.536765516415
 30
0.0
 40
12.5
  0
LINE
  5
61C1
330
1A
100
AcDbEntity
  8
実線
100
AcDbLine
 10
1085.544
 20
-1498.536765516414
 30
0.0
 11
1325.544
 21
-1498.536765516414
 31
0.0
  0
DIMENSION
  5
61C3
330
1A
100
AcDbEntity
  8
寸法線
100
AcDbDimension
  2
*D14
 10
1325.543955963631
 20
-1628.537
 30
0.0
 11
1205.543955963631
 21
-1628.537
 31
0.0
 70
   160
 71
     5
 42
240.0
  3
STANDARD
100
AcDbAlignedDimension
 13
1085.543955963631
 23
-1498.537
 33
0.0
 14
1325.543955963631
 24
-1498.537
 34
0.0
100
AcDbRotatedDimension
  0
DIMENSION
  5
61C5
330
1A
100
AcDbEntity
  8
寸法線
100
AcDbDimension
  2
*D16
 10
1255.543955963631
 20
-1580.537
 30
0.0
 11
1205.543955963631
 21
-1580.537
 31
0.0
 70
   160
  1
a
 71
     5
 42
100.0
  3
STANDARD
100
AcDbAlignedDimension
 13
1155.543955963631
 23
-1448.536765516415
 33
0.0
 14
1255.543955963631
 24
-1448.536765516415
 34
0.0
100
AcDbRotatedDimension
  0
LINE
  5
61CB
330
1A
100
AcDbEntity
  8
破線
100
AcDbLine
 10
1201.043955963631
 20
-1383.036765516415
 30
0.0
 11
1201.043955963631
 21
-1479.036765516415
 31
0.0
  0
LINE
  5
61CC
330
1A
100
AcDbEntity
  8
破線
100
AcDbLine
 10
1210.043955963631
 20
-1383.036765516415
 30
0.0
 11
1210.043955963631
 21
-1479.036765516415
 31
0.0
  0
CIRCLE
  5
61CD
330
1A
100
AcDbEntity
  8
破線
100
AcDbCircle
 10
1115.543955963631
 20
-1468.536765516414
 30
0.0
 40
21.0
  0
LINE
  5
61D6
330
1A
100
AcDbEntity
  8
破線
100
AcDbLine
 10
1133.543955963631
 20
-1489.536765516415
 30
0.0
 11
1133.543955963631
 21
-1480.536765516415
 31
0.0
  0
LINE
  5
61D7
330
1A
100
AcDbEntity
  8
破線
100
AcDbLine
 10
1145.543955963631
 20
-1489.536765516415
 30
0.0
 11
1145.543955963631
 21
-1480.536765516415
 31
0.0
  0
LINE
  5
61D8
330
1A
100
AcDbEntity
  8
破線
100
AcDbLine
 10
1201.043955963631
 20
-1479.036765516415
 30
0.0
 11
1210.043955963631
 21
-1479.036765516415
 31
0.0
  0
LINE
  5
61D9
330
1A
100
AcDbEntity
  8
破線
100
AcDbLine
 10
1094.543955963631
 20
-1450.536765516415
 30
0.0
 11
1103.543955963631
 21
-1450.536765516415
 31
0.0
  0
LINE
  5
61DA
330
1A
100
AcDbEntity
  8
破線
100
AcDbLine
 10
1094.543955963631
 20
-1438.536765516415
 30
0.0
 11
1103.543955963631
 21
-1438.536765516415
 31
0.0
  0
LINE
  5
61DB
330
1A
100
AcDbEntity
  8
中心線
100
AcDbLine
 10
1155.543955963631
 20
-1448.536765516415
 30
0.0
 11
1155.543955963631
 21
-1408.536765516415
 31
0.0
  0
CIRCLE
  5
61DC
330
1A
100
AcDbEntity
  8
実線
100
AcDbCircle
 10
1155.543955963631
 20
-1428.536765516415
 30
0.0
 40
12.5
  0
LINE
  5
61DD
330
1A
100
AcDbEntity
  8
中心線
100
AcDbLine
 10
1255.543955963631
 20
-1448.536765516415
 30
0.0
 11
1255.543955963631
 21
-1408.536765516415
 31
0.0
  0
LINE
  5
61DE
330
1A
100
AcDbEntity
  8
破線
100
AcDbLine
 10
1104.543955963632
 20
-1383.036765516415
 30
0.0
 11
1104.543955963631
 21
-1374.036765516414
 31
0.0
  0
DIMENSION
  5
61DF
330
1A
100
AcDbEntity
  8
寸法線
100
AcDbDimension
  2
*D19
 10
1977.887854788797
 20
-1580.537
 30
0.0
 11
1898.387854788797
 21
-1580.537
 31
0.0
 70
   160
 71
     5
 42
159.0
  3
STANDARD
100
AcDbAlignedDimension
 13
1818.887854788797
 23
-1489.536765516415
 33
0.0
 14
1977.887854788797
 24
-1508.536765516415
 34
0.0
100
AcDbRotatedDimension
1001
ACAD
1000
DSTYLE
1002
{
1070
    40
1040
6.0
1002
}
  0
DIMENSION
  5
61E0
330
1A
100
AcDbEntity
  8
寸法線
100
AcDbDimension
  2
*D20
 10
1818.887854788797
 20
-1580.537
 30
0.0
 11
1806.387854788797
 21
-1580.537
 31
0.0
 70
   160
 71
     5
 42
25.0
  3
STANDARD
100
AcDbAlignedDimension
 13
1793.887854788797
 23
-1518.536765516414
 33
0.0
 14
1818.887854788797
 24
-1489.536765516415
 34
0.0
100
AcDbRotatedDimension
1001
ACAD
1000
DSTYLE
1002
{
1070
    40
1040
6.0
1002
}
  0
DIMENSION
  5
61E2
330
1A
100
AcDbEntity
  8
寸法線
100
AcDbDimension
  2
*D22
 10
1793.887854788797
 20
-1628.537
 30
0.0
 11
1787.887854788797
 21
-1628.537
 31
0.0
 70
   160
 71
     5
 42
12.0
  3
STANDARD
100
AcDbAlignedDimension
 13
1781.887854788797
 23
-1498.537
 33
0.0
 14
1793.887854788797
 24
-1498.537
 34
0.0
100
AcDbRotatedDimension
1001
ACAD
1000
DSTYLE
1002
{
1070
    40
1040
6.0
1002
}
  0
TEXT
  5
61E3
330
1A
100
AcDbEntity
  8
寸法線
100
AcDbText
 10
1883.006129410007
 20
-1549.736765516415
 30
0.0
 40
21.0
  1
Ａ
 72
     4
 11
1892.806129410007
 21
-1538.536765516415
 31
0.0
100
AcDbText
  0
DIMENSION
  5
61E4
330
1A
100
AcDbEntity
  8
寸法線
100
AcDbDimension
  2
*D23
 10
1977.887854788797
 20
-1628.537
 30
0.0
 11
1885.887854788797
 21
-1628.537
 31
0.0
 70
   160
 71
     5
 42
184.0
  3
STANDARD
100
AcDbAlignedDimension
 13
1793.887854788797
 23
-1518.536765516414
 33
0.0
 14
1977.887854788797
 24
-1508.536765516415
 34
0.0
100
AcDbRotatedDimension
1001
ACAD
1000
DSTYLE
1002
{
1070
    40
1040
6.0
1002
}
  0
LINE
  5
61E9
330
1A
100
AcDbEntity
  8
実線
100
AcDbLine
 10
1977.887854788797
 20
-1508.536765516415
 30
0.0
 11
1989.887854788797
 21
-1508.536765516415
 31
0.0
  0
CIRCLE
  5
61EA
330
1A
100
AcDbEntity
  8
破線
100
AcDbCircle
 10
1295.543955963631
 20
-1468.536765516414
 30
0.0
 40
21.0
  0
LINE
  5
61F1
330
1A
100
AcDbEntity
  8
破線
100
AcDbLine
 10
1277.543955963631
 20
-1489.536765516415
 30
0.0
 11
1277.543955963631
 21
-1480.536765516415
 31
0.0
  0
LINE
  5
61F2
330
1A
100
AcDbEntity
  8
破線
100
AcDbLine
 10
1265.543955963632
 20
-1489.536765516415
 30
0.0
 11
1265.543955963632
 21
-1480.536765516415
 31
0.0
  0
LINE
  5
61F5
330
1A
100
AcDbEntity
  8
破線
100
AcDbLine
 10
1316.543955963632
 20
-1450.536765516415
 30
0.0
 11
1307.543955963631
 21
-1450.536765516415
 31
0.0
  0
LINE
  5
61F6
330
1A
100
AcDbEntity
  8
破線
100
AcDbLine
 10
1316.543955963632
 20
-1438.536765516415
 30
0.0
 11
1307.543955963631
 21
-1438.536765516415
 31
0.0
  0
LINE
  5
61F7
330
1A
100
AcDbEntity
  8
破線
100
AcDbLine
 10
1306.543955963631
 20
-1374.036765516414
 30
0.0
 11
1306.543955963631
 21
-1383.036765516415
 31
0.0
  0
LINE
  5
61F8
330
1A
100
AcDbEntity
  8
実線
100
AcDbLine
 10
1793.887854788797
 20
-1489.536765516415
 30
0.0
 11
1977.887854788797
 21
-1489.536765516415
 31
0.0
  0
LINE
  5
61F9
330
1A
100
AcDbEntity
  8
中心線
100
AcDbLine
 10
1771.887854788797
 20
-1468.536765516414
 30
0.0
 11
1999.888
 21
-1468.536765516414
 31
0.0
  0
LINE
  5
61FA
330
1A
100
AcDbEntity
  8
実線
100
AcDbLine
 10
1781.887854788797
 20
-1498.536765516414
 30
0.0
 11
1793.887854788797
 21
-1498.536765516414
 31
0.0
  0
LINE
  5
61FB
330
1A
100
AcDbEntity
  8
破線
100
AcDbLine
 10
1818.887854788797
 20
-1480.536765516415
 30
0.0
 11
1818.887854788797
 21
-1489.536765516415
 31
0.0
  0
LINE
  5
61FC
330
1A
100
AcDbEntity
  8
破線
100
AcDbLine
 10
1793.887854788797
 20
-1480.536765516415
 30
0.0
 11
1818.887854788797
 21
-1480.536765516415
 31
0.0
  0
INSERT
  5
61FD
330
1A
100
AcDbEntity
  8
寸法線
100
AcDbBlockReference
  2
_OPEN
 10
1853.350907042978
 20
-1538.536765516415
 30
0.0
 41
15.0
 42
15.0
 43
15.0
 50
180.0
  0
LINE
  5
61FE
330
1A
100
AcDbEntity
  8
寸法線
100
AcDbLine
 10
1868.350907042978
 20
-1538.536765516415
 30
0.0
 11
1880.747642228802
 21
-1538.536765516415
 31
0.0
  0
LINE
  5
6201
330
1A
100
AcDbEntity
  8
実線
100
AcDbLine
 10
1818.887854788797
 20
-1447.536765516415
 30
0.0
 11
1977.887854788797
 21
-1447.536765516415
 31
0.0
  0
LINE
  5
6202
330
1A
100
AcDbEntity
  8
中心線
100
AcDbLine
 10
1766.887854788797
 20
-1378.536765516415
 30
0.0
 11
2004.888
 21
-1378.536765516415
 31
0.0
  0
LINE
  5
620A
330
1A
100
AcDbEntity
  8
実線
100
AcDbLine
 10
1793.887854788797
 20
-1447.536765516415
 30
0.0
 11
1802.887854788797
 21
-1447.536765516415
 31
0.0
  0
LINE
  5
620B
330
1A
100
AcDbEntity
  8
実線
100
AcDbLine
 10
1793.887854788797
 20
-1438.536765516415
 30
0.0
 11
1805.887854788797
 21
-1450.536765516415
 31
0.0
  0
LINE
  5
620C
330
1A
100
AcDbEntity
  8
実線
100
AcDbLine
 10
1805.887854788797
 20
-1450.536765516415
 30
0.0
 11
1818.887854788797
 21
-1450.536765516415
 31
0.0
  0
LINE
  5
620D
330
1A
100
AcDbEntity
  8
中心線
100
AcDbLine
 10
1771.887854788797
 20
-1428.536765516415
 30
0.0
 11
1803.888
 21
-1428.536765516415
 31
0.0
  0
LINE
  5
6212
330
1A
100
AcDbEntity
  8
破線
100
AcDbLine
 10
1793.887854788797
 20
-1383.036765516415
 30
0.0
 11
1818.887854788797
 21
-1383.036765516415
 31
0.0
  0
LINE
  5
6213
330
1A
100
AcDbEntity
  8
破線
100
AcDbLine
 10
1793.887854788797
 20
-1374.036765516414
 30
0.0
 11
1818.887854788797
 21
-1374.036765516414
 31
0.0
  0
LINE
  5
621A
330
1A
100
AcDbEntity
  8
破線
100
AcDbLine
 10
1133.543955963631
 20
-1267.536765516415
 30
0.0
 11
1277.543955963631
 21
-1267.536765516415
 31
0.0
  0
LINE
  5
621B
330
1A
100
AcDbEntity
  8
破線
100
AcDbLine
 10
1133.543955963631
 20
-1276.536765516415
 30
0.0
 11
1277.543955963631
 21
-1276.536765516415
 31
0.0
  0
LINE
  5
621D
330
1A
100
AcDbEntity
  8
中心線
100
AcDbLine
 10
1275.543955963631
 20
-1328.536765516415
 30
0.0
 11
1235.543955963631
 21
-1328.536765516415
 31
0.0
  0
CIRCLE
  5
621E
330
1A
100
AcDbEntity
  8
実線
100
AcDbCircle
 10
1255.543955963631
 20
-1328.536765516415
 30
0.0
 40
12.5
  0
LINE
  5
621F
330
1A
100
AcDbEntity
  8
実線
100
AcDbLine
 10
1085.544
 20
-1258.536765516415
 30
0.0
 11
1325.544
 21
-1258.536765516415
 31
0.0
  0
CIRCLE
  5
6223
330
1A
100
AcDbEntity
  8
破線
100
AcDbCircle
 10
1115.543955963631
 20
-1288.536765516415
 30
0.0
 40
21.0
  0
LINE
  5
6224
330
1A
100
AcDbEntity
  8
破線
100
AcDbLine
 10
1133.543955963631
 20
-1267.536765516415
 30
0.0
 11
1133.543955963631
 21
-1276.536765516415
 31
0.0
  0
LINE
  5
6225
330
1A
100
AcDbEntity
  8
破線
100
AcDbLine
 10
1145.543955963631
 20
-1267.536765516415
 30
0.0
 11
1145.543955963631
 21
-1276.536765516415
 31
0.0
  0
LINE
  5
6226
330
1A
100
AcDbEntity
  8
中心線
100
AcDbLine
 10
1115.543955963631
 20
-1248.536765516415
 30
0.0
 11
1115.543955963631
 21
-1328.536765516415
 31
0.0
  0
LINE
  5
6228
330
1A
100
AcDbEntity
  8
破線
100
AcDbLine
 10
1094.543955963631
 20
-1318.536765516415
 30
0.0
 11
1103.543955963631
 21
-1318.536765516415
 31
0.0
  0
LINE
  5
622B
330
1A
100
AcDbEntity
  8
破線
100
AcDbLine
 10
1094.543955963631
 20
-1306.536765516415
 30
0.0
 11
1103.543955963631
 21
-1306.536765516415
 31
0.0
  0
LINE
  5
622D
330
1A
100
AcDbEntity
  8
中心線
100
AcDbLine
 10
1255.543955963631
 20
-1308.536765516415
 30
0.0
 11
1255.543955963631
 21
-1348.536765516415
 31
0.0
  0
LINE
  5
622E
330
1A
100
AcDbEntity
  8
中心線
100
AcDbLine
 10
1155.543955963631
 20
-1308.536765516415
 30
0.0
 11
1155.543955963631
 21
-1348.536765516415
 31
0.0
  0
CIRCLE
  5
622F
330
1A
100
AcDbEntity
  8
実線
100
AcDbCircle
 10
1155.543955963631
 20
-1328.536765516415
 30
0.0
 40
12.5
  0
LINE
  5
6230
330
1A
100
AcDbEntity
  8
中心線
100
AcDbLine
 10
1175.543955963631
 20
-1328.536765516415
 30
0.0
 11
1135.543955963631
 21
-1328.536765516415
 31
0.0
  0
LINE
  5
6231
330
1A
100
AcDbEntity
  8
破線
100
AcDbLine
 10
1201.043955963631
 20
-1278.036765516415
 30
0.0
 11
1210.043955963631
 21
-1278.036765516415
 31
0.0
  0
CIRCLE
  5
6236
330
1A
100
AcDbEntity
  8
破線
100
AcDbCircle
 10
1295.543955963631
 20
-1288.536765516415
 30
0.0
 40
21.0
  0
LINE
  5
6237
330
1A
100
AcDbEntity
  8
破線
100
AcDbLine
 10
1265.543955963632
 20
-1267.536765516415
 30
0.0
 11
1265.543955963632
 21
-1276.536765516415
 31
0.0
  0
LINE
  5
6238
330
1A
100
AcDbEntity
  8
破線
100
AcDbLine
 10
1277.543955963631
 20
-1267.536765516415
 30
0.0
 11
1277.543955963631
 21
-1276.536765516415
 31
0.0
  0
LINE
  5
623B
330
1A
100
AcDbEntity
  8
破線
100
AcDbLine
 10
1316.543955963632
 20
-1318.536765516415
 30
0.0
 11
1307.543955963631
 21
-1318.536765516415
 31
0.0
  0
LINE
  5
623E
330
1A
100
AcDbEntity
  8
破線
100
AcDbLine
 10
1316.543955963632
 20
-1306.536765516415
 30
0.0
 11
1307.543955963631
 21
-1306.536765516415
 31
0.0
  0
LINE
  5
6244
330
1A
100
AcDbEntity
  8
破線
100
AcDbLine
 10
1818.887854788797
 20
-1276.536765516415
 30
0.0
 11
1818.887854788797
 21
-1267.536765516415
 31
0.0
  0
LINE
  5
6245
330
1A
100
AcDbEntity
  8
中心線
100
AcDbLine
 10
1771.887854788797
 20
-1288.536765516415
 30
0.0
 11
1999.888
 21
-1288.536765516415
 31
0.0
  0
LINE
  5
6246
330
1A
100
AcDbEntity
  8
実線
100
AcDbLine
 10
1818.887854788797
 20
-1309.536765516415
 30
0.0
 11
1977.887854788797
 21
-1309.536765516415
 31
0.0
  0
LINE
  5
6249
330
1A
100
AcDbEntity
  8
実線
100
AcDbLine
 10
1793.887854788797
 20
-1318.536765516415
 30
0.0
 11
1805.887854788797
 21
-1306.536765516415
 31
0.0
  0
LINE
  5
624F
330
1A
100
AcDbEntity
  8
中心線
100
AcDbLine
 10
1771.887854788797
 20
-1328.536765516415
 30
0.0
 11
1803.888
 21
-1328.536765516415
 31
0.0
  0
LINE
  5
6254
330
1A
100
AcDbEntity
  8
実線
100
AcDbLine
 10
1793.887854788797
 20
-1309.536765516415
 30
0.0
 11
1802.887854788797
 21
-1309.536765516415
 31
0.0
  0
LINE
  5
6255
330
1A
100
AcDbEntity
  8
実線
100
AcDbLine
 10
1805.887854788797
 20
-1306.536765516415
 30
0.0
 11
1818.887854788797
 21
-1306.536765516415
 31
0.0
  0
LINE
  5
6256
330
1A
100
AcDbEntity
  8
破線
100
AcDbLine
 10
1793.887854788797
 20
-1276.536765516415
 30
0.0
 11
1818.887854788797
 21
-1276.536765516415
 31
0.0
  0
LINE
  5
625C
330
1A
100
AcDbEntity
  8
実線
100
AcDbLine
 10
1793.887854788797
 20
-1267.536765516415
 30
0.0
 11
1977.887854788797
 21
-1267.536765516415
 31
0.0
  0
LINE
  5
625D
330
1A
100
AcDbEntity
  8
実線
100
AcDbLine
 10
1781.887854788797
 20
-1258.536765516415
 30
0.0
 11
1793.887854788797
 21
-1258.536765516415
 31
0.0
  0
LINE
  5
6261
330
1A
100
AcDbEntity
  8
実線
100
AcDbLine
 10
1977.887854788797
 20
-1248.536765516415
 30
0.0
 11
1989.887854788797
 21
-1248.536765516415
 31
0.0
  0
DIMENSION
  5
6269
330
1A
100
AcDbEntity
  8
寸法線
100
AcDbDimension
  2
*D31
 10
2349.657751216062
 20
-1288.536765516415
 30
0.0
 11
2349.657751216063
 21
-1378.536765516418
 31
0.0
 70
   160
 71
     5
 42
179.9999999999988
  3
STANDARD
100
AcDbAlignedDimension
 13
2395.657751216063
 23
-1468.536765516414
 33
0.0
 14
2395.657751216063
 24
-1288.536765516415
 34
0.0
 50
90.0
100
AcDbRotatedDimension
  0
LINE
  5
626A
330
1A
100
AcDbEntity
  8
実線
100
AcDbLine
 10
2397.657751216062
 20
-1508.537
 30
0.0
 11
2397.657751216062
 21
-1248.537
 31
0.0
  0
LINE
  5
626B
330
1A
100
AcDbEntity
  8
実線
100
AcDbLine
 10
2657.657751216066
 20
-1508.537
 30
0.0
 11
2657.657751216066
 21
-1248.537
 31
0.0
  0
LINE
  5
626D
330
1A
100
AcDbEntity
  8
中心線
100
AcDbLine
 10
2659.657751216062
 20
-1468.536765516414
 30
0.0
 11
2575.657751216062
 21
-1468.536765516414
 31
0.0
  0
CIRCLE
  5
6270
330
1A
100
AcDbEntity
  8
実線
100
AcDbCircle
 10
2617.657751216063
 20
-1468.536765516414
 30
0.0
 40
21.0
  0
DIMENSION
  5
6271
330
1A
100
AcDbEntity
  8
寸法線
100
AcDbDimension
  2
*D33
 10
2657.657751216066
 20
-1628.537
 30
0.0
 11
2527.657751216064
 21
-1628.537
 31
0.0
 70
   160
 71
     5
 42
260.0000000000041
  3
STANDARD
100
AcDbAlignedDimension
 13
2397.657751216062
 23
-1508.537
 33
0.0
 14
2657.657751216066
 24
-1508.537
 34
0.0
100
AcDbRotatedDimension
  0
DIMENSION
  5
6272
330
1A
100
AcDbEntity
  8
寸法線
100
AcDbDimension
  2
*D34
 10
2582.657751216063
 20
-1580.537
 30
0.0
 11
2527.657751216063
 21
-1580.537
 31
0.0
 70
   160
 71
     5
 42
110.0
  3
STANDARD
100
AcDbAlignedDimension
 13
2472.657751216063
 23
-1457.536765516415
 33
0.0
 14
2582.657751216063
 24
-1457.536765516415
 34
0.0
100
AcDbRotatedDimension
  0
LINE
  5
6273
330
1A
100
AcDbEntity
  8
中心線
100
AcDbLine
 10
2382.657751216062
 20
-1378.537
 30
0.0
 11
2672.657751216066
 21
-1378.536785056892
 31
0.0
  0
LINE
  5
6274
330
1A
100
AcDbEntity
  8
実線
100
AcDbLine
 10
2397.657751216062
 20
-1508.537
 30
0.0
 11
2657.657751216066
 21
-1508.537
 31
0.0
  0
DIMENSION
  5
6275
330
1A
100
AcDbEntity
  8
寸法線
100
AcDbDimension
  2
*D35
 10
2349.657751216062
 20
-1468.536765516414
 30
0.0
 11
2349.657751216063
 21
-1488.536882758207
 31
0.0
 70
   160
 71
     5
 42
40.00023448358613
  3
STANDARD
100
AcDbAlignedDimension
 13
2397.657751216062
 23
-1508.537
 33
0.0
 14
2395.657751216063
 24
-1468.536765516414
 34
0.0
 50
90.0
100
AcDbRotatedDimension
  0
DIMENSION
  5
6276
330
1A
100
AcDbEntity
  8
寸法線
100
AcDbDimension
  2
*D36
 10
2472.657751216063
 20
-1580.537
 30
0.0
 11
2435.157751216062
 21
-1580.537
 31
0.0
 70
   160
 71
     5
 42
75.00000000000091
  3
STANDARD
100
AcDbAlignedDimension
 13
2397.657751216062
 23
-1508.537
 33
0.0
 14
2472.657751216063
 24
-1457.536765516415
 34
0.0
100
AcDbRotatedDimension
  0
LINE
  5
6277
330
1A
100
AcDbEntity
  8
中心線
100
AcDbLine
 10
2437.657751216062
 20
-1510.536765516414
 30
0.0
 11
2437.657751216062
 21
-1426.536765516415
 31
0.0
  0
CIRCLE
  5
627A
330
1A
100
AcDbEntity
  8
実線
100
AcDbCircle
 10
2437.657751216062
 20
-1468.536765516414
 30
0.0
 40
21.0
  0
LINE
  5
627B
330
1A
100
AcDbEntity
  8
中心線
100
AcDbLine
 10
2395.657751216063
 20
-1468.536765516414
 30
0.0
 11
2479.657751216063
 21
-1468.536765516414
 31
0.0
  0
LINE
  5
627C
330
1A
100
AcDbEntity
  8
中心線
100
AcDbLine
 10
2472.657751216063
 20
-1409.536765516415
 30
0.0
 11
2472.657751216063
 21
-1457.536765516415
 31
0.0
  0
LINE
  5
627D
330
1A
100
AcDbEntity
  8
中心線
100
AcDbLine
 10
2443.657751216063
 20
-1433.536765516415
 30
0.0
 11
2501.657751216062
 21
-1433.536765516415
 31
0.0
  0
ARC
  5
627E
330
1A
100
AcDbEntity
  8
実線
100
AcDbCircle
 10
2467.657751216063
 20
-1433.536765516415
 30
0.0
 40
10.0
100
AcDbArc
 50
90.0
 51
270.0
  0
ARC
  5
627F
330
1A
100
AcDbEntity
  8
実線
100
AcDbCircle
 10
2477.657751216063
 20
-1433.536765516415
 30
0.0
 40
10.0
100
AcDbArc
 50
270.0
 51
90.0
  0
LINE
  5
6280
330
1A
100
AcDbEntity
  8
実線
100
AcDbLine
 10
2467.657751216063
 20
-1443.536765516415
 30
0.0
 11
2477.657751216063
 21
-1443.536765516415
 31
0.0
  0
LINE
  5
6281
330
1A
100
AcDbEntity
  8
実線
100
AcDbLine
 10
2467.657751216063
 20
-1423.536765516415
 30
0.0
 11
2477.657751216063
 21
-1423.536765516415
 31
0.0
  0
DIMENSION
  5
628C
330
1A
100
AcDbEntity
  8
寸法線
100
AcDbDimension
  2
*D37
 10
2657.657751216066
 20
-1580.537
 30
0.0
 11
2620.157751216066
 21
-1580.537
 31
0.0
 70
   160
 71
     5
 42
75.00000000000318
  3
STANDARD
100
AcDbAlignedDimension
 13
2582.657751216063
 23
-1457.536765516415
 33
0.0
 14
2657.657751216066
 24
-1508.537
 34
0.0
100
AcDbRotatedDimension
  0
LINE
  5
628D
330
1A
100
AcDbEntity
  8
中心線
100
AcDbLine
 10
2617.657751216063
 20
-1510.536765516414
 30
0.0
 11
2617.657751216063
 21
-1426.536765516415
 31
0.0
  0
LINE
  5
628E
330
1A
100
AcDbEntity
  8
中心線
100
AcDbLine
 10
2582.657751216063
 20
-1409.536765516415
 30
0.0
 11
2582.657751216063
 21
-1457.536765516415
 31
0.0
  0
LINE
  5
628F
330
1A
100
AcDbEntity
  8
中心線
100
AcDbLine
 10
2553.657751216063
 20
-1433.536765516415
 30
0.0
 11
2611.657751216062
 21
-1433.536765516415
 31
0.0
  0
ARC
  5
6290
330
1A
100
AcDbEntity
  8
実線
100
AcDbCircle
 10
2587.657751216065
 20
-1433.536765516415
 30
0.0
 40
10.0
100
AcDbArc
 50
270.0
 51
90.0
  0
ARC
  5
6291
330
1A
100
AcDbEntity
  8
実線
100
AcDbCircle
 10
2577.657751216064
 20
-1433.536765516415
 30
0.0
 40
10.0
100
AcDbArc
 50
90.0
 51
270.0
  0
LINE
  5
6292
330
1A
100
AcDbEntity
  8
実線
100
AcDbLine
 10
2577.657751216064
 20
-1443.536765516415
 30
0.0
 11
2587.657751216065
 21
-1443.536765516415
 31
0.0
  0
LINE
  5
6293
330
1A
100
AcDbEntity
  8
実線
100
AcDbLine
 10
2577.657751216064
 20
-1423.536765516415
 30
0.0
 11
2587.657751216065
 21
-1423.536765516415
 31
0.0
  0
LINE
  5
6297
330
1A
100
AcDbEntity
  8
中心線
100
AcDbLine
 10
2659.657751216062
 20
-1288.536765516415
 30
0.0
 11
2575.657751216062
 21
-1288.536765516415
 31
0.0
  0
CIRCLE
  5
6298
330
1A
100
AcDbEntity
  8
実線
100
AcDbCircle
 10
2617.657751216063
 20
-1288.536765516415
 30
0.0
 40
21.0
  0
LINE
  5
6299
330
1A
100
AcDbEntity
  8
実線
100
AcDbLine
 10
2397.657751216062
 20
-1248.537
 30
0.0
 11
2657.657751216066
 21
-1248.537
 31
0.0
  0
DIMENSION
  5
629A
330
1A
100
AcDbEntity
  8
寸法線
100
AcDbDimension
  2
*D38
 10
2349.657751216062
 20
-1248.537
 30
0.0
 11
2349.657751216062
 21
-1268.536882758207
 31
0.0
 70
   160
 71
     5
 42
39.99976551641498
  3
STANDARD
100
AcDbAlignedDimension
 13
2395.657751216063
 23
-1288.536765516415
 33
0.0
 14
2397.657751216062
 24
-1248.537
 34
0.0
 50
90.0
100
AcDbRotatedDimension
  0
LINE
  5
629B
330
1A
100
AcDbEntity
  8
中心線
100
AcDbLine
 10
2437.657751216062
 20
-1246.536765516415
 30
0.0
 11
2437.657751216062
 21
-1330.536765516415
 31
0.0
  0
CIRCLE
  5
62A0
330
1A
100
AcDbEntity
  8
実線
100
AcDbCircle
 10
2437.657751216062
 20
-1288.536765516415
 30
0.0
 40
21.0
  0
LINE
  5
62A1
330
1A
100
AcDbEntity
  8
中心線
100
AcDbLine
 10
2395.657751216063
 20
-1288.536765516415
 30
0.0
 11
2479.657751216063
 21
-1288.536765516415
 31
0.0
  0
LINE
  5
62A6
330
1A
100
AcDbEntity
  8
中心線
100
AcDbLine
 10
2472.657751216063
 20
-1299.536765516415
 30
0.0
 11
2472.657751216063
 21
-1347.536765516415
 31
0.0
  0
LINE
  5
62A7
330
1A
100
AcDbEntity
  8
中心線
100
AcDbLine
 10
2443.657751216063
 20
-1323.536765516415
 30
0.0
 11
2501.657751216062
 21
-1323.536765516415
 31
0.0
  0
ARC
  5
62A8
330
1A
100
AcDbEntity
  8
実線
100
AcDbCircle
 10
2467.657751216063
 20
-1323.536765516415
 30
0.0
 40
10.0
100
AcDbArc
 50
90.0
 51
270.0
  0
ARC
  5
62A9
330
1A
100
AcDbEntity
  8
実線
100
AcDbCircle
 10
2477.657751216063
 20
-1323.536765516415
 30
0.0
 40
10.0
100
AcDbArc
 50
270.0
 51
90.0
  0
LINE
  5
62AA
330
1A
100
AcDbEntity
  8
実線
100
AcDbLine
 10
2467.657751216063
 20
-1333.536765516415
 30
0.0
 11
2477.657751216063
 21
-1333.536765516415
 31
0.0
  0
LINE
  5
62AB
330
1A
100
AcDbEntity
  8
実線
100
AcDbLine
 10
2467.657751216063
 20
-1313.536765516415
 30
0.0
 11
2477.657751216063
 21
-1313.536765516415
 31
0.0
  0
LINE
  5
62AD
330
1A
100
AcDbEntity
  8
中心線
100
AcDbLine
 10
2617.657751216063
 20
-1246.536765516415
 30
0.0
 11
2617.657751216063
 21
-1330.536765516415
 31
0.0
  0
LINE
  5
62B0
330
1A
100
AcDbEntity
  8
中心線
100
AcDbLine
 10
2582.657751216063
 20
-1299.536765516415
 30
0.0
 11
2582.657751216063
 21
-1347.536765516415
 31
0.0
  0
LINE
  5
62B1
330
1A
100
AcDbEntity
  8
中心線
100
AcDbLine
 10
2553.657751216063
 20
-1323.536765516415
 30
0.0
 11
2611.657751216062
 21
-1323.536765516415
 31
0.0
  0
ARC
  5
62B2
330
1A
100
AcDbEntity
  8
実線
100
AcDbCircle
 10
2587.657751216065
 20
-1323.536765516415
 30
0.0
 40
10.0
100
AcDbArc
 50
270.0
 51
90.0
  0
ARC
  5
62B3
330
1A
100
AcDbEntity
  8
実線
100
AcDbCircle
 10
2577.657751216064
 20
-1323.536765516415
 30
0.0
 40
10.0
100
AcDbArc
 50
90.0
 51
270.0
  0
LINE
  5
62B4
330
1A
100
AcDbEntity
  8
実線
100
AcDbLine
 10
2577.657751216064
 20
-1333.536765516415
 30
0.0
 11
2587.657751216065
 21
-1333.536765516415
 31
0.0
  0
LINE
  5
62B5
330
1A
100
AcDbEntity
  8
実線
100
AcDbLine
 10
2577.657751216064
 20
-1313.536765516415
 30
0.0
 11
2587.657751216065
 21
-1313.536765516415
 31
0.0
  0
LINE
  5
6696
330
1A
100
AcDbEntity
  8
中心線
100
AcDbLine
 10
1175.543955963631
 20
-1428.536765516415
 30
0.0
 11
1135.543955963631
 21
-1428.536765516415
 31
0.0
  0
LINE
  5
688D
330
1A
100
AcDbEntity
  8
寸法線
100
AcDbLine
 10
2729.657751216063
 20
-1580.536765516415
 30
0.0
 11
2922.53463706027
 21
-1580.536765516415
 31
0.0
  0
CIRCLE
  5
6B24
330
1A
100
AcDbEntity
  8
実線
100
AcDbCircle
 10
2437.657751216062
 20
-1288.536765516415
 30
0.0
 40
21.25
  0
CIRCLE
  5
6B25
330
1A
100
AcDbEntity
  8
実線
100
AcDbCircle
 10
2437.657751216062
 20
-1468.536765516415
 30
0.0
 40
21.25
  0
CIRCLE
  5
6B26
330
1A
100
AcDbEntity
  8
実線
100
AcDbCircle
 10
2617.657751216062
 20
-1288.536765516415
 30
0.0
 40
21.25
  0
CIRCLE
  5
6B27
330
1A
100
AcDbEntity
  8
実線
100
AcDbCircle
 10
2617.657751216062
 20
-1468.536765516415
 30
0.0
 40
21.25
  0
LINE
  5
6B36
330
1A
100
AcDbEntity
  8
破線
100
AcDbLine
 10
1802.887854788797
 20
-1447.536765516415
 30
0.0
 11
1818.887854788797
 21
-1447.536765516415
 31
0.0
  0
LINE
  5
6B37
330
1A
100
AcDbEntity
  8
破線
100
AcDbLine
 10
1802.887854788797
 20
-1309.536765516415
 30
0.0
 11
1818.887854788797
 21
-1309.536765516415
 31
0.0
  0
LEADER
  5
6CBA
330
1A
100
AcDbEntity
  8
寸法線
100
AcDbLeader
  3
STANDARD
 76
     2
 10
2591.772129493725
 20
-1442.651143794077
 30
0.0
 10
2729.657751216063
 20
-1580.536765516415
 30
0.0
1001
ACAD
1000
DSTYLE
1002
{
1070
   147
1040
0.875
1070
    77
1070
     0
1002
}
  0
LINE
  5
6DB8
330
1A
100
AcDbEntity
  8
中心線
100
AcDbLine
 10
1205.544
 20
-1513.536765516414
 30
0.0
 11
1205.544
 21
-1243.536765516415
 31
0.0
  0
MTEXT
  5
7217
330
1A
100
AcDbEntity
  8
寸法線
100
AcDbMText
 10
2214.867326777071
 20
-1574.303483283181
 30
0.0
 40
21.0
 41
0.0
 71
     7
 72
     5
  1
4-φ42.5
 73
     1
 44
1.0
1001
ACAD
1000
MTEXTBEGIN
1070
    73
1070
     1
1070
    44
1040
1.0
1070
    74
1070
     0
1000
MTEXTEND
  0
LEADER
  5
7218
330
1A
100
AcDbEntity
  8
寸法線
100
AcDbLeader
  3
STANDARD
 76
     2
 10
2422.631732115848
 20
-1483.562784616627
 30
0.0
 10
2325.657516732475
 20
-1580.537
 30
0.0
211
-1.0
221
0.0
231
0.0
1001
ACAD
1000
DSTYLE
1002
{
1070
   147
1040
0.875
1070
    77
1070
     0
1002
}
  0
LINE
  5
7219
330
1A
100
AcDbEntity
  8
寸法線
100
AcDbLine
 10
2325.657516732475
 20
-1580.537
 30
0.0
 11
2211.107109435846
 21
-1580.537
 31
0.0
  0
DIMENSION
  5
721C
330
1A
100
AcDbEntity
  8
寸法線
100
AcDbDimension
  2
*D55
 10
2729.657751216067
 20
-1323.536765516415
 30
0.0
 11
2713.907751216067
 21
-1286.036882758207
 31
0.0
 70
    32
 71
     5
 42
74.99976551641498
  3
STANDARD
100
AcDbAlignedDimension
 13
2657.657751216066
 23
-1248.537
 33
0.0
 14
2611.657751216062
 24
-1323.536765516415
 34
0.0
 50
90.0
100
AcDbRotatedDimension
  0
DIMENSION
  5
7229
330
1A
100
AcDbEntity
  8
寸法線
100
AcDbDimension
  2
*D56
 10
2729.657751216067
 20
-1433.536765516415
 30
0.0
 11
2713.907751216067
 21
-1378.536765516414
 31
0.0
 70
    32
 71
     5
 42
110.0
  3
STANDARD
100
AcDbAlignedDimension
 13
2611.657751216062
 23
-1323.536765516415
 33
0.0
 14
2611.657751216062
 24
-1433.536765516415
 34
0.0
 50
90.0
100
AcDbRotatedDimension
1001
ACAD
1000
DSTYLE
1002
{
1070
   279
1070
     1
1002
}
  0
DIMENSION
  5
7236
330
1A
100
AcDbEntity
  8
寸法線
100
AcDbDimension
  2
*D57
 10
2729.657751216067
 20
-1508.537
 30
0.0
 11
2713.907751216067
 21
-1471.036882758207
 31
0.0
 70
    32
 71
     5
 42
75.00023448358501
  3
STANDARD
100
AcDbAlignedDimension
 13
2611.657751216062
 23
-1433.536765516415
 33
0.0
 14
2657.657751216066
 24
-1508.537
 34
0.0
 50
90.0
100
AcDbRotatedDimension
1001
ACAD
1000
DSTYLE
1002
{
1070
   279
1070
     1
1002
}
  0
DIMENSION
  5
7243
330
1A
100
AcDbEntity
  8
寸法線
100
AcDbDimension
  2
*D58
 10
2777.657751216066
 20
-1508.537
 30
0.0
 11
2761.905684286933
 21
-1378.536999999999
 31
0.0
 70
    32
 71
     5
 42
260.0
  3
STANDARD
100
AcDbAlignedDimension
 13
2657.657751216066
 23
-1248.537
 33
0.0
 14
2657.657751216066
 24
-1508.537
 34
0.0
 50
90.0
100
AcDbRotatedDimension
  0
DIMENSION
  5
728F
330
1A
100
AcDbEntity
  8
寸法線
100
AcDbDimension
  2
*D59
 10
2437.657751216062
 20
-1200.537
 30
0.0
 11
2417.657751216062
 21
-1184.787
 31
0.0
 70
    32
 71
     5
 42
40.0
  3
STANDARD
100
AcDbAlignedDimension
 13
2397.657751216062
 23
-1248.537
 33
0.0
 14
2437.657751216062
 24
-1246.536765516415
 34
0.0
100
AcDbRotatedDimension
  0
DIMENSION
  5
729E
330
1A
100
AcDbEntity
  8
寸法線
100
AcDbDimension
  2
*D60
 10
2617.657751216063
 20
-1200.537
 30
0.0
 11
2527.657751216063
 21
-1184.787
 31
0.0
 70
    32
 71
     5
 42
180.0000000000009
  3
STANDARD
100
AcDbAlignedDimension
 13
2437.657751216062
 23
-1246.536765516415
 33
0.0
 14
2617.657751216063
 24
-1246.536765516415
 34
0.0
100
AcDbRotatedDimension
1001
ACAD
1000
DSTYLE
1002
{
1070
   279
1070
     1
1002
}
  0
DIMENSION
  5
72AB
330
1A
100
AcDbEntity
  8
寸法線
100
AcDbDimension
  2
*D61
 10
2657.657751216066
 20
-1200.537
 30
0.0
 11
2637.657751216065
 21
-1184.787
 31
0.0
 70
    32
 71
     5
 42
40.00000000000318
  3
STANDARD
100
AcDbAlignedDimension
 13
2617.657751216063
 23
-1246.536765516415
 33
0.0
 14
2657.657751216066
 24
-1248.537
 34
0.0
100
AcDbRotatedDimension
1001
ACAD
1000
DSTYLE
1002
{
1070
   279
1070
     1
1002
}
  0
TEXT
  5
73B2
330
1A
100
AcDbEntity
  8
寸法線
100
AcDbText
 10
1883.006129410007
 20
-1229.736765516415
 30
0.0
 40
21.0
  1
Ａ
 72
     4
 11
1892.806129410007
 21
-1218.536765516415
 31
0.0
100
AcDbText
  0
INSERT
  5
73B3
330
1A
100
AcDbEntity
  8
寸法線
100
AcDbBlockReference
  2
_OPEN
 10
1853.350907042978
 20
-1218.536765516415
 30
0.0
 41
-15.0
 42
15.0
 43
15.0
  0
LINE
  5
73B4
330
1A
100
AcDbEntity
  8
寸法線
100
AcDbLine
 10
1868.350907042978
 20
-1218.536765516415
 30
0.0
 11
1880.747642228802
 21
-1218.536765516415
 31
0.0
  0
LEADER
  5
73DB
330
1A
100
AcDbEntity
  8
寸法線
100
AcDbLeader
  3
STANDARD
 76
     3
 10
1264.382790728462
 20
-1437.375600281247
 30
0.0
 10
1407.544190447216
 20
-1580.537
 30
0.0
 10
1565.935677760077
 20
-1580.537
 30
0.0
1001
ACAD
1000
DSTYLE
1002
{
1070
   147
1040
0.875
1070
    77
1070
     0
1002
}
  0
MTEXT
  5
73E5
330
1A
100
AcDbEntity
  8
寸法線
100
AcDbMText
 10
1496.541829846601
 20
-1573.097379700248
 30
0.0
 40
21.0
 41
0.0
 71
     9
 72
     5
  1
4-φ25
 73
     1
 44
1.0
1001
ACAD
1000
MTEXTBEGIN
1070
    73
1070
     1
1070
    44
1040
1.0
1070
    74
1070
     0
1000
MTEXTEND
  0
MTEXT
  5
73E6
330
1A
100
AcDbEntity
  8
寸法線
100
AcDbMText
 10
1418.556368948179
 20
-1608.404284185957
 30
0.0
 40
21.0
 41
0.0
 71
     7
 72
     5
  1
(切梁取付用)
 73
     1
 44
1.0
1001
ACAD
1000
MTEXTBEGIN
1070
    73
1070
     1
1070
    44
1040
1.0
1070
    74
1070
     0
1000
MTEXTEND
  0
LINE
  5
753B
330
1A
100
AcDbEntity
  8
中心線
100
AcDbLine
 10
1075.543955963631
 20
-1288.536765516415
 30
0.0
 11
1155.543955963631
 21
-1288.536765516415
 31
0.0
  0
LINE
  5
753C
330
1A
100
AcDbEntity
  8
中心線
100
AcDbLine
 10
1295.543955963631
 20
-1248.536765516415
 30
0.0
 11
1295.543955963631
 21
-1328.536765516415
 31
0.0
  0
LINE
  5
753D
330
1A
100
AcDbEntity
  8
中心線
100
AcDbLine
 10
1255.543955963631
 20
-1288.536765516415
 30
0.0
 11
1335.543955963631
 21
-1288.536765516415
 31
0.0
  0
LINE
  5
753E
330
1A
100
AcDbEntity
  8
中心線
100
AcDbLine
 10
1295.543955963631
 20
-1428.536765516414
 30
0.0
 11
1295.543955963631
 21
-1508.536765516413
 31
0.0
  0
LINE
  5
753F
330
1A
100
AcDbEntity
  8
中心線
100
AcDbLine
 10
1255.543955963631
 20
-1468.536765516414
 30
0.0
 11
1335.543955963631
 21
-1468.536765516414
 31
0.0
  0
LINE
  5
7540
330
1A
100
AcDbEntity
  8
中心線
100
AcDbLine
 10
1115.543955963631
 20
-1428.536765516414
 30
0.0
 11
1115.543955963631
 21
-1508.536765516413
 31
0.0
  0
LINE
  5
7541
330
1A
100
AcDbEntity
  8
中心線
100
AcDbLine
 10
1075.543955963631
 20
-1468.536765516414
 30
0.0
 11
1155.543955963631
 21
-1468.536765516414
 31
0.0
  0
LINE
  5
7542
330
1A
100
AcDbEntity
  8
中心線
100
AcDbLine
 10
1667.052313368585
 20
-1906.604601101536
 30
0.0
 11
1667.052313368585
 21
-1986.604601101536
 31
0.0
  0
LINE
  5
7543
330
1A
100
AcDbEntity
  8
中心線
100
AcDbLine
 10
1627.052313368585
 20
-1946.604601101536
 30
0.0
 11
1707.052313368585
 21
-1946.604601101536
 31
0.0
  0
LINE
  5
7544
330
1A
100
AcDbEntity
  8
中心線
100
AcDbLine
 10
1847.052313368585
 20
-1906.604601101536
 30
0.0
 11
1847.052313368585
 21
-1986.604601101536
 31
0.0
  0
LINE
  5
7545
330
1A
100
AcDbEntity
  8
中心線
100
AcDbLine
 10
1807.052313368585
 20
-1946.604601101536
 30
0.0
 11
1887.052313368585
 21
-1946.604601101536
 31
0.0
  0
LINE
  5
7546
330
1A
100
AcDbEntity
  8
中心線
100
AcDbLine
 10
1847.052313368585
 20
-2086.604601101536
 30
0.0
 11
1847.052313368585
 21
-2166.604601101535
 31
0.0
  0
LINE
  5
7547
330
1A
100
AcDbEntity
  8
中心線
100
AcDbLine
 10
1807.052313368585
 20
-2126.604601101535
 30
0.0
 11
1887.052313368585
 21
-2126.604601101535
 31
0.0
  0
LINE
  5
7548
330
1A
100
AcDbEntity
  8
中心線
100
AcDbLine
 10
1667.052313368585
 20
-2086.604601101536
 30
0.0
 11
1667.052313368585
 21
-2166.604601101535
 31
0.0
  0
LINE
  5
7549
330
1A
100
AcDbEntity
  8
中心線
100
AcDbLine
 10
1627.052313368585
 20
-2126.604601101535
 30
0.0
 11
1707.052313368585
 21
-2126.604601101535
 31
0.0
  0
LINE
  5
754C
330
1A
100
AcDbEntity
  8
中心線
100
AcDbLine
 10
2527.657858687618
 20
-1523.536892528448
 30
0.0
 11
2527.65764374451
 21
-1233.536892528444
 31
0.0
  0
LINE
  5
754F
330
1A
100
AcDbEntity
  8
中心線
100
AcDbLine
 10
1340.543999999999
 20
-1378.536765516414
 30
0.0
 11
1070.544
 21
-1378.536765516414
 31
0.0
  0
LINE
  5
7550
330
1A
100
AcDbEntity
  8
中心線
100
AcDbLine
 10
1757.052044036369
 20
-2171.60436661795
 30
0.0
 11
1757.052044036369
 21
-1901.604366617951
 31
0.0
  0
LINE
  5
7551
330
1A
100
AcDbEntity
  8
中心線
100
AcDbLine
 10
1892.052044036368
 20
-2036.60436661795
 30
0.0
 11
1622.052044036369
 21
-2036.60436661795
 31
0.0
  0
LINE
  5
776B
330
1A
100
AcDbEntity
  8
中心線
100
AcDbLine
 10
1996.91741613993
 20
-1323.536765516415
 30
0.0
 11
1969.899730666748
 21
-1323.536765516415
 31
0.0
  0
LINE
  5
776C
330
1A
100
AcDbEntity
  8
中心線
100
AcDbLine
 10
1996.91741613993
 20
-1433.536765516415
 30
0.0
 11
1969.899730666748
 21
-1433.536765516415
 31
0.0
  0
LINE
  5
776D
330
1A
100
AcDbEntity
  8
寸法線
100
AcDbLine
 10
1983.887854788797
 20
-1267.536765516415
 30
0.0
 11
1983.887854788797
 21
-1267.536765516415
 31
0.0
  0
LINE
  5
776E
330
1A
100
AcDbEntity
  8
破線
100
AcDbLine
 10
1989.887854788797
 20
-1271.000599943153
 30
0.0
 11
1983.887854788797
 21
-1267.536498328015
 31
0.0
  0
LINE
  5
776F
330
1A
100
AcDbEntity
  8
破線
100
AcDbLine
 10
1989.887854788797
 20
-1306.072396712877
 30
0.0
 11
1983.887854788797
 21
-1309.536498328015
 31
0.0
  0
LINE
  5
7770
330
1A
100
AcDbEntity
  8
破線
100
AcDbLine
 10
1983.888317572681
 20
-1267.536765516415
 30
0.0
 11
1977.887854788797
 21
-1267.536765516415
 31
0.0
  0
LINE
  5
7771
330
1A
100
AcDbEntity
  8
破線
100
AcDbLine
 10
1983.887854788797
 20
-1309.536498328015
 30
0.0
 11
1977.887854788797
 21
-1309.536504884786
 31
0.0
  0
LINE
  5
7772
330
1A
100
AcDbEntity
  8
寸法線
100
AcDbLine
 10
1983.887854788797
 20
-1447.536765516415
 30
0.0
 11
1983.887854788797
 21
-1447.536765516415
 31
0.0
  0
LINE
  5
7773
330
1A
100
AcDbEntity
  8
破線
100
AcDbLine
 10
1989.887854788797
 20
-1451.000599943153
 30
0.0
 11
1983.887854788797
 21
-1447.536498328015
 31
0.0
  0
LINE
  5
7774
330
1A
100
AcDbEntity
  8
破線
100
AcDbLine
 10
1989.887854788797
 20
-1486.072396712877
 30
0.0
 11
1983.887854788797
 21
-1489.536498328015
 31
0.0
  0
LINE
  5
7775
330
1A
100
AcDbEntity
  8
破線
100
AcDbLine
 10
1983.888317572681
 20
-1447.536765516415
 30
0.0
 11
1977.887854788797
 21
-1447.536765516415
 31
0.0
  0
LINE
  5
7776
330
1A
100
AcDbEntity
  8
破線
100
AcDbLine
 10
1983.887854788797
 20
-1489.536498328015
 30
0.0
 11
1977.887854788797
 21
-1489.536504884786
 31
0.0
  0
VIEWPORT
  5
22
102
{ACAD_XDICTIONARY
360
780C
102
}
330
17
100
AcDbEntity
 67
     1
  8
0
100
AcDbViewport
 10
-26.02917977568405
 20
142.4880139160445
 30
0.0
 40
410.6750660266664
 41
319.7845437994448
 68
     1
 69
     1
 12
-26.02917977568405
 22
142.4880139160445
 13
0.0
 23
0.0
 14
1.0
 24
1.0
 15
10.0
 25
10.0
 16
0.0
 26
0.0
 36
1.0
 17
0.0
 27
0.0
 37
0.0
 42
50.0
 43
0.0
 44
0.0
 45
319.7845437994448
 50
0.0
 51
0.0
 72
   100
 90
    32768
  1

281
     0
 71
     1
 74
     0
110
0.0
120
0.0
130
0.0
111
1.0
121
0.0
131
0.0
112
0.0
122
1.0
132
0.0
 79
     0
146
0.0
  0
LINE
  5
E14
330
17
100
AcDbEntity
 67
     1
  8
DEFPOINTS
100
AcDbLine
 10
178.0599999999999
 20
284.99
 30
0.0
 11
178.0599999999999
 21
274.99
 31
0.0
  0
LINE
  5
E15
330
17
100
AcDbEntity
 67
     1
  8
DEFPOINTS
100
AcDbLine
 10
-230.12
 20
284.9899999999998
 30
0.0
 11
-230.12
 21
274.9899999999998
 31
0.0
  0
LINE
  5
E16
330
17
100
AcDbEntity
 67
     1
  8
DEFPOINTS
100
AcDbLine
 10
-230.12
 20
284.9899999999998
 30
0.0
 11
-220.06
 21
284.9899999999998
 31
0.0
  0
LINE
  5
E17
330
17
100
AcDbEntity
 67
     1
  8
DEFPOINTS
100
AcDbLine
 10
178.06
 20
0.0000000000000799
 30
0.0
 11
168.06
 21
0.0000000000000799
 31
0.0
  0
LINE
  5
E1B
330
17
100
AcDbEntity
 67
     1
  8
DEFPOINTS
100
AcDbLine
 10
-230.1199999999999
 20
9.999999999999886
 30
0.0
 11
-230.1199999999999
 21
-0.0000000000001137
 31
0.0
  0
LINE
  5
E1C
330
17
100
AcDbEntity
 67
     1
  8
DEFPOINTS
100
AcDbLine
 10
178.06
 20
10.00000000000007
 30
0.0
 11
178.06
 21
0.0000000000000799
 31
0.0
  0
LINE
  5
E1D
330
17
100
AcDbEntity
 67
     1
  8
DEFPOINTS
100
AcDbLine
 10
168.0599999999999
 20
284.99
 30
0.0
 11
178.0599999999999
 21
284.99
 31
0.0
  0
LINE
  5
E1E
330
17
100
AcDbEntity
 67
     1
  8
DEFPOINTS
100
AcDbLine
 10
-220.06
 20
-0.0000000000001137
 30
0.0
 11
-230.1199999999999
 21
-0.0000000000001137
 31
0.0
  0
LINE
  5
E20
330
17
100
AcDbEntity
 67
     1
  8
ZUWAKU
 62
     7
100
AcDbLine
 10
172.6549999999999
 20
280.7280205533942
 30
0.0
 11
172.655
 21
6.728020553394202
 31
0.0
  0
MTEXT
  5
EB9
330
17
100
AcDbEntity
 67
     1
  8
実線
100
AcDbMText
 10
36.05971463168272
 20
25.13192253593833
 30
0.0
 40
3.5
 41
57.13637628431556
 71
     1
 72
     5
  1

 73
     1
 44
1.0
1001
ACAD
1000
MTEXTBEGIN
1070
    73
1070
     1
1070
    44
1040
1.0
1070
    74
1070
     0
1000
MTEXTEND
  0
MTEXT
  5
EBA
330
17
100
AcDbEntity
 67
     1
  8
実線
100
AcDbMText
 10
60.40477930934763
 20
64.60177102984051
 30
0.0
 40
3.5
 41
52.16799573785332
 71
     1
 72
     5
  1

 73
     1
 44
1.0
1001
ACAD
1000
MTEXTBEGIN
1070
    73
1070
     1
1070
    44
1040
1.0
1070
    74
1070
     0
1000
MTEXTEND
  0
LINE
  5
EBD
330
17
100
AcDbEntity
 67
     1
  8
ZUWAKU
 62
     7
100
AcDbLine
 10
172.655
 20
6.728020553394202
 30
0.0
 11
-204.3449999999999
 21
6.728020553394202
 31
0.0
  0
MTEXT
  5
EBF
330
17
100
AcDbEntity
 67
     1
  8
ZUWAKU
100
AcDbMText
 10
120.9216525254086
 20
9.39733673440115
 30
0.0
 40
3.5
 41
8.903056410044085
 71
     1
 72
     5
  1

 73
     1
 44
1.0
1001
ACAD
1000
MTEXTBEGIN
1070
    73
1070
     1
1070
    44
1040
1.0
1070
    74
1070
     0
1000
MTEXTEND
  0
LINE
  5
F68
330
17
100
AcDbEntity
 67
     1
  8
ZUWAKU
 62
     7
100
AcDbLine
 10
-204.345
 20
280.7280205533942
 30
0.0
 11
-204.3449999999999
 21
6.728020553394202
 31
0.0
  0
LINE
  5
F69
330
17
100
AcDbEntity
 67
     1
  8
ZUWAKU
 62
     7
100
AcDbLine
 10
-204.345
 20
280.7280205533942
 30
0.0
 11
172.6549999999999
 21
280.7280205533942
 31
0.0
  0
VIEWPORT
  5
F6B
102
{ACAD_XDICTIONARY
360
780E
102
}
330
17
100
AcDbEntity
 67
     1
  8
DEFPOINTS
100
AcDbViewport
 10
-26.03
 20
142.4949999999999
 30
0.0
 40
408.1800000000002
 41
284.9899999999997
 68
     2
 69
     2
 12
1847.113318155978
 22
-1866.880666296597
 13
0.0
 23
0.0
 14
5.0
 24
5.0
 15
0.0
 25
0.0
 16
0.0
 26
0.0
 36
1.0
 17
0.0
 27
0.0
 37
0.0
 42
50.0
 43
0.0
 44
0.0
 45
1709.939999279519
 50
0.0
 51
0.0
 72
   100
 90
    32768
  1

281
     0
 71
     1
 74
     0
110
0.0
120
0.0
130
0.0
111
1.0
121
0.0
131
0.0
112
0.0
122
1.0
132
0.0
 79
     0
146
0.0
  0
LINE
  5
FDA
330
17
100
AcDbEntity
 67
     1
  8
ZUWAKU
 62
     2
100
AcDbLine
 10
172.655
 20
42.7280205533942
 30
0.0
 11
57.6550000000001
 21
42.72802055339421
 31
0.0
  0
LINE
  5
FDB
330
17
100
AcDbEntity
 67
     1
  8
ZUWAKU
 62
     2
100
AcDbLine
 10
172.655
 20
36.7280205533942
 30
0.0
 11
57.6550000000001
 21
36.7280205533942
 31
0.0
  0
LINE
  5
FDD
330
17
100
AcDbEntity
 67
     1
  8
ZUWAKU
 62
     2
100
AcDbLine
 10
172.655
 20
30.7280205533942
 30
0.0
 11
57.6550000000001
 21
30.7280205533942
 31
0.0
  0
TEXT
  5
FF8
330
17
100
AcDbEntity
 67
     1
  8
TITLE
 62
     2
100
AcDbText
 10
124.0860125246395
 20
44.9786025169436
 30
0.0
 40
3.5
  1
21kg
 72
     4
 11
128.655
 21
46.2280205533942
 31
0.0
100
AcDbText
  0
TEXT
  5
FF9
330
17
100
AcDbEntity
 67
     1
  8
TITLE
 62
     2
100
AcDbText
 10
106.5729330708661
 20
44.4780205533942
 30
0.0
 40
3.5
  1
SS400
 72
     4
 11
113.155
 21
46.2280205533942
 31
0.0
100
AcDbText
  0
TEXT
  5
FFB
330
17
100
AcDbEntity
 67
     1
  8
TITLE
 62
     2
100
AcDbText
 10
72.6550000000001
 20
44.4780205533942
 30
0.0
 40
3.5
  1
スルーサーP
 11
72.6550000000001
 21
46.2280205533942
 31
0.0
100
AcDbText
 73
     2
  0
TEXT
  5
FFC
330
17
100
AcDbEntity
 67
     1
  8
ZUWAKU
 62
     2
100
AcDbText
 10
62.78000000000006
 20
44.4780205533942
 30
0.0
 40
3.5
  1
1
 72
     4
 11
63.65500000000007
 21
46.2280205533942
 31
0.0
100
AcDbText
  0
LINE
  5
FFD
330
17
100
AcDbEntity
 67
     1
  8
ZUWAKU
 62
     2
100
AcDbLine
 10
69.6550000000001
 20
77.72802055339422
 30
0.0
 11
69.6550000000001
 21
36.7280205533942
 31
0.0
  0
LINE
  5
FFE
330
17
100
AcDbEntity
 67
     1
  8
ZUWAKU
 62
     2
100
AcDbLine
 10
121.655
 20
77.7280205533942
 30
0.0
 11
121.655
 21
36.7280205533942
 31
0.0
  0
LINE
  5
FFF
330
17
100
AcDbEntity
 67
     1
  8
ZUWAKU
 62
     2
100
AcDbLine
 10
135.655
 20
77.7280205533942
 30
0.0
 11
135.655
 21
30.7280205533942
 31
0.0
  0
LINE
  5
1000
330
17
100
AcDbEntity
 67
     1
  8
ZUWAKU
 62
     2
100
AcDbLine
 10
104.6549999999999
 20
77.72802055339422
 30
0.0
 11
104.655
 21
30.7280205533942
 31
0.0
  0
LINE
  5
1001
330
17
100
AcDbEntity
 67
     1
  8
ZUWAKU
 62
     2
100
AcDbLine
 10
57.65500000000008
 20
77.72802055339422
 30
0.0
 11
57.6550000000001
 21
6.728020553394181
 31
0.0
  0
TEXT
  5
1002
330
17
100
AcDbEntity
 67
     1
  8
ZUWAKU
 62
     2
100
AcDbText
 10
107.3216666666666
 20
37.9780205533942
 30
0.0
 40
3.5
  1
材　質
 72
     4
 11
113.155
 21
39.7280205533942
 31
0.0
100
AcDbText
  0
LINE
  5
1003
330
17
100
AcDbEntity
 67
     1
  8
ZUWAKU
 62
     2
100
AcDbLine
 10
172.655
 20
18.7280205533942
 30
0.0
 11
-6.344999999999897
 21
18.72802055339421
 31
0.0
  0
LINE
  5
1004
330
17
100
AcDbEntity
 67
     1
  8
ZUWAKU
 62
     2
100
AcDbLine
 10
117.655
 20
12.7280205533942
 30
0.0
 11
72.6550000000001
 21
12.7280205533942
 31
0.0
  0
LINE
  5
1005
330
17
100
AcDbEntity
 67
     1
  8
ZUWAKU
 62
     2
100
AcDbLine
 10
117.655
 20
24.7280205533942
 30
0.0
 11
72.6550000000001
 21
24.7280205533942
 31
0.0
  0
TEXT
  5
1006
330
17
100
AcDbEntity
 67
     1
  8
ZUWAKU
 62
     2
100
AcDbText
 10
81.92166666666677
 20
31.97802055339419
 30
0.0
 40
3.5
  1
設計
 72
     4
 11
85.6550000000001
 21
33.7280205533942
 31
0.0
100
AcDbText
  0
TEXT
  5
1007
330
17
100
AcDbEntity
 67
     1
  8
ZUWAKU
 62
     2
100
AcDbText
 10
77.23833333333344
 20
37.9780205533942
 30
0.0
 40
3.5
  1
品　　　名
 72
     4
 11
87.15500000000011
 21
39.7280205533942
 31
0.0
100
AcDbText
  0
TEXT
  5
1008
330
17
100
AcDbEntity
 67
     1
  8
ZUWAKU
 62
     2
100
AcDbText
 10
58.82166666666678
 20
13.97802055339421
 30
0.0
 40
3.5
  1
納入先
 72
     4
 11
64.65500000000012
 21
15.72802055339421
 31
0.0
100
AcDbText
  0
TEXT
  5
1009
330
17
100
AcDbEntity
 67
     1
  8
ZUWAKU
 62
     2
100
AcDbText
 10
58.82166666666677
 20
25.9780205533942
 30
0.0
 40
3.5
  1
名　称
 72
     4
 11
64.6550000000001
 21
27.7280205533942
 31
0.0
100
AcDbText
  0
TEXT
  5
100A
330
17
100
AcDbEntity
 67
     1
  8
ZUWAKU
 62
     2
100
AcDbText
 10
58.92166666666677
 20
31.97802055339419
 30
0.0
 40
3.5
  1
検認
 72
     4
 11
62.6550000000001
 21
33.7280205533942
 31
0.0
100
AcDbText
  0
TEXT
  5
100B
330
17
100
AcDbEntity
 67
     1
  8
ZUWAKU
 62
     2
100
AcDbText
 10
58.87166666666673
 20
37.9780205533942
 30
0.0
 40
3.5
  1
品 番
 72
     4
 11
63.65500000000007
 21
39.7280205533942
 31
0.0
100
AcDbText
  0
LINE
  5
100C
330
17
100
AcDbEntity
 67
     1
  8
ZUWAKU
 62
     2
100
AcDbLine
 10
80.65500000000007
 20
36.7280205533942
 30
0.0
 11
80.6550000000001
 21
30.7280205533942
 31
0.0
  0
TEXT
  5
100D
330
17
100
AcDbEntity
 67
     1
  8
TITLE
 62
     2
100
AcDbText
 10
89.43833333333341
 20
19.9780205533942
 30
0.0
 40
3.5
  1
全体図
 72
     4
 11
95.15500000000008
 21
21.7280205533942
 31
0.0
100
AcDbText
  0
TEXT
  5
100E
330
17
100
AcDbEntity
 67
     1
  8
DEFPOINTS
 62
     5
100
AcDbText
 10
93.52166666666674
 20
8.094687220060869
 30
0.0
 40
3.5
  1
＃
 72
     4
 11
95.15500000000008
 21
9.728020553394202
 31
0.0
100
AcDbText
  0
TEXT
  5
100F
330
17
100
AcDbEntity
 67
     1
  8
DEFPOINTS
 62
     5
100
AcDbText
 10
93.52166666666674
 20
14.09468722006086
 30
0.0
 40
3.5
  1
＃
 72
     4
 11
95.15500000000008
 21
15.7280205533942
 31
0.0
100
AcDbText
  0
TEXT
  5
1010
330
17
100
AcDbEntity
 67
     1
  8
TITLE
 62
     2
100
AcDbText
 10
83.28416666666674
 20
25.9780205533942
 30
0.0
 40
3.5
  1
スルーサーP
 72
     4
 11
95.15500000000008
 21
27.7280205533942
 31
0.0
100
AcDbText
  0
TEXT
  5
1011
330
17
100
AcDbEntity
 67
     1
  8
ZUWAKU
 62
     2
100
AcDbText
 10
105.6883333333334
 20
31.97802055339419
 30
0.0
 40
3.5
  1
日付
 72
     4
 11
109.6550000000001
 21
33.7280205533942
 31
0.0
100
AcDbText
  0
TEXT
  5
1012
330
17
100
AcDbEntity
 67
     1
  8
ZUWAKU
 62
     2
100
AcDbText
 10
142.0216666666666
 20
37.9780205533942
 30
0.0
 40
3.5
  1
記　　　　事
 72
     4
 11
154.155
 21
39.7280205533942
 31
0.0
100
AcDbText
  0
LINE
  5
1013
330
17
100
AcDbEntity
 67
     1
  8
ZUWAKU
 62
     2
100
AcDbLine
 10
120.655
 20
30.7280205533942
 30
0.0
 11
120.655
 21
6.728020553394181
 31
0.0
  0
TEXT
  5
1014
330
17
100
AcDbEntity
 67
     1
  8
ZUWAKU
 62
     2
100
AcDbText
 10
121.7050000000001
 20
13.97802055339421
 30
0.0
 40
3.5
  1
図　番
 72
     4
 11
127.6550000000001
 21
15.72802055339421
 31
0.0
100
AcDbText
  0
TEXT
  5
1015
330
17
100
AcDbEntity
 67
     1
  8
ZUWAKU
 62
     2
100
AcDbText
 10
121.8216666666668
 20
25.9780205533942
 30
0.0
 40
3.5
  1
型　式
 72
     4
 11
127.6550000000001
 21
27.7280205533942
 31
0.0
100
AcDbText
  0
TEXT
  5
1016
330
17
100
AcDbEntity
 67
     1
  8
ZUWAKU
 62
     2
100
AcDbText
 10
122.8216666666666
 20
37.9780205533942
 30
0.0
 40
3.5
  1
重　量
 72
     4
 11
128.655
 21
39.7280205533942
 31
0.0
100
AcDbText
  0
TEXT
  5
1017
330
17
100
AcDbEntity
 67
     1
  8
ZUWAKU
 62
     2
100
AcDbText
 10
136.9216666666666
 20
31.97802055339419
 30
0.0
 40
3.5
  1
尺度
 72
     4
 11
140.655
 21
33.7280205533942
 31
0.0
100
AcDbText
  0
TEXT
  5
1018
330
17
100
AcDbEntity
 67
     1
  8
TITLE
 62
     2
100
AcDbText
 10
128.2383333333333
 20
8.361353886727563
 30
0.0
 40
3.5
  1
ＳＲ２０－０Ｐ－００
 72
     4
 11
148.655
 21
10.22802055339423
 31
0.0
100
AcDbText
  0
TEXT
  5
1019
330
17
100
AcDbEntity
 67
     1
  8
TITLE
 62
     2
100
AcDbText
 10
141.5216666666666
 20
22.86135388672753
 30
0.0
 40
3.5
  1
Ｈ２０－０Ｐ
 72
     4
 11
153.655
 21
24.7280205533942
 31
0.0
100
AcDbText
  0
LINE
  5
1070
330
17
100
AcDbEntity
 67
     1
  8
ZUWAKU
 62
     2
100
AcDbLine
 10
172.655
 20
63.7280205533942
 30
0.0
 11
57.65500000000008
 21
63.72802055339422
 31
0.0
  0
LINE
  5
1071
330
17
100
AcDbEntity
 67
     1
  8
ZUWAKU
 62
     2
100
AcDbLine
 10
172.655
 20
70.7280205533942
 30
0.0
 11
57.65500000000008
 21
70.72802055339422
 31
0.0
  0
LINE
  5
1072
330
17
100
AcDbEntity
 67
     1
  8
ZUWAKU
 62
     2
100
AcDbLine
 10
172.655
 20
77.7280205533942
 30
0.0
 11
57.65500000000008
 21
77.72802055339422
 31
0.0
  0
TEXT
  5
1087
330
17
100
AcDbEntity
 67
     1
  8
ZUWAKU
 62
     2
100
AcDbText
 10
117.6550000000001
 20
31.97802055339419
 30
0.0
 40
3.5
  1
09.08.28
 11
117.6550000000001
 21
33.7280205533942
 31
0.0
100
AcDbText
 73
     2
  0
TEXT
  5
1088
330
17
100
AcDbEntity
 67
     1
  8
ZUWAKU
 62
     2
100
AcDbText
 10
151.655
 20
31.97802055339419
 30
0.0
 40
3.5
  1
1/6
 11
151.655
 21
33.7280205533942
 31
0.0
100
AcDbText
 73
     2
  0
LINE
  5
77C7
330
17
100
AcDbEntity
 67
     1
  8
ZUWAKU
 62
     2
100
AcDbLine
 10
172.655
 20
56.7280205533942
 30
0.0
 11
57.6550000000001
 21
56.72802055339422
 31
0.0
  0
LINE
  5
77C8
330
17
100
AcDbEntity
 67
     1
  8
ZUWAKU
 62
     2
100
AcDbLine
 10
172.655
 20
49.7280205533942
 30
0.0
 11
57.6550000000001
 21
49.7280205533942
 31
0.0
  0
LINE
  5
77C9
330
17
100
AcDbEntity
 67
     1
  8
ZUWAKU
 62
     2
100
AcDbLine
 10
172.655
 20
42.7280205533942
 30
0.0
 11
57.6550000000001
 21
42.7280205533942
 31
0.0
  0
TEXT
  5
77CA
330
17
100
AcDbEntity
 67
     1
  8
ZUWAKU
 62
     2
100
AcDbText
 10
48.49666666666678
 20
19.70085283171966
 30
0.0
 40
3.5
  1
担当
 72
     4
 11
52.15500000000011
 21
21.45085283171966
 31
0.0
100
AcDbText
  0
LINE
  5
77CB
330
17
100
AcDbEntity
 67
     1
  8
ZUWAKU
 62
     2
100
AcDbLine
 10
16.6550000000001
 20
36.7280205533942
 30
0.0
 11
16.65500000000011
 21
18.72802055339423
 31
0.0
  0
TEXT
  5
77CC
330
17
100
AcDbEntity
 67
     1
  8
寸法線
100
AcDbText
 10
-2.969999999999919
 20
25.98154767812821
 30
0.0
 40
2.5
  1
A
 72
     4
 11
-1.844999999999919
 21
27.23154767812821
 31
0.0
100
AcDbText
  0
LINE
  5
77CD
330
17
100
AcDbEntity
 67
     1
  8
寸法線
100
AcDbLine
 10
-1.844999999999919
 20
29.89661118758931
 30
0.0
 11
0.6550000000000793
 21
25.5664841686671
 31
0.0
  0
LINE
  5
77CE
330
17
100
AcDbEntity
 67
     1
  8
寸法線
100
AcDbLine
 10
-1.844999999999919
 20
29.89661118758931
 30
0.0
 11
-4.344999999999919
 21
25.5664841686671
 31
0.0
  0
TEXT
  5
77CF
330
17
100
AcDbEntity
 67
     1
  8
ZUWAKU
 62
     2
100
AcDbText
 10
-5.578333333333225
 20
19.70085283171966
 30
0.0
 40
3.5
  1
符号
 72
     4
 11
-1.844999999999891
 21
21.45085283171966
 31
0.0
100
AcDbText
  0
LINE
  5
77D0
330
17
100
AcDbEntity
 67
     1
  8
ZUWAKU
 62
     2
100
AcDbLine
 10
0.6550000000000793
 20
25.5664841686671
 30
0.0
 11
-4.344999999999919
 21
25.5664841686671
 31
0.0
  0
TEXT
  5
77D1
330
17
100
AcDbEntity
 67
     1
  8
寸法線
100
AcDbText
 10
-2.844999999999922
 20
32.41386008424328
 30
0.0
 40
2.5
  1
B
 72
     4
 11
-1.844999999999919
 21
33.66386008424328
 31
0.0
100
AcDbText
  0
LINE
  5
77D2
330
17
100
AcDbEntity
 67
     1
  8
ZUWAKU
 62
     2
100
AcDbLine
 10
0.6550000000000793
 20
31.9987965747822
 30
0.0
 11
-4.344999999999919
 21
31.9987965747822
 31
0.0
  0
LINE
  5
77D3
330
17
100
AcDbEntity
 67
     1
  8
寸法線
100
AcDbLine
 10
-1.844999999999919
 20
36.32892359370439
 30
0.0
 11
-4.344999999999919
 21
31.9987965747822
 31
0.0
  0
LINE
  5
77D4
330
17
100
AcDbEntity
 67
     1
  8
寸法線
100
AcDbLine
 10
-1.844999999999919
 20
36.32892359370439
 30
0.0
 11
0.6550000000000793
 21
31.9987965747822
 31
0.0
  0
LINE
  5
77D5
330
17
100
AcDbEntity
 67
     1
  8
ZUWAKU
 62
     2
100
AcDbLine
 10
2.655000000000106
 20
36.72802055339423
 30
0.0
 11
2.655000000000113
 21
18.72802055339423
 31
0.0
  0
TEXT
  5
77D6
330
17
100
AcDbEntity
 67
     1
  8
ZUWAKU
 62
     2
100
AcDbText
 10
4.638333333333439
 20
19.70085283171966
 30
0.0
 40
3.5
  1
日 付
 72
     4
 11
9.655000000000107
 21
21.45085283171966
 31
0.0
100
AcDbText
  0
LINE
  5
77D7
330
17
100
AcDbEntity
 67
     1
  8
ZUWAKU
 62
     2
100
AcDbLine
 10
46.65500000000006
 20
36.7280205533942
 30
0.0
 11
46.65500000000011
 21
18.72802055339423
 31
0.0
  0
TEXT
  5
77D8
330
17
100
AcDbEntity
 67
     1
  8
ZUWAKU
 62
     2
100
AcDbText
 10
20.57166666666679
 20
19.70085283171966
 30
0.0
 40
3.5
  1
訂 正 内 容
 72
     4
 11
31.65500000000012
 21
21.45085283171966
 31
0.0
100
AcDbText
  0
LINE
  5
77D9
330
17
100
AcDbEntity
 67
     1
  8
ZUWAKU
 62
     2
100
AcDbLine
 10
-6.344999999999892
 20
6.728020553394202
 30
0.0
 11
-6.344999999999878
 21
36.72802055339423
 31
0.0
  0
TEXT
  5
77DA
330
17
100
AcDbEntity
 67
     1
  8
ZUWAKU
 62
     2
100
AcDbText
 10
-0.4783333333332485
 20
13.2280205533942
 30
0.0
 40
2.0
  1
株式
 72
     4
 11
1.655000000000085
 21
14.2280205533942
 31
0.0
100
AcDbText
  0
TEXT
  5
77DB
330
17
100
AcDbEntity
 67
     1
  8
ZUWAKU
 62
     2
100
AcDbText
 10
-0.4783333333332481
 20
10.2280205533942
 30
0.0
 40
2.0
  1
会社
 72
     4
 11
1.655000000000085
 21
11.2280205533942
 31
0.0
100
AcDbText
  0
TEXT
  5
77DC
330
17
100
AcDbEntity
 67
     1
  8
ZUWAKU
 62
     2
100
AcDbText
 10
5.588333333333409
 20
10.39468722006086
 30
0.0
 40
5.0
  1
三研テクノクリエイト
 41
0.8
 72
     4
 11
28.65500000000007
 21
12.7280205533942
 31
0.0
100
AcDbText
  0
LINE
  5
77DD
330
17
100
AcDbEntity
 67
     1
  8
ZUWAKU
 62
     2
100
AcDbLine
 10
57.6550000000001
 20
30.7280205533942
 30
0.0
 11
-6.344999999999892
 21
30.7280205533942
 31
0.0
  0
LINE
  5
77DE
330
17
100
AcDbEntity
 67
     1
  8
ZUWAKU
 62
     2
100
AcDbLine
 10
57.6550000000001
 20
36.7280205533942
 30
0.0
 11
-6.344999999999878
 21
36.72802055339423
 31
0.0
  0
LINE
  5
77DF
330
17
100
AcDbEntity
 67
     1
  8
ZUWAKU
 62
     2
100
AcDbLine
 10
57.6550000000001
 20
24.72802055339423
 30
0.0
 11
-6.344999999999878
 21
24.72802055339423
 31
0.0
  0
ENDSEC
  0
SECTION
  2
OBJECTS
  0
DICTIONARY
  5
C
330
0
100
AcDbDictionary
281
     1
  3
ACAD_COLOR
350
6686
  3
ACAD_GROUP
350
D
  3
ACAD_LAYOUT
350
F76
  3
ACAD_MATERIAL
350
6685
  3
ACAD_MLEADERSTYLE
350
774D
  3
ACAD_MLINESTYLE
350
E
  3
ACAD_PLOTSETTINGS
350
F77
  3
ACAD_PLOTSTYLENAME
350
6683
  3
ACAD_SCALELIST
350
772B
  3
ACAD_TABLESTYLE
350
6687
  3
ACAD_VISUALSTYLE
350
771A
  3
ACDB_RECOMPOSE_DATA
350
7791
  3
AcDbVariableDictionary
350
6698
  3
DWGPROPS
350
780B
1001
ACAD
1000
TREAT_AS_HARD
1070
     0
  0
DICTIONARY
  5
77FC
330
8
100
AcDbDictionary
280
     1
281
     1
  0
DICTIONARY
  5
6690
330
2
100
AcDbDictionary
280
     1
281
     1
  3
ACAD_LAYERSTATES
360
6691
  0
DICTIONARY
  5
7777
330
F
100
AcDbDictionary
280
     1
281
     1
  3
ADSK_XREC_LAYER_RECONCILED
360
7778
  0
DICTIONARY
  5
7779
330
10B
100
AcDbDictionary
280
     1
281
     1
  3
ADSK_XREC_LAYER_RECONCILED
360
777A
  0
DICTIONARY
  5
777B
330
10C
100
AcDbDictionary
280
     1
281
     1
  3
ADSK_XREC_LAYER_RECONCILED
360
777C
  0
DICTIONARY
  5
777D
330
10D
100
AcDbDictionary
280
     1
281
     1
  3
ADSK_XREC_LAYER_RECONCILED
360
777E
  0
DICTIONARY
  5
777F
330
10E
100
AcDbDictionary
280
     1
281
     1
  3
ADSK_XREC_LAYER_RECONCILED
360
7780
  0
DICTIONARY
  5
7781
330
10F
100
AcDbDictionary
280
     1
281
     1
  3
ADSK_XREC_LAYER_RECONCILED
360
7782
  0
DICTIONARY
  5
7783
330
2C8
100
AcDbDictionary
280
     1
281
     1
  3
ADSK_XREC_LAYER_RECONCILED
360
7784
  0
DICTIONARY
  5
7785
330
2C9
100
AcDbDictionary
280
     1
281
     1
  3
ADSK_XREC_LAYER_RECONCILED
360
7786
  0
DICTIONARY
  5
7787
330
4F5
100
AcDbDictionary
280
     1
281
     1
  3
ADSK_XREC_LAYER_RECONCILED
360
7788
  0
DICTIONARY
  5
7789
330
4F6
100
AcDbDictionary
280
     1
281
     1
  3
ADSK_XREC_LAYER_RECONCILED
360
778A
  0
DICTIONARY
  5
667A
330
1A
100
AcDbDictionary
280
     1
281
     1
  3
ACAD_LAYOUTSELFREF
360
667B
  3
ACAD_SORTENTS
360
6AF3
  0
DICTIONARY
  5
6678
330
17
100
AcDbDictionary
280
     1
281
     1
  3
ACAD_LAYOUTSELFREF
360
6679
  0
DICTIONARY
  5
77C2
330
112
100
AcDbDictionary
280
     1
281
     1
  3
ACAD_SORTENTS
360
77C3
  0
DICTIONARY
  5
7766
330
7759
100
AcDbDictionary
280
     1
281
     1
  3
ACAD_SORTENTS
360
7767
  0
DICTIONARY
  5
780C
330
22
100
AcDbDictionary
280
     1
281
     1
  3
ACAD_XREC_ROUNDTRIP
360
780D
  0
DICTIONARY
  5
780E
330
F6B
100
AcDbDictionary
280
     1
281
     1
  3
ACAD_XREC_ROUNDTRIP
360
780F
  0
DICTIONARY
  5
6686
102
{ACAD_REACTORS
330
C
102
}
330
C
100
AcDbDictionary
281
     1
  0
DICTIONARY
  5
D
102
{ACAD_REACTORS
330
C
102
}
330
C
100
AcDbDictionary
281
     1
1001
ACAD
1000
TREAT_AS_HARD
1070
     0
  0
DICTIONARY
  5
F76
102
{ACAD_REACTORS
330
C
102
}
330
C
100
AcDbDictionary
281
     1
  3
Model
350
6689
  3
レイアウト1
350
668A
1001
ACAD
1000
TREAT_AS_HARD
1070
     0
  0
DICTIONARY
  5
6685
102
{ACAD_REACTORS
330
C
102
}
330
C
100
AcDbDictionary
281
     1
  3
ByBlock
350
770A
  3
ByLayer
350
7702
  3
Global
350
7712
  0
DICTIONARY
  5
774D
102
{ACAD_REACTORS
330
C
102
}
330
C
100
AcDbDictionary
281
     1
  3
Standard
350
774E
  0
DICTIONARY
  5
E
102
{ACAD_REACTORS
330
C
102
}
330
C
100
AcDbDictionary
281
     1
  3
STANDARD
350
13
1001
ACAD
1000
TREAT_AS_HARD
1070
     0
  0
DICTIONARY
  5
F77
102
{ACAD_REACTORS
330
C
102
}
330
C
100
AcDbDictionary
281
     1
1001
ACAD
1000
TREAT_AS_HARD
1070
     0
  0
ACDBDICTIONARYWDFLT
  5
6683
102
{ACAD_REACTORS
330
C
102
}
330
C
100
AcDbDictionary
281
     1
  3
Normal
350
6684
100
AcDbDictionaryWithDefault
340
6684
  0
DICTIONARY
  5
772B
102
{ACAD_REACTORS
330
C
102
}
330
C
100
AcDbDictionary
281
     1
  3
A0
350
772C
  3
A1
350
772D
  3
A2
350
772E
  3
A3
350
772F
  3
A4
350
7730
  3
A5
350
7731
  3
A6
350
7732
  3
A7
350
7733
  3
A8
350
7734
  3
A9
350
7735
  3
B0
350
7736
  3
B1
350
7737
  3
B2
350
7738
  3
B3
350
7739
  3
B4
350
773A
  3
B5
350
773B
  3
B6
350
773C
  3
B7
350
773D
  3
B8
350
773E
  3
B9
350
773F
  3
C0
350
7740
  3
C1
350
7741
  3
C2
350
7742
  3
C3
350
7743
  3
C4
350
7744
  3
C5
350
7745
  3
C6
350
7746
  3
C7
350
7747
  3
C8
350
7748
  3
C9
350
7749
  3
D0
350
774A
  3
D1
350
774B
  3
D2
350
774C
  0
DICTIONARY
  5
6687
102
{ACAD_REACTORS
330
C
102
}
330
C
100
AcDbDictionary
281
     1
  3
Standard
350
6688
  0
DICTIONARY
  5
771A
102
{ACAD_REACTORS
330
C
102
}
330
C
100
AcDbDictionary
281
     1
  3
2dWireframe
350
7720
  3
3D Hidden
350
7722
  3
3dWireframe
350
7721
  3
Basic
350
771F
  3
Brighten
350
7726
  3
ColorChange
350
772A
  3
Conceptual
350
7723
  3
Dim
350
7725
  3
Facepattern
350
7729
  3
Flat
350
771B
  3
FlatWithEdges
350
771C
  3
Gouraud
350
771D
  3
GouraudWithEdges
350
771E
  3
Linepattern
350
7728
  3
Realistic
350
7724
  3
Thicken
350
7727
  0
XRECORD
  5
7791
102
{ACAD_REACTORS
330
C
102
}
330
C
100
AcDbXrecord
280
     1
 90
        1
330
6688
  0
DICTIONARY
  5
6698
102
{ACAD_REACTORS
330
C
102
}
330
C
100
AcDbDictionary
281
     1
  3
CANNOSCALE
350
778C
  3
CMLEADERSTYLE
350
778B
  3
CTABLESTYLE
350
6699
  3
DIMASSOC
350
66A7
  3
INDEXCTL
350
778E
  3
PROJECTNAME
350
66A8
  3
SORTENTS
350
778D
  0
XRECORD
  5
780B
102
{ACAD_REACTORS
330
C
102
}
330
C
100
AcDbXrecord
280
     1
  1
DWGPROPS COOKIE
  2

  3

  4

  6

  7

  8
島田
  9

300
=
301
=
302
=
303
=
304
=
305
=
306
=
307
=
308
=
309
=
 40
0.5729897453703705
 41
2453234.43442654
 42
2455734.704101018
  1

 90
        0
  0
DICTIONARY
  5
6691
102
{ACAD_REACTORS
330
6690
102
}
330
6690
100
AcDbDictionary
281
     1
  0
XRECORD
  5
7778
102
{ACAD_REACTORS
330
7777
102
}
330
7777
100
AcDbXrecord
280
     1
290
     1
  0
XRECORD
  5
777A
102
{ACAD_REACTORS
330
7779
102
}
330
7779
100
AcDbXrecord
280
     1
290
     1
  0
XRECORD
  5
777C
102
{ACAD_REACTORS
330
777B
102
}
330
777B
100
AcDbXrecord
280
     1
290
     1
  0
XRECORD
  5
777E
102
{ACAD_REACTORS
330
777D
102
}
330
777D
100
AcDbXrecord
280
     1
290
     1
  0
XRECORD
  5
7780
102
{ACAD_REACTORS
330
777F
102
}
330
777F
100
AcDbXrecord
280
     1
290
     1
  0
XRECORD
  5
7782
102
{ACAD_REACTORS
330
7781
102
}
330
7781
100
AcDbXrecord
280
     1
290
     1
  0
XRECORD
  5
7784
102
{ACAD_REACTORS
330
7783
102
}
330
7783
100
AcDbXrecord
280
     1
290
     1
  0
XRECORD
  5
7786
102
{ACAD_REACTORS
330
7785
102
}
330
7785
100
AcDbXrecord
280
     1
290
     1
  0
XRECORD
  5
7788
102
{ACAD_REACTORS
330
7787
102
}
330
7787
100
AcDbXrecord
280
     1
290
     1
  0
XRECORD
  5
778A
102
{ACAD_REACTORS
330
7789
102
}
330
7789
100
AcDbXrecord
280
     1
290
     1
  0
XRECORD
  5
667B
102
{ACAD_REACTORS
330
667A
102
}
330
667A
100
AcDbXrecord
280
     1
340
1A
  0
SORTENTSTABLE
  5
6AF3
102
{ACAD_REACTORS
330
667A
102
}
330
667A
100
AcDbSortentsTable
330
1A
331
61B8
  5
61B8
331
6181
  5
6181
331
6142
  5
6142
331
6275
  5
6279
331
61C0
  5
61C0
331
6236
  5
6238
331
6191
  5
6191
331
623E
  5
6245
331
627D
  5
6281
331
611B
  5
611B
331
6246
  5
624F
331
6293
  5
6297
331
629B
  5
629F
331
6199
  5
6199
331
61D8
  5
61D8
331
61E0
  5
61E0
331
612B
  5
612B
331
6256
  5
625E
331
61A9
  5
61A9
331
621F
  5
6224
331
613B
  5
613B
331
61B1
  5
61B1
331
622F
  5
6231
331
62AB
  5
62AF
331
62B3
  5
688A
331
6182
  5
6182
331
61F8
  5
61F8
331
6143
  5
6143
331
6276
  5
627A
331
61C1
  5
61C1
331
614B
  5
614B
331
6237
  5
6239
331
6153
  5
6153
331
627E
  5
6282
331
611C
  5
611C
331
624F
  5
6256
331
628C
  5
6290
331
6163
  5
6163
331
61D9
  5
61D9
331
612C
  5
612C
331
61A2
  5
61A2
331
61E9
  5
61E9
331
6134
  5
6134
331
61AA
  5
61AA
331
61B2
  5
61B2
331
61F1
  5
61F1
331
6228
  5
622D
331
62B4
  5
688D
331
6230
  5
6236
331
61F9
  5
61FA
331
6144
  5
6144
331
61BA
  5
61BA
331
6201
  5
6202
331
6238
  5
623B
331
6277
  5
627B
331
627F
  5
6283
331
6154
  5
6154
331
615C
  5
615C
331
628D
  5
6291
331
61DA
  5
61DA
331
6125
  5
6125
331
6164
  5
6164
331
61A3
  5
61A3
331
61E2
  5
61E2
331
612D
  5
612D
331
61EA
  5
61EA
331
61AB
  5
61AB
331
617C
  5
617C
331
61B3
  5
61B3
331
61F2
  5
61F2
331
62AD
  5
62B1
331
62B5
  5
6A47
331
6231
  5
6237
331
61FA
  5
61FB
331
6145
  5
6145
331
61BB
  5
61BB
331
6270
  5
6274
331
61C3
  5
61C3
331
618C
  5
618C
331
6202
  5
620B
331
611E
  5
611E
331
61CB
  5
61CB
331
620A
  5
620C
331
6280
  5
6284
331
615D
  5
615D
331
6249
  5
6255
331
628E
  5
6292
331
62A6
  5
62AA
331
619C
  5
619C
331
61DB
  5
61DB
331
6212
  5
621A
331
61A4
  5
61A4
331
61E3
  5
61E3
331
612E
  5
612E
331
621A
  5
621C
331
61AC
  5
61AC
331
6136
  5
6136
331
6175
  5
6175
331
6261
  5
6265
331
6269
  5
626D
331
617D
  5
617D
331
61B4
  5
61B4
331
6271
  5
6275
331
6146
  5
6146
331
61BC
  5
61BC
331
61FB
  5
61FC
331
2ECF
  5
2ECF
331
614E
  5
614E
331
61CC
  5
61CC
331
620B
  5
620D
331
6281
  5
6285
331
615E
  5
615E
331
628F
  5
6293
331
6297
  5
629B
331
62A7
  5
62AB
331
619D
  5
619D
331
61DC
  5
61DC
331
6127
  5
6127
331
6213
  5
621B
331
61E4
  5
61E4
331
612F
  5
612F
331
616E
  5
616E
331
621B
  5
621D
331
61AD
  5
61AD
331
6223
  5
6225
331
626A
  5
626E
331
617E
  5
617E
331
622B
  5
622E
331
6272
  5
6276
331
61BD
  5
61BD
331
6186
  5
6186
331
61FC
  5
61FD
331
61C5
  5
61C5
331
623B
  5
6244
331
627A
  5
627E
331
6196
  5
6196
331
61CD
  5
61CD
331
620C
  5
6212
331
6290
  5
6294
331
6298
  5
629C
331
62A0
  5
62A4
331
619E
  5
619E
331
61DD
  5
61DD
331
616F
  5
616F
331
61AE
  5
61AE
331
6177
  5
6177
331
6224
  5
6226
331
626B
  5
626F
331
617F
  5
617F
331
61B6
  5
61B6
331
61F5
  5
61F5
331
62A8
  5
62AC
331
62B0
  5
62B4
331
6140
  5
6140
331
6273
  5
6277
331
61FD
  5
61FE
331
618F
  5
618F
331
627B
  5
627F
331
6197
  5
6197
331
6158
  5
6158
331
620D
  5
6213
331
6244
  5
6246
331
61D6
  5
61D6
331
6291
  5
6295
331
6299
  5
629D
331
62A1
  5
62A5
331
688D
  5
6AFB
331
61DE
  5
61DE
331
6254
  5
625C
331
625C
  5
625F
331
61A7
  5
61A7
331
6170
  5
6170
331
621D
  5
621F
331
61AF
  5
61AF
331
6696
  5
6A4F
331
6225
  5
6227
331
61F6
  5
61F6
331
622D
  5
622F
331
62A9
  5
62AD
331
62B1
  5
62B5
331
6141
  5
6141
331
6274
  5
6278
331
61BF
  5
61BF
331
61FE
  5
6201
331
6190
  5
6190
331
627C
  5
6280
331
6245
  5
6249
331
61D7
  5
61D7
331
6292
  5
6296
331
629A
  5
629E
331
61A0
  5
61A0
331
61DF
  5
61DF
331
612A
  5
612A
331
6169
  5
6169
331
6255
  5
625D
331
625D
  5
6261
331
61A8
  5
61A8
331
6132
  5
6132
331
6171
  5
6171
331
621E
  5
6223
331
613A
  5
613A
331
61B0
  5
61B0
331
6226
  5
6228
331
626D
  5
6271
331
61F7
  5
61F7
331
622E
  5
6230
331
62AA
  5
62AE
331
62B2
  5
6696
  0
XRECORD
  5
6679
102
{ACAD_REACTORS
330
6678
102
}
330
6678
100
AcDbXrecord
280
     1
340
17
  0
SORTENTSTABLE
  5
77C3
102
{ACAD_REACTORS
330
77C2
102
}
330
77C2
100
AcDbSortentsTable
330
112
  0
SORTENTSTABLE
  5
7767
102
{ACAD_REACTORS
330
7766
102
}
330
7766
100
AcDbSortentsTable
330
7759
  0
XRECORD
  5
780D
102
{ACAD_REACTORS
330
780C
102
}
330
780C
100
AcDbXrecord
280
     1
102
SHADEPLOT
 70
     0
  0
XRECORD
  5
780F
102
{ACAD_REACTORS
330
780E
102
}
330
780E
100
AcDbXrecord
280
     1
102
SHADEPLOT
 70
     0
  0
LAYOUT
  5
6689
102
{ACAD_XDICTIONARY
360
7811
102
}
102
{ACAD_REACTORS
330
F76
102
}
330
F76
100
AcDbPlotSettings
  1

  2
RICOH imagio MP C2500 RPCS
  4

  6

 40
0.0
 41
0.0
 42
0.0
 43
0.0
 44
0.0
 45
0.0
 46
0.0
 47
0.0
 48
0.0
 49
0.0
140
0.0
141
0.0
142
1.0
143
1.0
 70
  1712
 72
     0
 73
     0
 74
     0
  7

 75
     0
147
1.0
148
0.0
149
0.0
100
AcDbLayout
  1
Model
 70
     1
 71
     0
 10
0.0
 20
0.0
 11
12.0
 21
9.0
 12
0.0
 22
0.0
 32
0.0
 14
0.0
 24
0.0
 34
0.0
 15
0.0
 25
0.0
 35
0.0
146
0.0
 13
0.0
 23
0.0
 33
0.0
 16
1.0
 26
0.0
 36
0.0
 17
0.0
 27
1.0
 37
0.0
 76
     0
330
1A
  0
LAYOUT
  5
668A
102
{ACAD_XDICTIONARY
360
6693
102
}
102
{ACAD_REACTORS
330
F76
102
}
330
F76
100
AcDbPlotSettings
  1

  2
RICOH imagio MP C2500 RPCS
  4
A4
  6

 40
5.873749732971191
 41
5.873747825622558
 42
5.873748779296875
 43
5.873748779296875
 44
209.9733276367187
 45
296.9259948730469
 46
0.0
 47
0.0
 48
0.0
 49
0.0
140
0.0
141
0.0
142
1.0
143
36.52072343512639
 70
   688
 72
     0
 73
     1
 74
     1
  7
monochrome.ctb
 75
     0
147
0.0273817138857162
148
5845.438525594513
149
0.479788548708234
100
AcDbLayout
  1
レイアウト1
 70
     1
 71
     1
 10
-238.5807905626231
 20
-8.464306223373881
 11
188.3464590223494
 21
293.4403326496098
 12
0.0
 22
0.0
 32
0.0
 14
-230.1251076440692
 24
-0.0202258741703645
 34
-0.0000000000112497
 15
178.0667480927011
 25
284.9962537062594
 35
0.0000000000002956
146
0.0
 13
0.0
 23
0.0
 33
0.0
 16
1.0
 26
0.0
 36
0.0
 17
0.0
 27
1.0
 37
0.0
 76
     0
330
17
331
22
1001
ACAD_PSEXT
1000
RICOH imagio MP C2500 RPCS
1000
RICOH imagio MP C2500 RPCS
1000
IP_192.168.24.200
1000
RPCS Driver (Windows 2000/XP/Server 2003/Vista)
1070
     0
  0
MATERIAL
  5
770A
102
{ACAD_XDICTIONARY
360
770B
102
}
102
{ACAD_REACTORS
330
6685
102
}
330
6685
100
AcDbMaterial
  1
ByBlock
 72
     0
 43
0.0208333333333333
 43
0.0
 43
0.0
 43
0.0
 43
0.0
 43
0.0208333333333333
 43
0.0
 43
0.0
 43
0.0
 43
0.0
 43
1.0
 43
0.0
 43
0.0
 43
0.0
 43
0.0
 43
1.0
 77
     0
 47
0.0208333333333333
 47
0.0
 47
0.0
 47
0.0
 47
0.0
 47
0.0208333333333333
 47
0.0
 47
0.0
 47
0.0
 47
0.0
 47
1.0
 47
0.0
 47
0.0
 47
0.0
 47
0.0
 47
1.0
171
     0
 49
0.0208333333333333
 49
0.0
 49
0.0
 49
0.0
 49
0.0
 49
0.0208333333333333
 49
0.0
 49
0.0
 49
0.0
 49
0.0
 49
1.0
 49
0.0
 49
0.0
 49
0.0
 49
0.0
 49
1.0
175
     0
142
0.0208333333333333
142
0.0
142
0.0
142
0.0
142
0.0
142
0.0208333333333333
142
0.0
142
0.0
142
0.0
142
0.0
142
1.0
142
0.0
142
0.0
142
0.0
142
0.0
142
1.0
179
     0
144
0.0208333333333333
144
0.0
144
0.0
144
0.0
144
0.0
144
0.0208333333333333
144
0.0
144
0.0
144
0.0
144
0.0
144
1.0
144
0.0
144
0.0
144
0.0
144
0.0
144
1.0
147
0.0208333333333333
147
0.0
147
0.0
147
0.0
147
0.0
147
0.0208333333333333
147
0.0
147
0.0
147
0.0
147
0.0
147
1.0
147
0.0
147
0.0
147
0.0
147
0.0
147
1.0
  0
MATERIAL
  5
7702
102
{ACAD_XDICTIONARY
360
7703
102
}
102
{ACAD_REACTORS
330
6685
102
}
330
6685
100
AcDbMaterial
  1
ByLayer
 72
     0
 43
0.0208333333333333
 43
0.0
 43
0.0
 43
0.0
 43
0.0
 43
0.0208333333333333
 43
0.0
 43
0.0
 43
0.0
 43
0.0
 43
1.0
 43
0.0
 43
0.0
 43
0.0
 43
0.0
 43
1.0
 77
     0
 47
0.0208333333333333
 47
0.0
 47
0.0
 47
0.0
 47
0.0
 47
0.0208333333333333
 47
0.0
 47
0.0
 47
0.0
 47
0.0
 47
1.0
 47
0.0
 47
0.0
 47
0.0
 47
0.0
 47
1.0
171
     0
 49
0.0208333333333333
 49
0.0
 49
0.0
 49
0.0
 49
0.0
 49
0.0208333333333333
 49
0.0
 49
0.0
 49
0.0
 49
0.0
 49
1.0
 49
0.0
 49
0.0
 49
0.0
 49
0.0
 49
1.0
175
     0
142
0.0208333333333333
142
0.0
142
0.0
142
0.0
142
0.0
142
0.0208333333333333
142
0.0
142
0.0
142
0.0
142
0.0
142
1.0
142
0.0
142
0.0
142
0.0
142
0.0
142
1.0
179
     0
144
0.0208333333333333
144
0.0
144
0.0
144
0.0
144
0.0
144
0.0208333333333333
144
0.0
144
0.0
144
0.0
144
0.0
144
1.0
144
0.0
144
0.0
144
0.0
144
0.0
144
1.0
147
0.0208333333333333
147
0.0
147
0.0
147
0.0
147
0.0
147
0.0208333333333333
147
0.0
147
0.0
147
0.0
147
0.0
147
1.0
147
0.0
147
0.0
147
0.0
147
0.0
147
1.0
  0
MATERIAL
  5
7712
102
{ACAD_XDICTIONARY
360
7713
102
}
102
{ACAD_REACTORS
330
6685
102
}
330
6685
100
AcDbMaterial
  1
Global
 72
     0
 43
0.0208333333333333
 43
0.0
 43
0.0
 43
0.0
 43
0.0
 43
0.0208333333333333
 43
0.0
 43
0.0
 43
0.0
 43
0.0
 43
1.0
 43
0.0
 43
0.0
 43
0.0
 43
0.0
 43
1.0
 77
     0
 47
0.0208333333333333
 47
0.0
 47
0.0
 47
0.0
 47
0.0
 47
0.0208333333333333
 47
0.0
 47
0.0
 47
0.0
 47
0.0
 47
1.0
 47
0.0
 47
0.0
 47
0.0
 47
0.0
 47
1.0
171
     0
 49
0.0208333333333333
 49
0.0
 49
0.0
 49
0.0
 49
0.0
 49
0.0208333333333333
 49
0.0
 49
0.0
 49
0.0
 49
0.0
 49
1.0
 49
0.0
 49
0.0
 49
0.0
 49
0.0
 49
1.0
175
     0
142
0.0208333333333333
142
0.0
142
0.0
142
0.0
142
0.0
142
0.0208333333333333
142
0.0
142
0.0
142
0.0
142
0.0
142
1.0
142
0.0
142
0.0
142
0.0
142
0.0
142
1.0
179
     0
144
0.0208333333333333
144
0.0
144
0.0
144
0.0
144
0.0
144
0.0208333333333333
144
0.0
144
0.0
144
0.0
144
0.0
144
1.0
144
0.0
144
0.0
144
0.0
144
0.0
144
1.0
147
0.0208333333333333
147
0.0
147
0.0
147
0.0
147
0.0
147
0.0208333333333333
147
0.0
147
0.0
147
0.0
147
0.0
147
1.0
147
0.0
147
0.0
147
0.0
147
0.0
147
1.0
  0
MLEADERSTYLE
  5
774E
102
{ACAD_REACTORS
330
774D
102
}
330
774D
100
AcDbMLeaderStyle
170
     2
171
     1
172
     0
 90
        2
 40
0.0
 41
0.0
173
     1
 91
-1056964608
340
14
 92
       -2
290
     1
 42
0.09
291
     1
 43
0.36
  3
Standard
 44
0.18
300

342
10
174
     1
178
     6
175
     1
176
     0
 93
-1056964608
 45
0.18
292
     0
297
     0
 46
0.18
 94
-1056964608
 47
1.0
 49
1.0
140
1.0
293
     1
141
0.0
294
     1
177
     0
142
1.0
295
     0
296
     0
143
0.125
1001
ACAD
1000
AcRTDxfName
1000
MLEADERSTYLE
1001
ACAD_MLEADERVER
1070
     2
  0
MLINESTYLE
  5
13
102
{ACAD_REACTORS
330
E
102
}
330
E
100
AcDbMlineStyle
  2
STANDARD
 70
     0
  3

 62
     0
 51
90.0
 52
90.0
 71
     2
 49
0.5
 62
   256
  6
BYLAYER
 49
-0.5
 62
   256
  6
BYLAYER
  0
ACDBPLACEHOLDER
  5
6684
102
{ACAD_REACTORS
330
6683
102
}
330
6683
  0
SCALE
  5
772C
102
{ACAD_REACTORS
330
772B
102
}
330
772B
100
AcDbScale
 70
     0
300
1:1
140
1.0
141
1.0
290
     1
1001
ACAD
1000
AcRTDxfName
1000
SCALE
  0
SCALE
  5
772D
102
{ACAD_REACTORS
330
772B
102
}
330
772B
100
AcDbScale
 70
     0
300
1:2
140
1.0
141
2.0
290
     0
1001
ACAD
1000
AcRTDxfName
1000
SCALE
  0
SCALE
  5
772E
102
{ACAD_REACTORS
330
772B
102
}
330
772B
100
AcDbScale
 70
     0
300
1:4
140
1.0
141
4.0
290
     0
1001
ACAD
1000
AcRTDxfName
1000
SCALE
  0
SCALE
  5
772F
102
{ACAD_REACTORS
330
772B
102
}
330
772B
100
AcDbScale
 70
     0
300
1:5
140
1.0
141
5.0
290
     0
1001
ACAD
1000
AcRTDxfName
1000
SCALE
  0
SCALE
  5
7730
102
{ACAD_REACTORS
330
772B
102
}
330
772B
100
AcDbScale
 70
     0
300
1:8
140
1.0
141
8.0
290
     0
1001
ACAD
1000
AcRTDxfName
1000
SCALE
  0
SCALE
  5
7731
102
{ACAD_REACTORS
330
772B
102
}
330
772B
100
AcDbScale
 70
     0
300
1:10
140
1.0
141
10.0
290
     0
1001
ACAD
1000
AcRTDxfName
1000
SCALE
  0
SCALE
  5
7732
102
{ACAD_REACTORS
330
772B
102
}
330
772B
100
AcDbScale
 70
     0
300
1:16
140
1.0
141
16.0
290
     0
1001
ACAD
1000
AcRTDxfName
1000
SCALE
  0
SCALE
  5
7733
102
{ACAD_REACTORS
330
772B
102
}
330
772B
100
AcDbScale
 70
     0
300
1:20
140
1.0
141
20.0
290
     0
1001
ACAD
1000
AcRTDxfName
1000
SCALE
  0
SCALE
  5
7734
102
{ACAD_REACTORS
330
772B
102
}
330
772B
100
AcDbScale
 70
     0
300
1:30
140
1.0
141
30.0
290
     0
1001
ACAD
1000
AcRTDxfName
1000
SCALE
  0
SCALE
  5
7735
102
{ACAD_REACTORS
330
772B
102
}
330
772B
100
AcDbScale
 70
     0
300
1:40
140
1.0
141
40.0
290
     0
1001
ACAD
1000
AcRTDxfName
1000
SCALE
  0
SCALE
  5
7736
102
{ACAD_REACTORS
330
772B
102
}
330
772B
100
AcDbScale
 70
     0
300
1:50
140
1.0
141
50.0
290
     0
1001
ACAD
1000
AcRTDxfName
1000
SCALE
  0
SCALE
  5
7737
102
{ACAD_REACTORS
330
772B
102
}
330
772B
100
AcDbScale
 70
     0
300
1:100
140
1.0
141
100.0
290
     0
1001
ACAD
1000
AcRTDxfName
1000
SCALE
  0
SCALE
  5
7738
102
{ACAD_REACTORS
330
772B
102
}
330
772B
100
AcDbScale
 70
     0
300
2:1
140
2.0
141
1.0
290
     0
1001
ACAD
1000
AcRTDxfName
1000
SCALE
  0
SCALE
  5
7739
102
{ACAD_REACTORS
330
772B
102
}
330
772B
100
AcDbScale
 70
     0
300
4:1
140
4.0
141
1.0
290
     0
1001
ACAD
1000
AcRTDxfName
1000
SCALE
  0
SCALE
  5
773A
102
{ACAD_REACTORS
330
772B
102
}
330
772B
100
AcDbScale
 70
     0
300
8:1
140
8.0
141
1.0
290
     0
1001
ACAD
1000
AcRTDxfName
1000
SCALE
  0
SCALE
  5
773B
102
{ACAD_REACTORS
330
772B
102
}
330
772B
100
AcDbScale
 70
     0
300
10:1
140
10.0
141
1.0
290
     0
1001
ACAD
1000
AcRTDxfName
1000
SCALE
  0
SCALE
  5
773C
102
{ACAD_REACTORS
330
772B
102
}
330
772B
100
AcDbScale
 70
     0
300
100:1
140
100.0
141
1.0
290
     0
1001
ACAD
1000
AcRTDxfName
1000
SCALE
  0
SCALE
  5
773D
102
{ACAD_REACTORS
330
772B
102
}
330
772B
100
AcDbScale
 70
     0
300
1/128" = 1'-0"
140
0.0078125
141
12.0
290
     0
1001
ACAD
1000
AcRTDxfName
1000
SCALE
  0
SCALE
  5
773E
102
{ACAD_REACTORS
330
772B
102
}
330
772B
100
AcDbScale
 70
     0
300
1/64" = 1'-0"
140
0.015625
141
12.0
290
     0
1001
ACAD
1000
AcRTDxfName
1000
SCALE
  0
SCALE
  5
773F
102
{ACAD_REACTORS
330
772B
102
}
330
772B
100
AcDbScale
 70
     0
300
1/32" = 1'-0"
140
0.03125
141
12.0
290
     0
1001
ACAD
1000
AcRTDxfName
1000
SCALE
  0
SCALE
  5
7740
102
{ACAD_REACTORS
330
772B
102
}
330
772B
100
AcDbScale
 70
     0
300
1/16" = 1'-0"
140
0.0625
141
12.0
290
     0
1001
ACAD
1000
AcRTDxfName
1000
SCALE
  0
SCALE
  5
7741
102
{ACAD_REACTORS
330
772B
102
}
330
772B
100
AcDbScale
 70
     0
300
3/32" = 1'-0"
140
0.09375
141
12.0
290
     0
1001
ACAD
1000
AcRTDxfName
1000
SCALE
  0
SCALE
  5
7742
102
{ACAD_REACTORS
330
772B
102
}
330
772B
100
AcDbScale
 70
     0
300
1/8" = 1'-0"
140
0.125
141
12.0
290
     0
1001
ACAD
1000
AcRTDxfName
1000
SCALE
  0
SCALE
  5
7743
102
{ACAD_REACTORS
330
772B
102
}
330
772B
100
AcDbScale
 70
     0
300
3/16" = 1'-0"
140
0.1875
141
12.0
290
     0
1001
ACAD
1000
AcRTDxfName
1000
SCALE
  0
SCALE
  5
7744
102
{ACAD_REACTORS
330
772B
102
}
330
772B
100
AcDbScale
 70
     0
300
1/4" = 1'-0"
140
0.25
141
12.0
290
     0
1001
ACAD
1000
AcRTDxfName
1000
SCALE
  0
SCALE
  5
7745
102
{ACAD_REACTORS
330
772B
102
}
330
772B
100
AcDbScale
 70
     0
300
3/8" = 1'-0"
140
0.375
141
12.0
290
     0
1001
ACAD
1000
AcRTDxfName
1000
SCALE
  0
SCALE
  5
7746
102
{ACAD_REACTORS
330
772B
102
}
330
772B
100
AcDbScale
 70
     0
300
1/2" = 1'-0"
140
0.5
141
12.0
290
     0
1001
ACAD
1000
AcRTDxfName
1000
SCALE
  0
SCALE
  5
7747
102
{ACAD_REACTORS
330
772B
102
}
330
772B
100
AcDbScale
 70
     0
300
3/4" = 1'-0"
140
0.75
141
12.0
290
     0
1001
ACAD
1000
AcRTDxfName
1000
SCALE
  0
SCALE
  5
7748
102
{ACAD_REACTORS
330
772B
102
}
330
772B
100
AcDbScale
 70
     0
300
1" = 1'-0"
140
1.0
141
12.0
290
     0
1001
ACAD
1000
AcRTDxfName
1000
SCALE
  0
SCALE
  5
7749
102
{ACAD_REACTORS
330
772B
102
}
330
772B
100
AcDbScale
 70
     0
300
1-1/2" = 1'-0"
140
1.5
141
12.0
290
     0
1001
ACAD
1000
AcRTDxfName
1000
SCALE
  0
SCALE
  5
774A
102
{ACAD_REACTORS
330
772B
102
}
330
772B
100
AcDbScale
 70
     0
300
3" = 1'-0"
140
3.0
141
12.0
290
     0
1001
ACAD
1000
AcRTDxfName
1000
SCALE
  0
SCALE
  5
774B
102
{ACAD_REACTORS
330
772B
102
}
330
772B
100
AcDbScale
 70
     0
300
6" = 1'-0"
140
6.0
141
12.0
290
     0
1001
ACAD
1000
AcRTDxfName
1000
SCALE
  0
SCALE
  5
774C
102
{ACAD_REACTORS
330
772B
102
}
330
772B
100
AcDbScale
 70
     0
300
1'-0" = 1'-0"
140
12.0
141
12.0
290
     0
1001
ACAD
1000
AcRTDxfName
1000
SCALE
  0
TABLESTYLE
  5
6688
102
{ACAD_XDICTIONARY
360
778F
102
}
102
{ACAD_REACTORS
330
6687
102
}
330
6687
100
AcDbTableStyle
  3
Standard
 70
     0
 71
     0
 40
0.06
 41
0.06
280
     0
281
     0
  7
STANDARD
140
0.18
170
     2
 62
     0
 63
     7
283
     0
274
    -2
284
     1
 64
     0
275
    -2
285
     1
 65
     0
276
    -2
286
     1
 66
     0
277
    -2
287
     1
 67
     0
278
    -2
288
     1
 68
     0
279
    -2
289
     1
 69
     0
  7
STANDARD
140
0.25
170
     5
 62
     0
 63
     7
283
     0
274
    -2
284
     1
 64
     0
275
    -2
285
     1
 65
     0
276
    -2
286
     1
 66
     0
277
    -2
287
     1
 67
     0
278
    -2
288
     1
 68
     0
279
    -2
289
     1
 69
     0
  7
STANDARD
140
0.18
170
     5
 62
     0
 63
     7
283
     0
274
    -2
284
     1
 64
     0
275
    -2
285
     1
 65
     0
276
    -2
286
     1
 66
     0
277
    -2
287
     1
 67
     0
278
    -2
288
     1
 68
     0
279
    -2
289
     1
 69
     0
  0
VISUALSTYLE
  5
7720
102
{ACAD_REACTORS
330
771A
102
}
330
771A
100
AcDbVisualStyle
  2
2dWireframe
 70
     4
 71
     0
 72
     2
 73
     0
 90
        0
 40
-0.6
 41
-30.0
 62
     5
 63
     7
 74
     1
 91
        4
 64
     7
 65
   257
 75
     1
175
     1
 42
1.0
 92
        0
 66
   257
 43
1.0
 76
     1
 77
     6
 78
     2
 67
     7
 79
     5
170
     0
171
     0
290
     0
174
     0
 93
        1
 44
0.0
173
     0
291
     0
 45
0.0
1001
ACAD
1000
AcRTDxfName
1000
VISUALSTYLE
1000
AcDbSavedByObjectVersion
1070
     0
  0
VISUALSTYLE
  5
7722
102
{ACAD_REACTORS
330
771A
102
}
330
771A
100
AcDbVisualStyle
  2
3D Hidden
 70
     6
 71
     1
 72
     2
 73
     2
 90
        0
 40
-0.6
 41
-30.0
 62
     5
 63
     7
 74
     2
 91
        2
 64
     7
 65
   257
 75
     2
175
     1
 42
40.0
 92
        0
 66
   257
 43
1.0
 76
     1
 77
     6
 78
     2
 67
     7
 79
     3
170
     0
171
     0
290
     0
174
     0
 93
        1
 44
0.0
173
     0
291
     0
 45
0.0
1001
ACAD
1000
AcRTDxfName
1000
VISUALSTYLE
1000
AcDbSavedByObjectVersion
1070
     0
  0
VISUALSTYLE
  5
7721
102
{ACAD_REACTORS
330
771A
102
}
330
771A
100
AcDbVisualStyle
  2
3dWireframe
 70
     5
 71
     0
 72
     2
 73
     0
 90
        0
 40
-0.6
 41
-30.0
 62
     5
 63
     7
 74
     1
 91
        4
 64
     7
 65
   257
 75
     1
175
     1
 42
1.0
 92
        0
 66
   257
 43
1.0
 76
     1
 77
     6
 78
     2
 67
     7
 79
     5
170
     0
171
     0
290
     0
174
     0
 93
        1
 44
0.0
173
     0
291
     0
 45
0.0
1001
ACAD
1000
AcRTDxfName
1000
VISUALSTYLE
1000
AcDbSavedByObjectVersion
1070
     0
  0
VISUALSTYLE
  5
771F
102
{ACAD_REACTORS
330
771A
102
}
330
771A
100
AcDbVisualStyle
  2
Basic
 70
     7
 71
     1
 72
     0
 73
     1
 90
        0
 40
-0.6
 41
-30.0
 62
     5
 63
     7
 74
     0
 91
        4
 64
     7
 65
   257
 75
     1
175
     1
 42
1.0
 92
        8
 66
     7
 43
1.0
 76
     1
 77
     6
 78
     2
 67
     7
 79
     5
170
     0
171
     0
290
     0
174
     0
 93
        1
 44
0.0
173
     0
291
     1
 45
0.0
1001
ACAD
1000
AcRTDxfName
1000
VISUALSTYLE
1000
AcDbSavedByObjectVersion
1070
     0
  0
VISUALSTYLE
  5
7726
102
{ACAD_REACTORS
330
771A
102
}
330
771A
100
AcDbVisualStyle
  2
Brighten
 70
    12
 71
     2
 72
     2
 73
     0
 90
        0
 40
-0.6
 41
-30.0
 62
     5
 63
     7
 74
     1
 91
        4
 64
     7
 65
   257
 75
     1
175
     1
 42
1.0
 92
        8
 66
     7
 43
1.0
 76
     1
 77
     6
 78
     2
 67
     7
 79
     5
170
     0
171
     0
290
     0
174
     0
 93
        1
 44
50.0
173
     0
291
     1
 45
0.0
1001
ACAD
1000
AcRTDxfName
1000
VISUALSTYLE
1000
AcDbSavedByObjectVersion
1070
     0
  0
VISUALSTYLE
  5
772A
102
{ACAD_REACTORS
330
771A
102
}
330
771A
100
AcDbVisualStyle
  2
ColorChange
 70
    16
 71
     2
 72
     2
 73
     3
 90
        0
 40
-0.6
 41
-30.0
 62
     5
 63
     8
 74
     1
 91
        4
 64
     7
 65
   257
 75
     1
175
     1
 42
1.0
 92
        8
 66
     8
 43
1.0
 76
     1
 77
     6
 78
     2
 67
     7
 79
     5
170
     0
171
     0
290
     0
174
     0
 93
        1
 44
0.0
173
     0
291
     1
 45
0.0
1001
ACAD
1000
AcRTDxfName
1000
VISUALSTYLE
1000
AcDbSavedByObjectVersion
1070
     0
  0
VISUALSTYLE
  5
7723
102
{ACAD_REACTORS
330
771A
102
}
330
771A
100
AcDbVisualStyle
  2
Conceptual
 70
     9
 71
     3
 72
     2
 73
     0
 90
        0
 40
-0.6
 41
-30.0
 62
     5
 63
     7
 74
     2
 91
        2
 64
     7
 65
   257
 75
     1
175
     1
 42
40.0
 92
        8
 66
     7
 43
1.0
 76
     1
 77
     6
 78
     2
 67
     7
 79
     3
170
     0
171
     0
290
     0
174
     0
 93
        1
 44
0.0
173
     0
291
     0
 45
0.0
1001
ACAD
1000
AcRTDxfName
1000
VISUALSTYLE
1000
AcDbSavedByObjectVersion
1070
     0
  0
VISUALSTYLE
  5
7725
102
{ACAD_REACTORS
330
771A
102
}
330
771A
100
AcDbVisualStyle
  2
Dim
 70
    11
 71
     2
 72
     2
 73
     0
 90
        0
 40
-0.6
 41
-30.0
 62
     5
 63
     7
 74
     1
 91
        4
 64
     7
 65
   257
 75
     1
175
     1
 42
1.0
 92
        8
 66
     7
 43
1.0
 76
     1
 77
     6
 78
     2
 67
     7
 79
     5
170
     0
171
     0
290
     0
174
     0
 93
        1
 44
-50.0
173
     0
291
     1
 45
0.0
1001
ACAD
1000
AcRTDxfName
1000
VISUALSTYLE
1000
AcDbSavedByObjectVersion
1070
     0
  0
VISUALSTYLE
  5
7729
102
{ACAD_REACTORS
330
771A
102
}
330
771A
100
AcDbVisualStyle
  2
Facepattern
 70
    15
 71
     2
 72
     2
 73
     0
 90
        0
 40
-0.6
 41
-30.0
 62
     5
 63
     7
 74
     1
 91
        4
 64
     7
 65
   257
 75
     1
175
     1
 42
1.0
 92
        8
 66
     7
 43
1.0
 76
     1
 77
     6
 78
     2
 67
     7
 79
     5
170
     0
171
     0
290
     0
174
     0
 93
        1
 44
0.0
173
     0
291
     1
 45
0.0
1001
ACAD
1000
AcRTDxfName
1000
VISUALSTYLE
1000
AcDbSavedByObjectVersion
1070
     0
  0
VISUALSTYLE
  5
771B
102
{ACAD_REACTORS
330
771A
102
}
330
771A
100
AcDbVisualStyle
  2
Flat
 70
     0
 71
     2
 72
     1
 73
     1
 90
        2
 40
-0.6
 41
30.0
 62
     5
 63
     7
 74
     0
 91
        4
 64
     7
 65
   257
 75
     1
175
     1
 42
1.0
 92
        8
 66
     7
 43
1.0
 76
     1
 77
     6
 78
     2
 67
     7
 79
     5
170
     0
171
     0
290
     0
174
     0
 93
       13
 44
0.0
173
     0
291
     1
 45
0.0
1001
ACAD
1000
AcRTDxfName
1000
VISUALSTYLE
1000
AcDbSavedByObjectVersion
1070
     0
  0
VISUALSTYLE
  5
771C
102
{ACAD_REACTORS
330
771A
102
}
330
771A
100
AcDbVisualStyle
  2
FlatWithEdges
 70
     1
 71
     2
 72
     1
 73
     1
 90
        2
 40
-0.6
 41
30.0
 62
     5
 63
     7
 74
     1
 91
        4
 64
     7
 65
   257
 75
     1
175
     1
 42
1.0
 92
        0
 66
   257
 43
1.0
 76
     1
 77
     6
 78
     2
 67
     7
 79
     5
170
     0
171
     0
290
     0
174
     0
 93
       13
 44
0.0
173
     0
291
     1
 45
0.0
1001
ACAD
1000
AcRTDxfName
1000
VISUALSTYLE
1000
AcDbSavedByObjectVersion
1070
     0
  0
VISUALSTYLE
  5
771D
102
{ACAD_REACTORS
330
771A
102
}
330
771A
100
AcDbVisualStyle
  2
Gouraud
 70
     2
 71
     2
 72
     2
 73
     1
 90
        2
 40
-0.6
 41
30.0
 62
     5
 63
     7
 74
     0
 91
        4
 64
     7
 65
   257
 75
     1
175
     1
 42
1.0
 92
        0
 66
     7
 43
1.0
 76
     1
 77
     6
 78
     2
 67
     7
 79
     5
170
     0
171
     0
290
     0
174
     0
 93
       13
 44
0.0
173
     0
291
     1
 45
0.0
1001
ACAD
1000
AcRTDxfName
1000
VISUALSTYLE
1000
AcDbSavedByObjectVersion
1070
     0
  0
VISUALSTYLE
  5
771E
102
{ACAD_REACTORS
330
771A
102
}
330
771A
100
AcDbVisualStyle
  2
GouraudWithEdges
 70
     3
 71
     2
 72
     2
 73
     1
 90
        2
 40
-0.6
 41
30.0
 62
     5
 63
     7
 74
     1
 91
        4
 64
     7
 65
   257
 75
     1
175
     1
 42
1.0
 92
        0
 66
   257
 43
1.0
 76
     1
 77
     6
 78
     2
 67
     7
 79
     5
170
     0
171
     0
290
     0
174
     0
 93
       13
 44
0.0
173
     0
291
     1
 45
0.0
1001
ACAD
1000
AcRTDxfName
1000
VISUALSTYLE
1000
AcDbSavedByObjectVersion
1070
     0
  0
VISUALSTYLE
  5
7728
102
{ACAD_REACTORS
330
771A
102
}
330
771A
100
AcDbVisualStyle
  2
Linepattern
 70
    14
 71
     2
 72
     2
 73
     0
 90
        0
 40
-0.6
 41
-30.0
 62
     5
 63
     7
 74
     1
 91
        4
 64
     7
 65
   257
 75
     7
175
     7
 42
1.0
 92
        8
 66
     7
 43
1.0
 76
     1
 77
     6
 78
     2
 67
     7
 79
     5
170
     0
171
     0
290
     0
174
     0
 93
        1
 44
0.0
173
     0
291
     1
 45
0.0
1001
ACAD
1000
AcRTDxfName
1000
VISUALSTYLE
1000
AcDbSavedByObjectVersion
1070
     0
  0
VISUALSTYLE
  5
7724
102
{ACAD_REACTORS
330
771A
102
}
330
771A
100
AcDbVisualStyle
  2
Realistic
 70
     8
 71
     2
 72
     2
 73
     0
 90
        0
 40
-0.6
 41
-30.0
 62
     5
 63
     7
 74
     1
 91
        0
 64
     7
 65
   257
 75
     1
175
     1
 42
1.0
 92
        8
 66
     8
 43
1.0
 76
     1
 77
     6
 78
     2
 67
     7
 79
     5
170
     0
171
     0
290
     0
174
     0
 93
       13
 44
0.0
173
     0
291
     0
 45
0.0
1001
ACAD
1000
AcRTDxfName
1000
VISUALSTYLE
1000
AcDbSavedByObjectVersion
1070
     0
  0
VISUALSTYLE
  5
7727
102
{ACAD_REACTORS
330
771A
102
}
330
771A
100
AcDbVisualStyle
  2
Thicken
 70
    13
 71
     2
 72
     2
 73
     0
 90
        0
 40
-0.6
 41
-30.0
 62
     5
 63
     7
 74
     1
 91
        4
 64
     7
 65
   257
 75
     1
175
     1
 42
1.0
 92
       12
 66
     7
 43
1.0
 76
     1
 77
     6
 78
     2
 67
     7
 79
     5
170
     0
171
     0
290
     0
174
     0
 93
        1
 44
0.0
173
     0
291
     1
 45
0.0
1001
ACAD
1000
AcRTDxfName
1000
VISUALSTYLE
1000
AcDbSavedByObjectVersion
1070
     0
  0
DICTIONARYVAR
  5
778C
102
{ACAD_REACTORS
330
6698
102
}
330
6698
100
DictionaryVariables
280
     0
  1
1:1
  0
DICTIONARYVAR
  5
778B
102
{ACAD_REACTORS
330
6698
102
}
330
6698
100
DictionaryVariables
280
     0
  1
STANDARD
  0
DICTIONARYVAR
  5
6699
102
{ACAD_REACTORS
330
6698
102
}
330
6698
100
DictionaryVariables
280
     0
  1
STANDARD
  0
DICTIONARYVAR
  5
66A7
102
{ACAD_REACTORS
330
6698
102
}
330
6698
100
DictionaryVariables
280
     0
  1
1
  0
DICTIONARYVAR
  5
778E
102
{ACAD_REACTORS
330
6698
102
}
330
6698
100
DictionaryVariables
280
     0
  1
0
  0
DICTIONARYVAR
  5
66A8
102
{ACAD_REACTORS
330
6698
102
}
330
6698
100
DictionaryVariables
280
     0
  1

  0
DICTIONARYVAR
  5
778D
102
{ACAD_REACTORS
330
6698
102
}
330
6698
100
DictionaryVariables
280
     0
  1
127
  0
DICTIONARY
  5
7811
330
6689
100
AcDbDictionary
280
     1
281
     1
  3
ACAD_XREC_ROUNDTRIP
360
7812
  0
DICTIONARY
  5
6693
330
668A
100
AcDbDictionary
280
     1
281
     1
  3
ACAD_XREC_ROUNDTRIP
360
7813
  3
ADSK_XREC_LAYOUTTHUMBNAIL
360
6694
  0
DICTIONARY
  5
770B
330
770A
100
AcDbDictionary
280
     1
281
     1
  3
ACAD_XREC_ROUNDTRIP
360
7815
  3
BUMPTILE
360
770D
  3
DIFFUSETILE
360
770C
  3
OPACITYTILE
360
7710
  3
REFLECTIONTILE
360
770F
  3
REFRACTIONTILE
360
7711
  3
SPECULARTILE
360
770E
  0
DICTIONARY
  5
7703
330
7702
100
AcDbDictionary
280
     1
281
     1
  3
ACAD_XREC_ROUNDTRIP
360
7814
  3
BUMPTILE
360
7705
  3
DIFFUSETILE
360
7704
  3
OPACITYTILE
360
7708
  3
REFLECTIONTILE
360
7707
  3
REFRACTIONTILE
360
7709
  3
SPECULARTILE
360
7706
  0
DICTIONARY
  5
7713
330
7712
100
AcDbDictionary
280
     1
281
     1
  3
ACAD_XREC_ROUNDTRIP
360
7816
  3
BUMPTILE
360
7715
  3
DIFFUSETILE
360
7714
  3
OPACITYTILE
360
7718
  3
REFLECTIONTILE
360
7717
  3
REFRACTIONTILE
360
7719
  3
SPECULARTILE
360
7716
  0
DICTIONARY
  5
778F
330
6688
100
AcDbDictionary
280
     1
281
     1
  3
ACAD_ROUNDTRIP_2008_TABLESTYLE_CELLSTYLEMAP
360
780A
  3
ACAD_XREC_ROUNDTRIP
360
7810
  0
XRECORD
  5
7812
102
{ACAD_REACTORS
330
7811
102
}
330
7811
100
AcDbXrecord
280
     1
102
SHADEPLOT
 70
     0
102
SHADEPLOTRESLEVEL
 70
     2
102
SHADEPLOTCUSTOMDPI
 70
   300
  0
XRECORD
  5
7813
102
{ACAD_REACTORS
330
6693
102
}
330
6693
100
AcDbXrecord
280
     1
102
SHADEPLOT
 70
     0
102
SHADEPLOTRESLEVEL
 70
     2
102
SHADEPLOTCUSTOMDPI
 70
   300
  0
XRECORD
  5
6694
102
{ACAD_REACTORS
330
6693
102
}
330
6693
100
AcDbXrecord
280
     1
310
28000000B40000007F00000001000800000000004C590000000000000000000000010000000000000000000000000000FFFFFF000000000000000000000000000000000000000000000000000000000000000000330000006600000099000000CC000000FF00000000330000333300006633000099330000CC330000FF3300
310
0000660000336600006666000099660000CC660000FF66000000990000339900006699000099990000CC990000FF99000000CC000033CC000066CC000099CC0000CCCC0000FFCC000000FF000033FF000066FF000099FF0000CCFF0000FFFF000000003300330033006600330099003300CC003300FF003300003333003333
310
33006633330099333300CC333300FF33330000663300336633006666330099663300CC663300FF66330000993300339933006699330099993300CC993300FF99330000CC330033CC330066CC330099CC3300CCCC3300FFCC330000FF330033FF330066FF330099FF3300CCFF3300FFFF330000006600330066006600660099
310
006600CC006600FF00660000336600333366006633660099336600CC336600FF33660000666600336666006666660099666600CC666600FF66660000996600339966006699660099996600CC996600FF99660000CC660033CC660066CC660099CC6600CCCC6600FFCC660000FF660033FF660066FF660099FF6600CCFF6600
310
FFFF660000009900330099006600990099009900CC009900FF00990000339900333399006633990099339900CC339900FF33990000669900336699006666990099669900CC669900FF66990000999900339999006699990099999900CC999900FF99990000CC990033CC990066CC990099CC9900CCCC9900FFCC990000FF99
310
0033FF990066FF990099FF9900CCFF9900FFFF99000000CC003300CC006600CC009900CC00CC00CC00FF00CC000033CC003333CC006633CC009933CC00CC33CC00FF33CC000066CC003366CC006666CC009966CC00CC66CC00FF66CC000099CC003399CC006699CC009999CC00CC99CC00FF99CC0000CCCC0033CCCC0066CC
310
CC0099CCCC00CCCCCC00FFCCCC0000FFCC0033FFCC0066FFCC0099FFCC00CCFFCC00FFFFCC000000FF003300FF006600FF009900FF00CC00FF00FF00FF000033FF003333FF006633FF009933FF00CC33FF00FF33FF000066FF003366FF006666FF009966FF00CC66FF00FF66FF000099FF003399FF006699FF009999FF00CC
310
99FF00FF99FF0000CCFF0033CCFF0066CCFF0099CCFF00CCCCFF00FFCCFF0000FFFF0033FFFF0066FFFF0099FFFF00CCFFFF00FFFFFF00000000000D0D0D001A1A1A00282828003535350043434300505050005D5D5D006B6B6B00787878008686860093939300A1A1A100AEAEAE00BBBBBB00C9C9C900D6D6D600E4E4E400
310
F1F1F100FFFFFF0000000000000000000000000000000000000000000000000000000000000000000000000000000000F5F5F5F5F5F5F5F5F5F5F5F5F5F5F5F5F5F5F5F5F5F5F5F5F5F5F5F5F5F5F5F5F5F5F5F5F5F5F5F5F5F5F5F5F5F5F5F5F5F5F5F5F5F5F5F5F5F5F5F5F5F5F5F5F5F5F5F5F5F5F5F5F5F5F5F5F5F5F5
310
F5F5F5F5F5F5F5F5F5F5F5F5F5F5F5F5F5F5F5F5F5F5F5F5F5F5F5F5F5F5F5F5F5F5F5F5F5F5F5F5F5F5F5F5F5F5F5F5F5F5F5F5F5F5F5F5F5F5F5F5F5F5F5F5F5F5F5F5F5F5F5F5F5F5F5F5F5F5F5F5F5F5F5F5F5F5F5F5F5F5F5F5F5F5F5F5F5F5F5F5F5F5E2E2E2E2E2E2E2E2E2E2E2E2E2E2E2E2E2E2E2E2E2E2E2E2E2
310
E2E2E2E2E2E2E2E2E2E2E2E2E2E2E2E2E2E2E2E2E2E2E2E2E2E2E2E2E2E2E2E2E2E2E2E2E2E2E2E2E2E2E2E2E2E2E2E2E2E2E2E2E2E2E2E2E2E2E2E2E2E2E2E2E2E2E2E2E2E2E2E2E2E2E2E2E2E2E2E2E2E2E2E2E2E2E2E2E2E2E2E2E2E2E2E2E2E2E2E2E2E2E2E2E2E2E2E2E2E2E2E2E2E2E2E2E2E2E2E2E2E2E2E2E2E2E2
310
E2E2E2E2E2E2E2E2E2E2E2E2E2E2E2E2E2E2E2E2E2E2E2E2E2F5F5F5E2E2E2E2E2E2E2E2E2E2E2E2E2E2E2E2E2E2E2E2E2E2E2E2E2E2E2E2E2E2E2E2E2E2E2E2E2E2E2E2E2E2E2E2E2E2E2E2E2E2E2E2E2E2E2E2E2E2E2E2E2E2E2E2E2E2E2E2E2E2E2E2E2E2E2E2E2E2E2E2E2E2E2E2E2E2E2E2E2E2E2E2E2E2E2E2E2E2E2
310
E2E2E2E2E2E2E2E2E2E2E2E2E2E2E2E2E2E2E2E2E2E2E2E2E2E2E2E2E2E2E2E2E2E2E2E2E2E2E2E2E2E2E2E2E2E2E2E2E2E2E2E2E2E2E2E2E2E2E2E2E2E2E2E2E2E2E2E2E2E2E2E2E2E2E2E2E2E2F5F5F5E2E2E2E2E2E2E2E2E2E2E2E2E2E2E2E2E2E2E2E2E2E2E2E2E2E2E2E2E2E2E2E2E2E2E2E2E2E2E2E2E2E2E2E2E2E2
310
E2E2E2E2E2E2E2E2E2E2E2E2E2E2E2E2E2E2E2E2E2E2E2E2E2E2E2E2E2E2E2E2E2E2E2E2E2E2E2E2E2E2E2E2E2E2E2E2E2E2E2E2E2E2E2E2E2E2E2E2E2E2E2E2E2E2E2E2E2E2E2E2E2E2E2E2E2E2E2E2E2E2E2E2E2E2E2E2E2E2E2E2E2E2E2E2E2E2E2E2E2E2E2E2E2E2E2E2E2E2E2E2E2E2E2E2E2E2E2E2E2E2E2E2E2E2E2
310
E2E2E2E2F5F5F5E2E2E2F5F5F5F5F5F5F5F5F5F5F5F5F5F5F5F5F5F5F5F5F5F5F5F5F5F5F5F5F5F5F5F5F5F5F5F5F5F5F5F5F5F5F5F5F5F5F5F5F5F5F5F5F5F5F5F5F5F5F5F5F5F5F5F5F5F5F5F5F5F5F5F5F5F5F5F5F5F5F5F5F5F5F5F5F5F5F5F5F5F5F5F5F5F5F5F5F5F5F5F5F5F5F5F5F5F5F5F5F5F5F5F5F5F5F5F5F5
310
F5F5F5F5F5F5F5F5F5F5F5F5F5F5F5F5F5F5F5F5F5F5F5F5F5F5F5F5F5F5F5F5F5F5F5F5F5F5F5F5F5F5F5F5F5F5F5F5F5F5F5F5F5F5E2E2E2F5F5F5E2E2E2F5E2E2E2E2E2E2E2E2E2E2E2E2E2E2E2E2E2E2E2E2E2E2E2E2E2E2E2E2E2E2E2E2E2E2E2E2E2E2E2E2E2E2E2E2E2E2E2E2E2E2E2E2E2E2E2E2E2E2E2E2E2E2E2
310
E2E2E2E2E2E2E2E2E2E2E2E2E2E2E2E2E2E2E2E2E2E2E2E2E2E2E2E2E2E2E2E2E2E2E2E2E2E2E2E2E2E2E2E2E2E2E2E2E2E2E2E2E2E2E2E2E2E2E2E2E2E2E2E2E2E2E2E2E2E2E2E2E2E2E2E2E2E2E2E2E2E2E2E2E2E2E2E2E2E2E2E2E2E2E2E2E2E2E2E2E2E2E2E2E2F5F5E2E2E2F5F5F5E2E2E2F5E2E2E2E2E2E2E2E2E2E2
310
E2E2E2E2E2E2E2E2E2E2E2E2E2E2E2E2E2E2E2E2E2E2E2E2E2E2E2E2E2E2E2E2E2E2E2E2E2E2E2E2E2E2E2E2E2E2E2E2E2E2E2E2E2E2E2E2E2E2E2E2E2E2E2E2E2E2E2E2E2E2E2E2E2E2E2E2E2E2E2E2E2E2E2E2E2E2E2E2E2E2E2E2E2E2E2E2E2E2E2E2E2E2E2E2E2E2E2E2E2E2E2E2E2E2E2E2E2E2E2E2E2E2E2E2E2E2E2
310
E2E2E2E2E2E2E2E2E2E2E2E2E2E2E2E2E2E2E2E2E2E2E2E2E2E2E2E2E2E2E2F5F5E2E2E2F5F5F5E2E2E2F5E2E2E2E2E2E2E2E2E2E2F5F5F5F5F5F5F5F5F5F5F5F5F5F5F5F5F5F5F5F5F5F5F5F5F5F5F5F5F5F5F5F5F5F5F5F5F5F5F5F5F5F5F5F5F5F5F5F5F5F5F5F5F5F5F5F5F5F5F5F5F5F5F5F5F5F5F5F5F5F5F5F5F5F5
310
F5F5F5F5F5F5F5F5DCF5F5F5F5F5F5F5F5F5F5F5F5F5F5F5F5F5F5F5F5F5F5F5F5F5DCF5F5F5F5F5F5F5F5F5F5F5F5F5F5F50FF5F5F5F5F5F5F5F5F5DCF5F5F5DCDCDCDCDCDCDCF5F5DCDCF5F5F5DCDCDCF5F5E2F5F5E2E2E2F5F5F5E2E2E2F5E2E2E2E2E2E2E2E2E2E2F5E2E2E2E2E2E2E2E2E2E2E2E2E2E2E2E2E2E2E2E2
310
E2E2E2E2E2E2E2E2E2E2E2E2E2E2E2E2E2E2E2E2E2E2E2E2E2E2E2E2E2E2E2E2E2E2E2E2E2E2E2E2E2E2E2E2E2E2E2E2E2E2E2E2E2E2E2E2E2E2E2E2E2DCE2DCDCDCDCDCDCDCDCE2DCE2DCE2DCE2DCDCDCDCDCE2DCE2E2DCE2E2E2E2E2E2E2E2E2E2E2E2E2E2E20FE2E2E2E2E2E2E2E2E2DCE2E2E2DCDCDCDCDCDCDCDCDCDC
310
DCDCDCDCDCDCDCE2F5E2F5F5E2E2E2F5F5F5E2E2E2F5E2E2E2E2E2E2E2E2E2E2F5E2E2E2E2E2E2E2E2E2E2E2E2E2E2E2E2E2E2E2E2E2E2E2E2E2E2E2E2E2E2E2E2E2E2E2E2E2E2E2E2E2E2E2E2E2E2E2E2E2E2E2E2E2E2E2E2E2E2E2E2E2E2E2E2E2E2E2E2E2E2E2E2E2E2E2E2E2E2E2E2E2DCE2DCDCDCDCDCDCDCDCDCDCDC
310
E2DCDCDCDCDCDCE2DCE2DCDCE2DCE2E2E2E2E2E2DCDCDCDCDCDCDCDCDCDCDCDCDCDCDCDCDCDCDCDCE2E2E2DCE2DCE2DCDCDCE2E2DCDCDCE2E2DCE2DCE2F5E2F5F5E2E2E2F5F5F5E2E2E2F5E2E2E2E2E2E2E2E2E2E2F5E2E2E2E2E2E2E2E2E2E2E2E2E2E2E2E2E2E2E2E2E2E2E2E2E2E2E2E2E2E2E2E2E2E2E2E2E2E2E2E2E2
310
E2E2E2E2E2E2E2E2E2E2E2E2E2E2E2E2E2E2E2E2E2E2E2E2E2E2E2E2E2E2E2E2E2E2E2E2E2E2E2E2DCE2DCDCDCDCDCDCDCDCDCDCDCE2DCDCDCDCDCDCDCE2DCDCE2E2DCDCDCDCDCDCDCE2E2E2E2E2E2E2E2E20FE2E2E2E2E2E2E2E2E2DCDCDCE2DCDCDCE2E2E2E2E2E2E2E2E2E2E2E2E2E2E2F5E2F5F5E2E2E2F5F5F5E2E2E2
310
F5E2E2E2E2E2E2E2E2E2E2F5E2E2E2E2E2E2E2E2E2E2E2E2E2E2E2E2E2E2E2E2E2E2E2E2E2E2E2E2E2E2E2E2E2E2E2E2E2E2E2E2E2E2E2E2E2E2E2E2E2E2E2E2E2E2E2E2E2E2E2E2E2E2E2E2E2E2E2E2E2E2E2E2E2E2E2E2E2E2E2E2E2DCE2E2E2E2E2E2E2E2E2E2E2E2E2E2E2E2E2E2E2E2E2E2E2E2E2DCDCDCDCDCDCE2E2
310
E2E2E2E2E2E2E2E20FE2E2E2E2E2E2E2E2E2DCDCDCE2DCDCDCE2E2E2E2E2E2E2E2E2E2E2E2E2E2E2F5E2F5F5E2E2E2F5F5F5E2E2E2F5E2E2E2E2E2E2E2E2E2E2F5E2E2E2E2E2E2E2E2E2E2E2E2E2E2E2E2E2E2E2E2E2E2E2E2E2E2E2E2E2E2E2E2E2E2E2E2E2E2E2E2E2E2E2E2E2E2E2E2E2E2E2E2E2E2E2E2E2E2E2E2E2E2
310
E2E2E2E2E2E2E2E2E2E2E2E2E2E2E2E2E2E2E2DCDCDCDCDCDCDCDCDCDCDCDCDCDCDCDCDCDCDCDCDCDCDCDCDCDCDCDCDCDCDCDCDCDCDCDCDCDCDCDCDCDCDCDCDCDCDCDCDCDCDCDCDCDCDCDCDCDCDCDCDCDCDCDCDCDCDCDCDCDCDCDCDCDCDCE2F5E2E2E2E2F5F5F5E2E2E2F5E2E2E2E2E2E2E2E2E2E2F5E2E2E2E2E2E2E2E2E2
310
E2E2E2E2E2E2E2E2E2E2E2E2E2E2E2E2E2E2E2E2E2E2E2E2E2E2E2E2E2E2E2E2E2E2E2E2E2E2E2E2E2E2E2E2E2E2E2E2E2E2E2E2E2E2E2E2E2E2E2E2E2E2E2E2E2E2E2E2E2E2E2E2DCDCDCDCDCDCDCDCDCDCDCDCDCDCDCDCDCDCDCDCDCDCDCDCDCDCDCE2E2E2E2E2E2E2E2E2E2E2E2E2DCDCDCDCDCE2E2E2E2E2E2E2DCE2E2
310
E2E2E2E2E2E2DCDCDCDCDCE2E2E2DCDCE2E2E2F5E2F5E2E2E2E2F5F5F5E2E2E2F5E2E2E2E2E2E2E2E2E2E2F5E2E2E2E2E2E2E2E2E2E2E2E2E2E2E2E2E2E2E2E2E2E2E2E2E2E2E2E2E2E2E2E2E2E2E2E2E2E2E2E2E2E2E2E2E2E2E2E2E2E2E2E2E2E2E2E2E2E2E2E2E2E2E2E2E2E2E2E2E2E2E2E2E2E2E2E2E2E2E2E2E2DCE2
310
E2DCDCDCDCDCDCDCE2DCDCDCE2E2DCE2E2E2E2E2DCDCDCDCDCE2E2E2E2E2E2DCDCDCDCDCDCDCDCDCDCDCDCDCDCDCDCDCDCDCDCE2E2E2E2E2E2E2E2DCDCDCDCDCDCDCDCDCDCDCE2E2F5E2F5E2E2E2E2F5F5F5E2E2E2F5E2E2E2E2E2E2E2E2E2E2F5E2E2E2E2E2E2E2E2E2E2E2E2E2E2E2E2E2E2E2E2E2E2E2E2E2E2E2E2E2E2
310
E2E2E2E2E2E2E2E2E2E2E2E2E2E2E2E2E2E2E2E2E2E2E2E2E2E2E2E2E2E2E2E2E2E2E2E2E2E2E2E2E2E2E2E2E2E2E2E2E2E2E2DCDCDCDCDCDCDCDCDCDCDCDCDCDCDCDCDCDCDCDCDCDCDCE2DCDCDCDCDCE2DCDCDCE2E2E2E2DCDCDCDCDCDCDCDCDCDCDCE2E2E2E2DCDCDCE2DCDCDCE2E2DCDCDCDCDCDCE2DCDCDCDCE2E2F5E2
310
F5E2E2E2E2F5F5F5E2E2E2F5E2E2E2E2E2E2E2E2E2E2F5E2E2E2E2E2E2E2E2E2E2E2E2E2E2E2E2E2E2E2E2E2E2E2E2E2E2E2E2E2E2E2E2E2E2E2E2E2E2E2E2E2E2E2E2E2E2E2E2E2E2E2E2E2E2E2E2E2E2E2E2E2E2E2E2E2E2E2E2E2E2E2E2E2E2E2E2E2E2E2E2E2DCE2DCDCDCDCDCDCDCDCE2DCDCDCDCE2DCE2E2E2E2E2DC
310
E2DCE2DCDCDCE2DCDCDCE2E2E2E2DCDCDCE2E2DCDCE2E2DCDCE2E2E2E2DCDCDCE2DCDCDCE2E2E2E2E2E2E2E2E2E2E2E2E2E2E2F5E2F5E2E2E2E2F5F5F5E2E2E2F5E2E2E2E2E2E2E2E2E2E2F5E2E2E2E2E2E2E2E2E2E2E2E2E2E2E2E2E2E2E2E2E2E2E2E2E2E2E2E2E2E2E2E2E2E2E2E2E2E2E2E2E2E2E2E2E2E2E2E2E2E2E2
310
E2E2E2E2E2E2E2E2E2E2E2E2E2E2E2E2E2E2E2E2E2E2E2E2E2E2E2E2E2E2DCDCDCDCDCDCDCDCDCDCDCDCDCDCDCDCDCDCDCDCDCDCDCE2DCE2DCDCDCDCDCDCDCDCDCDCDCDCDCDCDCDCDCDCDCDCDCDCDCDCDCDCDCDCDCDCDCDCDCDCDCDCDCDCDCDCDCDCDCDCDCDCDCDCDCE2F5E2E2E2E2F5F5F5E2E2E2F5E2E2E2E2E2E2E2E2E2
310
E2F5E2E2E2E2E2E2E2E2E2E2E2E2E2E2E2E2E2E2E2E2E2E2E2E2E2E2E2E2E2E2E2E2E2E2E2E2E2E2E2E2E2E2E2E2E2E2E2E2E2E2E2E2E2E2E2E2E2E2E2E2E2E2E2E2E2E2E2E2E2E2E2E2E2E2E2E2E2E2E2E2E2DCDCDCDCDCDCDCDCDCDCDCDCDCDCDCDCDCDCDCDCDCDCDCDCDCDCDCDCDCDCDCE2E2E2E2E2DCDCDCDCDCE2E2E2
310
E2E2DCDCDCDCE2E2DCDCDCDCDCDCDCDCDCDCDCE2E2E2DCDCDCE2E2E2E2E2F5E2F5E2E2E2E2F5F5F5E2E2E2F5E2E2E2E2E2E2E2E2E2E2F5E2E2E2E2E2E2E2E2E2E2E2E2E2E2E2E2E2E2E2E2E2E2E2E2E2E2E2E2E2E2E2E2E2E2E2E2E2E2E2E2E2E2E2E2E2E2E2E2E2E2E2E2E2E2E2E2E2E2E2E2E2E2E2E2E2E2E2E2E2E2E2E2
310
E2E2E2E2E2E2E2E2E2DCDCDCDCDCDCDCDCDCDCE2DCDCE2DCDCDCDCE2DCDCE2DCDCDCDCDCDCDCDCDCDCDCDCDCDCDCDCDCDCDCDCDCDCDCDCDCDCDCDCDCDCDCDCDCDCDCDCDCDCDCDCDCDCDCDCDCDCDCDCDCDCDCDCDCE2F5E2E2E2E2F5F5F5E2E2E2F5E2E2E2E2E2E2E2E2E2E2F5E2E2E2E2E2E2E2E2E2E2E2E2E2E2E2E2E2E2E2
310
E2E2E2E2E2E2E2E2E2E2E2E2E2E2E2E2E2E2E2E2E2E2E2E2E2E2E2E2E2E2E2E2E2E2E2E2E2E2E2E2E2E2E2E2E2E2E2E2E2E2E2E2E2E2E2E2E2E2E2E2E2E2DCDCDCDCDCDCDCDCDCDCE2DCDCE2DCDCDCDCE2DCDCE2DCDCDCDCDCDCDCDCDCDCE2E2DCDCDCE2E2E2E2DCDCDCE2E2DCDCDCE2DCDCDCDCDCDCE2DCDCDCE2DCDCDCE2
310
E2E2E2E2E2DCDCE2E2F5E2F5E2E2E2E2F5F5F5E2E2E2F5E2E2E2E2E2E2E2E2E2E2F5E2E2E2E2E2E2E2E2E2E2E2E2E2E2E2E2E2E2E2E2E2E2E2E2E2E2E2E2E2E2E2E2E2E2E2E2E2E2E2E2E2E2E2E2E2E2E2E2E2E2E2E2E2E2E2E2E2E2E2E2E2E2E2E2E2E2E2E2E2E2E2E2E2E2E2E2E2E2E2E2E2DCDCE2E2DCE2E2DCDCDCE2DC
310
E2E2E2E2E2DCE2DCE2E2DCDCE2DCDCDCDCDCDCDCE2E2E2DCDCE2E2E2E2DCDCDCE2E2DCDCDCE2E2DCDCDCDCDCE2DCDCDCE2DCDCDCE2E2E2E2E2E2DCDCE2E2F5E2F5F5E2E2E2F5F5F5E2E2E2F5E2E2E2E2E2E2E2E2E2E2F5E2E2E2E2E2E2E2E2E2E2E2E2E2E2E2E2E2E2E2E2E2E2E2E2E2E2E2E2E2E2E2E2E2E2E2E2E2E2E2E2
310
E2E2E2E2E2E2E2E2E2E2E2E2E2E2E2E2E2E2E2E2E2E2E2E2E2E2E2E2E2E2E2E2E2E2E2E2E2E2E2E2E2DCDCDCDCDCDCDCDCDCDCDCDCDCDCDCDCDCDCDCDCDCDCDCDCDCDCDCDCDCDCDCDCDCDCDCDCDCDCDCDCDCDCDCDCDCDCDCDCDCDCDCDCDCDCDCDCDCDCDCDCDCDCDCDCDCDCDCDCDCDCDCDCDCDCDCE2F5F5E2E2E2F5F5F5E2E2
310
E2F5E2E2E2E2E2E2E2E2E2E2F5E2E2E2E2E2E2E2E2E2E2E2E2E2E2E2E2E2E2E2E2E2E2E2E2E2E2E2E2E2E2E2E2E2E2E2E2E2E2E2E2E2E2E2E2E2E2E2E2E2E2E2E2E2E2E2E2E2E2E2E2E2E2E2E2E2E2E2E2E2E2E2E2E2E2E2E2E2E2E2E2E2DCDCDCDCDCE2E2E2E2DCE2E2E2E2E2E2E2E2E2E2E2E2DCE2E2E2DCE2E2DCE2DCE2
310
DCDCDCDCDCDCDCDCDCDCE2E2E2DCDCDCDCDCDCDCDCDCDCDCDCE2DCE2E2E2E2E2E2E2E2E2E2E2E2E2E2F5E2F5F5E2E2E2F5F5F5E2E2E2F5E2E2E2E2E2E2E2E2E2E2F5E2E2E2E2E2E2E2E2E2E2E2E2E2E2E2E2E2E2E2E2E2E2E2E2E2E2E2E2E2E2E2E2E2E2E2E2E2E2E2E2E2E2E2E2E2E2E2E2E2E2E2E2E2E2E2E2E2E2E2E2E2
310
E2E2E2E2E2E2E2E2E2E2E2E2E2E2E2E2E2E2E2E2DCDCDCDCDCDCDCDCDCDCDCDCDCDCDCDCDCDCDCDCDCDCDCDCDCDCDCDCDCDCDCDCDCDCDCDCDCDCDCDCDCDCDCDCDCDCDCDCDCDCDCDCDCDCDCDCDCDCDCDCDCDCDCDCDCDCDCDCDCDCDCDCDCDCDCE2F5F5E2E2E2F5F5F5E2E2E2F5E2E2E2E2E2E2E2E2E2E2F5E2E2E2E2E2E2E2E2
310
E2E2E2E2E2E2E2E2E2E2E2E2E2E2E2E2E2E2E2E2E2E2E2E2E2E2E2E2E2E2E2E2E2E2E2E2E2E2E2E2E2E2E2E2E2E2E2E2E2E2E2E2E2E2E2E2E2E2E2E2E2E2E2E2E2E2E2E2E2E2E2E2E2DCDCDCDCDCE2E2E2E2DCE2E2E2E2E2E2E2E2E2E2E2E2DCE2E2E2DCE2E2E2E2DCE2E2E2E2E2E2E2E2E2E2E2E2E2E2DCE2E2E2E2E2E2DC
310
E2E2E2E2E2DCE2E2E2E2E2E2E2E2E2E2E2E2E2E2F5E2F5F5E2E2E2F5F5F5E2E2E2F5E2E2E2E2E2E2E2E2E2E2F5E2E2E2E2E2E2E2E2E2E2E2E2E2E2E2E2E2E2E2E2E2E2E2E2E2E2E2E2E2E2E2E2E2E2E2E2E2E2E2E2E2E2E2E2E2E2E2E2E2E2E2E2E2E2E2E2E2E2E2E2E2E2E2E2E2E2E2E2E2E2E2E2E2E2E2E2E2E2E2E2E2DC
310
DCDCDCDCE2E2E2E2DCE2E2E2E2E2E2E2E2E2E2E2E2DCE2E2E2DCE2E2E2E2DCE2E2E2E2E2E2E2E2E2E2E2E2E2E2DCE2E2E2E2E2E2DCE2E2E2E2E2DCE2E2E2E2E2E2E2E2E2E2E2E2E2E2F5E2F5F5E2E2E2F5F5F5E2E2E2F5E2E2E2E2E2E2E2E2E2E2F5E2E2E2E2E2E2E2E2E2E2E2E2E2E2E2E2E2E2E2E2E2E2E2E2E2E2E2E2E2
310
E2E2E2E2E2E2E2E2E2E2E2E2E2E2E2E2E2E2E2E2E2E2E2E2E2E2E2E2E2E2E2E2E2E2E2E2E2E2E2E2E2E2E2E2E2E2E2E2E2E2E2E2DCDCDCDCDCDCDCDCDCDCDCDCDCDCDCDCDCDCDCDCDCDCDCDCDCDCDCDCDCDCDCDCDCDCDCDCDCDCDCDCDCDCDCDCDCDCDCDCDCDCDCDCDCDCDCDCDCDCDCDCDCDCDCDCDCDCDCDCDCDCDCDCDCDCDC
310
E2F5F5E2E2E2F5F5F5E2E2E2F5E2E2E2E2E2E2E2E2E2E2F5E2E2E2E2E2E2E2E2E2E2E2E2E2E2E2E2E2E2E2E2E2E2E2E2E2E2E2E2E2E2E2E2E2E2E2E2E2E2E2E2E2E2E2E2E2E2E2E2E2E2E2E2E2E2E2E2E2E2E2E2E2E2E2E2E2E2E2E2E2E2E2E2E2E2E2E2E2E2E2E2E2E2E2E2E2E2E2E2E2E2E2E2E2E2E2E2E2E2E2E2E2E2E2
310
E2E2E2E2DCE2E2E2E2DCE2E2E2E2E2E2E2E2E2E2E2E2E2E2DCE2E2E2E2E2E2DCE2E2E2E2E2DCE2E2E2E2E2E2E2E2E2E2E2E2E2E2F5E2F5F5E2E2E2F5F5F5E2E2E2F5E2E2E2E2E2E2E2E2E2E2F5E2E2E2E2E2E2E2E2E2E2E2E2E2E2E2E2E2E2E2E2E2E2E2E2E2E2E2E2E2E2E2E2E2E2E2E2E2E2E2E2E2E2E2E2E2E2E2E2E2E2
310
E2E2E2E2E2E2E2E2E2E2E2E2E2E2E2E2E2E2E2E2E2E2E2E2E2E2E2E2E2E2E2E2E2E2E2E2E2E2E2E2E2E2E2E2E2E2E2E2E2E2E2E2E2E2E2E2E2DCE2E2E2E2DCE2E2E2E2E2E2E2E2E2E2E2E2E2E2DCE2E2E2E2E2E2DCE2E2E2E2E2DCE2E2E2E2E2E2E2E2E2E2E2E2E2E2F5E2F5F5E2E2E2F5F5F5E2E2E2F5E2E2E2E2E2E2E2E2
310
E2E2F5E2E2E2E2E2E2E2E2E2E2E2E2E2E2E2E2E2E2E2E2E2E2E2E2E2E2E2E2E2E2E2E2E2E2E2E2E2E2E2E2E2E2E2E2E2E2E2E2E2E2E2E2E2E2E2E2E2E2E2E2E2E2E2E2E2E2E2E2E2E2E2E2E2E2E2E2E2E2E2E2E2E2E2E2E2E2E2E2E2E2E2E2E2E2E2E2E2E2E2E2E2E2E2E2E2E2E2DCDCDCDCDCDCDCDCDCDCDCDCDCDCDCDCDC
310
DCDCDCDCDCDCDCDCDCDCDCDCDCDCDCDCDCDCDCDCDCDCDCDCDCDCDCDCDCDCDCDCE2F5F5E2E2E2F5F5F5E2E2E2F5E2E2E2E2E2E2E2E2E2E2F5E2E2E2E2E2E2E2E2E2E2E2E2E2E2E2E2E2E2E2E2E2E2E2E2E2E2E2E2E2E2E2E2E2E2E2E2E2E2E2E2E2E2E2E2E2E2E2E2E2E2E2E2E2E2E2E2E2E2E2E2E2E2E2E2E2E2E2E2E2E2E2
310
E2E2E2E2E2E2E2E2E2E2E2E2E2E2E2E2E2E2E2E2E2E2E2E2E2E2E2E2E2E2E2E2E2E2E2E2DCE2E2E2E2DCE2E2E2E2E2E2E2E2E2E2E2E2E2E2DCE2E2E2E2E2E2DCE2E2E2E2E2DCE2E2E2E2E2E2E2E2E2E2E2E2E2E2F5E2F5F5E2E2E2F5F5F5E2E2E2F5E2E2E2E2E2E2E2E2E2E2F5E2E2E2E2E2E2E2E2E2E2E2E2E2E2E2E2E2E2
310
E2E2E2E2E2E2E2E2E2E2E2E2E2E2E2E2E2E2E2E2E2E2E2E2E2E2E2E2E2E2E2E2E2E2E2E2E2E2E2E2E2E2E2E2E2E2E2E2E2E2E2E2E2E2E2E2E2E2E2E2E2E2E2E2E2E2E2E2E2E2E2E2E2E2E2E2E2E2E2E2E2E2E2E2E2E2E2E2E2DCE2E2E2E2DCE2E2E2E2E2E2E2E2E2E2E2E2E2E2DCE2E2E2E2E2E2DCE2E2E2E2E2DCE2E2E2E2
310
E2E2E2E2E2E2E2E2E2E2F5E2F5F5E2E2E2F5F5F5E2E2E2F5E2E2E2E2E2E2E2E2E2E2F5E2E2E2E2E2E2E2E2E2E2E2E2E2E2E2E2E2E2E2E2E2E2E2E2E2E2E2E2E2E2E2E2E2E2E2E2E2E2E2E2E2E2E2E2E2E2E2E2E2E2E2E2E2E2E2E2E2E2E2E2E2DCDCDCDCDCDCDCDCDCDCDCDCE2E2E2E2E2E2E2E2E2E2E2E2E2E2E2E2E2E2E2
310
E2E2E2E2E2E2E2E2E2E2E2E2E2E2E2DCDCDCDCDCDCDCDCDCDCDCDCDCDCDCDCDCDCDCDCDCDCDCDCDCDCDCDCDCDCDCDCDCDCDCDCDCDCDCDCDCDCDCDCDCDCDCDCDCE2F5F5E2E2E2F5F5F5E2E2E2F5E2E2E2E2E2E2E2E2E2E2F5E2E2E2E2E2E2E2E2E2E2E2E2E2E2E2E2E2E2E2E2E2E2E2E2E2E2E2E2E2E2E2E2E2E2E2E2E2E2E2
310
E2E2E2E2E2E2E2E2E2E2E2E2E2E2E2E2E2E2E2E2E2E2E2DCDCDCDCDCDCDCDCDCDCE2E2E2E2E2E2E2E2E2E2E2E2E2E2E2E2E2E2E2E2E2E2E2E2E2E2E2E2E2E2E2E2E2E2E2DCE2E2E2E2DCE2E2E2E2E2E2E2E2E2E2E2E2E2E2DCE2E2E2E2E2E2DCE2E2E2E2E2DCE2E2E2E2E2E2E2E2E2E2E2E2E2E2F5E2F5F5E2E2E2F5F5F5E2
310
E2E2F5E2E2E2E2E2E2E2E2E2E2F5E2E2E2E2E2E2E2E2E2E2E2E2E2E2E2E2E2E2E2E2E2E2E2E2E2E2E2E2E2E2E2E2E2E2E2E2E2E2E2E2E2E2E2E2E2E2E2E2E2E2E2E2E2E2E2E2E2E2E2E2E2E2DCDCDCDCE2DCE2E2E2DCE2E2E2E2E2E2E2E2E2E2E2E2E2E2E2E2E2E2E2E2E2E2E2E2E2E2E2E2E2E2E2E2E2E2E2DCE2E2E2E2DC
310
E2E2E2E2E2E2E2E2E2E2E2E2E2E2DCE2E2E2E2E2E2DCE2E2E2E2E2DCE2E2E2E2E2E2E2E2E2E2E2E2E2E2F5E2F5F5E2E2E2F5F5F5E2E2E2F5E2E2E2E2E2E2E2E2E2E2F5E2E2E2E2E2E2E2E2E2E2E2E2E2E2E2E2E2E2E2E2E2E2E2E2E2E2E2E2E2E2E2E2E2E2E2E2E2E2E2E2E2E2E2E2E2E2E2E2E2E2E2E2E2E2E2E2E2E2E2E2
310
E2E2E2E2E2E2E2E2E2E2E2E2E2E2E2E2E2E2E2E2E2E2E2E2E2E2E2E2E2E2E2E2E2E2E2E2E2E2E2E2E2E2E2E2E2E2E2DCDCDCDCDCDCDCDCDCDCDCDCDCDCDCDCDCDCDCDCDCDCDCDCDCDCDCDCDCDCDCDCDCDCDCDCDCDCDCDCDCDCDCDCDCDCDCDCDCE2F5E2E2E2E2F5F5F5E2E2E2F5E2E2E2E2E2E2E2E2E2E2F5E2E2E2E2E2E2E2
310
E2E2E2E2E2E2E2E2E2E2E2E2E2E2E2E2E2E2E2E2E2E2E2E2E2E2E2E2E2E2E2E2E2E2E2E2E2E2E2E2E2E2E2E2E2E2E2E2E2E2E2E2E2E2E2E2E2E2E2E2E2E2E2E2E2E2E2E2E2E2E2E2E2E2E2E2E2E2E2E2E2E2E2E2E2E2E2E2E2E2E2E2E2E2E2E2E2E2E2E2E2E2E2E2E2E2E2E2E2E2E2E2E2E2E2E2E2E2E2E2E2E2E2E2E2E2E2
310
E2E2E2E2E2E2E2E2E2E2E2E2E2E2E2E2E2E2E2E2E2F5E2F5E2E2E2E2F5F5F5E2E2E2F5E2E2E2E2E2E2E2E2E2E2F5E2E2E2E2E2E2E2E2E2E2E2E2E2E2E2E2E2E2E2E2E2E2E2E2E2E2E2E2E2E2E2E2E2E2E2E2E2E2E2E2E2E2E2E2E2E2E2E2E2E2E2E2E2E2E2E2DCDCDCDCDCDCDCDCDCDCDCDCDCDCDCDCDCDCDCDCDCDCE2E2E2
310
E2E2E2E2E2E2E2E2E2E2E2E2E2E2E2E2E2E2E2E2E2E2E2E2E2E2E2E2E2E2E2E2E2E2E2E2E2E2E2E2E2E2E2E2E2E2E2E2E2E2E2E2E2E2E2E2E2E2E2E2E2E2E2E2E2E2E2E2E2E2E2E2E2E2F5E2F5E2E2E2E2F5F5F5E2E2E2F5E2E2E2E2E2E2E2E2E2E2F5E2E2E2E2E2E2E2E2E2E2E2E2E2E2E2E2E2E2E2E2E2E2E2E2E2E2E2E2
310
E2E2E2E2E2E2E2E2E2E2E2E2E2E2E2E2E2E2E2E2E2E2E2E2E2E2E2E2E2E2DCDCDCE2E2E2E2DCDCDCE2E2E2E2DCDCDCDCE2E2E2E2E2E2E2E2E2E2E2E2E2E2E2E2E2E2E2E2E2E2E2E2E2E2E2E2E2E2E2E2E2E2E2E2E2E2E2E2E2E2E2E2E2E2E2E2E2E2E2E2E2E2E2E2E2E2E2E2E2E2E2E2E2E2E2E2E2E2E2E2E2E2E2E2E2E2E2
310
F5E2F5E2E2E2E2F5F5F5E2E2E2F5E2E2E2E2E2E2E2E2E2E2F5E2E2E2E2E2E2E2E2E2E2E2E2E2E2E2E2E2E2E2E2E2E2E2E2E2E2E2E2E2E2E2E2E2E2E2E2E2E2E2E2E2E2E2E2E2E2E2E2E2E2E2E2E2E2E2E2E2E2DCDCDCE2E2E2E2DCDCDCE2E2E2E2DCDCDCDCE2E2E2E2E2E2E2E2E2E2E2E2E2E2E2E2E2E2E2E2E2E2E2E2E2E2
310
E2E2E2E2E2E2E2E2E2E2E2E2E2E2E2E2E2E2E2E2E2E2E2E2E2E2E2E2E2E2E2E2E2E2E2E2E2E2E2E2E2E2E2E2E2E2E2E2E2E2E2E2E2F5E2F5E2E2E2E2F5F5F5E2E2E2F5E2E2E2E2E2E2E2E2E2E2F5E2E2E2E2E2E2E2E2E2E2E2E2E2E2E2E2E2E2E2E2E2E2E2E2E2E2E2E2E2E2E2E2E2E2E2E2E2E2E2E2E2E2E2E2E2E2E2E2E2
310
E2E2E2E2E2E2E2E2E2DCE2DCE2E2E2E2E2E2E2E2E2E2E2DCE2E2DCE2E2E2E2DCE2E2E2E2E2E2E2E2E2E2E2E2E2E2E2E2E2E2E2E2E2E2E2E2E2E2E2E2E2E2E2E2E2E2E2E2E2E2E2E2E2E2E2E2E2E2E2E2E2E2E2E2E2E2E2E2E2E2E2E2E2E2E2E2E2E2E2E2E2E2E2E2E2E2F5E2F5E2E2E2E2F5F5F5E2E2E2F5E2E2E2E2E2E2E2
310
E2E2E2F5E2E2E2E2E2E2E2E2E2E2E2E2E2E2E2E2E2E2E2E2E2E2E2E2E2E2E2E2E2E2E2E2E2E2E2E2E2E2E2E2E2E2E2E2E2E2E2E2E2E2E2E2E2E2E2E2E2E2DCE2BEE2E2E2E2E2BEE2E2E2E2E2BEE2E2DCE2E2E2DCDCE2E2E2E2E2E2E2E2E2E2E2E2E2E2E2E2E2E2E2E2E2E2E2E2E2E2E2E2E2E2E2E2E2E2E2E2E2E2E2E2E2E2
310
E2E2E2E2E2E2E2E2E2E2E2E2E2E2E2E2E2E2E2E2E2E2E2E2E2E2E2E2E2E2E2E2F5E2F5E2E2E2E2F5F5F5E2E2E2F5E2E2E2E2E2E2E2E2E2E2F5E2E2E2E2E2E2E2E2E2E2E2E2E2E2E2E2E2E2E2E2E2E2E2E2E2E2E2E2E2E2E2E2E2E2E2E2E2E2E2E2E2E2E2E2E2E2E2E2E2E2E2E2E2E2E2E2E2E2DCF5BEF5F5F5F5F5BEF5F5F5
310
F5F5BEF5F5DCDCDCDCDCDCE2E2E2E2E2E2E2E2E2E2E2E2E2E2E2E2E2E2E2E2E2E2E2E2E2E2E2E2E2E2E2E2E2E2E2E2E2E2E2E2E2E2E2E2E2E2E2E2E2E2E2E2E2E2E2E2E2E2E2E2E2E2E2E2E2E2E2E2E2E2E2E2E2E2F5E2F5E2E2E2E2F5F5F5E2E2E2F5E2E2E2E2E2E2E2E2E2E2F5E2E2E2E2E2E2E2E2E2E2E2E2E2E2E2E2E2
310
E2E2E2E2E2E2E2E2E2E2E2E2E2E2E2E2E2E2E2E2E2E2E2E2E2E2E2E2E2E2E2E2E2E2E2E2E2E2E2E2E2F5F5BEF5F5F5F5F5BEF5F5F5F5F5BEF5F5F5E2E2DCDCDCE2E2E2E2E2E2E2E2E2E2E2E2E2E2E2E2E2E2E2E2E2E2E2E2E2E2E2E2E2E2E2E2E2E2E2E2E2E2E2E2E2E2E2E2E2E2E2E2E2E2E2E2E2E2E2E2E2E2E2E2E2E2E2
310
E2E2E2E2E2E2E2E2E2E2E2F5E2F5F5E2E2E2F5F5F5E2E2E2F5E2E2E2E2E2E2E2E2E2E2F5E2E2E2E2E2E2E2E2E2E2E2E2E2E2E2E2E2E2E2E2E2E2E2E2E2E2E2E2E2E2E2E2E2E2E2E2E2E2E2E2E2E2E2E2E2E2E2E2E2E2E2E2E2E2E2E2E2BEBEBEBEBEBEBEE2E2BEF5E2E2BEBEBEBEBEBEDCDCDCDCDCE2E2E2E2E2E2E2E2E2E2
310
E2E2E2E2E2E2E2E2E2E2E2E2E2E2E2E2E2E2E2E2E2E2E2E2E2E2E2E2E2E2E2E2E2E2E2E2E2E2E2E2E2E2E2E2E2E2E2E2E2E2E2E2E2E2E2E2E2E2E2E2E2E2E2E2F5E2F5F5E2E2E2F5F5F5E2E2E2F5E2E2E2E2E2E2E2E2E2E2F5E2E2E2E2E2E2E2E2E2E2E2E2E2E2E2E2E2E2E2E2E2E2E2E2E2E2E2E2E2E2E2E2E2E2E2E2E2E2
310
E2E2E2E2E2E2E2E2E2E2E2E2E2E2E2E2E2E2E2E2F5F5BEF5E2BEE2E2BEF5E2E2BEF5BEF5F5F5E2E2E2DCDCE2E2E2E2E2E2E2E2E2E2E2E2E2E2E2E2E2E2E2E2E2E2E2E2E2E2E2E2E2E2E2E2E2E2E2E2E2E2E2E2E2E2E2E2E2E2E2E2E2E2E2E2E2E2E2E2E2E2E2E2E2E2E2E2E2E2E2E2E2E2E2E2E2E2F5E2F5F5E2E2E2F5F5F5
310
E2E2E2F5E2E2E2E2E2E2E2E2E2E2F5E2E2E2E2E2E2E2E2E2E2E2E2E2E2E2E2E2E2E2E2E2E2E2E2E2E2E2E2E2E2E2E2E2E2E2E2E2E2E2E2E2E2E2E2E2E2E2E2E2E2E2E2E2E2E2E2E2E2F5F5BEE2F5F5E2E2BEF5E2F5F5E2BEF5F5F5E2E2E2E2DCE2E2E2E2E2E2E2E2E2E2E2E2E2E2E2E2E2E2E2E2E2E2E2E2E2E2E2E2E2E2E2
310
E2E2E2E2E2E2E2E2E2E2E2E2E2E2E2E2E2E2E2E2E2E2E2E2E2E2E2E2E2E2E2E2E2E2E2E2E2E2E2E2E2E2E2F5E2F5F5E2E2E2F5F5F5E2E2E2F5E2E2E2E2E2E2E2E2E2E2F5E2E2E2E2E2E2E2E2E2E2E2E2E2E2E2E2E2E2E2E2E2E2E2E2E2E2E2E2E2E2E2E2E2E2E2E2E2E2E2E2E2E2E2E2E2E2E2E2E2E2E2E2E2E2E2E2E2E2F5
310
F5BEBEBEBEBEE2BEF5BEBEBEBEBEF5F5F5E2E2E2E2DCE2E2E2E2E2E2E2E2E2E2E2E2E2E2E2E2E2E2E2E2E2E2E2E2E2E2E2E2E2E2E2E2E2E2E2E2E2E2E2E2E2E2E2E2E2E2E2E2E2E2E2E2E2E2E2E2E2E2E2E2E2E2E2E2E2E2E2E2E2E2E2E2E2E2F5E2F5F5E2E2E2F5F5F5E2E2E2F5E2E2E2E2E2E2E2E2E2E2F5E2E2E2E2E2E2
310
E2E2E2E2E2E2E2E2E2E2E2E2E2E2E2E2E2E2E2E2E2E2E2E2E2E2E2E2E2E2E2E2E2E2E2E2E2E2E2E2E2E2E2E2E2E2E2E2E2E2E2E2F5F5E2E2E2F5E2E2BEF5E2E2F5E2E2F5F5F5E2E2E2E2DCE2E2E2E2E2E2E2E2E2E2E2E2E2E2E2E2E2E2E2E2E2E2E2E2E2E2E2E2E2E2E2E2E2E2E2E2E2E2E2E2E2E2E2E2E2E2E2E2E2E2E2E2
310
E2E2E2E2E2E2E2E2E2E2E2E2E2E2E2E2E2E2E2E2E2E2F5E2F5F5E2E2E2F5F5F5E2E2E2F5E2E2E2E2E2E2E2E2E2E2F5E2E2E2E2E2E2E2E2E2E2E2E2E2E2E2E2E2E2E2E2E2E2E2E2E2E2E2E2E2E2E2E2E2E2E2E2E2E2E2E2E2E2E2E2E2E2E2E2E2E2E2E2E2E2E2E2E2E2F5F5E2E2E2E2E2E2BEF5E2E2E2E2E2F5F5F5E2E2DCDC
310
DCE2E2E2E2E2E2E2E2E2E2E2E2E2E2E2E2E2E2E2E2E2E2E2E2E2E2E2E2E2E2E2E2E2E2E2E2E2E2E2E2E2E2E2E2E2E2E2E2E2E2E2E2E2E2E2E2E2E2E2E2E2E2E2E2E2E2E2E2E2E2E2E2E2E2F5E2F5F5E2E2E2F5F5F5E2E2E2F5E2E2E2E2E2E2E2E2E2E2F5E2E2E2E2E2E2E2E2E2E2E2E2E2E2E2E2E2E2E2E2E2E2E2E2E2E2E2
310
E2E2E2E2E2E2E2E2E2E2E2E2E2E2E2E2E2E2E2E2E2E2E2E2E2E2E2E2E2E2BEBEBEBEBEBEBEBEBEBEBEBEBEBEBEBEBEBEBEBEE2DCDCDCE2E2E2E2E2E2E2E2E2E2E2E2E2E2E2E2E2E2E2E2E2E2E2E2E2E2E2E2E2E2E2E2E2E2E2E2E2E2E2E2E2E2E2E2E2E2E2E2E2E2E2E2E2E2E2E2E2E2E2E2E2E2E2E2E2E2E2E2E2E2E2E2E2
310
E2F5E2F5F5E2E2E2F5F5F5E2E2E2F5E2E2E2E2E2E2E2E2E2E2F5E2E2E2E2E2E2E2E2E2E2E2E2E2E2E2E2E2E2E2E2E2E2E2E2E2E2E2E2E2E2E2E2E2E2E2E2E2E2E2E2E2E2E2E2E2E2E2E2E2E2E2E2E2E2E2E2E2E2F5F5F5F5F5F5F5F5BEF5F5F5F5F5F5F5F5F5E2E2DCDCDCE2E2E2E2E2E2E2E2E2E2E2E2E2E2E2E2E2E2E2E2
310
E2E2E2E2E2E2E2E2E2E2E2E2E2E2E2E2E2E2E2E2E2E2E2E2E2E2E2E2E2E2E2E2E2E2E2E2E2E2E2E2E2E2E2E2E2E2E2E2E2E2E2E2E2E2F5E2F5F5E2E2E2F5F5F5E2E2E2F5E2E2E2E2E2E2E2E2E2E2F5E2E2E2E2E2E2E2E2E2E2E2E2E2E2E2E2E2E2E2E2E2E2E2E2E2E2E2E2E2E2E2E2E2E2E2E2E2E2E2E2E2E2E2E2E2E2E2E2
310
E2E2E2E2E2E2E2E2E2E2F5F5E2E2E2BEE2E2BEF5E2E2BEE2E2F5F5F5E2E2E2E2DCE2E2E2E2E2E2E2E2E2E2E2E2E2E2E2E2E2E2E2E2E2E2E2E2E2E2E2E2E2E2E2E2E2E2E2E2E2E2E2E2E2E2E2E2E2E2E2E2E2E2E2E2E2E2E2E2E2E2E2E2E2E2E2E2E2E2E2E2E2E2E2E2E2E2F5E2F5F5E2E2E2F5F5F5E2E2E2F5E2E2E2E2E2E2
310
E2E2E2E2F5E2E2E2E2E2E2E2E2E2E2E2E2E2E2E2E2E2E2E2E2E2E2E2E2E2E2E2E2E2E2E2E2E2E2E2E2E2E2E2E2E2E2E2E2E2E2E2E2E2E2E2E2E2E2E2E2E2E2F5F5E2E2F5F5E2E2BEF5E2F5F5E2E2F5F5F5E2E2E2E2DCE2E2E2E2E2E2E2E2E2E2E2E2E2E2E2E2E2E2E2E2E2E2E2E2E2E2E2E2E2E2E2E2E2E2E2E2E2E2E2E2E2
310
E2E2E2E2E2E2E2E2E2E2E2E2E2E2E2E2E2E2E2E2E2E2E2E2E2E2E2E2E2E2E2E2E2F5E2F5F5E2E2E2F5F5F5E2E2E2F5E2E2E2E2E2E2E2E2E2E2F5E2E2E2E2E2E2E2E2E2E2E2E2E2E2E2E2E2E2E2E2E2E2E2E2E2E2E2E2E2E2E2E2E2E2E2E2E2E2E2E2E2E2E2E2E2E2E2E2E2E2E2E2E2E2E2E2E2E2F5F5BEBEF5F5F5E2BEF5BE
310
BEBEBEBEF5F5F5E2E2E2E2DCE2E2E2E2E2E2E2E2E2E2E2E2E2E2E2E2E2E2E2E2E2E2E2E2E2E2E2E2E2E2E2E2E2E2E2E2E2E2E2E2E2E2E2E2E2E2E2E2E2E2E2E2E2E2E2E2E2E2E2E2E2E2E2E2E2E2E2E2E2E2E2E2E2E2F5E2F5F5E2E2E2F5F5F5E2E2E2F5E2E2E2E2E2E2E2E2E2E2F5E2E2E2E2E2E2E2E2E2E2E2E2E2E2E2E2
310
E2E2E2E2E2E2E2E2E2E2E2E2E2E2E2E2E2E2E2E2E2E2E2E2E2E2E2E2E2E2E2E2E2E2E2E2E2E2E2E2E2E2F5F5BEF5E2F5E2E2BEF5E2E2F5F5BEF5F5F5E2E2E2DCDCE2E2E2E2E2E2E2E2E2E2E2E2E2E2E2E2E2E2E2E2E2E2E2E2E2E2E2E2E2E2E2E2E2E2E2E2E2E2E2E2E2E2E2E2E2E2E2E2E2E2E2E2E2E2E2E2E2E2E2E2E2E2
310
E2E2E2E2E2E2E2E2E2E2E2E2F5E2F5F5E2E2E2F5F5F5E2E2E2F5E2E2E2E2E2E2E2E2E2E2F5E2E2E2E2E2E2E2E2E2E2E2E2E2E2E2E2E2E2E2E2E2E2E2E2E2E2E2E2E2E2E2E2E2E2E2E2E2E2E2E2E2E2E2E2E2E2E2E2E2E2E2E2E2E2E2E2E2BEBEBEBEBEBEBEE2E2BEF5E2E2BEBEBEBEBEBEDCDCDCDCDCE2E2E2E2E2E2E2E2E2
310
E2E2E2E2E2E2E2E2E2E2E2E2E2E2E2E2E2E2E2E2E2E2E2E2E2E2E2E2E2E2E2E2E2E2E2E2E2E2E2E2E2E2E2E2E2E2E2E2E2E2E2E2E2E2E2E2E2E2E2E2E2E2E2E2E2F5E2F5F5E2E2E2F5F5F5E2E2E2F5E2E2E2E2E2E2E2E2E2E2F5E2E2E2E2E2E2E2E2E2E2E2E2E2E2E2E2E2E2E2E2E2E2E2E2E2E2E2E2E2E2E2E2E2E2E2E2E2
310
E2E2E2E2E2E2E2E2E2E2E2E2E2E2E2E2E2E2E2E2E2F5F5BEF5F5F5F5F5BEF5F5F5F5F5BEE2F5F5E2E2DCDCDCE2E2E2E2E2E2E2E2E2E2E2E2E2E2E2E2E2E2E2E2E2E2E2E2E2E2E2E2E2E2E2E2E2E2E2E2E2E2E2E2E2E2E2E2E2E2E2E2E2E2E2E2E2E2E2E2E2E2E2E2E2E2E2E2E2E2E2E2E2E2E2E2E2E2F5E2F5F5E2E2E2F5F5
310
F5E2E2E2F5E2E2E2E2E2E2E2E2E2E2F5E2E2E2E2E2E2E2E2E2E2E2E2E2E2E2E2E2E2E2E2E2E2E2E2E2E2E2E2E2E2E2E2E2E2E2E2E2E2E2E2E2E2E2E2E2E2E2E2E2E2E2E2E2E2E2E2E2E2F5F5BEF5F5F5F5F5BEF5F5F5F5F5BEF5F5F5E2E2DCDCDCE2E2E2E2E2E2E2E2E2E2E2E2E2E2E2E2E2E2E2E2E2E2E2E2E2E2E2E2E2E2
310
E2E2E2E2E2E2E2E2E2E2E2E2E2E2E2E2E2E2E2E2E2E2E2E2E2E2E2E2E2E2E2E2E2E2E2E2E2E2E2E2E2E2E2E2F5E2F5E2E2E2E2F5F5F5E2E2E2F5E2E2E2E2E2E2E2E2E2E2F5E2E2E2E2E2E2E2E2E2E2E2E2E2E2E2E2E2E2E2E2E2E2E2E2E2E2E2E2E2E2E2E2E2E2E2E2E2E2E2E2E2E2E2E2E2E2E2E2E2E2E2E2E2E2E2E2E2E2
310
F5F5BEF5F5F5F5F5BEF5F5F5F5F5BEF5F5DCDCDCDCDCDCE2E2E2E2E2E2E2E2E2E2E2E2E2E2E2E2E2E2E2E2E2E2E2E2E2E2E2E2E2E2E2E2E2E2E2E2E2E2E2E2E2E2E2E2E2E2E2E2E2E2E2E2E2E2E2E2E2E2E2E2E2E2E2E2E2E2E2E2E2E2E2E2E2E2F5E2F5E2E2E2E2F5F5F5E2E2E2F5E2E2E2E2E2E2E2E2E2E2F5E2E2E2E2E2
310
E2E2E2E2E2E2E2E2E2E2E2E2E2E2E2E2E2E2E2E2E2E2E2E2E2E2E2E2E2E2E2E2E2E2E2E2E2E2E2E2E2E2E2E2E2E2E2E2E2E2E2E2E2E2E2E2E2E2E2E2E2BEE2E2E2E2E2E2E2E2E2E2E2E2DCDCE2E2E2E2E2E2E2E2E2E2E2E2E2E2E2E2E2E2E2E2E2E2E2E2E2E2E2E2E2E2E2E2E2E2E2E2E2E2E2E2E2E2E2E2E2E2E2E2E2E2E2
310
E2E2E2E2E2E2E2E2E2E2E2E2E2E2E2E2E2E2E2E2E2E2E2F5E2F5E2E2E2E2F5F5F5E2E2E2F5E2E2E2E2E2E2E2E2E2E2F5E2E2E2E2E2E2E2E2E2E2E2E2E2E2E2E2E2E2E2E2E2E2E2E2E2E2E2E2E2E2E2E2E2E2E2E2E2E2E2E2E2E2E2E2E2E2E2E2E2E2E2E2E2E2E2E2E2E2E2E2E2E2E2E2E2E2E2E2E2E2E2E2E2E2E2E2E2E2E2
310
E2DCE2E2E2E2E2E2E2E2E2E2E2E2E2E2E2E2E2E2E2E2E2E2E2E2E2E2E2E2E2E2E2E2E2E2E2E2E2E2E2E2E2E2E2E2E2E2E2E2E2E2E2E2E2E2E2E2E2E2E2E2E2E2E2E2E2E2E2E2E2E2E2E2E2E2F5E2F5E2E2E2E2F5F5F5E2E2E2F5E2E2E2E2E2E2E2E2E2E2F5E2E2E2E2E2E2E2E2E2E2E2E2E2E2E2E2E2E2E2E2E2E2E2E2E2E2
310
E2E2E2E2E2E2E2E2E2E2E2E2E2E2E2E2E2E2E2E2E2E2E2E2E2E2E2E2E2E2E2E2E2E2E2E2E2E2E2E2E2E2E2E2E2E2E2E2E2E2E2E2E2E2E2E2E2E2E2E2E2E2E2E2E2E2E2E2E2E2E2E2E2E2E2E2E2E2E2E2E2E2E2E2E2E2E2E2E2E2E2E2E2E2E2E2E2E2E2E2E2E2E2E2E2E2E2E2E2E2E2E2E2E2E2E2E2E2E2E2E2E2E2E2E2E2E2
310
E2E2F5E2F5E2E2E2E2F5F5F5E2E2E2F5E2E2E2E2E2E2E2E2E2E2F5E2E2E2E2E2E2E2E2E2E2E2E2E2E2E2E2E2E2E2E2E2E2E2E2E2E2E2E2E2E2E2E2E2E2E2E2E2E2E2E2E2E2E2E2E2E2E2E2E2E2E2E2E2E2E2E2E2E2E2E2E2E2E2E2E2E2E2E2E2E2E2E2E2E2E2E2E2E2E2E2E2E2E2E2E2E2E2E2E2E2E2E2E2E2E2E2E2E2E2E2
310
E2E2E2E2E2E2E2E2E2E2E2E2E2E2E2E2E2E2E2E2E2E2E2E2E2E2E2E2E2E2E2E2E2E2E2E2E2E2E2E2E2E2E2E2E2E2E2E2E2E2E2E2E2E2E2F5E2F5E2E2E2E2F5F5F5E2E2E2F5E2E2E2E2E2E2E2E2E2E2F5E2E2E2E2E2E2E2E2E2E2E2E2E2E2E2E2E2E2E2E2E2E2E2E2E2E2E2E2E2E2E2E2E2E2E2E2E2E2E2E2E2E2E2E2E2E2E2
310
E2E2E2E2E2E2E2E2E2E2E2E2E2E2E2E2E2E2E2E2E2E2E2E2E2E2E2E2E2E2E2E2E2E2E2E2E2E2E2E2E2E2E2E2E2E2E2E2E2E2E2E2E2E2E2E2E2E2E2E2E2E2E2E2E2E2E2E2E2E2E2E2E2E2E2E2E2E2E2E2E2E2E2E2E2E2E2E2E2E2E2E2E2E2E2E2E2E2E2E2E2E2E2E2E2E2E2E2F5E2F5E2E2E2E2F5F5F5E2E2E2F5E2E2E2E2E2
310
E2E2E2E2E2F5E2E2E2E2E2E2E2E2E2E2E2E2E2E2E2E2E2E2E2E2E2E2E2E2E2E2E2E2E2E2E2E2E2E2E2E2E2E2E2E2E2E2E2E2E2E2E2E2E2E2E2E2E2E2E2E2E2E2E2E2E2E2E2E2E2E2E2E2E2E2E2E2E2E2E2E2E2E2E2E2E2E2E2E2E2E2E2E2E2E2E2E2E2E2E2E2E2E2E2E2E2E2E2E2E2E2E2E2E2E2E2E2E2E2E2E2E2E2E2E2E2
310
E2E2E2E2E2E2E2E2E2E2E2E2E2E2E2E2E2E2E2E2E2E2E2E2E2E2E2E2E2E2E2E2E2E2F5E2F5E2E2E2E2F5F5F5E2E2E2F5E2E2E2E2E2E2E2E2E2E2F5E2E2E2E2E2E2E2E2E2E2E2E2E2E2E2E2E2E2E2E2E2E2E2E2E2E2E2E2E2E2E2E2E2E2E2E2E2E2E2E2E2E2E2E2E2E2E2E2E2E2E2E2E2E2E2E2E2E2E2E2E2E2E2E2E2E2E2E2
310
E2E2E2E2E2E2E2E2E2E2E2E2E2E2E2E2E2E2E2E2E2E2E2E2E2E2E2E2E2E2E2E2E2E2E2E2E2E2E2E2E2E2E2E2E2E2E2E2E2E2E2E2E2E2E2E2E2E2E2E2E2E2E2E2E2E2E2E2E2E2E2E2E2E2E2E2E2E2E2E2E2E2E2E2E2E2E2F5E2F5E2E2E2E2F5F5F5E2E2E2F5E2E2E2E2E2E2E2E2E2E2F5E2E2E2E2E2E2E2E2E2E2E2E2E2E2E2
310
E2E2E2E2E2E2E2E2E2E2E2E2E2E2E2E2E2E2E2E2E2E2E2E2E2E2E2E2E2E2E2E2E2E2E2E2E2E2E2E2E2E2E2E2E2E2E2E2E2E2E2E2E2E2E2E2E2E2E2E2E2E2E2E2E2E2E2E2E2E2E2E2E2E2E2E2E2E2E2E2E2E2E2E2E2E2E2E2E2E2E2E2E2E2E2E2E2E2E2E2E2E2E2E2E2E2E2E2E2E2E2E2E2E2E2E2E2E2E2E2E2E2E2E2E2E2E2
310
E2E2E2E2E2E2E2E2E2E2E2E2E2F5E2F5F5E2E2E2F5F5F5E2E2E2F5E2E2E2E2E2E2E2E2E2E2F5E2E2E2E2E2E2E2E2E2E2E2E2E2E2E2E2E2E2E2E2E2E2E2E2E2E2E2E2E2E2E2E2E2E2E2E2E2E2E2E2E2E2E2E2E2E2E2E2E2E2E2E2E2E2E2E2E2E2E2E2E2E2E2E2E2E2E2E2E2E2E2E2E2E2E2E2E2E2E2E2E2E2E2E2E2E2E2E2E2
310
E2E2E2E2E2E2E2E2E2E2E2E2E2E2E2E2E2E2E2E2E2E2E2E2E2E2E2E2E2E2E2E2E2E2E2E2E2E2E2E2E2E2E2E2E2E2E2E2E2E2E2E2E2E2E2E2E2E2E2E2E2E2E2E2E2E2F5E2F5F5E2E2E2F5F5F5E2E2E2F5E2E2E2E2E2E2E2E2E2E2F5E2E2E2E2E2E2E2E2E2E2E2E2E2E2E2E2E2E2E2E2E2E2E2E2E2E2E2E2E2E2E2E2E2E2E2E2
310
E2E2E2E2E2E2E2E2E2E2E2E2E2E2E2E2E2E2E2E2E2E2E2E2E2E2E2E2E2E2E2E2E2E2E2E2E2E2E2E2E2E2E2E2E2E2E2E2E2E2E2E2E2E2E2E2E2E2E2E2E2E2E2E2E2E2E2E2E2E2E2E2E2E2E2E2E2E2E2E2E2E2E2E2E2E2E2E2E2E2E2E2E2E2E2E2E2E2E2E2E2E2E2E2E2E2E2E2E2E2E2E2E2E2E2E2E2E2E2F5E2F5F5E2E2E2F5
310
F5F5E2E2E2F5E2E2E2E2E2E2E2E2E2E2F5E2E2E2E2E2E2E2E2E2E2E2E2E2E2E2E2E2E2E2E2E2E2E2E2E2E2E2E2E2E2E2E2E2E2E2E2E2E2E2E2E2E2E2E2E2E2E2E2E2E2E2E2E2E2E2E2E2E2E2E2E2E2E2E2E2E2E2E2E2E2E2E2E2E2E2E2E2E2E2E2E2E2E2E2E2E2E2E2E2E2E2E2E2E2E2E2E2E2E2E2E2E2E2E2E2E2E2E2E2E2
310
E2E2E2E2E2E2E2E2E2E2E2E2E2E2E2E2E2E2E2E2E2E2E2E2E2E2E2E2E2E2E2E2E2E2E2E2E2E2E2E2E2E2E2E2E2F5E2F5F5E2E2E2F5F5F5E2E2E2F5E2E2E2E2E2E2E2E2E2E2F5E2E2E2E2E2E2E2E2E2E2E2E2E2E2E2E2E2E2E2E2E2E2E2E2E2E2E2E2E2E2E2E2E2E2E2E2E2E2E2E2E2E2E2E2E2E2E2E2E2E2E2E2E2E2E2E2E2
310
E2E2E2E2E2E2E2E2E2E2E2E2E2E2E2E2E2E2E2E2E2E2E2E2E2E2E2E2E2E2E2E2E2E2E2E2E2E2E2E2E2E2E2E2E2E2E2E2E2E2E2E2E2E2E2E2E2E2E2E2E2E2E2E2E2E2E2E2E2E2E2E2E2E2E2E2E2E2E2E2E2E2E2E2E2E2E2E2E2E2E2E2E2E2E2E2E2E2F5E2F5F5E2E2E2F5F5F5E2E2E2F5E2E2E2E2E2E2E2E2E2E2F5E2E2E2E2
310
E2E2E2E2E2E2E2E2E2E2E2E2E2E2E2E2E2E2E2E2E2E2E2E2E2E2E2E2E2E2E2E2E2E2E2E2E2E2E2E2E2E2E2E2E2E2E2E2E2E2E2E2E2E2E2E2E2E2E2E2E2E2E2E2E2E2E2E2E2E2E2E2E2E2E2E2E2E2E2E2E2E2E2E2E2E2E2E2E2E2E2E2E2E2E2E2E2E2E2E2E2E2E2E2E2E2E2E2E2E2E2E2E2E2E2E2E2E2E2E2E2E2E2E2E2E2E2
310
E2E2E2E2E2E2E2E2E2E2E2E2E2E2E2E2E2E2E2E2E2E2E2E2F5E2F5F5E2E2E2F5F5F5E2E2E2F5E2E2E2E2E2E2E2E2E2E2F5E2E2E2E2E2E2E2E2E2E2E2E2E2E2E2E2E2E2E2E2E2E2E2E2E2E2E2E2E2E2E2E2E2E2E2E2E2E2E2E2E2E2E2E2E2E2E2E2E2E2E2E2E2E2E2E2E2E2E2E2E2E2E2E2E2E2E2E2E2E2E2E2E2E2E2E2E2E2
310
E2E2E2E2E2E2E2E2E2E2E2E2E2E2E2E2E2E2E2E2E2E2E2E2E2E2E2E2E2E2E2E2E2E2E2E2E2E2E2E2E2E2E2E2E2E2E2E2E2E2E2E2E2E2E2E2E2E2E2E2E2E2E2E2E2E2E2E2E2E2E2E2E2E2E2E2E2F5E2F5F5E2E2E2F5F5F5E2E2E2F5E2E2E2E2E2E2E2E2E2E2F5E2E2E2E2E2E2E2DCDCDCDCDCDCDCDCDCDCDCDCDCDCDCDCDCDC
310
DCDCDCDCDCDCDCDCDCDCDCDCDCDCDCDCDCDCDCDCDCDCDCDCDCE2E2E2E2E2E2E2E2E2E2E2E2E2E2E2E2E2E2E2E2E2E2E2E2E2E2E2E2E2E2E2E2E2E2E2E2E2E2E2E2E2E2E2E2E2E2E2E2E2E2E2E2E2E2E2E2E2E2E2E2E2E2E2E2E2E2E2E2E2E2E2E2E2E2E2E2E2E2E2E2E2E2E2E2E2E2E2E2E2E2E2E2E2E2E2E2E2E2E2E2E2E2
310
E2E2E2F5E2F5F5E2E2E2F5F5F5E2E2E2F5E2E2E2E2E2E2E2E2E2E2F5E2E2E2E2E2E2E2E2DCDCE2DCE2DCDCDCDCDCDCDCDCDCDCDCDCDCDCDCDCDCDCDCDCDCDCDCDCDCDCDCDCDCDCDCDCDCDCDCDCDCE2E2E2E2E2E2E2E2E2E2E2E2E2E2E2E2E2E2DCDCDCDCDCDCDCDCDCDCDCDCDCDCDCE2E2E2E2E2E2E2E2E2E2E2E2E2E2E2E2
310
E2E2E2E2E2E2E2E2E2E2E2E2E2E2E2E2E2E2E2E2E2E2E2E2E2E2E2E2E2E2E2E2E2E2E2E2E2E2E2E2E2E2E2E2E2E2E2E2E2E2E2E2E2E2E2E2F5E2F5F5E2E2E2F5F5F5E2E2E2F5E2E2E2E2E2E2E2E2E2E2F5E2E2E2E2E2E2E2E2E2E2E2DCE2DCDCDCDCDCDCDCDCDCDCDCDCDCDCDCDCDCDCDCE2E2DCDCE2E2DCDCDCDCDCDCE2DC
310
DCDCE2E2E2E2E2E2E2E2E2E2E2E2E2E2E2E2E2E2E2E2DCE2E2E2E2E2DCDCDCDCE2E2E2E2DCE2E2E2E2E2E2E2E2E2E2E2E2E2E2E2E2E2E2E2E2E2E2E2E2E2E2E2E2E2E2E2E2E2E2E2E2E2E2E2E2E2E2E2E2E2E2E2E2E2E2E2E2E2E2E2E2E2E2E2E2E2E2E2E2E2E2E2E2E2E2E2E2F5E2F5F5E2E2E2F5F5F5E2E2E2F5E2E2E2E2
310
E2E2E2E2E2E2F5E2E2E2E2E2E2E2E2E2E2E2E2E2E2E2E2E2E2E2E2E2E2E2E2E2E2E2E2E2E2E2E2E2E2E2E2E2E2E2E2E2E2E2E2E2E2E2E2E2E2E2E2E2E2E2E2E2E2E2E2E2E2E2E2E2E2E2E2DCE2E2E2E2E2DCDCDCDCE2E2E2E2DCE2E2E2E2E2E2E2E2E2E2E2E2E2E2E2E2E2E2E2E2E2E2E2E2E2E2E2E2E2E2E2E2E2E2E2E2E2
310
E2E2E2E2E2E2E2E2E2E2E2E2E2E2E2E2E2E2E2E2E2E2E2E2E2E2E2E2E2E2E2E2E2E2E2F5E2F5F5E2E2E2F5F5F5E2E2E2F5E2E2E2E2E2E2E2E2E2E2F5E2E2E2E2E2E2E2E2E2E2E2E2E2E2E2E2E2E2E2E2DCDCE2E2E2E2E2E2E2E2E2E2E2E2E2DCDCE2E2E2E2E2E2E2E2E2E2E2E2E2E2E2E2E2E2E2E2E2E2E2E2E2E2E2E2E2E2
310
DCDCDCDCE2E2E2E2E2E2E2E2E2E2DCDCDCE2E2E2E2E2E2E2E2E2E2E2E2E2E2E2E2E2E2E2E2E2E2E2E2E2E2E2DCDCE2E2E2E2E2E2E2E2E2E2E2E2E2E2E2DCDCE2E2E2E2E2E2E2E2E2E2E2E2E2E2E2E2E2E2E2E2E2E2E2E2E2F5E2F5F5E2E2E2F5F5F5E2E2E2F5E2E2E2E2E2E2E2E2E2E2F5E2E2E2E2E2E2E2E2E2E2E2E2E2E2
310
E2E2E2E2E2E2DCDCDCDCDCDCDCDCDCDCDCDCDCDCDCDCDCE2E2E2E2E2E2E2E2E2E2E2E2E2E2E2E2E2E2E2E2E2E2E2E2E2E2E2E2E2DCDCDCDCDCDCDCDCDCDCDCDCDCDCDCDCDCDCDCE2E2E2E2E2E2E2E2E2E2E2E2E2E2E2E2E2E2E2E2E2E2E2E2E2E2DCDCDCDCDCDCDCDCDCDCDCDCDCDCDCDCDCDCDCE2E2E2E2E2E2E2E2E2E2E2
310
E2E2E2E2E2E2E2E2E2E2E2E2E2E2F5E2F5F5E2E2E2F5F5F5E2E2E2F5E2E2E2E2E2E2E2E2E2E2F5E2E2E2E2E2E2E2E2E2E2E2E2E2E2E2E2E2E2E2E2DCE2E2E2E2E2E2DCDCDCE2E2E2E2E2E2DCE2E2E2E2E2E2DCDCDCDCDCDCDCDCDCDCE2E2E2E2E2E2E2E2E2E2E2E2E2E2E2DCDCE2E2E2E2DCDCDCE2E2E2E2DCDCDCE2E2E2E2
310
E2E2E2E2E2E2E2E2E2E2E2E2E2E2E2E2E2E2E2E2E2E2E2DCE2E2E2E2E2E2DCDCDCDCE2E2E2E2E2E2E2DCE2E2E2E2DCDCDCDCDCDCE2E2E2E2E2E2E2E2E2E2E2E2E2E2E2F5E2F5F5E2E2E2F5F5F5E2E2E2F5E2E2E2E2E2E2E2E2E2E2F5E2E2E2E2E2E2E2E2E2E2E2E2E2E2E2E2E2E2E2E2DCE2E2E2E2DCE2E2E2E2E2E2DCE2E2
310
E2DCE2E2E2E2E2E2DCDCDCDCDCDCDCDCDCDCE2E2E2E2E2E2E2E2E2E2E2E2E2E2E2DCDCE2DCE2E2E2E2E2E2E2E2E2E2DCE2E2E2E2E2E2E2E2E2E2E2E2E2E2E2E2E2E2E2E2E2E2E2E2E2E2E2E2DCE2E2E2E2DCE2E2E2E2E2E2DCE2E2E2E2E2DCE2E2E2E2DCDCDCE2DCDCE2E2E2E2E2E2E2E2E2E2E2E2E2E2E2F5E2F5F5E2E2E2
310
F5F5F5E2E2E2F5E2E2E2E2E2E2E2E2E2E2F5E2E2E2E2E2E2E2E2E2E2E2E2E2E2E2E2E2E2E2E2DCE2E2E2E2DCDCDCDCDCDCDCDCE2E2E2DCE2E2E2E2E2DCDCDCDCDCDCDCDCDCDCDCDCE2E2E2E2E2E2E2E2E2E2E2E2E2DCDCDCDCDCDCDCDCDCDCDCDCDCDCDCDCE2E2E2E2E2E2E2E2E2E2E2E2E2E2E2DCDCDCDCDCDCDCDCDCE2E2
310
E2E2DCDCDCDCDCDCDCDCDCDCDCDCDCDCDCDCDCDCDCE2E2E2E2DCDCDCDCDCDCDCDCDCDCDCDCDCDCE2E2E2E2E2E2E2F5E2F5E2E2E2E2F5F5F5E2E2E2F5E2E2E2E2E2E2E2E2E2E2F5E2E2E2E2E2E2E2E2E2E2E2E2E2E2E2E2E2E2E2E2DCE2E2E2E2DCE2E2DCE2E2E2DCE2E2E2DCE2E2E2E2DCE2DCDCDCDCDCDCE2E2E2E2E2E2E2
310
E2E2E2E2E2E2E2E2E2E2E2E2DCDCDCDCE2E2E2DCDCDCE2E2E2E2DCE2E2E2E2E2E2E2E2E2E2E2E2E2E2E2DCDCDCDCDCDCDCDCE2DCE2E2E2DCDCDCDCE2DCE2E2DCDCE2E2DCE2DCDCDCE2DCE2E2E2DCE2E2DCDCDCDCDCDCDCDCDCDCDCE2E2E2E2E2E2E2E2F5E2F5E2E2E2E2F5F5F5E2E2E2F5E2E2E2E2E2E2E2E2E2E2F5E2E2E2
310
E2E2E2E2E2E2E2E2E2E2E2E2E2E2E2E2E2DCE2E2E2E2DCE2E2E2E2E2E2DCE2E2E2DCE2E2E2DCE2E2DCE2E2DCDCDCE2E2E2E2E2E2E2E2E2E2E2E2E2E2E2E2E2E2E2DCDCDCDCE2C3E2DCDCDCE2E2E2E2DCE2E2E2E2E2E2E2E2E2E2E2E2E2E2E2DCE2E2DCDCDCDCDCE2E2DCE2E2DCDCDCDCE2DCE2E2DCDCE2E2DCE2DCDCDCE2DC
310
E2E2DCE2E2E2DCE2DCDCDCDCDCDCDCDCDCE2E2E2E2E2E2E2E2F5E2F5E2E2E2E2F5F5F5E2E2E2F5E2E2E2E2E2E2E2E2E2E2F5E2E2E2E2E2E2E2E2E2E2E2E2E2E2E2E2E2E2E2E2DCE2E2E2E2DCE2E2E2E2E2E2DCE2E2E2DCE2E2DCE2E2E2E2E2E2E2E2E2E2E2E2E2E2E2E2E2E2E2E2E2E2E2E2E2E2E2E2DCDCE2DCE2DCDCDCDC
310
E2E2E2E2E2DCE2E2E2E2E2E2E2E2E2E2E2E2E2E2E2E2E2E2E2E2E2E2E2E2DCE2DCE2DCE2E2E2E2DCE2E2E2E2E2E2DCE2E2E2E2E2DCE2DCE2E2E2E2E2E2E2E2E2E2E2E2E2E2E2E2E2E2E2E2E2E2E2F5E2F5E2E2E2E2F5F5F5E2E2E2F5E2E2E2E2E2E2E2E2E2E2F5E2E2E2E2E2E2E2E2E2E2E2E2E2E2E2E2E2E2E2E2DCE2E2E2
310
E2DCE2E2BEE2E2E2DCE2E2E2DCE2DCE2E2E2E2E2E2E2E2E2E2E2E2E2E2E2E2E2E2E2E2E2E2E2E2E2E2E2E2E2DCDCE2DCE2C3E2E2E2E2E2E2E2E2DCE2E2E2E2E2E2E2E2E2E2E2E2E2E2E2E2E2E2E2E2E2E2E2E2DCE2E2DCDCE2E2E2E2DCE2E2E2BEE2E2DCE2E2E2E2E2DCDCE2E2E2E2E2E2E2E2E2E2E2E2E2E2E2E2E2E2E2E2
310
E2E2E2E2F5E2F5E2E2E2E2F5F5F5E2E2E2F5E2E2E2E2E2E2E2E2E2E2F5E2E2E2E2E2E2E2E2E2E2E2E2E2E2E2E2E2E2E2E2DCE2BEE2E2DCE2E2BEE2E2E2DCE2BEE2DCDCE2E2E2E2E2E2E2E2E2E2E2E2E2E2E2E2E2E2E2E2E2E2E2E2E2E2E2E2E2E2DCDCE2DCE2C3E2E2E2E2E2E2E2E2F5E2E2E2E2E2E2E2E2E2E2E2E2E2E2E2
310
E2E2E2E2E2E2E2E2E2DCDCDCDCDCF5BEF5F5DCF5F5F5BEF5F5DCF5F5BEF5F5DCDCDCDCDCDCDCDCDCE2E2E2E2E2E2E2E2E2E2E2E2E2E2E2E2E2F5E2F5E2E2E2E2F5F5F5E2E2E2F5E2E2E2E2E2E2E2E2E2E2F5E2E2E2E2E2E2E2E2E2E2E2E2E2E2E2E2E2E2E2E2DC2DBE2D2DDCF5F5BEF5F5F52D2DBE2DDCDCDCDCDCDCDCDCDC
310
DCE2E2E2E2E2E2E2E2E2E2E2E2E2E2E2E2E2E2E2E2E2E2F5F5F52DF5F5F5F5F5F5F5F5F5F52DE2E2E2E2E2E2E2E2E2E2E2E2E2E2E2E2E2E2E2E2E2E2E2DCDCE2E2E2DCDCF5E2E2DCE2E2E2BEE2E2DCE2E2F5E2DCF5E2E2E2DCDCE2E2DCE2E2E2E2E2E2E2E2E2E2E2E2E2E2E2E2E2F5E2F5E2E2E2E2F5F5F5E2E2E2F5E2E2E2
310
E2E2E2E2E2E2E2F5E2E2E2E2E2E2E2E2E2E2E2E2E2E2E2E2E2E2E2E2F52DBE2D2DDC2D2DBE2D2D2D2D2DBEDC2DE2E2E2E2E2E2E2E2DCE2E2E2E2E2E2E2E2E2E2E2E2E2E2E2E2E2E2E2E2E2E2F52D2D2DE2C3E2E2E2E2E2E2E2E2F5E2E2E2E2E2E2E2E2E2E2E2E2E2E2E2E2E2E2E2E2E2E2E2DCDCE2E2E2F5DCBEF5E2DCE2E2
310
E2BEE2E2DCE2F5BEDCE2F5E2E2DCDCDCE2E2DCE2E2E2E2E2E2E2E2E2E2E2E2E2E2E2E2E2F5E2F5E2E2E2E2F5F5F5E2E2E2F5E2E2E2E2E2E2E2E2E2E2F5E2E2E2E2E2E2E2E2E2E2E2E2E2E2E2E2E2E2E2BEBEBEBEBEBEBEE2E2BEE2E2E2BEBEBEBEBEBEE2E2E2E2E2E2E2DCE2E2E2E2E2E2E2E2E2E2E2E2E2E2E2E2E2E2E2E2
310
E2BEBEBEBEBEBEBEBEBEBEBEBEBEBEBEBEBEE2E2E2E2E2E2E2E2E2E2E2E2E2E2E2E2E2E2E2E2E2E2E2DCDCDCBEBEF5BEBEF5BEE2E2E2BEE2E2BEF5BEDCF5BEBEE2E2DCDCDCE2E2DCE2E2E2E2E2E2E2E2E2E2E2E2E2E2E2E2E2F5E2F5F5E2E2E2F5F5F5E2E2E2F5E2E2E2E2E2E2E2E2E2E2F5E2E2E2E2E2E2E2E2E2E2E2E2E2
310
E2E2E2E2E2E2E22D2DBE2DE2F5E2E2BEE2E2E2BEDCBE2D2DE2E2E2E2E2E2E2E2DCE2E2E2E2E2E2E2E2E2E2E2E2E2E2E2E2E2E2E2E2E2E2F52D2D2DF5F5F5F5F5F5F5F5F5F52DE2E2E2E2E2E2E2E2E2E2E2E2E2E2E2E2E2E2E2E2E2E2E2E2DCE2E2E2F5F5F5F5F5F5E2E2E2BEE2E2F5DCDCF5F5E2F5E2E2E2DCDCE2E2DCE2E2
310
E2E2E2E2E2E2E2E2E2E2E2E2E2E2E2F5E2F5F5E2E2E2F5F5F5E2E2E2F5E2E2E2E2E2E2E2E2E2E2F5E2E2E2E2E2E2E2E2E2E2E2E2E2E2E2E2E2E2E2E22D2DBEBEBEBEBEE2BEE2BEF5DCBEBE2D2DDCDCDCDCDCDCE2E2DCE2E2E2E2E2E2E2E2E2E2E2E2E2E2E2E2E2E2E2E2E2BEBEBEBEF5E2C3E2E2E2E2E2E2E2BEBEBEE2E2E2
310
E2E2E2E2E2E2E2E2E2E2E2E2E2E2E2E2E2E2E2E2DCE2E2E2F5E2BEBEF5BEF5BEE2BEBEF5F5F5DCDCDCDCDCDCDCDCDCDCE2E2DCE2E2E2E2E2E2E2E2E2E2E2E2E2E2E2E2E2F5E2F5F5E2E2E2F5F5F5E2E2E2F5E2E2E2E2E2E2E2E2E2E2F5E2E2E2E2E2E2E2E2E2E2E2E2E2E2E2E2E2E2E2E2F52DE2E2F5F5E2E2BEE2E2F5BEE2
310
E22DF5E2E2E2E2DCDCE2E2DCE2E2E2E2E2E2E2E2E2E2E2E2E2E2E2E2E2E2E2E2E2E2F5F5E2F5E2C3E2E2E2E2E2E2E2E2F5E2E2E2E2E2E2E2E2E2E2E2E2E2E2E2E2E2E2E2E2E2E2E2E2DCE2E2E2F5E2E2E2F5F5E2E2E2BEE2E2F5F5E2E2E2E2F5E2E2E2DCDCE2E2DCE2E2E2E2E2E2E2E2E2E2E2E2E2E2E2E2E2F5E2F5F5E2E2
310
E2F5F5F5E2E2E2F5E2E2E2E2E2E2E2E2E2E2F5E2E2E2E2E2E2E2E2E2E2E2E2E2E2E2E2E2E2E2E2F52DE2E2E2BEE2E2BEE2E2E2BEE2E22DF5E2E2E2E2DCE2DCDCDCE2E2E2E2E2E2E2E2E2E2E2E2E2E2E2E2E2E2E2E2E2E2F5F5E2F5E2C3E2E2E2E2E2E2E2E2F5E2E2E2E2E2E2E2E2E2E2E2E2E2E2E2E2E2E2E2E2E2E2E2E2DC
310
E2E2E2F5E2E2E2E2BEE2E2E2BEE2E2BEE2E2E2E2E2F5E2E2E2E2DCE2E2DCE2E2E2E2E2E2E2E2E2E2E2E2E2E2E2E2E2F5E2F5F5E2E2E2F5F5F5E2E2E2F5E2E2E2E2E2E2E2E2E2E2F5E2E2E2E2E2E2E2E2E2E2E2E2E2E2E2E2E2E2E2E2F52DE2E2E2E2E2E2BEE2E2E2E2E2E22DF5E2E2E2DCDCE2DCDCDCE2E2E2E2E2E2E2E2E2
310
E2E2E2E2E2E2E2E2E2E2E2E2E2F5F5E2F5E2C3E2E2E2E2E2E2E2E2F5E2E2E2E2E2E2E2E2E2E2E2E2E2E2E2E2E2E2E2E2E2E2E2DCDCE2E2E2F5E2E2E2E2E2E2E2E2BEE2E2E2E2E2E2E2E2F5E2E2DCDCDCDCDCDCE2E2E2E2E2E2E2E2E2E2E2E2E2E2E2E2E2F5E2F5F5E2E2E2F5F5F5E2E2E2F5E2E2E2E2E2E2E2E2E2E2F5E2E2
310
E2E2E2E2E2E2E2E2E2E2E2E2E2E2E2E2E2BEBEBEBEBEBEBEBEBEBEBEBEBEBEBEBEBEBEBEE2E2DCDCE2DCDCDCE2E2E2E2E2E2E2E2E2E2E2E2E2E2E2E2E2E2E2E2E2BEBE2D2D2DBEBEBEBEBEBEBEBEBEBEBEBEE2E2E2E2E2E2E2E2E2E2E2E2E2E2E2E2E2E2E2E2E2E2DCDCE2E2BEBEBEBEBEBEBEBEBEBEBEBEBEBEBEBEBEBEBE
310
BEBEE2DCDCDCDCDCDCE2E2E2E2E2E2E2E2E2E2E2E2E2E2E2E2E2F5E2F5F5E2E2E2F5F5F5E2E2E2F5E2E2E2E2E2E2E2E2E2E2F5E2E2E2E2E2E2E2E2E2E2E2E2E2E2E2E2E2E2E2E2F52DE2E2E2E2E2E2BEE2E2E2E2E2E22DF5E2E2E2E2DCE2DCDCDCE2E2E2E2E2E2E2E2E2E2E2E2E2E2E2E2E2E2E2E2E2E2F5F5E2F5E2C3E2E2
310
E2E2E2E2E2E2F5E2E2E2E2E2E2E2E2E2E2E2E2E2E2E2E2E2E2E2E2E2E2E2DCDCE2E2E2F5E2E2E2E2E2E2E2E2BEE2E2E2E2E2E2E2E2F5E2E2DCDCDCDCDCDCE2E2E2E2E2E2E2E2E2E2E2E2E2E2E2E2E2F5E2F5F5E2E2E2F5F5F5E2E2E2F5E2E2E2E2E2E2E2E2E2E2F5E2E2E2E2E2E2E2E2E2E2E2E2E2E2E2E2E2E2E2E2F52DE2
310
E2E2F5E2E2BEE2E2E2BEE2E22DF5E2E2E2E2DCDCE2E2DCE2E2E2E2E2E2E2E2E2E2E2E2E2E2E2E2E2E2E2E2E2E2F5F5E2F5E2C3E2E2E2E2E2E2E2E2F5E2E2E2E2E2E2E2E2E2E2E2E2E2E2E2E2E2E2E2E2E2E2E2E2DCE2E2E2F5E2E2E2E2BEE2E2E2BEE2E2BEE2E2E2E2E2F5E2E2E2E2DCE2E2DCE2E2E2E2E2E2E2E2E2E2E2E2
310
E2E2E2E2E2F5E2F5F5E2E2E2F5F5F5E2E2E2F5E2E2E2E2E2E2E2E2E2E2F5E2E2E2E2E2E2E2E2E2E2E2E2E2E2E2E2E2E2E2E2F52DBEBEBEBEBEE2BEE2BEF5BEBEBE2DF5DCDCDCDCDCDCE2E2DCE2E2E2E2E2E2E2E2E2E2E2E2E2E2E2E2E2E2E2E2E2BEBEBEBEF5E2C3E2E2E2E2E2E2E2E2F5E2E2E2E2E2E2E2E2E2E2E2E2E2E2
310
E2E2E2E2E2E2E2E2E2E2DCE2E2E2F5E2BEE2F5F5F5E2E2BEE2E2F5F5E2BEE2E2F5E2E2E2DCDCE2E2DCE2E2E2E2E2E2E2E2E2E2E2E2E2E2E2E2E2F5E2F5F5E2E2E2F5F5F5E2E2E2F5E2E2E2E2E2E2E2E2E2E2F5E2E2E2E2E2E2E2E2E2E2E2E2E2E2E2E2E2E2E2E22D2DBEE2F5F5E2E2BEE2E2F5BEE2BE2D2DE2E2E2E2E2E2E2
310
E2DCE2E2E2E2E2E2E2E2E2E2E2E2E2E2E2E2E2E2E2E2E2E2F5F5E2F5E2C3E2E2E2E2DCE2E2BEBEBEE2E2E2E2E2E2E2E2E2E2E2E2E2E2E2E2E2E2E2E2E2E2E2DCE2E2E2F5E2BEBEF5F5F5BEE2BEBEF5F5F5DCDCDCDCDCDCDCDCDCDCE2E2DCE2E2E2E2E2E2E2E2E2E2E2E2E2E2E2E2E2F5E2F5F5E2E2E2F5F5F5E2E2E2F5E2E2
310
E2E2E2E2E2E2E2E2F5E2E2E2E2E2E2E2E2E2E2E2E2E2E2E2E2E2E2E2E22D2DBE2DE2BEE2E2BEE2E2E2BE2DBE2D2DE2E2E2E2E2E2E2E2DCE2E2E2E2E2E2E2E2E2E2E2E2E2E2E2E2E2E2E2E2E2E2F52D2D2DF5F5F5F5F5F5F5F5F5F52DE2E2E2E2E2E2E2E2E2E2E2E2E2E2E2E2E2E2E2E2E2E2E2E2DCE2E2E2F5F5F5F5E2BEE2
310
E2E2BEE2E2BEE2F5F5F5E2F5E2E2DCDCDCE2E2DCE2E2E2E2E2E2E2E2E2E2E2E2E2E2E2E2E2F5E2F5F5E2E2E2F5F5F5E2E2E2F5E2E2E2E2E2E2E2E2E2E2F5E2E2E2E2E2E2E2E2E2E2E2E2E2E2E2E2E2E2E2BEBEBEBEBEBEBEE2E2BEE2E2E2BEBEBEBEBEBEE2E2E2E2E2E2E2DCE2E2E2E2E2E2E2E2E2E2E2E2E2E2E2E2E2E2E2
310
E2E2BEBEBEBEBEBEBEBEBEBEBEBEBEBEBEBEBEE2E2E2E2E2E2E2E2E2E2E2E2E2E2E2E2E2E2E2E2E2E2E2DCDCDCBEBEF5BEBEF5BEE2E2E2BEE2E2BEF5BEBEF5BEBEE2E2DCDCDCE2E2DCE2E2E2E2E2E2E2E2E2E2E2E2E2E2E2E2E2F5E2F5F5E2E2E2F5F5F5E2E2E2F5E2E2E2E2E2E2E2E2E2E2F5E2E2E2E2E2E2E2E2E2E2E2E2
310
E2E2E2E2E2E2E2E2F52DBE2D2D2D2D2DBE2D2D2D2D2DBE2DF5E2E2E2E2E2E2E2E2DCE2E2E2E2E2E2E2E2E2E2E2E2E2E2E2E2E2E2E2E2E2E2F52D2D2DE2C3E2E2E2DCDCDCE2E22DE2E2E2E2E2E2E2E2E2E2E2E2E2E2E2E2E2E2E2E2E2E2E2DCDCE2E2E2F5F5BEF5E2E2E2E2E2BEE2E2E2E2F5BEF5E2F5E2E2DCDCDCE2E2DCE2
310
E2E2E2E2E2E2E2E2E2E2E2E2E2E2E2E2F5E2F5F5E2E2E2F5F5F5E2E2E2F5E2E2E2E2E2E2E2E2E2E2F5E2E2E2E2E2E2E2E2E2E2E2E2E2E2E2E2E2E2E2E2F5F5BE2D2DF5F5F5BEF5F5F52D2DBEF5F5DCDCDCDCDCDCDCDCDCE2E2E2E2E2E2E2E2E2E2E2E2E2E2E2E2E2E2E2E2E2E2F5F5F5F5F5F5F5F5F5F5F5F5F5F52DE2E2E2
310
E2E2E2E2E2E2E2E2E2E2E2E2E2E2E2E2E2E2E2E2DCDCE2E2E2F5E2F5E2E2E2E2E2E2BEE2E2E2E2E2F5E2E2F5E2E2E2DCDCE2E2DCE2E2E2E2E2E2E2E2E2E2E2E2E2E2E2E2E2F5E2F5F5E2E2E2F5F5F5E2E2E2F5E2E2E2E2E2E2E2E2E2E2F5E2E2E2E2E2E2E2E2E2E2E2E2E2E2E2E2E2E2E2E2E2E2BEE2E2E2E2E2BEE2E2E2E2
310
E2BEE2E2E2E2E2E2E2E2E2E2E2E2E2E2E2E2E2E2E2E2E2E2E2E2E2E2E2E2E2E2E2E2E2E2E2E2E2E2C3E2E2E2E2E2E2E2E2F5E2E2E2E2E2E2E2E2E2E2E2E2E2E2E2E2E2E2E2E2E2E2E2E2DCDCDCDCDCF5DCF5F5F5F5F5F5BEF5F5F5F5F5DCF5F5DCDCDCDCDCDCDCDCDCE2E2E2E2E2E2E2E2E2E2E2E2E2E2E2E2E2F5E2F5E2E2
310
E2E2F5F5F5E2E2E2F5E2E2E2E2E2E2E2E2E2E2F5E2E2E2E2E2E2E2E2E2E2E2E2E2E2E2E2E2E2E2E2E2E2E2E2E2E2E2E2E2E2E2E2E2E2E2E2E2E2E2E2E2E2E2E2E2E2E2E2E2E2E2E2E2E2E2E2E2E2E2E2E2E2E2E2E2E2E2E2E2E2E2E2E2C3E2DCDCE2E2E2E2E2E2E2E2E2E2E2E2E2E2E2E2E2E2E2E2E2E2E2E2E2E2E2E2E2E2
310
DCE2E2E2DCE2DCE2E2E2E2E2E2BEE2E2E2E2E2DCE2E2DCE2E2E2E2E2E2E2E2E2E2E2E2E2E2E2E2E2E2E2E2E2E2E2E2E2F5E2F5E2E2E2E2F5F5F5E2E2E2F5E2E2E2E2E2E2E2E2E2E2F5E2E2E2E2E2E2E2E2E2E2E2E2E2E2E2E2E2E2E2E2E2E2E2E2E2E2E2E2E2E2E2E2E2E2E2E2E2E2E2E2E2E2E2E2E2E2E2E2E2E2E2E2E2E2
310
E2E2E2E2E2E2E2E2E2E2E2E2E2E2E2E2E2E2E2DCDCDCDCE2E2E2E2E2E2E2E2E2E2E2E2E2E2E2E2E2E2E2E2E2E2E2E2E2E2E2E2E2E2DCE2E2E2DCE2DCE2E2E2E2E2E2E2E2E2E2E2E2DCE2E2DCE2E2E2E2E2E2E2E2E2E2E2E2E2E2E2E2E2E2E2E2E2E2E2E2E2F5E2F5E2E2E2E2F5F5F5E2E2E2F5E2E2E2E2E2E2E2E2E2E2F5E2
310
E2E2E2E2E2E2E2E2E2E2E2E2E2E2E2E2E2E2E2E2E2E2E2E2E2E2E2E2E2E2E2E2E2E2E2E2E2E2E2E2E2E2E2E2E2E2E2E2E2E2E2E2E2E2E2E2E2E2E2E2E2E2E2E2E2E2E2E2E2E2E2E2C3E2E2E2E2E2E2E2E2E2E2E2E2E2E2E2E2E2E2E2E2E2E2E2E2E2E2E2E2E2E2E2E2E2E2E2DCDCDCDCDCDCDCDCDCDCDCDCDCDCDCDCDCDCDC
310
DCDCDCDCE2E2E2E2E2E2E2E2E2E2E2E2E2E2E2E2E2E2E2E2E2E2E2F5E2F5E2E2E2E2F5F5F5E2E2E2F5E2E2E2E2E2E2E2E2E2E2F5E2E2E2E2E2E2E2E2E2E2E2E2E2E2E2E2E2E2E2E2E2E2E2E2E2E2E2E2E2E2E2E2E2E2E2E2E2E2E2E2E2E2E2E2E2E2E2E2E2E2E2E2E2E2E2E2E2E2E2E2E2E2E2E2E2E2E2E2E2E2E2E2E2E2E2
310
E2E2E2E2E2E2E2E2E2E2E2E2E2E2E2E2E2E2E2E2E2E2E2E2E2E2E2E2E2E2E2E2E2E2E2E2DCDCDCE2E2E2E2E2DCDCDCE2E2E2E2DCDCDCDCE2E2E2E2E2E2E2E2E2E2E2E2E2E2E2E2E2E2E2E2E2E2E2E2E2F5E2F5E2E2E2E2F5F5F5E2E2E2F5E2E2E2E2E2E2E2E2E2E2F5E2E2E2E2E2E2E2E2E2E2E2E2E2E2E2E2E2E2E2E2E2E2
310
E2E2E2E2E2E2E2E2E2E2E2E2E2E2E2E2E2E2E2E2E2E2E2E2E2E2E2E2E2E2E2E2E2E2E2E2E2E2E2E2E2E2E2E2E2E2E2E2E2E2E2E2E2E2E2E2E2E2E2E2E2E2E2E2E2E2E2E2E2E2E2E2E2E2E2E2E2E2E2E2E2E2E2E2E2E2E2E2E2DCDCDCE2E2E2E2DCDCDCDCE2E2E2E2E2DCDCE2E2E2E2E2E2E2E2E2E2E2E2E2E2E2E2E2E2E2E2
310
E2E2E2E2E2E2F5E2F5E2E2E2E2F5F5F5E2E2E2F5E2E2E2E2E2E2E2E2E2E2F5E2E2E2E2E2E2E2E2E2E2E2E2E2E2E2E2E2E2E2E2E2E2E2E2E2E2E2E2E2E2E2E2E2E2E2E2E2E2E2E2E2E2E2E2E2E2E2E2E2E2E2E2E2E2E2E2E2E2E2E2E2E2E2E2E2E2E2E2E2E2E2E2E2E2E2E2E2E2E2E2E2E2E2E2E2E2E2E2E2E2E2E2E2E2E2E2
310
E2E2E2E2E2E2E2E2E2E2E2E2E2E2E2E2E2E2E2E2E2E2E2E2E2E2E2E2E2E2E2E2E2E2E2E2E2E2E2E2E2E2E2E2E2E2E2E2E2E2E2E2E2E2E2E2E2E2E2F5E2F5E2E2E2E2F5F5F5E2E2E2F5E2E2E2E2E2E2E2E2E2E2F5E2E2E2E2E2E2E2E2E2E2E2E2E2E2E2E2E2E2E2E2E2E2E2E2E2E2E2E2E2E2E2E2E2E2E2E2E2E2E2E2E2E2E2
310
E2E2E2E2E2E2E2E2E2E2E2E2E2E2E2E2E2E2E2E2E2E2E2E2E2E2E2E2E2E2E2E2E2E2E2E2E2E2E2E2E2E2E2E2E2E2E2E2E2E2E2E2E2E2E2E2E2E2E2E2E2E2E2E2E2E2E2E2E2E2E2E2E2E2E2E2E2E2E2E2E2E2E2E2E2E2E2E2E2E2E2E2E2E2E2E2E2E2E2E2E2E2E2E2E2E2E2E2E2E2E2E2F5E2F5E2E2E2E2F5F5F5E2E2E2F5E2
310
E2E2E2E2E2E2E2E2E2F5E2E2E2E2E2E2E2E2E2E2E2E2E2E2E2E2E2E2E2E2E2E2E2E2E2E2E2E2E2E2E2E2E2E2E2E2E2E2E2E2E2E2E2E2E2E2E2E2E2E2E2E2E2E2E2E2E2E2E2E2E2E2E2E2E2E2E2E2E2E2E2E2E2E2E2E2E2E2E2E2E2E2E2E2E2E2E2E2E2E2E2E2E2E2E2E2E2E2E2E2E2E2E2E2E2E2E2E2E2E2E2E2E2E2E2E2E2
310
E2E2E2E2E2E2E2E2E2E2E2E2E2E2E2E2E2E2E2E2E2E2E2E2E2E2E2E2E2E2E2E2E2E2E2E2E2E2F5E2F5E2E2E2E2F5F5F5E2E2E2F5E2E2E2E2E2E2E2E2E2E2F5E2E2E2E2E2E2E2E2E2E2E2E2E2E2E2E2E2E2E2E2E2E2E2E2E2E2E2E2E2E2E2E2E2E2E2E2E2E2E2E2E2E2E2E2E2E2E2E2E2E2E2E2E2E2E2E2E2E2E2E2E2E2E2E2
310
E2E2E2E2E2E2E2E2E2E2E2E2E2E2E2E2E2E2E2E2E2E2E2E2E2E2E2E2E2E2E2E2E2E2E2E2E2E2E2E2E2E2E2E2E2E2E2E2E2E2E2E2E2E2E2E2E2E2E2E2E2E2E2E2E2E2E2E2E2E2E2E2E2E2E2E2E2E2E2E2E2E2E2E2E2E2E2E2E2E2E2F5E2F5F5E2E2E2F5F5F5E2E2E2F5E2E2E2E2E2E2E2E2E2E2F5E2E2E2E2E2E2E2E2E2E2E2
310
E2E2E2E2E2E2E2E2E2E2E2E2E2E2E2E2E2E2E2E2E2E2E2E2E2E2E2E2E2E2E2E2E2E2E2E2E2E2E2E2E2E2E2E2E2E2E2E2E2E2E2E2E2E2E2E2E2E2E2E2E2E2E2E2E2E2E2E2E2E2E2E2E2E2E2E2E2E2E2E2E2E2E2E2E2E2E2E2E2E2E2E2E2E2E2E2E2E2E2E2E2E2E2E2E2E2E2E2E2E2E2E2E2E2E2E2E2E2E2E2E2E2E2E2E2E2E2
310
E2E2E2E2E2E2E2E2E2E2E2E2E2E2E2E2E2F5E2F5F5E2E2E2F5F5F5E2E2E2F5E2E2E2E2E2E2E2E2E2E2F5E2E2E2E2E2E2E2E2E2E2E2E2E2E2E2E2E2E2E2E2E2E2E2E2E2E2E2E2E2E2E2E2E2E2E2E2E2E2E2E2E2E2E2E2E2E2E2E2E2E2E2E2E2E2E2E2E2E2E2E2E2E2E2E2E2E2E2E2E2E2E2E2E2E2E2E2E2E2E2E2E2E2E2E2E2
310
E2E2E2E2E2E2E2E2E2E2E2E2E2E2E2E2E2E2E2E2E2E2E2E2E2E2E2E2E2E2E2E2E2E2E2E2E2E2E2E2E2E2E2E2E2E2E2E2E2E2E2E2E2E2E2E2E2E2E2E2E2E2E2E2E2E2E2E2E2E2F5E2F5F5E2E2E2F5F5F5E2E2E2F5E2E2E2E2E2E2E2E2E2E2F5E2E2E2E2E2E2E2E2E2E2E2E2E2E2E2E2E2E2E2E2E2E2E2E2E2E2E2E2E2E2E2E2
310
E2E2E2E2E2E2E2E2E2E2E2E2E2E2E2E2E2E2E2E2E2E2E2E2E2E2E2E2E2E2E2E2E2E2E2E2E2E2E2E2E2E2E2E2E2E2E2E2E2E2E2E2E2E2E2E2E2E2E2E2E2E2E2E2E2E2E2E2E2E2E2E2E2E2E2E2E2E2E2E2E2E2E2E2E2E2E2E2E2E2E2E2E2E2E2E2E2E2E2E2E2E2E2E2E2E2E2E2E2E2E2E2E2E2E2E2E2E2E2E2E2E2E2F5E2F5F5
310
E2E2E2F5F5F5E2E2E2F5E2E2E2E2E2E2E2E2E2E2F5E2E2E2E2E2E2E2E2E2E2E2E2E2E2E2E2E2E2E2E2E2E2E2E2E2E2E2E2E2E2E2E2E2E2E2E2E2E2E2E2E2E2E2E2E2E2E2E2E2E2E2E2E2E2E2E2E2E2E2E2E2E2E2E2E2E2E2E2E2E2E2E2E2E2E2E2E2E2E2E2E2E2E2E2E2E2E2E2E2E2E2E2E2E2E2E2E2E2E2E2E2E2E2E2E2E2
310
E2E2E2E2E2E2E2E2E2E2E2E2E2E2E2E2E2E2E2E2E2E2E2E2E2E2E2E2E2E2E2E2E2E2E2E2E2E2E2E2E2E2E2E2E2E2E2E2E2F5E2F5F5E2E2E2F5F5F5E2E2E2F5E2E2E2E2E2E2E2E2E2E2F5E2E2E2E2E2E2E2E2E2E2E2E2E2E2E2E2E2E2E2E2E2E2E2E2E2E2E2E2E2E2E2E2E2E2E2E2E2E2E2E2E2E2E2E2E2E2E2E2E2E2E2E2E2
310
E2E2E2E2E2E2E2E2E2E2E2E2E2E2E2E2E2E2E2E2E2E2E2E2E2E2E2E2E2E2E2E2E2E2E2E2E2E2E2E2E2E2E2E2E2E2E2E2E2E2E2E2E2E2E2E2E2E2E2E2E2E2E2E2E2E2E2E2E2E2E2E2E2E2E2E2E2E2E2E2E2E2E2E2E2E2E2E2E2E2E2E2E2E2E2E2E2E2E2E2E2E2F5E2F5F5E2E2E2F5F5F5E2E2E2F5E2E2E2E2E2E2E2E2E2E2F5
310
F5F5F5F5F5F5F5F5F5F5F5F5F5F5F5F5F5F5F5F5F5F5F5F5F5F5F5F5F5F5F5F5F5F5F5F5F5F5F5F5F5F5F5F5F5F5F5F5F5F5F5F5F5F5F5F5F5F5F5F5F5F5F5F5F5F5F5F5F5F5F5F5F5F5F5F5F5F5F5F5F5F5F5F5F5F5F5F5F5F5F5F5F5F5F5F5F5F5F5F5F5F5F5F5F5F5F5F5F5F5F5F5F5F5F5F5F5F5F5F5F5F5F5F5F5F5F5
310
F5F5F5F5F5F5F5F5F5F5F5F5F5F5F5F5F5F5F5F5F5F5F5F5F5F5F5F5F5E2F5F5E2E2E2F5F5F5E2E2E2F5F5F5F5F5F5F5F5F5F5F5F5F5F5F5F5F5F5F5F5F5F5F5F5F5F5F5F5F5F5F5F5F5F5F5F5F5F5F5F5F5F5F5F5F5F5F5F5F5F5F5F5F5F5F5F5F5F5F5F5F5F5F5F5F5F5F5F5F5F5F5F5F5F5F5F5F5F5F5F5F5F5F5F5F5F5
310
F5F5F5F5F5F5F5F5F5F5F5F5F5F5F5F5F5F5F5F5F5F5F5F5F5F5F5F5F5F5F5F5F5F5F5F5F5F5F5F5F5F5F5F5F5F5F5F5F5F5F5F5F5F5F5F5F5F5F5F5F5F5F5F5F5F5F5F5F5F5F5F5F5F5F5F5F5F5F5F5F5F5F5F5F5E2E2E2F5F5F5E2E2E2E2E2E2E2E2E2E2E2E2E2E2E2E2E2E2E2E2E2E2E2E2E2E2E2E2E2E2E2E2E2E2E2E2
310
E2E2E2E2E2E2E2E2E2E2E2E2E2E2E2E2E2E2E2E2E2E2E2E2E2E2E2E2E2E2E2E2E2E2E2E2E2E2E2E2E2E2E2E2E2E2E2E2E2E2E2E2E2E2E2E2E2E2E2E2E2E2E2E2E2E2E2E2E2E2E2E2E2E2E2E2E2E2E2E2E2E2E2E2E2E2E2E2E2E2E2E2E2E2E2E2E2E2E2E2E2E2E2E2E2E2E2E2E2E2E2E2E2E2E2E2E2E2E2E2E2E2E2E2E2E2E2
310
E2E2E2E2E2E2E2E2E2E2E2E2E2E2F5F5F5E2E2E2E2E2E2E2E2E2E2E2E2E2E2E2E2E2E2E2E2E2E2E2E2E2E2E2E2E2E2E2E2E2E2E2E2E2E2E2E2E2E2E2E2E2E2E2E2E2E2E2E2E2E2E2E2E2E2E2E2E2E2E2E2E2E2E2E2E2E2E2E2E2E2E2E2E2E2E2E2E2E2E2E2E2E2E2E2E2E2E2E2E2E2E2E2E2E2E2E2E2E2E2E2E2E2E2E2E2E2
310
E2E2E2E2E2E2E2E2E2E2E2E2E2E2E2E2E2E2E2E2E2E2E2E2E2E2E2E2E2E2E2E2E2E2E2E2E2E2E2E2E2E2E2E2E2E2E2E2E2E2E2E2E2E2E2E2E2E2E2E2E2E2E2E2E2E2E2F5F5F5E2E2E2E2E2E2E2E2E2E2E2E2E2E2E2E2E2E2E2E2E2E2E2E2E2E2E2E2E2E2E2E2E2E2E2E2E2E2E2E2E2E2E2E2E2E2E2E2E2E2E2E2E2E2E2E2E2
310
E2E2E2E2E2E2E2E2E2E2E2E2E2E2E2E2E2E2E2E2E2E2E2E2E2E2E2E2E2E2E2E2E2E2E2E2E2E2E2E2E2E2E2E2E2E2E2E2E2E2E2E2E2E2E2E2E2E2E2E2E2E2E2E2E2E2E2E2E2E2E2E2E2E2E2E2E2E2E2E2E2E2E2E2E2E2E2E2E2E2E2E2E2E2E2E2E2E2E2E2E2E2E2E2E2E2E2E2E2E2E2E2E2E2E2E2E2E2E2E2F5EFF5F5F5F5F5
310
F5F5F5F5F5F5F5F5F5F5F5F5F5F5F5F5F5F5F5F5F5F5F5F5F5F5F5F5F5F5F5F5F5F5F5F5F5F5F5F5F5F5F5F5F5F5F5F5F5F5F5F5F5F5F5F5F5F5F5F5F5F5F5F5F5F5F5F5F5F5F5F5F5F5F5F5F5F5F5F5F5F5F5F5F5F5F5F5F5F5F5F5F5F5F5F5F5F5F5F5F5F5F5F5F5F5F5F5F5F5F5F5F5F5F5F5F5F5F5F5F5F5F5F5F5F5F5
310
F5F5F5F5F5F5F5F5F5F5F5F5F5F5F5F5F5F5F5F5F5F5F5F5F5F5F5F5F5F5F5F5F5F5F5F5F5F5F5F5F5F5F5F5F5F5F5EF
  0
XRECORD
  5
7815
102
{ACAD_REACTORS
330
770B
102
}
330
770B
100
AcDbXrecord
280
     1
102
MATERIAL
148
0.0
149
0.0
149
0.0
 93
        0
 94
      127
282
     0
 72
     0
 77
     0
171
     0
175
     0
179
     0
273
     0
  0
XRECORD
  5
770D
102
{ACAD_REACTORS
330
770B
102
}
330
770B
100
AcDbXrecord
280
     1
270
     1
271
     1
  0
XRECORD
  5
770C
102
{ACAD_REACTORS
330
770B
102
}
330
770B
100
AcDbXrecord
280
     1
270
     1
271
     1
  0
XRECORD
  5
7710
102
{ACAD_REACTORS
330
770B
102
}
330
770B
100
AcDbXrecord
280
     1
270
     1
271
     1
  0
XRECORD
  5
770F
102
{ACAD_REACTORS
330
770B
102
}
330
770B
100
AcDbXrecord
280
     1
270
     1
271
     1
  0
XRECORD
  5
7711
102
{ACAD_REACTORS
330
770B
102
}
330
770B
100
AcDbXrecord
280
     1
270
     1
271
     1
  0
XRECORD
  5
770E
102
{ACAD_REACTORS
330
770B
102
}
330
770B
100
AcDbXrecord
280
     1
270
     1
271
     1
  0
XRECORD
  5
7814
102
{ACAD_REACTORS
330
7703
102
}
330
7703
100
AcDbXrecord
280
     1
102
MATERIAL
148
0.0
149
0.0
149
0.0
 93
        0
 94
      127
282
     0
 72
     0
 77
     0
171
     0
175
     0
179
     0
273
     0
  0
XRECORD
  5
7705
102
{ACAD_REACTORS
330
7703
102
}
330
7703
100
AcDbXrecord
280
     1
270
     1
271
     1
  0
XRECORD
  5
7704
102
{ACAD_REACTORS
330
7703
102
}
330
7703
100
AcDbXrecord
280
     1
270
     1
271
     1
  0
XRECORD
  5
7708
102
{ACAD_REACTORS
330
7703
102
}
330
7703
100
AcDbXrecord
280
     1
270
     1
271
     1
  0
XRECORD
  5
7707
102
{ACAD_REACTORS
330
7703
102
}
330
7703
100
AcDbXrecord
280
     1
270
     1
271
     1
  0
XRECORD
  5
7709
102
{ACAD_REACTORS
330
7703
102
}
330
7703
100
AcDbXrecord
280
     1
270
     1
271
     1
  0
XRECORD
  5
7706
102
{ACAD_REACTORS
330
7703
102
}
330
7703
100
AcDbXrecord
280
     1
270
     1
271
     1
  0
XRECORD
  5
7816
102
{ACAD_REACTORS
330
7713
102
}
330
7713
100
AcDbXrecord
280
     1
102
MATERIAL
148
0.0
149
0.0
149
0.0
 93
        0
 94
      127
282
     0
 72
     0
 77
     0
171
     0
175
     0
179
     0
273
     0
  0
XRECORD
  5
7715
102
{ACAD_REACTORS
330
7713
102
}
330
7713
100
AcDbXrecord
280
     1
270
     1
271
     1
  0
XRECORD
  5
7714
102
{ACAD_REACTORS
330
7713
102
}
330
7713
100
AcDbXrecord
280
     1
270
     1
271
     1
  0
XRECORD
  5
7718
102
{ACAD_REACTORS
330
7713
102
}
330
7713
100
AcDbXrecord
280
     1
270
     1
271
     1
  0
XRECORD
  5
7717
102
{ACAD_REACTORS
330
7713
102
}
330
7713
100
AcDbXrecord
280
     1
270
     1
271
     1
  0
XRECORD
  5
7719
102
{ACAD_REACTORS
330
7713
102
}
330
7713
100
AcDbXrecord
280
     1
270
     1
271
     1
  0
XRECORD
  5
7716
102
{ACAD_REACTORS
330
7713
102
}
330
7713
100
AcDbXrecord
280
     1
270
     1
271
     1
  0
CELLSTYLEMAP
  5
780A
102
{ACAD_REACTORS
330
778F
102
}
330
778F
100
AcDbCellStyleMap
 90
        3
300
CELLSTYLE
  1
TABLEFORMAT_BEGIN
 90
        5
170
     1
 91
        0
 92
    32768
 62
   257
 93
        1
300
CONTENTFORMAT
  1
CONTENTFORMAT_BEGIN
 90
        0
 91
        0
 92
        4
 93
        0
300

 40
0.0
140
1.0
 94
        5
 62
     0
340
10
144
0.25
309
CONTENTFORMAT_END
171
     1
301
MARGIN
  1
CELLMARGIN_BEGIN
 40
0.06
 40
0.06
 40
0.06
 40
0.06
 40
0.18
 40
0.18
309
CELLMARGIN_END
 94
        6
 95
        1
302
GRIDFORMAT
  1
GRIDFORMAT_BEGIN
 90
        0
 91
        1
 62
     0
 92
       -2
340
0
 93
        0
 40
0.045
309
GRIDFORMAT_END
 95
        2
302
GRIDFORMAT
  1
GRIDFORMAT_BEGIN
 90
        0
 91
        1
 62
     0
 92
       -2
340
0
 93
        0
 40
0.045
309
GRIDFORMAT_END
 95
        4
302
GRIDFORMAT
  1
GRIDFORMAT_BEGIN
 90
        0
 91
        1
 62
     0
 92
       -2
340
0
 93
        0
 40
0.045
309
GRIDFORMAT_END
 95
        8
302
GRIDFORMAT
  1
GRIDFORMAT_BEGIN
 90
        0
 91
        1
 62
     0
 92
       -2
340
0
 93
        0
 40
0.045
309
GRIDFORMAT_END
 95
       16
302
GRIDFORMAT
  1
GRIDFORMAT_BEGIN
 90
        0
 91
        1
 62
     0
 92
       -2
340
0
 93
        0
 40
0.045
309
GRIDFORMAT_END
 95
       32
302
GRIDFORMAT
  1
GRIDFORMAT_BEGIN
 90
        0
 91
        1
 62
     0
 92
       -2
340
0
 93
        0
 40
0.045
309
GRIDFORMAT_END
309
TABLEFORMAT_END
  1
CELLSTYLE_BEGIN
 90
        1
 91
        1
300
_TITLE
309
CELLSTYLE_END
300
CELLSTYLE
  1
TABLEFORMAT_BEGIN
 90
        5
170
     1
 91
        0
 92
        0
 62
   257
 93
        1
300
CONTENTFORMAT
  1
CONTENTFORMAT_BEGIN
 90
        0
 91
        0
 92
        4
 93
        0
300

 40
0.0
140
1.0
 94
        5
 62
     0
340
10
144
0.18
309
CONTENTFORMAT_END
171
     1
301
MARGIN
  1
CELLMARGIN_BEGIN
 40
0.06
 40
0.06
 40
0.06
 40
0.06
 40
0.18
 40
0.18
309
CELLMARGIN_END
 94
        6
 95
        1
302
GRIDFORMAT
  1
GRIDFORMAT_BEGIN
 90
        0
 91
        1
 62
     0
 92
       -2
340
0
 93
        0
 40
0.045
309
GRIDFORMAT_END
 95
        2
302
GRIDFORMAT
  1
GRIDFORMAT_BEGIN
 90
        0
 91
        1
 62
     0
 92
       -2
340
0
 93
        0
 40
0.045
309
GRIDFORMAT_END
 95
        4
302
GRIDFORMAT
  1
GRIDFORMAT_BEGIN
 90
        0
 91
        1
 62
     0
 92
       -2
340
0
 93
        0
 40
0.045
309
GRIDFORMAT_END
 95
        8
302
GRIDFORMAT
  1
GRIDFORMAT_BEGIN
 90
        0
 91
        1
 62
     0
 92
       -2
340
0
 93
        0
 40
0.045
309
GRIDFORMAT_END
 95
       16
302
GRIDFORMAT
  1
GRIDFORMAT_BEGIN
 90
        0
 91
        1
 62
     0
 92
       -2
340
0
 93
        0
 40
0.045
309
GRIDFORMAT_END
 95
       32
302
GRIDFORMAT
  1
GRIDFORMAT_BEGIN
 90
        0
 91
        1
 62
     0
 92
       -2
340
0
 93
        0
 40
0.045
309
GRIDFORMAT_END
309
TABLEFORMAT_END
  1
CELLSTYLE_BEGIN
 90
        2
 91
        1
300
_HEADER
309
CELLSTYLE_END
300
CELLSTYLE
  1
TABLEFORMAT_BEGIN
 90
        5
170
     1
 91
        0
 92
        0
 62
   257
 93
        1
300
CONTENTFORMAT
  1
CONTENTFORMAT_BEGIN
 90
        0
 91
        0
 92
        4
 93
        0
300

 40
0.0
140
1.0
 94
        2
 62
     0
340
10
144
0.18
309
CONTENTFORMAT_END
171
     1
301
MARGIN
  1
CELLMARGIN_BEGIN
 40
0.06
 40
0.06
 40
0.06
 40
0.06
 40
0.18
 40
0.18
309
CELLMARGIN_END
 94
        6
 95
        1
302
GRIDFORMAT
  1
GRIDFORMAT_BEGIN
 90
        0
 91
        1
 62
     0
 92
       -2
340
0
 93
        0
 40
0.045
309
GRIDFORMAT_END
 95
        2
302
GRIDFORMAT
  1
GRIDFORMAT_BEGIN
 90
        0
 91
        1
 62
     0
 92
       -2
340
0
 93
        0
 40
0.045
309
GRIDFORMAT_END
 95
        4
302
GRIDFORMAT
  1
GRIDFORMAT_BEGIN
 90
        0
 91
        1
 62
     0
 92
       -2
340
0
 93
        0
 40
0.045
309
GRIDFORMAT_END
 95
        8
302
GRIDFORMAT
  1
GRIDFORMAT_BEGIN
 90
        0
 91
        1
 62
     0
 92
       -2
340
0
 93
        0
 40
0.045
309
GRIDFORMAT_END
 95
       16
302
GRIDFORMAT
  1
GRIDFORMAT_BEGIN
 90
        0
 91
        1
 62
     0
 92
       -2
340
0
 93
        0
 40
0.045
309
GRIDFORMAT_END
 95
       32
302
GRIDFORMAT
  1
GRIDFORMAT_BEGIN
 90
        0
 91
        1
 62
     0
 92
       -2
340
0
 93
        0
 40
0.045
309
GRIDFORMAT_END
309
TABLEFORMAT_END
  1
CELLSTYLE_BEGIN
 90
        3
 91
        2
300
_DATA
309
CELLSTYLE_END
  0
XRECORD
  5
7810
102
{ACAD_REACTORS
330
778F
102
}
330
778F
100
AcDbXrecord
280
     1
102
ACAD_ROUNDTRIP_PRE2007_TABLESTYLE
 90
        4
 91
        0
  1

 92
        4
 93
        0
  2

 94
        4
 95
        0
  3

  0
ENDSEC
  0
EOF
