  0
SECTION
  2
HEADER
  9
$ACADVER
  1
AC1027
  9
$ACADMAINTVER
 70
   125
  9
$DWGCODEPAGE
  3
ANSI_932
  9
$LASTSAVEDBY
  1
D-mishima
  9
$REQUIREDVERSIONS
160
                 0
  9
$INSBASE
 10
0.0
 20
0.0
 30
0.0
  9
$EXTMIN
 10
0.0
 20
0.0
 30
0.0
  9
$EXTMAX
 10
4200.0
 20
2970.0
 30
0.0
  9
$LIMMIN
 10
0.0
 20
0.0
  9
$LIMMAX
 10
4200.0
 20
2970.0
  9
$ORTHOMODE
 70
     1
  9
$REGENMODE
 70
     1
  9
$FILLMODE
 70
     1
  9
$QTEXTMODE
 70
     0
  9
$MIRRTEXT
 70
     0
  9
$LTSCALE
 40
0.1
  9
$ATTMODE
 70
     1
  9
$TEXTSIZE
 40
25.0
  9
$TRACEWID
 40
1.0
  9
$TEXTSTYLE
  7
Standard
  9
$CLAYER
  8
破線
  9
$CELTYPE
  6
ByLayer
  9
$CECOLOR
 62
   256
  9
$CELTSCALE
 40
1.0
  9
$DISPSILH
 70
     0
  9
$DIMSCALE
 40
10.0
  9
$DIMASZ
 40
2.0
  9
$DIMEXO
 40
0.875
  9
$DIMDLI
 40
10.0
  9
$DIMRND
 40
0.0
  9
$DIMDLE
 40
0.0
  9
$DIMEXE
 40
1.0
  9
$DIMTP
 40
0.0
  9
$DIMTM
 40
0.0
  9
$DIMTXT
 40
2.5
  9
$DIMCEN
 40
0.0
  9
$DIMTSZ
 40
0.0
  9
$DIMTOL
 70
     0
  9
$DIMLIM
 70
     0
  9
$DIMTIH
 70
     0
  9
$DIMTOH
 70
     0
  9
$DIMSE1
 70
     0
  9
$DIMSE2
 70
     0
  9
$DIMTAD
 70
     1
  9
$DIMZIN
 70
     8
  9
$DIMBLK
  1

  9
$DIMASO
 70
     1
  9
$DIMSHO
 70
     1
  9
$DIMPOST
  1

  9
$DIMAPOST
  1

  9
$DIMALT
 70
     0
  9
$DIMALTD
 70
     2
  9
$DIMALTF
 40
25.4
  9
$DIMLFAC
 40
1.0
  9
$DIMTOFL
 70
     1
  9
$DIMTVP
 40
0.0
  9
$DIMTIX
 70
     0
  9
$DIMSOXD
 70
     0
  9
$DIMSAH
 70
     1
  9
$DIMBLK1
  1
OPEN
  9
$DIMBLK2
  1
OPEN
  9
$DIMSTYLE
  2
STANDARD
  9
$DIMCLRD
 70
     0
  9
$DIMCLRE
 70
     0
  9
$DIMCLRT
 70
     0
  9
$DIMTFAC
 40
1.0
  9
$DIMGAP
 40
0.875
  9
$DIMJUST
 70
     0
  9
$DIMSD1
 70
     0
  9
$DIMSD2
 70
     0
  9
$DIMTOLJ
 70
     1
  9
$DIMTZIN
 70
     0
  9
$DIMALTZ
 70
     0
  9
$DIMALTTZ
 70
     0
  9
$DIMUPT
 70
     0
  9
$DIMDEC
 70
     3
  9
$DIMTDEC
 70
     3
  9
$DIMALTU
 70
     2
  9
$DIMALTTD
 70
     2
  9
$DIMTXSTY
  7
Standard
  9
$DIMAUNIT
 70
     0
  9
$DIMADEC
 70
     0
  9
$DIMALTRND
 40
0.0
  9
$DIMAZIN
 70
     0
  9
$DIMDSEP
 70
    46
  9
$DIMATFIT
 70
     3
  9
$DIMFRAC
 70
     0
  9
$DIMLDRBLK
  1
OPEN
  9
$DIMLUNIT
 70
     2
  9
$DIMLWD
 70
    -2
  9
$DIMLWE
 70
    -2
  9
$DIMTMOVE
 70
     0
  9
$DIMFXL
 40
1.0
  9
$DIMFXLON
 70
     0
  9
$DIMJOGANG
 40
1.570796326794896
  9
$DIMTFILL
 70
     0
  9
$DIMTFILLCLR
 70
     0
  9
$DIMARCSYM
 70
     0
  9
$DIMLTYPE
  6

  9
$DIMLTEX1
  6

  9
$DIMLTEX2
  6

  9
$DIMTXTDIRECTION
 70
     0
  9
$LUNITS
 70
     2
  9
$LUPREC
 70
     4
  9
$SKETCHINC
 40
1.0
  9
$FILLETRAD
 40
0.0
  9
$AUNITS
 70
     0
  9
$AUPREC
 70
     0
  9
$MENU
  1
.
  9
$ELEVATION
 40
0.0
  9
$PELEVATION
 40
0.0
  9
$THICKNESS
 40
0.0
  9
$LIMCHECK
 70
     0
  9
$CHAMFERA
 40
0.0
  9
$CHAMFERB
 40
0.0
  9
$CHAMFERC
 40
0.0
  9
$CHAMFERD
 40
0.0
  9
$SKPOLY
 70
     0
  9
$TDCREATE
 40
2454064.449062500
  9
$TDUCREATE
 40
2454064.074062859
  9
$TDUPDATE
 40
2460315.475451389
  9
$TDUUPDATE
 40
2460315.100451389
  9
$TDINDWG
 40
4.0073600000
  9
$TDUSRTIMER
 40
4.0073377778
  9
$USRTIMER
 70
     1
  9
$ANGBASE
 50
0.0
  9
$ANGDIR
 70
     0
  9
$PDMODE
 70
     0
  9
$PDSIZE
 40
0.0
  9
$PLINEWID
 40
0.0
  9
$SPLFRAME
 70
     0
  9
$SPLINETYPE
 70
     6
  9
$SPLINESEGS
 70
     8
  9
$HANDSEED
  5
14DBE
  9
$SURFTAB1
 70
     6
  9
$SURFTAB2
 70
     6
  9
$SURFTYPE
 70
     6
  9
$SURFU
 70
     6
  9
$SURFV
 70
     6
  9
$UCSBASE
  2

  9
$UCSNAME
  2

  9
$UCSORG
 10
0.0
 20
0.0
 30
0.0
  9
$UCSXDIR
 10
1.0
 20
0.0
 30
0.0
  9
$UCSYDIR
 10
0.0
 20
1.0
 30
0.0
  9
$UCSORTHOREF
  2

  9
$UCSORTHOVIEW
 70
     0
  9
$UCSORGTOP
 10
0.0
 20
0.0
 30
0.0
  9
$UCSORGBOTTOM
 10
0.0
 20
0.0
 30
0.0
  9
$UCSORGLEFT
 10
0.0
 20
0.0
 30
0.0
  9
$UCSORGRIGHT
 10
0.0
 20
0.0
 30
0.0
  9
$UCSORGFRONT
 10
0.0
 20
0.0
 30
0.0
  9
$UCSORGBACK
 10
0.0
 20
0.0
 30
0.0
  9
$PUCSBASE
  2

  9
$PUCSNAME
  2

  9
$PUCSORG
 10
0.0
 20
0.0
 30
0.0
  9
$PUCSXDIR
 10
1.0
 20
0.0
 30
0.0
  9
$PUCSYDIR
 10
0.0
 20
1.0
 30
0.0
  9
$PUCSORTHOREF
  2

  9
$PUCSORTHOVIEW
 70
     0
  9
$PUCSORGTOP
 10
0.0
 20
0.0
 30
0.0
  9
$PUCSORGBOTTOM
 10
0.0
 20
0.0
 30
0.0
  9
$PUCSORGLEFT
 10
0.0
 20
0.0
 30
0.0
  9
$PUCSORGRIGHT
 10
0.0
 20
0.0
 30
0.0
  9
$PUCSORGFRONT
 10
0.0
 20
0.0
 30
0.0
  9
$PUCSORGBACK
 10
0.0
 20
0.0
 30
0.0
  9
$USERI1
 70
     0
  9
$USERI2
 70
     0
  9
$USERI3
 70
     0
  9
$USERI4
 70
     0
  9
$USERI5
 70
     0
  9
$USERR1
 40
0.0
  9
$USERR2
 40
0.0
  9
$USERR3
 40
0.0
  9
$USERR4
 40
0.0
  9
$USERR5
 40
0.0
  9
$WORLDVIEW
 70
     1
  9
$SHADEDGE
 70
     3
  9
$SHADEDIF
 70
    70
  9
$TILEMODE
 70
     0
  9
$MAXACTVP
 70
    64
  9
$PINSBASE
 10
0.0
 20
0.0
 30
0.0
  9
$PLIMCHECK
 70
     0
  9
$PEXTMIN
 10
0.0000000000000853
 20
0.0
 30
0.0
  9
$PEXTMAX
 10
408.1991586685179
 20
285.1784963607788
 30
0.0
  9
$PLIMMIN
 10
-5.873748779296875
 20
-5.873749732971191
  9
$PLIMMAX
 10
414.0729064941406
 20
291.0522451400757
  9
$UNITMODE
 70
     0
  9
$VISRETAIN
 70
     1
  9
$PLINEGEN
 70
     0
  9
$PSLTSCALE
 70
     1
  9
$TREEDEPTH
 70
  3020
  9
$CMLSTYLE
  2
Standard
  9
$CMLJUST
 70
     0
  9
$CMLSCALE
 40
20.0
  9
$PROXYGRAPHICS
 70
     1
  9
$MEASUREMENT
 70
     1
  9
$CELWEIGHT
370
    -1
  9
$ENDCAPS
280
     0
  9
$JOINSTYLE
280
     0
  9
$LWDISPLAY
290
     0
  9
$INSUNITS
 70
     4
  9
$HYPERLINKBASE
  1

  9
$STYLESHEET
  1
SANKENTC.CTB
  9
$XEDIT
290
     1
  9
$CEPSNTYPE
380
     0
  9
$PSTYLEMODE
290
     1
  9
$FINGERPRINTGUID
  2
{072871F0-2771-4C56-B9BD-B27D0F751D9A}
  9
$VERSIONGUID
  2
{31B7312F-6A09-1042-ACA9-3615136C1111}
  9
$EXTNAMES
290
     1
  9
$PSVPSCALE
 40
0.0
  9
$OLESTARTUP
290
     0
  9
$SORTENTS
280
   127
  9
$INDEXCTL
280
     0
  9
$HIDETEXT
280
     1
  9
$XCLIPFRAME
280
     2
  9
$HALOGAP
280
     0
  9
$OBSCOLOR
 70
   257
  9
$OBSLTYPE
280
     0
  9
$INTERSECTIONDISPLAY
280
     0
  9
$INTERSECTIONCOLOR
 70
   257
  9
$DIMASSOC
280
     2
  9
$PROJECTNAME
  1

  9
$CAMERADISPLAY
290
     0
  9
$LENSLENGTH
 40
50.0
  9
$CAMERAHEIGHT
 40
0.0
  9
$STEPSPERSEC
 40
2.0
  9
$STEPSIZE
 40
6.0
  9
$3DDWFPREC
 40
2.0
  9
$PSOLWIDTH
 40
0.25
  9
$PSOLHEIGHT
 40
4.0
  9
$LOFTANG1
 40
1.570796326794896
  9
$LOFTANG2
 40
1.570796326794896
  9
$LOFTMAG1
 40
0.0
  9
$LOFTMAG2
 40
0.0
  9
$LOFTPARAM
 70
     7
  9
$LOFTNORMALS
280
     1
  9
$LATITUDE
 40
37.795
  9
$LONGITUDE
 40
-122.394
  9
$NORTHDIRECTION
 40
0.0
  9
$TIMEZONE
 70
 -8000
  9
$LIGHTGLYPHDISPLAY
280
     1
  9
$TILEMODELIGHTSYNCH
280
     1
  9
$CMATERIAL
347
11EAC
  9
$SOLIDHIST
280
     0
  9
$SHOWHIST
280
     1
  9
$DWFFRAME
280
     2
  9
$DGNFRAME
280
     0
  9
$REALWORLDSCALE
290
     1
  9
$INTERFERECOLOR
 62
     1
  9
$INTERFEREOBJVS
345
11ECE
  9
$INTERFEREVPVS
346
13BD5
  9
$CSHADOW
280
     0
  9
$SHADOWPLANELOCATION
 40
0.0
  0
ENDSEC
  0
SECTION
  2
CLASSES
  0
CLASS
  1
ACDBDICTIONARYWDFLT
  2
AcDbDictionaryWithDefault
  3
ObjectDBX Classes
 90
        0
 91
        1
280
     0
281
     0
  0
CLASS
  1
DICTIONARYVAR
  2
AcDbDictionaryVar
  3
ObjectDBX Classes
 90
        0
 91
       18
280
     0
281
     0
  0
CLASS
  1
TABLESTYLE
  2
AcDbTableStyle
  3
ObjectDBX Classes
 90
     4095
 91
        1
280
     0
281
     0
  0
CLASS
  1
DIMASSOC
  2
AcDbDimAssoc
  3
"AcDbDimAssoc|Product Desc:     AcDim ARX App For Dimension|Company:          Autodesk, Inc.|WEB Address:      www.autodesk.com"
 90
        0
 91
        0
280
     0
281
     0
  0
CLASS
  1
SORTENTSTABLE
  2
AcDbSortentsTable
  3
ObjectDBX Classes
 90
        0
 91
        4
280
     0
281
     0
  0
CLASS
  1
MATERIAL
  2
AcDbMaterial
  3
ObjectDBX Classes
 90
     1153
 91
        3
280
     0
281
     0
  0
CLASS
  1
VISUALSTYLE
  2
AcDbVisualStyle
  3
ObjectDBX Classes
 90
     4095
 91
       26
280
     0
281
     0
  0
CLASS
  1
SCALE
  2
AcDbScale
  3
ObjectDBX Classes
 90
     1153
 91
       17
280
     0
281
     0
  0
CLASS
  1
MLEADERSTYLE
  2
AcDbMLeaderStyle
  3
ACDB_MLEADERSTYLE_CLASS
 90
     4095
 91
        1
280
     0
281
     0
  0
CLASS
  1
CELLSTYLEMAP
  2
AcDbCellStyleMap
  3
ObjectDBX Classes
 90
     1152
 91
        1
280
     0
281
     0
  0
CLASS
  1
AEC_REFEDIT_STATUS_TRACKER
  2
AecDbRefEditStatusTracker
  3
AecArchBase80|Product Desc: Autodesk Architectural Desktop 2007 |Company: Autodesk,Inc. |WEB Address: www.autodesk.com
 90
      129
 91
        0
280
     0
281
     0
  0
CLASS
  1
NPOCOLLECTION
  2
AcDbImpNonPersistentObjectsCollection
  3
ObjectDBX Classes
 90
     1153
 91
        0
280
     0
281
     0
  0
CLASS
  1
ACDBSECTIONVIEWSTYLE
  2
AcDbSectionViewStyle
  3
ObjectDBX Classes
 90
     1025
 91
        1
280
     0
281
     0
  0
CLASS
  1
ACDBDETAILVIEWSTYLE
  2
AcDbDetailViewStyle
  3
ObjectDBX Classes
 90
     1025
 91
        1
280
     0
281
     0
  0
ENDSEC
  0
SECTION
  2
TABLES
  0
TABLE
  2
VPORT
  5
8
102
{ACAD_XDICTIONARY
360
12005
102
}
330
0
100
AcDbSymbolTable
 70
     1
1001
ACAD
1000
DbSaveVer
1071
      278
  0
VPORT
  5
1315B
330
8
100
AcDbSymbolTableRecord
100
AcDbViewportTableRecord
  2
*Active
 70
     0
 10
0.0
 20
0.0
 11
1.0
 21
1.0
 12
2100.000009778887
 22
1485.000006915069
 13
0.0
 23
0.0
 14
10.0
 24
10.0
 15
10.0
 25
10.0
 16
0.0
 26
0.0
 36
1.0
 17
0.0
 27
0.0
 37
0.0
 40
2994.864221293063
 41
1.897364771151178
 42
50.0
 43
0.0
 44
0.0
 50
0.0
 51
0.0
 71
     0
 72
  1000
 73
     1
 74
     3
 75
     0
 76
     0
 77
     0
 78
     0
281
     0
 65
     1
110
0.0
120
0.0
130
0.0
111
1.0
121
0.0
131
0.0
112
0.0
122
1.0
132
0.0
 79
     0
146
0.0
348
11ECA
 60
     3
 61
     5
292
     1
282
     1
141
0.0
142
0.0
 63
   250
421
  3355443
1001
ACAD_NAV_VCDISPLAY
1070
     3
  0
ENDTAB
  0
TABLE
  2
LTYPE
  5
5
330
0
100
AcDbSymbolTable
 70
     4
  0
LTYPE
  5
14
330
5
100
AcDbSymbolTableRecord
100
AcDbLinetypeTableRecord
  2
ByBlock
 70
     0
  3

 72
    65
 73
     0
 40
0.0
  0
LTYPE
  5
15
330
5
100
AcDbSymbolTableRecord
100
AcDbLinetypeTableRecord
  2
ByLayer
 70
     0
  3

 72
    65
 73
     0
 40
0.0
  0
LTYPE
  5
16
330
5
100
AcDbSymbolTableRecord
100
AcDbLinetypeTableRecord
  2
Continuous
 70
     0
  3
Solid line
 72
    65
 73
     0
 40
0.0
  0
LTYPE
  5
1D4
330
5
100
AcDbSymbolTableRecord
100
AcDbLinetypeTableRecord
  2
PHANTOM
 70
     0
  3
Phantom ______  __  __  ______  __  __  ______
 72
    65
 73
     6
 40
63.5
 49
31.75
 74
     0
 49
-6.349999999999997
 74
     0
 49
6.349999999999997
 74
     0
 49
-6.349999999999997
 74
     0
 49
6.349999999999997
 74
     0
 49
-6.349999999999997
 74
     0
  0
LTYPE
  5
1D5
330
5
100
AcDbSymbolTableRecord
100
AcDbLinetypeTableRecord
  2
CENTER
 70
     0
  3
Center ____ _ ____ _ ____ _ ____ _ ____ _ ____
 72
    65
 73
     4
 40
50.8
 49
31.75
 74
     0
 49
-6.349999999999997
 74
     0
 49
6.349999999999997
 74
     0
 49
-6.349999999999997
 74
     0
  0
LTYPE
  5
1D7
330
5
100
AcDbSymbolTableRecord
100
AcDbLinetypeTableRecord
  2
DASHED
 70
     0
  3
Dashed __ __ __ __ __ __ __ __ __ __ __ __ __ _
 72
    65
 73
     2
 40
19.05
 49
12.7
 74
     0
 49
-6.349999999999997
 74
     0
  0
ENDTAB
  0
TABLE
  2
LAYER
  5
2
102
{ACAD_XDICTIONARY
360
11D
102
}
330
0
100
AcDbSymbolTable
 70
     8
  0
LAYER
  5
10
102
{ACAD_XDICTIONARY
360
11FCB
102
}
330
2
100
AcDbSymbolTableRecord
100
AcDbLayerTableRecord
  2
0
 70
     0
 62
     7
  6
Continuous
370
    -3
390
F
347
11EBC
348
0
  0
LAYER
  5
13F
330
2
100
AcDbSymbolTableRecord
100
AcDbLayerTableRecord
  2
Defpoints
 70
     0
 62
     7
  6
Continuous
290
     0
370
    -3
390
F
347
11EBC
348
0
  0
LAYER
  5
1BF
102
{ACAD_XDICTIONARY
360
11FCF
102
}
330
2
100
AcDbSymbolTableRecord
100
AcDbLayerTableRecord
  2
図面枠
 70
     0
 62
     2
  6
Continuous
370
    -3
390
F
347
11EBC
348
0
1001
AcAecLayerStandard
1000

1000

  0
LAYER
  5
1C1
102
{ACAD_XDICTIONARY
360
11FD3
102
}
330
2
100
AcDbSymbolTableRecord
100
AcDbLayerTableRecord
  2
仮想線
 70
     0
 62
     6
  6
PHANTOM
370
    -3
390
F
347
11EBC
348
0
1001
AcAecLayerStandard
1000

1000

  0
LAYER
  5
1C3
102
{ACAD_XDICTIONARY
360
11FD7
102
}
330
2
100
AcDbSymbolTableRecord
100
AcDbLayerTableRecord
  2
寸法線
 70
     0
 62
     2
  6
Continuous
370
    -3
390
F
347
11EBC
348
0
1001
AcAecLayerStandard
1000

1000

  0
LAYER
  5
1C4
102
{ACAD_XDICTIONARY
360
11FD9
102
}
330
2
100
AcDbSymbolTableRecord
100
AcDbLayerTableRecord
  2
中心線
 70
     0
 62
     1
  6
CENTER
370
    -3
390
F
347
11EBC
348
0
1001
AcAecLayerStandard
1000

1000

  0
LAYER
  5
1C5
102
{ACAD_XDICTIONARY
360
11FDB
102
}
330
2
100
AcDbSymbolTableRecord
100
AcDbLayerTableRecord
  2
破線
 70
     0
 62
     4
  6
DASHED
370
    -3
390
F
347
11EBC
348
0
1001
AcAecLayerStandard
1000

1000

  0
LAYER
  5
82E
102
{ACAD_XDICTIONARY
360
11FDD
102
}
330
2
100
AcDbSymbolTableRecord
100
AcDbLayerTableRecord
  2
実線
 70
     0
 62
     7
  6
Continuous
370
    -3
390
F
347
11EBC
348
0
1001
AcAecLayerStandard
1000

1000

  0
ENDTAB
  0
TABLE
  2
STYLE
  5
3
330
0
100
AcDbSymbolTable
 70
     1
  0
STYLE
  5
11
330
3
100
AcDbSymbolTableRecord
100
AcDbTextStyleTableRecord
  2
Standard
 70
     0
 40
0.0
 41
1.0
 50
0.0
 71
     0
 42
25.0
  3
isocp.shx
  4
extfont2.shx
  0
ENDTAB
  0
TABLE
  2
VIEW
  5
6
330
0
100
AcDbSymbolTable
 70
     0
  0
ENDTAB
  0
TABLE
  2
UCS
  5
7
330
0
100
AcDbSymbolTable
 70
     0
  0
ENDTAB
  0
TABLE
  2
APPID
  5
9
330
0
100
AcDbSymbolTable
 70
    17
  0
APPID
  5
12
330
9
100
AcDbSymbolTableRecord
100
AcDbRegAppTableRecord
  2
ACAD
 70
     0
  0
APPID
  5
9E
330
9
100
AcDbSymbolTableRecord
100
AcDbRegAppTableRecord
  2
ACAD_PSEXT
 70
     0
  0
APPID
  5
1BE
330
9
100
AcDbSymbolTableRecord
100
AcDbRegAppTableRecord
  2
AcAecLayerStandard
 70
     0
  0
APPID
  5
1FF
330
9
100
AcDbSymbolTableRecord
100
AcDbRegAppTableRecord
  2
ACAD_EXEMPT_FROM_CAD_STANDARDS
 70
     0
  0
APPID
  5
1318
330
9
100
AcDbSymbolTableRecord
100
AcDbRegAppTableRecord
  2
ACAD_DSTYLE_DIMTEXT_FILL
 70
     0
  0
APPID
  5
1319
330
9
100
AcDbSymbolTableRecord
100
AcDbRegAppTableRecord
  2
ACAD_DSTYLE_DIMEXT_LENGTH
 70
     0
  0
APPID
  5
131A
330
9
100
AcDbSymbolTableRecord
100
AcDbRegAppTableRecord
  2
ACAD_DSTYLE_DIMEXT_ENABLED
 70
     0
  0
APPID
  5
131B
330
9
100
AcDbSymbolTableRecord
100
AcDbRegAppTableRecord
  2
ACAD_DSTYLE_DIM_LINETYPE
 70
     0
  0
APPID
  5
131C
330
9
100
AcDbSymbolTableRecord
100
AcDbRegAppTableRecord
  2
ACAD_DSTYLE_DIM_EXT1_LINETYPE
 70
     0
  0
APPID
  5
131D
330
9
100
AcDbSymbolTableRecord
100
AcDbRegAppTableRecord
  2
ACAD_DSTYLE_DIM_EXT2_LINETYPE
 70
     0
  0
APPID
  5
1439
330
9
100
AcDbSymbolTableRecord
100
AcDbRegAppTableRecord
  2
ACAD_DSTYLE_DIMJOGGED_JOGANGLE_SYMBOL
 70
     0
  0
APPID
  5
1CB2
330
9
100
AcDbSymbolTableRecord
100
AcDbRegAppTableRecord
  2
ACAD_DSTYLE_DIMARC_LENGTH_SYMBOL
 70
     0
  0
APPID
  5
356E
330
9
100
AcDbSymbolTableRecord
100
AcDbRegAppTableRecord
  2
ACAD_DIMASSOC_CALC_DIMLFAC
 70
     0
  0
APPID
  5
356F
330
9
100
AcDbSymbolTableRecord
100
AcDbRegAppTableRecord
  2
ACAD_DIMASSOC_DIMLFAC
 70
     0
  0
APPID
  5
3570
330
9
100
AcDbSymbolTableRecord
100
AcDbRegAppTableRecord
  2
ACAD_DIMASSOC_OVERRIDDEN_DIMLFAC
 70
     0
  0
APPID
  5
11EE9
330
9
100
AcDbSymbolTableRecord
100
AcDbRegAppTableRecord
  2
ACAD_MLEADERVER
 70
     0
  0
APPID
  5
13DFC
330
9
100
AcDbSymbolTableRecord
100
AcDbRegAppTableRecord
  2
ACAD_NAV_VCDISPLAY
 70
     0
  0
ENDTAB
  0
TABLE
  2
DIMSTYLE
  5
A
330
0
100
AcDbSymbolTable
 70
     1
100
AcDbDimStyleTable
 71
     1
340
C0F
  0
DIMSTYLE
105
C0F
102
{ACAD_REACTORS
330
140D6
330
140D7
330
140D9
330
14197
330
14198
330
141FC
330
14201
330
1407B
330
1407C
330
1407D
330
1407E
330
1407F
330
14080
330
14081
330
14083
330
14084
330
14232
330
14233
330
14234
330
14267
330
14268
330
14269
330
1426A
330
1426B
330
14277
330
14299
330
1429B
330
142A0
330
142A6
330
142A8
330
142A9
330
142AA
330
142E1
330
142E2
330
142E5
330
142EA
330
142EB
330
142EC
330
14744
330
14ACC
330
14ACD
102
}
330
A
100
AcDbSymbolTableRecord
100
AcDbDimStyleTableRecord
  2
STANDARD
 70
     0
 40
10.0
 41
2.0
 42
0.875
 43
10.0
 44
1.0
 50
89.99999999999998
 73
     0
 74
     0
 77
     1
 78
     8
140
2.5
141
0.0
147
0.875
172
     1
173
     1
271
     3
272
     3
340
11
341
C08
343
C08
344
C08
1001
ACAD_DSTYLE_DIMJOGGED_JOGANGLE_SYMBOL
1070
   384
1040
1.570796326794896
  0
ENDTAB
  0
TABLE
  2
BLOCK_RECORD
  5
1
330
0
100
AcDbSymbolTable
 70
    42
  0
BLOCK_RECORD
  5
1F
102
{ACAD_XDICTIONARY
360
5C91
102
}
330
1
100
AcDbSymbolTableRecord
100
AcDbBlockTableRecord
  2
*Model_Space
340
22
 70
     0
280
     1
281
     0
  0
BLOCK_RECORD
  5
78D
330
1
100
AcDbSymbolTableRecord
100
AcDbBlockTableRecord
  2
*Paper_Space
340
78E
 70
     0
280
     1
281
     0
  0
BLOCK_RECORD
  5
C08
102
{ACAD_XDICTIONARY
360
1227D
102
}
330
1
100
AcDbSymbolTableRecord
100
AcDbBlockTableRecord
  2
_OPEN
340
0
102
{BLKREFS
331
141CF
331
14AFC
331
14AFD
331
14B05
331
14B06
331
14B0E
331
14B0F
331
14B19
331
14B1A
331
14B22
331
14B23
331
14B2B
331
14B2C
331
14B34
331
14B35
331
14B3E
331
14B3F
331
14B48
331
14B49
331
14B53
331
14B54
331
14B5C
331
14B5D
331
14B65
331
14B66
331
14B70
331
14B71
331
14B7B
331
14B7C
331
14B86
331
14B87
331
14B8F
331
14C84
331
14C85
331
14C08
331
14C12
331
14C13
331
14C1B
331
14C1C
331
14C26
331
14C27
331
14C31
331
14C32
331
14C3A
331
14C3B
331
14C43
331
14C44
331
14C4C
331
14C4D
331
14C55
331
14C56
331
14C5E
331
14C5F
331
14C69
331
14C6A
331
14C72
331
14C73
331
14C7B
331
14C7C
331
14B90
331
14B9B
331
14B9C
331
14BA6
331
14BA7
331
14BB0
331
14BB1
331
14BBB
331
14BBC
331
14BC4
331
14BC5
331
14BCF
331
14BD0
331
14BD8
331
14BD9
331
14BE1
331
14BE2
331
14BEA
331
14BEB
331
14BF3
331
14BF4
331
14BFC
331
14BFD
331
14C07
102
}
 70
     0
280
     1
281
     0
  0
BLOCK_RECORD
  5
142ED
330
1
100
AcDbSymbolTableRecord
100
AcDbBlockTableRecord
  2
*D1
340
0
 70
     0
280
     1
281
     0
  0
BLOCK_RECORD
  5
142FB
330
1
100
AcDbSymbolTableRecord
100
AcDbBlockTableRecord
  2
*D2
340
0
 70
     0
280
     1
281
     0
  0
BLOCK_RECORD
  5
14313
330
1
100
AcDbSymbolTableRecord
100
AcDbBlockTableRecord
  2
*D3
340
0
 70
     0
280
     1
281
     0
  0
BLOCK_RECORD
  5
1431F
330
1
100
AcDbSymbolTableRecord
100
AcDbBlockTableRecord
  2
*D4
340
0
 70
     0
280
     1
281
     0
  0
BLOCK_RECORD
  5
1432D
330
1
100
AcDbSymbolTableRecord
100
AcDbBlockTableRecord
  2
*D5
340
0
 70
     0
280
     1
281
     0
  0
BLOCK_RECORD
  5
14353
330
1
100
AcDbSymbolTableRecord
100
AcDbBlockTableRecord
  2
*D6
340
0
 70
     0
280
     1
281
     0
  0
BLOCK_RECORD
  5
14361
330
1
100
AcDbSymbolTableRecord
100
AcDbBlockTableRecord
  2
*D7
340
0
 70
     0
280
     1
281
     0
  0
BLOCK_RECORD
  5
1436E
330
1
100
AcDbSymbolTableRecord
100
AcDbBlockTableRecord
  2
*D8
340
0
 70
     0
280
     1
281
     0
  0
BLOCK_RECORD
  5
1437A
330
1
100
AcDbSymbolTableRecord
100
AcDbBlockTableRecord
  2
*D9
340
0
 70
     0
280
     1
281
     0
  0
BLOCK_RECORD
  5
14386
330
1
100
AcDbSymbolTableRecord
100
AcDbBlockTableRecord
  2
*D10
340
0
 70
     0
280
     1
281
     0
  0
BLOCK_RECORD
  5
14392
330
1
100
AcDbSymbolTableRecord
100
AcDbBlockTableRecord
  2
*D11
340
0
 70
     0
280
     1
281
     0
  0
BLOCK_RECORD
  5
143A0
330
1
100
AcDbSymbolTableRecord
100
AcDbBlockTableRecord
  2
*D12
340
0
 70
     0
280
     1
281
     0
  0
BLOCK_RECORD
  5
143AC
330
1
100
AcDbSymbolTableRecord
100
AcDbBlockTableRecord
  2
*D13
340
0
 70
     0
280
     1
281
     0
  0
BLOCK_RECORD
  5
143B8
330
1
100
AcDbSymbolTableRecord
100
AcDbBlockTableRecord
  2
*D14
340
0
 70
     0
280
     1
281
     0
  0
BLOCK_RECORD
  5
143C5
330
1
100
AcDbSymbolTableRecord
100
AcDbBlockTableRecord
  2
*D15
340
0
 70
     0
280
     1
281
     0
  0
BLOCK_RECORD
  5
143D2
330
1
100
AcDbSymbolTableRecord
100
AcDbBlockTableRecord
  2
*D16
340
0
 70
     0
280
     1
281
     0
  0
BLOCK_RECORD
  5
143DE
330
1
100
AcDbSymbolTableRecord
100
AcDbBlockTableRecord
  2
*D17
340
0
 70
     0
280
     1
281
     0
  0
BLOCK_RECORD
  5
143EC
330
1
100
AcDbSymbolTableRecord
100
AcDbBlockTableRecord
  2
*D18
340
0
 70
     0
280
     1
281
     0
  0
BLOCK_RECORD
  5
143FA
330
1
100
AcDbSymbolTableRecord
100
AcDbBlockTableRecord
  2
*D19
340
0
 70
     0
280
     1
281
     0
  0
BLOCK_RECORD
  5
14407
330
1
100
AcDbSymbolTableRecord
100
AcDbBlockTableRecord
  2
*D20
340
0
 70
     0
280
     1
281
     0
  0
BLOCK_RECORD
  5
14415
330
1
100
AcDbSymbolTableRecord
100
AcDbBlockTableRecord
  2
*D21
340
0
 70
     0
280
     1
281
     0
  0
BLOCK_RECORD
  5
14421
330
1
100
AcDbSymbolTableRecord
100
AcDbBlockTableRecord
  2
*D22
340
0
 70
     0
280
     1
281
     0
  0
BLOCK_RECORD
  5
1442F
330
1
100
AcDbSymbolTableRecord
100
AcDbBlockTableRecord
  2
*D23
340
0
 70
     0
280
     1
281
     0
  0
BLOCK_RECORD
  5
1443B
330
1
100
AcDbSymbolTableRecord
100
AcDbBlockTableRecord
  2
*D24
340
0
 70
     0
280
     1
281
     0
  0
BLOCK_RECORD
  5
14447
330
1
100
AcDbSymbolTableRecord
100
AcDbBlockTableRecord
  2
*D25
340
0
 70
     0
280
     1
281
     0
  0
BLOCK_RECORD
  5
14453
330
1
100
AcDbSymbolTableRecord
100
AcDbBlockTableRecord
  2
*D26
340
0
 70
     0
280
     1
281
     0
  0
BLOCK_RECORD
  5
1445F
330
1
100
AcDbSymbolTableRecord
100
AcDbBlockTableRecord
  2
*D27
340
0
 70
     0
280
     1
281
     0
  0
BLOCK_RECORD
  5
1446B
330
1
100
AcDbSymbolTableRecord
100
AcDbBlockTableRecord
  2
*D28
340
0
 70
     0
280
     1
281
     0
  0
BLOCK_RECORD
  5
14479
330
1
100
AcDbSymbolTableRecord
100
AcDbBlockTableRecord
  2
*D29
340
0
 70
     0
280
     1
281
     0
  0
BLOCK_RECORD
  5
14487
330
1
100
AcDbSymbolTableRecord
100
AcDbBlockTableRecord
  2
*D30
340
0
 70
     0
280
     1
281
     0
  0
BLOCK_RECORD
  5
14493
330
1
100
AcDbSymbolTableRecord
100
AcDbBlockTableRecord
  2
*D31
340
0
 70
     0
280
     1
281
     0
  0
BLOCK_RECORD
  5
144A1
330
1
100
AcDbSymbolTableRecord
100
AcDbBlockTableRecord
  2
*D32
340
0
 70
     0
280
     1
281
     0
  0
BLOCK_RECORD
  5
144AF
330
1
100
AcDbSymbolTableRecord
100
AcDbBlockTableRecord
  2
*D33
340
0
 70
     0
280
     1
281
     0
  0
BLOCK_RECORD
  5
144BB
330
1
100
AcDbSymbolTableRecord
100
AcDbBlockTableRecord
  2
*D34
340
0
 70
     0
280
     1
281
     0
  0
BLOCK_RECORD
  5
144C7
330
1
100
AcDbSymbolTableRecord
100
AcDbBlockTableRecord
  2
*D35
340
0
 70
     0
280
     1
281
     0
  0
BLOCK_RECORD
  5
144D3
330
1
100
AcDbSymbolTableRecord
100
AcDbBlockTableRecord
  2
*D36
340
0
 70
     0
280
     1
281
     0
  0
BLOCK_RECORD
  5
144DF
330
1
100
AcDbSymbolTableRecord
100
AcDbBlockTableRecord
  2
*D37
340
0
 70
     0
280
     1
281
     0
  0
BLOCK_RECORD
  5
144EB
330
1
100
AcDbSymbolTableRecord
100
AcDbBlockTableRecord
  2
*D38
340
0
 70
     0
280
     1
281
     0
  0
BLOCK_RECORD
  5
14745
330
1
100
AcDbSymbolTableRecord
100
AcDbBlockTableRecord
  2
*D39
340
0
 70
     0
280
     1
281
     0
  0
BLOCK_RECORD
  5
14ACE
330
1
100
AcDbSymbolTableRecord
100
AcDbBlockTableRecord
  2
*D40
340
0
 70
     0
280
     1
281
     0
  0
BLOCK_RECORD
  5
14ADA
330
1
100
AcDbSymbolTableRecord
100
AcDbBlockTableRecord
  2
*D41
340
0
 70
     0
280
     1
281
     0
  0
ENDTAB
  0
ENDSEC
  0
SECTION
  2
BLOCKS
  0
BLOCK
  5
20
330
1F
100
AcDbEntity
  8
0
100
AcDbBlockBegin
  2
*Model_Space
 70
     0
 10
0.0
 20
0.0
 30
0.0
  3
*Model_Space
  1

  0
ENDBLK
  5
21
330
1F
100
AcDbEntity
  8
0
100
AcDbBlockEnd
  0
BLOCK
  5
78F
330
78D
100
AcDbEntity
 67
     1
  8
0
100
AcDbBlockBegin
  2
*Paper_Space
 70
     0
 10
0.0
 20
0.0
 30
0.0
  3
*Paper_Space
  1

  0
ENDBLK
  5
790
330
78D
100
AcDbEntity
 67
     1
  8
0
100
AcDbBlockEnd
  0
BLOCK
  5
C09
330
C08
100
AcDbEntity
  8
0
100
AcDbBlockBegin
  2
_OPEN
 70
     0
 10
0.0
 20
0.0
 30
0.0
  3
_OPEN
  1

  0
LINE
  5
C0A
330
C08
100
AcDbEntity
  8
0
  6
ByBlock
 62
     0
100
AcDbLine
 10
-1.0
 20
0.1666666666666666
 30
0.0
 11
0.0
 21
0.0
 31
0.0
  0
LINE
  5
C0B
330
C08
100
AcDbEntity
  8
0
  6
ByBlock
 62
     0
100
AcDbLine
 10
0.0
 20
0.0
 30
0.0
 11
-1.0
 21
-0.1666666666666666
 31
0.0
  0
LINE
  5
C0C
330
C08
100
AcDbEntity
  8
0
  6
ByBlock
 62
     0
100
AcDbLine
 10
0.0
 20
0.0
 30
0.0
 11
-1.0
 21
0.0
 31
0.0
  0
ENDBLK
  5
C0D
330
C08
100
AcDbEntity
  8
0
100
AcDbBlockEnd
  0
BLOCK
  5
142EE
330
142ED
100
AcDbEntity
  8
0
100
AcDbBlockBegin
  2
*D1
 70
     1
 10
0.0
 20
0.0
 30
0.0
  3
*D1
  1

  0
LINE
  5
14B4E
330
142ED
100
AcDbEntity
  8
寸法線
 62
     0
440
 16777216
370
    -2
100
AcDbLine
 10
2650.000226983165
 20
2444.750042816985
 30
0.0
 11
2650.000226983165
 21
2615.000005597312
 31
0.0
  0
LINE
  5
14B4F
330
142ED
100
AcDbEntity
  8
寸法線
 62
     0
440
 16777216
370
    -2
100
AcDbLine
 10
2631.000226983165
 20
2453.750005597311
 30
0.0
 11
2631.000226983165
 21
2615.000005597312
 31
0.0
  0
LINE
  5
14B50
330
142ED
100
AcDbEntity
  8
寸法線
 62
     0
440
 16777216
370
    -2
100
AcDbLine
 10
2670.000226983165
 20
2605.000005597312
 30
0.0
 11
2690.000226983165
 21
2605.000005597312
 31
0.0
  0
LINE
  5
14B51
330
142ED
100
AcDbEntity
  8
寸法線
 62
     0
440
 16777216
370
    -2
100
AcDbLine
 10
2611.000226983165
 20
2605.000005597312
 30
0.0
 11
2591.000226983166
 21
2605.000005597312
 31
0.0
  0
LINE
  5
14B52
330
142ED
100
AcDbEntity
  8
寸法線
 62
     0
440
 16777216
370
    -2
100
AcDbLine
 10
2650.000226983165
 20
2605.000005597312
 30
0.0
 11
2631.000226983165
 21
2605.000005597312
 31
0.0
  0
INSERT
  5
14B53
330
142ED
100
AcDbEntity
  8
寸法線
 62
     0
440
 16777216
370
    -2
100
AcDbBlockReference
  2
_OPEN
 10
2650.000226983165
 20
2605.000005597312
 30
0.0
 41
20.0
 42
20.0
 43
20.0
 50
180.0
  0
INSERT
  5
14B54
330
142ED
100
AcDbEntity
  8
寸法線
 62
     0
440
 16777216
370
    -2
100
AcDbBlockReference
  2
_OPEN
 10
2631.000226983165
 20
2605.000005597312
 30
0.0
 41
20.0
 42
20.0
 43
20.0
  0
MTEXT
  5
14B55
330
142ED
100
AcDbEntity
  8
寸法線
 62
     0
440
 16777216
100
AcDbMText
 10
2640.500226983165
 20
2626.250005597312
 30
0.0
 40
25.0
 41
0.0
 46
0.0
 71
     5
 72
     1
  1
\A1;19
 73
     1
 44
1.0
  0
POINT
  5
14B56
330
142ED
100
AcDbEntity
  8
Defpoints
 62
     0
440
 16777216
100
AcDbPoint
 10
2650.000226983165
 20
2436.000042816985
 30
0.0
  0
POINT
  5
14B57
330
142ED
100
AcDbEntity
  8
Defpoints
 62
     0
440
 16777216
100
AcDbPoint
 10
2631.000226983165
 20
2445.000005597311
 30
0.0
  0
POINT
  5
14B58
330
142ED
100
AcDbEntity
  8
Defpoints
 62
     0
440
 16777216
100
AcDbPoint
 10
2631.000226983165
 20
2605.000005597312
 30
0.0
  0
ENDBLK
  5
142EF
330
142ED
100
AcDbEntity
  8
0
100
AcDbBlockEnd
  0
BLOCK
  5
142FC
330
142FB
100
AcDbEntity
  8
0
100
AcDbBlockBegin
  2
*D2
 70
     1
 10
0.0
 20
0.0
 30
0.0
  3
*D2
  1

  0
LINE
  5
14B59
330
142FB
100
AcDbEntity
  8
寸法線
 62
     0
440
 16777216
370
    -2
100
AcDbLine
 10
2631.000226983165
 20
2453.750005597311
 30
0.0
 11
2631.000226983165
 21
2615.000005597312
 31
0.0
  0
LINE
  5
14B5A
330
142FB
100
AcDbEntity
  8
寸法線
 62
     0
440
 16777216
370
    -2
100
AcDbLine
 10
2100.000226983166
 20
2463.750042816985
 30
0.0
 11
2100.000226983166
 21
2615.000005597312
 31
0.0
  0
LINE
  5
14B5B
330
142FB
100
AcDbEntity
  8
寸法線
 62
     0
440
 16777216
370
    -2
100
AcDbLine
 10
2611.000226983165
 20
2605.000005597312
 30
0.0
 11
2120.000226983165
 21
2605.000005597312
 31
0.0
  0
INSERT
  5
14B5C
330
142FB
100
AcDbEntity
  8
寸法線
 62
     0
440
 16777216
370
    -2
100
AcDbBlockReference
  2
_OPEN
 10
2631.000226983165
 20
2605.000005597312
 30
0.0
 41
20.0
 42
20.0
 43
20.0
  0
INSERT
  5
14B5D
330
142FB
100
AcDbEntity
  8
寸法線
 62
     0
440
 16777216
370
    -2
100
AcDbBlockReference
  2
_OPEN
 10
2100.000226983166
 20
2605.000005597312
 30
0.0
 41
20.0
 42
20.0
 43
20.0
 50
180.0
  0
MTEXT
  5
14B5E
330
142FB
100
AcDbEntity
  8
寸法線
 62
     0
440
 16777216
100
AcDbMText
 10
2365.500226983165
 20
2626.250005597312
 30
0.0
 40
25.0
 41
0.0
 46
0.0
 71
     5
 72
     1
  1
\A1;531
 73
     1
 44
1.0
  0
POINT
  5
14B5F
330
142FB
100
AcDbEntity
  8
Defpoints
 62
     0
440
 16777216
100
AcDbPoint
 10
2631.000226983165
 20
2445.000005597311
 30
0.0
  0
POINT
  5
14B60
330
142FB
100
AcDbEntity
  8
Defpoints
 62
     0
440
 16777216
100
AcDbPoint
 10
2100.000226983166
 20
2455.000042816986
 30
0.0
  0
POINT
  5
14B61
330
142FB
100
AcDbEntity
  8
Defpoints
 62
     0
440
 16777216
100
AcDbPoint
 10
2100.000226983166
 20
2605.000005597312
 30
0.0
  0
ENDBLK
  5
142FD
330
142FB
100
AcDbEntity
  8
0
100
AcDbBlockEnd
  0
BLOCK
  5
14314
330
14313
100
AcDbEntity
  8
0
100
AcDbBlockBegin
  2
*D3
 70
     1
 10
0.0
 20
0.0
 30
0.0
  3
*D3
  1

  0
LINE
  5
14B62
330
14313
100
AcDbEntity
  8
寸法線
 62
     0
440
 16777216
370
    -2
100
AcDbLine
 10
2650.000000000002
 20
1436.250023602055
 30
0.0
 11
2650.000000000002
 21
1275.000023602055
 31
0.0
  0
LINE
  5
14B63
330
14313
100
AcDbEntity
  8
寸法線
 62
     0
440
 16777216
370
    -2
100
AcDbLine
 10
2100.000000000001
 20
1426.250060821729
 30
0.0
 11
2100.000000000001
 21
1275.000023602055
 31
0.0
  0
LINE
  5
14B64
330
14313
100
AcDbEntity
  8
寸法線
 62
     0
440
 16777216
370
    -2
100
AcDbLine
 10
2630.000000000002
 20
1285.000023602055
 30
0.0
 11
2120.000000000001
 21
1285.000023602055
 31
0.0
  0
INSERT
  5
14B65
330
14313
100
AcDbEntity
  8
寸法線
 62
     0
440
 16777216
370
    -2
100
AcDbBlockReference
  2
_OPEN
 10
2650.000000000002
 20
1285.000023602055
 30
0.0
 41
20.0
 42
20.0
 43
20.0
  0
INSERT
  5
14B66
330
14313
100
AcDbEntity
  8
寸法線
 62
     0
440
 16777216
370
    -2
100
AcDbBlockReference
  2
_OPEN
 10
2100.000000000001
 20
1285.000023602055
 30
0.0
 41
20.0
 42
20.0
 43
20.0
 50
180.0
  0
MTEXT
  5
14B67
330
14313
100
AcDbEntity
  8
寸法線
 62
     0
440
 16777216
100
AcDbMText
 10
2375.000000000001
 20
1306.250023602055
 30
0.0
 40
25.0
 41
0.0
 46
0.0
 71
     5
 72
     1
  1
\A1;550
 73
     1
 44
1.0
  0
POINT
  5
14B68
330
14313
100
AcDbEntity
  8
Defpoints
 62
     0
440
 16777216
100
AcDbPoint
 10
2650.000000000002
 20
1445.000023602055
 30
0.0
  0
POINT
  5
14B69
330
14313
100
AcDbEntity
  8
Defpoints
 62
     0
440
 16777216
100
AcDbPoint
 10
2100.000000000001
 20
1435.000060821729
 30
0.0
  0
POINT
  5
14B6A
330
14313
100
AcDbEntity
  8
Defpoints
 62
     0
440
 16777216
100
AcDbPoint
 10
2100.000000000001
 20
1285.000023602055
 30
0.0
  0
ENDBLK
  5
14315
330
14313
100
AcDbEntity
  8
0
100
AcDbBlockEnd
  0
BLOCK
  5
14320
330
1431F
100
AcDbEntity
  8
0
100
AcDbBlockBegin
  2
*D4
 70
     1
 10
0.0
 20
0.0
 30
0.0
  3
*D4
  1

  0
LINE
  5
14B6B
330
1431F
100
AcDbEntity
  8
寸法線
 62
     0
440
 16777216
370
    -2
100
AcDbLine
 10
2228.749980186871
 20
1824.499977260073
 30
0.0
 11
2309.999980186868
 21
1824.499977260073
 31
0.0
  0
LINE
  5
14B6C
330
1431F
100
AcDbEntity
  8
寸法線
 62
     0
440
 16777216
370
    -2
100
AcDbLine
 10
2228.749980186871
 20
1805.499977260074
 30
0.0
 11
2309.999980186868
 21
1805.499977260074
 31
0.0
  0
LINE
  5
14B6D
330
1431F
100
AcDbEntity
  8
寸法線
 62
     0
440
 16777216
370
    -2
100
AcDbLine
 10
2299.999980186869
 20
1844.499977260073
 30
0.0
 11
2299.999980186869
 21
1864.499977260074
 31
0.0
  0
LINE
  5
14B6E
330
1431F
100
AcDbEntity
  8
寸法線
 62
     0
440
 16777216
370
    -2
100
AcDbLine
 10
2299.999980186869
 20
1785.499977260073
 30
0.0
 11
2299.999980186869
 21
1765.499977260073
 31
0.0
  0
LINE
  5
14B6F
330
1431F
100
AcDbEntity
  8
寸法線
 62
     0
440
 16777216
370
    -2
100
AcDbLine
 10
2299.999980186869
 20
1824.499977260073
 30
0.0
 11
2299.999980186869
 21
1805.499977260074
 31
0.0
  0
INSERT
  5
14B70
330
1431F
100
AcDbEntity
  8
寸法線
 62
     0
440
 16777216
370
    -2
100
AcDbBlockReference
  2
_OPEN
 10
2299.999980186869
 20
1824.499977260073
 30
0.0
 41
20.0
 42
20.0
 43
20.0
 50
270.0
  0
INSERT
  5
14B71
330
1431F
100
AcDbEntity
  8
寸法線
 62
     0
440
 16777216
370
    -2
100
AcDbBlockReference
  2
_OPEN
 10
2299.999980186869
 20
1805.499977260074
 30
0.0
 41
20.0
 42
20.0
 43
20.0
 50
90.0
  0
MTEXT
  5
14B72
330
1431F
100
AcDbEntity
  8
寸法線
 62
     0
440
 16777216
100
AcDbMText
 10
2278.749980186868
 20
1814.999977260072
 30
0.0
 40
25.0
 41
0.0
 46
0.0
 71
     5
 72
     1
  1
\A1;19
 11
0.0000000000000001
 21
1.0
 31
0.0
 73
     1
 44
1.0
  0
POINT
  5
14B73
330
1431F
100
AcDbEntity
  8
Defpoints
 62
     0
440
 16777216
100
AcDbPoint
 10
2219.999980186871
 20
1824.499977260073
 30
0.0
  0
POINT
  5
14B74
330
1431F
100
AcDbEntity
  8
Defpoints
 62
     0
440
 16777216
100
AcDbPoint
 10
2219.999980186871
 20
1805.499977260074
 30
0.0
  0
POINT
  5
14B75
330
1431F
100
AcDbEntity
  8
Defpoints
 62
     0
440
 16777216
100
AcDbPoint
 10
2299.999980186869
 20
1805.499977260074
 30
0.0
  0
ENDBLK
  5
14321
330
1431F
100
AcDbEntity
  8
0
100
AcDbBlockEnd
  0
BLOCK
  5
1432E
330
1432D
100
AcDbEntity
  8
0
100
AcDbBlockBegin
  2
*D5
 70
     1
 10
0.0
 20
0.0
 30
0.0
  3
*D5
  1

  0
LINE
  5
14B76
330
1432D
100
AcDbEntity
  8
寸法線
 62
     0
440
 16777216
370
    -2
100
AcDbLine
 10
2236.750003766469
 20
1475.000045371477
 30
0.0
 11
2309.999980186868
 21
1475.000045371477
 31
0.0
  0
LINE
  5
14B77
330
1432D
100
AcDbEntity
  8
寸法線
 62
     0
440
 16777216
370
    -2
100
AcDbLine
 10
2108.750000000002
 20
1444.999977463421
 30
0.0
 11
2309.999980186868
 21
1444.999977463421
 31
0.0
  0
LINE
  5
14B78
330
1432D
100
AcDbEntity
  8
寸法線
 62
     0
440
 16777216
370
    -2
100
AcDbLine
 10
2299.999980186869
 20
1495.000045371477
 30
0.0
 11
2299.999980186869
 21
1515.000045371477
 31
0.0
  0
LINE
  5
14B79
330
1432D
100
AcDbEntity
  8
寸法線
 62
     0
440
 16777216
370
    -2
100
AcDbLine
 10
2299.999980186869
 20
1424.999977463422
 30
0.0
 11
2299.999980186869
 21
1404.999977463421
 31
0.0
  0
LINE
  5
14B7A
330
1432D
100
AcDbEntity
  8
寸法線
 62
     0
440
 16777216
370
    -2
100
AcDbLine
 10
2299.999980186869
 20
1475.000045371477
 30
0.0
 11
2299.999980186869
 21
1444.999977463421
 31
0.0
  0
INSERT
  5
14B7B
330
1432D
100
AcDbEntity
  8
寸法線
 62
     0
440
 16777216
370
    -2
100
AcDbBlockReference
  2
_OPEN
 10
2299.999980186869
 20
1475.000045371477
 30
0.0
 41
20.0
 42
20.0
 43
20.0
 50
270.0
  0
INSERT
  5
14B7C
330
1432D
100
AcDbEntity
  8
寸法線
 62
     0
440
 16777216
370
    -2
100
AcDbBlockReference
  2
_OPEN
 10
2299.999980186869
 20
1444.999977463421
 30
0.0
 41
20.0
 42
20.0
 43
20.0
 50
90.0
  0
MTEXT
  5
14B7D
330
1432D
100
AcDbEntity
  8
寸法線
 62
     0
440
 16777216
100
AcDbMText
 10
2278.749980186868
 20
1460.000011417448
 30
0.0
 40
25.0
 41
0.0
 46
0.0
 71
     5
 72
     1
  1
\A1;30
 11
0.0000000000000001
 21
1.0
 31
0.0
 73
     1
 44
1.0
  0
POINT
  5
14B7E
330
1432D
100
AcDbEntity
  8
Defpoints
 62
     0
440
 16777216
100
AcDbPoint
 10
2228.000003766469
 20
1475.000045371477
 30
0.0
  0
POINT
  5
14B7F
330
1432D
100
AcDbEntity
  8
Defpoints
 62
     0
440
 16777216
100
AcDbPoint
 10
2100.000000000003
 20
1444.999977463421
 30
0.0
  0
POINT
  5
14B80
330
1432D
100
AcDbEntity
  8
Defpoints
 62
     0
440
 16777216
100
AcDbPoint
 10
2299.999980186869
 20
1444.999977463421
 30
0.0
  0
ENDBLK
  5
1432F
330
1432D
100
AcDbEntity
  8
0
100
AcDbBlockEnd
  0
BLOCK
  5
14354
330
14353
100
AcDbEntity
  8
0
100
AcDbBlockBegin
  2
*D6
 70
     1
 10
0.0
 20
0.0
 30
0.0
  3
*D6
  1

  0
LINE
  5
14B81
330
14353
100
AcDbEntity
  8
寸法線
 62
     0
440
 16777216
370
    -2
100
AcDbLine
 10
2422.249980186869
 20
2251.000002244078
 30
0.0
 11
2320.999994621859
 21
2251.000002244078
 31
0.0
  0
LINE
  5
14B82
330
14353
100
AcDbEntity
  8
寸法線
 62
     0
440
 16777216
370
    -2
100
AcDbLine
 10
2422.249980186869
 20
2239.000002244078
 30
0.0
 11
2320.999994621859
 21
2239.000002244078
 31
0.0
  0
LINE
  5
14B83
330
14353
100
AcDbEntity
  8
寸法線
 62
     0
440
 16777216
370
    -2
100
AcDbLine
 10
2330.999994621859
 20
2271.000002244078
 30
0.0
 11
2330.999994621859
 21
2291.000002244078
 31
0.0
  0
LINE
  5
14B84
330
14353
100
AcDbEntity
  8
寸法線
 62
     0
440
 16777216
370
    -2
100
AcDbLine
 10
2330.999994621859
 20
2219.000002244078
 30
0.0
 11
2330.999994621859
 21
2199.000002244078
 31
0.0
  0
LINE
  5
14B85
330
14353
100
AcDbEntity
  8
寸法線
 62
     0
440
 16777216
370
    -2
100
AcDbLine
 10
2330.999994621859
 20
2251.000002244078
 30
0.0
 11
2330.999994621859
 21
2239.000002244078
 31
0.0
  0
INSERT
  5
14B86
330
14353
100
AcDbEntity
  8
寸法線
 62
     0
440
 16777216
370
    -2
100
AcDbBlockReference
  2
_OPEN
 10
2330.999994621859
 20
2251.000002244078
 30
0.0
 41
20.0
 42
20.0
 43
20.0
 50
270.0
  0
INSERT
  5
14B87
330
14353
100
AcDbEntity
  8
寸法線
 62
     0
440
 16777216
370
    -2
100
AcDbBlockReference
  2
_OPEN
 10
2330.999994621859
 20
2239.000002244078
 30
0.0
 41
20.0
 42
20.0
 43
20.0
 50
90.0
  0
MTEXT
  5
14B88
330
14353
100
AcDbEntity
  8
寸法線
 62
     0
440
 16777216
100
AcDbMText
 10
2309.747533991938
 20
2245.000002244077
 30
0.0
 40
25.0
 41
0.0
 46
0.0
 71
     5
 72
     1
  1
\A1;12
 11
0.0000000000000001
 21
1.0
 31
0.0
 73
     1
 44
1.0
  0
POINT
  5
14B89
330
14353
100
AcDbEntity
  8
Defpoints
 62
     0
440
 16777216
100
AcDbPoint
 10
2430.99998018687
 20
2251.000002244078
 30
0.0
  0
POINT
  5
14B8A
330
14353
100
AcDbEntity
  8
Defpoints
 62
     0
440
 16777216
100
AcDbPoint
 10
2430.99998018687
 20
2239.000002244078
 30
0.0
  0
POINT
  5
14B8B
330
14353
100
AcDbEntity
  8
Defpoints
 62
     0
440
 16777216
100
AcDbPoint
 10
2330.999994621859
 20
2239.000002244078
 30
0.0
  0
ENDBLK
  5
14355
330
14353
100
AcDbEntity
  8
0
100
AcDbBlockEnd
  0
BLOCK
  5
14362
330
14361
100
AcDbEntity
  8
0
100
AcDbBlockBegin
  2
*D7
 70
     1
 10
0.0
 20
0.0
 30
0.0
  3
*D7
  1

  0
LINE
  5
14B8C
330
14361
100
AcDbEntity
  8
寸法線
 62
     0
440
 16777216
370
    -2
100
AcDbLine
 10
2650.0
 20
2444.750042816985
 30
0.0
 11
2650.0
 21
2695.000005597312
 31
0.0
  0
LINE
  5
14B8D
330
14361
100
AcDbEntity
  8
寸法線
 62
     0
440
 16777216
370
    -2
100
AcDbLine
 10
2100.0
 20
2463.750042816985
 30
0.0
 11
2100.0
 21
2695.000005597312
 31
0.0
  0
LINE
  5
14B8E
330
14361
100
AcDbEntity
  8
寸法線
 62
     0
440
 16777216
370
    -2
100
AcDbLine
 10
2630.0
 20
2685.000005597312
 30
0.0
 11
2120.0
 21
2685.000005597312
 31
0.0
  0
INSERT
  5
14B8F
330
14361
100
AcDbEntity
  8
寸法線
 62
     0
440
 16777216
370
    -2
100
AcDbBlockReference
  2
_OPEN
 10
2650.0
 20
2685.000005597312
 30
0.0
 41
20.0
 42
20.0
 43
20.0
  0
INSERT
  5
14B90
330
14361
100
AcDbEntity
  8
寸法線
 62
     0
440
 16777216
370
    -2
100
AcDbBlockReference
  2
_OPEN
 10
2100.0
 20
2685.000005597312
 30
0.0
 41
20.0
 42
20.0
 43
20.0
 50
180.0
  0
MTEXT
  5
14B91
330
14361
100
AcDbEntity
  8
寸法線
 62
     0
440
 16777216
100
AcDbMText
 10
2375.0
 20
2706.250005597312
 30
0.0
 40
25.0
 41
0.0
 46
0.0
 71
     5
 72
     1
  1
\A1;550
 73
     1
 44
1.0
  0
MTEXT
  5
14B92
330
14361
100
AcDbEntity
  8
寸法線
 62
     0
440
 16777216
100
AcDbMText
 10
2375.0
 20
2663.750005597312
 30
0.0
 40
25.0
 41
0.0
 46
0.0
 71
     5
 72
     1
  1
\A1;H型鋼（連結部）
 73
     1
 44
1.0
  0
POINT
  5
14B93
330
14361
100
AcDbEntity
  8
Defpoints
 62
     0
440
 16777216
100
AcDbPoint
 10
2650.0
 20
2436.000042816985
 30
0.0
  0
POINT
  5
14B94
330
14361
100
AcDbEntity
  8
Defpoints
 62
     0
440
 16777216
100
AcDbPoint
 10
2100.0
 20
2455.000042816986
 30
0.0
  0
POINT
  5
14B95
330
14361
100
AcDbEntity
  8
Defpoints
 62
     0
440
 16777216
100
AcDbPoint
 10
2100.0
 20
2685.000005597312
 30
0.0
  0
ENDBLK
  5
14363
330
14361
100
AcDbEntity
  8
0
100
AcDbBlockEnd
  0
BLOCK
  5
1436F
330
1436E
100
AcDbEntity
  8
0
100
AcDbBlockBegin
  2
*D8
 70
     1
 10
0.0
 20
0.0
 30
0.0
  3
*D8
  1

  0
LINE
  5
14AF9
330
1436E
100
AcDbEntity
  8
寸法線
 62
     0
440
 16777216
370
    -2
100
AcDbLine
 10
1300.000000000001
 20
1426.250014479739
 30
0.0
 11
1300.000000000001
 21
1275.000023602055
 31
0.0
  0
LINE
  5
14AFA
330
1436E
100
AcDbEntity
  8
寸法線
 62
     0
440
 16777216
370
    -2
100
AcDbLine
 10
2100.000000000001
 20
1426.250014479739
 30
0.0
 11
2100.000000000001
 21
1275.000023602055
 31
0.0
  0
LINE
  5
14AFB
330
1436E
100
AcDbEntity
  8
寸法線
 62
     0
440
 16777216
370
    -2
100
AcDbLine
 10
1320.000000000001
 20
1285.000023602055
 30
0.0
 11
2080.000000000001
 21
1285.000023602055
 31
0.0
  0
INSERT
  5
14AFC
330
1436E
100
AcDbEntity
  8
寸法線
 62
     0
440
 16777216
370
    -2
100
AcDbBlockReference
  2
_OPEN
 10
1300.000000000001
 20
1285.000023602055
 30
0.0
 41
20.0
 42
20.0
 43
20.0
 50
180.0
  0
INSERT
  5
14AFD
330
1436E
100
AcDbEntity
  8
寸法線
 62
     0
440
 16777216
370
    -2
100
AcDbBlockReference
  2
_OPEN
 10
2100.000000000001
 20
1285.000023602055
 30
0.0
 41
20.0
 42
20.0
 43
20.0
  0
MTEXT
  5
14AFE
330
1436E
100
AcDbEntity
  8
寸法線
 62
     0
440
 16777216
100
AcDbMText
 10
1700.000000000001
 20
1306.250023602055
 30
0.0
 40
25.0
 41
0.0
 46
0.0
 71
     5
 72
     1
  1
\A1;800
 73
     1
 44
1.0
  0
POINT
  5
14AFF
330
1436E
100
AcDbEntity
  8
Defpoints
 62
     0
440
 16777216
100
AcDbPoint
 10
1300.000000000001
 20
1435.000014479739
 30
0.0
  0
POINT
  5
14B00
330
1436E
100
AcDbEntity
  8
Defpoints
 62
     0
440
 16777216
100
AcDbPoint
 10
2100.000000000001
 20
1435.000014479739
 30
0.0
  0
POINT
  5
14B01
330
1436E
100
AcDbEntity
  8
Defpoints
 62
     0
440
 16777216
100
AcDbPoint
 10
2100.000000000001
 20
1285.000023602055
 30
0.0
  0
ENDBLK
  5
14370
330
1436E
100
AcDbEntity
  8
0
100
AcDbBlockEnd
  0
BLOCK
  5
1437B
330
1437A
100
AcDbEntity
  8
0
100
AcDbBlockBegin
  2
*D9
 70
     1
 10
0.0
 20
0.0
 30
0.0
  3
*D9
  1

  0
LINE
  5
14B02
330
1437A
100
AcDbEntity
  8
寸法線
 62
     0
440
 16777216
370
    -2
100
AcDbLine
 10
749.9999801868921
 20
1436.250023602055
 30
0.0
 11
749.9999801868921
 21
1275.000023602055
 31
0.0
  0
LINE
  5
14B03
330
1437A
100
AcDbEntity
  8
寸法線
 62
     0
440
 16777216
370
    -2
100
AcDbLine
 10
1299.999980186892
 20
1426.250060821729
 30
0.0
 11
1299.999980186892
 21
1275.000023602055
 31
0.0
  0
LINE
  5
14B04
330
1437A
100
AcDbEntity
  8
寸法線
 62
     0
440
 16777216
370
    -2
100
AcDbLine
 10
769.9999801868921
 20
1285.000023602055
 30
0.0
 11
1279.999980186892
 21
1285.000023602055
 31
0.0
  0
INSERT
  5
14B05
330
1437A
100
AcDbEntity
  8
寸法線
 62
     0
440
 16777216
370
    -2
100
AcDbBlockReference
  2
_OPEN
 10
749.9999801868921
 20
1285.000023602055
 30
0.0
 41
20.0
 42
20.0
 43
20.0
 50
180.0
  0
INSERT
  5
14B06
330
1437A
100
AcDbEntity
  8
寸法線
 62
     0
440
 16777216
370
    -2
100
AcDbBlockReference
  2
_OPEN
 10
1299.999980186892
 20
1285.000023602055
 30
0.0
 41
20.0
 42
20.0
 43
20.0
  0
MTEXT
  5
14B07
330
1437A
100
AcDbEntity
  8
寸法線
 62
     0
440
 16777216
100
AcDbMText
 10
1024.999980186892
 20
1306.250023602055
 30
0.0
 40
25.0
 41
0.0
 46
0.0
 71
     5
 72
     1
  1
\A1;550
 73
     1
 44
1.0
  0
POINT
  5
14B08
330
1437A
100
AcDbEntity
  8
Defpoints
 62
     0
440
 16777216
100
AcDbPoint
 10
749.9999801868921
 20
1445.000023602055
 30
0.0
  0
POINT
  5
14B09
330
1437A
100
AcDbEntity
  8
Defpoints
 62
     0
440
 16777216
100
AcDbPoint
 10
1299.999980186892
 20
1435.000060821729
 30
0.0
  0
POINT
  5
14B0A
330
1437A
100
AcDbEntity
  8
Defpoints
 62
     0
440
 16777216
100
AcDbPoint
 10
1299.999980186892
 20
1285.000023602055
 30
0.0
  0
ENDBLK
  5
1437C
330
1437A
100
AcDbEntity
  8
0
100
AcDbBlockEnd
  0
BLOCK
  5
14387
330
14386
100
AcDbEntity
  8
0
100
AcDbBlockBegin
  2
*D10
 70
     1
 10
0.0
 20
0.0
 30
0.0
  3
*D10
  1

  0
LINE
  5
14B0B
330
14386
100
AcDbEntity
  8
寸法線
 62
     0
440
 16777216
370
    -2
100
AcDbLine
 10
741.2499801868923
 20
1845.000023602056
 30
0.0
 11
619.9999801868917
 21
1845.000023602056
 31
0.0
  0
LINE
  5
14B0C
330
14386
100
AcDbEntity
  8
寸法線
 62
     0
440
 16777216
370
    -2
100
AcDbLine
 10
741.2499801868923
 20
1445.000023602055
 30
0.0
 11
619.9999801868917
 21
1445.000023602055
 31
0.0
  0
LINE
  5
14B0D
330
14386
100
AcDbEntity
  8
寸法線
 62
     0
440
 16777216
370
    -2
100
AcDbLine
 10
629.9999801868916
 20
1825.000023602056
 30
0.0
 11
629.9999801868917
 21
1465.000023602055
 31
0.0
  0
INSERT
  5
14B0E
330
14386
100
AcDbEntity
  8
寸法線
 62
     0
440
 16777216
370
    -2
100
AcDbBlockReference
  2
_OPEN
 10
629.9999801868916
 20
1845.000023602056
 30
0.0
 41
20.0
 42
20.0
 43
20.0
 50
90.0
  0
INSERT
  5
14B0F
330
14386
100
AcDbEntity
  8
寸法線
 62
     0
440
 16777216
370
    -2
100
AcDbBlockReference
  2
_OPEN
 10
629.9999801868917
 20
1445.000023602055
 30
0.0
 41
20.0
 42
20.0
 43
20.0
 50
270.0
  0
MTEXT
  5
14B10
330
14386
100
AcDbEntity
  8
寸法線
 62
     0
440
 16777216
100
AcDbMText
 10
608.7499801868921
 20
1645.000023602055
 30
0.0
 40
25.0
 41
0.0
 46
0.0
 71
     5
 72
     1
  1
\A1;400
 11
0.0000000000000001
 21
1.0
 31
0.0
 73
     1
 44
1.0
  0
POINT
  5
14B11
330
14386
100
AcDbEntity
  8
Defpoints
 62
     0
440
 16777216
100
AcDbPoint
 10
749.9999801868924
 20
1845.000023602056
 30
0.0
  0
POINT
  5
14B12
330
14386
100
AcDbEntity
  8
Defpoints
 62
     0
440
 16777216
100
AcDbPoint
 10
749.9999801868924
 20
1445.000023602055
 30
0.0
  0
POINT
  5
14B13
330
14386
100
AcDbEntity
  8
Defpoints
 62
     0
440
 16777216
100
AcDbPoint
 10
629.9999801868917
 20
1445.000023602055
 30
0.0
  0
ENDBLK
  5
14388
330
14386
100
AcDbEntity
  8
0
100
AcDbBlockEnd
  0
BLOCK
  5
14393
330
14392
100
AcDbEntity
  8
0
100
AcDbBlockBegin
  2
*D11
 70
     1
 10
0.0
 20
0.0
 30
0.0
  3
*D11
  1

  0
LINE
  5
14B14
330
14392
100
AcDbEntity
  8
寸法線
 62
     0
440
 16777216
370
    -2
100
AcDbLine
 10
749.9999801868921
 20
2444.750042816985
 30
0.0
 11
749.9999801868921
 21
2615.000005597312
 31
0.0
  0
LINE
  5
14B15
330
14392
100
AcDbEntity
  8
寸法線
 62
     0
440
 16777216
370
    -2
100
AcDbLine
 10
768.9999801868921
 20
2453.750005597311
 30
0.0
 11
768.9999801868921
 21
2615.000005597312
 31
0.0
  0
LINE
  5
14B16
330
14392
100
AcDbEntity
  8
寸法線
 62
     0
440
 16777216
370
    -2
100
AcDbLine
 10
729.9999801868921
 20
2605.000005597312
 30
0.0
 11
709.999980186892
 21
2605.000005597312
 31
0.0
  0
LINE
  5
14B17
330
14392
100
AcDbEntity
  8
寸法線
 62
     0
440
 16777216
370
    -2
100
AcDbLine
 10
788.9999801868921
 20
2605.000005597312
 30
0.0
 11
808.9999801868922
 21
2605.000005597312
 31
0.0
  0
LINE
  5
14B18
330
14392
100
AcDbEntity
  8
寸法線
 62
     0
440
 16777216
370
    -2
100
AcDbLine
 10
749.9999801868921
 20
2605.000005597312
 30
0.0
 11
768.9999801868921
 21
2605.000005597312
 31
0.0
  0
INSERT
  5
14B19
330
14392
100
AcDbEntity
  8
寸法線
 62
     0
440
 16777216
370
    -2
100
AcDbBlockReference
  2
_OPEN
 10
749.9999801868921
 20
2605.000005597312
 30
0.0
 41
20.0
 42
20.0
 43
20.0
  0
INSERT
  5
14B1A
330
14392
100
AcDbEntity
  8
寸法線
 62
     0
440
 16777216
370
    -2
100
AcDbBlockReference
  2
_OPEN
 10
768.9999801868921
 20
2605.000005597312
 30
0.0
 41
20.0
 42
20.0
 43
20.0
 50
180.0
  0
MTEXT
  5
14B1B
330
14392
100
AcDbEntity
  8
寸法線
 62
     0
440
 16777216
100
AcDbMText
 10
759.4999801868921
 20
2626.250005597312
 30
0.0
 40
25.0
 41
0.0
 46
0.0
 71
     5
 72
     1
  1
\A1;19
 73
     1
 44
1.0
  0
POINT
  5
14B1C
330
14392
100
AcDbEntity
  8
Defpoints
 62
     0
440
 16777216
100
AcDbPoint
 10
749.9999801868921
 20
2436.000042816985
 30
0.0
  0
POINT
  5
14B1D
330
14392
100
AcDbEntity
  8
Defpoints
 62
     0
440
 16777216
100
AcDbPoint
 10
768.9999801868921
 20
2445.000005597311
 30
0.0
  0
POINT
  5
14B1E
330
14392
100
AcDbEntity
  8
Defpoints
 62
     0
440
 16777216
100
AcDbPoint
 10
768.9999801868921
 20
2605.000005597312
 30
0.0
  0
ENDBLK
  5
14394
330
14392
100
AcDbEntity
  8
0
100
AcDbBlockEnd
  0
BLOCK
  5
143A1
330
143A0
100
AcDbEntity
  8
0
100
AcDbBlockBegin
  2
*D12
 70
     1
 10
0.0
 20
0.0
 30
0.0
  3
*D12
  1

  0
LINE
  5
14B1F
330
143A0
100
AcDbEntity
  8
寸法線
 62
     0
440
 16777216
370
    -2
100
AcDbLine
 10
768.9999801868921
 20
2453.750005597311
 30
0.0
 11
768.9999801868921
 21
2615.000005597312
 31
0.0
  0
LINE
  5
14B20
330
143A0
100
AcDbEntity
  8
寸法線
 62
     0
440
 16777216
370
    -2
100
AcDbLine
 10
1299.999980186892
 20
2463.750042816985
 30
0.0
 11
1299.999980186892
 21
2615.000005597312
 31
0.0
  0
LINE
  5
14B21
330
143A0
100
AcDbEntity
  8
寸法線
 62
     0
440
 16777216
370
    -2
100
AcDbLine
 10
788.9999801868921
 20
2605.000005597312
 30
0.0
 11
1279.999980186892
 21
2605.000005597312
 31
0.0
  0
INSERT
  5
14B22
330
143A0
100
AcDbEntity
  8
寸法線
 62
     0
440
 16777216
370
    -2
100
AcDbBlockReference
  2
_OPEN
 10
768.9999801868921
 20
2605.000005597312
 30
0.0
 41
20.0
 42
20.0
 43
20.0
 50
180.0
  0
INSERT
  5
14B23
330
143A0
100
AcDbEntity
  8
寸法線
 62
     0
440
 16777216
370
    -2
100
AcDbBlockReference
  2
_OPEN
 10
1299.999980186892
 20
2605.000005597312
 30
0.0
 41
20.0
 42
20.0
 43
20.0
  0
MTEXT
  5
14B24
330
143A0
100
AcDbEntity
  8
寸法線
 62
     0
440
 16777216
100
AcDbMText
 10
1034.499980186892
 20
2626.250005597312
 30
0.0
 40
25.0
 41
0.0
 46
0.0
 71
     5
 72
     1
  1
\A1;531
 73
     1
 44
1.0
  0
POINT
  5
14B25
330
143A0
100
AcDbEntity
  8
Defpoints
 62
     0
440
 16777216
100
AcDbPoint
 10
768.9999801868921
 20
2445.000005597311
 30
0.0
  0
POINT
  5
14B26
330
143A0
100
AcDbEntity
  8
Defpoints
 62
     0
440
 16777216
100
AcDbPoint
 10
1299.999980186892
 20
2455.000042816986
 30
0.0
  0
POINT
  5
14B27
330
143A0
100
AcDbEntity
  8
Defpoints
 62
     0
440
 16777216
100
AcDbPoint
 10
1299.999980186892
 20
2605.000005597312
 30
0.0
  0
ENDBLK
  5
143A2
330
143A0
100
AcDbEntity
  8
0
100
AcDbBlockEnd
  0
BLOCK
  5
143AD
330
143AC
100
AcDbEntity
  8
0
100
AcDbBlockBegin
  2
*D13
 70
     1
 10
0.0
 20
0.0
 30
0.0
  3
*D13
  1

  0
LINE
  5
14B28
330
143AC
100
AcDbEntity
  8
寸法線
 62
     0
440
 16777216
370
    -2
100
AcDbLine
 10
760.2499801868924
 20
2445.000005597312
 30
0.0
 11
619.9999801868915
 21
2445.000005597312
 31
0.0
  0
LINE
  5
14B29
330
143AC
100
AcDbEntity
  8
寸法線
 62
     0
440
 16777216
370
    -2
100
AcDbLine
 10
760.2499801868924
 20
2045.000005597311
 30
0.0
 11
619.9999801868917
 21
2045.000005597311
 31
0.0
  0
LINE
  5
14B2A
330
143AC
100
AcDbEntity
  8
寸法線
 62
     0
440
 16777216
370
    -2
100
AcDbLine
 10
629.9999801868915
 20
2425.000005597312
 30
0.0
 11
629.9999801868916
 21
2065.000005597311
 31
0.0
  0
INSERT
  5
14B2B
330
143AC
100
AcDbEntity
  8
寸法線
 62
     0
440
 16777216
370
    -2
100
AcDbBlockReference
  2
_OPEN
 10
629.9999801868915
 20
2445.000005597312
 30
0.0
 41
20.0
 42
20.0
 43
20.0
 50
90.0
  0
INSERT
  5
14B2C
330
143AC
100
AcDbEntity
  8
寸法線
 62
     0
440
 16777216
370
    -2
100
AcDbBlockReference
  2
_OPEN
 10
629.9999801868916
 20
2045.000005597311
 30
0.0
 41
20.0
 42
20.0
 43
20.0
 50
270.0
  0
MTEXT
  5
14B2D
330
143AC
100
AcDbEntity
  8
寸法線
 62
     0
440
 16777216
100
AcDbMText
 10
608.7499801868921
 20
2245.000005597311
 30
0.0
 40
25.0
 41
0.0
 46
0.0
 71
     5
 72
     1
  1
\A1;400
 11
0.0000000000000001
 21
1.0
 31
0.0
 73
     1
 44
1.0
  0
POINT
  5
14B2E
330
143AC
100
AcDbEntity
  8
Defpoints
 62
     0
440
 16777216
100
AcDbPoint
 10
768.9999801868926
 20
2445.000005597312
 30
0.0
  0
POINT
  5
14B2F
330
143AC
100
AcDbEntity
  8
Defpoints
 62
     0
440
 16777216
100
AcDbPoint
 10
768.9999801868926
 20
2045.000005597311
 30
0.0
  0
POINT
  5
14B30
330
143AC
100
AcDbEntity
  8
Defpoints
 62
     0
440
 16777216
100
AcDbPoint
 10
629.9999801868916
 20
2045.000005597311
 30
0.0
  0
ENDBLK
  5
143AE
330
143AC
100
AcDbEntity
  8
0
100
AcDbBlockEnd
  0
BLOCK
  5
143B9
330
143B8
100
AcDbEntity
  8
0
100
AcDbBlockBegin
  2
*D14
 70
     1
 10
0.0
 20
0.0
 30
0.0
  3
*D14
  1

  0
LINE
  5
14B31
330
143B8
100
AcDbEntity
  8
寸法線
 62
     0
440
 16777216
370
    -2
100
AcDbLine
 10
749.9999801868921
 20
2444.750042816985
 30
0.0
 11
749.9999801868921
 21
2695.000005597312
 31
0.0
  0
LINE
  5
14B32
330
143B8
100
AcDbEntity
  8
寸法線
 62
     0
440
 16777216
370
    -2
100
AcDbLine
 10
1299.999980186892
 20
2463.750042816985
 30
0.0
 11
1299.999980186892
 21
2695.000005597312
 31
0.0
  0
LINE
  5
14B33
330
143B8
100
AcDbEntity
  8
寸法線
 62
     0
440
 16777216
370
    -2
100
AcDbLine
 10
769.9999801868921
 20
2685.000005597312
 30
0.0
 11
1279.999980186892
 21
2685.000005597312
 31
0.0
  0
INSERT
  5
14B34
330
143B8
100
AcDbEntity
  8
寸法線
 62
     0
440
 16777216
370
    -2
100
AcDbBlockReference
  2
_OPEN
 10
749.9999801868921
 20
2685.000005597312
 30
0.0
 41
20.0
 42
20.0
 43
20.0
 50
180.0
  0
INSERT
  5
14B35
330
143B8
100
AcDbEntity
  8
寸法線
 62
     0
440
 16777216
370
    -2
100
AcDbBlockReference
  2
_OPEN
 10
1299.999980186892
 20
2685.000005597312
 30
0.0
 41
20.0
 42
20.0
 43
20.0
  0
MTEXT
  5
14B36
330
143B8
100
AcDbEntity
  8
寸法線
 62
     0
440
 16777216
100
AcDbMText
 10
1024.999980186892
 20
2706.250005597312
 30
0.0
 40
25.0
 41
0.0
 46
0.0
 71
     5
 72
     1
  1
\A1;550
 73
     1
 44
1.0
  0
MTEXT
  5
14B37
330
143B8
100
AcDbEntity
  8
寸法線
 62
     0
440
 16777216
100
AcDbMText
 10
1024.999980186892
 20
2663.750005597312
 30
0.0
 40
25.0
 41
0.0
 46
0.0
 71
     5
 72
     1
  1
\A1;H型鋼（連結部）
 73
     1
 44
1.0
  0
POINT
  5
14B38
330
143B8
100
AcDbEntity
  8
Defpoints
 62
     0
440
 16777216
100
AcDbPoint
 10
749.9999801868921
 20
2436.000042816985
 30
0.0
  0
POINT
  5
14B39
330
143B8
100
AcDbEntity
  8
Defpoints
 62
     0
440
 16777216
100
AcDbPoint
 10
1299.999980186892
 20
2455.000042816986
 30
0.0
  0
POINT
  5
14B3A
330
143B8
100
AcDbEntity
  8
Defpoints
 62
     0
440
 16777216
100
AcDbPoint
 10
1299.999980186892
 20
2685.000005597312
 30
0.0
  0
ENDBLK
  5
143BA
330
143B8
100
AcDbEntity
  8
0
100
AcDbBlockEnd
  0
BLOCK
  5
143C6
330
143C5
100
AcDbEntity
  8
0
100
AcDbBlockBegin
  2
*D15
 70
     1
 10
0.0
 20
0.0
 30
0.0
  3
*D15
  1

  0
LINE
  5
14B3B
330
143C5
100
AcDbEntity
  8
寸法線
 62
     0
440
 16777216
370
    -2
100
AcDbLine
 10
1300.000000000001
 20
2463.750019403642
 30
0.0
 11
1300.000000000001
 21
2695.000005597312
 31
0.0
  0
LINE
  5
14B3C
330
143C5
100
AcDbEntity
  8
寸法線
 62
     0
440
 16777216
370
    -2
100
AcDbLine
 10
2100.000000000001
 20
2463.749996474995
 30
0.0
 11
2100.000000000001
 21
2695.000005597312
 31
0.0
  0
LINE
  5
14B3D
330
143C5
100
AcDbEntity
  8
寸法線
 62
     0
440
 16777216
370
    -2
100
AcDbLine
 10
1320.000000000001
 20
2685.000005597312
 30
0.0
 11
2080.000000000001
 21
2685.000005597312
 31
0.0
  0
INSERT
  5
14B3E
330
143C5
100
AcDbEntity
  8
寸法線
 62
     0
440
 16777216
370
    -2
100
AcDbBlockReference
  2
_OPEN
 10
1300.000000000001
 20
2685.000005597312
 30
0.0
 41
20.0
 42
20.0
 43
20.0
 50
180.0
  0
INSERT
  5
14B3F
330
143C5
100
AcDbEntity
  8
寸法線
 62
     0
440
 16777216
370
    -2
100
AcDbBlockReference
  2
_OPEN
 10
2100.000000000001
 20
2685.000005597312
 30
0.0
 41
20.0
 42
20.0
 43
20.0
  0
MTEXT
  5
14B40
330
143C5
100
AcDbEntity
  8
寸法線
 62
     0
440
 16777216
100
AcDbMText
 10
1700.000000000001
 20
2706.250005597312
 30
0.0
 40
25.0
 41
0.0
 46
0.0
 71
     5
 72
     1
  1
\A1;W=800
 73
     1
 44
1.0
  0
MTEXT
  5
14B41
330
143C5
100
AcDbEntity
  8
寸法線
 62
     0
440
 16777216
100
AcDbMText
 10
1700.000000000001
 20
2663.750005597312
 30
0.0
 40
25.0
 41
0.0
 46
0.0
 71
     5
 72
     1
  1
\A1;空洞金具
 73
     1
 44
1.0
  0
POINT
  5
14B42
330
143C5
100
AcDbEntity
  8
Defpoints
 62
     0
440
 16777216
100
AcDbPoint
 10
1300.000000000001
 20
2455.000019403641
 30
0.0
  0
POINT
  5
14B43
330
143C5
100
AcDbEntity
  8
Defpoints
 62
     0
440
 16777216
100
AcDbPoint
 10
2100.000000000001
 20
2454.999996474995
 30
0.0
  0
POINT
  5
14B44
330
143C5
100
AcDbEntity
  8
Defpoints
 62
     0
440
 16777216
100
AcDbPoint
 10
2100.000000000001
 20
2685.000005597312
 30
0.0
  0
ENDBLK
  5
143C7
330
143C5
100
AcDbEntity
  8
0
100
AcDbBlockEnd
  0
BLOCK
  5
143D3
330
143D2
100
AcDbEntity
  8
0
100
AcDbBlockBegin
  2
*D16
 70
     1
 10
0.0
 20
0.0
 30
0.0
  3
*D16
  1

  0
LINE
  5
14B45
330
143D2
100
AcDbEntity
  8
寸法線
 62
     0
440
 16777216
370
    -2
100
AcDbLine
 10
750.0000000000304
 20
2444.750019403656
 30
0.0
 11
750.0000000000304
 21
2775.000005597312
 31
0.0
  0
LINE
  5
14B46
330
143D2
100
AcDbEntity
  8
寸法線
 62
     0
440
 16777216
370
    -2
100
AcDbLine
 10
2649.999999999971
 20
2444.750005597326
 30
0.0
 11
2649.999999999971
 21
2775.000005597312
 31
0.0
  0
LINE
  5
14B47
330
143D2
100
AcDbEntity
  8
寸法線
 62
     0
440
 16777216
370
    -2
100
AcDbLine
 10
770.0000000000304
 20
2765.000005597312
 30
0.0
 11
2629.999999999971
 21
2765.000005597312
 31
0.0
  0
INSERT
  5
14B48
330
143D2
100
AcDbEntity
  8
寸法線
 62
     0
440
 16777216
370
    -2
100
AcDbBlockReference
  2
_OPEN
 10
750.0000000000304
 20
2765.000005597312
 30
0.0
 41
20.0
 42
20.0
 43
20.0
 50
180.0
  0
INSERT
  5
14B49
330
143D2
100
AcDbEntity
  8
寸法線
 62
     0
440
 16777216
370
    -2
100
AcDbBlockReference
  2
_OPEN
 10
2649.999999999971
 20
2765.000005597312
 30
0.0
 41
20.0
 42
20.0
 43
20.0
  0
MTEXT
  5
14B4A
330
143D2
100
AcDbEntity
  8
寸法線
 62
     0
440
 16777216
100
AcDbMText
 10
1700.0
 20
2786.250005597312
 30
0.0
 40
25.0
 41
0.0
 46
0.0
 71
     5
 72
     1
  1
\A1;スルーサーＢ L=1900
 73
     1
 44
1.0
  0
POINT
  5
14B4B
330
143D2
100
AcDbEntity
  8
Defpoints
 62
     0
440
 16777216
100
AcDbPoint
 10
750.0000000000304
 20
2436.000019403656
 30
0.0
  0
POINT
  5
14B4C
330
143D2
100
AcDbEntity
  8
Defpoints
 62
     0
440
 16777216
100
AcDbPoint
 10
2649.999999999971
 20
2436.000005597326
 30
0.0
  0
POINT
  5
14B4D
330
143D2
100
AcDbEntity
  8
Defpoints
 62
     0
440
 16777216
100
AcDbPoint
 10
2649.999999999971
 20
2765.000005597312
 30
0.0
  0
ENDBLK
  5
143D4
330
143D2
100
AcDbEntity
  8
0
100
AcDbBlockEnd
  0
BLOCK
  5
143DF
330
143DE
100
AcDbEntity
  8
0
100
AcDbBlockBegin
  2
*D17
 70
     1
 10
0.0
 20
0.0
 30
0.0
  3
*D17
  1

  0
LINE
  5
14B96
330
143DE
100
AcDbEntity
  8
寸法線
 62
     0
440
 16777216
370
    -2
100
AcDbLine
 10
2051.999999999993
 20
591.2497392516434
 30
0.0
 11
2051.999999999993
 21
489.9999828018776
 31
0.0
  0
LINE
  5
14B97
330
143DE
100
AcDbEntity
  8
寸法線
 62
     0
440
 16777216
370
    -2
100
AcDbLine
 10
2083.999896414979
 20
581.2497392516434
 30
0.0
 11
2083.999896414979
 21
489.9999828018776
 31
0.0
  0
LINE
  5
14B98
330
143DE
100
AcDbEntity
  8
寸法線
 62
     0
440
 16777216
370
    -2
100
AcDbLine
 10
2031.999999999993
 20
499.9999828018776
 30
0.0
 11
2011.999999999993
 21
499.9999828018776
 31
0.0
  0
LINE
  5
14B99
330
143DE
100
AcDbEntity
  8
寸法線
 62
     0
440
 16777216
370
    -2
100
AcDbLine
 10
2103.999896414979
 20
499.9999828018776
 30
0.0
 11
2123.999896414979
 21
499.9999828018776
 31
0.0
  0
LINE
  5
14B9A
330
143DE
100
AcDbEntity
  8
寸法線
 62
     0
440
 16777216
370
    -2
100
AcDbLine
 10
2051.999999999993
 20
499.9999828018776
 30
0.0
 11
2083.999896414979
 21
499.9999828018776
 31
0.0
  0
INSERT
  5
14B9B
330
143DE
100
AcDbEntity
  8
寸法線
 62
     0
440
 16777216
370
    -2
100
AcDbBlockReference
  2
_OPEN
 10
2051.999999999993
 20
499.9999828018776
 30
0.0
 41
20.0
 42
20.0
 43
20.0
  0
INSERT
  5
14B9C
330
143DE
100
AcDbEntity
  8
寸法線
 62
     0
440
 16777216
370
    -2
100
AcDbBlockReference
  2
_OPEN
 10
2083.999896414979
 20
499.9999828018776
 30
0.0
 41
20.0
 42
20.0
 43
20.0
 50
180.0
  0
MTEXT
  5
14B9D
330
143DE
100
AcDbEntity
  8
寸法線
 62
     0
440
 16777216
100
AcDbMText
 10
2067.999948207486
 20
521.2524434317989
 30
0.0
 40
25.0
 41
0.0
 46
0.0
 71
     5
 72
     1
  1
\A1;32
 73
     1
 44
1.0
  0
POINT
  5
14B9E
330
143DE
100
AcDbEntity
  8
Defpoints
 62
     0
440
 16777216
100
AcDbPoint
 10
2051.999999999993
 20
599.9997392516434
 30
0.0
  0
POINT
  5
14B9F
330
143DE
100
AcDbEntity
  8
Defpoints
 62
     0
440
 16777216
100
AcDbPoint
 10
2083.999896414979
 20
589.9997392516434
 30
0.0
  0
POINT
  5
14BA0
330
143DE
100
AcDbEntity
  8
Defpoints
 62
     0
440
 16777216
100
AcDbPoint
 10
2083.999896414979
 20
499.9999828018776
 30
0.0
  0
ENDBLK
  5
143E0
330
143DE
100
AcDbEntity
  8
0
100
AcDbBlockEnd
  0
BLOCK
  5
143ED
330
143EC
100
AcDbEntity
  8
0
100
AcDbBlockBegin
  2
*D18
 70
     1
 10
0.0
 20
0.0
 30
0.0
  3
*D18
  1

  0
LINE
  5
14BA1
330
143EC
100
AcDbEntity
  8
寸法線
 62
     0
440
 16777216
370
    -2
100
AcDbLine
 10
2083.999896414979
 20
581.2497392516434
 30
0.0
 11
2083.999896414979
 21
429.9999828018776
 31
0.0
  0
LINE
  5
14BA2
330
143EC
100
AcDbEntity
  8
寸法線
 62
     0
440
 16777216
370
    -2
100
AcDbLine
 10
2099.999896414979
 20
581.2497392516434
 30
0.0
 11
2099.999896414979
 21
429.9999828018776
 31
0.0
  0
LINE
  5
14BA3
330
143EC
100
AcDbEntity
  8
寸法線
 62
     0
440
 16777216
370
    -2
100
AcDbLine
 10
2063.999896414979
 20
439.9999828018776
 30
0.0
 11
2043.999896414979
 21
439.9999828018776
 31
0.0
  0
LINE
  5
14BA4
330
143EC
100
AcDbEntity
  8
寸法線
 62
     0
440
 16777216
370
    -2
100
AcDbLine
 10
2119.999896414979
 20
439.9999828018776
 30
0.0
 11
2139.999896414979
 21
439.9999828018776
 31
0.0
  0
LINE
  5
14BA5
330
143EC
100
AcDbEntity
  8
寸法線
 62
     0
440
 16777216
370
    -2
100
AcDbLine
 10
2083.999896414979
 20
439.9999828018776
 30
0.0
 11
2099.999896414979
 21
439.9999828018776
 31
0.0
  0
INSERT
  5
14BA6
330
143EC
100
AcDbEntity
  8
寸法線
 62
     0
440
 16777216
370
    -2
100
AcDbBlockReference
  2
_OPEN
 10
2083.999896414979
 20
439.9999828018776
 30
0.0
 41
20.0
 42
20.0
 43
20.0
  0
INSERT
  5
14BA7
330
143EC
100
AcDbEntity
  8
寸法線
 62
     0
440
 16777216
370
    -2
100
AcDbBlockReference
  2
_OPEN
 10
2099.999896414979
 20
439.9999828018776
 30
0.0
 41
20.0
 42
20.0
 43
20.0
 50
180.0
  0
MTEXT
  5
14BA8
330
143EC
100
AcDbEntity
  8
寸法線
 62
     0
440
 16777216
100
AcDbMText
 10
2091.999896414979
 20
461.2499828018776
 30
0.0
 40
25.0
 41
0.0
 46
0.0
 71
     5
 72
     1
  1
\A1;16
 73
     1
 44
1.0
  0
POINT
  5
14BA9
330
143EC
100
AcDbEntity
  8
Defpoints
 62
     0
440
 16777216
100
AcDbPoint
 10
2083.999896414979
 20
589.9997392516434
 30
0.0
  0
POINT
  5
14BAA
330
143EC
100
AcDbEntity
  8
Defpoints
 62
     0
440
 16777216
100
AcDbPoint
 10
2099.999896414979
 20
589.9997392516434
 30
0.0
  0
POINT
  5
14BAB
330
143EC
100
AcDbEntity
  8
Defpoints
 62
     0
440
 16777216
100
AcDbPoint
 10
2099.999896414979
 20
439.9999828018776
 30
0.0
  0
ENDBLK
  5
143EE
330
143EC
100
AcDbEntity
  8
0
100
AcDbBlockEnd
  0
BLOCK
  5
143FB
330
143FA
100
AcDbEntity
  8
0
100
AcDbBlockBegin
  2
*D19
 70
     1
 10
0.0
 20
0.0
 30
0.0
  3
*D19
  1

  0
LINE
  5
14BAC
330
143FA
100
AcDbEntity
  8
寸法線
 62
     0
440
 16777216
370
    -2
100
AcDbLine
 10
2015.24989641498
 20
939.9997392516437
 30
0.0
 11
2013.999896414979
 21
939.9997392516437
 31
0.0
  0
LINE
  5
14BAD
330
143FA
100
AcDbEntity
  8
寸法線
 62
     0
440
 16777216
370
    -2
100
AcDbLine
 10
2015.24989641498
 20
999.9997392516439
 30
0.0
 11
2013.999896414979
 21
999.9997392516439
 31
0.0
  0
LINE
  5
14BAE
330
143FA
100
AcDbEntity
  8
寸法線
 62
     0
440
 16777216
370
    -2
100
AcDbLine
 10
2023.999896414979
 20
979.9997392516438
 30
0.0
 11
2023.999896414979
 21
959.9997392516439
 31
0.0
  0
LINE
  5
14BAF
330
143FA
100
AcDbEntity
  8
寸法線
 62
     0
440
 16777216
370
    -2
100
AcDbLine
 10
2023.999896414979
 20
939.9997392516437
 30
0.0
 11
2023.999896414979
 21
852.4800542122527
 31
0.0
  0
INSERT
  5
14BB0
330
143FA
100
AcDbEntity
  8
寸法線
 62
     0
440
 16777216
370
    -2
100
AcDbBlockReference
  2
_OPEN
 10
2023.999896414979
 20
999.9997392516439
 30
0.0
 41
20.0
 42
20.0
 43
20.0
 50
90.0
  0
INSERT
  5
14BB1
330
143FA
100
AcDbEntity
  8
寸法線
 62
     0
440
 16777216
370
    -2
100
AcDbBlockReference
  2
_OPEN
 10
2023.999896414979
 20
939.9997392516437
 30
0.0
 41
20.0
 42
20.0
 43
20.0
 50
270.0
  0
MTEXT
  5
14BB2
330
143FA
100
AcDbEntity
  8
寸法線
 62
     0
440
 16777216
100
AcDbMText
 10
2002.749896414979
 20
886.2398967319368
 30
0.0
 40
25.0
 41
0.0
 46
0.0
 71
     5
 72
     1
  1
\A1;%%C60
 11
0.0000000000000001
 21
1.0
 31
0.0
 73
     1
 44
1.0
  0
POINT
  5
14BB3
330
143FA
100
AcDbEntity
  8
Defpoints
 62
     0
440
 16777216
100
AcDbPoint
 10
2023.999896414979
 20
939.9997392516437
 30
0.0
  0
POINT
  5
14BB4
330
143FA
100
AcDbEntity
  8
Defpoints
 62
     0
440
 16777216
100
AcDbPoint
 10
2023.999896414979
 20
999.9997392516439
 30
0.0
  0
POINT
  5
14BB5
330
143FA
100
AcDbEntity
  8
Defpoints
 62
     0
440
 16777216
100
AcDbPoint
 10
2023.999896414979
 20
999.9997392516439
 30
0.0
  0
ENDBLK
  5
143FC
330
143FA
100
AcDbEntity
  8
0
100
AcDbBlockEnd
  0
BLOCK
  5
14408
330
14407
100
AcDbEntity
  8
0
100
AcDbBlockBegin
  2
*D20
 70
     1
 10
0.0
 20
0.0
 30
0.0
  3
*D20
  1

  0
LINE
  5
14BB6
330
14407
100
AcDbEntity
  8
寸法線
 62
     0
440
 16777216
370
    -2
100
AcDbLine
 10
1315.999896414978
 20
581.2497529351149
 30
0.0
 11
1315.999896414978
 21
489.9999828018776
 31
0.0
  0
LINE
  5
14BB7
330
14407
100
AcDbEntity
  8
寸法線
 62
     0
440
 16777216
370
    -2
100
AcDbLine
 10
1347.999896414978
 20
591.2497529351148
 30
0.0
 11
1347.999896414978
 21
489.9999828018776
 31
0.0
  0
LINE
  5
14BB8
330
14407
100
AcDbEntity
  8
寸法線
 62
     0
440
 16777216
370
    -2
100
AcDbLine
 10
1295.999896414979
 20
499.9999828018776
 30
0.0
 11
1275.999896414979
 21
499.9999828018776
 31
0.0
  0
LINE
  5
14BB9
330
14407
100
AcDbEntity
  8
寸法線
 62
     0
440
 16777216
370
    -2
100
AcDbLine
 10
1367.999896414979
 20
499.9999828018776
 30
0.0
 11
1387.999896414978
 21
499.9999828018776
 31
0.0
  0
LINE
  5
14BBA
330
14407
100
AcDbEntity
  8
寸法線
 62
     0
440
 16777216
370
    -2
100
AcDbLine
 10
1315.999896414978
 20
499.9999828018776
 30
0.0
 11
1347.999896414978
 21
499.9999828018776
 31
0.0
  0
INSERT
  5
14BBB
330
14407
100
AcDbEntity
  8
寸法線
 62
     0
440
 16777216
370
    -2
100
AcDbBlockReference
  2
_OPEN
 10
1315.999896414978
 20
499.9999828018776
 30
0.0
 41
20.0
 42
20.0
 43
20.0
  0
INSERT
  5
14BBC
330
14407
100
AcDbEntity
  8
寸法線
 62
     0
440
 16777216
370
    -2
100
AcDbBlockReference
  2
_OPEN
 10
1347.999896414978
 20
499.9999828018776
 30
0.0
 41
20.0
 42
20.0
 43
20.0
 50
180.0
  0
MTEXT
  5
14BBD
330
14407
100
AcDbEntity
  8
寸法線
 62
     0
440
 16777216
100
AcDbMText
 10
1331.999896414978
 20
521.2524434317989
 30
0.0
 40
25.0
 41
0.0
 46
0.0
 71
     5
 72
     1
  1
\A1;32
 73
     1
 44
1.0
  0
POINT
  5
14BBE
330
14407
100
AcDbEntity
  8
Defpoints
 62
     0
440
 16777216
100
AcDbPoint
 10
1315.999896414978
 20
589.9997529351148
 30
0.0
  0
POINT
  5
14BBF
330
14407
100
AcDbEntity
  8
Defpoints
 62
     0
440
 16777216
100
AcDbPoint
 10
1347.999896414978
 20
599.9997529351149
 30
0.0
  0
POINT
  5
14BC0
330
14407
100
AcDbEntity
  8
Defpoints
 62
     0
440
 16777216
100
AcDbPoint
 10
1347.999896414978
 20
499.9999828018776
 30
0.0
  0
ENDBLK
  5
14409
330
14407
100
AcDbEntity
  8
0
100
AcDbBlockEnd
  0
BLOCK
  5
14416
330
14415
100
AcDbEntity
  8
0
100
AcDbBlockBegin
  2
*D21
 70
     1
 10
0.0
 20
0.0
 30
0.0
  3
*D21
  1

  0
LINE
  5
14BC1
330
14415
100
AcDbEntity
  8
寸法線
 62
     0
440
 16777216
370
    -2
100
AcDbLine
 10
1347.999896414978
 20
591.2497529351148
 30
0.0
 11
1347.999896414978
 21
489.9999828018776
 31
0.0
  0
LINE
  5
14BC2
330
14415
100
AcDbEntity
  8
寸法線
 62
     0
440
 16777216
370
    -2
100
AcDbLine
 10
2051.999896414979
 20
591.2497392516434
 30
0.0
 11
2051.999896414979
 21
489.9999828018776
 31
0.0
  0
LINE
  5
14BC3
330
14415
100
AcDbEntity
  8
寸法線
 62
     0
440
 16777216
370
    -2
100
AcDbLine
 10
1367.999896414979
 20
499.9999828018776
 30
0.0
 11
2031.999896414979
 21
499.9999828018776
 31
0.0
  0
INSERT
  5
14BC4
330
14415
100
AcDbEntity
  8
寸法線
 62
     0
440
 16777216
370
    -2
100
AcDbBlockReference
  2
_OPEN
 10
1347.999896414978
 20
499.9999828018776
 30
0.0
 41
20.0
 42
20.0
 43
20.0
 50
180.0
  0
INSERT
  5
14BC5
330
14415
100
AcDbEntity
  8
寸法線
 62
     0
440
 16777216
370
    -2
100
AcDbBlockReference
  2
_OPEN
 10
2051.999896414979
 20
499.9999828018776
 30
0.0
 41
20.0
 42
20.0
 43
20.0
  0
MTEXT
  5
14BC6
330
14415
100
AcDbEntity
  8
寸法線
 62
     0
440
 16777216
100
AcDbMText
 10
1699.999896414978
 20
521.2499828018776
 30
0.0
 40
25.0
 41
0.0
 46
0.0
 71
     5
 72
     1
  1
\A1;704
 73
     1
 44
1.0
  0
POINT
  5
14BC7
330
14415
100
AcDbEntity
  8
Defpoints
 62
     0
440
 16777216
100
AcDbPoint
 10
1347.999896414978
 20
599.9997529351149
 30
0.0
  0
POINT
  5
14BC8
330
14415
100
AcDbEntity
  8
Defpoints
 62
     0
440
 16777216
100
AcDbPoint
 10
2051.999896414979
 20
599.9997392516434
 30
0.0
  0
POINT
  5
14BC9
330
14415
100
AcDbEntity
  8
Defpoints
 62
     0
440
 16777216
100
AcDbPoint
 10
2051.999896414979
 20
499.9999828018776
 30
0.0
  0
ENDBLK
  5
14417
330
14415
100
AcDbEntity
  8
0
100
AcDbBlockEnd
  0
BLOCK
  5
14422
330
14421
100
AcDbEntity
  8
0
100
AcDbBlockBegin
  2
*D22
 70
     1
 10
0.0
 20
0.0
 30
0.0
  3
*D22
  1

  0
LINE
  5
14BCA
330
14421
100
AcDbEntity
  8
寸法線
 62
     0
440
 16777216
370
    -2
100
AcDbLine
 10
1299.999896414978
 20
581.2497529351149
 30
0.0
 11
1299.999896414978
 21
429.9999828018776
 31
0.0
  0
LINE
  5
14BCB
330
14421
100
AcDbEntity
  8
寸法線
 62
     0
440
 16777216
370
    -2
100
AcDbLine
 10
1315.999896414978
 20
581.2497529351149
 30
0.0
 11
1315.999896414978
 21
429.9999828018776
 31
0.0
  0
LINE
  5
14BCC
330
14421
100
AcDbEntity
  8
寸法線
 62
     0
440
 16777216
370
    -2
100
AcDbLine
 10
1279.999896414979
 20
439.9999828018776
 30
0.0
 11
1259.999896414979
 21
439.9999828018776
 31
0.0
  0
LINE
  5
14BCD
330
14421
100
AcDbEntity
  8
寸法線
 62
     0
440
 16777216
370
    -2
100
AcDbLine
 10
1335.999896414979
 20
439.9999828018776
 30
0.0
 11
1355.999896414978
 21
439.9999828018776
 31
0.0
  0
LINE
  5
14BCE
330
14421
100
AcDbEntity
  8
寸法線
 62
     0
440
 16777216
370
    -2
100
AcDbLine
 10
1299.999896414978
 20
439.9999828018776
 30
0.0
 11
1315.999896414978
 21
439.9999828018776
 31
0.0
  0
INSERT
  5
14BCF
330
14421
100
AcDbEntity
  8
寸法線
 62
     0
440
 16777216
370
    -2
100
AcDbBlockReference
  2
_OPEN
 10
1299.999896414978
 20
439.9999828018776
 30
0.0
 41
20.0
 42
20.0
 43
20.0
  0
INSERT
  5
14BD0
330
14421
100
AcDbEntity
  8
寸法線
 62
     0
440
 16777216
370
    -2
100
AcDbBlockReference
  2
_OPEN
 10
1315.999896414978
 20
439.9999828018776
 30
0.0
 41
20.0
 42
20.0
 43
20.0
 50
180.0
  0
MTEXT
  5
14BD1
330
14421
100
AcDbEntity
  8
寸法線
 62
     0
440
 16777216
100
AcDbMText
 10
1307.999896414978
 20
461.2499828018776
 30
0.0
 40
25.0
 41
0.0
 46
0.0
 71
     5
 72
     1
  1
\A1;16
 73
     1
 44
1.0
  0
POINT
  5
14BD2
330
14421
100
AcDbEntity
  8
Defpoints
 62
     0
440
 16777216
100
AcDbPoint
 10
1299.999896414978
 20
589.9997529351148
 30
0.0
  0
POINT
  5
14BD3
330
14421
100
AcDbEntity
  8
Defpoints
 62
     0
440
 16777216
100
AcDbPoint
 10
1315.999896414978
 20
589.9997529351148
 30
0.0
  0
POINT
  5
14BD4
330
14421
100
AcDbEntity
  8
Defpoints
 62
     0
440
 16777216
100
AcDbPoint
 10
1315.999896414978
 20
439.9999828018776
 30
0.0
  0
ENDBLK
  5
14423
330
14421
100
AcDbEntity
  8
0
100
AcDbBlockEnd
  0
BLOCK
  5
14430
330
1442F
100
AcDbEntity
  8
0
100
AcDbBlockBegin
  2
*D23
 70
     1
 10
0.0
 20
0.0
 30
0.0
  3
*D23
  1

  0
LINE
  5
14BD5
330
1442F
100
AcDbEntity
  8
寸法線
 62
     0
440
 16777216
370
    -2
100
AcDbLine
 10
1315.999896414978
 20
581.2497529351149
 30
0.0
 11
1315.999896414978
 21
429.9999828018776
 31
0.0
  0
LINE
  5
14BD6
330
1442F
100
AcDbEntity
  8
寸法線
 62
     0
440
 16777216
370
    -2
100
AcDbLine
 10
2083.999896414979
 20
581.2497574962526
 30
0.0
 11
2083.999896414979
 21
429.9999828018776
 31
0.0
  0
LINE
  5
14BD7
330
1442F
100
AcDbEntity
  8
寸法線
 62
     0
440
 16777216
370
    -2
100
AcDbLine
 10
1335.999896414979
 20
439.9999828018776
 30
0.0
 11
2063.999896414979
 21
439.9999828018776
 31
0.0
  0
INSERT
  5
14BD8
330
1442F
100
AcDbEntity
  8
寸法線
 62
     0
440
 16777216
370
    -2
100
AcDbBlockReference
  2
_OPEN
 10
1315.999896414978
 20
439.9999828018776
 30
0.0
 41
20.0
 42
20.0
 43
20.0
 50
180.0
  0
INSERT
  5
14BD9
330
1442F
100
AcDbEntity
  8
寸法線
 62
     0
440
 16777216
370
    -2
100
AcDbBlockReference
  2
_OPEN
 10
2083.999896414979
 20
439.9999828018776
 30
0.0
 41
20.0
 42
20.0
 43
20.0
  0
MTEXT
  5
14BDA
330
1442F
100
AcDbEntity
  8
寸法線
 62
     0
440
 16777216
100
AcDbMText
 10
1699.999896414978
 20
461.2499828018776
 30
0.0
 40
25.0
 41
0.0
 46
0.0
 71
     5
 72
     1
  1
\A1;768
 73
     1
 44
1.0
  0
POINT
  5
14BDB
330
1442F
100
AcDbEntity
  8
Defpoints
 62
     0
440
 16777216
100
AcDbPoint
 10
1315.999896414978
 20
589.9997529351148
 30
0.0
  0
POINT
  5
14BDC
330
1442F
100
AcDbEntity
  8
Defpoints
 62
     0
440
 16777216
100
AcDbPoint
 10
2083.999896414979
 20
589.9997574962526
 30
0.0
  0
POINT
  5
14BDD
330
1442F
100
AcDbEntity
  8
Defpoints
 62
     0
440
 16777216
100
AcDbPoint
 10
2083.999896414979
 20
439.9999828018776
 30
0.0
  0
ENDBLK
  5
14431
330
1442F
100
AcDbEntity
  8
0
100
AcDbBlockEnd
  0
BLOCK
  5
1443C
330
1443B
100
AcDbEntity
  8
0
100
AcDbBlockBegin
  2
*D24
 70
     1
 10
0.0
 20
0.0
 30
0.0
  3
*D24
  1

  0
LINE
  5
14BDE
330
1443B
100
AcDbEntity
  8
寸法線
 62
     0
440
 16777216
370
    -2
100
AcDbLine
 10
1299.999896414978
 20
581.2497711797241
 30
0.0
 11
1299.999896414978
 21
369.9999828018777
 31
0.0
  0
LINE
  5
14BDF
330
1443B
100
AcDbEntity
  8
寸法線
 62
     0
440
 16777216
370
    -2
100
AcDbLine
 10
2099.999896414979
 20
581.2497574962526
 30
0.0
 11
2099.999896414979
 21
369.9999828018777
 31
0.0
  0
LINE
  5
14BE0
330
1443B
100
AcDbEntity
  8
寸法線
 62
     0
440
 16777216
370
    -2
100
AcDbLine
 10
1319.999896414979
 20
379.9999828018777
 30
0.0
 11
2079.999896414979
 21
379.9999828018777
 31
0.0
  0
INSERT
  5
14BE1
330
1443B
100
AcDbEntity
  8
寸法線
 62
     0
440
 16777216
370
    -2
100
AcDbBlockReference
  2
_OPEN
 10
1299.999896414978
 20
379.9999828018777
 30
0.0
 41
20.0
 42
20.0
 43
20.0
 50
180.0
  0
INSERT
  5
14BE2
330
1443B
100
AcDbEntity
  8
寸法線
 62
     0
440
 16777216
370
    -2
100
AcDbBlockReference
  2
_OPEN
 10
2099.999896414979
 20
379.9999828018777
 30
0.0
 41
20.0
 42
20.0
 43
20.0
  0
MTEXT
  5
14BE3
330
1443B
100
AcDbEntity
  8
寸法線
 62
     0
440
 16777216
100
AcDbMText
 10
1699.999896414978
 20
401.2499828018776
 30
0.0
 40
25.0
 41
0.0
 46
0.0
 71
     5
 72
     1
  1
\A1;800
 73
     1
 44
1.0
  0
POINT
  5
14BE4
330
1443B
100
AcDbEntity
  8
Defpoints
 62
     0
440
 16777216
100
AcDbPoint
 10
1299.999896414978
 20
589.9997711797241
 30
0.0
  0
POINT
  5
14BE5
330
1443B
100
AcDbEntity
  8
Defpoints
 62
     0
440
 16777216
100
AcDbPoint
 10
2099.999896414979
 20
589.9997574962526
 30
0.0
  0
POINT
  5
14BE6
330
1443B
100
AcDbEntity
  8
Defpoints
 62
     0
440
 16777216
100
AcDbPoint
 10
2099.999896414979
 20
379.9999828018777
 30
0.0
  0
ENDBLK
  5
1443D
330
1443B
100
AcDbEntity
  8
0
100
AcDbBlockEnd
  0
BLOCK
  5
14448
330
14447
100
AcDbEntity
  8
0
100
AcDbBlockBegin
  2
*D25
 70
     1
 10
0.0
 20
0.0
 30
0.0
  3
*D25
  1

  0
LINE
  5
14BE7
330
14447
100
AcDbEntity
  8
寸法線
 62
     0
440
 16777216
370
    -2
100
AcDbLine
 10
689.9998964149785
 20
581.2497210069905
 30
0.0
 11
689.9998964149785
 21
489.9999828018776
 31
0.0
  0
LINE
  5
14BE8
330
14447
100
AcDbEntity
  8
寸法線
 62
     0
440
 16777216
370
    -2
100
AcDbLine
 10
1109.999896414978
 20
581.2497574962671
 30
0.0
 11
1109.999896414978
 21
489.9999828018776
 31
0.0
  0
LINE
  5
14BE9
330
14447
100
AcDbEntity
  8
寸法線
 62
     0
440
 16777216
370
    -2
100
AcDbLine
 10
709.9998964149786
 20
499.9999828018776
 30
0.0
 11
1089.999896414978
 21
499.9999828018776
 31
0.0
  0
INSERT
  5
14BEA
330
14447
100
AcDbEntity
  8
寸法線
 62
     0
440
 16777216
370
    -2
100
AcDbBlockReference
  2
_OPEN
 10
689.9998964149785
 20
499.9999828018776
 30
0.0
 41
20.0
 42
20.0
 43
20.0
 50
180.0
  0
INSERT
  5
14BEB
330
14447
100
AcDbEntity
  8
寸法線
 62
     0
440
 16777216
370
    -2
100
AcDbBlockReference
  2
_OPEN
 10
1109.999896414978
 20
499.9999828018776
 30
0.0
 41
20.0
 42
20.0
 43
20.0
  0
MTEXT
  5
14BEC
330
14447
100
AcDbEntity
  8
寸法線
 62
     0
440
 16777216
100
AcDbMText
 10
899.9998964149785
 20
521.2524434317989
 30
0.0
 40
25.0
 41
0.0
 46
0.0
 71
     5
 72
     1
  1
\A1;420
 73
     1
 44
1.0
  0
POINT
  5
14BED
330
14447
100
AcDbEntity
  8
Defpoints
 62
     0
440
 16777216
100
AcDbPoint
 10
689.9998964149785
 20
589.9997210069905
 30
0.0
  0
POINT
  5
14BEE
330
14447
100
AcDbEntity
  8
Defpoints
 62
     0
440
 16777216
100
AcDbPoint
 10
1109.999896414978
 20
589.9997574962672
 30
0.0
  0
POINT
  5
14BEF
330
14447
100
AcDbEntity
  8
Defpoints
 62
     0
440
 16777216
100
AcDbPoint
 10
1109.999896414978
 20
499.9999828018776
 30
0.0
  0
ENDBLK
  5
14449
330
14447
100
AcDbEntity
  8
0
100
AcDbBlockEnd
  0
BLOCK
  5
14454
330
14453
100
AcDbEntity
  8
0
100
AcDbBlockBegin
  2
*D26
 70
     1
 10
0.0
 20
0.0
 30
0.0
  3
*D26
  1

  0
LINE
  5
14BF0
330
14453
100
AcDbEntity
  8
寸法線
 62
     0
440
 16777216
370
    -2
100
AcDbLine
 10
681.2499439837927
 20
589.9997574962674
 30
0.0
 11
589.9999439837925
 21
589.9997574962674
 31
0.0
  0
LINE
  5
14BF1
330
14453
100
AcDbEntity
  8
寸法線
 62
     0
440
 16777216
370
    -2
100
AcDbLine
 10
681.2499439837927
 20
1009.999757496268
 30
0.0
 11
589.9999439837923
 21
1009.999757496268
 31
0.0
  0
LINE
  5
14BF2
330
14453
100
AcDbEntity
  8
寸法線
 62
     0
440
 16777216
370
    -2
100
AcDbLine
 10
599.9999439837925
 20
609.9997574962674
 30
0.0
 11
599.9999439837924
 21
989.9997574962677
 31
0.0
  0
INSERT
  5
14BF3
330
14453
100
AcDbEntity
  8
寸法線
 62
     0
440
 16777216
370
    -2
100
AcDbBlockReference
  2
_OPEN
 10
599.9999439837925
 20
589.9997574962674
 30
0.0
 41
20.0
 42
20.0
 43
20.0
 50
270.0
  0
INSERT
  5
14BF4
330
14453
100
AcDbEntity
  8
寸法線
 62
     0
440
 16777216
370
    -2
100
AcDbBlockReference
  2
_OPEN
 10
599.9999439837924
 20
1009.999757496268
 30
0.0
 41
20.0
 42
20.0
 43
20.0
 50
90.0
  0
MTEXT
  5
14BF5
330
14453
100
AcDbEntity
  8
寸法線
 62
     0
440
 16777216
100
AcDbMText
 10
578.7474833538712
 20
799.9997574962671
 30
0.0
 40
25.0
 41
0.0
 46
0.0
 71
     5
 72
     1
  1
\A1;420
 11
0.0000000000000001
 21
1.0
 31
0.0
 73
     1
 44
1.0
  0
POINT
  5
14BF6
330
14453
100
AcDbEntity
  8
Defpoints
 62
     0
440
 16777216
100
AcDbPoint
 10
689.9999439837927
 20
589.9997574962674
 30
0.0
  0
POINT
  5
14BF7
330
14453
100
AcDbEntity
  8
Defpoints
 62
     0
440
 16777216
100
AcDbPoint
 10
689.9999439837927
 20
1009.999757496268
 30
0.0
  0
POINT
  5
14BF8
330
14453
100
AcDbEntity
  8
Defpoints
 62
     0
440
 16777216
100
AcDbPoint
 10
599.9999439837924
 20
1009.999757496268
 30
0.0
  0
ENDBLK
  5
14455
330
14453
100
AcDbEntity
  8
0
100
AcDbBlockEnd
  0
BLOCK
  5
14460
330
1445F
100
AcDbEntity
  8
0
100
AcDbBlockBegin
  2
*D27
 70
     1
 10
0.0
 20
0.0
 30
0.0
  3
*D27
  1

  0
LINE
  5
14BF9
330
1445F
100
AcDbEntity
  8
寸法線
 62
     0
440
 16777216
370
    -2
100
AcDbLine
 10
2330.000120199395
 20
566.2502537190721
 30
0.0
 11
2330.000120199395
 21
489.9999828018776
 31
0.0
  0
LINE
  5
14BFA
330
1445F
100
AcDbEntity
  8
寸法線
 62
     0
440
 16777216
370
    -2
100
AcDbLine
 10
2670.000120199395
 20
566.2502537190721
 30
0.0
 11
2670.000120199395
 21
489.9999828018776
 31
0.0
  0
LINE
  5
14BFB
330
1445F
100
AcDbEntity
  8
寸法線
 62
     0
440
 16777216
370
    -2
100
AcDbLine
 10
2350.000120199395
 20
499.9999828018776
 30
0.0
 11
2650.000120199395
 21
499.9999828018776
 31
0.0
  0
INSERT
  5
14BFC
330
1445F
100
AcDbEntity
  8
寸法線
 62
     0
440
 16777216
370
    -2
100
AcDbBlockReference
  2
_OPEN
 10
2330.000120199395
 20
499.9999828018776
 30
0.0
 41
20.0
 42
20.0
 43
20.0
 50
180.0
  0
INSERT
  5
14BFD
330
1445F
100
AcDbEntity
  8
寸法線
 62
     0
440
 16777216
370
    -2
100
AcDbBlockReference
  2
_OPEN
 10
2670.000120199395
 20
499.9999828018776
 30
0.0
 41
20.0
 42
20.0
 43
20.0
  0
MTEXT
  5
14BFE
330
1445F
100
AcDbEntity
  8
寸法線
 62
     0
440
 16777216
100
AcDbMText
 10
2500.000121120823
 20
521.2499828018776
 30
0.0
 40
25.0
 41
0.0
 46
0.0
 71
     5
 72
     1
  1
\A1;340
 73
     1
 44
1.0
  0
POINT
  5
14BFF
330
1445F
100
AcDbEntity
  8
Defpoints
 62
     0
440
 16777216
100
AcDbPoint
 10
2330.000120199395
 20
575.0002537190721
 30
0.0
  0
POINT
  5
14C00
330
1445F
100
AcDbEntity
  8
Defpoints
 62
     0
440
 16777216
100
AcDbPoint
 10
2670.000120199395
 20
575.0002537190721
 30
0.0
  0
POINT
  5
14C01
330
1445F
100
AcDbEntity
  8
Defpoints
 62
     0
440
 16777216
100
AcDbPoint
 10
2670.000120199395
 20
499.9999828018776
 30
0.0
  0
ENDBLK
  5
14461
330
1445F
100
AcDbEntity
  8
0
100
AcDbBlockEnd
  0
BLOCK
  5
1446C
330
1446B
100
AcDbEntity
  8
0
100
AcDbBlockBegin
  2
*D28
 70
     1
 10
0.0
 20
0.0
 30
0.0
  3
*D28
  1

  0
LINE
  5
14C02
330
1446B
100
AcDbEntity
  8
寸法線
 62
     0
440
 16777216
370
    -2
100
AcDbLine
 10
2289.999896414979
 20
581.2504881470212
 30
0.0
 11
2289.999896414979
 21
489.9999828018776
 31
0.0
  0
LINE
  5
14C03
330
1446B
100
AcDbEntity
  8
寸法線
 62
     0
440
 16777216
370
    -2
100
AcDbLine
 10
2330.000120199395
 20
566.2502537190721
 30
0.0
 11
2330.000120199395
 21
489.9999828018776
 31
0.0
  0
LINE
  5
14C04
330
1446B
100
AcDbEntity
  8
寸法線
 62
     0
440
 16777216
370
    -2
100
AcDbLine
 10
2269.999896414979
 20
499.9999828018776
 30
0.0
 11
2249.999896414978
 21
499.9999828018776
 31
0.0
  0
LINE
  5
14C05
330
1446B
100
AcDbEntity
  8
寸法線
 62
     0
440
 16777216
370
    -2
100
AcDbLine
 10
2350.000120199395
 20
499.9999828018776
 30
0.0
 11
2370.000120199395
 21
499.9999828018776
 31
0.0
  0
LINE
  5
14C06
330
1446B
100
AcDbEntity
  8
寸法線
 62
     0
440
 16777216
370
    -2
100
AcDbLine
 10
2289.999896414979
 20
499.9999828018776
 30
0.0
 11
2330.000120199395
 21
499.9999828018776
 31
0.0
  0
INSERT
  5
14C07
330
1446B
100
AcDbEntity
  8
寸法線
 62
     0
440
 16777216
370
    -2
100
AcDbBlockReference
  2
_OPEN
 10
2289.999896414979
 20
499.9999828018776
 30
0.0
 41
20.0
 42
20.0
 43
20.0
  0
INSERT
  5
14C08
330
1446B
100
AcDbEntity
  8
寸法線
 62
     0
440
 16777216
370
    -2
100
AcDbBlockReference
  2
_OPEN
 10
2330.000120199395
 20
499.9999828018776
 30
0.0
 41
20.0
 42
20.0
 43
20.0
 50
180.0
  0
MTEXT
  5
14C09
330
1446B
100
AcDbEntity
  8
寸法線
 62
     0
440
 16777216
100
AcDbMText
 10
2310.000008307187
 20
521.2499828018776
 30
0.0
 40
25.0
 41
0.0
 46
0.0
 71
     5
 72
     1
  1
\A1;40
 73
     1
 44
1.0
  0
POINT
  5
14C0A
330
1446B
100
AcDbEntity
  8
Defpoints
 62
     0
440
 16777216
100
AcDbPoint
 10
2289.999896414979
 20
590.0004881470213
 30
0.0
  0
POINT
  5
14C0B
330
1446B
100
AcDbEntity
  8
Defpoints
 62
     0
440
 16777216
100
AcDbPoint
 10
2330.000120199395
 20
575.0002537190721
 30
0.0
  0
POINT
  5
14C0C
330
1446B
100
AcDbEntity
  8
Defpoints
 62
     0
440
 16777216
100
AcDbPoint
 10
2330.000120199395
 20
499.9999828018776
 30
0.0
  0
ENDBLK
  5
1446D
330
1446B
100
AcDbEntity
  8
0
100
AcDbBlockEnd
  0
BLOCK
  5
1447A
330
14479
100
AcDbEntity
  8
0
100
AcDbBlockBegin
  2
*D29
 70
     1
 10
0.0
 20
0.0
 30
0.0
  3
*D29
  1

  0
LINE
  5
14C0D
330
14479
100
AcDbEntity
  8
寸法線
 62
     0
440
 16777216
370
    -2
100
AcDbLine
 10
2733.750120199396
 20
970.0002537190725
 30
0.0
 11
2809.99989641498
 21
970.0002537190725
 31
0.0
  0
LINE
  5
14C0E
330
14479
100
AcDbEntity
  8
寸法線
 62
     0
440
 16777216
370
    -2
100
AcDbLine
 10
2718.74989641498
 20
1010.000019291152
 30
0.0
 11
2809.99989641498
 21
1010.000019291152
 31
0.0
  0
LINE
  5
14C0F
330
14479
100
AcDbEntity
  8
寸法線
 62
     0
440
 16777216
370
    -2
100
AcDbLine
 10
2799.99989641498
 20
950.0002537190725
 30
0.0
 11
2799.99989641498
 21
930.0002537190726
 31
0.0
  0
LINE
  5
14C10
330
14479
100
AcDbEntity
  8
寸法線
 62
     0
440
 16777216
370
    -2
100
AcDbLine
 10
2799.99989641498
 20
1030.000019291152
 30
0.0
 11
2799.99989641498
 21
1050.000019291152
 31
0.0
  0
LINE
  5
14C11
330
14479
100
AcDbEntity
  8
寸法線
 62
     0
440
 16777216
370
    -2
100
AcDbLine
 10
2799.99989641498
 20
970.0002537190725
 30
0.0
 11
2799.99989641498
 21
1010.000019291152
 31
0.0
  0
INSERT
  5
14C12
330
14479
100
AcDbEntity
  8
寸法線
 62
     0
440
 16777216
370
    -2
100
AcDbBlockReference
  2
_OPEN
 10
2799.99989641498
 20
970.0002537190725
 30
0.0
 41
20.0
 42
20.0
 43
20.0
 50
90.0
  0
INSERT
  5
14C13
330
14479
100
AcDbEntity
  8
寸法線
 62
     0
440
 16777216
370
    -2
100
AcDbBlockReference
  2
_OPEN
 10
2799.99989641498
 20
1010.000019291152
 30
0.0
 41
20.0
 42
20.0
 43
20.0
 50
270.0
  0
MTEXT
  5
14C14
330
14479
100
AcDbEntity
  8
寸法線
 62
     0
440
 16777216
100
AcDbMText
 10
2778.749896414979
 20
990.0001365051116
 30
0.0
 40
25.0
 41
0.0
 46
0.0
 71
     5
 72
     1
  1
\A1;40
 11
0.0000000000000001
 21
1.0
 31
0.0
 73
     1
 44
1.0
  0
POINT
  5
14C15
330
14479
100
AcDbEntity
  8
Defpoints
 62
     0
440
 16777216
100
AcDbPoint
 10
2725.000120199396
 20
970.0002537190725
 30
0.0
  0
POINT
  5
14C16
330
14479
100
AcDbEntity
  8
Defpoints
 62
     0
440
 16777216
100
AcDbPoint
 10
2709.999896414979
 20
1010.000019291152
 30
0.0
  0
POINT
  5
14C17
330
14479
100
AcDbEntity
  8
Defpoints
 62
     0
440
 16777216
100
AcDbPoint
 10
2799.99989641498
 20
1010.000019291152
 30
0.0
  0
ENDBLK
  5
1447B
330
14479
100
AcDbEntity
  8
0
100
AcDbBlockEnd
  0
BLOCK
  5
14488
330
14487
100
AcDbEntity
  8
0
100
AcDbBlockBegin
  2
*D30
 70
     1
 10
0.0
 20
0.0
 30
0.0
  3
*D30
  1

  0
LINE
  5
14C18
330
14487
100
AcDbEntity
  8
寸法線
 62
     0
440
 16777216
370
    -2
100
AcDbLine
 10
2733.750120199396
 20
630.0002537190724
 30
0.0
 11
2809.999896414979
 21
630.0002537190724
 31
0.0
  0
LINE
  5
14C19
330
14487
100
AcDbEntity
  8
寸法線
 62
     0
440
 16777216
370
    -2
100
AcDbLine
 10
2733.750120199396
 20
970.0002537190725
 30
0.0
 11
2809.999896414979
 21
970.0002537190725
 31
0.0
  0
LINE
  5
14C1A
330
14487
100
AcDbEntity
  8
寸法線
 62
     0
440
 16777216
370
    -2
100
AcDbLine
 10
2799.999896414979
 20
650.0002537190724
 30
0.0
 11
2799.999896414979
 21
950.0002537190725
 31
0.0
  0
INSERT
  5
14C1B
330
14487
100
AcDbEntity
  8
寸法線
 62
     0
440
 16777216
370
    -2
100
AcDbBlockReference
  2
_OPEN
 10
2799.999896414979
 20
630.0002537190724
 30
0.0
 41
20.0
 42
20.0
 43
20.0
 50
270.0
  0
INSERT
  5
14C1C
330
14487
100
AcDbEntity
  8
寸法線
 62
     0
440
 16777216
370
    -2
100
AcDbBlockReference
  2
_OPEN
 10
2799.999896414979
 20
970.0002537190725
 30
0.0
 41
20.0
 42
20.0
 43
20.0
 50
90.0
  0
MTEXT
  5
14C1D
330
14487
100
AcDbEntity
  8
寸法線
 62
     0
440
 16777216
100
AcDbMText
 10
2778.749896414979
 20
800.0002537190722
 30
0.0
 40
25.0
 41
0.0
 46
0.0
 71
     5
 72
     1
  1
\A1;340
 11
0.0000000000000001
 21
1.0
 31
0.0
 73
     1
 44
1.0
  0
POINT
  5
14C1E
330
14487
100
AcDbEntity
  8
Defpoints
 62
     0
440
 16777216
100
AcDbPoint
 10
2725.000120199396
 20
630.0002537190724
 30
0.0
  0
POINT
  5
14C1F
330
14487
100
AcDbEntity
  8
Defpoints
 62
     0
440
 16777216
100
AcDbPoint
 10
2725.000120199396
 20
970.0002537190725
 30
0.0
  0
POINT
  5
14C20
330
14487
100
AcDbEntity
  8
Defpoints
 62
     0
440
 16777216
100
AcDbPoint
 10
2799.999896414979
 20
970.0002537190725
 30
0.0
  0
ENDBLK
  5
14489
330
14487
100
AcDbEntity
  8
0
100
AcDbBlockEnd
  0
BLOCK
  5
14494
330
14493
100
AcDbEntity
  8
0
100
AcDbBlockBegin
  2
*D31
 70
     1
 10
0.0
 20
0.0
 30
0.0
  3
*D31
  1

  0
LINE
  5
14C21
330
14493
100
AcDbEntity
  8
寸法線
 62
     0
440
 16777216
370
    -2
100
AcDbLine
 10
2718.74989641498
 20
590.0004881470215
 30
0.0
 11
2809.999896414979
 21
590.0004881470215
 31
0.0
  0
LINE
  5
14C22
330
14493
100
AcDbEntity
  8
寸法線
 62
     0
440
 16777216
370
    -2
100
AcDbLine
 10
2733.750120199396
 20
630.0002537190724
 30
0.0
 11
2809.999896414979
 21
630.0002537190724
 31
0.0
  0
LINE
  5
14C23
330
14493
100
AcDbEntity
  8
寸法線
 62
     0
440
 16777216
370
    -2
100
AcDbLine
 10
2799.999896414979
 20
570.0004881470215
 30
0.0
 11
2799.999896414979
 21
550.0004881470215
 31
0.0
  0
LINE
  5
14C24
330
14493
100
AcDbEntity
  8
寸法線
 62
     0
440
 16777216
370
    -2
100
AcDbLine
 10
2799.999896414979
 20
650.0002537190724
 30
0.0
 11
2799.999896414979
 21
670.0002537190723
 31
0.0
  0
LINE
  5
14C25
330
14493
100
AcDbEntity
  8
寸法線
 62
     0
440
 16777216
370
    -2
100
AcDbLine
 10
2799.999896414979
 20
590.0004881470215
 30
0.0
 11
2799.999896414979
 21
630.0002537190724
 31
0.0
  0
INSERT
  5
14C26
330
14493
100
AcDbEntity
  8
寸法線
 62
     0
440
 16777216
370
    -2
100
AcDbBlockReference
  2
_OPEN
 10
2799.999896414979
 20
590.0004881470215
 30
0.0
 41
20.0
 42
20.0
 43
20.0
 50
90.0
  0
INSERT
  5
14C27
330
14493
100
AcDbEntity
  8
寸法線
 62
     0
440
 16777216
370
    -2
100
AcDbBlockReference
  2
_OPEN
 10
2799.999896414979
 20
630.0002537190724
 30
0.0
 41
20.0
 42
20.0
 43
20.0
 50
270.0
  0
MTEXT
  5
14C28
330
14493
100
AcDbEntity
  8
寸法線
 62
     0
440
 16777216
100
AcDbMText
 10
2778.749896414979
 20
610.0003709330461
 30
0.0
 40
25.0
 41
0.0
 46
0.0
 71
     5
 72
     1
  1
\A1;40
 11
0.0000000000000001
 21
1.0
 31
0.0
 73
     1
 44
1.0
  0
POINT
  5
14C29
330
14493
100
AcDbEntity
  8
Defpoints
 62
     0
440
 16777216
100
AcDbPoint
 10
2709.999896414979
 20
590.0004881470215
 30
0.0
  0
POINT
  5
14C2A
330
14493
100
AcDbEntity
  8
Defpoints
 62
     0
440
 16777216
100
AcDbPoint
 10
2725.000120199396
 20
630.0002537190724
 30
0.0
  0
POINT
  5
14C2B
330
14493
100
AcDbEntity
  8
Defpoints
 62
     0
440
 16777216
100
AcDbPoint
 10
2799.999896414979
 20
630.0002537190724
 30
0.0
  0
ENDBLK
  5
14495
330
14493
100
AcDbEntity
  8
0
100
AcDbBlockEnd
  0
BLOCK
  5
144A2
330
144A1
100
AcDbEntity
  8
0
100
AcDbBlockBegin
  2
*D32
 70
     1
 10
0.0
 20
0.0
 30
0.0
  3
*D32
  1

  0
LINE
  5
14C2C
330
144A1
100
AcDbEntity
  8
寸法線
 62
     0
440
 16777216
370
    -2
100
AcDbLine
 10
2670.000120199395
 20
566.2502537190721
 30
0.0
 11
2670.000120199395
 21
489.9999828018776
 31
0.0
  0
LINE
  5
14C2D
330
144A1
100
AcDbEntity
  8
寸法線
 62
     0
440
 16777216
370
    -2
100
AcDbLine
 10
2709.999896414979
 20
581.2504881470212
 30
0.0
 11
2709.999896414979
 21
489.9999828018776
 31
0.0
  0
LINE
  5
14C2E
330
144A1
100
AcDbEntity
  8
寸法線
 62
     0
440
 16777216
370
    -2
100
AcDbLine
 10
2650.000120199395
 20
499.9999828018776
 30
0.0
 11
2630.000120199395
 21
499.9999828018776
 31
0.0
  0
LINE
  5
14C2F
330
144A1
100
AcDbEntity
  8
寸法線
 62
     0
440
 16777216
370
    -2
100
AcDbLine
 10
2729.999896414979
 20
499.9999828018776
 30
0.0
 11
2749.999896414978
 21
499.9999828018776
 31
0.0
  0
LINE
  5
14C30
330
144A1
100
AcDbEntity
  8
寸法線
 62
     0
440
 16777216
370
    -2
100
AcDbLine
 10
2670.000120199395
 20
499.9999828018776
 30
0.0
 11
2709.999896414979
 21
499.9999828018776
 31
0.0
  0
INSERT
  5
14C31
330
144A1
100
AcDbEntity
  8
寸法線
 62
     0
440
 16777216
370
    -2
100
AcDbBlockReference
  2
_OPEN
 10
2670.000120199395
 20
499.9999828018776
 30
0.0
 41
20.0
 42
20.0
 43
20.0
  0
INSERT
  5
14C32
330
144A1
100
AcDbEntity
  8
寸法線
 62
     0
440
 16777216
370
    -2
100
AcDbBlockReference
  2
_OPEN
 10
2709.999896414979
 20
499.9999828018776
 30
0.0
 41
20.0
 42
20.0
 43
20.0
 50
180.0
  0
MTEXT
  5
14C33
330
144A1
100
AcDbEntity
  8
寸法線
 62
     0
440
 16777216
100
AcDbMText
 10
2690.000008307187
 20
521.2499828018776
 30
0.0
 40
25.0
 41
0.0
 46
0.0
 71
     5
 72
     1
  1
\A1;40
 73
     1
 44
1.0
  0
POINT
  5
14C34
330
144A1
100
AcDbEntity
  8
Defpoints
 62
     0
440
 16777216
100
AcDbPoint
 10
2670.000120199395
 20
575.0002537190721
 30
0.0
  0
POINT
  5
14C35
330
144A1
100
AcDbEntity
  8
Defpoints
 62
     0
440
 16777216
100
AcDbPoint
 10
2709.999896414979
 20
590.0004881470213
 30
0.0
  0
POINT
  5
14C36
330
144A1
100
AcDbEntity
  8
Defpoints
 62
     0
440
 16777216
100
AcDbPoint
 10
2709.999896414979
 20
499.9999828018776
 30
0.0
  0
ENDBLK
  5
144A3
330
144A1
100
AcDbEntity
  8
0
100
AcDbBlockEnd
  0
BLOCK
  5
144B0
330
144AF
100
AcDbEntity
  8
0
100
AcDbBlockBegin
  2
*D33
 70
     1
 10
0.0
 20
0.0
 30
0.0
  3
*D33
  1

  0
LINE
  5
14C37
330
144AF
100
AcDbEntity
  8
寸法線
 62
     0
440
 16777216
370
    -2
100
AcDbLine
 10
3306.868466038582
 20
877.5779061643735
 30
0.0
 11
3306.243466978216
 21
878.6604384626423
 31
0.0
  0
LINE
  5
14C38
330
144AF
100
AcDbEntity
  8
寸法線
 62
     0
440
 16777216
370
    -2
100
AcDbLine
 10
3073.131218238308
 20
722.422664581703
 30
0.0
 11
3073.756217299615
 21
721.3401322818052
 31
0.0
  0
LINE
  5
14C39
330
144AF
100
AcDbEntity
  8
寸法線
 62
     0
440
 16777216
370
    -2
100
AcDbLine
 10
3293.922942697732
 20
860.0001951240901
 30
0.0
 11
3086.0767415801
 21
740.0003756203575
 31
0.0
  0
INSERT
  5
14C3A
330
144AF
100
AcDbEntity
  8
寸法線
 62
     0
440
 16777216
370
    -2
100
AcDbBlockReference
  2
_OPEN
 10
3311.24345945754
 20
870.0001800827378
 30
0.0
 41
20.0
 42
20.0
 43
20.0
 50
29.99995024362024
  0
INSERT
  5
14C3B
330
144AF
100
AcDbEntity
  8
寸法線
 62
     0
440
 16777216
370
    -2
100
AcDbBlockReference
  2
_OPEN
 10
3068.756224820291
 20
730.0003906617096
 30
0.0
 41
20.0
 42
20.0
 43
20.0
 50
209.9999502436202
  0
MTEXT
  5
14C3C
330
144AF
100
AcDbEntity
  8
寸法線
 62
     0
440
 16777216
100
AcDbMText
 10
3242.999509797762
 20
855.1398118219404
 30
0.0
 40
25.0
 41
0.0
 46
0.0
 71
     5
 72
     1
  1
\A1;φ280
 11
0.8660258379904375
 21
0.4999992479323949
 31
0.0
 73
     1
 44
1.0
  0
POINT
  5
14C3D
330
144AF
100
AcDbEntity
  8
Defpoints
 62
     0
440
 16777216
100
AcDbPoint
 10
3311.24345945799
 20
870.0001800819572
 30
0.0
  0
POINT
  5
14C3E
330
144AF
100
AcDbEntity
  8
Defpoints
 62
     0
440
 16777216
100
AcDbPoint
 10
3068.756224818899
 20
730.0003906641194
 30
0.0
  0
POINT
  5
14C3F
330
144AF
100
AcDbEntity
  8
Defpoints
 62
     0
440
 16777216
100
AcDbPoint
 10
3068.756224820291
 20
730.0003906617096
 30
0.0
  0
ENDBLK
  5
144B1
330
144AF
100
AcDbEntity
  8
0
100
AcDbBlockEnd
  0
BLOCK
  5
144BC
330
144BB
100
AcDbEntity
  8
0
100
AcDbBlockBegin
  2
*D34
 70
     1
 10
0.0
 20
0.0
 30
0.0
  3
*D34
  1

  0
LINE
  5
14C40
330
144BB
100
AcDbEntity
  8
寸法線
 62
     0
440
 16777216
370
    -2
100
AcDbLine
 10
2959.999679308203
 20
561.2501913631549
 30
0.0
 11
2959.999679308203
 21
489.9999828018776
 31
0.0
  0
LINE
  5
14C41
330
144BB
100
AcDbEntity
  8
寸法線
 62
     0
440
 16777216
370
    -2
100
AcDbLine
 10
3419.999896414978
 20
561.250019291152
 30
0.0
 11
3419.999896414978
 21
489.9999828018776
 31
0.0
  0
LINE
  5
14C42
330
144BB
100
AcDbEntity
  8
寸法線
 62
     0
440
 16777216
370
    -2
100
AcDbLine
 10
2979.999679308204
 20
499.9999828018776
 30
0.0
 11
3399.999896414979
 21
499.9999828018776
 31
0.0
  0
INSERT
  5
14C43
330
144BB
100
AcDbEntity
  8
寸法線
 62
     0
440
 16777216
370
    -2
100
AcDbBlockReference
  2
_OPEN
 10
2959.999679308203
 20
499.9999828018776
 30
0.0
 41
20.0
 42
20.0
 43
20.0
 50
180.0
  0
INSERT
  5
14C44
330
144BB
100
AcDbEntity
  8
寸法線
 62
     0
440
 16777216
370
    -2
100
AcDbBlockReference
  2
_OPEN
 10
3419.999896414978
 20
499.9999828018776
 30
0.0
 41
20.0
 42
20.0
 43
20.0
  0
MTEXT
  5
14C45
330
144BB
100
AcDbEntity
  8
寸法線
 62
     0
440
 16777216
100
AcDbMText
 10
3189.999787861591
 20
521.2499828018776
 30
0.0
 40
25.0
 41
0.0
 46
0.0
 71
     5
 72
     1
  1
\A1;460
 73
     1
 44
1.0
  0
POINT
  5
14C46
330
144BB
100
AcDbEntity
  8
Defpoints
 62
     0
440
 16777216
100
AcDbPoint
 10
2959.999679308203
 20
570.0001913631549
 30
0.0
  0
POINT
  5
14C47
330
144BB
100
AcDbEntity
  8
Defpoints
 62
     0
440
 16777216
100
AcDbPoint
 10
3419.999896414978
 20
570.000019291152
 30
0.0
  0
POINT
  5
14C48
330
144BB
100
AcDbEntity
  8
Defpoints
 62
     0
440
 16777216
100
AcDbPoint
 10
3419.999896414978
 20
499.9999828018776
 30
0.0
  0
ENDBLK
  5
144BD
330
144BB
100
AcDbEntity
  8
0
100
AcDbBlockEnd
  0
BLOCK
  5
144C8
330
144C7
100
AcDbEntity
  8
0
100
AcDbBlockBegin
  2
*D35
 70
     1
 10
0.0
 20
0.0
 30
0.0
  3
*D35
  1

  0
LINE
  5
14C49
330
144C7
100
AcDbEntity
  8
寸法線
 62
     0
440
 16777216
370
    -2
100
AcDbLine
 10
3428.749896414981
 20
570.0000192911523
 30
0.0
 11
3499.999896415257
 21
570.0000192911523
 31
0.0
  0
LINE
  5
14C4A
330
144C7
100
AcDbEntity
  8
寸法線
 62
     0
440
 16777216
370
    -2
100
AcDbLine
 10
3428.749896414981
 20
1030.000019291152
 30
0.0
 11
3499.999896415257
 21
1030.000019291152
 31
0.0
  0
LINE
  5
14C4B
330
144C7
100
AcDbEntity
  8
寸法線
 62
     0
440
 16777216
370
    -2
100
AcDbLine
 10
3489.999896415258
 20
590.0000192911522
 30
0.0
 11
3489.999896415258
 21
1010.000019291152
 31
0.0
  0
INSERT
  5
14C4C
330
144C7
100
AcDbEntity
  8
寸法線
 62
     0
440
 16777216
370
    -2
100
AcDbBlockReference
  2
_OPEN
 10
3489.999896415258
 20
570.0000192911523
 30
0.0
 41
20.0
 42
20.0
 43
20.0
 50
270.0
  0
INSERT
  5
14C4D
330
144C7
100
AcDbEntity
  8
寸法線
 62
     0
440
 16777216
370
    -2
100
AcDbBlockReference
  2
_OPEN
 10
3489.999896415258
 20
1030.000019291152
 30
0.0
 41
20.0
 42
20.0
 43
20.0
 50
90.0
  0
MTEXT
  5
14C4E
330
144C7
100
AcDbEntity
  8
寸法線
 62
     0
440
 16777216
100
AcDbMText
 10
3468.749896415257
 20
800.0000192911512
 30
0.0
 40
25.0
 41
0.0
 46
0.0
 71
     5
 72
     1
  1
\A1;460
 11
0.0000000000000001
 21
1.0
 31
0.0
 73
     1
 44
1.0
  0
POINT
  5
14C4F
330
144C7
100
AcDbEntity
  8
Defpoints
 62
     0
440
 16777216
100
AcDbPoint
 10
3419.999896414981
 20
570.0000192911523
 30
0.0
  0
POINT
  5
14C50
330
144C7
100
AcDbEntity
  8
Defpoints
 62
     0
440
 16777216
100
AcDbPoint
 10
3419.999896414981
 20
1030.000019291152
 30
0.0
  0
POINT
  5
14C51
330
144C7
100
AcDbEntity
  8
Defpoints
 62
     0
440
 16777216
100
AcDbPoint
 10
3489.999896415258
 20
1030.000019291152
 30
0.0
  0
ENDBLK
  5
144C9
330
144C7
100
AcDbEntity
  8
0
100
AcDbBlockEnd
  0
BLOCK
  5
144D4
330
144D3
100
AcDbEntity
  8
0
100
AcDbBlockBegin
  2
*D36
 70
     1
 10
0.0
 20
0.0
 30
0.0
  3
*D36
  1

  0
LINE
  5
14C52
330
144D3
100
AcDbEntity
  8
寸法線
 62
     0
440
 16777216
370
    -2
100
AcDbLine
 10
1315.999896414978
 20
1018.749739251643
 30
0.0
 11
1315.999896414978
 21
1109.999509384896
 31
0.0
  0
LINE
  5
14C53
330
144D3
100
AcDbEntity
  8
寸法線
 62
     0
440
 16777216
370
    -2
100
AcDbLine
 10
1691.999948207486
 20
1038.749739251643
 30
0.0
 11
1691.999948207486
 21
1109.999509384896
 31
0.0
  0
LINE
  5
14C54
330
144D3
100
AcDbEntity
  8
寸法線
 62
     0
440
 16777216
370
    -2
100
AcDbLine
 10
1335.999896414979
 20
1099.999509384896
 30
0.0
 11
1671.999948207486
 21
1099.999509384896
 31
0.0
  0
INSERT
  5
14C55
330
144D3
100
AcDbEntity
  8
寸法線
 62
     0
440
 16777216
370
    -2
100
AcDbBlockReference
  2
_OPEN
 10
1315.999896414978
 20
1099.999509384896
 30
0.0
 41
20.0
 42
20.0
 43
20.0
 50
180.0
  0
INSERT
  5
14C56
330
144D3
100
AcDbEntity
  8
寸法線
 62
     0
440
 16777216
370
    -2
100
AcDbBlockReference
  2
_OPEN
 10
1691.999948207486
 20
1099.999509384896
 30
0.0
 41
20.0
 42
20.0
 43
20.0
  0
MTEXT
  5
14C57
330
144D3
100
AcDbEntity
  8
寸法線
 62
     0
440
 16777216
100
AcDbMText
 10
1503.999922311232
 20
1121.249509384896
 30
0.0
 40
25.0
 41
0.0
 46
0.0
 71
     5
 72
     1
  1
\A1;376
 73
     1
 44
1.0
  0
POINT
  5
14C58
330
144D3
100
AcDbEntity
  8
Defpoints
 62
     0
440
 16777216
100
AcDbPoint
 10
1315.999896414978
 20
1009.999739251643
 30
0.0
  0
POINT
  5
14C59
330
144D3
100
AcDbEntity
  8
Defpoints
 62
     0
440
 16777216
100
AcDbPoint
 10
1691.999948207486
 20
1029.999739251643
 30
0.0
  0
POINT
  5
14C5A
330
144D3
100
AcDbEntity
  8
Defpoints
 62
     0
440
 16777216
100
AcDbPoint
 10
1691.999948207486
 20
1099.999509384896
 30
0.0
  0
ENDBLK
  5
144D5
330
144D3
100
AcDbEntity
  8
0
100
AcDbBlockEnd
  0
BLOCK
  5
144E0
330
144DF
100
AcDbEntity
  8
0
100
AcDbBlockBegin
  2
*D37
 70
     1
 10
0.0
 20
0.0
 30
0.0
  3
*D37
  1

  0
LINE
  5
14C5B
330
144DF
100
AcDbEntity
  8
寸法線
 62
     0
440
 16777216
370
    -2
100
AcDbLine
 10
1707.999948207486
 20
1038.749739251643
 30
0.0
 11
1707.999948207486
 21
1109.999509384896
 31
0.0
  0
LINE
  5
14C5C
330
144DF
100
AcDbEntity
  8
寸法線
 62
     0
440
 16777216
370
    -2
100
AcDbLine
 10
2083.999896414979
 20
1018.749739251643
 30
0.0
 11
2083.999896414979
 21
1109.999509384896
 31
0.0
  0
LINE
  5
14C5D
330
144DF
100
AcDbEntity
  8
寸法線
 62
     0
440
 16777216
370
    -2
100
AcDbLine
 10
1727.999948207486
 20
1099.999509384896
 30
0.0
 11
2063.999896414979
 21
1099.999509384896
 31
0.0
  0
INSERT
  5
14C5E
330
144DF
100
AcDbEntity
  8
寸法線
 62
     0
440
 16777216
370
    -2
100
AcDbBlockReference
  2
_OPEN
 10
1707.999948207486
 20
1099.999509384896
 30
0.0
 41
20.0
 42
20.0
 43
20.0
 50
180.0
  0
INSERT
  5
14C5F
330
144DF
100
AcDbEntity
  8
寸法線
 62
     0
440
 16777216
370
    -2
100
AcDbBlockReference
  2
_OPEN
 10
2083.999896414979
 20
1099.999509384896
 30
0.0
 41
20.0
 42
20.0
 43
20.0
  0
MTEXT
  5
14C60
330
144DF
100
AcDbEntity
  8
寸法線
 62
     0
440
 16777216
100
AcDbMText
 10
1895.999922311232
 20
1121.249509384896
 30
0.0
 40
25.0
 41
0.0
 46
0.0
 71
     5
 72
     1
  1
\A1;376
 73
     1
 44
1.0
  0
POINT
  5
14C61
330
144DF
100
AcDbEntity
  8
Defpoints
 62
     0
440
 16777216
100
AcDbPoint
 10
1707.999948207486
 20
1029.999739251643
 30
0.0
  0
POINT
  5
14C62
330
144DF
100
AcDbEntity
  8
Defpoints
 62
     0
440
 16777216
100
AcDbPoint
 10
2083.999896414979
 20
1009.999739251643
 30
0.0
  0
POINT
  5
14C63
330
144DF
100
AcDbEntity
  8
Defpoints
 62
     0
440
 16777216
100
AcDbPoint
 10
2083.999896414979
 20
1099.999509384896
 30
0.0
  0
ENDBLK
  5
144E1
330
144DF
100
AcDbEntity
  8
0
100
AcDbBlockEnd
  0
BLOCK
  5
144EC
330
144EB
100
AcDbEntity
  8
0
100
AcDbBlockBegin
  2
*D38
 70
     1
 10
0.0
 20
0.0
 30
0.0
  3
*D38
  1

  0
LINE
  5
14C64
330
144EB
100
AcDbEntity
  8
寸法線
 62
     0
440
 16777216
370
    -2
100
AcDbLine
 10
1691.999948207486
 20
1038.749739251643
 30
0.0
 11
1691.999948207486
 21
1109.999509384896
 31
0.0
  0
LINE
  5
14C65
330
144EB
100
AcDbEntity
  8
寸法線
 62
     0
440
 16777216
370
    -2
100
AcDbLine
 10
1707.999948207486
 20
1038.749739251643
 30
0.0
 11
1707.999948207486
 21
1109.999509384896
 31
0.0
  0
LINE
  5
14C66
330
144EB
100
AcDbEntity
  8
寸法線
 62
     0
440
 16777216
370
    -2
100
AcDbLine
 10
1671.999948207486
 20
1099.999509384896
 30
0.0
 11
1651.999948207486
 21
1099.999509384896
 31
0.0
  0
LINE
  5
14C67
330
144EB
100
AcDbEntity
  8
寸法線
 62
     0
440
 16777216
370
    -2
100
AcDbLine
 10
1727.999948207486
 20
1099.999509384896
 30
0.0
 11
1747.999948207486
 21
1099.999509384896
 31
0.0
  0
LINE
  5
14C68
330
144EB
100
AcDbEntity
  8
寸法線
 62
     0
440
 16777216
370
    -2
100
AcDbLine
 10
1691.999948207486
 20
1099.999509384896
 30
0.0
 11
1707.999948207486
 21
1099.999509384896
 31
0.0
  0
INSERT
  5
14C69
330
144EB
100
AcDbEntity
  8
寸法線
 62
     0
440
 16777216
370
    -2
100
AcDbBlockReference
  2
_OPEN
 10
1691.999948207486
 20
1099.999509384896
 30
0.0
 41
20.0
 42
20.0
 43
20.0
  0
INSERT
  5
14C6A
330
144EB
100
AcDbEntity
  8
寸法線
 62
     0
440
 16777216
370
    -2
100
AcDbBlockReference
  2
_OPEN
 10
1707.999948207486
 20
1099.999509384896
 30
0.0
 41
20.0
 42
20.0
 43
20.0
 50
180.0
  0
MTEXT
  5
14C6B
330
144EB
100
AcDbEntity
  8
寸法線
 62
     0
440
 16777216
100
AcDbMText
 10
1699.999948207486
 20
1121.249509384896
 30
0.0
 40
25.0
 41
0.0
 46
0.0
 71
     5
 72
     1
  1
\A1;16
 73
     1
 44
1.0
  0
POINT
  5
14C6C
330
144EB
100
AcDbEntity
  8
Defpoints
 62
     0
440
 16777216
100
AcDbPoint
 10
1691.999948207486
 20
1029.999739251643
 30
0.0
  0
POINT
  5
14C6D
330
144EB
100
AcDbEntity
  8
Defpoints
 62
     0
440
 16777216
100
AcDbPoint
 10
1707.999948207486
 20
1029.999739251643
 30
0.0
  0
POINT
  5
14C6E
330
144EB
100
AcDbEntity
  8
Defpoints
 62
     0
440
 16777216
100
AcDbPoint
 10
1707.999948207486
 20
1099.999509384896
 30
0.0
  0
ENDBLK
  5
144ED
330
144EB
100
AcDbEntity
  8
0
100
AcDbBlockEnd
  0
BLOCK
  5
14746
330
14745
100
AcDbEntity
  8
0
100
AcDbBlockBegin
  2
*D39
 70
     1
 10
0.0
 20
0.0
 30
0.0
  3
*D39
  1

  0
LINE
  5
14C6F
330
14745
100
AcDbEntity
  8
寸法線
 62
     0
440
 16777216
370
    -2
100
AcDbLine
 10
2658.750226983164
 20
2436.000042816987
 30
0.0
 11
2780.000226983163
 21
2436.000042816987
 31
0.0
  0
LINE
  5
14C70
330
14745
100
AcDbEntity
  8
寸法線
 62
     0
440
 16777216
370
    -2
100
AcDbLine
 10
2658.750226983164
 20
2054.000042816986
 30
0.0
 11
2780.000226983163
 21
2054.000042816986
 31
0.0
  0
LINE
  5
14C71
330
14745
100
AcDbEntity
  8
寸法線
 62
     0
440
 16777216
370
    -2
100
AcDbLine
 10
2770.000226983162
 20
2416.000042816987
 30
0.0
 11
2770.000226983162
 21
2074.000042816986
 31
0.0
  0
INSERT
  5
14C72
330
14745
100
AcDbEntity
  8
寸法線
 62
     0
440
 16777216
370
    -2
100
AcDbBlockReference
  2
_OPEN
 10
2770.000226983162
 20
2436.000042816987
 30
0.0
 41
20.0
 42
20.0
 43
20.0
 50
90.0
  0
INSERT
  5
14C73
330
14745
100
AcDbEntity
  8
寸法線
 62
     0
440
 16777216
370
    -2
100
AcDbBlockReference
  2
_OPEN
 10
2770.000226983162
 20
2054.000042816986
 30
0.0
 41
20.0
 42
20.0
 43
20.0
 50
270.0
  0
MTEXT
  5
14C74
330
14745
100
AcDbEntity
  8
寸法線
 62
     0
440
 16777216
100
AcDbMText
 10
2748.747766353242
 20
2245.000005597312
 30
0.0
 40
25.0
 41
0.0
 46
0.0
 71
     5
 72
     1
  1
\A1;382
 11
0.0000000000000001
 21
1.0
 31
0.0
 73
     1
 44
1.0
  0
POINT
  5
14C75
330
14745
100
AcDbEntity
  8
Defpoints
 62
     0
440
 16777216
100
AcDbPoint
 10
2650.000226983164
 20
2436.000042816987
 30
0.0
  0
POINT
  5
14C76
330
14745
100
AcDbEntity
  8
Defpoints
 62
     0
440
 16777216
100
AcDbPoint
 10
2650.000226983164
 20
2054.000042816986
 30
0.0
  0
POINT
  5
14C77
330
14745
100
AcDbEntity
  8
Defpoints
 62
     0
440
 16777216
100
AcDbPoint
 10
2770.000226983162
 20
2054.000042816986
 30
0.0
  0
ENDBLK
  5
14747
330
14745
100
AcDbEntity
  8
0
100
AcDbBlockEnd
  0
BLOCK
  5
14ACF
330
14ACE
100
AcDbEntity
  8
0
100
AcDbBlockBegin
  2
*D40
 70
     1
 10
0.0
 20
0.0
 30
0.0
  3
*D40
  1

  0
LINE
  5
14C78
330
14ACE
100
AcDbEntity
  8
寸法線
 62
     0
440
 16777216
370
    -2
100
AcDbLine
 10
3549.999999999969
 20
2036.249967566691
 30
0.0
 11
3549.999999999969
 21
1914.999967566691
 31
0.0
  0
LINE
  5
14C79
330
14ACE
100
AcDbEntity
  8
寸法線
 62
     0
440
 16777216
370
    -2
100
AcDbLine
 10
3149.999999999969
 20
2036.249967566691
 30
0.0
 11
3149.999999999969
 21
1914.999967566691
 31
0.0
  0
LINE
  5
14C7A
330
14ACE
100
AcDbEntity
  8
寸法線
 62
     0
440
 16777216
370
    -2
100
AcDbLine
 10
3529.999999999969
 20
1924.999967566691
 30
0.0
 11
3169.999999999969
 21
1924.999967566691
 31
0.0
  0
INSERT
  5
14C7B
330
14ACE
100
AcDbEntity
  8
寸法線
 62
     0
440
 16777216
370
    -2
100
AcDbBlockReference
  2
_OPEN
 10
3549.999999999969
 20
1924.999967566691
 30
0.0
 41
20.0
 42
20.0
 43
20.0
  0
INSERT
  5
14C7C
330
14ACE
100
AcDbEntity
  8
寸法線
 62
     0
440
 16777216
370
    -2
100
AcDbBlockReference
  2
_OPEN
 10
3149.999999999969
 20
1924.999967566691
 30
0.0
 41
20.0
 42
20.0
 43
20.0
 50
180.0
  0
MTEXT
  5
14C7D
330
14ACE
100
AcDbEntity
  8
寸法線
 62
     0
440
 16777216
100
AcDbMText
 10
3349.99999999997
 20
1946.249967566691
 30
0.0
 40
25.0
 41
0.0
 46
0.0
 71
     5
 72
     1
  1
\A1;400
 73
     1
 44
1.0
  0
POINT
  5
14C7E
330
14ACE
100
AcDbEntity
  8
Defpoints
 62
     0
440
 16777216
100
AcDbPoint
 10
3549.999999999969
 20
2044.999967566691
 30
0.0
  0
POINT
  5
14C7F
330
14ACE
100
AcDbEntity
  8
Defpoints
 62
     0
440
 16777216
100
AcDbPoint
 10
3149.999999999969
 20
2044.999967566691
 30
0.0
  0
POINT
  5
14C80
330
14ACE
100
AcDbEntity
  8
Defpoints
 62
     0
440
 16777216
100
AcDbPoint
 10
3149.999999999969
 20
1924.999967566691
 30
0.0
  0
ENDBLK
  5
14AD0
330
14ACE
100
AcDbEntity
  8
0
100
AcDbBlockEnd
  0
BLOCK
  5
14ADB
330
14ADA
100
AcDbEntity
  8
0
100
AcDbBlockBegin
  2
*D41
 70
     1
 10
0.0
 20
0.0
 30
0.0
  3
*D41
  1

  0
LINE
  5
14C81
330
14ADA
100
AcDbEntity
  8
寸法線
 62
     0
440
 16777216
370
    -2
100
AcDbLine
 10
3141.249999999969
 20
2445.00000719291
 30
0.0
 11
3019.999999999967
 21
2445.000007192909
 31
0.0
  0
LINE
  5
14C82
330
14ADA
100
AcDbEntity
  8
寸法線
 62
     0
440
 16777216
370
    -2
100
AcDbLine
 10
3141.249999999969
 20
2045.000007192909
 30
0.0
 11
3019.999999999967
 21
2045.000007192909
 31
0.0
  0
LINE
  5
14C83
330
14ADA
100
AcDbEntity
  8
寸法線
 62
     0
440
 16777216
370
    -2
100
AcDbLine
 10
3029.999999999967
 20
2425.000007192909
 30
0.0
 11
3029.999999999967
 21
2065.000007192909
 31
0.0
  0
INSERT
  5
14C84
330
14ADA
100
AcDbEntity
  8
寸法線
 62
     0
440
 16777216
370
    -2
100
AcDbBlockReference
  2
_OPEN
 10
3029.999999999967
 20
2445.000007192909
 30
0.0
 41
20.0
 42
20.0
 43
20.0
 50
90.0
  0
INSERT
  5
14C85
330
14ADA
100
AcDbEntity
  8
寸法線
 62
     0
440
 16777216
370
    -2
100
AcDbBlockReference
  2
_OPEN
 10
3029.999999999967
 20
2045.000007192909
 30
0.0
 41
20.0
 42
20.0
 43
20.0
 50
270.0
  0
MTEXT
  5
14C86
330
14ADA
100
AcDbEntity
  8
寸法線
 62
     0
440
 16777216
100
AcDbMText
 10
3008.749999999967
 20
2244.9999873798
 30
0.0
 40
25.0
 41
0.0
 46
0.0
 71
     5
 72
     1
  1
\A1;400
 11
0.0000000000000001
 21
1.0
 31
0.0
 73
     1
 44
1.0
  0
POINT
  5
14C87
330
14ADA
100
AcDbEntity
  8
Defpoints
 62
     0
440
 16777216
100
AcDbPoint
 10
3149.999999999969
 20
2445.00000719291
 30
0.0
  0
POINT
  5
14C88
330
14ADA
100
AcDbEntity
  8
Defpoints
 62
     0
440
 16777216
100
AcDbPoint
 10
3149.999999999969
 20
2045.000007192909
 30
0.0
  0
POINT
  5
14C89
330
14ADA
100
AcDbEntity
  8
Defpoints
 62
     0
440
 16777216
100
AcDbPoint
 10
3029.999999999967
 20
2045.000007192909
 30
0.0
  0
ENDBLK
  5
14ADC
330
14ADA
100
AcDbEntity
  8
0
100
AcDbBlockEnd
  0
ENDSEC
  0
SECTION
  2
ENTITIES
  0
LWPOLYLINE
  5
14078
330
1F
100
AcDbEntity
  8
Defpoints
100
AcDbPolyline
 90
        4
 70
     1
 43
0.0
 10
0.0
 20
0.0
 10
4200.0
 20
0.0
 10
4200.0
 20
2970.0
 10
0.0
 20
2970.0
  0
LWPOLYLINE
  5
14079
330
1F
100
AcDbEntity
  8
Defpoints
100
AcDbPolyline
 90
        4
 70
     1
 43
0.0
 10
69.0039999999999
 20
69.10750000000007
 10
4130.995999999998
 20
69.10750000000007
 10
4130.995999999998
 20
2900.8925
 10
69.0039999999999
 20
2900.8925
  0
LINE
  5
1407A
330
1F
100
AcDbEntity
  8
中心線
100
AcDbLine
 10
725.0000000000014
 20
1645.000023856445
 30
0.0
 11
2675.000000000002
 21
1645.000023597886
 31
0.0
  0
DIMENSION
  5
1407B
330
1F
100
AcDbEntity
  8
寸法線
100
AcDbDimension
280
     0
  2
*D8
 10
2100.000000000001
 20
1285.000023602055
 30
0.0
 11
1700.000000000001
 21
1306.250023602055
 31
0.0
 70
    32
 71
     5
 42
800.0
 73
     0
 74
     0
 75
     0
  3
STANDARD
100
AcDbAlignedDimension
 13
1300.000000000001
 23
1435.000014479739
 33
0.0
 14
2100.000000000001
 24
1435.000014479739
 34
0.0
100
AcDbRotatedDimension
  0
DIMENSION
  5
1407C
330
1F
100
AcDbEntity
  8
寸法線
100
AcDbDimension
280
     0
  2
*D9
 10
1299.999980186892
 20
1285.000023602055
 30
0.0
 11
1024.999980186892
 21
1285.000023602055
 31
0.0
 70
   160
 71
     5
 42
550.0
 73
     0
 74
     0
 75
     0
  3
STANDARD
100
AcDbAlignedDimension
 13
749.9999801868921
 23
1445.000023602055
 33
0.0
 14
1299.999980186892
 24
1435.000060821729
 34
0.0
100
AcDbRotatedDimension
  0
DIMENSION
  5
1407D
330
1F
100
AcDbEntity
  8
寸法線
100
AcDbDimension
280
     0
  2
*D10
 10
629.9999801868917
 20
1445.000023602055
 30
0.0
 11
629.9999801868921
 21
1645.000023602055
 31
0.0
 70
   160
 71
     5
 42
400.0000000000002
 73
     0
 74
     0
 75
     0
  3
STANDARD
100
AcDbAlignedDimension
 13
749.9999801868921
 23
1845.000023602055
 33
0.0
 14
749.9999801868921
 24
1445.000023602055
 34
0.0
 50
90.0
100
AcDbRotatedDimension
  0
DIMENSION
  5
1407E
330
1F
100
AcDbEntity
  8
寸法線
100
AcDbDimension
280
     0
  2
*D11
 10
768.9999801868921
 20
2605.000005597312
 30
0.0
 11
759.4999801868921
 21
2605.000005597312
 31
0.0
 70
   160
 71
     5
 42
19.0
 73
     0
 74
     0
 75
     0
  3
STANDARD
100
AcDbAlignedDimension
 13
749.9999801868921
 23
2436.000042816985
 33
0.0
 14
768.9999801868921
 24
2445.000005597311
 34
0.0
100
AcDbRotatedDimension
  0
DIMENSION
  5
1407F
330
1F
100
AcDbEntity
  8
寸法線
100
AcDbDimension
280
     0
  2
*D12
 10
1299.999980186892
 20
2605.000005597312
 30
0.0
 11
1034.499980186892
 21
2605.000005597312
 31
0.0
 70
   160
 71
     5
 42
531.0
 73
     0
 74
     0
 75
     0
  3
STANDARD
100
AcDbAlignedDimension
 13
768.9999801868921
 23
2445.000005597311
 33
0.0
 14
1299.999980186892
 24
2455.000042816986
 34
0.0
100
AcDbRotatedDimension
  0
DIMENSION
  5
14080
330
1F
100
AcDbEntity
  8
寸法線
100
AcDbDimension
280
     0
  2
*D13
 10
629.9999801868916
 20
2045.000005597311
 30
0.0
 11
629.9999801868921
 21
2245.000005597311
 31
0.0
 70
   160
 71
     5
 42
400.0000000000011
 73
     0
 74
     0
 75
     0
  3
STANDARD
100
AcDbAlignedDimension
 13
768.9999801868921
 23
2445.000005597311
 33
0.0
 14
768.9999801868921
 24
2045.00000559731
 34
0.0
 50
90.0
100
AcDbRotatedDimension
  0
DIMENSION
  5
14081
330
1F
100
AcDbEntity
  8
寸法線
100
AcDbDimension
280
     0
  2
*D14
 10
1299.999980186892
 20
2685.000005597312
 30
0.0
 11
1024.999980186892
 21
2685.000005597312
 31
0.0
 70
   160
  1
<>\XH型鋼（連結部）
 71
     5
 42
550.0
 73
     0
 74
     0
 75
     0
  3
STANDARD
100
AcDbAlignedDimension
 13
749.9999801868921
 23
2436.000042816985
 33
0.0
 14
1299.999980186892
 24
2455.000042816986
 34
0.0
100
AcDbRotatedDimension
  0
LINE
  5
14082
330
1F
100
AcDbEntity
  8
中心線
100
AcDbLine
 10
725.0000000000014
 20
2245.000005232411
 30
0.0
 11
2675.000226983165
 21
2245.000043433123
 31
0.0
  0
DIMENSION
  5
14083
330
1F
100
AcDbEntity
  8
寸法線
100
AcDbDimension
280
     0
  2
*D15
 10
2100.000000000001
 20
2685.000005597312
 30
0.0
 11
1700.000000000001
 21
2685.000005597312
 31
0.0
 70
    32
  1
W=<>\X空洞金具
 71
     5
 42
800.0
 73
     0
 74
     0
 75
     0
  3
STANDARD
100
AcDbAlignedDimension
 13
1300.000000000001
 23
2455.000019403641
 33
0.0
 14
2100.000000000001
 24
2454.999996474995
 34
0.0
100
AcDbRotatedDimension
  0
DIMENSION
  5
14084
330
1F
100
AcDbEntity
  8
寸法線
100
AcDbDimension
280
     0
  2
*D16
 10
2649.999999999971
 20
2765.000005597312
 30
0.0
 11
1700.0
 21
2786.250005597312
 31
0.0
 70
    32
  1
スルーサーＢ L=<>
 71
     5
 42
1899.99999999994
 73
     0
 74
     0
 75
     0
  3
STANDARD
100
AcDbAlignedDimension
 13
750.0000000000304
 23
2436.000019403656
 33
0.0
 14
2649.999999999971
 24
2436.000005597326
 34
0.0
100
AcDbRotatedDimension
  0
LINE
  5
14085
330
1F
100
AcDbEntity
  8
実線
100
AcDbLine
 10
1300.000000000001
 20
1855.000014479739
 30
0.0
 11
1316.000000000001
 21
1855.000014479739
 31
0.0
  0
LINE
  5
14086
330
1F
100
AcDbEntity
  8
実線
100
AcDbLine
 10
1348.000000000001
 20
1502.00003272437
 30
0.0
 11
1348.000000000001
 21
1788.000032724371
 31
0.0
  0
LINE
  5
14087
330
1F
100
AcDbEntity
  8
実線
100
AcDbLine
 10
1708.000000000001
 20
1785.00001447974
 30
0.0
 11
2052.000103585027
 21
1785.000014479739
 31
0.0
  0
LINE
  5
14088
330
1F
100
AcDbEntity
  8
実線
100
AcDbLine
 10
1708.000000000001
 20
1845.00001447974
 30
0.0
 11
2084.000103585027
 21
1845.00001447974
 31
0.0
  0
LINE
  5
14089
330
1F
100
AcDbEntity
  8
破線
100
AcDbLine
 10
1316.000000000001
 20
1829.000014479739
 30
0.0
 11
1348.000000000001
 21
1829.000014479739
 31
0.0
  0
LINE
  5
1408A
330
1F
100
AcDbEntity
  8
破線
100
AcDbLine
 10
1348.000000000001
 20
1829.000032724371
 30
0.0
 11
1348.000000000001
 21
1845.00001447974
 31
0.0
  0
LINE
  5
1408B
330
1F
100
AcDbEntity
  8
破線
100
AcDbLine
 10
1325.000000000001
 20
1785.000014479739
 30
0.0
 11
1348.000000000001
 21
1785.000014479739
 31
0.0
  0
LINE
  5
1408C
330
1F
100
AcDbEntity
  8
実線
100
AcDbLine
 10
1328.000000000001
 20
1788.000014479739
 30
0.0
 11
1348.000000000001
 21
1788.000014479739
 31
0.0
  0
LINE
  5
1408D
330
1F
100
AcDbEntity
  8
実線
100
AcDbLine
 10
1316.000000000001
 20
1776.000014479739
 30
0.0
 11
1328.000000000001
 21
1788.000014479739
 31
0.0
  0
LINE
  5
1408E
330
1F
100
AcDbEntity
  8
実線
100
AcDbLine
 10
1316.000000000001
 20
1785.000014479739
 30
0.0
 11
1325.000000000001
 21
1785.000014479739
 31
0.0
  0
LINE
  5
1408F
330
1F
100
AcDbEntity
  8
破線
100
AcDbLine
 10
2052.000000000001
 20
1829.000032724371
 30
0.0
 11
2052.000000000001
 21
1845.00001447974
 31
0.0
  0
LINE
  5
14090
330
1F
100
AcDbEntity
  8
破線
100
AcDbLine
 10
2084.000000000001
 20
1829.000014479739
 30
0.0
 11
2052.000000000001
 21
1829.000014479739
 31
0.0
  0
LINE
  5
14091
330
1F
100
AcDbEntity
  8
破線
100
AcDbLine
 10
1316.000000000001
 20
1653.000014479739
 30
0.0
 11
1348.000000000001
 21
1653.000014479739
 31
0.0
  0
LINE
  5
14092
330
1F
100
AcDbEntity
  8
破線
100
AcDbLine
 10
1316.000000000001
 20
1637.000014479739
 30
0.0
 11
1348.000000000001
 21
1637.000014479739
 31
0.0
  0
LINE
  5
14093
330
1F
100
AcDbEntity
  8
破線
100
AcDbLine
 10
2052.000000000001
 20
1653.000014479739
 30
0.0
 11
2084.000000000001
 21
1653.000014479739
 31
0.0
  0
LINE
  5
14094
330
1F
100
AcDbEntity
  8
破線
100
AcDbLine
 10
2052.000000000001
 20
1637.000014479739
 30
0.0
 11
2084.000000000001
 21
1637.000014479739
 31
0.0
  0
LINE
  5
14095
330
1F
100
AcDbEntity
  8
実線
100
AcDbLine
 10
2084.000000000001
 20
1855.000014479739
 30
0.0
 11
2100.000000000001
 21
1855.000014479739
 31
0.0
  0
LINE
  5
14096
330
1F
100
AcDbEntity
  8
実線
100
AcDbLine
 10
1316.000000000001
 20
1435.00003272437
 30
0.0
 11
1316.000000000001
 21
1855.000014479739
 31
0.0
  0
LINE
  5
14097
330
1F
100
AcDbEntity
  8
実線
100
AcDbLine
 10
2084.000000000001
 20
1435.00003272437
 30
0.0
 11
2084.000000000001
 21
1855.000014479739
 31
0.0
  0
LINE
  5
14098
330
1F
100
AcDbEntity
  8
実線
100
AcDbLine
 10
1300.000000000001
 20
1435.000014479739
 30
0.0
 11
1316.000000000001
 21
1435.000014479739
 31
0.0
  0
LINE
  5
14099
330
1F
100
AcDbEntity
  8
実線
100
AcDbLine
 10
1708.000000000001
 20
1505.00001447974
 30
0.0
 11
2052.000103585027
 21
1505.000014479739
 31
0.0
  0
LINE
  5
1409A
330
1F
100
AcDbEntity
  8
実線
100
AcDbLine
 10
1708.000000000001
 20
1445.00001447974
 30
0.0
 11
2084.000103585027
 21
1445.000014479739
 31
0.0
  0
LINE
  5
1409B
330
1F
100
AcDbEntity
  8
破線
100
AcDbLine
 10
1316.000000000001
 20
1461.000014479739
 30
0.0
 11
1348.000000000001
 21
1461.000014479739
 31
0.0
  0
LINE
  5
1409C
330
1F
100
AcDbEntity
  8
破線
100
AcDbLine
 10
1348.000000000001
 20
1460.999996235108
 30
0.0
 11
1348.000000000001
 21
1445.000014479739
 31
0.0
  0
LINE
  5
1409D
330
1F
100
AcDbEntity
  8
破線
100
AcDbLine
 10
1325.000000000001
 20
1505.000014479739
 30
0.0
 11
1348.000000000001
 21
1505.000014479739
 31
0.0
  0
LINE
  5
1409E
330
1F
100
AcDbEntity
  8
実線
100
AcDbLine
 10
1328.000000000001
 20
1502.000014479739
 30
0.0
 11
1348.000000000001
 21
1502.000014479739
 31
0.0
  0
LINE
  5
1409F
330
1F
100
AcDbEntity
  8
実線
100
AcDbLine
 10
1316.000000000001
 20
1514.000014479739
 30
0.0
 11
1328.000000000001
 21
1502.000014479739
 31
0.0
  0
LINE
  5
140A0
330
1F
100
AcDbEntity
  8
実線
100
AcDbLine
 10
1316.000000000001
 20
1505.000014479739
 30
0.0
 11
1325.000000000001
 21
1505.000014479739
 31
0.0
  0
LINE
  5
140A1
330
1F
100
AcDbEntity
  8
破線
100
AcDbLine
 10
2052.000000000001
 20
1460.999996235108
 30
0.0
 11
2052.000000000001
 21
1445.000014479739
 31
0.0
  0
LINE
  5
140A2
330
1F
100
AcDbEntity
  8
破線
100
AcDbLine
 10
2084.000000000001
 20
1461.000014479739
 30
0.0
 11
2052.000000000001
 21
1461.000014479739
 31
0.0
  0
LINE
  5
140A3
330
1F
100
AcDbEntity
  8
実線
100
AcDbLine
 10
2084.000000000001
 20
1435.000014479739
 30
0.0
 11
2100.000000000001
 21
1435.000014479739
 31
0.0
  0
LINE
  5
140A4
330
1F
100
AcDbEntity
  8
実線
100
AcDbLine
 10
2052.000103585027
 20
1502.00003272437
 30
0.0
 11
2052.000103585027
 21
1788.000032724371
 31
0.0
  0
LINE
  5
140A5
330
1F
100
AcDbEntity
  8
破線
100
AcDbLine
 10
2075.000103585027
 20
1785.000014479739
 30
0.0
 11
2052.000103585027
 21
1785.000014479739
 31
0.0
  0
LINE
  5
140A6
330
1F
100
AcDbEntity
  8
実線
100
AcDbLine
 10
2072.000103585029
 20
1788.000014479739
 30
0.0
 11
2052.000103585027
 21
1788.000014479739
 31
0.0
  0
LINE
  5
140A7
330
1F
100
AcDbEntity
  8
実線
100
AcDbLine
 10
2084.000103585027
 20
1776.000014479739
 30
0.0
 11
2072.000103585029
 21
1788.000014479739
 31
0.0
  0
LINE
  5
140A8
330
1F
100
AcDbEntity
  8
実線
100
AcDbLine
 10
2084.000103585027
 20
1785.000014479739
 30
0.0
 11
2075.000103585027
 21
1785.000014479739
 31
0.0
  0
LINE
  5
140A9
330
1F
100
AcDbEntity
  8
破線
100
AcDbLine
 10
2075.000103585027
 20
1505.000014479739
 30
0.0
 11
2052.000103585027
 21
1505.000014479739
 31
0.0
  0
LINE
  5
140AA
330
1F
100
AcDbEntity
  8
実線
100
AcDbLine
 10
2072.000103585029
 20
1502.000014479739
 30
0.0
 11
2052.000103585027
 21
1502.000014479739
 31
0.0
  0
LINE
  5
140AB
330
1F
100
AcDbEntity
  8
実線
100
AcDbLine
 10
2084.000103585027
 20
1514.000014479739
 30
0.0
 11
2072.000103585029
 21
1502.000014479739
 31
0.0
  0
LINE
  5
140AC
330
1F
100
AcDbEntity
  8
実線
100
AcDbLine
 10
2084.000103585027
 20
1505.000014479739
 30
0.0
 11
2075.000103585027
 21
1505.000014479739
 31
0.0
  0
LINE
  5
140AD
330
1F
100
AcDbEntity
  8
実線
100
AcDbLine
 10
1300.000000000001
 20
2035.000014719626
 30
0.0
 11
1300.000000000001
 21
2455.000019403641
 31
0.0
  0
LINE
  5
140AE
330
1F
100
AcDbEntity
  8
実線
100
AcDbLine
 10
1300.000000000001
 20
2454.999996474996
 30
0.0
 11
1316.000000000001
 21
2454.999996474996
 31
0.0
  0
LINE
  5
140AF
330
1F
100
AcDbEntity
  8
実線
100
AcDbLine
 10
1348.000000000001
 20
2102.000014719627
 30
0.0
 11
1348.000000000001
 21
2388.000014719627
 31
0.0
  0
LINE
  5
140B0
330
1F
100
AcDbEntity
  8
実線
100
AcDbLine
 10
1708.000000000001
 20
2384.999996474997
 30
0.0
 11
2052.000103585027
 21
2384.999996474995
 31
0.0
  0
LINE
  5
140B1
330
1F
100
AcDbEntity
  8
実線
100
AcDbLine
 10
1708.000000000001
 20
2444.999996474996
 30
0.0
 11
2084.000103585027
 21
2444.999996474996
 31
0.0
  0
LINE
  5
140B2
330
1F
100
AcDbEntity
  8
破線
100
AcDbLine
 10
1316.000000000001
 20
2428.999996474996
 30
0.0
 11
1348.000000000001
 21
2428.999996474996
 31
0.0
  0
LINE
  5
140B3
330
1F
100
AcDbEntity
  8
破線
100
AcDbLine
 10
1348.000000000001
 20
2429.000014719627
 30
0.0
 11
1348.000000000001
 21
2444.999996474996
 31
0.0
  0
LINE
  5
140B4
330
1F
100
AcDbEntity
  8
破線
100
AcDbLine
 10
1325.000000000001
 20
2384.999996474995
 30
0.0
 11
1348.000000000001
 21
2384.999996474995
 31
0.0
  0
LINE
  5
140B5
330
1F
100
AcDbEntity
  8
実線
100
AcDbLine
 10
1328.000000000001
 20
2387.999996474996
 30
0.0
 11
1348.000000000001
 21
2387.999996474996
 31
0.0
  0
LINE
  5
140B6
330
1F
100
AcDbEntity
  8
実線
100
AcDbLine
 10
1316.000000000001
 20
2375.999996474996
 30
0.0
 11
1328.000000000001
 21
2387.999996474996
 31
0.0
  0
LINE
  5
140B7
330
1F
100
AcDbEntity
  8
実線
100
AcDbLine
 10
1316.000000000001
 20
2384.999996474995
 30
0.0
 11
1325.000000000001
 21
2384.999996474995
 31
0.0
  0
LINE
  5
140B8
330
1F
100
AcDbEntity
  8
破線
100
AcDbLine
 10
2052.000000000001
 20
2429.000014719627
 30
0.0
 11
2052.000000000001
 21
2444.999996474996
 31
0.0
  0
LINE
  5
140B9
330
1F
100
AcDbEntity
  8
破線
100
AcDbLine
 10
2084.000000000001
 20
2428.999996474996
 30
0.0
 11
2052.000000000001
 21
2428.999996474996
 31
0.0
  0
LINE
  5
140BA
330
1F
100
AcDbEntity
  8
破線
100
AcDbLine
 10
1316.000000000001
 20
2252.999996474995
 30
0.0
 11
1348.000000000001
 21
2252.999996474995
 31
0.0
  0
LINE
  5
140BB
330
1F
100
AcDbEntity
  8
破線
100
AcDbLine
 10
1316.000000000001
 20
2236.999996474995
 30
0.0
 11
1348.000000000001
 21
2236.999996474995
 31
0.0
  0
LINE
  5
140BC
330
1F
100
AcDbEntity
  8
破線
100
AcDbLine
 10
2052.000000000001
 20
2252.999996474995
 30
0.0
 11
2084.000000000001
 21
2252.999996474995
 31
0.0
  0
LINE
  5
140BD
330
1F
100
AcDbEntity
  8
破線
100
AcDbLine
 10
2052.000000000001
 20
2236.999996474995
 30
0.0
 11
2084.000000000001
 21
2236.999996474995
 31
0.0
  0
LINE
  5
140BE
330
1F
100
AcDbEntity
  8
実線
100
AcDbLine
 10
2084.000000000001
 20
2454.999996474996
 30
0.0
 11
2100.000000000001
 21
2454.999996474996
 31
0.0
  0
LINE
  5
140BF
330
1F
100
AcDbEntity
  8
実線
100
AcDbLine
 10
1316.000000000001
 20
2035.000014719626
 30
0.0
 11
1316.000000000001
 21
2454.999996474996
 31
0.0
  0
LINE
  5
140C0
330
1F
100
AcDbEntity
  8
実線
100
AcDbLine
 10
2084.000000000001
 20
2035.000014719626
 30
0.0
 11
2084.000000000001
 21
2454.999996474996
 31
0.0
  0
LINE
  5
140C1
330
1F
100
AcDbEntity
  8
実線
100
AcDbLine
 10
1300.000000000001
 20
2034.999996474995
 30
0.0
 11
1316.000000000001
 21
2034.999996474995
 31
0.0
  0
LINE
  5
140C2
330
1F
100
AcDbEntity
  8
実線
100
AcDbLine
 10
1708.000000000001
 20
2104.999996474996
 30
0.0
 11
2052.000103585027
 21
2104.999996474996
 31
0.0
  0
LINE
  5
140C3
330
1F
100
AcDbEntity
  8
実線
100
AcDbLine
 10
1708.000000000001
 20
2044.999996474996
 30
0.0
 11
2084.000103585027
 21
2044.999996474996
 31
0.0
  0
LINE
  5
140C4
330
1F
100
AcDbEntity
  8
破線
100
AcDbLine
 10
1316.000000000001
 20
2060.999996474996
 30
0.0
 11
1348.000000000001
 21
2060.999996474996
 31
0.0
  0
LINE
  5
140C5
330
1F
100
AcDbEntity
  8
破線
100
AcDbLine
 10
1348.000000000001
 20
2060.999978230364
 30
0.0
 11
1348.000000000001
 21
2044.999996474996
 31
0.0
  0
LINE
  5
140C6
330
1F
100
AcDbEntity
  8
破線
100
AcDbLine
 10
1325.000000000001
 20
2104.999996474996
 30
0.0
 11
1348.000000000001
 21
2104.999996474996
 31
0.0
  0
LINE
  5
140C7
330
1F
100
AcDbEntity
  8
実線
100
AcDbLine
 10
1328.000000000001
 20
2101.999996474996
 30
0.0
 11
1348.000000000001
 21
2101.999996474996
 31
0.0
  0
LINE
  5
140C8
330
1F
100
AcDbEntity
  8
実線
100
AcDbLine
 10
1316.000000000001
 20
2113.999996474996
 30
0.0
 11
1328.000000000001
 21
2101.999996474996
 31
0.0
  0
LINE
  5
140C9
330
1F
100
AcDbEntity
  8
実線
100
AcDbLine
 10
1316.000000000001
 20
2104.999996474996
 30
0.0
 11
1325.000000000001
 21
2104.999996474996
 31
0.0
  0
LINE
  5
140CA
330
1F
100
AcDbEntity
  8
破線
100
AcDbLine
 10
2052.000000000001
 20
2060.999978230364
 30
0.0
 11
2052.000000000001
 21
2044.999996474996
 31
0.0
  0
LINE
  5
140CB
330
1F
100
AcDbEntity
  8
破線
100
AcDbLine
 10
2084.000000000001
 20
2060.999996474996
 30
0.0
 11
2052.000000000001
 21
2060.999996474996
 31
0.0
  0
LINE
  5
140CC
330
1F
100
AcDbEntity
  8
実線
100
AcDbLine
 10
2084.000000000001
 20
2034.999996474995
 30
0.0
 11
2100.000000000001
 21
2034.999996474995
 31
0.0
  0
LINE
  5
140CD
330
1F
100
AcDbEntity
  8
実線
100
AcDbLine
 10
2052.000103585027
 20
2102.000014719627
 30
0.0
 11
2052.000103585027
 21
2388.000014719627
 31
0.0
  0
LINE
  5
140CE
330
1F
100
AcDbEntity
  8
破線
100
AcDbLine
 10
2075.000103585027
 20
2384.999996474995
 30
0.0
 11
2052.000103585027
 21
2384.999996474995
 31
0.0
  0
LINE
  5
140CF
330
1F
100
AcDbEntity
  8
実線
100
AcDbLine
 10
2072.000103585029
 20
2387.999996474996
 30
0.0
 11
2052.000103585027
 21
2387.999996474996
 31
0.0
  0
LINE
  5
140D0
330
1F
100
AcDbEntity
  8
実線
100
AcDbLine
 10
2084.000103585027
 20
2375.999996474996
 30
0.0
 11
2072.000103585029
 21
2387.999996474996
 31
0.0
  0
LINE
  5
140D1
330
1F
100
AcDbEntity
  8
実線
100
AcDbLine
 10
2084.000103585027
 20
2384.999996474995
 30
0.0
 11
2075.000103585027
 21
2384.999996474995
 31
0.0
  0
LINE
  5
140D2
330
1F
100
AcDbEntity
  8
破線
100
AcDbLine
 10
2075.000103585027
 20
2104.999996474996
 30
0.0
 11
2052.000103585027
 21
2104.999996474996
 31
0.0
  0
LINE
  5
140D3
330
1F
100
AcDbEntity
  8
実線
100
AcDbLine
 10
2072.000103585029
 20
2101.999996474996
 30
0.0
 11
2052.000103585027
 21
2101.999996474996
 31
0.0
  0
LINE
  5
140D4
330
1F
100
AcDbEntity
  8
実線
100
AcDbLine
 10
2084.000103585027
 20
2113.999996474996
 30
0.0
 11
2072.000103585029
 21
2101.999996474996
 31
0.0
  0
LINE
  5
140D5
330
1F
100
AcDbEntity
  8
実線
100
AcDbLine
 10
2084.000103585027
 20
2104.999996474996
 30
0.0
 11
2075.000103585027
 21
2104.999996474996
 31
0.0
  0
DIMENSION
  5
140D6
330
1F
100
AcDbEntity
  8
寸法線
100
AcDbDimension
280
     0
  2
*D1
 10
2631.000226983165
 20
2605.000005597312
 30
0.0
 11
2640.500226983165
 21
2605.000005597312
 31
0.0
 70
   160
 71
     5
 42
19.0
 73
     0
 74
     0
 75
     0
  3
STANDARD
100
AcDbAlignedDimension
 13
2650.000226983165
 23
2436.000042816985
 33
0.0
 14
2631.000226983165
 24
2445.000005597311
 34
0.0
 50
180.0
100
AcDbRotatedDimension
  0
DIMENSION
  5
140D7
330
1F
100
AcDbEntity
  8
寸法線
100
AcDbDimension
280
     0
  2
*D2
 10
2100.000226983166
 20
2605.000005597312
 30
0.0
 11
2365.500226983165
 21
2605.000005597312
 31
0.0
 70
   160
 71
     5
 42
531.0
 73
     0
 74
     0
 75
     0
  3
STANDARD
100
AcDbAlignedDimension
 13
2631.000226983165
 23
2445.000005597311
 33
0.0
 14
2100.000226983166
 24
2455.000042816986
 34
0.0
 50
180.0
100
AcDbRotatedDimension
  0
DIMENSION
  5
140D9
330
1F
100
AcDbEntity
  8
寸法線
100
AcDbDimension
280
     0
  2
*D3
 10
2100.000000000001
 20
1285.000023602055
 30
0.0
 11
2375.000000000001
 21
1285.000023602055
 31
0.0
 70
   160
 71
     5
 42
550.0
 73
     0
 74
     0
 75
     0
  3
STANDARD
100
AcDbAlignedDimension
 13
2650.000000000002
 23
1445.000023602055
 33
0.0
 14
2100.000000000001
 24
1435.000060821729
 34
0.0
 50
180.0
100
AcDbRotatedDimension
  0
LINE
  5
140DA
330
1F
100
AcDbEntity
  8
中心線
100
AcDbLine
 10
1172.000000000001
 20
1815.000023602055
 30
0.0
 11
2228.000003823188
 21
1815.000001973417
 31
0.0
  0
LINE
  5
140DB
330
1F
100
AcDbEntity
  8
中心線
100
AcDbLine
 10
1290.000051792514
 20
2415.000014719624
 30
0.0
 11
2110.00015537754
 21
2415.000014719624
 31
0.0
  0
LINE
  5
140DC
330
1F
100
AcDbEntity
  8
中心線
100
AcDbLine
 10
1290.000051792514
 20
2075.000014719631
 30
0.0
 11
2110.00015537754
 21
2075.000014719631
 31
0.0
  0
LINE
  5
140DD
330
1F
100
AcDbEntity
  8
中心線
100
AcDbLine
 10
1171.99999994328
 20
1475.000023961706
 30
0.0
 11
2228.000003766468
 21
1475.000045371477
 31
0.0
  0
LINE
  5
140DE
330
1F
100
AcDbEntity
  8
寸法線
100
AcDbLine
 10
1539.999948207486
 20
1169.999779407329
 30
0.0
 11
1859.999948207486
 21
1169.999779407329
 31
0.0
  0
TEXT
  5
140DF
330
1F
100
AcDbEntity
  8
寸法線
100
AcDbText
 10
1548.749948207486
 20
1178.749779407328
 30
0.0
 40
37.5
  1
空洞金具詳細図
 72
     1
 11
1699.999948207486
 21
1178.749779407328
 31
0.0
100
AcDbText
 73
     1
  0
LINE
  5
140E0
330
1F
100
AcDbEntity
  8
実線
100
AcDbLine
 10
750.0000000000304
 20
2436.000019403656
 30
0.0
 11
750.0000000000304
 21
2054.000019403656
 31
0.0
  0
LINE
  5
140E1
330
1F
100
AcDbEntity
  8
実線
100
AcDbLine
 10
769.0000000000305
 20
2444.999982183976
 30
0.0
 11
769.0000000000305
 21
2044.999982183975
 31
0.0
  0
LINE
  5
140E2
330
1F
100
AcDbEntity
  8
実線
100
AcDbLine
 10
769.0000000000305
 20
2444.999982183976
 30
0.0
 11
1300.000019813132
 21
2444.999982183976
 31
0.0
  0
LINE
  5
140E3
330
1F
100
AcDbEntity
  8
実線
100
AcDbLine
 10
769.0000000000305
 20
2423.999982183975
 30
0.0
 11
1300.000019813132
 21
2423.999982183975
 31
0.0
  0
LINE
  5
140E4
330
1F
100
AcDbEntity
  8
実線
100
AcDbLine
 10
1180.00000000003
 20
2423.999982183975
 30
0.0
 11
1180.00000000003
 21
2394.000019403656
 31
0.0
  0
LINE
  5
140E5
330
1F
100
AcDbEntity
  8
実線
100
AcDbLine
 10
1260.000019813132
 20
2353.999982183975
 30
0.0
 11
1300.000019813132
 21
2353.999982183975
 31
0.0
  0
LINE
  5
140E6
330
1F
100
AcDbEntity
  8
実線
100
AcDbLine
 10
1180.00000000003
 20
2394.000019403656
 30
0.0
 11
1260.000019813132
 21
2353.999982183975
 31
0.0
  0
LINE
  5
140E7
330
1F
100
AcDbEntity
  8
実線
100
AcDbLine
 10
1288.00002377575
 20
2423.999982183975
 30
0.0
 11
1300.00002377575
 21
2411.999982183975
 31
0.0
  0
LINE
  5
140E8
330
1F
100
AcDbEntity
  8
仮想線
100
AcDbLine
 10
1291.000019813132
 20
2423.999982183975
 30
0.0
 11
1300.000019813132
 21
2414.999982183975
 31
0.0
  0
LINE
  5
140E9
330
1F
100
AcDbEntity
  8
実線
100
AcDbLine
 10
1180.00000000003
 20
2065.999982183975
 30
0.0
 11
1180.00000000003
 21
2095.999944964309
 31
0.0
  0
LINE
  5
140EA
330
1F
100
AcDbEntity
  8
実線
100
AcDbLine
 10
1260.000019813132
 20
2135.999982183975
 30
0.0
 11
1300.000019813132
 21
2135.999982183975
 31
0.0
  0
LINE
  5
140EB
330
1F
100
AcDbEntity
  8
実線
100
AcDbLine
 10
1180.00000000003
 20
2095.999944964309
 30
0.0
 11
1260.000019813132
 21
2135.999982183975
 31
0.0
  0
LINE
  5
140EC
330
1F
100
AcDbEntity
  8
実線
100
AcDbLine
 10
1288.00002377575
 20
2065.999982183975
 30
0.0
 11
1300.00002377575
 21
2077.999982183975
 31
0.0
  0
LINE
  5
140ED
330
1F
100
AcDbEntity
  8
仮想線
100
AcDbLine
 10
1291.000019813132
 20
2065.999982183975
 30
0.0
 11
1300.000019813132
 21
2074.999982183975
 31
0.0
  0
LINE
  5
140EE
330
1F
100
AcDbEntity
  8
実線
100
AcDbLine
 10
750.0000000000304
 20
2436.000019403656
 30
0.0
 11
769.0000000000305
 21
2436.000019403656
 31
0.0
  0
LINE
  5
140EF
330
1F
100
AcDbEntity
  8
実線
100
AcDbLine
 10
750.0000000000304
 20
2054.000044964299
 30
0.0
 11
769.0000000000305
 21
2054.000044964299
 31
0.0
  0
LINE
  5
140F0
330
1F
100
AcDbEntity
  8
仮想線
100
AcDbLine
 10
769.0000000000305
 20
2444.999982183976
 30
0.0
 11
760.0000372196968
 21
2436.000019403656
 31
0.0
  0
LINE
  5
140F1
330
1F
100
AcDbEntity
  8
仮想線
100
AcDbLine
 10
769.0000000000305
 20
2044.999982183975
 30
0.0
 11
759.9999372197067
 21
2054.000044964299
 31
0.0
  0
LINE
  5
140F2
330
1F
100
AcDbEntity
  8
実線
100
AcDbLine
 10
769.0000000000305
 20
2250.999982183975
 30
0.0
 11
969.0000198131324
 21
2250.999982183975
 31
0.0
  0
LINE
  5
140F3
330
1F
100
AcDbEntity
  8
実線
100
AcDbLine
 10
769.0000000000305
 20
2238.999982183975
 30
0.0
 11
969.0000198131324
 21
2238.999982183975
 31
0.0
  0
LINE
  5
140F4
330
1F
100
AcDbEntity
  8
実線
100
AcDbLine
 10
969.0000198131324
 20
2250.999982183975
 30
0.0
 11
969.0000198131324
 21
2238.999982183975
 31
0.0
  0
LINE
  5
140F5
330
1F
100
AcDbEntity
  8
仮想線
100
AcDbLine
 10
1300.000001981332
 20
2454.000015681684
 30
0.0
 11
1290.999968483623
 21
2444.999982183976
 31
0.0
  0
LINE
  5
140F6
330
1F
100
AcDbEntity
  8
仮想線
100
AcDbLine
 10
1300.000001981332
 20
2036.000015681684
 30
0.0
 11
1291.00003547904
 21
2044.999982183975
 31
0.0
  0
LINE
  5
140F7
330
1F
100
AcDbEntity
  8
実線
100
AcDbLine
 10
769.0000000000305
 20
2044.999982183975
 30
0.0
 11
1300.00008307949
 21
2045.000246422541
 31
0.0
  0
LINE
  5
140F8
330
1F
100
AcDbEntity
  8
実線
100
AcDbLine
 10
769.0000000000305
 20
2066.000078450235
 30
0.0
 11
1300.000076436512
 21
2066.000246422541
 31
0.0
  0
LINE
  5
140F9
330
1F
100
AcDbEntity
  8
中心線
100
AcDbLine
 10
800.0000000000305
 20
2455.000019400426
 30
0.0
 11
800.0000000000305
 21
2414.000019400426
 31
0.0
  0
LINE
  5
140FA
330
1F
100
AcDbEntity
  8
中心線
100
AcDbLine
 10
800.0000000000305
 20
2035.000019406901
 30
0.0
 11
800.0000000000305
 21
2076.000019406901
 31
0.0
  0
LINE
  5
140FB
330
1F
100
AcDbEntity
  8
中心線
100
AcDbLine
 10
740.0000044978819
 20
2344.999982078619
 30
0.0
 11
776.0000243109876
 21
2344.999982078619
 31
0.0
  0
LINE
  5
140FC
330
1F
100
AcDbEntity
  8
中心線
100
AcDbLine
 10
740.0000044978819
 20
2144.999982078619
 30
0.0
 11
776.0000243109876
 21
2144.999982078619
 31
0.0
  0
LINE
  5
140FD
330
1F
100
AcDbEntity
  8
中心線
100
AcDbLine
 10
740.0000044978819
 20
2169.999982078619
 30
0.0
 11
776.0000243109876
 21
2169.999982078619
 31
0.0
  0
LINE
  5
140FE
330
1F
100
AcDbEntity
  8
中心線
100
AcDbLine
 10
740.0000044978819
 20
2320.000056728693
 30
0.0
 11
776.0000243109876
 21
2320.000056728693
 31
0.0
  0
LINE
  5
140FF
330
1F
100
AcDbEntity
  8
中心線
100
AcDbLine
 10
850.0000000000305
 20
2455.000019400426
 30
0.0
 11
850.0000000000305
 21
2414.000019400426
 31
0.0
  0
LINE
  5
14100
330
1F
100
AcDbEntity
  8
中心線
100
AcDbLine
 10
850.0000000000305
 20
2035.000019406901
 30
0.0
 11
850.0000000000305
 21
2076.000019406901
 31
0.0
  0
LINE
  5
14101
330
1F
100
AcDbEntity
  8
中心線
100
AcDbLine
 10
900.0000000000305
 20
2455.000019400426
 30
0.0
 11
900.0000000000305
 21
2414.000019400426
 31
0.0
  0
LINE
  5
14102
330
1F
100
AcDbEntity
  8
中心線
100
AcDbLine
 10
900.0000000000305
 20
2035.000019406901
 30
0.0
 11
900.0000000000305
 21
2076.000019406901
 31
0.0
  0
LINE
  5
14103
330
1F
100
AcDbEntity
  8
中心線
100
AcDbLine
 10
950.0000000000305
 20
2455.000019400426
 30
0.0
 11
950.0000000000305
 21
2414.000019400426
 31
0.0
  0
LINE
  5
14104
330
1F
100
AcDbEntity
  8
中心線
100
AcDbLine
 10
950.0000000000305
 20
2035.000019406901
 30
0.0
 11
950.0000000000305
 21
2076.000019406901
 31
0.0
  0
LINE
  5
14105
330
1F
100
AcDbEntity
  8
中心線
100
AcDbLine
 10
1000.00000000003
 20
2455.000019400426
 30
0.0
 11
1000.00000000003
 21
2414.000019400426
 31
0.0
  0
LINE
  5
14106
330
1F
100
AcDbEntity
  8
中心線
100
AcDbLine
 10
1000.00000000003
 20
2035.000019406901
 30
0.0
 11
1000.00000000003
 21
2076.000019406901
 31
0.0
  0
LINE
  5
14107
330
1F
100
AcDbEntity
  8
中心線
100
AcDbLine
 10
1050.00000000003
 20
2455.000019400426
 30
0.0
 11
1050.00000000003
 21
2414.000019400426
 31
0.0
  0
LINE
  5
14108
330
1F
100
AcDbEntity
  8
中心線
100
AcDbLine
 10
1050.00000000003
 20
2035.000019406901
 30
0.0
 11
1050.00000000003
 21
2076.000019406901
 31
0.0
  0
LINE
  5
14109
330
1F
100
AcDbEntity
  8
中心線
100
AcDbLine
 10
1100.00000000003
 20
2455.000019400426
 30
0.0
 11
1100.00000000003
 21
2414.000019400426
 31
0.0
  0
LINE
  5
1410A
330
1F
100
AcDbEntity
  8
中心線
100
AcDbLine
 10
1100.00000000003
 20
2035.000019406901
 30
0.0
 11
1100.00000000003
 21
2076.000019406901
 31
0.0
  0
LINE
  5
1410B
330
1F
100
AcDbEntity
  8
実線
100
AcDbLine
 10
750.0000000000014
 20
1844.999977260073
 30
0.0
 11
1300.000019813132
 21
1844.999977260073
 31
0.0
  0
LINE
  5
1410C
330
1F
100
AcDbEntity
  8
実線
100
AcDbLine
 10
769.0000000000013
 20
1844.999977260073
 30
0.0
 11
769.0000000000013
 21
1444.999977260073
 31
0.0
  0
LINE
  5
1410D
330
1F
100
AcDbEntity
  8
実線
100
AcDbLine
 10
750.0000000000014
 20
1844.999977260073
 30
0.0
 11
750.0000000000014
 21
1444.999977260073
 31
0.0
  0
LINE
  5
1410E
330
1F
100
AcDbEntity
  8
破線
100
AcDbLine
 10
769.0000000000013
 20
1651.499977260073
 30
0.0
 11
1300.000019813132
 21
1651.499977260073
 31
0.0
  0
LINE
  5
1410F
330
1F
100
AcDbEntity
  8
破線
100
AcDbLine
 10
779.0000000000014
 20
1651.499977260073
 30
0.0
 11
769.0000000000013
 21
1661.499977260072
 31
0.0
  0
LINE
  5
14110
330
1F
100
AcDbEntity
  8
仮想線
100
AcDbLine
 10
776.0000000000013
 20
1651.499977260073
 30
0.0
 11
769.0000000000013
 21
1658.499977260072
 31
0.0
  0
LINE
  5
14111
330
1F
100
AcDbEntity
  8
破線
100
AcDbLine
 10
779.0000000000014
 20
1638.499977260073
 30
0.0
 11
769.0000000000013
 21
1628.499977260073
 31
0.0
  0
LINE
  5
14112
330
1F
100
AcDbEntity
  8
仮想線
100
AcDbLine
 10
776.0000000000013
 20
1638.499977260073
 30
0.0
 11
769.0000000000013
 21
1631.499977260073
 31
0.0
  0
LINE
  5
14113
330
1F
100
AcDbEntity
  8
実線
100
AcDbLine
 10
1300.000000000001
 20
1855.000014479739
 30
0.0
 11
1300.000000000001
 21
1435.000014479739
 31
0.0
  0
LINE
  5
14114
330
1F
100
AcDbEntity
  8
破線
100
AcDbLine
 10
1180.000019813132
 20
1824.499977260073
 30
0.0
 11
1300.000000000001
 21
1824.499977260073
 31
0.0
  0
LINE
  5
14115
330
1F
100
AcDbEntity
  8
破線
100
AcDbLine
 10
1180.000019813132
 20
1805.499977260073
 30
0.0
 11
1300.000000000001
 21
1805.499977260073
 31
0.0
  0
LINE
  5
14116
330
1F
100
AcDbEntity
  8
破線
100
AcDbLine
 10
1180.000019813132
 20
1824.499977260073
 30
0.0
 11
1180.000019813132
 21
1805.499977260073
 31
0.0
  0
LINE
  5
14117
330
1F
100
AcDbEntity
  8
破線
100
AcDbLine
 10
1180.000019813132
 20
1465.499977260073
 30
0.0
 11
1300.000000000001
 21
1465.499977260073
 31
0.0
  0
LINE
  5
14118
330
1F
100
AcDbEntity
  8
破線
100
AcDbLine
 10
1180.000019813132
 20
1484.499977260073
 30
0.0
 11
1300.000000000001
 21
1484.499977260073
 31
0.0
  0
LINE
  5
14119
330
1F
100
AcDbEntity
  8
破線
100
AcDbLine
 10
1180.000019813132
 20
1465.499977260073
 30
0.0
 11
1180.000019813132
 21
1484.499977260073
 31
0.0
  0
LINE
  5
1411A
330
1F
100
AcDbEntity
  8
破線
100
AcDbLine
 10
769.0000000000013
 20
1841.499977260072
 30
0.0
 11
799.0000198131324
 21
1841.499977260072
 31
0.0
  0
LINE
  5
1411B
330
1F
100
AcDbEntity
  8
破線
100
AcDbLine
 10
969.0000000000013
 20
1681.500014479739
 30
0.0
 11
969.0000000000013
 21
1651.499977260073
 31
0.0
  0
LINE
  5
1411C
330
1F
100
AcDbEntity
  8
破線
100
AcDbLine
 10
799.0000198131324
 20
1841.499977260072
 30
0.0
 11
969.0000000000013
 21
1681.500014479739
 31
0.0
  0
LINE
  5
1411D
330
1F
100
AcDbEntity
  8
破線
100
AcDbLine
 10
969.0000000000013
 20
1608.499940040406
 30
0.0
 11
969.0000000000013
 21
1638.499977260073
 31
0.0
  0
LINE
  5
1411E
330
1F
100
AcDbEntity
  8
破線
100
AcDbLine
 10
799.0000198131324
 20
1448.499977260073
 30
0.0
 11
969.0000000000013
 21
1608.499940040406
 31
0.0
  0
LINE
  5
1411F
330
1F
100
AcDbEntity
  8
破線
100
AcDbLine
 10
769.0000000000013
 20
1448.499977260073
 30
0.0
 11
799.0000198131324
 21
1448.499977260073
 31
0.0
  0
LINE
  5
14120
330
1F
100
AcDbEntity
  8
実線
100
AcDbLine
 10
750.0000000000014
 20
1444.999977260073
 30
0.0
 11
1300.000019813132
 21
1444.999977470813
 31
0.0
  0
LINE
  5
14121
330
1F
100
AcDbEntity
  8
破線
100
AcDbLine
 10
769.0000000000013
 20
1638.499977470813
 30
0.0
 11
1300.000019813132
 21
1638.499977470813
 31
0.0
  0
LEADER
  5
14122
330
1F
100
AcDbEntity
  8
寸法線
100
AcDbLeader
  3
STANDARD
 76
     3
 10
856.1230929806455
 20
1780.897598007572
 30
0.0
 10
931.4719275658857
 20
1915.000023602056
 30
0.0
 10
1199.132104500705
 20
1915.000023602056
 30
0.0
211
-1.0
221
0.0
231
0.0
1001
ACAD
1000
DSTYLE
1002
{
1070
   147
1040
0.875
1070
    77
1070
     0
1002
}
  0
TEXT
  5
14123
330
1F
100
AcDbEntity
  8
寸法線
100
AcDbText
 10
940.221927565881
 20
1923.750023602056
 30
0.0
 40
25.0
  1
ｶﾊﾞｰﾌﾟﾚｰﾄ連結用孔
 72
     2
 11
1188.555260899214
 21
1948.750023602056
 31
0.0
100
AcDbText
 73
     3
  0
LINE
  5
14124
330
1F
100
AcDbEntity
  8
中心線
100
AcDbLine
 10
800.0000000000014
 20
1754.999977260087
 30
0.0
 11
800.0000000000014
 21
1685.000014479761
 31
0.0
  0
LINE
  5
14125
330
1F
100
AcDbEntity
  8
中心線
100
AcDbLine
 10
765.0000186098382
 20
1719.999995869927
 30
0.0
 11
834.9999813901645
 21
1719.999995869927
 31
0.0
  0
CIRCLE
  5
14126
330
1F
100
AcDbEntity
  8
実線
100
AcDbCircle
 10
800.0000000000014
 20
1719.999995869927
 30
0.0
 40
12.5
  0
LINE
  5
14127
330
1F
100
AcDbEntity
  8
中心線
100
AcDbLine
 10
800.0000000000014
 20
1535.000077260084
 30
0.0
 11
800.0000000000014
 21
1605.000040040411
 31
0.0
  0
LINE
  5
14128
330
1F
100
AcDbEntity
  8
中心線
100
AcDbLine
 10
765.0000186098382
 20
1570.000058650251
 30
0.0
 11
834.9999813901645
 21
1570.000058650251
 31
0.0
  0
CIRCLE
  5
14129
330
1F
100
AcDbEntity
  8
実線
100
AcDbCircle
 10
800.0000000000014
 20
1570.000058650251
 30
0.0
 40
12.5
  0
LINE
  5
1412A
330
1F
100
AcDbEntity
  8
中心線
100
AcDbLine
 10
900.0000000000014
 20
1754.999977260087
 30
0.0
 11
900.0000000000014
 21
1685.000014479761
 31
0.0
  0
LINE
  5
1412B
330
1F
100
AcDbEntity
  8
中心線
100
AcDbLine
 10
865.0000186098381
 20
1719.999995869927
 30
0.0
 11
934.9999813901645
 21
1719.999995869927
 31
0.0
  0
CIRCLE
  5
1412C
330
1F
100
AcDbEntity
  8
実線
100
AcDbCircle
 10
900.0000000000014
 20
1719.999995869927
 30
0.0
 40
12.5
  0
LINE
  5
1412D
330
1F
100
AcDbEntity
  8
中心線
100
AcDbLine
 10
900.0000000000014
 20
1535.000077260084
 30
0.0
 11
900.0000000000014
 21
1605.000040040411
 31
0.0
  0
LINE
  5
1412E
330
1F
100
AcDbEntity
  8
中心線
100
AcDbLine
 10
865.0000186098381
 20
1570.000058650251
 30
0.0
 11
934.9999813901645
 21
1570.000058650251
 31
0.0
  0
CIRCLE
  5
1412F
330
1F
100
AcDbEntity
  8
実線
100
AcDbCircle
 10
900.0000000000014
 20
1570.000058650251
 30
0.0
 40
12.5
  0
LINE
  5
14130
330
1F
100
AcDbEntity
  8
中心線
100
AcDbLine
 10
1000.000000000001
 20
1754.999977260087
 30
0.0
 11
1000.000000000001
 21
1685.000014479761
 31
0.0
  0
LINE
  5
14131
330
1F
100
AcDbEntity
  8
中心線
100
AcDbLine
 10
965.0000186098381
 20
1719.999995869927
 30
0.0
 11
1034.999981390164
 21
1719.999995869927
 31
0.0
  0
CIRCLE
  5
14132
330
1F
100
AcDbEntity
  8
実線
100
AcDbCircle
 10
1000.000000000001
 20
1719.999995869927
 30
0.0
 40
12.5
  0
LINE
  5
14133
330
1F
100
AcDbEntity
  8
中心線
100
AcDbLine
 10
1000.000000000001
 20
1535.000077260084
 30
0.0
 11
1000.000000000001
 21
1605.000040040411
 31
0.0
  0
LINE
  5
14134
330
1F
100
AcDbEntity
  8
中心線
100
AcDbLine
 10
965.0000186098381
 20
1570.000058650251
 30
0.0
 11
1034.999981390164
 21
1570.000058650251
 31
0.0
  0
CIRCLE
  5
14135
330
1F
100
AcDbEntity
  8
実線
100
AcDbCircle
 10
1000.000000000001
 20
1570.000058650251
 30
0.0
 40
12.5
  0
LINE
  5
14136
330
1F
100
AcDbEntity
  8
中心線
100
AcDbLine
 10
850.0000000000014
 20
1804.999977260087
 30
0.0
 11
850.0000000000014
 21
1735.00001447976
 31
0.0
  0
LINE
  5
14137
330
1F
100
AcDbEntity
  8
中心線
100
AcDbLine
 10
815.0000186098381
 20
1769.999995869928
 30
0.0
 11
884.9999813901645
 21
1769.999995869928
 31
0.0
  0
CIRCLE
  5
14138
330
1F
100
AcDbEntity
  8
実線
100
AcDbCircle
 10
850.0000000000014
 20
1769.999995869928
 30
0.0
 40
12.5
  0
LINE
  5
14139
330
1F
100
AcDbEntity
  8
中心線
100
AcDbLine
 10
950.0000000000014
 20
1804.999977260087
 30
0.0
 11
950.0000000000014
 21
1735.00001447976
 31
0.0
  0
LINE
  5
1413A
330
1F
100
AcDbEntity
  8
中心線
100
AcDbLine
 10
915.0000186098381
 20
1769.999995869928
 30
0.0
 11
984.9999813901645
 21
1769.999995869928
 31
0.0
  0
CIRCLE
  5
1413B
330
1F
100
AcDbEntity
  8
実線
100
AcDbCircle
 10
950.0000000000014
 20
1769.999995869928
 30
0.0
 40
12.5
  0
LINE
  5
1413C
330
1F
100
AcDbEntity
  8
中心線
100
AcDbLine
 10
850.0000000000014
 20
1485.000077260085
 30
0.0
 11
850.0000000000014
 21
1555.000040040411
 31
0.0
  0
LINE
  5
1413D
330
1F
100
AcDbEntity
  8
中心線
100
AcDbLine
 10
815.0000186098381
 20
1520.000058650251
 30
0.0
 11
884.9999813901645
 21
1520.000058650251
 31
0.0
  0
CIRCLE
  5
1413E
330
1F
100
AcDbEntity
  8
実線
100
AcDbCircle
 10
850.0000000000014
 20
1520.000058650251
 30
0.0
 40
12.5
  0
LINE
  5
1413F
330
1F
100
AcDbEntity
  8
中心線
100
AcDbLine
 10
950.0000000000014
 20
1485.000077260085
 30
0.0
 11
950.0000000000014
 21
1555.000040040411
 31
0.0
  0
LINE
  5
14140
330
1F
100
AcDbEntity
  8
中心線
100
AcDbLine
 10
915.0000186098381
 20
1520.000058650251
 30
0.0
 11
984.9999813901645
 21
1520.000058650251
 31
0.0
  0
CIRCLE
  5
14141
330
1F
100
AcDbEntity
  8
実線
100
AcDbCircle
 10
950.0000000000014
 20
1520.000058650251
 30
0.0
 40
12.5
  0
LINE
  5
14142
330
1F
100
AcDbEntity
  8
中心線
100
AcDbLine
 10
1100.000000000001
 20
1754.999977260087
 30
0.0
 11
1100.000000000001
 21
1685.000014479761
 31
0.0
  0
LINE
  5
14143
330
1F
100
AcDbEntity
  8
中心線
100
AcDbLine
 10
1065.000018609838
 20
1719.999995869927
 30
0.0
 11
1134.999981390164
 21
1719.999995869927
 31
0.0
  0
CIRCLE
  5
14144
330
1F
100
AcDbEntity
  8
実線
100
AcDbCircle
 10
1100.000000000001
 20
1719.999995869927
 30
0.0
 40
12.5
  0
LINE
  5
14145
330
1F
100
AcDbEntity
  8
中心線
100
AcDbLine
 10
1100.000000000001
 20
1535.000077260084
 30
0.0
 11
1100.000000000001
 21
1605.000040040411
 31
0.0
  0
LINE
  5
14146
330
1F
100
AcDbEntity
  8
中心線
100
AcDbLine
 10
1065.000018609838
 20
1570.000058650251
 30
0.0
 11
1134.999981390164
 21
1570.000058650251
 31
0.0
  0
CIRCLE
  5
14147
330
1F
100
AcDbEntity
  8
実線
100
AcDbCircle
 10
1100.000000000001
 20
1570.000058650251
 30
0.0
 40
12.5
  0
LINE
  5
14148
330
1F
100
AcDbEntity
  8
中心線
100
AcDbLine
 10
1050.000000000001
 20
1804.999977260087
 30
0.0
 11
1050.000000000001
 21
1735.00001447976
 31
0.0
  0
LINE
  5
14149
330
1F
100
AcDbEntity
  8
中心線
100
AcDbLine
 10
1015.000018609838
 20
1769.999995869928
 30
0.0
 11
1084.999981390164
 21
1769.999995869928
 31
0.0
  0
CIRCLE
  5
1414A
330
1F
100
AcDbEntity
  8
実線
100
AcDbCircle
 10
1050.000000000001
 20
1769.999995869928
 30
0.0
 40
12.5
  0
LINE
  5
1414B
330
1F
100
AcDbEntity
  8
中心線
100
AcDbLine
 10
1050.000000000001
 20
1485.000077260085
 30
0.0
 11
1050.000000000001
 21
1555.000040040411
 31
0.0
  0
LINE
  5
1414C
330
1F
100
AcDbEntity
  8
中心線
100
AcDbLine
 10
1015.000018609838
 20
1520.000058650251
 30
0.0
 11
1084.999981390164
 21
1520.000058650251
 31
0.0
  0
CIRCLE
  5
1414D
330
1F
100
AcDbEntity
  8
実線
100
AcDbCircle
 10
1050.000000000001
 20
1520.000058650251
 30
0.0
 40
12.5
  0
LINE
  5
1414E
330
1F
100
AcDbEntity
  8
中心線
100
AcDbLine
 10
740.0000044978565
 20
1744.939076938559
 30
0.0
 11
776.0000243109657
 21
1744.939076938559
 31
0.0
  0
LINE
  5
1414F
330
1F
100
AcDbEntity
  8
中心線
100
AcDbLine
 10
740.0000044978565
 20
1544.939076938559
 30
0.0
 11
776.0000243109657
 21
1544.939076938559
 31
0.0
  0
LINE
  5
14150
330
1F
100
AcDbEntity
  8
中心線
100
AcDbLine
 10
740.0000044978565
 20
1594.939076938558
 30
0.0
 11
776.0000243109657
 21
1594.939076938558
 31
0.0
  0
LINE
  5
14151
330
1F
100
AcDbEntity
  8
中心線
100
AcDbLine
 10
740.0000044978565
 20
1694.93915158864
 30
0.0
 11
776.0000243109657
 21
1694.93915158864
 31
0.0
  0
LINE
  5
14152
330
1F
100
AcDbEntity
  8
実線
100
AcDbLine
 10
2650.000000000002
 20
1844.999977260073
 30
0.0
 11
2099.99998018687
 21
1844.999977260073
 31
0.0
  0
LINE
  5
14153
330
1F
100
AcDbEntity
  8
実線
100
AcDbLine
 10
2631.000000000002
 20
1844.999977260073
 30
0.0
 11
2630.999999999998
 21
1444.999977260073
 31
0.0
  0
LINE
  5
14154
330
1F
100
AcDbEntity
  8
実線
100
AcDbLine
 10
2650.000000000002
 20
1844.999977260073
 30
0.0
 11
2649.999999999998
 21
1444.999977260073
 31
0.0
  0
LINE
  5
14155
330
1F
100
AcDbEntity
  8
破線
100
AcDbLine
 10
2631.000000000002
 20
1651.499977260073
 30
0.0
 11
2099.99998018687
 21
1651.499977260073
 31
0.0
  0
LINE
  5
14156
330
1F
100
AcDbEntity
  8
破線
100
AcDbLine
 10
2621.000000000002
 20
1651.499977260073
 30
0.0
 11
2631.000000000002
 21
1661.499977260072
 31
0.0
  0
LINE
  5
14157
330
1F
100
AcDbEntity
  8
仮想線
100
AcDbLine
 10
2624.000000000001
 20
1651.499977260073
 30
0.0
 11
2631.000000000002
 21
1658.499977260072
 31
0.0
  0
LINE
  5
14158
330
1F
100
AcDbEntity
  8
破線
100
AcDbLine
 10
2621.000000000002
 20
1638.499977260073
 30
0.0
 11
2631.000000000002
 21
1628.499977260073
 31
0.0
  0
LINE
  5
14159
330
1F
100
AcDbEntity
  8
仮想線
100
AcDbLine
 10
2624.000000000001
 20
1638.499977260073
 30
0.0
 11
2631.000000000002
 21
1631.499977260073
 31
0.0
  0
LINE
  5
1415A
330
1F
100
AcDbEntity
  8
実線
100
AcDbLine
 10
2100.000000000001
 20
1855.000014479739
 30
0.0
 11
2099.999999999998
 21
1435.000014479739
 31
0.0
  0
LINE
  5
1415B
330
1F
100
AcDbEntity
  8
破線
100
AcDbLine
 10
2219.99998018687
 20
1824.499977260073
 30
0.0
 11
2100.000000000001
 21
1824.499977260073
 31
0.0
  0
LINE
  5
1415C
330
1F
100
AcDbEntity
  8
破線
100
AcDbLine
 10
2219.99998018687
 20
1805.499977260073
 30
0.0
 11
2100.000000000001
 21
1805.499977260073
 31
0.0
  0
LINE
  5
1415D
330
1F
100
AcDbEntity
  8
破線
100
AcDbLine
 10
2219.99998018687
 20
1824.499977260073
 30
0.0
 11
2219.99998018687
 21
1805.499977260073
 31
0.0
  0
LINE
  5
1415E
330
1F
100
AcDbEntity
  8
破線
100
AcDbLine
 10
2219.999980186867
 20
1465.499977260073
 30
0.0
 11
2099.999999999998
 21
1465.499977260073
 31
0.0
  0
LINE
  5
1415F
330
1F
100
AcDbEntity
  8
破線
100
AcDbLine
 10
2219.999980186867
 20
1484.499977260073
 30
0.0
 11
2099.999999999998
 21
1484.499977260073
 31
0.0
  0
LINE
  5
14160
330
1F
100
AcDbEntity
  8
破線
100
AcDbLine
 10
2219.999980186867
 20
1465.499977260073
 30
0.0
 11
2219.999980186867
 21
1484.499977260073
 31
0.0
  0
LINE
  5
14161
330
1F
100
AcDbEntity
  8
破線
100
AcDbLine
 10
2631.000000000002
 20
1841.499977260072
 30
0.0
 11
2600.99998018687
 21
1841.499977260072
 31
0.0
  0
LINE
  5
14162
330
1F
100
AcDbEntity
  8
破線
100
AcDbLine
 10
2431.000000000001
 20
1681.500014479739
 30
0.0
 11
2431.000000000001
 21
1651.499977260073
 31
0.0
  0
LINE
  5
14163
330
1F
100
AcDbEntity
  8
破線
100
AcDbLine
 10
2600.99998018687
 20
1841.499977260072
 30
0.0
 11
2431.000000000001
 21
1681.500014479739
 31
0.0
  0
LINE
  5
14164
330
1F
100
AcDbEntity
  8
破線
100
AcDbLine
 10
2431.000000000001
 20
1608.499940040406
 30
0.0
 11
2431.000000000001
 21
1638.499977260073
 31
0.0
  0
LINE
  5
14165
330
1F
100
AcDbEntity
  8
破線
100
AcDbLine
 10
2600.999980186867
 20
1448.499977260073
 30
0.0
 11
2431.000000000001
 21
1608.499940040406
 31
0.0
  0
LINE
  5
14166
330
1F
100
AcDbEntity
  8
破線
100
AcDbLine
 10
2630.999999999998
 20
1448.499977260073
 30
0.0
 11
2600.999980186867
 21
1448.499977260073
 31
0.0
  0
LINE
  5
14167
330
1F
100
AcDbEntity
  8
実線
100
AcDbLine
 10
2649.999999999998
 20
1444.999977260073
 30
0.0
 11
2099.999980186867
 21
1444.999977470813
 31
0.0
  0
LINE
  5
14168
330
1F
100
AcDbEntity
  8
破線
100
AcDbLine
 10
2631.000000000002
 20
1638.499977470813
 30
0.0
 11
2099.99998018687
 21
1638.499977470813
 31
0.0
  0
LINE
  5
14169
330
1F
100
AcDbEntity
  8
中心線
100
AcDbLine
 10
2600.000000000001
 20
1754.999977260087
 30
0.0
 11
2600.000000000001
 21
1685.000014479761
 31
0.0
  0
LINE
  5
1416A
330
1F
100
AcDbEntity
  8
中心線
100
AcDbLine
 10
2634.999981390163
 20
1719.999995869927
 30
0.0
 11
2565.000018609838
 21
1719.999995869927
 31
0.0
  0
CIRCLE
  5
1416B
330
1F
100
AcDbEntity
  8
実線
100
AcDbCircle
 10
2600.000000000001
 20
1719.999995869927
 30
0.0
 40
12.5
  0
LINE
  5
1416C
330
1F
100
AcDbEntity
  8
中心線
100
AcDbLine
 10
2600.000000000001
 20
1535.000077260084
 30
0.0
 11
2600.000000000001
 21
1605.000040040411
 31
0.0
  0
LINE
  5
1416D
330
1F
100
AcDbEntity
  8
中心線
100
AcDbLine
 10
2634.999981390163
 20
1570.000058650251
 30
0.0
 11
2565.000018609838
 21
1570.000058650251
 31
0.0
  0
CIRCLE
  5
1416E
330
1F
100
AcDbEntity
  8
実線
100
AcDbCircle
 10
2600.000000000001
 20
1570.000058650251
 30
0.0
 40
12.5
  0
LINE
  5
1416F
330
1F
100
AcDbEntity
  8
中心線
100
AcDbLine
 10
2500.000000000002
 20
1754.999977260087
 30
0.0
 11
2500.000000000002
 21
1685.000014479761
 31
0.0
  0
LINE
  5
14170
330
1F
100
AcDbEntity
  8
中心線
100
AcDbLine
 10
2534.999981390165
 20
1719.999995869927
 30
0.0
 11
2465.000018609838
 21
1719.999995869927
 31
0.0
  0
CIRCLE
  5
14171
330
1F
100
AcDbEntity
  8
実線
100
AcDbCircle
 10
2500.000000000002
 20
1719.999995869927
 30
0.0
 40
12.5
  0
LINE
  5
14172
330
1F
100
AcDbEntity
  8
中心線
100
AcDbLine
 10
2500.000000000002
 20
1535.000077260084
 30
0.0
 11
2500.000000000002
 21
1605.000040040411
 31
0.0
  0
LINE
  5
14173
330
1F
100
AcDbEntity
  8
中心線
100
AcDbLine
 10
2534.999981390165
 20
1570.000058650251
 30
0.0
 11
2465.000018609838
 21
1570.000058650251
 31
0.0
  0
CIRCLE
  5
14174
330
1F
100
AcDbEntity
  8
実線
100
AcDbCircle
 10
2500.000000000002
 20
1570.000058650251
 30
0.0
 40
12.5
  0
LINE
  5
14175
330
1F
100
AcDbEntity
  8
中心線
100
AcDbLine
 10
2400.000000000002
 20
1754.999977260087
 30
0.0
 11
2400.000000000002
 21
1685.000014479761
 31
0.0
  0
LINE
  5
14176
330
1F
100
AcDbEntity
  8
中心線
100
AcDbLine
 10
2434.999981390165
 20
1719.999995869927
 30
0.0
 11
2365.000018609838
 21
1719.999995869927
 31
0.0
  0
CIRCLE
  5
14177
330
1F
100
AcDbEntity
  8
実線
100
AcDbCircle
 10
2400.000000000002
 20
1719.999995869927
 30
0.0
 40
12.5
  0
LINE
  5
14178
330
1F
100
AcDbEntity
  8
中心線
100
AcDbLine
 10
2400.000000000002
 20
1535.000077260084
 30
0.0
 11
2400.000000000002
 21
1605.000040040411
 31
0.0
  0
LINE
  5
14179
330
1F
100
AcDbEntity
  8
中心線
100
AcDbLine
 10
2434.999981390165
 20
1570.000058650251
 30
0.0
 11
2365.000018609838
 21
1570.000058650251
 31
0.0
  0
CIRCLE
  5
1417A
330
1F
100
AcDbEntity
  8
実線
100
AcDbCircle
 10
2400.000000000002
 20
1570.000058650251
 30
0.0
 40
12.5
  0
LINE
  5
1417B
330
1F
100
AcDbEntity
  8
中心線
100
AcDbLine
 10
2550.000000000002
 20
1804.999977260087
 30
0.0
 11
2550.000000000002
 21
1735.00001447976
 31
0.0
  0
LINE
  5
1417C
330
1F
100
AcDbEntity
  8
中心線
100
AcDbLine
 10
2584.999981390165
 20
1769.999995869928
 30
0.0
 11
2515.000018609838
 21
1769.999995869928
 31
0.0
  0
CIRCLE
  5
1417D
330
1F
100
AcDbEntity
  8
実線
100
AcDbCircle
 10
2550.000000000002
 20
1769.999995869928
 30
0.0
 40
12.5
  0
LINE
  5
1417E
330
1F
100
AcDbEntity
  8
中心線
100
AcDbLine
 10
2450.000000000001
 20
1804.999977260087
 30
0.0
 11
2450.000000000001
 21
1735.00001447976
 31
0.0
  0
LINE
  5
1417F
330
1F
100
AcDbEntity
  8
中心線
100
AcDbLine
 10
2484.999981390165
 20
1769.999995869928
 30
0.0
 11
2415.000018609838
 21
1769.999995869928
 31
0.0
  0
CIRCLE
  5
14180
330
1F
100
AcDbEntity
  8
実線
100
AcDbCircle
 10
2450.000000000001
 20
1769.999995869928
 30
0.0
 40
12.5
  0
LINE
  5
14181
330
1F
100
AcDbEntity
  8
中心線
100
AcDbLine
 10
2549.999999999998
 20
1485.000077260085
 30
0.0
 11
2550.000000000002
 21
1555.000040040411
 31
0.0
  0
LINE
  5
14182
330
1F
100
AcDbEntity
  8
中心線
100
AcDbLine
 10
2584.999981390161
 20
1520.000058650251
 30
0.0
 11
2515.000018609835
 21
1520.000058650251
 31
0.0
  0
CIRCLE
  5
14183
330
1F
100
AcDbEntity
  8
実線
100
AcDbCircle
 10
2549.999999999998
 20
1520.000058650251
 30
0.0
 40
12.5
  0
LINE
  5
14184
330
1F
100
AcDbEntity
  8
中心線
100
AcDbLine
 10
2449.999999999998
 20
1485.000077260085
 30
0.0
 11
2450.000000000001
 21
1555.000040040411
 31
0.0
  0
LINE
  5
14185
330
1F
100
AcDbEntity
  8
中心線
100
AcDbLine
 10
2484.999981390161
 20
1520.000058650251
 30
0.0
 11
2415.000018609835
 21
1520.000058650251
 31
0.0
  0
CIRCLE
  5
14186
330
1F
100
AcDbEntity
  8
実線
100
AcDbCircle
 10
2449.999999999998
 20
1520.000058650251
 30
0.0
 40
12.5
  0
LINE
  5
14187
330
1F
100
AcDbEntity
  8
中心線
100
AcDbLine
 10
2300.000000000002
 20
1754.999977260087
 30
0.0
 11
2300.000000000002
 21
1685.000014479761
 31
0.0
  0
LINE
  5
14188
330
1F
100
AcDbEntity
  8
中心線
100
AcDbLine
 10
2334.999981390165
 20
1719.999995869927
 30
0.0
 11
2265.000018609838
 21
1719.999995869927
 31
0.0
  0
CIRCLE
  5
14189
330
1F
100
AcDbEntity
  8
実線
100
AcDbCircle
 10
2300.000000000002
 20
1719.999995869927
 30
0.0
 40
12.5
  0
LINE
  5
1418A
330
1F
100
AcDbEntity
  8
中心線
100
AcDbLine
 10
2300.000000000002
 20
1535.000077260084
 30
0.0
 11
2300.000000000002
 21
1605.000040040411
 31
0.0
  0
LINE
  5
1418B
330
1F
100
AcDbEntity
  8
中心線
100
AcDbLine
 10
2334.999981390165
 20
1570.000058650251
 30
0.0
 11
2265.000018609838
 21
1570.000058650251
 31
0.0
  0
CIRCLE
  5
1418C
330
1F
100
AcDbEntity
  8
実線
100
AcDbCircle
 10
2300.000000000002
 20
1570.000058650251
 30
0.0
 40
12.5
  0
LINE
  5
1418D
330
1F
100
AcDbEntity
  8
中心線
100
AcDbLine
 10
2350.000000000001
 20
1804.999977260087
 30
0.0
 11
2350.000000000001
 21
1735.00001447976
 31
0.0
  0
LINE
  5
1418E
330
1F
100
AcDbEntity
  8
中心線
100
AcDbLine
 10
2384.999981390165
 20
1769.999995869928
 30
0.0
 11
2315.000018609838
 21
1769.999995869928
 31
0.0
  0
CIRCLE
  5
1418F
330
1F
100
AcDbEntity
  8
実線
100
AcDbCircle
 10
2350.000000000001
 20
1769.999995869928
 30
0.0
 40
12.5
  0
LINE
  5
14190
330
1F
100
AcDbEntity
  8
中心線
100
AcDbLine
 10
2349.999999999998
 20
1485.000077260085
 30
0.0
 11
2350.000000000001
 21
1555.000040040411
 31
0.0
  0
LINE
  5
14191
330
1F
100
AcDbEntity
  8
中心線
100
AcDbLine
 10
2384.999981390161
 20
1520.000058650251
 30
0.0
 11
2315.000018609834
 21
1520.000058650251
 31
0.0
  0
CIRCLE
  5
14192
330
1F
100
AcDbEntity
  8
実線
100
AcDbCircle
 10
2349.999999999998
 20
1520.000058650251
 30
0.0
 40
12.5
  0
LINE
  5
14193
330
1F
100
AcDbEntity
  8
中心線
100
AcDbLine
 10
2659.999995502145
 20
1744.939076938559
 30
0.0
 11
2623.999975689037
 21
1744.939076938559
 31
0.0
  0
LINE
  5
14194
330
1F
100
AcDbEntity
  8
中心線
100
AcDbLine
 10
2659.999995502145
 20
1544.939076938559
 30
0.0
 11
2623.999975689037
 21
1544.939076938559
 31
0.0
  0
LINE
  5
14195
330
1F
100
AcDbEntity
  8
中心線
100
AcDbLine
 10
2659.999995502145
 20
1594.939076938558
 30
0.0
 11
2623.999975689037
 21
1594.939076938558
 31
0.0
  0
LINE
  5
14196
330
1F
100
AcDbEntity
  8
中心線
100
AcDbLine
 10
2659.999995502145
 20
1694.93915158864
 30
0.0
 11
2623.999975689037
 21
1694.93915158864
 31
0.0
  0
DIMENSION
  5
14197
330
1F
100
AcDbEntity
  8
寸法線
100
AcDbDimension
280
     0
  2
*D4
 10
2299.999980186869
 20
1805.499977260074
 30
0.0
 11
2299.999980186869
 21
1814.999977260072
 31
0.0
 70
   160
 71
     5
 42
19.0
 73
     0
 74
     0
 75
     0
  3
STANDARD
100
AcDbAlignedDimension
 13
2219.99998018687
 23
1824.499977260073
 33
0.0
 14
2219.99998018687
 24
1805.499977260073
 34
0.0
 50
270.0
100
AcDbRotatedDimension
1001
ACAD
1000
DSTYLE
1002
{
1070
   271
1070
     1
1002
}
  0
DIMENSION
  5
14198
330
1F
100
AcDbEntity
  8
寸法線
100
AcDbDimension
280
     0
  2
*D5
 10
2299.999980186869
 20
1444.999977463421
 30
0.0
 11
2299.999980186869
 21
1460.000011417448
 31
0.0
 70
   160
 71
     5
 42
30.00006790805583
 73
     0
 74
     0
 75
     0
  3
STANDARD
100
AcDbAlignedDimension
 13
2228.000003766468
 23
1475.000045371477
 33
0.0
 14
2100.000000000001
 24
1444.999977463421
 34
0.0
 50
270.0
100
AcDbRotatedDimension
1001
ACAD
1000
DSTYLE
1002
{
1070
   271
1070
     1
1002
}
  0
TEXT
  5
141CD
330
1F
100
AcDbEntity
  8
寸法線
100
AcDbText
 10
2444.125310406612
 20
2137.429299214401
 30
0.0
 40
25.0
  1
ｴﾝﾄﾞﾌﾟﾚｰﾄ
 11
2444.125310406612
 21
2137.429299214401
 31
0.0
100
AcDbText
 73
     1
  0
LINE
  5
141CE
330
1F
100
AcDbEntity
  8
寸法線
100
AcDbLine
 10
2630.999990093414
 20
2131.500005023697
 30
0.0
 11
2436.83525081868
 21
2131.500005023697
 31
0.0
  0
INSERT
  5
141CF
330
1F
100
AcDbEntity
  8
寸法線
100
AcDbBlockReference
  2
_OPEN
 10
2630.999990093414
 20
2131.500005023697
 30
0.0
 41
20.0
 42
20.0
 43
20.0
  0
LINE
  5
141D0
330
1F
100
AcDbEntity
  8
実線
100
AcDbLine
 10
2649.999999999971
 20
2436.000005597326
 30
0.0
 11
2649.999999999971
 21
2054.000005597325
 31
0.0
  0
LINE
  5
141D1
330
1F
100
AcDbEntity
  8
実線
100
AcDbLine
 10
2630.99999999997
 20
2444.999968377645
 30
0.0
 11
2630.99999999997
 21
2044.999968377645
 31
0.0
  0
LINE
  5
141D2
330
1F
100
AcDbEntity
  8
実線
100
AcDbLine
 10
2630.99999999997
 20
2444.999968377645
 30
0.0
 11
2099.999980186868
 21
2444.999968377645
 31
0.0
  0
LINE
  5
141D3
330
1F
100
AcDbEntity
  8
実線
100
AcDbLine
 10
2630.99999999997
 20
2423.999968377645
 30
0.0
 11
2099.999980186868
 21
2423.999968377645
 31
0.0
  0
LINE
  5
141D4
330
1F
100
AcDbEntity
  8
実線
100
AcDbLine
 10
2219.99999999997
 20
2423.999968377645
 30
0.0
 11
2219.99999999997
 21
2394.000005597326
 31
0.0
  0
LINE
  5
141D5
330
1F
100
AcDbEntity
  8
実線
100
AcDbLine
 10
2139.999980186868
 20
2353.999968377645
 30
0.0
 11
2099.999980186868
 21
2353.999968377645
 31
0.0
  0
LINE
  5
141D6
330
1F
100
AcDbEntity
  8
実線
100
AcDbLine
 10
2219.99999999997
 20
2394.000005597326
 30
0.0
 11
2139.999980186868
 21
2353.999968377645
 31
0.0
  0
LINE
  5
141D7
330
1F
100
AcDbEntity
  8
実線
100
AcDbLine
 10
2111.999976224251
 20
2423.999968377645
 30
0.0
 11
2099.999976224251
 21
2411.999968377644
 31
0.0
  0
LINE
  5
141D8
330
1F
100
AcDbEntity
  8
仮想線
100
AcDbLine
 10
2108.999980186869
 20
2423.999968377645
 30
0.0
 11
2099.999980186868
 21
2414.999968377645
 31
0.0
  0
LINE
  5
141D9
330
1F
100
AcDbEntity
  8
実線
100
AcDbLine
 10
2219.99999999997
 20
2065.999968377644
 30
0.0
 11
2219.99999999997
 21
2095.999931157978
 31
0.0
  0
LINE
  5
141DA
330
1F
100
AcDbEntity
  8
実線
100
AcDbLine
 10
2139.999980186868
 20
2135.999968377645
 30
0.0
 11
2099.999980186868
 21
2135.999968377645
 31
0.0
  0
LINE
  5
141DB
330
1F
100
AcDbEntity
  8
実線
100
AcDbLine
 10
2219.99999999997
 20
2095.999931157978
 30
0.0
 11
2139.999980186868
 21
2135.999968377645
 31
0.0
  0
LINE
  5
141DC
330
1F
100
AcDbEntity
  8
実線
100
AcDbLine
 10
2111.999976224251
 20
2065.999968377644
 30
0.0
 11
2099.999976224251
 21
2077.999968377644
 31
0.0
  0
LINE
  5
141DD
330
1F
100
AcDbEntity
  8
仮想線
100
AcDbLine
 10
2108.999980186869
 20
2065.999968377644
 30
0.0
 11
2099.999980186868
 21
2074.999968377645
 31
0.0
  0
LINE
  5
141DE
330
1F
100
AcDbEntity
  8
実線
100
AcDbLine
 10
2649.999999999971
 20
2436.000005597326
 30
0.0
 11
2630.99999999997
 21
2436.000005597326
 31
0.0
  0
LINE
  5
141DF
330
1F
100
AcDbEntity
  8
実線
100
AcDbLine
 10
2649.999999999971
 20
2054.000031157968
 30
0.0
 11
2630.99999999997
 21
2054.000031157968
 31
0.0
  0
LINE
  5
141E0
330
1F
100
AcDbEntity
  8
仮想線
100
AcDbLine
 10
2630.99999999997
 20
2444.999968377645
 30
0.0
 11
2639.999962780304
 21
2436.000005597326
 31
0.0
  0
LINE
  5
141E1
330
1F
100
AcDbEntity
  8
仮想線
100
AcDbLine
 10
2630.99999999997
 20
2044.999968377645
 30
0.0
 11
2640.000062780294
 21
2054.000031157968
 31
0.0
  0
LINE
  5
141E2
330
1F
100
AcDbEntity
  8
実線
100
AcDbLine
 10
2630.99999999997
 20
2250.999968377644
 30
0.0
 11
2430.999980186868
 21
2250.999968377644
 31
0.0
  0
LINE
  5
141E3
330
1F
100
AcDbEntity
  8
実線
100
AcDbLine
 10
2630.99999999997
 20
2238.999968377644
 30
0.0
 11
2430.999980186868
 21
2238.999968377644
 31
0.0
  0
LINE
  5
141E4
330
1F
100
AcDbEntity
  8
実線
100
AcDbLine
 10
2430.999980186868
 20
2250.999968377644
 30
0.0
 11
2430.999980186868
 21
2238.999968377644
 31
0.0
  0
LINE
  5
141E5
330
1F
100
AcDbEntity
  8
仮想線
100
AcDbLine
 10
2099.999998018669
 20
2454.000001875353
 30
0.0
 11
2109.000031516377
 21
2444.999968377645
 31
0.0
  0
LINE
  5
141E6
330
1F
100
AcDbEntity
  8
仮想線
100
AcDbLine
 10
2099.999998018669
 20
2036.000001875353
 30
0.0
 11
2108.999964520961
 21
2044.999968377645
 31
0.0
  0
LINE
  5
141E7
330
1F
100
AcDbEntity
  8
実線
100
AcDbLine
 10
2630.99999999997
 20
2044.999968377645
 30
0.0
 11
2099.999916920511
 21
2045.000232616211
 31
0.0
  0
LINE
  5
141E8
330
1F
100
AcDbEntity
  8
実線
100
AcDbLine
 10
2630.99999999997
 20
2066.000064643905
 30
0.0
 11
2099.999923563489
 21
2066.000232616211
 31
0.0
  0
LINE
  5
141E9
330
1F
100
AcDbEntity
  8
実線
100
AcDbLine
 10
2100.0
 20
2455.000005597311
 30
0.0
 11
2100.0
 21
2035.000005597311
 31
0.0
  0
LINE
  5
141EA
330
1F
100
AcDbEntity
  8
中心線
100
AcDbLine
 10
2599.999999999971
 20
2455.000005594095
 30
0.0
 11
2599.999999999971
 21
2414.000005594095
 31
0.0
  0
LINE
  5
141EB
330
1F
100
AcDbEntity
  8
中心線
100
AcDbLine
 10
2599.999999999971
 20
2035.000005600571
 30
0.0
 11
2599.999999999971
 21
2076.000005600571
 31
0.0
  0
LINE
  5
141EC
330
1F
100
AcDbEntity
  8
中心線
100
AcDbLine
 10
2659.999995502119
 20
2344.999968272289
 30
0.0
 11
2623.999975689013
 21
2344.999968272289
 31
0.0
  0
LINE
  5
141ED
330
1F
100
AcDbEntity
  8
中心線
100
AcDbLine
 10
2659.999995502119
 20
2144.999968272289
 30
0.0
 11
2623.999975689013
 21
2144.999968272289
 31
0.0
  0
LINE
  5
141EE
330
1F
100
AcDbEntity
  8
中心線
100
AcDbLine
 10
2659.999995502119
 20
2169.999968272289
 30
0.0
 11
2623.999975689013
 21
2169.999968272289
 31
0.0
  0
LINE
  5
141EF
330
1F
100
AcDbEntity
  8
中心線
100
AcDbLine
 10
2659.999995502119
 20
2320.000042922362
 30
0.0
 11
2623.999975689013
 21
2320.000042922362
 31
0.0
  0
LINE
  5
141F0
330
1F
100
AcDbEntity
  8
中心線
100
AcDbLine
 10
2549.99999999997
 20
2455.000005594095
 30
0.0
 11
2549.99999999997
 21
2414.000005594095
 31
0.0
  0
LINE
  5
141F1
330
1F
100
AcDbEntity
  8
中心線
100
AcDbLine
 10
2549.99999999997
 20
2035.000005600571
 30
0.0
 11
2549.99999999997
 21
2076.000005600571
 31
0.0
  0
LINE
  5
141F2
330
1F
100
AcDbEntity
  8
中心線
100
AcDbLine
 10
2499.999999999971
 20
2455.000005594095
 30
0.0
 11
2499.999999999971
 21
2414.000005594095
 31
0.0
  0
LINE
  5
141F3
330
1F
100
AcDbEntity
  8
中心線
100
AcDbLine
 10
2499.999999999971
 20
2035.000005600571
 30
0.0
 11
2499.999999999971
 21
2076.000005600571
 31
0.0
  0
LINE
  5
141F4
330
1F
100
AcDbEntity
  8
中心線
100
AcDbLine
 10
2449.999999999971
 20
2455.000005594095
 30
0.0
 11
2449.999999999971
 21
2414.000005594095
 31
0.0
  0
LINE
  5
141F5
330
1F
100
AcDbEntity
  8
中心線
100
AcDbLine
 10
2449.999999999971
 20
2035.000005600571
 30
0.0
 11
2449.999999999971
 21
2076.000005600571
 31
0.0
  0
LINE
  5
141F6
330
1F
100
AcDbEntity
  8
中心線
100
AcDbLine
 10
2399.999999999971
 20
2455.000005594095
 30
0.0
 11
2399.999999999971
 21
2414.000005594095
 31
0.0
  0
LINE
  5
141F7
330
1F
100
AcDbEntity
  8
中心線
100
AcDbLine
 10
2399.999999999971
 20
2035.000005600571
 30
0.0
 11
2399.999999999971
 21
2076.000005600571
 31
0.0
  0
LINE
  5
141F8
330
1F
100
AcDbEntity
  8
中心線
100
AcDbLine
 10
2349.999999999971
 20
2455.000005594095
 30
0.0
 11
2349.999999999971
 21
2414.000005594095
 31
0.0
  0
LINE
  5
141F9
330
1F
100
AcDbEntity
  8
中心線
100
AcDbLine
 10
2349.999999999971
 20
2035.000005600571
 30
0.0
 11
2349.999999999971
 21
2076.000005600571
 31
0.0
  0
LINE
  5
141FA
330
1F
100
AcDbEntity
  8
中心線
100
AcDbLine
 10
2299.99999999997
 20
2455.000005594095
 30
0.0
 11
2299.99999999997
 21
2414.000005594095
 31
0.0
  0
LINE
  5
141FB
330
1F
100
AcDbEntity
  8
中心線
100
AcDbLine
 10
2299.99999999997
 20
2035.000005600571
 30
0.0
 11
2299.99999999997
 21
2076.000005600571
 31
0.0
  0
DIMENSION
  5
141FC
330
1F
100
AcDbEntity
  8
寸法線
100
AcDbDimension
280
     0
  2
*D6
 10
2330.999994621859
 20
2239.000002244078
 30
0.0
 11
2330.999994621859
 21
2245.000002244077
 31
0.0
 70
   160
 71
     5
 42
12.0
 73
     0
 74
     0
 75
     0
  3
STANDARD
100
AcDbAlignedDimension
 13
2430.999980186868
 23
2251.000002244077
 33
0.0
 14
2430.999980186868
 24
2239.000002244077
 34
0.0
 50
90.0
100
AcDbRotatedDimension
1001
ACAD
1000
DSTYLE
1002
{
1070
   140
1040
2.5
1002
}
  0
TEXT
  5
141FD
330
1F
100
AcDbEntity
  8
寸法線
100
AcDbText
 10
2359.029106229262
 20
2328.750002244077
 30
0.0
 40
25.0
  1
ﾘﾌﾞﾌﾟﾚｰﾄ②
 72
     2
 11
2502.362439562595
 21
2328.750002244077
 31
0.0
100
AcDbText
 73
     1
  0
LEADER
  5
141FE
330
1F
100
AcDbEntity
  8
寸法線
100
AcDbLeader
  3
STANDARD
 76
     3
 10
2537.253722114809
 20
2250.999968377637
 30
0.0
 10
2505.166366832156
 20
2320.000002244077
 30
0.0
 10
2353.025278840068
 20
2320.000002244077
 30
0.0
1001
ACAD
1000
DSTYLE
1002
{
1070
   147
1040
0.875
1070
    77
1070
     0
1002
}
  0
TEXT
  5
141FF
330
1F
100
AcDbEntity
  8
寸法線
100
AcDbText
 10
2194.018087443053
 20
2144.267188017886
 30
0.0
 40
25.0
  1
ﾘﾌﾞﾌﾟﾚｰﾄ①
 72
     2
 11
2337.351420776387
 21
2144.267188017886
 31
0.0
100
AcDbText
 73
     1
  0
LEADER
  5
14200
330
1F
100
AcDbEntity
  8
寸法線
100
AcDbLeader
  3
STANDARD
 76
     3
 10
2156.294238475448
 20
2090.943877848251
 30
0.0
 10
2191.294238475447
 20
2138.443877848251
 30
0.0
 10
2344.384783010165
 20
2138.443877848251
 30
0.0
211
-1.0
221
0.0
231
0.0
1001
ACAD
1000
DSTYLE
1002
{
1070
   147
1040
0.875
1070
    77
1070
     0
1002
}
  0
DIMENSION
  5
14201
330
1F
100
AcDbEntity
  8
寸法線
100
AcDbDimension
280
     0
  2
*D7
 10
2100.0
 20
2685.000005597312
 30
0.0
 11
2375.0
 21
2685.000005597312
 31
0.0
 70
   160
  1
<>\XH型鋼（連結部）
 71
     5
 42
550.0
 73
     0
 74
     0
 75
     0
  3
STANDARD
100
AcDbAlignedDimension
 13
2650.0
 23
2436.000042816985
 33
0.0
 14
2100.0
 24
2455.000042816986
 34
0.0
 50
180.0
100
AcDbRotatedDimension
  0
LEADER
  5
14202
330
1F
100
AcDbEntity
  8
寸法線
100
AcDbLeader
  3
STANDARD
 76
     3
 10
2356.123092980646
 20
1780.897598007572
 30
0.0
 10
2431.471927565886
 20
1915.000023602056
 30
0.0
 10
2699.132104500706
 20
1915.000023602056
 30
0.0
211
-1.0
221
0.0
231
0.0
1001
ACAD
1000
DSTYLE
1002
{
1070
   147
1040
0.875
1070
    77
1070
     0
1002
}
  0
TEXT
  5
14203
330
1F
100
AcDbEntity
  8
寸法線
100
AcDbText
 10
2440.221927565881
 20
1923.750023602056
 30
0.0
 40
25.0
  1
ｶﾊﾞｰﾌﾟﾚｰﾄ連結用孔
 72
     2
 11
2688.555260899214
 21
1948.750023602056
 31
0.0
100
AcDbText
 73
     3
  0
LINE
  5
14204
330
1F
100
AcDbEntity
  8
実線
100
AcDbLine
 10
1692.000000000001
 20
2014.999994779134
 30
0.0
 11
1692.000000000001
 21
2474.999994779134
 31
0.0
  0
LINE
  5
14205
330
1F
100
AcDbEntity
  8
実線
100
AcDbLine
 10
1692.000000000001
 20
2474.999994779134
 30
0.0
 11
1708.000000000001
 21
2474.999994779134
 31
0.0
  0
LINE
  5
14206
330
1F
100
AcDbEntity
  8
実線
100
AcDbLine
 10
1708.000000000001
 20
2014.999994779134
 30
0.0
 11
1708.000000000001
 21
2474.999994779134
 31
0.0
  0
LINE
  5
14207
330
1F
100
AcDbEntity
  8
実線
100
AcDbLine
 10
1692.000000000001
 20
2014.999994779134
 30
0.0
 11
1708.000000000001
 21
2014.999994779134
 31
0.0
  0
LINE
  5
14208
330
1F
100
AcDbEntity
  8
破線
100
AcDbLine
 10
1692.000000000001
 20
2384.999994779134
 30
0.0
 11
1708.000000000001
 21
2384.999994779134
 31
0.0
  0
LINE
  5
14209
330
1F
100
AcDbEntity
  8
破線
100
AcDbLine
 10
1692.000000000001
 20
2104.999994779134
 30
0.0
 11
1708.000000000001
 21
2104.999994779134
 31
0.0
  0
LINE
  5
1420A
330
1F
100
AcDbEntity
  8
破線
100
AcDbLine
 10
1692.000000000001
 20
2044.999994779134
 30
0.0
 11
1708.000000000001
 21
2044.999994779134
 31
0.0
  0
LINE
  5
1420B
330
1F
100
AcDbEntity
  8
実線
100
AcDbLine
 10
1692.000000000001
 20
1415.000003661562
 30
0.0
 11
1692.000000000001
 21
1875.000003661562
 31
0.0
  0
LINE
  5
1420C
330
1F
100
AcDbEntity
  8
実線
100
AcDbLine
 10
1692.000000000001
 20
1875.000003661562
 30
0.0
 11
1708.000000000001
 21
1875.000003661562
 31
0.0
  0
LINE
  5
1420D
330
1F
100
AcDbEntity
  8
実線
100
AcDbLine
 10
1708.000000000001
 20
1415.000003661562
 30
0.0
 11
1708.000000000001
 21
1875.000003661562
 31
0.0
  0
LINE
  5
1420E
330
1F
100
AcDbEntity
  8
実線
100
AcDbLine
 10
1692.000000000001
 20
1415.000003661562
 30
0.0
 11
1708.000000000001
 21
1415.000003661562
 31
0.0
  0
LINE
  5
1420F
330
1F
100
AcDbEntity
  8
破線
100
AcDbLine
 10
1692.000000000001
 20
1785.000003661562
 30
0.0
 11
1708.000000000001
 21
1785.000003661562
 31
0.0
  0
LINE
  5
14210
330
1F
100
AcDbEntity
  8
破線
100
AcDbLine
 10
1692.000000000001
 20
1505.000003661562
 30
0.0
 11
1708.000000000001
 21
1505.000003661562
 31
0.0
  0
LINE
  5
14211
330
1F
100
AcDbEntity
  8
破線
100
AcDbLine
 10
1692.000000000001
 20
1445.000003661562
 30
0.0
 11
1708.000000000001
 21
1445.000003661562
 31
0.0
  0
LINE
  5
14212
330
1F
100
AcDbEntity
  8
破線
100
AcDbLine
 10
1692.000000000001
 20
2444.999994779134
 30
0.0
 11
1708.000000000001
 21
2444.999994779134
 31
0.0
  0
LINE
  5
14213
330
1F
100
AcDbEntity
  8
実線
100
AcDbLine
 10
1692.000000000001
 20
1785.000014479739
 30
0.0
 11
1347.999896414976
 21
1785.000014479739
 31
0.0
  0
LINE
  5
14214
330
1F
100
AcDbEntity
  8
実線
100
AcDbLine
 10
1692.000000000001
 20
1845.00001447974
 30
0.0
 11
1315.999896414976
 21
1845.00001447974
 31
0.0
  0
LINE
  5
14215
330
1F
100
AcDbEntity
  8
実線
100
AcDbLine
 10
1692.000000000001
 20
1505.000014479739
 30
0.0
 11
1347.999896414976
 21
1505.000014479739
 31
0.0
  0
LINE
  5
14216
330
1F
100
AcDbEntity
  8
実線
100
AcDbLine
 10
1692.000000000001
 20
1445.000014479739
 30
0.0
 11
1315.999896414976
 21
1445.000014479739
 31
0.0
  0
LINE
  5
14217
330
1F
100
AcDbEntity
  8
実線
100
AcDbLine
 10
1692.000000000001
 20
2384.999996474995
 30
0.0
 11
1347.999896414976
 21
2384.999996474995
 31
0.0
  0
LINE
  5
14218
330
1F
100
AcDbEntity
  8
実線
100
AcDbLine
 10
1692.000000000001
 20
2444.999996474995
 30
0.0
 11
1315.999896414976
 21
2444.999996474996
 31
0.0
  0
LINE
  5
14219
330
1F
100
AcDbEntity
  8
実線
100
AcDbLine
 10
1692.000000000001
 20
2104.999996474996
 30
0.0
 11
1347.999896414976
 21
2104.999996474996
 31
0.0
  0
LINE
  5
1421A
330
1F
100
AcDbEntity
  8
実線
100
AcDbLine
 10
1692.000000000001
 20
2044.999996474996
 30
0.0
 11
1315.999896414976
 21
2044.999996474996
 31
0.0
  0
LINE
  5
1421B
330
1F
100
AcDbEntity
  8
破線
100
AcDbLine
 10
1692.000000000001
 20
1845.000003661562
 30
0.0
 11
1708.000000000001
 21
1845.000003661562
 31
0.0
  0
TEXT
  5
1421C
330
1F
100
AcDbEntity
  8
寸法線
100
AcDbText
 10
3152.960992024409
 20
1743.395834101175
 30
0.0
 40
25.0
  1
※　H型鋼（連結部）の長さは、切梁メーカー仕様または施工条件
 11
3152.960992024409
 21
1743.395834101175
 31
0.0
100
AcDbText
 73
     1
  0
TEXT
  5
1421D
330
1F
100
AcDbEntity
  8
寸法線
100
AcDbText
 10
3152.960992024409
 20
1793.395834101175
 30
0.0
 40
25.0
  1
※　H型鋼（連結部）の穴開け位置は、切梁メーカー仕様による。
 11
3152.960992024409
 21
1793.395834101175
 31
0.0
100
AcDbText
 73
     1
  0
TEXT
  5
1421E
330
1F
100
AcDbEntity
  8
寸法線
100
AcDbText
 10
3152.960992024409
 20
1693.395834101175
 30
0.0
 40
25.0
  1
　　により変更する場合がある。
 11
3152.960992024409
 21
1693.395834101175
 31
0.0
100
AcDbText
 73
     1
  0
TEXT
  5
1421F
330
1F
100
AcDbEntity
  8
寸法線
100
AcDbText
 10
3152.960992024409
 20
1643.395834101175
 30
0.0
 40
25.0
  1
※　空洞金具部は鉄筋防錆剤塗装仕上げ。
 11
3152.960992024409
 21
1643.395834101175
 31
0.0
100
AcDbText
 73
     1
  0
TEXT
  5
14220
330
1F
100
AcDbEntity
  8
寸法線
100
AcDbText
 10
3152.960992024409
 20
1593.395834101175
 30
0.0
 40
25.0
  1
※　H型鋼（連結部）は赤さび塗装仕上げ。
 11
3152.960992024409
 21
1593.395834101175
 31
0.0
100
AcDbText
 73
     1
  0
LINE
  5
14221
330
1F
100
AcDbEntity
  8
実線
100
AcDbLine
 10
1299.999896414978
 20
589.9997574962526
 30
0.0
 11
1299.999896414978
 21
1009.999739251643
 31
0.0
  0
LINE
  5
14222
330
1F
100
AcDbEntity
  8
実線
100
AcDbLine
 10
1299.999896414978
 20
1009.999739251643
 30
0.0
 11
1315.999896414978
 21
1009.999739251643
 31
0.0
  0
LINE
  5
14223
330
1F
100
AcDbEntity
  8
実線
100
AcDbLine
 10
1347.999896414978
 20
656.9997574962526
 30
0.0
 11
1347.999896414978
 21
942.9997574962525
 31
0.0
  0
LINE
  5
14224
330
1F
100
AcDbEntity
  8
中心線
100
AcDbLine
 10
1274.999896414978
 20
799.9997392516452
 30
0.0
 11
2124.999896414975
 21
799.9997392516434
 31
0.0
  0
LINE
  5
14225
330
1F
100
AcDbEntity
  8
中心線
100
AcDbLine
 10
1289.999999999993
 20
969.9997392516435
 30
0.0
 11
2109.999999999994
 21
969.9997392516435
 31
0.0
  0
LINE
  5
14226
330
1F
100
AcDbEntity
  8
破線
100
AcDbLine
 10
1315.999896414978
 20
983.9997392516433
 30
0.0
 11
1347.999896414978
 21
983.9997392516433
 31
0.0
  0
LINE
  5
14227
330
1F
100
AcDbEntity
  8
破線
100
AcDbLine
 10
1347.999896414978
 20
983.9997574962525
 30
0.0
 11
1347.999896414978
 21
999.9997392516434
 31
0.0
  0
LINE
  5
14228
330
1F
100
AcDbEntity
  8
破線
100
AcDbLine
 10
1324.999896414978
 20
939.9997392516434
 30
0.0
 11
1347.999896414978
 21
939.9997392516434
 31
0.0
  0
LINE
  5
14229
330
1F
100
AcDbEntity
  8
実線
100
AcDbLine
 10
1327.999896414979
 20
942.9997392516433
 30
0.0
 11
1347.999896414978
 21
942.9997392516433
 31
0.0
  0
LINE
  5
1422A
330
1F
100
AcDbEntity
  8
実線
100
AcDbLine
 10
1315.999896414978
 20
930.9997392516434
 30
0.0
 11
1327.999896414979
 21
942.9997392516433
 31
0.0
  0
LINE
  5
1422B
330
1F
100
AcDbEntity
  8
実線
100
AcDbLine
 10
1315.999896414978
 20
939.9997392516434
 30
0.0
 11
1324.999896414978
 21
939.9997392516434
 31
0.0
  0
LINE
  5
1422C
330
1F
100
AcDbEntity
  8
破線
100
AcDbLine
 10
2051.999896414979
 20
983.9997574962525
 30
0.0
 11
2051.999896414979
 21
999.9997392516434
 31
0.0
  0
LINE
  5
1422D
330
1F
100
AcDbEntity
  8
破線
100
AcDbLine
 10
2083.999896414979
 20
983.9997392516433
 30
0.0
 11
2051.999896414979
 21
983.9997392516433
 31
0.0
  0
LINE
  5
1422E
330
1F
100
AcDbEntity
  8
破線
100
AcDbLine
 10
1315.999896414978
 20
807.9997392516434
 30
0.0
 11
1347.999896414978
 21
807.9997392516434
 31
0.0
  0
LINE
  5
1422F
330
1F
100
AcDbEntity
  8
破線
100
AcDbLine
 10
1315.999896414978
 20
791.9997392516433
 30
0.0
 11
1347.999896414978
 21
791.9997392516433
 31
0.0
  0
LINE
  5
14230
330
1F
100
AcDbEntity
  8
破線
100
AcDbLine
 10
2051.999896414979
 20
807.9997392516434
 30
0.0
 11
2083.999896414979
 21
807.9997392516434
 31
0.0
  0
LINE
  5
14231
330
1F
100
AcDbEntity
  8
破線
100
AcDbLine
 10
2051.999896414979
 20
791.9997392516433
 30
0.0
 11
2083.999896414979
 21
791.9997392516433
 31
0.0
  0
DIMENSION
  5
14232
330
1F
100
AcDbEntity
  8
寸法線
100
AcDbDimension
280
     0
  2
*D17
 10
2083.999896414979
 20
499.9999828018776
 30
0.0
 11
2067.999948207486
 21
499.9999828018776
 31
0.0
 70
   160
 71
     5
 42
31.99989641498542
 73
     0
 74
     0
 75
     0
  3
STANDARD
100
AcDbAlignedDimension
 13
2051.999999999993
 23
599.9997392516434
 33
0.0
 14
2083.999896414979
 24
589.9997392516434
 34
0.0
100
AcDbRotatedDimension
  0
DIMENSION
  5
14233
330
1F
100
AcDbEntity
  8
寸法線
100
AcDbDimension
280
     0
  2
*D18
 10
2099.999896414979
 20
439.9999828018776
 30
0.0
 11
2091.999896414979
 21
439.9999828018776
 31
0.0
 70
   160
 71
     5
 42
16.0
 73
     0
 74
     0
 75
     0
  3
STANDARD
100
AcDbAlignedDimension
 13
2083.999896414979
 23
589.9997392516434
 33
0.0
 14
2099.999896414979
 24
589.9997392516434
 34
0.0
100
AcDbRotatedDimension
  0
DIMENSION
  5
14234
330
1F
100
AcDbEntity
  8
寸法線
100
AcDbDimension
280
     0
  2
*D19
 10
2023.999896414979
 20
999.9997392516439
 30
0.0
 11
2023.999896414979
 21
886.2398967319368
 31
0.0
 70
   160
  1
%%C<>
 71
     5
 42
60.0
 73
     0
 74
     0
 75
     0
  3
STANDARD
100
AcDbAlignedDimension
 13
2023.999896414979
 23
939.9997392516434
 33
0.0
 14
2023.999896414979
 24
999.9997392516434
 34
0.0
 50
90.0
100
AcDbRotatedDimension
  0
LINE
  5
14235
330
1F
100
AcDbEntity
  8
仮想線
100
AcDbLine
 10
1371.462948669148
 20
539.9997574962526
 30
0.0
 11
1371.462948669148
 21
1059.999757496252
 31
0.0
  0
TEXT
  5
14236
330
1F
100
AcDbEntity
  8
寸法線
100
AcDbText
 10
1421.118171036196
 20
1038.799739251643
 30
0.0
 40
21.0
  1
Ａ
 72
     4
 11
1430.918171036196
 21
1049.999739251643
 31
0.0
100
AcDbText
  0
TEXT
  5
14237
330
1F
100
AcDbEntity
  8
寸法線
100
AcDbText
 10
1421.118171036196
 20
538.7997392516433
 30
0.0
 40
21.0
  1
Ａ
 72
     4
 11
1430.918171036196
 21
549.9997392516434
 31
0.0
100
AcDbText
  0
LINE
  5
14238
330
1F
100
AcDbEntity
  8
実線
100
AcDbLine
 10
2083.999896414979
 20
1009.999739251643
 30
0.0
 11
2099.999896414979
 21
1009.999739251643
 31
0.0
  0
LINE
  5
14239
330
1F
100
AcDbEntity
  8
実線
100
AcDbLine
 10
1315.999896414978
 20
589.9997574962526
 30
0.0
 11
1315.999896414978
 21
1009.999739251643
 31
0.0
  0
LINE
  5
1423A
330
1F
100
AcDbEntity
  8
実線
100
AcDbLine
 10
2083.999896414979
 20
589.9997574962526
 30
0.0
 11
2083.999896414979
 21
1009.999739251643
 31
0.0
  0
LINE
  5
1423B
330
1F
100
AcDbEntity
  8
実線
100
AcDbLine
 10
2099.999896414979
 20
589.9997574962526
 30
0.0
 11
2099.999896414979
 21
1009.999739251643
 31
0.0
  0
LINE
  5
1423C
330
1F
100
AcDbEntity
  8
実線
100
AcDbLine
 10
1299.999896414978
 20
589.9997392516434
 30
0.0
 11
1315.999896414978
 21
589.9997392516434
 31
0.0
  0
LINE
  5
1423D
330
1F
100
AcDbEntity
  8
中心線
100
AcDbLine
 10
1289.999999999993
 20
629.9997392516433
 30
0.0
 11
2109.999999999994
 21
629.9997392516433
 31
0.0
  0
LINE
  5
1423E
330
1F
100
AcDbEntity
  8
破線
100
AcDbLine
 10
1315.999896414978
 20
615.9997392516434
 30
0.0
 11
1347.999896414978
 21
615.9997392516434
 31
0.0
  0
LINE
  5
1423F
330
1F
100
AcDbEntity
  8
破線
100
AcDbLine
 10
1347.999896414978
 20
615.999721007005
 30
0.0
 11
1347.999896414978
 21
599.9997392516434
 31
0.0
  0
LINE
  5
14240
330
1F
100
AcDbEntity
  8
破線
100
AcDbLine
 10
1324.999896414978
 20
659.9997392516434
 30
0.0
 11
1347.999896414978
 21
659.9997392516434
 31
0.0
  0
LINE
  5
14241
330
1F
100
AcDbEntity
  8
実線
100
AcDbLine
 10
1327.999896414979
 20
656.9997392516434
 30
0.0
 11
1347.999896414978
 21
656.9997392516434
 31
0.0
  0
LINE
  5
14242
330
1F
100
AcDbEntity
  8
実線
100
AcDbLine
 10
1315.999896414978
 20
668.9997392516434
 30
0.0
 11
1327.999896414979
 21
656.9997392516434
 31
0.0
  0
LINE
  5
14243
330
1F
100
AcDbEntity
  8
実線
100
AcDbLine
 10
1315.999896414978
 20
659.9997392516434
 30
0.0
 11
1324.999896414978
 21
659.9997392516434
 31
0.0
  0
LINE
  5
14244
330
1F
100
AcDbEntity
  8
破線
100
AcDbLine
 10
2051.999896414979
 20
615.999721007005
 30
0.0
 11
2051.999896414979
 21
599.9997392516434
 31
0.0
  0
LINE
  5
14245
330
1F
100
AcDbEntity
  8
破線
100
AcDbLine
 10
2083.999896414979
 20
615.9997392516434
 30
0.0
 11
2051.999896414979
 21
615.9997392516434
 31
0.0
  0
LINE
  5
14246
330
1F
100
AcDbEntity
  8
実線
100
AcDbLine
 10
2083.999896414979
 20
589.9997392516434
 30
0.0
 11
2099.999896414979
 21
589.9997392516434
 31
0.0
  0
LINE
  5
14247
330
1F
100
AcDbEntity
  8
実線
100
AcDbLine
 10
2051.999999999993
 20
656.9997574962526
 30
0.0
 11
2051.999999999993
 21
942.9997574962525
 31
0.0
  0
LINE
  5
14248
330
1F
100
AcDbEntity
  8
破線
100
AcDbLine
 10
2074.999999999993
 20
939.9997392516434
 30
0.0
 11
2051.999999999993
 21
939.9997392516434
 31
0.0
  0
LINE
  5
14249
330
1F
100
AcDbEntity
  8
実線
100
AcDbLine
 10
2071.999999999993
 20
942.9997392516433
 30
0.0
 11
2051.999999999993
 21
942.9997392516433
 31
0.0
  0
LINE
  5
1424A
330
1F
100
AcDbEntity
  8
実線
100
AcDbLine
 10
2083.999999999993
 20
930.9997392516434
 30
0.0
 11
2071.999999999993
 21
942.9997392516433
 31
0.0
  0
LINE
  5
1424B
330
1F
100
AcDbEntity
  8
実線
100
AcDbLine
 10
2083.999999999993
 20
939.9997392516434
 30
0.0
 11
2074.999999999993
 21
939.9997392516434
 31
0.0
  0
LINE
  5
1424C
330
1F
100
AcDbEntity
  8
破線
100
AcDbLine
 10
2074.999999999993
 20
659.9997392516434
 30
0.0
 11
2051.999999999993
 21
659.9997392516434
 31
0.0
  0
LINE
  5
1424D
330
1F
100
AcDbEntity
  8
実線
100
AcDbLine
 10
2071.999999999993
 20
656.9997392516434
 30
0.0
 11
2051.999999999993
 21
656.9997392516434
 31
0.0
  0
LINE
  5
1424E
330
1F
100
AcDbEntity
  8
実線
100
AcDbLine
 10
2083.999999999993
 20
668.9997392516434
 30
0.0
 11
2071.999999999993
 21
656.9997392516434
 31
0.0
  0
LINE
  5
1424F
330
1F
100
AcDbEntity
  8
実線
100
AcDbLine
 10
2083.999999999993
 20
659.9997392516434
 30
0.0
 11
2074.999999999993
 21
659.9997392516434
 31
0.0
  0
LINE
  5
14250
330
1F
100
AcDbEntity
  8
実線
100
AcDbLine
 10
1691.999948207486
 20
569.9997392516434
 30
0.0
 11
1691.999948207486
 21
1029.999739251643
 31
0.0
  0
LINE
  5
14251
330
1F
100
AcDbEntity
  8
実線
100
AcDbLine
 10
1691.999948207486
 20
1029.999739251643
 30
0.0
 11
1707.999948207486
 21
1029.999739251643
 31
0.0
  0
LINE
  5
14252
330
1F
100
AcDbEntity
  8
実線
100
AcDbLine
 10
1707.999948207486
 20
569.9997392516434
 30
0.0
 11
1707.999948207486
 21
1029.999739251643
 31
0.0
  0
LINE
  5
14253
330
1F
100
AcDbEntity
  8
実線
100
AcDbLine
 10
1691.999948207486
 20
569.9997392516434
 30
0.0
 11
1707.999948207486
 21
569.9997392516434
 31
0.0
  0
LINE
  5
14254
330
1F
100
AcDbEntity
  8
破線
100
AcDbLine
 10
1691.999948207486
 20
999.9997392516434
 30
0.0
 11
1707.999948207486
 21
999.9997392516434
 31
0.0
  0
LINE
  5
14255
330
1F
100
AcDbEntity
  8
破線
100
AcDbLine
 10
1691.999948207486
 20
939.9997392516434
 30
0.0
 11
1707.999948207486
 21
939.9997392516434
 31
0.0
  0
LINE
  5
14256
330
1F
100
AcDbEntity
  8
破線
100
AcDbLine
 10
1691.999948207486
 20
659.9997392516434
 30
0.0
 11
1707.999948207486
 21
659.9997392516434
 31
0.0
  0
LINE
  5
14257
330
1F
100
AcDbEntity
  8
破線
100
AcDbLine
 10
1691.999948207486
 20
599.9997392516434
 30
0.0
 11
1707.999948207486
 21
599.9997392516434
 31
0.0
  0
LINE
  5
14258
330
1F
100
AcDbEntity
  8
仮想線
100
AcDbLine
 10
1763.463000461685
 20
539.9997574962526
 30
0.0
 11
1763.463000461685
 21
1059.999757496252
 31
0.0
  0
TEXT
  5
14259
330
1F
100
AcDbEntity
  8
寸法線
100
AcDbText
 10
1812.418222828703
 20
1038.799739251643
 30
0.0
 40
21.0
  1
Ｂ
 72
     4
 11
1822.918222828703
 21
1049.999739251643
 31
0.0
100
AcDbText
  0
TEXT
  5
1425A
330
1F
100
AcDbEntity
  8
寸法線
100
AcDbText
 10
1812.418222828703
 20
538.7997392516433
 30
0.0
 40
21.0
  1
Ｂ
 72
     4
 11
1822.918222828703
 21
549.9997392516434
 31
0.0
100
AcDbText
  0
LINE
  5
1425B
330
1F
100
AcDbEntity
  8
実線
100
AcDbLine
 10
1707.999948207486
 20
939.9997392516416
 30
0.0
 11
2051.999999999993
 21
939.9997392516434
 31
0.0
  0
LINE
  5
1425C
330
1F
100
AcDbEntity
  8
実線
100
AcDbLine
 10
1707.999948207486
 20
999.9997392516434
 30
0.0
 11
2083.999999999993
 21
999.9997392516434
 31
0.0
  0
LINE
  5
1425D
330
1F
100
AcDbEntity
  8
実線
100
AcDbLine
 10
1707.999948207486
 20
659.9997392516434
 30
0.0
 11
2051.999999999993
 21
659.9997392516434
 31
0.0
  0
LINE
  5
1425E
330
1F
100
AcDbEntity
  8
実線
100
AcDbLine
 10
1707.999948207486
 20
599.9997392516434
 30
0.0
 11
2083.999999999993
 21
599.9997392516434
 31
0.0
  0
LINE
  5
1425F
330
1F
100
AcDbEntity
  8
実線
100
AcDbLine
 10
1691.999948207486
 20
939.9997392516416
 30
0.0
 11
1347.999896414978
 21
939.9997392516434
 31
0.0
  0
LINE
  5
14260
330
1F
100
AcDbEntity
  8
実線
100
AcDbLine
 10
1691.999948207486
 20
999.9997392516434
 30
0.0
 11
1315.999896414978
 21
999.9997392516434
 31
0.0
  0
LINE
  5
14261
330
1F
100
AcDbEntity
  8
実線
100
AcDbLine
 10
1691.999948207486
 20
659.9997392516434
 30
0.0
 11
1347.999896414978
 21
659.9997392516434
 31
0.0
  0
LINE
  5
14262
330
1F
100
AcDbEntity
  8
実線
100
AcDbLine
 10
1691.999948207486
 20
599.9997392516434
 30
0.0
 11
1315.999896414978
 21
599.9997392516434
 31
0.0
  0
LEADER
  5
14263
330
1F
100
AcDbEntity
  8
寸法線
100
AcDbLeader
  3
STANDARD
 76
     2
 10
1371.462948669148
 20
1049.999739251643
 30
0.0
 10
1418.859683854993
 20
1049.999739251643
 30
0.0
1001
ACAD
1000
DSTYLE
1002
{
1070
   147
1040
0.875
1070
    77
1070
     0
1070
    49
1040
0.5
1002
}
  0
LEADER
  5
14264
330
1F
100
AcDbEntity
  8
寸法線
100
AcDbLeader
  3
STANDARD
 76
     2
 10
1371.462948669148
 20
549.9997392516434
 30
0.0
 10
1418.859683854993
 20
549.9997392516434
 30
0.0
1001
ACAD
1000
DSTYLE
1002
{
1070
   147
1040
0.875
1070
    77
1070
     0
1070
    49
1040
0.5
1002
}
  0
LEADER
  5
14265
330
1F
100
AcDbEntity
  8
寸法線
100
AcDbLeader
  3
STANDARD
 76
     2
 10
1763.463000461685
 20
1049.999739251643
 30
0.0
 10
1810.8597356475
 20
1049.999739251643
 30
0.0
1001
ACAD
1000
DSTYLE
1002
{
1070
   147
1040
0.875
1070
    77
1070
     0
1070
    49
1040
0.5
1002
}
  0
LEADER
  5
14266
330
1F
100
AcDbEntity
  8
寸法線
100
AcDbLeader
  3
STANDARD
 76
     2
 10
1763.463000461685
 20
549.9997392516434
 30
0.0
 10
1810.8597356475
 20
549.9997392516434
 30
0.0
1001
ACAD
1000
DSTYLE
1002
{
1070
   147
1040
0.875
1070
    77
1070
     0
1070
    49
1040
0.5
1002
}
  0
DIMENSION
  5
14267
330
1F
100
AcDbEntity
  8
寸法線
100
AcDbDimension
280
     0
  2
*D20
 10
1347.999896414978
 20
499.9999828018776
 30
0.0
 11
1331.999896414978
 21
499.9999828018776
 31
0.0
 70
   160
 71
     5
 42
32.0
 73
     0
 74
     0
 75
     0
  3
STANDARD
100
AcDbAlignedDimension
 13
1315.999896414978
 23
589.9997529351148
 33
0.0
 14
1347.999896414978
 24
599.9997529351149
 34
0.0
100
AcDbRotatedDimension
  0
DIMENSION
  5
14268
330
1F
100
AcDbEntity
  8
寸法線
100
AcDbDimension
280
     0
  2
*D21
 10
2051.999896414979
 20
499.9999828018776
 30
0.0
 11
1699.999896414978
 21
521.2499828018776
 31
0.0
 70
    32
 71
     5
 42
704.0
 73
     0
 74
     0
 75
     0
  3
STANDARD
100
AcDbAlignedDimension
 13
1347.999896414978
 23
599.9997529351149
 33
0.0
 14
2051.999896414979
 24
599.9997392516434
 34
0.0
100
AcDbRotatedDimension
  0
DIMENSION
  5
14269
330
1F
100
AcDbEntity
  8
寸法線
100
AcDbDimension
280
     0
  2
*D22
 10
1315.999896414978
 20
439.9999828018776
 30
0.0
 11
1307.999896414978
 21
439.9999828018776
 31
0.0
 70
   160
 71
     5
 42
16.0
 73
     0
 74
     0
 75
     0
  3
STANDARD
100
AcDbAlignedDimension
 13
1299.999896414978
 23
589.9997529351148
 33
0.0
 14
1315.999896414978
 24
589.9997529351148
 34
0.0
100
AcDbRotatedDimension
  0
DIMENSION
  5
1426A
330
1F
100
AcDbEntity
  8
寸法線
100
AcDbDimension
280
     0
  2
*D23
 10
2083.999896414979
 20
439.9999828018776
 30
0.0
 11
1699.999896414978
 21
461.2499828018776
 31
0.0
 70
    32
 71
     5
 42
768.0
 73
     0
 74
     0
 75
     0
  3
STANDARD
100
AcDbAlignedDimension
 13
1315.999896414978
 23
589.9997529351148
 33
0.0
 14
2083.999896414979
 24
589.9997574962526
 34
0.0
100
AcDbRotatedDimension
  0
DIMENSION
  5
1426B
330
1F
100
AcDbEntity
  8
寸法線
100
AcDbDimension
280
     0
  2
*D24
 10
2099.999896414979
 20
379.9999828018777
 30
0.0
 11
1699.999896414978
 21
401.2499828018776
 31
0.0
 70
    32
 71
     5
 42
800.0
 73
     0
 74
     0
 75
     0
  3
STANDARD
100
AcDbAlignedDimension
 13
1299.999896414978
 23
589.9997711797241
 33
0.0
 14
2099.999896414979
 24
589.9997574962526
 34
0.0
100
AcDbRotatedDimension
  0
LINE
  5
1426C
330
1F
100
AcDbEntity
  8
破線
100
AcDbLine
 10
716.4998964149786
 20
807.9997392516288
 30
0.0
 11
1083.499896414978
 21
807.9997392516288
 31
0.0
  0
LINE
  5
1426D
330
1F
100
AcDbEntity
  8
中心線
100
AcDbLine
 10
664.9999201993855
 20
799.9997392516288
 30
0.0
 11
1134.999920199385
 21
799.9997392516288
 31
0.0
  0
LINE
  5
1426E
330
1F
100
AcDbEntity
  8
実線
100
AcDbLine
 10
689.9998964149785
 20
1009.999757496267
 30
0.0
 11
1109.999896414978
 21
1009.999757496267
 31
0.0
  0
LINE
  5
1426F
330
1F
100
AcDbEntity
  8
実線
100
AcDbLine
 10
689.9998964149785
 20
589.9997574962672
 30
0.0
 11
689.9998964149785
 21
1009.999757496267
 31
0.0
  0
LINE
  5
14270
330
1F
100
AcDbEntity
  8
破線
100
AcDbLine
 10
716.4998964149786
 20
791.9997392516288
 30
0.0
 11
716.4998964149786
 21
807.9997392516288
 31
0.0
  0
CIRCLE
  5
14271
330
1F
100
AcDbEntity
  8
破線
100
AcDbCircle
 10
729.9997890223389
 20
969.9997392516289
 30
0.0
 40
30.0
  0
LINE
  5
14272
330
1F
100
AcDbEntity
  8
破線
100
AcDbLine
 10
699.9997890223389
 20
942.9997574962671
 30
0.0
 11
715.9997890223389
 21
942.9997574962671
 31
0.0
  0
LINE
  5
14273
330
1F
100
AcDbEntity
  8
破線
100
AcDbLine
 10
891.9998964149785
 20
983.4997392516289
 30
0.0
 11
891.9998964149785
 21
807.9997574962671
 31
0.0
  0
LINE
  5
14274
330
1F
100
AcDbEntity
  8
破線
100
AcDbLine
 10
907.9998964149785
 20
983.4997392516289
 30
0.0
 11
907.9998964149785
 21
807.9997574962671
 31
0.0
  0
LINE
  5
14275
330
1F
100
AcDbEntity
  8
破線
100
AcDbLine
 10
1083.499896414978
 20
807.9997392516288
 30
0.0
 11
1083.499896414978
 21
791.9997392516288
 31
0.0
  0
LINE
  5
14276
330
1F
100
AcDbEntity
  8
破線
100
AcDbLine
 10
891.9998964149785
 20
983.4997392516289
 30
0.0
 11
907.9998964149785
 21
983.4997392516289
 31
0.0
  0
DIMENSION
  5
14277
330
1F
100
AcDbEntity
  8
寸法線
100
AcDbDimension
280
     0
  2
*D25
 10
1109.999896414978
 20
499.9999828018776
 30
0.0
 11
899.9998964149785
 21
499.9999828018776
 31
0.0
 70
   160
 71
     5
 42
420.0
 73
     0
 74
     0
 75
     0
  3
STANDARD
100
AcDbAlignedDimension
 13
689.9998964149785
 23
589.9997210069905
 33
0.0
 14
1109.999896414978
 24
589.9997574962672
 34
0.0
100
AcDbRotatedDimension
  0
LINE
  5
14278
330
1F
100
AcDbEntity
  8
実線
100
AcDbLine
 10
1109.999896414978
 20
589.9997574962672
 30
0.0
 11
1109.999896414978
 21
1009.999757496267
 31
0.0
  0
CIRCLE
  5
14279
330
1F
100
AcDbEntity
  8
破線
100
AcDbCircle
 10
1069.999789022339
 20
969.9997392516289
 30
0.0
 40
30.0
  0
LINE
  5
1427A
330
1F
100
AcDbEntity
  8
中心線
100
AcDbLine
 10
1014.999920199385
 20
969.9997392516289
 30
0.0
 11
1124.999920199385
 21
969.9997392516289
 31
0.0
  0
LINE
  5
1427B
330
1F
100
AcDbEntity
  8
破線
100
AcDbLine
 10
699.9997890223389
 20
656.9997574962672
 30
0.0
 11
699.9997890223389
 21
942.9997574962671
 31
0.0
  0
LINE
  5
1427C
330
1F
100
AcDbEntity
  8
破線
100
AcDbLine
 10
756.9998964149785
 20
615.9997392516288
 30
0.0
 11
1042.999896414978
 21
615.9997392516288
 31
0.0
  0
LINE
  5
1427D
330
1F
100
AcDbEntity
  8
破線
100
AcDbLine
 10
716.4998964149786
 20
791.9997392516288
 30
0.0
 11
1083.499896414978
 21
791.9997392516288
 31
0.0
  0
LINE
  5
1427E
330
1F
100
AcDbEntity
  8
実線
100
AcDbLine
 10
689.9998964149785
 20
589.9997210069905
 30
0.0
 11
1109.999896414978
 21
589.9997210069905
 31
0.0
  0
CIRCLE
  5
1427F
330
1F
100
AcDbEntity
  8
破線
100
AcDbCircle
 10
729.9997890223389
 20
629.9997392516289
 30
0.0
 40
30.0
  0
LINE
  5
14280
330
1F
100
AcDbEntity
  8
破線
100
AcDbLine
 10
699.9997890223389
 20
656.9997574962672
 30
0.0
 11
715.9997890223389
 21
656.9997574962672
 31
0.0
  0
LINE
  5
14281
330
1F
100
AcDbEntity
  8
破線
100
AcDbLine
 10
756.9998964149785
 20
599.9997392516288
 30
0.0
 11
756.9998964149785
 21
615.9997392516288
 31
0.0
  0
LINE
  5
14282
330
1F
100
AcDbEntity
  8
破線
100
AcDbLine
 10
891.9998964149785
 20
616.4997392516288
 30
0.0
 11
891.9998964149785
 21
791.9997210069904
 31
0.0
  0
LINE
  5
14283
330
1F
100
AcDbEntity
  8
破線
100
AcDbLine
 10
907.9998964149785
 20
616.4997392516288
 30
0.0
 11
907.9998964149785
 21
791.9997210069904
 31
0.0
  0
LINE
  5
14284
330
1F
100
AcDbEntity
  8
破線
100
AcDbLine
 10
891.9998964149785
 20
616.4997392516288
 30
0.0
 11
907.9998964149785
 21
616.4997392516288
 31
0.0
  0
LINE
  5
14285
330
1F
100
AcDbEntity
  8
破線
100
AcDbLine
 10
1042.999896414978
 20
599.9997392516288
 30
0.0
 11
1042.999896414978
 21
615.9997392516288
 31
0.0
  0
CIRCLE
  5
14286
330
1F
100
AcDbEntity
  8
破線
100
AcDbCircle
 10
1069.999789022339
 20
629.9997392516289
 30
0.0
 40
30.0
  0
LINE
  5
14287
330
1F
100
AcDbEntity
  8
破線
100
AcDbLine
 10
756.9998964149785
 20
599.9997392516288
 30
0.0
 11
1042.999896414978
 21
599.9997392516288
 31
0.0
  0
LINE
  5
14288
330
1F
100
AcDbEntity
  8
破線
100
AcDbLine
 10
756.9998964149785
 20
999.9997392516288
 30
0.0
 11
1042.999896414978
 21
999.9997392516288
 31
0.0
  0
LINE
  5
14289
330
1F
100
AcDbEntity
  8
破線
100
AcDbLine
 10
756.9998964149785
 20
983.9997392516288
 30
0.0
 11
756.9998964149785
 21
999.9997392516288
 31
0.0
  0
LINE
  5
1428A
330
1F
100
AcDbEntity
  8
破線
100
AcDbLine
 10
1042.999896414978
 20
983.9997392516288
 30
0.0
 11
1042.999896414978
 21
999.9997392516288
 31
0.0
  0
LINE
  5
1428B
330
1F
100
AcDbEntity
  8
破線
100
AcDbLine
 10
756.9998964149785
 20
983.9997392516288
 30
0.0
 11
1042.999896414978
 21
983.9997392516288
 31
0.0
  0
LINE
  5
1428C
330
1F
100
AcDbEntity
  8
破線
100
AcDbLine
 10
715.9997890223389
 20
656.9997574962672
 30
0.0
 11
715.9997890223389
 21
942.9997574962671
 31
0.0
  0
LINE
  5
1428D
330
1F
100
AcDbEntity
  8
破線
100
AcDbLine
 10
1083.999789022339
 20
942.9997574962671
 30
0.0
 11
1099.999789022339
 21
942.9997574962671
 31
0.0
  0
LINE
  5
1428E
330
1F
100
AcDbEntity
  8
破線
100
AcDbLine
 10
1083.999789022339
 20
656.9997574962672
 30
0.0
 11
1083.999789022339
 21
942.9997574962671
 31
0.0
  0
LINE
  5
1428F
330
1F
100
AcDbEntity
  8
破線
100
AcDbLine
 10
1083.999789022339
 20
656.9997574962672
 30
0.0
 11
1099.999789022339
 21
656.9997574962672
 31
0.0
  0
LINE
  5
14290
330
1F
100
AcDbEntity
  8
破線
100
AcDbLine
 10
1099.999789022339
 20
656.9997574962672
 30
0.0
 11
1099.999789022339
 21
942.9997574962671
 31
0.0
  0
LINE
  5
14291
330
1F
100
AcDbEntity
  8
中心線
100
AcDbLine
 10
899.9999201993855
 20
564.9997392516288
 30
0.0
 11
899.9999201993855
 21
1034.999739251629
 31
0.0
  0
LINE
  5
14292
330
1F
100
AcDbEntity
  8
中心線
100
AcDbLine
 10
1069.999920199385
 20
914.9997392516288
 30
0.0
 11
1069.999920199385
 21
1024.999739251629
 31
0.0
  0
LINE
  5
14293
330
1F
100
AcDbEntity
  8
中心線
100
AcDbLine
 10
1014.999920199385
 20
629.9997392516289
 30
0.0
 11
1124.999920199385
 21
629.9997392516289
 31
0.0
  0
LINE
  5
14294
330
1F
100
AcDbEntity
  8
中心線
100
AcDbLine
 10
1069.999920199385
 20
574.9997392516288
 30
0.0
 11
1069.999920199385
 21
684.9997392516288
 31
0.0
  0
LINE
  5
14295
330
1F
100
AcDbEntity
  8
中心線
100
AcDbLine
 10
674.9999201993855
 20
969.9997392516289
 30
0.0
 11
784.9999201993855
 21
969.9997392516289
 31
0.0
  0
LINE
  5
14296
330
1F
100
AcDbEntity
  8
中心線
100
AcDbLine
 10
729.9999201993855
 20
914.9997392516288
 30
0.0
 11
729.9999201993855
 21
1024.999739251629
 31
0.0
  0
LINE
  5
14297
330
1F
100
AcDbEntity
  8
中心線
100
AcDbLine
 10
674.9999201993855
 20
629.9997392516289
 30
0.0
 11
784.9999201993855
 21
629.9997392516289
 31
0.0
  0
LINE
  5
14298
330
1F
100
AcDbEntity
  8
中心線
100
AcDbLine
 10
729.9999201993855
 20
574.9997392516288
 30
0.0
 11
729.9999201993855
 21
684.9997392516288
 31
0.0
  0
DIMENSION
  5
14299
330
1F
100
AcDbEntity
  8
寸法線
100
AcDbDimension
280
     0
  2
*D26
 10
599.9999439837924
 20
1009.999757496268
 30
0.0
 11
599.9999439837925
 21
799.9997574962671
 31
0.0
 70
   160
 71
     5
 42
420.0000000000001
 73
     0
 74
     0
 75
     0
  3
STANDARD
100
AcDbAlignedDimension
 13
689.9999439837925
 23
589.9997574962672
 33
0.0
 14
689.9999439837925
 24
1009.999757496267
 34
0.0
 50
90.0
100
AcDbRotatedDimension
  0
TEXT
  5
1429A
330
1F
100
AcDbEntity
  8
寸法線
100
AcDbText
 10
2429.999896414979
 20
1083.750488147021
 30
0.0
 40
25.0
  1
断面Ａ－Ａ
 72
     1
 11
2499.999896414978
 21
1083.750488147021
 31
0.0
100
AcDbText
 73
     1
  0
DIMENSION
  5
1429B
330
1F
100
AcDbEntity
  8
寸法線
100
AcDbDimension
280
     0
  2
*D27
 10
2670.000120199395
 20
499.9999828018776
 30
0.0
 11
2500.000121120823
 21
499.9999828018776
 31
0.0
 70
   160
 71
     5
 42
340.0
 73
     0
 74
     0
 75
     0
  3
STANDARD
100
AcDbAlignedDimension
 13
2330.000120199395
 23
575.0002537190721
 33
0.0
 14
2670.000120199395
 24
575.0002537190721
 34
0.0
100
AcDbRotatedDimension
  0
LINE
  5
1429C
330
1F
100
AcDbEntity
  8
実線
100
AcDbLine
 10
2289.999896414979
 20
1010.000019291152
 30
0.0
 11
2709.999896414979
 21
1010.000019291152
 31
0.0
  0
LINE
  5
1429D
330
1F
100
AcDbEntity
  8
中心線
100
AcDbLine
 10
2264.999920199386
 20
800.000253719072
 30
0.0
 11
2734.999920199386
 21
800.000253719072
 31
0.0
  0
LINE
  5
1429E
330
1F
100
AcDbEntity
  8
実線
100
AcDbLine
 10
2316.499896414978
 20
808.0000192911521
 30
0.0
 11
2683.499896414979
 21
808.0000192911521
 31
0.0
  0
LINE
  5
1429F
330
1F
100
AcDbEntity
  8
実線
100
AcDbLine
 10
2289.999896414979
 20
590.000019291152
 30
0.0
 11
2289.999896414979
 21
1010.000019291152
 31
0.0
  0
DIMENSION
  5
142A0
330
1F
100
AcDbEntity
  8
寸法線
100
AcDbDimension
280
     0
  2
*D28
 10
2330.000120199395
 20
499.9999828018776
 30
0.0
 11
2310.000008307187
 21
499.9999828018776
 31
0.0
 70
   160
 71
     5
 42
40.00022378441644
 73
     0
 74
     0
 75
     0
  3
STANDARD
100
AcDbAlignedDimension
 13
2289.999896414979
 23
590.0004881470213
 33
0.0
 14
2330.000120199395
 24
575.0002537190721
 34
0.0
100
AcDbRotatedDimension
  0
LINE
  5
142A1
330
1F
100
AcDbEntity
  8
実線
100
AcDbLine
 10
2316.499896414978
 20
792.000019291152
 30
0.0
 11
2316.499896414978
 21
808.0000192911521
 31
0.0
  0
LINE
  5
142A2
330
1F
100
AcDbEntity
  8
実線
100
AcDbLine
 10
2300.000121120822
 20
943.0000192911521
 30
0.0
 11
2316.000121120822
 21
943.0000192911521
 31
0.0
  0
LINE
  5
142A3
330
1F
100
AcDbEntity
  8
実線
100
AcDbLine
 10
2356.999896414979
 20
1000.000253719072
 30
0.0
 11
2356.999896414979
 21
984.0002537190722
 31
0.0
  0
LINE
  5
142A4
330
1F
100
AcDbEntity
  8
実線
100
AcDbLine
 10
2507.999896414979
 20
983.5002537190721
 30
0.0
 11
2507.999896414979
 21
808.000253719072
 31
0.0
  0
LINE
  5
142A5
330
1F
100
AcDbEntity
  8
実線
100
AcDbLine
 10
2491.999896414979
 20
983.5002537190721
 30
0.0
 11
2491.999896414979
 21
808.000253719072
 31
0.0
  0
DIMENSION
  5
142A6
330
1F
100
AcDbEntity
  8
寸法線
100
AcDbDimension
280
     0
  2
*D29
 10
2799.99989641498
 20
1010.000019291152
 30
0.0
 11
2799.99989641498
 21
990.0001365051116
 31
0.0
 70
   160
 71
     5
 42
39.99976557207992
 73
     0
 74
     0
 75
     0
  3
STANDARD
100
AcDbAlignedDimension
 13
2725.000120199395
 23
970.0002537190721
 33
0.0
 14
2709.999896414979
 24
1010.000019291152
 34
0.0
 50
90.0
100
AcDbRotatedDimension
  0
LINE
  5
142A7
330
1F
100
AcDbEntity
  8
実線
100
AcDbLine
 10
2709.999896414979
 20
590.000019291152
 30
0.0
 11
2709.999896414979
 21
1010.000019291152
 31
0.0
  0
DIMENSION
  5
142A8
330
1F
100
AcDbEntity
  8
寸法線
100
AcDbDimension
280
     0
  2
*D30
 10
2799.999896414979
 20
970.0002537190725
 30
0.0
 11
2799.999896414979
 21
800.000253719072
 31
0.0
 70
   160
 71
     5
 42
340.0000000000001
 73
     0
 74
     0
 75
     0
  3
STANDARD
100
AcDbAlignedDimension
 13
2725.000120199395
 23
630.0002537190721
 33
0.0
 14
2725.000120199395
 24
970.0002537190721
 34
0.0
 50
90.0
100
AcDbRotatedDimension
  0
DIMENSION
  5
142A9
330
1F
100
AcDbEntity
  8
寸法線
100
AcDbDimension
280
     0
  2
*D31
 10
2799.999896414979
 20
630.0002537190724
 30
0.0
 11
2799.999896414979
 21
610.000370933046
 31
0.0
 70
   160
 71
     5
 42
39.99976557205082
 73
     0
 74
     0
 75
     0
  3
STANDARD
100
AcDbAlignedDimension
 13
2709.999896414979
 23
590.0004881470213
 33
0.0
 14
2725.000120199395
 24
630.0002537190721
 34
0.0
 50
90.0
100
AcDbRotatedDimension
  0
DIMENSION
  5
142AA
330
1F
100
AcDbEntity
  8
寸法線
100
AcDbDimension
280
     0
  2
*D32
 10
2709.999896414979
 20
499.9999828018776
 30
0.0
 11
2690.000008307187
 21
499.9999828018776
 31
0.0
 70
   160
 71
     5
 42
39.99977621558355
 73
     0
 74
     0
 75
     0
  3
STANDARD
100
AcDbAlignedDimension
 13
2670.000120199395
 23
575.0002537190721
 33
0.0
 14
2709.999896414979
 24
590.0004881470213
 34
0.0
100
AcDbRotatedDimension
  0
LINE
  5
142AB
330
1F
100
AcDbEntity
  8
実線
100
AcDbLine
 10
2683.499896414979
 20
808.0000192911521
 30
0.0
 11
2683.499896414979
 21
792.000019291152
 31
0.0
  0
LINE
  5
142AC
330
1F
100
AcDbEntity
  8
実線
100
AcDbLine
 10
2491.999896414979
 20
983.5002537190721
 30
0.0
 11
2507.999896414979
 21
983.5002537190721
 31
0.0
  0
LINE
  5
142AD
330
1F
100
AcDbEntity
  8
実線
100
AcDbLine
 10
2642.999896414979
 20
1000.000253719072
 30
0.0
 11
2642.999896414979
 21
984.0002537190722
 31
0.0
  0
CIRCLE
  5
142AE
330
1F
100
AcDbEntity
  8
実線
100
AcDbCircle
 10
2330.000121120822
 20
970.0002537190721
 30
0.0
 40
30.0
  0
LINE
  5
142AF
330
1F
100
AcDbEntity
  8
実線
100
AcDbLine
 10
2316.000121120822
 20
657.000019291152
 30
0.0
 11
2316.000121120822
 21
943.0000192911521
 31
0.0
  0
LINE
  5
142B0
330
1F
100
AcDbEntity
  8
中心線
100
AcDbLine
 10
2615.000120199395
 20
970.0002537190721
 30
0.0
 11
2725.000120199395
 21
970.0002537190721
 31
0.0
  0
CIRCLE
  5
142B1
330
1F
100
AcDbEntity
  8
実線
100
AcDbCircle
 10
2670.000121120823
 20
970.0002537190721
 30
0.0
 40
30.0
  0
LINE
  5
142B2
330
1F
100
AcDbEntity
  8
実線
100
AcDbLine
 10
2356.999896414979
 20
1000.000253719072
 30
0.0
 11
2642.999896414979
 21
1000.000253719072
 31
0.0
  0
LINE
  5
142B3
330
1F
100
AcDbEntity
  8
実線
100
AcDbLine
 10
2289.999896414979
 20
590.0004881470213
 30
0.0
 11
2709.999896414979
 21
590.0004881470213
 31
0.0
  0
LINE
  5
142B4
330
1F
100
AcDbEntity
  8
実線
100
AcDbLine
 10
2300.000121120822
 20
657.000019291152
 30
0.0
 11
2316.000121120822
 21
657.000019291152
 31
0.0
  0
LINE
  5
142B5
330
1F
100
AcDbEntity
  8
実線
100
AcDbLine
 10
2507.999896414979
 20
616.5002537190721
 30
0.0
 11
2507.999896414979
 21
792.0002537190721
 31
0.0
  0
LINE
  5
142B6
330
1F
100
AcDbEntity
  8
実線
100
AcDbLine
 10
2491.999896414979
 20
616.5002537190721
 30
0.0
 11
2491.999896414979
 21
792.0002537190721
 31
0.0
  0
LINE
  5
142B7
330
1F
100
AcDbEntity
  8
実線
100
AcDbLine
 10
2491.999896414979
 20
616.5002537190721
 30
0.0
 11
2507.999896414979
 21
616.5002537190721
 31
0.0
  0
CIRCLE
  5
142B8
330
1F
100
AcDbEntity
  8
実線
100
AcDbCircle
 10
2330.000121120822
 20
630.0002537190721
 30
0.0
 40
30.0
  0
CIRCLE
  5
142B9
330
1F
100
AcDbEntity
  8
実線
100
AcDbCircle
 10
2670.000121120823
 20
630.0002537190721
 30
0.0
 40
30.0
  0
LINE
  5
142BA
330
1F
100
AcDbEntity
  8
実線
100
AcDbLine
 10
2316.499896414978
 20
792.000019291152
 30
0.0
 11
2683.499896414979
 21
792.000019291152
 31
0.0
  0
LINE
  5
142BB
330
1F
100
AcDbEntity
  8
実線
100
AcDbLine
 10
2356.999896414979
 20
984.0002537190722
 30
0.0
 11
2642.999896414979
 21
984.0002537190722
 31
0.0
  0
LINE
  5
142BC
330
1F
100
AcDbEntity
  8
実線
100
AcDbLine
 10
2356.999896414979
 20
616.0002537190721
 30
0.0
 11
2356.999896414979
 21
600.0002537190721
 31
0.0
  0
LINE
  5
142BD
330
1F
100
AcDbEntity
  8
実線
100
AcDbLine
 10
2642.999896414979
 20
616.0002537190721
 30
0.0
 11
2642.999896414979
 21
600.0002537190721
 31
0.0
  0
LINE
  5
142BE
330
1F
100
AcDbEntity
  8
実線
100
AcDbLine
 10
2356.999896414979
 20
616.0002537190721
 30
0.0
 11
2642.999896414979
 21
616.0002537190721
 31
0.0
  0
LINE
  5
142BF
330
1F
100
AcDbEntity
  8
実線
100
AcDbLine
 10
2356.999896414979
 20
600.0002537190721
 30
0.0
 11
2642.999896414979
 21
600.0002537190721
 31
0.0
  0
LINE
  5
142C0
330
1F
100
AcDbEntity
  8
実線
100
AcDbLine
 10
2300.000121120822
 20
657.000019291152
 30
0.0
 11
2300.000121120822
 21
943.0000192911521
 31
0.0
  0
LINE
  5
142C1
330
1F
100
AcDbEntity
  8
実線
100
AcDbLine
 10
2684.000121120823
 20
943.0000192911521
 30
0.0
 11
2700.000121120823
 21
943.0000192911521
 31
0.0
  0
LINE
  5
142C2
330
1F
100
AcDbEntity
  8
実線
100
AcDbLine
 10
2700.000121120823
 20
657.000019291152
 30
0.0
 11
2700.000121120823
 21
943.0000192911521
 31
0.0
  0
LINE
  5
142C3
330
1F
100
AcDbEntity
  8
実線
100
AcDbLine
 10
2684.000121120823
 20
657.000019291152
 30
0.0
 11
2700.000121120823
 21
657.000019291152
 31
0.0
  0
LINE
  5
142C4
330
1F
100
AcDbEntity
  8
実線
100
AcDbLine
 10
2684.000121120823
 20
657.000019291152
 30
0.0
 11
2684.000121120823
 21
943.0000192911521
 31
0.0
  0
LINE
  5
142C5
330
1F
100
AcDbEntity
  8
中心線
100
AcDbLine
 10
2670.000120199395
 20
915.000253719072
 30
0.0
 11
2670.000120199395
 21
1025.000253719072
 31
0.0
  0
LINE
  5
142C6
330
1F
100
AcDbEntity
  8
中心線
100
AcDbLine
 10
2615.000120199395
 20
630.0002537190721
 30
0.0
 11
2725.000120199395
 21
630.0002537190721
 31
0.0
  0
LINE
  5
142C7
330
1F
100
AcDbEntity
  8
中心線
100
AcDbLine
 10
2670.000120199395
 20
575.0002537190721
 30
0.0
 11
2670.000120199395
 21
685.0002537190721
 31
0.0
  0
LINE
  5
142C8
330
1F
100
AcDbEntity
  8
中心線
100
AcDbLine
 10
2275.000120199395
 20
970.0002537190721
 30
0.0
 11
2385.000120199395
 21
970.0002537190721
 31
0.0
  0
LINE
  5
142C9
330
1F
100
AcDbEntity
  8
中心線
100
AcDbLine
 10
2330.000120199395
 20
915.000253719072
 30
0.0
 11
2330.000120199395
 21
1025.000253719072
 31
0.0
  0
LINE
  5
142CA
330
1F
100
AcDbEntity
  8
中心線
100
AcDbLine
 10
2275.000120199395
 20
630.0002537190721
 30
0.0
 11
2385.000120199395
 21
630.0002537190721
 31
0.0
  0
LINE
  5
142CB
330
1F
100
AcDbEntity
  8
中心線
100
AcDbLine
 10
2330.000120199395
 20
575.0002537190721
 30
0.0
 11
2330.000120199395
 21
685.0002537190721
 31
0.0
  0
LINE
  5
142CC
330
1F
100
AcDbEntity
  8
寸法線
100
AcDbLine
 10
2421.249896414979
 20
1075.000488147021
 30
0.0
 11
2578.749896414979
 21
1075.000488147021
 31
0.0
  0
LINE
  5
142CD
330
1F
100
AcDbEntity
  8
中心線
100
AcDbLine
 10
2499.999920199386
 20
564.9999537190869
 30
0.0
 11
2499.999920199386
 21
1034.999953719087
 31
0.0
  0
LINE
  5
142CE
330
1F
100
AcDbEntity
  8
実線
100
AcDbLine
 10
2959.999896414979
 20
570.000019291152
 30
0.0
 11
2959.999896414979
 21
1030.000019291152
 31
0.0
  0
LINE
  5
142CF
330
1F
100
AcDbEntity
  8
実線
100
AcDbLine
 10
3419.999896414978
 20
570.000019291152
 30
0.0
 11
3419.999896414978
 21
1030.000019291152
 31
0.0
  0
LINE
  5
142D0
330
1F
100
AcDbEntity
  8
実線
100
AcDbLine
 10
2959.999679308203
 20
570.0001913631549
 30
0.0
 11
3419.999679308204
 21
570.0001913631549
 31
0.0
  0
LINE
  5
142D1
330
1F
100
AcDbEntity
  8
実線
100
AcDbLine
 10
2959.999679308203
 20
1030.000191363155
 30
0.0
 11
3419.999679308204
 21
1030.000191363155
 31
0.0
  0
LINE
  5
142D2
330
1F
100
AcDbEntity
  8
中心線
100
AcDbLine
 10
3189.999896414979
 20
1040.000019291152
 30
0.0
 11
3189.999896414979
 21
560.0000192911521
 31
0.0
  0
LINE
  5
142D3
330
1F
100
AcDbEntity
  8
中心線
100
AcDbLine
 10
2967.499679308204
 20
970.0001913631549
 30
0.0
 11
3072.499679308203
 21
970.0001913631549
 31
0.0
  0
CIRCLE
  5
142D4
330
1F
100
AcDbEntity
  8
実線
100
AcDbCircle
 10
3189.999896414979
 20
800.000191363155
 30
0.0
 40
140.0
  0
CIRCLE
  5
142D5
330
1F
100
AcDbEntity
  8
実線
100
AcDbCircle
 10
3019.999896414979
 20
970.0001913631549
 30
0.0
 40
30.25
  0
CIRCLE
  5
142D6
330
1F
100
AcDbEntity
  8
実線
100
AcDbCircle
 10
3359.999896414978
 20
970.0001913631549
 30
0.0
 40
30.25
  0
CIRCLE
  5
142D7
330
1F
100
AcDbEntity
  8
実線
100
AcDbCircle
 10
3019.999896414979
 20
630.0001913631549
 30
0.0
 40
30.25
  0
CIRCLE
  5
142D8
330
1F
100
AcDbEntity
  8
実線
100
AcDbCircle
 10
3359.999896414978
 20
630.0001913631549
 30
0.0
 40
30.25
  0
LINE
  5
142D9
330
1F
100
AcDbEntity
  8
中心線
100
AcDbLine
 10
2949.999679308204
 20
800.000191363155
 30
0.0
 11
3429.999679308203
 21
800.000191363155
 31
0.0
  0
LINE
  5
142DA
330
1F
100
AcDbEntity
  8
中心線
100
AcDbLine
 10
3019.999896414979
 20
917.4999742563505
 30
0.0
 11
3019.999896414979
 21
1022.49997425635
 31
0.0
  0
LINE
  5
142DB
330
1F
100
AcDbEntity
  8
中心線
100
AcDbLine
 10
2967.499679308204
 20
630.0001913631549
 30
0.0
 11
3072.499679308203
 21
630.0001913631549
 31
0.0
  0
LINE
  5
142DC
330
1F
100
AcDbEntity
  8
中心線
100
AcDbLine
 10
3019.999896414979
 20
577.4999742563505
 30
0.0
 11
3019.999896414979
 21
682.4999742563504
 31
0.0
  0
LINE
  5
142DD
330
1F
100
AcDbEntity
  8
中心線
100
AcDbLine
 10
3307.499679308204
 20
970.0001913631549
 30
0.0
 11
3412.499679308203
 21
970.0001913631549
 31
0.0
  0
LINE
  5
142DE
330
1F
100
AcDbEntity
  8
中心線
100
AcDbLine
 10
3359.999896414978
 20
917.4999742563505
 30
0.0
 11
3359.999896414978
 21
1022.49997425635
 31
0.0
  0
LINE
  5
142DF
330
1F
100
AcDbEntity
  8
中心線
100
AcDbLine
 10
3307.499679308204
 20
630.0001913631549
 30
0.0
 11
3412.499679308203
 21
630.0001913631549
 31
0.0
  0
LINE
  5
142E0
330
1F
100
AcDbEntity
  8
中心線
100
AcDbLine
 10
3359.999896414978
 20
577.4999742563505
 30
0.0
 11
3359.999896414978
 21
682.4999742563504
 31
0.0
  0
DIMENSION
  5
142E1
330
1F
100
AcDbEntity
  8
寸法線
100
AcDbDimension
280
     0
  2
*D33
 10
3068.756224820291
 20
730.0003906617096
 30
0.0
 11
3253.625724129436
 21
836.7346317955538
 31
0.0
 70
   160
  1
φ280
 71
     5
 42
279.9999999999154
 73
     0
 74
     0
 75
     0
  3
STANDARD
100
AcDbAlignedDimension
 13
3311.24345945799
 23
870.0001800819572
 33
0.0
 14
3068.756224818899
 24
730.0003906641195
 34
0.0
 50
209.9999502436202
100
AcDbRotatedDimension
  0
DIMENSION
  5
142E2
330
1F
100
AcDbEntity
  8
寸法線
100
AcDbDimension
280
     0
  2
*D34
 10
3419.999896414978
 20
499.9999828018776
 30
0.0
 11
3189.999787861591
 21
521.2499828018776
 31
0.0
 70
    32
 71
     5
 42
460.0002171067753
 73
     0
 74
     0
 75
     0
  3
STANDARD
100
AcDbAlignedDimension
 13
2959.999679308203
 23
570.0001913631549
 33
0.0
 14
3419.999896414978
 24
570.000019291152
 34
0.0
100
AcDbRotatedDimension
  0
LINE
  5
142E3
330
1F
100
AcDbEntity
  8
寸法線
100
AcDbLine
 10
3109.732808044028
 20
1074.999982801877
 30
0.0
 11
3270.266767679154
 21
1074.999982801877
 31
0.0
  0
TEXT
  5
142E4
330
1F
100
AcDbEntity
  8
寸法線
100
AcDbText
 10
3121.135075283551
 20
1081.728807639215
 30
0.0
 40
24.0
  1
断面Ｂ－Ｂ
100
AcDbText
  0
DIMENSION
  5
142E5
330
1F
100
AcDbEntity
  8
寸法線
100
AcDbDimension
280
     0
  2
*D35
 10
3489.999896415258
 20
1030.000019291152
 30
0.0
 11
3468.749896415257
 21
800.0000192911512
 31
0.0
 70
    32
 71
     5
 42
460.0000000000002
 73
     0
 74
     0
 75
     0
  3
STANDARD
100
AcDbAlignedDimension
 13
3419.999896414978
 23
570.000019291152
 33
0.0
 14
3419.999896414978
 24
1030.000019291152
 34
0.0
 50
90.0
100
AcDbRotatedDimension
  0
CIRCLE
  5
142E6
330
1F
100
AcDbEntity
  8
実線
100
AcDbCircle
 10
3359.999896414978
 20
969.9999742563504
 30
0.0
 40
31.5
  0
CIRCLE
  5
142E7
330
1F
100
AcDbEntity
  8
実線
100
AcDbCircle
 10
3019.999896414979
 20
969.9999742563504
 30
0.0
 40
31.5
  0
CIRCLE
  5
142E8
330
1F
100
AcDbEntity
  8
実線
100
AcDbCircle
 10
3020.000113521754
 20
629.9997571495751
 30
0.0
 40
31.5
  0
CIRCLE
  5
142E9
330
1F
100
AcDbEntity
  8
実線
100
AcDbCircle
 10
3359.999896414978
 20
629.9999742563504
 30
0.0
 40
31.5
  0
DIMENSION
  5
142EA
330
1F
100
AcDbEntity
  8
寸法線
100
AcDbDimension
280
     0
  2
*D36
 10
1691.999948207486
 20
1099.999509384896
 30
0.0
 11
1503.999922311232
 21
1121.249509384896
 31
0.0
 70
    32
 71
     5
 42
376.0000517925073
 73
     0
 74
     0
 75
     0
  3
STANDARD
100
AcDbAlignedDimension
 13
1315.999896414978
 23
1009.999739251643
 33
0.0
 14
1691.999948207486
 24
1029.999739251643
 34
0.0
100
AcDbRotatedDimension
1001
ACAD
1000
DSTYLE
1002
{
1070
   279
1070
     1
1002
}
  0
DIMENSION
  5
142EB
330
1F
100
AcDbEntity
  8
寸法線
100
AcDbDimension
280
     0
  2
*D37
 10
2083.999896414979
 20
1099.999509384896
 30
0.0
 11
1895.999922311232
 21
1121.249509384896
 31
0.0
 70
    32
 71
     5
 42
375.9999482074927
 73
     0
 74
     0
 75
     0
  3
STANDARD
100
AcDbAlignedDimension
 13
1707.999948207486
 23
1029.999739251643
 33
0.0
 14
2083.999896414979
 24
1009.999739251643
 34
0.0
100
AcDbRotatedDimension
1001
ACAD
1000
DSTYLE
1002
{
1070
   279
1070
     1
1002
}
  0
DIMENSION
  5
142EC
330
1F
100
AcDbEntity
  8
寸法線
100
AcDbDimension
280
     0
  2
*D38
 10
1707.999948207486
 20
1099.999509384896
 30
0.0
 11
1699.999948207486
 21
1099.999509384896
 31
0.0
 70
   160
 71
     5
 42
16.0
 73
     0
 74
     0
 75
     0
  3
STANDARD
100
AcDbAlignedDimension
 13
1691.999948207486
 23
1029.999739251643
 33
0.0
 14
1707.999948207486
 24
1029.999739251643
 34
0.0
100
AcDbRotatedDimension
  0
DIMENSION
  5
14744
330
1F
100
AcDbEntity
  8
寸法線
100
AcDbDimension
280
     0
  2
*D39
 10
2770.000226983162
 20
2054.000042816986
 30
0.0
 11
2770.000226983162
 21
2245.000005597312
 31
0.0
 70
   160
 71
     5
 42
382.0000000000009
 73
     0
 74
     0
 75
     0
  3
STANDARD
100
AcDbAlignedDimension
 13
2650.000226983163
 23
2436.000042816985
 33
0.0
 14
2650.000226983163
 24
2054.000042816985
 34
0.0
 50
90.0
100
AcDbRotatedDimension
  0
LINE
  5
14A9A
330
1F
100
AcDbEntity
  8
実線
100
AcDbLine
 10
3549.999999999971
 20
2444.999987379802
 30
0.0
 11
3549.999999999971
 21
2044.999987379802
 31
0.0
  0
LINE
  5
14A9B
330
1F
100
AcDbEntity
  8
中心線
100
AcDbLine
 10
3349.99999999997
 20
2460.999987379802
 30
0.0
 11
3349.99999999997
 21
2028.999987379798
 31
0.0
  0
LINE
  5
14A9C
330
1F
100
AcDbEntity
  8
中心線
100
AcDbLine
 10
3124.999999999969
 20
2244.999987379802
 30
0.0
 11
3574.999999999971
 21
2244.999987379802
 31
0.0
  0
LINE
  5
14A9D
330
1F
100
AcDbEntity
  8
実線
100
AcDbLine
 10
3149.999999999971
 20
2053.999967566692
 30
0.0
 11
3549.999999999971
 21
2053.999967566692
 31
0.0
  0
LINE
  5
14A9E
330
1F
100
AcDbEntity
  8
実線
100
AcDbLine
 10
3149.999999999971
 20
2435.999967566692
 30
0.0
 11
3549.999999999971
 21
2435.999967566692
 31
0.0
  0
LINE
  5
14A9F
330
1F
100
AcDbEntity
  8
中心線
100
AcDbLine
 10
3299.999981390134
 20
2135.000005989638
 30
0.0
 11
3299.999981390134
 21
2204.999968769961
 31
0.0
  0
CIRCLE
  5
14AA0
330
1F
100
AcDbEntity
  8
実線
100
AcDbCircle
 10
3299.999981390134
 20
2169.999987379799
 30
0.0
 40
12.5
  0
LINE
  5
14AA1
330
1F
100
AcDbEntity
  8
中心線
100
AcDbLine
 10
3334.999962780297
 20
2169.999987379799
 30
0.0
 11
3264.999999999971
 21
2169.999987379799
 31
0.0
  0
LINE
  5
14AA2
330
1F
100
AcDbEntity
  8
中心線
100
AcDbLine
 10
3249.999981390134
 20
2110.000005989638
 30
0.0
 11
3249.999981390134
 21
2179.999968769965
 31
0.0
  0
CIRCLE
  5
14AA3
330
1F
100
AcDbEntity
  8
実線
100
AcDbCircle
 10
3249.999981390134
 20
2144.999987379799
 30
0.0
 40
12.5
  0
LINE
  5
14AA4
330
1F
100
AcDbEntity
  8
中心線
100
AcDbLine
 10
3284.999962780297
 20
2144.999987379799
 30
0.0
 11
3214.999999999971
 21
2144.999987379799
 31
0.0
  0
LINE
  5
14AA5
330
1F
100
AcDbEntity
  8
中心線
100
AcDbLine
 10
3299.999981390134
 20
2354.999968769964
 30
0.0
 11
3299.999981390134
 21
2285.000005989639
 31
0.0
  0
CIRCLE
  5
14AA6
330
1F
100
AcDbEntity
  8
実線
100
AcDbCircle
 10
3299.999981390134
 20
2319.999987379802
 30
0.0
 40
12.5
  0
LINE
  5
14AA7
330
1F
100
AcDbEntity
  8
中心線
100
AcDbLine
 10
3334.999962780297
 20
2319.999987379802
 30
0.0
 11
3264.999999999971
 21
2319.999987379802
 31
0.0
  0
LINE
  5
14AA8
330
1F
100
AcDbEntity
  8
中心線
100
AcDbLine
 10
3249.999981390134
 20
2379.999968769964
 30
0.0
 11
3249.999981390134
 21
2310.000005989639
 31
0.0
  0
CIRCLE
  5
14AA9
330
1F
100
AcDbEntity
  8
実線
100
AcDbCircle
 10
3249.999981390134
 20
2344.999987379802
 30
0.0
 40
12.5
  0
LINE
  5
14AAA
330
1F
100
AcDbEntity
  8
中心線
100
AcDbLine
 10
3284.999962780297
 20
2344.999987379802
 30
0.0
 11
3214.999999999971
 21
2344.999987379802
 31
0.0
  0
LINE
  5
14AAB
330
1F
100
AcDbEntity
  8
中心線
100
AcDbLine
 10
3400.000018609807
 20
2135.000005989638
 30
0.0
 11
3400.000018609807
 21
2204.999968769961
 31
0.0
  0
CIRCLE
  5
14AAC
330
1F
100
AcDbEntity
  8
実線
100
AcDbCircle
 10
3400.000018609807
 20
2169.999987379799
 30
0.0
 40
12.5
  0
LINE
  5
14AAD
330
1F
100
AcDbEntity
  8
中心線
100
AcDbLine
 10
3365.000037219644
 20
2169.999987379799
 30
0.0
 11
3434.999999999969
 21
2169.999987379799
 31
0.0
  0
LINE
  5
14AAE
330
1F
100
AcDbEntity
  8
中心線
100
AcDbLine
 10
3450.000018609807
 20
2110.000005989638
 30
0.0
 11
3450.000018609807
 21
2179.999968769965
 31
0.0
  0
CIRCLE
  5
14AAF
330
1F
100
AcDbEntity
  8
実線
100
AcDbCircle
 10
3450.000018609807
 20
2144.999987379799
 30
0.0
 40
12.5
  0
LINE
  5
14AB0
330
1F
100
AcDbEntity
  8
中心線
100
AcDbLine
 10
3415.000037219642
 20
2144.999987379799
 30
0.0
 11
3484.999999999969
 21
2144.999987379799
 31
0.0
  0
LINE
  5
14AB1
330
1F
100
AcDbEntity
  8
中心線
100
AcDbLine
 10
3400.000018609807
 20
2354.999968769964
 30
0.0
 11
3400.000018609807
 21
2285.000005989639
 31
0.0
  0
CIRCLE
  5
14AB2
330
1F
100
AcDbEntity
  8
実線
100
AcDbCircle
 10
3400.000018609807
 20
2319.999987379802
 30
0.0
 40
12.5
  0
LINE
  5
14AB3
330
1F
100
AcDbEntity
  8
中心線
100
AcDbLine
 10
3365.000037219644
 20
2319.999987379802
 30
0.0
 11
3434.999999999969
 21
2319.999987379802
 31
0.0
  0
LINE
  5
14AB4
330
1F
100
AcDbEntity
  8
中心線
100
AcDbLine
 10
3450.000018609807
 20
2379.999968769964
 30
0.0
 11
3450.000018609807
 21
2310.000005989639
 31
0.0
  0
CIRCLE
  5
14AB5
330
1F
100
AcDbEntity
  8
実線
100
AcDbCircle
 10
3450.000018609807
 20
2344.999987379802
 30
0.0
 40
12.5
  0
LINE
  5
14AB6
330
1F
100
AcDbEntity
  8
中心線
100
AcDbLine
 10
3415.000037219642
 20
2344.999987379802
 30
0.0
 11
3484.999999999969
 21
2344.999987379802
 31
0.0
  0
LINE
  5
14AB7
330
1F
100
AcDbEntity
  8
破線
100
AcDbLine
 10
3149.999999999971
 20
2065.999967566693
 30
0.0
 11
3321.499962780297
 21
2065.999967566693
 31
0.0
  0
LINE
  5
14AB8
330
1F
100
AcDbEntity
  8
破線
100
AcDbLine
 10
3549.999999999971
 20
2065.999967566693
 30
0.0
 11
3378.500037219646
 21
2065.999967566693
 31
0.0
  0
LINE
  5
14AB9
330
1F
100
AcDbEntity
  8
破線
100
AcDbLine
 10
3149.999999999971
 20
2423.999967566692
 30
0.0
 11
3321.499962780297
 21
2423.999967566692
 31
0.0
  0
LINE
  5
14ABA
330
1F
100
AcDbEntity
  8
破線
100
AcDbLine
 10
3549.999999999971
 20
2423.999967566692
 30
0.0
 11
3378.500037219646
 21
2423.999967566692
 31
0.0
  0
LINE
  5
14ABB
330
1F
100
AcDbEntity
  8
破線
100
AcDbLine
 10
3343.499999999969
 20
2401.999987379801
 30
0.0
 11
3343.499999999969
 21
2087.999987379799
 31
0.0
  0
LINE
  5
14ABC
330
1F
100
AcDbEntity
  8
破線
100
AcDbLine
 10
3356.499999999971
 20
2401.999987379801
 30
0.0
 11
3356.499999999971
 21
2087.999987379799
 31
0.0
  0
ARC
  5
14ABD
330
1F
100
AcDbEntity
  8
破線
100
AcDbCircle
 10
3321.499999999971
 20
2087.999987379799
 30
0.0
 40
22.0
100
AcDbArc
 50
269.9999030668841
 51
0.0
  0
ARC
  5
14ABE
330
1F
100
AcDbEntity
  8
破線
100
AcDbCircle
 10
3378.49999999997
 20
2087.999987379799
 30
0.0
 40
22.0
100
AcDbArc
 50
180.0
 51
270.0000969331159
  0
ARC
  5
14ABF
330
1F
100
AcDbEntity
  8
破線
100
AcDbCircle
 10
3321.499999999971
 20
2401.999987379799
 30
0.0
 40
22.0
100
AcDbArc
 50
0.0
 51
90.00009693311588
  0
ARC
  5
14AC0
330
1F
100
AcDbEntity
  8
破線
100
AcDbCircle
 10
3378.49999999997
 20
2401.999987379799
 30
0.0
 40
22.0
100
AcDbArc
 50
89.99990306688411
 51
180.0
  0
LINE
  5
14AC1
330
1F
100
AcDbEntity
  8
破線
100
AcDbLine
 10
3153.499962780297
 20
2238.999987379802
 30
0.0
 11
3343.499999999969
 21
2238.999987379802
 31
0.0
  0
LINE
  5
14AC2
330
1F
100
AcDbEntity
  8
破線
100
AcDbLine
 10
3153.499962780297
 20
2250.999987379803
 30
0.0
 11
3343.499999999969
 21
2250.999987379803
 31
0.0
  0
LINE
  5
14AC3
330
1F
100
AcDbEntity
  8
破線
100
AcDbLine
 10
3546.500037219642
 20
2238.999987379802
 30
0.0
 11
3356.499999999971
 21
2238.999987379802
 31
0.0
  0
LINE
  5
14AC4
330
1F
100
AcDbEntity
  8
破線
100
AcDbLine
 10
3546.500037219642
 20
2250.999987379803
 30
0.0
 11
3356.499999999971
 21
2250.999987379803
 31
0.0
  0
LINE
  5
14AC5
330
1F
100
AcDbEntity
  8
破線
 48
10.0
100
AcDbLine
 10
3546.500037219642
 20
2250.999987379803
 30
0.0
 11
3546.500037219642
 21
2238.999987379802
 31
0.0
  0
LINE
  5
14AC6
330
1F
100
AcDbEntity
  8
実線
100
AcDbLine
 10
3149.999999999971
 20
2444.999987379802
 30
0.0
 11
3549.999999999971
 21
2444.999987379802
 31
0.0
  0
LINE
  5
14AC7
330
1F
100
AcDbEntity
  8
実線
100
AcDbLine
 10
3149.999999999971
 20
2044.999987379802
 30
0.0
 11
3549.999999999971
 21
2044.999987379802
 31
0.0
  0
LINE
  5
14AC8
330
1F
100
AcDbEntity
  8
実線
100
AcDbLine
 10
3149.999999999971
 20
2444.999987379802
 30
0.0
 11
3149.999999999971
 21
2044.999987379802
 31
0.0
  0
LEADER
  5
14AC9
330
1F
100
AcDbEntity
  8
寸法線
100
AcDbLeader
  3
STANDARD
 76
     3
 10
3257.532916238338
 20
2354.975201290927
 30
0.0
 10
3385.929725329277
 20
2524.999987379802
 30
0.0
 10
3578.508016089541
 20
2524.999987379802
 30
0.0
211
1.0
221
0.0000000000000002
231
0.0
1001
ACAD
1000
DSTYLE
1002
{
1070
   147
1040
0.875
1070
    77
1070
     0
1002
}
  0
TEXT
  5
14ACA
330
1F
100
AcDbEntity
  8
寸法線
100
AcDbText
 10
3394.679725329275
 20
2533.749987379803
 30
0.0
 40
25.0
  1
主材連結用孔
 72
     2
 11
3568.013058662609
 21
2558.749987379802
 31
0.0
100
AcDbText
 73
     3
  0
LINE
  5
14ACB
330
1F
100
AcDbEntity
  8
破線
 48
10.0
100
AcDbLine
 10
3153.499962780297
 20
2250.999987379803
 30
0.0
 11
3153.499962780297
 21
2238.999987379802
 31
0.0
  0
DIMENSION
  5
14ACC
330
1F
100
AcDbEntity
  8
寸法線
100
AcDbDimension
280
     0
  2
*D40
 10
3149.999999999969
 20
1924.999967566691
 30
0.0
 11
3349.99999999997
 21
1924.999967566691
 31
0.0
 70
   160
 71
     5
 42
400.0
 73
     0
 74
     0
 75
     0
  3
STANDARD
100
AcDbAlignedDimension
 13
3549.999999999969
 23
2044.999967566691
 33
0.0
 14
3149.999999999969
 24
2044.999967566691
 34
0.0
100
AcDbRotatedDimension
  0
DIMENSION
  5
14ACD
330
1F
100
AcDbEntity
  8
寸法線
100
AcDbDimension
280
     0
  2
*D41
 10
3029.999999999967
 20
2045.000007192909
 30
0.0
 11
3029.999999999967
 21
2244.9999873798
 31
0.0
 70
   160
 71
     5
 42
400.0000000000002
 73
     0
 74
     0
 75
     0
  3
STANDARD
100
AcDbAlignedDimension
 13
3149.999999999967
 23
2445.000007192909
 33
0.0
 14
3149.999999999967
 24
2045.000007192908
 34
0.0
 50
270.0
100
AcDbRotatedDimension
  0
VIEWPORT
  5
794
330
78D
100
AcDbEntity
 67
     1
  8
0
100
AcDbViewport
 10
217.1426620642033
 20
144.583559586648
 30
0.0
 40
568.5388320124311
 41
287.5796857704801
 68
     1
 69
     1
 12
217.1426620642033
 22
144.583559586648
 13
0.0
 23
0.0
 14
10.0
 24
10.0
 15
10.0
 25
10.0
 16
0.0
 26
0.0
 36
1.0
 17
0.0
 27
0.0
 37
0.0
 42
50.0
 43
0.0
 44
0.0
 45
287.5796857704801
 50
0.0
 51
0.0
 72
  1000
 90
    32800
  1

281
     0
 71
     1
 74
     0
110
0.0
120
0.0
130
0.0
111
1.0
121
0.0
131
0.0
112
0.0
122
1.0
132
0.0
 79
     0
146
0.0
170
     0
 61
     5
348
11ECA
292
     1
282
     1
141
0.0
142
0.0
 63
   250
421
  3355443
  0
VIEWPORT
  5
796
330
78D
100
AcDbEntity
 67
     1
  8
Defpoints
100
AcDbViewport
 10
204.099579334259
 20
142.5892481803894
 30
0.0
 40
408.1991586685178
 41
285.1784963607788
 68
     2
 69
     2
 12
2100.207206595808
 22
1486.804522350007
 13
0.0
 23
0.0
 14
10.0
 24
10.0
 15
10.0
 25
10.0
 16
0.0
 26
0.0
 36
1.0
 17
0.0
 27
0.0
 37
0.0
 42
50.0
 43
0.0
 44
0.0
 45
2851.784980677949
 50
0.0
 51
0.0
 72
  1000
 90
    32864
  1

281
     0
 71
     1
 74
     0
110
0.0
120
0.0
130
0.0
111
1.0
121
0.0
131
0.0
112
0.0
122
1.0
132
0.0
 79
     0
146
0.0
170
     0
 61
     5
348
11ECA
292
     1
282
     1
141
0.0
142
0.0
 63
   250
421
  3355443
  0
LINE
  5
9A2
330
78D
100
AcDbEntity
 67
     1
  8
図面枠
100
AcDbLine
 10
14.0996
 20
6.589249999999998
 30
0.0
 11
14.0996
 21
278.58925
 31
0.0
  0
LINE
  5
9A3
330
78D
100
AcDbEntity
 67
     1
  8
図面枠
100
AcDbLine
 10
404.0995999999998
 20
6.589249999999998
 30
0.0
 11
404.0995999999998
 21
278.58925
 31
0.0
  0
LINE
  5
9A4
330
78D
100
AcDbEntity
 67
     1
  8
図面枠
100
AcDbLine
 10
14.0996
 20
278.58925
 30
0.0
 11
404.0995999999998
 21
278.58925
 31
0.0
  0
LINE
  5
9A5
330
78D
100
AcDbEntity
 67
     1
  8
図面枠
100
AcDbLine
 10
14.0996
 20
6.589249999999998
 30
0.0
 11
404.0995999999998
 21
6.589249999999991
 31
0.0
  0
LINE
  5
9BB
330
78D
100
AcDbEntity
 67
     1
  8
図面枠
100
AcDbLine
 10
289.0996
 20
36.58924999999999
 30
0.0
 11
404.0995999999998
 21
36.58924999999999
 31
0.0
  0
LINE
  5
9BC
330
78D
100
AcDbEntity
 67
     1
  8
図面枠
100
AcDbLine
 10
289.0996
 20
30.58924999999999
 30
0.0
 11
404.0995999999998
 21
30.58924999999999
 31
0.0
  0
LINE
  5
9BE
330
78D
100
AcDbEntity
 67
     1
  8
図面枠
100
AcDbLine
 10
289.0996
 20
36.5893
 30
0.0
 11
289.0996
 21
6.589249999999991
 31
0.0
  0
LINE
  5
9C4
330
78D
100
AcDbEntity
 67
     1
  8
図面枠
100
AcDbLine
 10
289.0996
 20
18.58924999999999
 30
0.0
 11
404.0995999999998
 21
18.58924999999999
 31
0.0
  0
LINE
  5
9CD
330
78D
100
AcDbEntity
 67
     1
  8
図面枠
100
AcDbLine
 10
352.0996
 20
36.5893
 30
0.0
 11
352.0996
 21
30.58924999999999
 31
0.0
  0
LINE
  5
9CF
330
78D
100
AcDbEntity
 67
     1
  8
図面枠
100
AcDbLine
 10
383.0996
 20
36.5893
 30
0.0
 11
383.0996
 21
30.58924999999999
 31
0.0
  0
LINE
  5
9D0
330
78D
100
AcDbEntity
 67
     1
  8
図面枠
100
AcDbLine
 10
352.0996
 20
30.58924999999999
 30
0.0
 11
352.0996
 21
6.589249999999991
 31
0.0
  0
LINE
  5
9D1
330
78D
100
AcDbEntity
 67
     1
  8
図面枠
100
AcDbLine
 10
312.0996
 20
36.58924999999999
 30
0.0
 11
312.0996
 21
30.58924999999999
 31
0.0
  0
LINE
  5
9D2
330
78D
100
AcDbEntity
 67
     1
  8
図面枠
100
AcDbLine
 10
304.0996
 20
24.58924999999999
 30
0.0
 11
349.0996
 21
24.58924999999999
 31
0.0
  0
TEXT
  5
9EB
330
78D
100
AcDbEntity
 67
     1
  8
図面枠
100
AcDbText
 10
289.9746
 20
32.33924999999999
 30
0.0
 40
2.5
  1
重量
 11
289.9746
 21
32.33924999999999
 31
0.0
100
AcDbText
 73
     1
  0
TEXT
  5
9ED
330
78D
100
AcDbEntity
 67
     1
  8
図面枠
100
AcDbText
 10
289.97465
 20
27.21424999999999
 30
0.0
 40
2.5
  1
名　称
 11
289.97465
 21
29.71424999999999
 31
0.0
100
AcDbText
 73
     3
  0
TEXT
  5
9EF
330
78D
100
AcDbEntity
 67
     1
  8
図面枠
100
AcDbText
 10
318.5375983281357
 20
32.33929999999999
 30
0.0
 40
2.5
  1
表面仕上げ
 41
0.8
 11
318.5375983281357
 21
32.33929999999999
 31
0.0
100
AcDbText
 73
     1
  0
TEXT
  5
A20
330
78D
100
AcDbEntity
 67
     1
  8
図面枠
100
AcDbText
 10
352.9746
 20
32.33924999999999
 30
0.0
 40
2.5
  1
日付
 11
352.9746
 21
32.33924999999999
 31
0.0
100
AcDbText
 73
     1
  0
TEXT
  5
A39
330
78D
100
AcDbEntity
 67
     1
  8
図面枠
100
AcDbText
 10
383.9746
 20
32.33924999999999
 30
0.0
 40
2.5
  1
尺度
 11
383.9746
 21
32.33924999999999
 31
0.0
100
AcDbText
 73
     1
  0
TEXT
  5
A59
330
78D
100
AcDbEntity
 67
     1
  8
図面枠
100
AcDbText
 10
313.5162666666667
 20
26.33924999999999
 30
0.0
 40
2.5
  1
スルーサーＢ構造図
 72
     1
 11
326.5996
 21
26.33924999999999
 31
0.0
100
AcDbText
 73
     1
  0
TEXT
  5
A5A
330
78D
100
AcDbEntity
 67
     1
  8
図面枠
100
AcDbText
 10
317.6611157480315
 20
20.33924999999999
 30
0.0
 40
2.5
  1
切り梁H-400
 72
     1
 11
326.5996
 21
22.83924999999999
 31
0.0
100
AcDbText
 73
     3
  0
TEXT
  5
A63
330
78D
100
AcDbEntity
 67
     1
  8
図面枠
100
AcDbText
 10
368.0162666666667
 20
8.33924999999999
 30
0.0
 40
2.5
  1
Ｈ４０－Ｗ８０
 72
     1
 11
378.0996
 21
8.33924999999999
 31
0.0
100
AcDbText
 73
     1
  0
TEXT
  5
9054
330
78D
100
AcDbEntity
 67
     1
  8
図面枠
100
AcDbText
 10
300.3079
 20
32.33924999999999
 30
0.0
 40
2.5
  1
391kg
 11
300.3079
 21
32.33924999999999
 31
0.0
100
AcDbText
 73
     1
  0
TEXT
  5
9055
330
78D
100
AcDbEntity
 67
     1
  8
図面枠
100
AcDbText
 10
333.8708983281357
 20
32.33929999999999
 30
0.0
 40
2.5
  1
鉄筋防錆剤
 41
0.8
 11
333.8708983281357
 21
32.33929999999999
 31
0.0
100
AcDbText
 73
     1
  0
TEXT
  5
9057
330
78D
100
AcDbEntity
 67
     1
  8
図面枠
100
AcDbText
 10
394.3079
 20
32.33924999999999
 30
0.0
 40
2.5
  1
1/10
 11
394.3079
 21
32.33924999999999
 31
0.0
100
AcDbText
 73
     1
  0
TEXT
  5
933A
330
78D
100
AcDbEntity
 67
     1
  8
図面枠
100
AcDbText
 10
300.0162781896648
 20
10.58922126233957
 30
0.0
 40
4.0
  1
三研テクノクリエイト
 11
300.0162781896648
 21
12.58922126233957
 31
0.0
100
AcDbText
 73
     2
  0
TEXT
  5
933B
330
78D
100
AcDbEntity
 67
     1
  8
図面枠
100
AcDbText
 10
294.2496115229981
 20
12.83922126233957
 30
0.0
 40
2.0
  1
株式
 72
     2
 11
298.5162781896648
 21
12.83922126233957
 31
0.0
100
AcDbText
 73
     1
  0
TEXT
  5
933C
330
78D
100
AcDbEntity
 67
     1
  8
図面枠
100
AcDbText
 10
294.2496115229981
 20
10.33922126233957
 30
0.0
 40
2.0
  1
会社
 72
     2
 11
298.5162781896648
 21
12.33922126233957
 31
0.0
100
AcDbText
 73
     3
  0
TEXT
  5
12F24
330
78D
100
AcDbEntity
 67
     1
  8
図面枠
100
AcDbText
 10
352.97465
 20
27.21425
 30
0.0
 40
2.5
  1
摘　要
 11
352.97465
 21
29.71425
 31
0.0
100
AcDbText
 73
     3
  0
TEXT
  5
12F25
330
78D
100
AcDbEntity
 67
     1
  8
図面枠
100
AcDbText
 10
352.9746
 20
15.21425
 30
0.0
 40
2.5
  1
型　式
 11
352.9746
 21
17.71425
 31
0.0
100
AcDbText
 73
     3
  0
LINE
  5
12F27
330
78D
100
AcDbEntity
 67
     1
  8
図面枠
100
AcDbLine
 10
227.3699773983349
 20
19.86719851721269
 30
0.0
 11
282.3699773983349
 21
19.86719851721269
 31
0.0
  0
LINE
  5
12F28
330
78D
100
AcDbEntity
 67
     1
  8
図面枠
100
AcDbLine
 10
227.3699773983349
 20
19.86719851721269
 30
0.0
 11
227.3699773983349
 21
10.86719851721269
 31
0.0
  0
LINE
  5
12F2A
330
78D
100
AcDbEntity
 67
     1
  8
図面枠
100
AcDbLine
 10
282.3699773983349
 20
19.86719851721269
 30
0.0
 11
282.3699773983349
 21
10.86719851721269
 31
0.0
  0
LINE
  5
12F2B
330
78D
100
AcDbEntity
 67
     1
  8
図面枠
100
AcDbLine
 10
227.3699773983349
 20
10.86719851721269
 30
0.0
 11
282.3699773983349
 21
10.86719851721269
 31
0.0
  0
TEXT
  5
131BB
330
78D
100
AcDbEntity
 67
     1
  8
図面枠
100
AcDbText
 10
364.7662666666667
 20
20.86235908820162
 30
0.0
 40
2.5
  1
Ｈ４０－Ｗシリーズ
 72
     1
 11
378.0996
 21
20.86235908820162
 31
0.0
100
AcDbText
 73
     1
  0
TEXT
  5
13B4C
330
78D
100
AcDbEntity
 67
     1
  8
図面枠
100
AcDbText
 10
228.6019716746131
 20
13.16588865156561
 30
0.0
 40
4.0
  1
スクラップ重量　324kg
 72
     1
 11
254.7744590480284
 21
13.16588865156561
 31
0.0
100
AcDbText
  0
TEXT
  5
14D9F
330
78D
100
AcDbEntity
 67
     1
  8
図面枠
100
AcDbText
 10
363.3079
 20
32.33919999999999
 30
0.0
 40
2.5
  1
2024.01.01
 11
363.3079
 21
32.33919999999999
 31
0.0
100
AcDbText
 73
     1
  0
ENDSEC
  0
SECTION
  2
OBJECTS
  0
DICTIONARY
  5
C
330
0
100
AcDbDictionary
281
     1
  3
ACAD_CIP_PREVIOUS_PRODUCT_INFO
350
13BE7
  3
ACAD_COLOR
350
6B
  3
ACAD_DETAILVIEWSTYLE
350
13BE1
  3
ACAD_GROUP
350
D
  3
ACAD_LAYOUT
350
1A
  3
ACAD_MATERIAL
350
6A
  3
ACAD_MLEADERSTYLE
350
11EE7
  3
ACAD_MLINESTYLE
350
17
  3
ACAD_PLOTSETTINGS
350
19
  3
ACAD_PLOTSTYLENAME
350
E
  3
ACAD_SCALELIST
350
11ED5
  3
ACAD_SECTIONVIEWSTYLE
350
13BDF
  3
ACAD_TABLESTYLE
350
7E
  3
ACAD_VISUALSTYLE
350
11EC4
  3
AcadDim
350
89BC
  3
ACDB_RECOMPOSE_DATA
350
14DB1
  3
ACDBHEADERROUNDTRIPXREC
350
13167
  3
AcDbVariableDictionary
350
5E
  3
AcDsDecomposeData
350
14DB7
  3
AEC_PROPERTY_SET_DEFS
350
12CC0
  0
DICTIONARY
  5
12005
330
8
100
AcDbDictionary
280
     1
281
     1
  0
DICTIONARY
  5
11D
330
2
100
AcDbDictionary
280
     1
281
     1
  3
ACAD_LAYERFILTERS
360
98AE
  3
ACAD_LAYERSTATES
360
11E
  3
ACLYDICTIONARY
360
98AD
  0
DICTIONARY
  5
11FCB
330
10
100
AcDbDictionary
280
     1
281
     1
  3
ADSK_XREC_LAYER_RECONCILED
360
11FCC
  0
DICTIONARY
  5
11FCF
330
1BF
100
AcDbDictionary
280
     1
281
     1
  3
ADSK_XREC_LAYER_RECONCILED
360
11FD0
  0
DICTIONARY
  5
11FD3
330
1C1
100
AcDbDictionary
280
     1
281
     1
  3
ADSK_XREC_LAYER_RECONCILED
360
11FD4
  0
DICTIONARY
  5
11FD7
330
1C3
100
AcDbDictionary
280
     1
281
     1
  3
ADSK_XREC_LAYER_RECONCILED
360
11FD8
  0
DICTIONARY
  5
11FD9
330
1C4
100
AcDbDictionary
280
     1
281
     1
  3
ADSK_XREC_LAYER_RECONCILED
360
11FDA
  0
DICTIONARY
  5
11FDB
330
1C5
100
AcDbDictionary
280
     1
281
     1
  3
ADSK_XREC_LAYER_RECONCILED
360
11FDC
  0
DICTIONARY
  5
11FDD
330
82E
100
AcDbDictionary
280
     1
281
     1
  3
ADSK_XREC_LAYER_RECONCILED
360
11FDE
  0
DICTIONARY
  5
5C91
330
1F
100
AcDbDictionary
280
     1
281
     1
  3
ACAD_SORTENTS
360
5C92
  0
DICTIONARY
  5
1227D
330
C08
100
AcDbDictionary
280
     1
281
     1
  3
ACAD_SORTENTS
360
13041
  0
XRECORD
  5
13BE7
102
{ACAD_REACTORS
330
C
102
}
330
C
100
AcDbXrecord
280
     1
300
ACD
300
2023
300

  0
DICTIONARY
  5
6B
102
{ACAD_REACTORS
330
C
102
}
330
C
100
AcDbDictionary
281
     1
  0
DICTIONARY
  5
13BE1
102
{ACAD_REACTORS
330
C
102
}
330
C
100
AcDbDictionary
281
     1
  3
Metric50
350
13BE2
  0
DICTIONARY
  5
D
102
{ACAD_REACTORS
330
C
102
}
330
C
100
AcDbDictionary
281
     1
  0
DICTIONARY
  5
1A
102
{ACAD_REACTORS
330
C
102
}
330
C
100
AcDbDictionary
281
     1
  3
Model
350
22
  3
レイアウト1
350
78E
  0
DICTIONARY
  5
6A
102
{ACAD_REACTORS
330
C
102
}
330
C
100
AcDbDictionary
281
     1
  3
ByBlock
350
11EB4
  3
ByLayer
350
11EAC
  3
Global
350
11EBC
  0
DICTIONARY
  5
11EE7
102
{ACAD_REACTORS
330
C
102
}
330
C
100
AcDbDictionary
281
     1
  3
Standard
350
11EE8
  0
DICTIONARY
  5
17
102
{ACAD_REACTORS
330
C
102
}
330
C
100
AcDbDictionary
281
     1
  3
Standard
350
18
  0
DICTIONARY
  5
19
102
{ACAD_REACTORS
330
C
102
}
330
C
100
AcDbDictionary
281
     1
  0
ACDBDICTIONARYWDFLT
  5
E
102
{ACAD_REACTORS
330
C
102
}
330
C
100
AcDbDictionary
281
     1
  3
Normal
350
F
100
AcDbDictionaryWithDefault
340
F
  0
DICTIONARY
  5
11ED5
102
{ACAD_REACTORS
330
C
102
}
330
C
100
AcDbDictionary
281
     1
  3
A0
350
11ED6
  3
A1
350
11ED7
  3
A2
350
11ED8
  3
A3
350
11ED9
  3
A4
350
11EDA
  3
A5
350
11EDB
  3
A6
350
11EDC
  3
A7
350
11EDD
  3
A8
350
11EDE
  3
A9
350
11EDF
  3
B0
350
11EE0
  3
B1
350
11EE1
  3
B2
350
11EE2
  3
B3
350
11EE3
  3
B4
350
11EE4
  3
B5
350
11EE5
  3
B6
350
11EE6
  0
DICTIONARY
  5
13BDF
102
{ACAD_REACTORS
330
C
102
}
330
C
100
AcDbDictionary
281
     1
  3
Metric50
350
13BE0
  0
DICTIONARY
  5
7E
102
{ACAD_REACTORS
330
C
102
}
330
C
100
AcDbDictionary
281
     1
  3
Standard
350
7F
  0
DICTIONARY
  5
11EC4
102
{ACAD_REACTORS
330
C
102
}
330
C
100
AcDbDictionary
281
     1
  3
2dWireframe
350
11ECA
  3
3D Hidden
350
11ECC
  3
3dWireframe
350
11ECB
  3
Basic
350
11EC9
  3
Brighten
350
11ED0
  3
ColorChange
350
11ED4
  3
Conceptual
350
11ECD
  3
Dim
350
11ECF
  3
EdgeColorOff
350
13BDE
  3
Facepattern
350
11ED3
  3
Flat
350
11EC5
  3
FlatWithEdges
350
11EC6
  3
Gouraud
350
11EC7
  3
GouraudWithEdges
350
11EC8
  3
Hidden
350
13BD6
  3
JitterOff
350
13BDC
  3
Linepattern
350
11ED2
  3
OverhangOff
350
13BDD
  3
Realistic
350
11ECE
  3
Shaded
350
13BDB
  3
Shaded with edges
350
13BDA
  3
Shades of Gray
350
13BD7
  3
Sketchy
350
13BD8
  3
Thicken
350
11ED1
  3
Wireframe
350
13BD5
  3
X-Ray
350
13BD9
  0
XRECORD
  5
89BC
102
{ACAD_REACTORS
330
C
102
}
330
C
100
AcDbXrecord
280
     1
 90
   990106
  3

 60
     0
 61
     0
 62
     1
 63
     3
 64
     0
 65
     0
 66
     0
 67
     3
 68
     1
 69
     0
 70
     0
 71
     0
 72
     0
 40
0.0
170
     0
  0
XRECORD
  5
14DB1
102
{ACAD_REACTORS
330
C
102
}
330
C
100
AcDbXrecord
280
     1
 90
        1
330
7F
  0
DICTIONARY
  5
13167
102
{ACAD_REACTORS
330
C
102
}
330
C
100
AcDbDictionary
281
     1
  0
DICTIONARY
  5
5E
102
{ACAD_REACTORS
330
C
102
}
330
C
100
AcDbDictionary
281
     1
  3
CANNOSCALE
350
12013
  3
CMLEADERSTYLE
350
12012
  3
CTABLESTYLE
350
84
  3
CVIEWDETAILSTYLE
350
1472B
  3
CVIEWSECTIONSTYLE
350
1472C
  3
DIMASSOC
350
5F
  3
HIDETEXT
350
63
  3
INDEXCTL
350
12015
  3
LAYEREVAL
350
1472F
  3
LAYERNOTIFY
350
14730
  3
LIGHTINGUNITS
350
1472E
  3
MSLTSCALE
350
1472D
  3
PROJECTNAME
350
12A7E
  3
SORTENTS
350
12014
  0
DICTIONARY
  5
14DB7
102
{ACAD_REACTORS
330
C
102
}
330
C
100
AcDbDictionary
281
     1
  3
AcDsRecords
350
14DB9
  3
AcDsSchemas
350
14DB8
1001
ACAD
1070
     2
  0
DICTIONARY
  5
12CC0
102
{ACAD_REACTORS
330
C
102
}
330
C
100
AcDbDictionary
281
     1
  0
DICTIONARY
  5
98AE
102
{ACAD_REACTORS
330
11D
102
}
330
11D
100
AcDbDictionary
281
     1
  0
DICTIONARY
  5
11E
102
{ACAD_REACTORS
330
11D
102
}
330
11D
100
AcDbDictionary
281
     1
  0
DICTIONARY
  5
98AD
102
{ACAD_REACTORS
330
11D
102
}
330
11D
100
AcDbDictionary
281
     1
1001
ACAD
1000
<All
  0
XRECORD
  5
11FCC
102
{ACAD_REACTORS
330
11FCB
102
}
330
11FCB
100
AcDbXrecord
280
     1
290
     1
  0
XRECORD
  5
11FD0
102
{ACAD_REACTORS
330
11FCF
102
}
330
11FCF
100
AcDbXrecord
280
     1
290
     1
  0
XRECORD
  5
11FD4
102
{ACAD_REACTORS
330
11FD3
102
}
330
11FD3
100
AcDbXrecord
280
     1
290
     1
  0
XRECORD
  5
11FD8
102
{ACAD_REACTORS
330
11FD7
102
}
330
11FD7
100
AcDbXrecord
280
     1
290
     1
  0
XRECORD
  5
11FDA
102
{ACAD_REACTORS
330
11FD9
102
}
330
11FD9
100
AcDbXrecord
280
     1
290
     1
  0
XRECORD
  5
11FDC
102
{ACAD_REACTORS
330
11FDB
102
}
330
11FDB
100
AcDbXrecord
280
     1
290
     1
  0
XRECORD
  5
11FDE
102
{ACAD_REACTORS
330
11FDD
102
}
330
11FDD
100
AcDbXrecord
280
     1
290
     1
  0
SORTENTSTABLE
  5
5C92
102
{ACAD_REACTORS
330
5C91
102
}
330
5C91
100
AcDbSortentsTable
330
1F
  0
SORTENTSTABLE
  5
13041
102
{ACAD_REACTORS
330
1227D
102
}
330
1227D
100
AcDbSortentsTable
330
C08
  0
ACDBDETAILVIEWSTYLE
  5
13BE2
102
{ACAD_XDICTIONARY
360
14DBC
102
}
102
{ACAD_REACTORS
330
13BE1
102
}
330
13BE1
100
AcDbModelDocViewStyle
 70
     0
  3
Metric50
290
     0
100
AcDbDetailViewStyle
 70
     0
 71
     0
 90
        3
 71
     1
340
11
 62
   256
 40
5.0
340
0
 62
   256
 40
5.0
300

 40
0.0
280
     1
 71
     2
340
16
 90
       25
 62
   256
 71
     3
340
11
 62
   256
 40
5.0
 90
        0
 40
15.0
 90
        1
300
%<\AcVar ViewDetailId>% (%<\AcVar ViewScale \f "%sn">%)
 71
     4
340
16
 90
       25
 62
   256
340
16
 90
       25
 62
   256
280
     0
  0
LAYOUT
  5
22
102
{ACAD_REACTORS
330
1A
102
}
330
1A
100
AcDbPlotSettings
  1

  2
none_device
  4
ISO_A4_(210.00_x_297.00_MM)
  6

 40
7.5
 41
20.0
 42
7.5
 43
20.0
 44
210.0
 45
297.0
 46
11.54999923706054
 47
-13.65000009536743
 48
0.0
 49
0.0
140
0.0
141
0.0
142
1.0
143
8.704084754739808
 70
 11952
 72
     1
 73
     0
 74
     0
  7

 75
     0
147
0.1148885871608098
 76
     0
 77
     2
 78
   300
148
0.0
149
0.0
100
AcDbLayout
  1
Model
 70
     1
 71
     0
 10
0.0
 20
0.0
 11
12.0
 21
9.0
 12
0.0
 22
0.0
 32
0.0
 14
0.0
 24
0.0
 34
0.0
 15
0.0
 25
0.0
 35
0.0
146
0.0
 13
0.0
 23
0.0
 33
0.0
 16
1.0
 26
0.0
 36
0.0
 17
0.0
 27
1.0
 37
0.0
 76
     0
330
1F
331
1315B
1001
ACAD_PSEXT
1000
None
1000
None
1000
Not applicable
1000
The layout will not be plotted unless a new plotter configuration name is selected.
1070
     0
  0
LAYOUT
  5
78E
102
{ACAD_XDICTIONARY
360
79B
102
}
102
{ACAD_REACTORS
330
1A
102
}
330
1A
100
AcDbPlotSettings
  1

  2
RICOH MP C2503 JPN RPCS V2
  4
A3
  6

 40
5.873749732971191
 41
5.873748779296875
 42
5.873748779296875
 43
5.873748779296875
 44
296.9259948730469
 45
419.9466552734374
 46
0.0
 47
0.0
 48
0.0
 49
0.0
140
0.0
141
0.0
142
1.0
143
1.0
 70
   688
 72
     1
 73
     1
 74
     5
  7
monochrome.ctb
 75
    16
147
1.0
 76
     1
 77
     2
 78
   300
148
0.0
149
0.0
100
AcDbLayout
  1
レイアウト1
 70
     1
 71
     1
 10
-5.873748779296875
 20
-5.873749732971191
 11
414.0729064941406
 21
291.0522451400757
 12
0.0
 22
0.0
 32
0.0
 14
0.0000000000000853
 24
0.0
 34
0.0
 15
408.1991586685179
 25
285.1784963607788
 35
0.0
146
0.0
 13
0.0
 23
0.0
 33
0.0
 16
1.0
 26
0.0
 36
0.0
 17
0.0
 27
1.0
 37
0.0
 76
     0
330
78D
331
794
1001
ACAD_PSEXT
1000
RICOH MP C2503 JPN RPCS V2
1000
RICOH MP C2503 JPN RPCS V2
1000
IP_192.168.24.100
1000
RPCS Driver (For Windows)
1070
     0
  0
MATERIAL
  5
11EB4
102
{ACAD_XDICTIONARY
360
11EB5
102
}
102
{ACAD_REACTORS
330
6A
102
}
330
6A
100
AcDbMaterial
  1
ByBlock
 72
     0
 43
0.0008202099737533
 43
0.0
 43
0.0
 43
0.0
 43
0.0
 43
0.0008202099737533
 43
0.0
 43
0.0
 43
0.0
 43
0.0
 43
1.0
 43
0.0
 43
0.0
 43
0.0
 43
0.0
 43
1.0
 77
     0
 47
0.0008202099737533
 47
0.0
 47
0.0
 47
0.0
 47
0.0
 47
0.0008202099737533
 47
0.0
 47
0.0
 47
0.0
 47
0.0
 47
1.0
 47
0.0
 47
0.0
 47
0.0
 47
0.0
 47
1.0
171
     0
 49
0.0008202099737533
 49
0.0
 49
0.0
 49
0.0
 49
0.0
 49
0.0008202099737533
 49
0.0
 49
0.0
 49
0.0
 49
0.0
 49
1.0
 49
0.0
 49
0.0
 49
0.0
 49
0.0
 49
1.0
175
     0
142
0.0008202099737533
142
0.0
142
0.0
142
0.0
142
0.0
142
0.0008202099737533
142
0.0
142
0.0
142
0.0
142
0.0
142
1.0
142
0.0
142
0.0
142
0.0
142
0.0
142
1.0
179
     0
144
0.0008202099737533
144
0.0
144
0.0
144
0.0
144
0.0
144
0.0008202099737533
144
0.0
144
0.0
144
0.0
144
0.0
144
1.0
144
0.0
144
0.0
144
0.0
144
0.0
144
1.0
147
0.0008202099737533
147
0.0
147
0.0
147
0.0
147
0.0
147
0.0008202099737533
147
0.0
147
0.0
147
0.0
147
0.0
147
1.0
147
0.0
147
0.0
147
0.0
147
0.0
147
1.0
  0
MATERIAL
  5
11EAC
102
{ACAD_XDICTIONARY
360
11EAD
102
}
102
{ACAD_REACTORS
330
6A
102
}
330
6A
100
AcDbMaterial
  1
ByLayer
 72
     0
 43
0.0008202099737533
 43
0.0
 43
0.0
 43
0.0
 43
0.0
 43
0.0008202099737533
 43
0.0
 43
0.0
 43
0.0
 43
0.0
 43
1.0
 43
0.0
 43
0.0
 43
0.0
 43
0.0
 43
1.0
 77
     0
 47
0.0008202099737533
 47
0.0
 47
0.0
 47
0.0
 47
0.0
 47
0.0008202099737533
 47
0.0
 47
0.0
 47
0.0
 47
0.0
 47
1.0
 47
0.0
 47
0.0
 47
0.0
 47
0.0
 47
1.0
171
     0
 49
0.0008202099737533
 49
0.0
 49
0.0
 49
0.0
 49
0.0
 49
0.0008202099737533
 49
0.0
 49
0.0
 49
0.0
 49
0.0
 49
1.0
 49
0.0
 49
0.0
 49
0.0
 49
0.0
 49
1.0
175
     0
142
0.0008202099737533
142
0.0
142
0.0
142
0.0
142
0.0
142
0.0008202099737533
142
0.0
142
0.0
142
0.0
142
0.0
142
1.0
142
0.0
142
0.0
142
0.0
142
0.0
142
1.0
179
     0
144
0.0008202099737533
144
0.0
144
0.0
144
0.0
144
0.0
144
0.0008202099737533
144
0.0
144
0.0
144
0.0
144
0.0
144
1.0
144
0.0
144
0.0
144
0.0
144
0.0
144
1.0
147
0.0008202099737533
147
0.0
147
0.0
147
0.0
147
0.0
147
0.0008202099737533
147
0.0
147
0.0
147
0.0
147
0.0
147
1.0
147
0.0
147
0.0
147
0.0
147
0.0
147
1.0
  0
MATERIAL
  5
11EBC
102
{ACAD_XDICTIONARY
360
11EBD
102
}
102
{ACAD_REACTORS
330
6A
102
}
330
6A
100
AcDbMaterial
  1
Global
 72
     0
 43
0.0008202099737533
 43
0.0
 43
0.0
 43
0.0
 43
0.0
 43
0.0008202099737533
 43
0.0
 43
0.0
 43
0.0
 43
0.0
 43
1.0
 43
0.0
 43
0.0
 43
0.0
 43
0.0
 43
1.0
 77
     0
 47
0.0008202099737533
 47
0.0
 47
0.0
 47
0.0
 47
0.0
 47
0.0008202099737533
 47
0.0
 47
0.0
 47
0.0
 47
0.0
 47
1.0
 47
0.0
 47
0.0
 47
0.0
 47
0.0
 47
1.0
171
     0
 49
0.0008202099737533
 49
0.0
 49
0.0
 49
0.0
 49
0.0
 49
0.0008202099737533
 49
0.0
 49
0.0
 49
0.0
 49
0.0
 49
1.0
 49
0.0
 49
0.0
 49
0.0
 49
0.0
 49
1.0
175
     0
142
0.0008202099737533
142
0.0
142
0.0
142
0.0
142
0.0
142
0.0008202099737533
142
0.0
142
0.0
142
0.0
142
0.0
142
1.0
142
0.0
142
0.0
142
0.0
142
0.0
142
1.0
179
     0
144
0.0008202099737533
144
0.0
144
0.0
144
0.0
144
0.0
144
0.0008202099737533
144
0.0
144
0.0
144
0.0
144
0.0
144
1.0
144
0.0
144
0.0
144
0.0
144
0.0
144
1.0
147
0.0008202099737533
147
0.0
147
0.0
147
0.0
147
0.0
147
0.0008202099737533
147
0.0
147
0.0
147
0.0
147
0.0
147
1.0
147
0.0
147
0.0
147
0.0
147
0.0
147
1.0
  0
MLEADERSTYLE
  5
11EE8
102
{ACAD_REACTORS
330
11EE7
102
}
330
11EE7
100
AcDbMLeaderStyle
179
     2
170
     2
171
     1
172
     0
 90
        2
 40
0.0
 41
0.0
173
     1
 91
-1056964608
340
14
 92
       -2
290
     1
 42
2.0
291
     1
 43
0.36
  3
Standard
 44
4.0
300

342
11
174
     1
178
     6
175
     1
176
     0
 93
-1056964608
 45
4.0
292
     0
297
     0
 46
4.0
 94
-1056964608
 47
1.0
 49
1.0
140
1.0
293
     1
141
0.0
294
     1
177
     0
142
1.0
295
     0
296
     0
143
0.125
271
     0
272
     9
273
     9
298
     0
1001
ACAD
1000
AcRTDxfName
1000
MLEADERSTYLE
1000
AcRTDxfName
1000
MLEADERSTYLE
1000
AcRTDxfName
1000
MLEADERSTYLE
1000
AcRTDxfName
1000
MLEADERSTYLE
1000
AcRTDxfName
1000
MLEADERSTYLE
1000
AcRTDxfName
1000
MLEADERSTYLE
  0
MLINESTYLE
  5
18
102
{ACAD_REACTORS
330
17
102
}
330
17
100
AcDbMlineStyle
  2
STANDARD
 70
     0
  3

 62
   256
 51
90.0
 52
90.0
 71
     2
 49
0.5
 62
   256
  6
BYLAYER
 49
-0.5
 62
   256
  6
BYLAYER
  0
ACDBPLACEHOLDER
  5
F
102
{ACAD_REACTORS
330
E
102
}
330
E
  0
SCALE
  5
11ED6
102
{ACAD_REACTORS
330
11ED5
102
}
330
11ED5
100
AcDbScale
 70
     0
300
1:1
140
1.0
141
1.0
290
     1
1001
ACAD
1000
AcRTDxfName
1000
SCALE
1000
AcRTDxfName
1000
SCALE
1000
AcRTDxfName
1000
SCALE
1000
AcRTDxfName
1000
SCALE
1000
AcRTDxfName
1000
SCALE
1000
AcRTDxfName
1000
SCALE
  0
SCALE
  5
11ED7
102
{ACAD_REACTORS
330
11ED5
102
}
330
11ED5
100
AcDbScale
 70
     0
300
1:2
140
1.0
141
2.0
290
     0
1001
ACAD
1000
AcRTDxfName
1000
SCALE
1000
AcRTDxfName
1000
SCALE
1000
AcRTDxfName
1000
SCALE
1000
AcRTDxfName
1000
SCALE
1000
AcRTDxfName
1000
SCALE
1000
AcRTDxfName
1000
SCALE
  0
SCALE
  5
11ED8
102
{ACAD_REACTORS
330
11ED5
102
}
330
11ED5
100
AcDbScale
 70
     0
300
1:4
140
1.0
141
4.0
290
     0
1001
ACAD
1000
AcRTDxfName
1000
SCALE
1000
AcRTDxfName
1000
SCALE
1000
AcRTDxfName
1000
SCALE
1000
AcRTDxfName
1000
SCALE
1000
AcRTDxfName
1000
SCALE
1000
AcRTDxfName
1000
SCALE
  0
SCALE
  5
11ED9
102
{ACAD_REACTORS
330
11ED5
102
}
330
11ED5
100
AcDbScale
 70
     0
300
1:5
140
1.0
141
5.0
290
     0
1001
ACAD
1000
AcRTDxfName
1000
SCALE
1000
AcRTDxfName
1000
SCALE
1000
AcRTDxfName
1000
SCALE
1000
AcRTDxfName
1000
SCALE
1000
AcRTDxfName
1000
SCALE
1000
AcRTDxfName
1000
SCALE
  0
SCALE
  5
11EDA
102
{ACAD_REACTORS
330
11ED5
102
}
330
11ED5
100
AcDbScale
 70
     0
300
1:8
140
1.0
141
8.0
290
     0
1001
ACAD
1000
AcRTDxfName
1000
SCALE
1000
AcRTDxfName
1000
SCALE
1000
AcRTDxfName
1000
SCALE
1000
AcRTDxfName
1000
SCALE
1000
AcRTDxfName
1000
SCALE
1000
AcRTDxfName
1000
SCALE
  0
SCALE
  5
11EDB
102
{ACAD_REACTORS
330
11ED5
102
}
330
11ED5
100
AcDbScale
 70
     0
300
1:10
140
1.0
141
10.0
290
     0
1001
ACAD
1000
AcRTDxfName
1000
SCALE
1000
AcRTDxfName
1000
SCALE
1000
AcRTDxfName
1000
SCALE
1000
AcRTDxfName
1000
SCALE
1000
AcRTDxfName
1000
SCALE
1000
AcRTDxfName
1000
SCALE
  0
SCALE
  5
11EDC
102
{ACAD_REACTORS
330
11ED5
102
}
330
11ED5
100
AcDbScale
 70
     0
300
1:16
140
1.0
141
16.0
290
     0
1001
ACAD
1000
AcRTDxfName
1000
SCALE
1000
AcRTDxfName
1000
SCALE
1000
AcRTDxfName
1000
SCALE
1000
AcRTDxfName
1000
SCALE
1000
AcRTDxfName
1000
SCALE
1000
AcRTDxfName
1000
SCALE
  0
SCALE
  5
11EDD
102
{ACAD_REACTORS
330
11ED5
102
}
330
11ED5
100
AcDbScale
 70
     0
300
1:20
140
1.0
141
20.0
290
     0
1001
ACAD
1000
AcRTDxfName
1000
SCALE
1000
AcRTDxfName
1000
SCALE
1000
AcRTDxfName
1000
SCALE
1000
AcRTDxfName
1000
SCALE
1000
AcRTDxfName
1000
SCALE
1000
AcRTDxfName
1000
SCALE
  0
SCALE
  5
11EDE
102
{ACAD_REACTORS
330
11ED5
102
}
330
11ED5
100
AcDbScale
 70
     0
300
1:30
140
1.0
141
30.0
290
     0
1001
ACAD
1000
AcRTDxfName
1000
SCALE
1000
AcRTDxfName
1000
SCALE
1000
AcRTDxfName
1000
SCALE
1000
AcRTDxfName
1000
SCALE
1000
AcRTDxfName
1000
SCALE
1000
AcRTDxfName
1000
SCALE
  0
SCALE
  5
11EDF
102
{ACAD_REACTORS
330
11ED5
102
}
330
11ED5
100
AcDbScale
 70
     0
300
1:40
140
1.0
141
40.0
290
     0
1001
ACAD
1000
AcRTDxfName
1000
SCALE
1000
AcRTDxfName
1000
SCALE
1000
AcRTDxfName
1000
SCALE
1000
AcRTDxfName
1000
SCALE
1000
AcRTDxfName
1000
SCALE
1000
AcRTDxfName
1000
SCALE
  0
SCALE
  5
11EE0
102
{ACAD_REACTORS
330
11ED5
102
}
330
11ED5
100
AcDbScale
 70
     0
300
1:50
140
1.0
141
50.0
290
     0
1001
ACAD
1000
AcRTDxfName
1000
SCALE
1000
AcRTDxfName
1000
SCALE
1000
AcRTDxfName
1000
SCALE
1000
AcRTDxfName
1000
SCALE
1000
AcRTDxfName
1000
SCALE
1000
AcRTDxfName
1000
SCALE
  0
SCALE
  5
11EE1
102
{ACAD_REACTORS
330
11ED5
102
}
330
11ED5
100
AcDbScale
 70
     0
300
1:100
140
1.0
141
100.0
290
     0
1001
ACAD
1000
AcRTDxfName
1000
SCALE
1000
AcRTDxfName
1000
SCALE
1000
AcRTDxfName
1000
SCALE
1000
AcRTDxfName
1000
SCALE
1000
AcRTDxfName
1000
SCALE
1000
AcRTDxfName
1000
SCALE
  0
SCALE
  5
11EE2
102
{ACAD_REACTORS
330
11ED5
102
}
330
11ED5
100
AcDbScale
 70
     0
300
2:1
140
2.0
141
1.0
290
     0
1001
ACAD
1000
AcRTDxfName
1000
SCALE
1000
AcRTDxfName
1000
SCALE
1000
AcRTDxfName
1000
SCALE
1000
AcRTDxfName
1000
SCALE
1000
AcRTDxfName
1000
SCALE
1000
AcRTDxfName
1000
SCALE
  0
SCALE
  5
11EE3
102
{ACAD_REACTORS
330
11ED5
102
}
330
11ED5
100
AcDbScale
 70
     0
300
4:1
140
4.0
141
1.0
290
     0
1001
ACAD
1000
AcRTDxfName
1000
SCALE
1000
AcRTDxfName
1000
SCALE
1000
AcRTDxfName
1000
SCALE
1000
AcRTDxfName
1000
SCALE
1000
AcRTDxfName
1000
SCALE
1000
AcRTDxfName
1000
SCALE
  0
SCALE
  5
11EE4
102
{ACAD_REACTORS
330
11ED5
102
}
330
11ED5
100
AcDbScale
 70
     0
300
8:1
140
8.0
141
1.0
290
     0
1001
ACAD
1000
AcRTDxfName
1000
SCALE
1000
AcRTDxfName
1000
SCALE
1000
AcRTDxfName
1000
SCALE
1000
AcRTDxfName
1000
SCALE
1000
AcRTDxfName
1000
SCALE
1000
AcRTDxfName
1000
SCALE
  0
SCALE
  5
11EE5
102
{ACAD_REACTORS
330
11ED5
102
}
330
11ED5
100
AcDbScale
 70
     0
300
10:1
140
10.0
141
1.0
290
     0
1001
ACAD
1000
AcRTDxfName
1000
SCALE
1000
AcRTDxfName
1000
SCALE
1000
AcRTDxfName
1000
SCALE
1000
AcRTDxfName
1000
SCALE
1000
AcRTDxfName
1000
SCALE
1000
AcRTDxfName
1000
SCALE
  0
SCALE
  5
11EE6
102
{ACAD_REACTORS
330
11ED5
102
}
330
11ED5
100
AcDbScale
 70
     0
300
100:1
140
100.0
141
1.0
290
     0
1001
ACAD
1000
AcRTDxfName
1000
SCALE
1000
AcRTDxfName
1000
SCALE
1000
AcRTDxfName
1000
SCALE
1000
AcRTDxfName
1000
SCALE
1000
AcRTDxfName
1000
SCALE
1000
AcRTDxfName
1000
SCALE
  0
ACDBSECTIONVIEWSTYLE
  5
13BE0
102
{ACAD_XDICTIONARY
360
14DBA
102
}
102
{ACAD_REACTORS
330
13BDF
102
}
330
13BDF
100
AcDbModelDocViewStyle
 70
     0
  3
Metric50
290
     0
100
AcDbSectionViewStyle
 70
     0
 71
     0
 90
      102
 71
     1
340
11
 62
   256
 40
5.0
340
0
340
0
 62
   256
 40
5.0
300
I, O, Q, S, X, Z
 40
10.0
 90
        0
 40
2.5
 90
        0
 71
     2
340
16
 90
       25
 62
   256
340
16
 90
       50
 62
   256
 40
5.0
 40
2.5
 40
5.0
 71
     3
340
11
 62
   256
 40
5.0
 90
        0
 40
15.0
 90
        1
300
%<\AcVar ViewSectionStartId>%-%<\AcVar ViewSectionEndId>% (%<\AcVar ViewScale \f "%sn">%)
 71
     4
 62
   256
 62
   257
300
ANSI31
 40
1.0
 90
        0
290
     0
290
     0
 90
        6
 40
0.0
 40
1.570796326794896
 40
0.2617993877991494
 40
1.308996938995747
 40
-0.2617993877991494
 40
1.832595714594046
  0
TABLESTYLE
  5
7F
102
{ACAD_XDICTIONARY
360
11FFF
102
}
102
{ACAD_REACTORS
330
7E
102
}
330
7E
100
AcDbTableStyle
280
     0
  3
Standard
 70
     0
 71
     0
 40
1.5
 41
1.5
280
     0
281
     0
  7
Standard
140
4.5
170
     2
 62
     0
 63
     7
283
     0
 90
        4
 91
        0
  1

274
    -2
284
     1
 64
     0
275
    -2
285
     1
 65
     0
276
    -2
286
     1
 66
     0
277
    -2
287
     1
 67
     0
278
    -2
288
     1
 68
     0
279
    -2
289
     1
 69
     0
  7
Standard
140
6.0
170
     5
 62
     0
 63
     7
283
     0
 90
        4
 91
        0
  1

274
    -2
284
     1
 64
     0
275
    -2
285
     1
 65
     0
276
    -2
286
     1
 66
     0
277
    -2
287
     1
 67
     0
278
    -2
288
     1
 68
     0
279
    -2
289
     1
 69
     0
  7
Standard
140
4.5
170
     5
 62
     0
 63
     7
283
     0
 90
        4
 91
        0
  1

274
    -2
284
     1
 64
     0
275
    -2
285
     1
 65
     0
276
    -2
286
     1
 66
     0
277
    -2
287
     1
 67
     0
278
    -2
288
     1
 68
     0
279
    -2
289
     1
 69
     0
  0
VISUALSTYLE
  5
11ECA
102
{ACAD_REACTORS
330
11EC4
102
}
330
11EC4
100
AcDbVisualStyle
  2
2dWireframe
 70
     4
177
     3
291
     0
 70
    58
 90
        0
176
     1
 90
        2
176
     1
 90
        0
176
     1
 90
        0
176
     1
 40
0.6
176
     1
 40
30.0
176
     1
 62
     7
176
     1
 90
        1
176
     1
 90
        4
176
     1
 62
     7
176
     1
 62
   257
176
     1
 90
        1
176
     1
 90
        1
176
     1
 40
1.0
176
     1
 90
        0
176
     1
 62
   257
176
     1
 40
1.0
176
     1
 90
        1
176
     1
 90
        6
176
     1
 90
        2
176
     1
 62
     7
176
     1
 90
        5
176
     1
 90
        0
176
     1
 90
        0
176
     1
290
     0
176
     1
 90
        1
176
     1
 40
0.0
176
     1
 90
        0
176
     1
290
     1
176
     1
290
     1
176
     1
290
     0
176
     1
290
     0
176
     1
290
     0
176
     1
290
     0
176
     1
290
     0
176
     1
290
     0
176
     1
290
     0
176
     1
 90
       50
176
     1
 40
0.0
176
     1
 40
1.0
176
     1
 90
        0
176
     1
 62
    18
420
        0
176
     1
 90
       50
176
     1
 90
        3
176
     1
 62
     5
420
      255
176
     1
290
     0
176
     1
 90
       50
176
     1
 90
       50
176
     1
 90
       50
176
     1
290
     0
176
     1
 90
       50
176
     1
 62
   256
176
     0
 40
1.0
176
     0
 90
        2
176
     1
  1
strokes_ogs.tif
176
     1
290
     0
176
     1
 40
1.0
176
     1
 40
1.0
176
     1
1001
ACAD
1000
AcRTDxfName
1000
VISUALSTYLE
1000
AcRTDxfName
1000
VISUALSTYLE
1000
AcRTDxfName
1000
VISUALSTYLE
1000
AcRTDxfName
1000
VISUALSTYLE
1000
AcRTDxfName
1000
VISUALSTYLE
1000
AcRTDxfName
1000
VISUALSTYLE
1000
AcDbSavedByObjectVersion
1070
     0
  0
VISUALSTYLE
  5
11ECC
102
{ACAD_REACTORS
330
11EC4
102
}
330
11EC4
100
AcDbVisualStyle
  2
3D Hidden
 70
     6
177
     3
291
     0
 70
    58
 90
        1
176
     1
 90
        2
176
     1
 90
        2
176
     1
 90
        0
176
     1
 40
0.6
176
     1
 40
30.0
176
     1
 62
     7
176
     1
 90
        2
176
     1
 90
        2
176
     1
 62
     7
176
     1
 62
   257
176
     1
 90
        2
176
     1
 90
        1
176
     1
 40
40.0
176
     1
 90
        0
176
     1
 62
   257
176
     1
 40
1.0
176
     1
 90
        1
176
     1
 90
        6
176
     1
 90
        2
176
     1
 62
     7
176
     1
 90
        3
176
     1
 90
        0
176
     1
 90
        0
176
     1
290
     0
176
     1
 90
        1
176
     1
 40
0.0
176
     1
 90
        0
176
     1
290
     0
176
     1
290
     1
176
     1
290
     1
176
     1
290
     0
176
     1
290
     0
176
     1
290
     0
176
     1
290
     0
176
     1
290
     0
176
     1
290
     0
176
     1
 90
       50
176
     1
 40
0.0
176
     1
 40
1.0
176
     1
 90
        0
176
     1
 62
    18
420
        0
176
     1
 90
       50
176
     1
 90
        3
176
     1
 62
     5
420
      255
176
     1
290
     0
176
     1
 90
       50
176
     1
 90
       50
176
     1
 90
       50
176
     1
290
     0
176
     1
 90
       50
176
     1
 62
   256
176
     0
 40
1.0
176
     0
 90
        2
176
     1
  1
strokes_ogs.tif
176
     1
290
     0
176
     1
 40
1.0
176
     1
 40
1.0
176
     1
1001
ACAD
1000
AcRTDxfName
1000
VISUALSTYLE
1000
AcRTDxfName
1000
VISUALSTYLE
1000
AcRTDxfName
1000
VISUALSTYLE
1000
AcRTDxfName
1000
VISUALSTYLE
1000
AcRTDxfName
1000
VISUALSTYLE
1000
AcRTDxfName
1000
VISUALSTYLE
1000
AcDbSavedByObjectVersion
1070
     0
  0
VISUALSTYLE
  5
11ECB
102
{ACAD_REACTORS
330
11EC4
102
}
330
11EC4
100
AcDbVisualStyle
  2
3dWireframe
 70
     5
177
     3
291
     0
 70
    58
 90
        0
176
     1
 90
        2
176
     1
 90
        0
176
     1
 90
        0
176
     1
 40
0.6
176
     1
 40
30.0
176
     1
 62
     7
176
     1
 90
        1
176
     1
 90
        4
176
     1
 62
     7
176
     1
 62
   257
176
     1
 90
        1
176
     1
 90
        1
176
     1
 40
1.0
176
     1
 90
        0
176
     1
 62
   257
176
     1
 40
1.0
176
     1
 90
        1
176
     1
 90
        6
176
     1
 90
        2
176
     1
 62
     7
176
     1
 90
        5
176
     1
 90
        0
176
     1
 90
        0
176
     1
290
     0
176
     1
 90
        1
176
     1
 40
0.0
176
     1
 90
        0
176
     1
290
     0
176
     1
290
     1
176
     1
290
     1
176
     1
290
     0
176
     1
290
     0
176
     1
290
     0
176
     1
290
     0
176
     1
290
     0
176
     1
290
     0
176
     1
 90
       50
176
     1
 40
0.0
176
     1
 40
1.0
176
     1
 90
        0
176
     1
 62
    18
420
        0
176
     1
 90
       50
176
     1
 90
        3
176
     1
 62
     5
420
      255
176
     1
290
     0
176
     1
 90
       50
176
     1
 90
       50
176
     1
 90
       50
176
     1
290
     0
176
     1
 90
       50
176
     1
 62
   256
176
     0
 40
1.0
176
     0
 90
        2
176
     1
  1
strokes_ogs.tif
176
     1
290
     0
176
     1
 40
1.0
176
     1
 40
1.0
176
     1
1001
ACAD
1000
AcRTDxfName
1000
VISUALSTYLE
1000
AcRTDxfName
1000
VISUALSTYLE
1000
AcRTDxfName
1000
VISUALSTYLE
1000
AcRTDxfName
1000
VISUALSTYLE
1000
AcRTDxfName
1000
VISUALSTYLE
1000
AcRTDxfName
1000
VISUALSTYLE
1000
AcDbSavedByObjectVersion
1070
     0
  0
VISUALSTYLE
  5
11EC9
102
{ACAD_REACTORS
330
11EC4
102
}
330
11EC4
100
AcDbVisualStyle
  2
Basic
 70
     7
177
     3
291
     1
 70
    58
 90
        1
176
     1
 90
        0
176
     1
 90
        1
176
     1
 90
        0
176
     1
 40
0.6
176
     1
 40
30.0
176
     1
 62
     7
176
     1
 90
        0
176
     1
 90
        4
176
     1
 62
     7
176
     1
 62
   257
176
     1
 90
        1
176
     1
 90
        1
176
     1
 40
1.0
176
     1
 90
        8
176
     1
 62
     7
176
     1
 40
1.0
176
     1
 90
        1
176
     1
 90
        6
176
     1
 90
        2
176
     1
 62
     7
176
     1
 90
        5
176
     1
 90
        0
176
     1
 90
        0
176
     1
290
     0
176
     1
 90
        1
176
     1
 40
0.0
176
     1
 90
        0
176
     1
290
     0
176
     1
290
     1
176
     1
290
     1
176
     1
290
     0
176
     1
290
     0
176
     1
290
     0
176
     1
290
     0
176
     1
290
     0
176
     1
290
     0
176
     1
 90
       50
176
     1
 40
0.0
176
     1
 40
1.0
176
     1
 90
        0
176
     1
 62
    18
420
        0
176
     1
 90
       50
176
     1
 90
        3
176
     1
 62
     5
420
      255
176
     1
290
     0
176
     1
 90
       50
176
     1
 90
       50
176
     1
 90
       50
176
     1
290
     0
176
     1
 90
       50
176
     1
 62
   256
176
     0
 40
1.0
176
     0
 90
        2
176
     1
  1
strokes_ogs.tif
176
     1
290
     0
176
     1
 40
1.0
176
     1
 40
1.0
176
     1
1001
ACAD
1000
AcRTDxfName
1000
VISUALSTYLE
1000
AcRTDxfName
1000
VISUALSTYLE
1000
AcRTDxfName
1000
VISUALSTYLE
1000
AcRTDxfName
1000
VISUALSTYLE
1000
AcRTDxfName
1000
VISUALSTYLE
1000
AcRTDxfName
1000
VISUALSTYLE
1000
AcDbSavedByObjectVersion
1070
     0
  0
VISUALSTYLE
  5
11ED0
102
{ACAD_REACTORS
330
11EC4
102
}
330
11EC4
100
AcDbVisualStyle
  2
Brighten
 70
    12
177
     3
291
     1
 70
    58
 90
        2
176
     1
 90
        2
176
     1
 90
        0
176
     1
 90
        0
176
     1
 40
0.6
176
     1
 40
30.0
176
     1
 62
     7
176
     1
 90
        1
176
     1
 90
        4
176
     1
 62
     7
176
     1
 62
   257
176
     1
 90
        1
176
     1
 90
        1
176
     1
 40
1.0
176
     1
 90
        8
176
     1
 62
     7
176
     1
 40
1.0
176
     1
 90
        1
176
     1
 90
        6
176
     1
 90
        2
176
     1
 62
     7
176
     1
 90
        5
176
     1
 90
        0
176
     1
 90
        0
176
     1
290
     0
176
     1
 90
        1
176
     1
 40
50.0
176
     1
 90
        0
176
     1
290
     0
176
     1
290
     1
176
     1
290
     1
176
     1
290
     0
176
     1
290
     0
176
     1
290
     0
176
     1
290
     0
176
     1
290
     0
176
     1
290
     0
176
     1
 90
       50
176
     1
 40
0.0
176
     1
 40
1.0
176
     1
 90
        0
176
     1
 62
    18
420
        0
176
     1
 90
       50
176
     1
 90
        3
176
     1
 62
     5
420
      255
176
     1
290
     0
176
     1
 90
       50
176
     1
 90
       50
176
     1
 90
       50
176
     1
290
     0
176
     1
 90
       50
176
     1
 62
   256
176
     0
 40
1.0
176
     0
 90
        2
176
     1
  1
strokes_ogs.tif
176
     1
290
     0
176
     1
 40
1.0
176
     1
 40
1.0
176
     1
1001
ACAD
1000
AcRTDxfName
1000
VISUALSTYLE
1000
AcRTDxfName
1000
VISUALSTYLE
1000
AcRTDxfName
1000
VISUALSTYLE
1000
AcRTDxfName
1000
VISUALSTYLE
1000
AcRTDxfName
1000
VISUALSTYLE
1000
AcRTDxfName
1000
VISUALSTYLE
1000
AcDbSavedByObjectVersion
1070
     0
  0
VISUALSTYLE
  5
11ED4
102
{ACAD_REACTORS
330
11EC4
102
}
330
11EC4
100
AcDbVisualStyle
  2
ColorChange
 70
    16
177
     3
291
     1
 70
    58
 90
        2
176
     1
 90
        2
176
     1
 90
        3
176
     1
 90
        0
176
     1
 40
0.6
176
     1
 40
30.0
176
     1
 62
     8
176
     1
 90
        1
176
     1
 90
        4
176
     1
 62
     7
176
     1
 62
   257
176
     1
 90
        1
176
     1
 90
        1
176
     1
 40
1.0
176
     1
 90
        8
176
     1
 62
     8
176
     1
 40
1.0
176
     1
 90
        1
176
     1
 90
        6
176
     1
 90
        2
176
     1
 62
     7
176
     1
 90
        5
176
     1
 90
        0
176
     1
 90
        0
176
     1
290
     0
176
     1
 90
        1
176
     1
 40
0.0
176
     1
 90
        0
176
     1
290
     0
176
     1
290
     1
176
     1
290
     1
176
     1
290
     0
176
     1
290
     0
176
     1
290
     0
176
     1
290
     0
176
     1
290
     0
176
     1
290
     0
176
     1
 90
       50
176
     1
 40
0.0
176
     1
 40
1.0
176
     1
 90
        0
176
     1
 62
    18
420
        0
176
     1
 90
       50
176
     1
 90
        3
176
     1
 62
     5
420
      255
176
     1
290
     0
176
     1
 90
       50
176
     1
 90
       50
176
     1
 90
       50
176
     1
290
     0
176
     1
 90
       50
176
     1
 62
   256
176
     0
 40
1.0
176
     0
 90
        2
176
     1
  1
strokes_ogs.tif
176
     1
290
     0
176
     1
 40
1.0
176
     1
 40
1.0
176
     1
1001
ACAD
1000
AcRTDxfName
1000
VISUALSTYLE
1000
AcRTDxfName
1000
VISUALSTYLE
1000
AcRTDxfName
1000
VISUALSTYLE
1000
AcRTDxfName
1000
VISUALSTYLE
1000
AcRTDxfName
1000
VISUALSTYLE
1000
AcRTDxfName
1000
VISUALSTYLE
1000
AcDbSavedByObjectVersion
1070
     0
  0
VISUALSTYLE
  5
11ECD
102
{ACAD_REACTORS
330
11EC4
102
}
330
11EC4
100
AcDbVisualStyle
  2
Conceptual
 70
     9
177
     3
291
     0
 70
    58
 90
        3
176
     1
 90
        2
176
     1
 90
        0
176
     1
 90
        0
176
     1
 40
0.6
176
     1
 40
30.0
176
     1
 62
     7
176
     1
 90
        2
176
     1
 90
        2
176
     1
 62
     7
176
     1
 62
   257
176
     1
 90
        1
176
     1
 90
        1
176
     1
 40
40.0
176
     1
 90
        8
176
     1
 62
     7
176
     1
 40
1.0
176
     1
 90
        1
176
     1
 90
        6
176
     1
 90
        2
176
     1
 62
     7
176
     1
 90
        3
176
     1
 90
        0
176
     1
 90
        0
176
     1
290
     0
176
     1
 90
        1
176
     1
 40
0.0
176
     1
 90
        0
176
     1
290
     0
176
     1
290
     1
176
     1
290
     1
176
     1
290
     0
176
     1
290
     0
176
     1
290
     0
176
     1
290
     0
176
     1
290
     0
176
     1
290
     0
176
     1
 90
       50
176
     1
 40
0.0
176
     1
 40
1.0
176
     1
 90
        0
176
     1
 62
    18
420
        0
176
     1
 90
       50
176
     1
 90
        3
176
     1
 62
     5
420
      255
176
     1
290
     0
176
     1
 90
       50
176
     1
 90
       50
176
     1
 90
       50
176
     1
290
     0
176
     1
 90
       50
176
     1
 62
   256
176
     0
 40
1.0
176
     0
 90
        2
176
     1
  1
strokes_ogs.tif
176
     1
290
     0
176
     1
 40
1.0
176
     1
 40
1.0
176
     1
1001
ACAD
1000
AcRTDxfName
1000
VISUALSTYLE
1000
AcRTDxfName
1000
VISUALSTYLE
1000
AcRTDxfName
1000
VISUALSTYLE
1000
AcRTDxfName
1000
VISUALSTYLE
1000
AcRTDxfName
1000
VISUALSTYLE
1000
AcRTDxfName
1000
VISUALSTYLE
1000
AcDbSavedByObjectVersion
1070
     0
  0
VISUALSTYLE
  5
11ECF
102
{ACAD_REACTORS
330
11EC4
102
}
330
11EC4
100
AcDbVisualStyle
  2
Dim
 70
    11
177
     3
291
     1
 70
    58
 90
        2
176
     1
 90
        2
176
     1
 90
        0
176
     1
 90
        0
176
     1
 40
0.6
176
     1
 40
30.0
176
     1
 62
     7
176
     1
 90
        1
176
     1
 90
        4
176
     1
 62
     7
176
     1
 62
   257
176
     1
 90
        1
176
     1
 90
        1
176
     1
 40
1.0
176
     1
 90
        8
176
     1
 62
     7
176
     1
 40
1.0
176
     1
 90
        1
176
     1
 90
        6
176
     1
 90
        2
176
     1
 62
     7
176
     1
 90
        5
176
     1
 90
        0
176
     1
 90
        0
176
     1
290
     0
176
     1
 90
        1
176
     1
 40
-50.0
176
     1
 90
        0
176
     1
290
     0
176
     1
290
     1
176
     1
290
     1
176
     1
290
     0
176
     1
290
     0
176
     1
290
     0
176
     1
290
     0
176
     1
290
     0
176
     1
290
     0
176
     1
 90
       50
176
     1
 40
0.0
176
     1
 40
1.0
176
     1
 90
        0
176
     1
 62
    18
420
        0
176
     1
 90
       50
176
     1
 90
        3
176
     1
 62
     5
420
      255
176
     1
290
     0
176
     1
 90
       50
176
     1
 90
       50
176
     1
 90
       50
176
     1
290
     0
176
     1
 90
       50
176
     1
 62
   256
176
     0
 40
1.0
176
     0
 90
        2
176
     1
  1
strokes_ogs.tif
176
     1
290
     0
176
     1
 40
1.0
176
     1
 40
1.0
176
     1
1001
ACAD
1000
AcRTDxfName
1000
VISUALSTYLE
1000
AcRTDxfName
1000
VISUALSTYLE
1000
AcRTDxfName
1000
VISUALSTYLE
1000
AcRTDxfName
1000
VISUALSTYLE
1000
AcRTDxfName
1000
VISUALSTYLE
1000
AcRTDxfName
1000
VISUALSTYLE
1000
AcDbSavedByObjectVersion
1070
     0
  0
VISUALSTYLE
  5
13BDE
102
{ACAD_REACTORS
330
11EC4
102
}
330
11EC4
100
AcDbVisualStyle
  2
EdgeColorOff
 70
    22
177
     3
291
     1
 70
    58
 90
        2
176
     0
 90
        2
176
     0
 90
        0
176
     0
 90
        0
176
     0
 40
0.6
176
     0
 40
30.0
176
     0
 62
     7
420
 16777215
176
     0
 90
        1
176
     0
 90
        4
176
     0
 62
     7
176
     0
 62
   257
176
     0
 90
        1
176
     0
 90
        1
176
     0
 40
1.0
176
     0
 90
        8
176
     2
 62
     7
176
     0
 40
1.0
176
     0
 90
        1
176
     0
 90
        6
176
     0
 90
        2
176
     0
 62
     7
176
     0
 90
        5
176
     0
 90
        0
176
     0
 90
        0
176
     0
290
     0
176
     0
 90
        1
176
     0
 40
0.0
176
     0
 90
        0
176
     0
290
     0
176
     0
290
     1
176
     0
290
     1
176
     0
290
     0
176
     0
290
     0
176
     0
290
     0
176
     0
290
     0
176
     0
290
     0
176
     0
290
     0
176
     0
 90
       50
176
     0
 40
0.0
176
     0
 40
1.0
176
     0
 90
        0
176
     0
 62
    18
420
        0
176
     0
 90
       50
176
     0
 90
        3
176
     0
 62
     5
420
      255
176
     0
290
     0
176
     0
 90
       50
176
     0
 90
       50
176
     0
 90
       50
176
     0
290
     0
176
     0
 90
       50
176
     0
 62
   256
176
     0
 40
1.0
176
     0
 90
        2
176
     0
  1
strokes_ogs.tif
176
     0
290
     0
176
     0
 40
1.0
176
     0
 40
1.0
176
     0
1001
ACAD
1000
AcDbSavedByObjectVersion
1070
     0
  0
VISUALSTYLE
  5
11ED3
102
{ACAD_REACTORS
330
11EC4
102
}
330
11EC4
100
AcDbVisualStyle
  2
Facepattern
 70
    15
177
     3
291
     1
 70
    58
 90
        2
176
     1
 90
        2
176
     1
 90
        0
176
     1
 90
        0
176
     1
 40
0.6
176
     1
 40
30.0
176
     1
 62
     7
176
     1
 90
        1
176
     1
 90
        4
176
     1
 62
     7
176
     1
 62
   257
176
     1
 90
        1
176
     1
 90
        1
176
     1
 40
1.0
176
     1
 90
        8
176
     1
 62
     7
176
     1
 40
1.0
176
     1
 90
        1
176
     1
 90
        6
176
     1
 90
        2
176
     1
 62
     7
176
     1
 90
        5
176
     1
 90
        0
176
     1
 90
        0
176
     1
290
     0
176
     1
 90
        1
176
     1
 40
0.0
176
     1
 90
        0
176
     1
290
     0
176
     1
290
     1
176
     1
290
     1
176
     1
290
     0
176
     1
290
     0
176
     1
290
     0
176
     1
290
     0
176
     1
290
     0
176
     1
290
     0
176
     1
 90
       50
176
     1
 40
0.0
176
     1
 40
1.0
176
     1
 90
        0
176
     1
 62
    18
420
        0
176
     1
 90
       50
176
     1
 90
        3
176
     1
 62
     5
420
      255
176
     1
290
     0
176
     1
 90
       50
176
     1
 90
       50
176
     1
 90
       50
176
     1
290
     0
176
     1
 90
       50
176
     1
 62
   256
176
     0
 40
1.0
176
     0
 90
        2
176
     1
  1
strokes_ogs.tif
176
     1
290
     0
176
     1
 40
1.0
176
     1
 40
1.0
176
     1
1001
ACAD
1000
AcRTDxfName
1000
VISUALSTYLE
1000
AcRTDxfName
1000
VISUALSTYLE
1000
AcRTDxfName
1000
VISUALSTYLE
1000
AcRTDxfName
1000
VISUALSTYLE
1000
AcRTDxfName
1000
VISUALSTYLE
1000
AcRTDxfName
1000
VISUALSTYLE
1000
AcDbSavedByObjectVersion
1070
     0
  0
VISUALSTYLE
  5
11EC5
102
{ACAD_REACTORS
330
11EC4
102
}
330
11EC4
100
AcDbVisualStyle
  2
Flat
 70
     0
177
     3
291
     1
 70
    58
 90
        2
176
     1
 90
        1
176
     1
 90
        1
176
     1
 90
        2
176
     1
 40
0.6
176
     1
 40
30.0
176
     1
 62
     7
176
     1
 90
        0
176
     1
 90
        4
176
     1
 62
     7
176
     1
 62
   257
176
     1
 90
        1
176
     1
 90
        1
176
     1
 40
1.0
176
     1
 90
        8
176
     1
 62
     7
176
     1
 40
1.0
176
     1
 90
        1
176
     1
 90
        6
176
     1
 90
        2
176
     1
 62
     7
176
     1
 90
        5
176
     1
 90
        0
176
     1
 90
        0
176
     1
290
     0
176
     1
 90
       13
176
     1
 40
0.0
176
     1
 90
        0
176
     1
290
     0
176
     1
290
     1
176
     1
290
     1
176
     1
290
     0
176
     1
290
     0
176
     1
290
     0
176
     1
290
     0
176
     1
290
     0
176
     1
290
     0
176
     1
 90
       50
176
     1
 40
0.0
176
     1
 40
1.0
176
     1
 90
        0
176
     1
 62
    18
420
        0
176
     1
 90
       50
176
     1
 90
        3
176
     1
 62
     5
420
      255
176
     1
290
     0
176
     1
 90
       50
176
     1
 90
       50
176
     1
 90
       50
176
     1
290
     0
176
     1
 90
       50
176
     1
 62
   256
176
     0
 40
1.0
176
     0
 90
        2
176
     1
  1
strokes_ogs.tif
176
     1
290
     0
176
     1
 40
1.0
176
     1
 40
1.0
176
     1
1001
ACAD
1000
AcRTDxfName
1000
VISUALSTYLE
1000
AcRTDxfName
1000
VISUALSTYLE
1000
AcRTDxfName
1000
VISUALSTYLE
1000
AcRTDxfName
1000
VISUALSTYLE
1000
AcRTDxfName
1000
VISUALSTYLE
1000
AcRTDxfName
1000
VISUALSTYLE
1000
AcDbSavedByObjectVersion
1070
     0
  0
VISUALSTYLE
  5
11EC6
102
{ACAD_REACTORS
330
11EC4
102
}
330
11EC4
100
AcDbVisualStyle
  2
FlatWithEdges
 70
     1
177
     3
291
     1
 70
    58
 90
        2
176
     1
 90
        1
176
     1
 90
        1
176
     1
 90
        2
176
     1
 40
0.6
176
     1
 40
30.0
176
     1
 62
     7
176
     1
 90
        1
176
     1
 90
        4
176
     1
 62
     7
176
     1
 62
   257
176
     1
 90
        1
176
     1
 90
        1
176
     1
 40
1.0
176
     1
 90
        0
176
     1
 62
   257
176
     1
 40
1.0
176
     1
 90
        1
176
     1
 90
        6
176
     1
 90
        2
176
     1
 62
     7
176
     1
 90
        5
176
     1
 90
        0
176
     1
 90
        0
176
     1
290
     0
176
     1
 90
       13
176
     1
 40
0.0
176
     1
 90
        0
176
     1
290
     0
176
     1
290
     1
176
     1
290
     1
176
     1
290
     0
176
     1
290
     0
176
     1
290
     0
176
     1
290
     0
176
     1
290
     0
176
     1
290
     0
176
     1
 90
       50
176
     1
 40
0.0
176
     1
 40
1.0
176
     1
 90
        0
176
     1
 62
    18
420
        0
176
     1
 90
       50
176
     1
 90
        3
176
     1
 62
     5
420
      255
176
     1
290
     0
176
     1
 90
       50
176
     1
 90
       50
176
     1
 90
       50
176
     1
290
     0
176
     1
 90
       50
176
     1
 62
   256
176
     0
 40
1.0
176
     0
 90
        2
176
     1
  1
strokes_ogs.tif
176
     1
290
     0
176
     1
 40
1.0
176
     1
 40
1.0
176
     1
1001
ACAD
1000
AcRTDxfName
1000
VISUALSTYLE
1000
AcRTDxfName
1000
VISUALSTYLE
1000
AcRTDxfName
1000
VISUALSTYLE
1000
AcRTDxfName
1000
VISUALSTYLE
1000
AcRTDxfName
1000
VISUALSTYLE
1000
AcRTDxfName
1000
VISUALSTYLE
1000
AcDbSavedByObjectVersion
1070
     0
  0
VISUALSTYLE
  5
11EC7
102
{ACAD_REACTORS
330
11EC4
102
}
330
11EC4
100
AcDbVisualStyle
  2
Gouraud
 70
     2
177
     3
291
     1
 70
    58
 90
        2
176
     1
 90
        2
176
     1
 90
        1
176
     1
 90
        2
176
     1
 40
0.6
176
     1
 40
30.0
176
     1
 62
     7
176
     1
 90
        0
176
     1
 90
        4
176
     1
 62
     7
176
     1
 62
   257
176
     1
 90
        1
176
     1
 90
        1
176
     1
 40
1.0
176
     1
 90
        0
176
     1
 62
     7
176
     1
 40
1.0
176
     1
 90
        1
176
     1
 90
        6
176
     1
 90
        2
176
     1
 62
     7
176
     1
 90
        5
176
     1
 90
        0
176
     1
 90
        0
176
     1
290
     0
176
     1
 90
       13
176
     1
 40
0.0
176
     1
 90
        0
176
     1
290
     0
176
     1
290
     1
176
     1
290
     1
176
     1
290
     0
176
     1
290
     0
176
     1
290
     0
176
     1
290
     0
176
     1
290
     0
176
     1
290
     0
176
     1
 90
       50
176
     1
 40
0.0
176
     1
 40
1.0
176
     1
 90
        0
176
     1
 62
    18
420
        0
176
     1
 90
       50
176
     1
 90
        3
176
     1
 62
     5
420
      255
176
     1
290
     0
176
     1
 90
       50
176
     1
 90
       50
176
     1
 90
       50
176
     1
290
     0
176
     1
 90
       50
176
     1
 62
   256
176
     0
 40
1.0
176
     0
 90
        2
176
     1
  1
strokes_ogs.tif
176
     1
290
     0
176
     1
 40
1.0
176
     1
 40
1.0
176
     1
1001
ACAD
1000
AcRTDxfName
1000
VISUALSTYLE
1000
AcRTDxfName
1000
VISUALSTYLE
1000
AcRTDxfName
1000
VISUALSTYLE
1000
AcRTDxfName
1000
VISUALSTYLE
1000
AcRTDxfName
1000
VISUALSTYLE
1000
AcRTDxfName
1000
VISUALSTYLE
1000
AcDbSavedByObjectVersion
1070
     0
  0
VISUALSTYLE
  5
11EC8
102
{ACAD_REACTORS
330
11EC4
102
}
330
11EC4
100
AcDbVisualStyle
  2
GouraudWithEdges
 70
     3
177
     3
291
     1
 70
    58
 90
        2
176
     1
 90
        2
176
     1
 90
        1
176
     1
 90
        2
176
     1
 40
0.6
176
     1
 40
30.0
176
     1
 62
     7
176
     1
 90
        1
176
     1
 90
        4
176
     1
 62
     7
176
     1
 62
   257
176
     1
 90
        1
176
     1
 90
        1
176
     1
 40
1.0
176
     1
 90
        0
176
     1
 62
   257
176
     1
 40
1.0
176
     1
 90
        1
176
     1
 90
        6
176
     1
 90
        2
176
     1
 62
     7
176
     1
 90
        5
176
     1
 90
        0
176
     1
 90
        0
176
     1
290
     0
176
     1
 90
       13
176
     1
 40
0.0
176
     1
 90
        0
176
     1
290
     0
176
     1
290
     1
176
     1
290
     1
176
     1
290
     0
176
     1
290
     0
176
     1
290
     0
176
     1
290
     0
176
     1
290
     0
176
     1
290
     0
176
     1
 90
       50
176
     1
 40
0.0
176
     1
 40
1.0
176
     1
 90
        0
176
     1
 62
    18
420
        0
176
     1
 90
       50
176
     1
 90
        3
176
     1
 62
     5
420
      255
176
     1
290
     0
176
     1
 90
       50
176
     1
 90
       50
176
     1
 90
       50
176
     1
290
     0
176
     1
 90
       50
176
     1
 62
   256
176
     0
 40
1.0
176
     0
 90
        2
176
     1
  1
strokes_ogs.tif
176
     1
290
     0
176
     1
 40
1.0
176
     1
 40
1.0
176
     1
1001
ACAD
1000
AcRTDxfName
1000
VISUALSTYLE
1000
AcRTDxfName
1000
VISUALSTYLE
1000
AcRTDxfName
1000
VISUALSTYLE
1000
AcRTDxfName
1000
VISUALSTYLE
1000
AcRTDxfName
1000
VISUALSTYLE
1000
AcRTDxfName
1000
VISUALSTYLE
1000
AcDbSavedByObjectVersion
1070
     0
  0
VISUALSTYLE
  5
13BD6
102
{ACAD_REACTORS
330
11EC4
102
}
330
11EC4
100
AcDbVisualStyle
  2
Hidden
 70
     6
177
     3
291
     0
 70
    58
 90
        1
176
     1
 90
        2
176
     1
 90
        2
176
     1
 90
        0
176
     1
 40
0.6
176
     1
 40
30.0
176
     1
 62
     7
420
 16777215
176
     1
 90
        2
176
     1
 90
        2
176
     1
 62
     7
176
     1
 62
   257
176
     1
 90
        2
176
     1
 90
        1
176
     1
 40
40.0
176
     1
 90
        0
176
     1
 62
   257
176
     1
 40
1.0
176
     1
 90
        1
176
     1
 90
        6
176
     1
 90
        2
176
     1
 62
     7
176
     1
 90
        3
176
     1
 90
        0
176
     1
 90
        0
176
     1
290
     0
176
     1
 90
        1
176
     1
 40
0.0
176
     1
 90
        0
176
     1
290
     0
176
     1
290
     1
176
     1
290
     1
176
     1
290
     0
176
     1
290
     0
176
     1
290
     0
176
     1
290
     0
176
     1
290
     0
176
     1
290
     0
176
     1
 90
       50
176
     1
 40
0.0
176
     1
 40
1.0
176
     1
 90
        0
176
     1
 62
    18
420
        0
176
     1
 90
       50
176
     1
 90
        3
176
     1
 62
     5
420
      255
176
     1
290
     0
176
     1
 90
       50
176
     1
 90
       50
176
     1
 90
       50
176
     1
290
     0
176
     1
 90
       50
176
     1
 62
   256
176
     0
 40
1.0
176
     0
 90
        2
176
     1
  1
strokes_ogs.tif
176
     1
290
     0
176
     1
 40
1.0
176
     1
 40
1.0
176
     1
1001
ACAD
1000
AcDbSavedByObjectVersion
1070
     0
  0
VISUALSTYLE
  5
13BDC
102
{ACAD_REACTORS
330
11EC4
102
}
330
11EC4
100
AcDbVisualStyle
  2
JitterOff
 70
    20
177
     3
291
     1
 70
    58
 90
        2
176
     0
 90
        2
176
     0
 90
        0
176
     0
 90
        0
176
     0
 40
0.6
176
     0
 40
30.0
176
     0
 62
     7
420
 16777215
176
     0
 90
        1
176
     0
 90
        4
176
     0
 62
     7
176
     0
 62
   257
176
     0
 90
        1
176
     0
 90
        1
176
     0
 40
1.0
176
     0
 90
       10
176
     2
 62
     7
176
     0
 40
1.0
176
     0
 90
        1
176
     0
 90
        6
176
     0
 90
        2
176
     0
 62
     7
176
     0
 90
        5
176
     0
 90
        0
176
     0
 90
        0
176
     0
290
     0
176
     0
 90
        1
176
     0
 40
0.0
176
     0
 90
        0
176
     0
290
     0
176
     0
290
     1
176
     0
290
     1
176
     0
290
     0
176
     0
290
     0
176
     0
290
     0
176
     0
290
     0
176
     0
290
     0
176
     0
290
     0
176
     0
 90
       50
176
     0
 40
0.0
176
     0
 40
1.0
176
     0
 90
        0
176
     0
 62
    18
420
        0
176
     0
 90
       50
176
     0
 90
        3
176
     0
 62
     5
420
      255
176
     0
290
     0
176
     0
 90
       50
176
     0
 90
       50
176
     0
 90
       50
176
     0
290
     0
176
     0
 90
       50
176
     0
 62
   256
176
     0
 40
1.0
176
     0
 90
        2
176
     0
  1
strokes_ogs.tif
176
     0
290
     0
176
     0
 40
1.0
176
     0
 40
1.0
176
     0
1001
ACAD
1000
AcDbSavedByObjectVersion
1070
     0
  0
VISUALSTYLE
  5
11ED2
102
{ACAD_REACTORS
330
11EC4
102
}
330
11EC4
100
AcDbVisualStyle
  2
Linepattern
 70
    14
177
     3
291
     1
 70
    58
 90
        2
176
     1
 90
        2
176
     1
 90
        0
176
     1
 90
        0
176
     1
 40
0.6
176
     1
 40
30.0
176
     1
 62
     7
176
     1
 90
        1
176
     1
 90
        4
176
     1
 62
     7
176
     1
 62
   257
176
     1
 90
        7
176
     1
 90
        7
176
     1
 40
1.0
176
     1
 90
        8
176
     1
 62
     7
176
     1
 40
1.0
176
     1
 90
        1
176
     1
 90
        6
176
     1
 90
        2
176
     1
 62
     7
176
     1
 90
        5
176
     1
 90
        0
176
     1
 90
        0
176
     1
290
     0
176
     1
 90
        1
176
     1
 40
0.0
176
     1
 90
        0
176
     1
290
     0
176
     1
290
     1
176
     1
290
     1
176
     1
290
     0
176
     1
290
     0
176
     1
290
     0
176
     1
290
     0
176
     1
290
     0
176
     1
290
     0
176
     1
 90
       50
176
     1
 40
0.0
176
     1
 40
1.0
176
     1
 90
        0
176
     1
 62
    18
420
        0
176
     1
 90
       50
176
     1
 90
        3
176
     1
 62
     5
420
      255
176
     1
290
     0
176
     1
 90
       50
176
     1
 90
       50
176
     1
 90
       50
176
     1
290
     0
176
     1
 90
       50
176
     1
 62
   256
176
     0
 40
1.0
176
     0
 90
        2
176
     1
  1
strokes_ogs.tif
176
     1
290
     0
176
     1
 40
1.0
176
     1
 40
1.0
176
     1
1001
ACAD
1000
AcRTDxfName
1000
VISUALSTYLE
1000
AcRTDxfName
1000
VISUALSTYLE
1000
AcRTDxfName
1000
VISUALSTYLE
1000
AcRTDxfName
1000
VISUALSTYLE
1000
AcRTDxfName
1000
VISUALSTYLE
1000
AcRTDxfName
1000
VISUALSTYLE
1000
AcDbSavedByObjectVersion
1070
     0
  0
VISUALSTYLE
  5
13BDD
102
{ACAD_REACTORS
330
11EC4
102
}
330
11EC4
100
AcDbVisualStyle
  2
OverhangOff
 70
    21
177
     3
291
     1
 70
    58
 90
        2
176
     0
 90
        2
176
     0
 90
        0
176
     0
 90
        0
176
     0
 40
0.6
176
     0
 40
30.0
176
     0
 62
     7
420
 16777215
176
     0
 90
        1
176
     0
 90
        4
176
     0
 62
     7
176
     0
 62
   257
176
     0
 90
        1
176
     0
 90
        1
176
     0
 40
1.0
176
     0
 90
        9
176
     2
 62
     7
176
     0
 40
1.0
176
     0
 90
        1
176
     0
 90
        6
176
     0
 90
        2
176
     0
 62
     7
176
     0
 90
        5
176
     0
 90
        0
176
     0
 90
        0
176
     0
290
     0
176
     0
 90
        1
176
     0
 40
0.0
176
     0
 90
        0
176
     0
290
     0
176
     0
290
     1
176
     0
290
     1
176
     0
290
     0
176
     0
290
     0
176
     0
290
     0
176
     0
290
     0
176
     0
290
     0
176
     0
290
     0
176
     0
 90
       50
176
     0
 40
0.0
176
     0
 40
1.0
176
     0
 90
        0
176
     0
 62
    18
420
        0
176
     0
 90
       50
176
     0
 90
        3
176
     0
 62
     5
420
      255
176
     0
290
     0
176
     0
 90
       50
176
     0
 90
       50
176
     0
 90
       50
176
     0
290
     0
176
     0
 90
       50
176
     0
 62
   256
176
     0
 40
1.0
176
     0
 90
        2
176
     0
  1
strokes_ogs.tif
176
     0
290
     0
176
     0
 40
1.0
176
     0
 40
1.0
176
     0
1001
ACAD
1000
AcDbSavedByObjectVersion
1070
     0
  0
VISUALSTYLE
  5
11ECE
102
{ACAD_REACTORS
330
11EC4
102
}
330
11EC4
100
AcDbVisualStyle
  2
Realistic
 70
     8
177
     3
291
     0
 70
    58
 90
        2
176
     1
 90
        2
176
     1
 90
        0
176
     1
 90
        0
176
     1
 40
0.6
176
     1
 40
30.0
176
     1
 62
     7
176
     1
 90
        1
176
     1
 90
        0
176
     1
 62
     7
176
     1
 62
   257
176
     1
 90
        1
176
     1
 90
        1
176
     1
 40
1.0
176
     1
 90
        8
176
     1
 62
     8
176
     1
 40
1.0
176
     1
 90
        1
176
     1
 90
        6
176
     1
 90
        2
176
     1
 62
     7
176
     1
 90
        5
176
     1
 90
        0
176
     1
 90
        0
176
     1
290
     0
176
     1
 90
       13
176
     1
 40
0.0
176
     1
 90
        0
176
     1
290
     0
176
     1
290
     1
176
     1
290
     1
176
     1
290
     0
176
     1
290
     0
176
     1
290
     0
176
     1
290
     0
176
     1
290
     0
176
     1
290
     0
176
     1
 90
       50
176
     1
 40
0.0
176
     1
 40
1.0
176
     1
 90
        0
176
     1
 62
    18
420
        0
176
     1
 90
       50
176
     1
 90
        3
176
     1
 62
     5
420
      255
176
     1
290
     0
176
     1
 90
       50
176
     1
 90
       50
176
     1
 90
       50
176
     1
290
     0
176
     1
 90
       50
176
     1
 62
   256
176
     0
 40
1.0
176
     0
 90
        2
176
     1
  1
strokes_ogs.tif
176
     1
290
     0
176
     1
 40
1.0
176
     1
 40
1.0
176
     1
1001
ACAD
1000
AcRTDxfName
1000
VISUALSTYLE
1000
AcRTDxfName
1000
VISUALSTYLE
1000
AcRTDxfName
1000
VISUALSTYLE
1000
AcRTDxfName
1000
VISUALSTYLE
1000
AcRTDxfName
1000
VISUALSTYLE
1000
AcRTDxfName
1000
VISUALSTYLE
1000
AcDbSavedByObjectVersion
1070
     0
  0
VISUALSTYLE
  5
13BDB
102
{ACAD_REACTORS
330
11EC4
102
}
330
11EC4
100
AcDbVisualStyle
  2
Shaded
 70
    27
177
     3
291
     0
 70
    58
 90
        2
176
     1
 90
        2
176
     1
 90
        1
176
     1
 90
        2
176
     1
 40
0.6
176
     1
 40
30.0
176
     1
 62
     7
420
 16777215
176
     1
 90
        0
176
     1
 90
        4
176
     1
 62
     7
176
     1
 62
   257
176
     1
 90
        1
176
     1
 90
        1
176
     1
 40
1.0
176
     1
 90
        8
176
     1
 62
   257
176
     1
 40
1.0
176
     1
 90
        1
176
     1
 90
        6
176
     1
 90
        2
176
     1
 62
     8
420
  7895160
176
     1
 90
        3
176
     1
 90
        0
176
     1
 90
        0
176
     1
290
     0
176
     1
 90
        5
176
     1
 40
0.0
176
     1
 90
        0
176
     1
290
     0
176
     1
290
     1
176
     1
290
     1
176
     1
290
     0
176
     1
290
     0
176
     1
290
     0
176
     1
290
     0
176
     1
290
     0
176
     1
290
     0
176
     1
 90
       50
176
     1
 40
0.0
176
     1
 40
1.0
176
     1
 90
        0
176
     1
 62
    18
420
        0
176
     1
 90
       50
176
     1
 90
        3
176
     1
 62
     5
420
      255
176
     1
290
     0
176
     1
 90
       50
176
     1
 90
       50
176
     1
 90
       50
176
     1
290
     0
176
     1
 90
       50
176
     1
 62
   256
176
     0
 40
1.0
176
     0
 90
        2
176
     1
  1
strokes_ogs.tif
176
     1
290
     0
176
     1
 40
1.0
176
     1
 40
1.0
176
     1
1001
ACAD
1000
AcDbSavedByObjectVersion
1070
     0
  0
VISUALSTYLE
  5
13BDA
102
{ACAD_REACTORS
330
11EC4
102
}
330
11EC4
100
AcDbVisualStyle
  2
Shaded with edges
 70
    26
177
     3
291
     0
 70
    58
 90
        2
176
     1
 90
        2
176
     1
 90
        1
176
     1
 90
        2
176
     1
 40
0.6
176
     1
 40
30.0
176
     1
 62
     7
420
 16777215
176
     1
 90
        1
176
     1
 90
        2
176
     1
 62
     7
176
     1
 62
   257
176
     1
 90
        2
176
     1
 90
        1
176
     1
 40
1.0
176
     1
 90
        8
176
     1
 62
   257
176
     1
 40
1.0
176
     1
 90
        1
176
     1
 90
        6
176
     1
 90
        2
176
     1
 62
     7
176
     1
 90
        3
176
     1
 90
        0
176
     1
 90
        0
176
     1
290
     0
176
     1
 90
        5
176
     1
 40
0.0
176
     1
 90
        0
176
     1
290
     0
176
     1
290
     1
176
     1
290
     1
176
     1
290
     0
176
     1
290
     0
176
     1
290
     0
176
     1
290
     0
176
     1
290
     0
176
     1
290
     0
176
     1
 90
       50
176
     1
 40
0.0
176
     1
 40
1.0
176
     1
 90
        0
176
     1
 62
    18
420
        0
176
     1
 90
       50
176
     1
 90
        3
176
     1
 62
     5
420
      255
176
     1
290
     0
176
     1
 90
       50
176
     1
 90
       50
176
     1
 90
       50
176
     1
290
     0
176
     1
 90
       50
176
     1
 62
   256
176
     0
 40
1.0
176
     0
 90
        2
176
     1
  1
strokes_ogs.tif
176
     1
290
     0
176
     1
 40
1.0
176
     1
 40
1.0
176
     1
1001
ACAD
1000
AcDbSavedByObjectVersion
1070
     0
  0
VISUALSTYLE
  5
13BD7
102
{ACAD_REACTORS
330
11EC4
102
}
330
11EC4
100
AcDbVisualStyle
  2
Shades of Gray
 70
    23
177
     3
291
     0
 70
    58
 90
        2
176
     1
 90
        2
176
     1
 90
        3
176
     1
 90
        0
176
     1
 40
0.6
176
     1
 40
30.0
176
     1
 62
     7
420
 16777215
176
     1
 90
        2
176
     1
 90
        2
176
     1
 62
     7
176
     1
 62
     7
176
     1
 90
        1
176
     1
 90
        1
176
     1
 40
40.0
176
     1
 90
        8
176
     1
 62
     7
176
     1
 40
1.0
176
     1
 90
        1
176
     1
 90
        6
176
     1
 90
        2
176
     1
 62
     7
176
     1
 90
        3
176
     1
 90
        0
176
     1
 90
        0
176
     1
290
     0
176
     1
 90
        1
176
     1
 40
0.0
176
     1
 90
        0
176
     1
290
     0
176
     1
290
     1
176
     1
290
     1
176
     1
290
     0
176
     1
290
     0
176
     1
290
     0
176
     1
290
     0
176
     1
290
     0
176
     1
290
     0
176
     1
 90
       50
176
     1
 40
0.0
176
     1
 40
1.0
176
     1
 90
        0
176
     1
 62
    18
420
        0
176
     1
 90
       50
176
     1
 90
        3
176
     1
 62
     5
420
      255
176
     1
290
     0
176
     1
 90
       50
176
     1
 90
       50
176
     1
 90
       50
176
     1
290
     0
176
     1
 90
       50
176
     1
 62
   256
176
     0
 40
1.0
176
     0
 90
        2
176
     1
  1
strokes_ogs.tif
176
     1
290
     0
176
     1
 40
1.0
176
     1
 40
1.0
176
     1
1001
ACAD
1000
AcDbSavedByObjectVersion
1070
     0
  0
VISUALSTYLE
  5
13BD8
102
{ACAD_REACTORS
330
11EC4
102
}
330
11EC4
100
AcDbVisualStyle
  2
Sketchy
 70
    24
177
     3
291
     0
 70
    58
 90
        1
176
     1
 90
        2
176
     1
 90
        2
176
     1
 90
        0
176
     1
 40
0.6
176
     1
 40
30.0
176
     1
 62
     7
420
 16777215
176
     1
 90
        2
176
     1
 90
        2
176
     1
 62
     7
176
     1
 62
     7
176
     1
 90
        1
176
     1
 90
        1
176
     1
 40
40.0
176
     1
 90
       11
176
     1
 62
     7
176
     1
 40
1.0
176
     1
 90
        1
176
     1
 90
        6
176
     1
 90
        2
176
     1
 62
     7
176
     1
 90
        6
176
     1
 90
        0
176
     1
 90
        0
176
     1
290
     0
176
     1
 90
        1
176
     1
 40
0.0
176
     1
 90
        0
176
     1
290
     0
176
     1
290
     1
176
     1
290
     1
176
     1
290
     0
176
     1
290
     0
176
     1
290
     0
176
     1
290
     0
176
     1
290
     0
176
     1
290
     0
176
     1
 90
       50
176
     1
 40
0.0
176
     1
 40
1.0
176
     1
 90
        0
176
     1
 62
    18
420
        0
176
     1
 90
       50
176
     1
 90
        3
176
     1
 62
     5
420
      255
176
     1
290
     0
176
     1
 90
       50
176
     1
 90
       50
176
     1
 90
       50
176
     1
290
     0
176
     1
 90
       50
176
     1
 62
   256
176
     0
 40
1.0
176
     0
 90
        2
176
     1
  1
strokes_ogs.tif
176
     1
290
     0
176
     1
 40
1.0
176
     1
 40
1.0
176
     1
1001
ACAD
1000
AcDbSavedByObjectVersion
1070
     0
  0
VISUALSTYLE
  5
11ED1
102
{ACAD_REACTORS
330
11EC4
102
}
330
11EC4
100
AcDbVisualStyle
  2
Thicken
 70
    13
177
     3
291
     1
 70
    58
 90
        2
176
     1
 90
        2
176
     1
 90
        0
176
     1
 90
        0
176
     1
 40
0.6
176
     1
 40
30.0
176
     1
 62
     7
176
     1
 90
        1
176
     1
 90
        4
176
     1
 62
     7
176
     1
 62
   257
176
     1
 90
        1
176
     1
 90
        1
176
     1
 40
1.0
176
     1
 90
       12
176
     1
 62
     7
176
     1
 40
1.0
176
     1
 90
        1
176
     1
 90
        6
176
     1
 90
        2
176
     1
 62
     7
176
     1
 90
        5
176
     1
 90
        0
176
     1
 90
        0
176
     1
290
     0
176
     1
 90
        1
176
     1
 40
0.0
176
     1
 90
        0
176
     1
290
     0
176
     1
290
     1
176
     1
290
     1
176
     1
290
     0
176
     1
290
     0
176
     1
290
     0
176
     1
290
     0
176
     1
290
     0
176
     1
290
     0
176
     1
 90
       50
176
     1
 40
0.0
176
     1
 40
1.0
176
     1
 90
        0
176
     1
 62
    18
420
        0
176
     1
 90
       50
176
     1
 90
        3
176
     1
 62
     5
420
      255
176
     1
290
     0
176
     1
 90
       50
176
     1
 90
       50
176
     1
 90
       50
176
     1
290
     0
176
     1
 90
       50
176
     1
 62
   256
176
     0
 40
1.0
176
     0
 90
        2
176
     1
  1
strokes_ogs.tif
176
     1
290
     0
176
     1
 40
1.0
176
     1
 40
1.0
176
     1
1001
ACAD
1000
AcRTDxfName
1000
VISUALSTYLE
1000
AcRTDxfName
1000
VISUALSTYLE
1000
AcRTDxfName
1000
VISUALSTYLE
1000
AcRTDxfName
1000
VISUALSTYLE
1000
AcRTDxfName
1000
VISUALSTYLE
1000
AcRTDxfName
1000
VISUALSTYLE
1000
AcDbSavedByObjectVersion
1070
     0
  0
VISUALSTYLE
  5
13BD5
102
{ACAD_REACTORS
330
11EC4
102
}
330
11EC4
100
AcDbVisualStyle
  2
Wireframe
 70
     5
177
     3
291
     0
 70
    58
 90
        0
176
     1
 90
        2
176
     1
 90
        0
176
     1
 90
        0
176
     1
 40
0.6
176
     1
 40
30.0
176
     1
 62
     7
420
 16777215
176
     1
 90
        1
176
     1
 90
        4
176
     1
 62
     7
176
     1
 62
   257
176
     1
 90
        1
176
     1
 90
        1
176
     1
 40
1.0
176
     1
 90
        0
176
     1
 62
   257
176
     1
 40
1.0
176
     1
 90
        1
176
     1
 90
        6
176
     1
 90
        2
176
     1
 62
     7
176
     1
 90
        3
176
     1
 90
        0
176
     1
 90
        0
176
     1
290
     0
176
     1
 90
        1
176
     1
 40
0.0
176
     1
 90
        0
176
     1
290
     0
176
     1
290
     1
176
     1
290
     1
176
     1
290
     0
176
     1
290
     0
176
     1
290
     0
176
     1
290
     0
176
     1
290
     0
176
     1
290
     0
176
     1
 90
       50
176
     1
 40
0.0
176
     1
 40
1.0
176
     1
 90
        0
176
     1
 62
    18
420
        0
176
     1
 90
       50
176
     1
 90
        3
176
     1
 62
     5
420
      255
176
     1
290
     0
176
     1
 90
       50
176
     1
 90
       50
176
     1
 90
       50
176
     1
290
     0
176
     1
 90
       50
176
     1
 62
   256
176
     0
 40
1.0
176
     0
 90
        2
176
     1
  1
strokes_ogs.tif
176
     1
290
     0
176
     1
 40
1.0
176
     1
 40
1.0
176
     1
1001
ACAD
1000
AcDbSavedByObjectVersion
1070
     0
  0
VISUALSTYLE
  5
13BD9
102
{ACAD_REACTORS
330
11EC4
102
}
330
11EC4
100
AcDbVisualStyle
  2
X-Ray
 70
    25
177
     3
291
     0
 70
    58
 90
        2
176
     1
 90
        2
176
     1
 90
        1
176
     1
 90
        1
176
     1
 40
0.5
176
     1
 40
30.0
176
     1
 62
     7
420
 16777215
176
     1
 90
        1
176
     1
 90
        0
176
     1
 62
     7
176
     1
 62
   257
176
     1
 90
        1
176
     1
 90
        1
176
     1
 40
1.0
176
     1
 90
        8
176
     1
 62
     7
176
     1
 40
1.0
176
     1
 90
        1
176
     1
 90
        6
176
     1
 90
        2
176
     1
 62
     7
176
     1
 90
        3
176
     1
 90
        0
176
     1
 90
        0
176
     1
290
     0
176
     1
 90
       13
176
     1
 40
0.0
176
     1
 90
        0
176
     1
290
     0
176
     1
290
     1
176
     1
290
     1
176
     1
290
     0
176
     1
290
     0
176
     1
290
     0
176
     1
290
     0
176
     1
290
     0
176
     1
290
     0
176
     1
 90
       50
176
     1
 40
0.0
176
     1
 40
1.0
176
     1
 90
        0
176
     1
 62
    18
420
        0
176
     1
 90
       50
176
     1
 90
        3
176
     1
 62
     5
420
      255
176
     1
290
     0
176
     1
 90
       50
176
     1
 90
       50
176
     1
 90
       50
176
     1
290
     0
176
     1
 90
       50
176
     1
 62
   256
176
     0
 40
1.0
176
     0
 90
        2
176
     1
  1
strokes_ogs.tif
176
     1
290
     0
176
     1
 40
1.0
176
     1
 40
1.0
176
     1
1001
ACAD
1000
AcDbSavedByObjectVersion
1070
     0
  0
DICTIONARYVAR
  5
12013
102
{ACAD_REACTORS
330
5E
102
}
330
5E
100
DictionaryVariables
280
     0
  1
1:1
  0
DICTIONARYVAR
  5
12012
102
{ACAD_REACTORS
330
5E
102
}
330
5E
100
DictionaryVariables
280
     0
  1
STANDARD
  0
DICTIONARYVAR
  5
84
102
{ACAD_REACTORS
330
5E
102
}
330
5E
100
DictionaryVariables
280
     0
  1
STANDARD
  0
DICTIONARYVAR
  5
1472B
102
{ACAD_REACTORS
330
5E
102
}
330
5E
100
DictionaryVariables
280
     0
  1
Metric50
  0
DICTIONARYVAR
  5
1472C
102
{ACAD_REACTORS
330
5E
102
}
330
5E
100
DictionaryVariables
280
     0
  1
Metric50
  0
DICTIONARYVAR
  5
5F
102
{ACAD_REACTORS
330
5E
102
}
330
5E
100
DictionaryVariables
280
     0
  1
2
  0
DICTIONARYVAR
  5
63
102
{ACAD_REACTORS
330
5E
102
}
330
5E
100
DictionaryVariables
280
     0
  1
1
  0
DICTIONARYVAR
  5
12015
102
{ACAD_REACTORS
330
5E
102
}
330
5E
100
DictionaryVariables
280
     0
  1
0
  0
DICTIONARYVAR
  5
1472F
102
{ACAD_REACTORS
330
5E
102
}
330
5E
100
DictionaryVariables
280
     0
  1
1
  0
DICTIONARYVAR
  5
14730
102
{ACAD_REACTORS
330
5E
102
}
330
5E
100
DictionaryVariables
280
     0
  1
15
  0
DICTIONARYVAR
  5
1472E
102
{ACAD_REACTORS
330
5E
102
}
330
5E
100
DictionaryVariables
280
     0
  1
0
  0
DICTIONARYVAR
  5
1472D
102
{ACAD_REACTORS
330
5E
102
}
330
5E
100
DictionaryVariables
280
     0
  1
0
  0
DICTIONARYVAR
  5
12A7E
102
{ACAD_REACTORS
330
5E
102
}
330
5E
100
DictionaryVariables
280
     0
  1

  0
DICTIONARYVAR
  5
12014
102
{ACAD_REACTORS
330
5E
102
}
330
5E
100
DictionaryVariables
280
     0
  1
127
  0
DICTIONARY
  5
14DB9
102
{ACAD_REACTORS
330
14DB7
102
}
330
14DB7
100
AcDbDictionary
281
     1
  0
DICTIONARY
  5
14DB8
102
{ACAD_REACTORS
330
14DB7
102
}
330
14DB7
100
AcDbDictionary
281
     1
  3
2506187535520
350
14DB2
  3
2506187535536
350
14DB3
  3
2506187535552
350
14DB4
  3
2506187535568
350
14DB5
  3
2506187535584
350
14DB6
  0
DICTIONARY
  5
14DBC
330
13BE2
100
AcDbDictionary
280
     1
281
     1
  3
ACAD_XREC_ROUNDTRIP
360
14DBD
  0
DICTIONARY
  5
79B
330
78E
100
AcDbDictionary
280
     1
281
     1
  0
DICTIONARY
  5
11EB5
330
11EB4
100
AcDbDictionary
280
     1
281
     1
  3
BUMPTILE
360
11EB7
  3
DIFFUSETILE
360
11EB6
  3
OPACITYTILE
360
11EBA
  3
REFLECTIONTILE
360
11EB9
  3
REFRACTIONTILE
360
11EBB
  3
SPECULARTILE
360
11EB8
  0
DICTIONARY
  5
11EAD
330
11EAC
100
AcDbDictionary
280
     1
281
     1
  3
BUMPTILE
360
11EAF
  3
DIFFUSETILE
360
11EAE
  3
OPACITYTILE
360
11EB2
  3
REFLECTIONTILE
360
11EB1
  3
REFRACTIONTILE
360
11EB3
  3
SPECULARTILE
360
11EB0
  0
DICTIONARY
  5
11EBD
330
11EBC
100
AcDbDictionary
280
     1
281
     1
  3
BUMPTILE
360
11EBF
  3
DIFFUSETILE
360
11EBE
  3
OPACITYTILE
360
11EC2
  3
REFLECTIONTILE
360
11EC1
  3
REFRACTIONTILE
360
11EC3
  3
SPECULARTILE
360
11EC0
  0
DICTIONARY
  5
14DBA
330
13BE0
100
AcDbDictionary
280
     1
281
     1
  3
ACAD_XREC_ROUNDTRIP
360
14DBB
  0
DICTIONARY
  5
11FFF
330
7F
100
AcDbDictionary
280
     1
281
     1
  3
ACAD_ROUNDTRIP_2008_TABLESTYLE_CELLSTYLEMAP
360
14DB0
  0
XRECORD
  5
14DB2
102
{ACAD_REACTORS
330
14DB8
102
}
330
14DB8
100
AcDbXrecord
280
     1
  1
AcDb_Thumbnail_Schema
102
{ATTRRECORD
341
14DB3
  2
AcDbDs::TreatedAsObjectData
280
     1
291
     1
102
ATTRRECORD}
102
{ATTRRECORD
341
14DB4
  2
AcDbDs::Legacy
280
     1
291
     1
102
ATTRRECORD}
  2
AcDbDs::ID
280
    10
 91
        8
102
{ATTRRECORD
341
14DB5
  2
AcDs:Indexable
280
     1
291
     1
102
ATTRRECORD}
102
{ATTRRECORD
341
14DB6
  2
AcDbDs::HandleAttribute
280
     7
282
     1
102
ATTRRECORD}
  2
Thumbnail_Data
280
    15
 91
        0
  0
XRECORD
  5
14DB3
102
{ACAD_REACTORS
330
14DB8
102
}
330
14DB8
100
AcDbXrecord
280
     1
  1
AcDbDs::TreatedAsObjectDataSchema
  2
AcDbDs::TreatedAsObjectData
280
     1
 91
        0
  0
XRECORD
  5
14DB4
102
{ACAD_REACTORS
330
14DB8
102
}
330
14DB8
100
AcDbXrecord
280
     1
  1
AcDbDs::LegacySchema
  2
AcDbDs::Legacy
280
     1
 91
        0
  0
XRECORD
  5
14DB5
102
{ACAD_REACTORS
330
14DB8
102
}
330
14DB8
100
AcDbXrecord
280
     1
  1
AcDbDs::IndexedPropertySchema
  2
AcDs:Indexable
280
     1
 91
        0
  0
XRECORD
  5
14DB6
102
{ACAD_REACTORS
330
14DB8
102
}
330
14DB8
100
AcDbXrecord
280
     1
  1
AcDbDs::HandleAttributeSchema
  2
AcDbDs::HandleAttribute
280
     7
 91
        1
284
     1
  0
XRECORD
  5
14DBD
102
{ACAD_REACTORS
330
14DBC
102
}
330
14DBC
100
AcDbXrecord
280
     1
102
DISPLAYNAME
  1
Metric50
102
FLAGS
 90
        0
  0
XRECORD
  5
11EB7
102
{ACAD_REACTORS
330
11EB5
102
}
330
11EB5
100
AcDbXrecord
280
     1
270
     1
271
     1
  0
XRECORD
  5
11EB6
102
{ACAD_REACTORS
330
11EB5
102
}
330
11EB5
100
AcDbXrecord
280
     1
270
     1
271
     1
  0
XRECORD
  5
11EBA
102
{ACAD_REACTORS
330
11EB5
102
}
330
11EB5
100
AcDbXrecord
280
     1
270
     1
271
     1
  0
XRECORD
  5
11EB9
102
{ACAD_REACTORS
330
11EB5
102
}
330
11EB5
100
AcDbXrecord
280
     1
270
     1
271
     1
  0
XRECORD
  5
11EBB
102
{ACAD_REACTORS
330
11EB5
102
}
330
11EB5
100
AcDbXrecord
280
     1
270
     1
271
     1
  0
XRECORD
  5
11EB8
102
{ACAD_REACTORS
330
11EB5
102
}
330
11EB5
100
AcDbXrecord
280
     1
270
     1
271
     1
  0
XRECORD
  5
11EAF
102
{ACAD_REACTORS
330
11EAD
102
}
330
11EAD
100
AcDbXrecord
280
     1
270
     1
271
     1
  0
XRECORD
  5
11EAE
102
{ACAD_REACTORS
330
11EAD
102
}
330
11EAD
100
AcDbXrecord
280
     1
270
     1
271
     1
  0
XRECORD
  5
11EB2
102
{ACAD_REACTORS
330
11EAD
102
}
330
11EAD
100
AcDbXrecord
280
     1
270
     1
271
     1
  0
XRECORD
  5
11EB1
102
{ACAD_REACTORS
330
11EAD
102
}
330
11EAD
100
AcDbXrecord
280
     1
270
     1
271
     1
  0
XRECORD
  5
11EB3
102
{ACAD_REACTORS
330
11EAD
102
}
330
11EAD
100
AcDbXrecord
280
     1
270
     1
271
     1
  0
XRECORD
  5
11EB0
102
{ACAD_REACTORS
330
11EAD
102
}
330
11EAD
100
AcDbXrecord
280
     1
270
     1
271
     1
  0
XRECORD
  5
11EBF
102
{ACAD_REACTORS
330
11EBD
102
}
330
11EBD
100
AcDbXrecord
280
     1
270
     1
271
     1
  0
XRECORD
  5
11EBE
102
{ACAD_REACTORS
330
11EBD
102
}
330
11EBD
100
AcDbXrecord
280
     1
270
     1
271
     1
  0
XRECORD
  5
11EC2
102
{ACAD_REACTORS
330
11EBD
102
}
330
11EBD
100
AcDbXrecord
280
     1
270
     1
271
     1
  0
XRECORD
  5
11EC1
102
{ACAD_REACTORS
330
11EBD
102
}
330
11EBD
100
AcDbXrecord
280
     1
270
     1
271
     1
  0
XRECORD
  5
11EC3
102
{ACAD_REACTORS
330
11EBD
102
}
330
11EBD
100
AcDbXrecord
280
     1
270
     1
271
     1
  0
XRECORD
  5
11EC0
102
{ACAD_REACTORS
330
11EBD
102
}
330
11EBD
100
AcDbXrecord
280
     1
270
     1
271
     1
  0
XRECORD
  5
14DBB
102
{ACAD_REACTORS
330
14DBA
102
}
330
14DBA
100
AcDbXrecord
280
     1
102
DISPLAYNAME
  1
Metric50
102
FLAGS
 90
        0
  0
CELLSTYLEMAP
  5
14DB0
102
{ACAD_REACTORS
330
11FFF
102
}
330
11FFF
100
AcDbCellStyleMap
 90
        3
300
CELLSTYLE
  1
TABLEFORMAT_BEGIN
 90
        5
170
     1
 91
        0
 92
    32768
 62
   257
 93
        1
300
CONTENTFORMAT
  1
CONTENTFORMAT_BEGIN
 90
        0
 91
        0
 92
        4
 93
        0
300

 40
0.0
140
1.0
 94
        5
 62
     0
340
11
144
6.0
309
CONTENTFORMAT_END
171
     1
301
MARGIN
  1
CELLMARGIN_BEGIN
 40
1.5
 40
1.5
 40
1.5
 40
1.5
 40
0.18
 40
0.18
309
CELLMARGIN_END
 94
        6
 95
        1
302
GRIDFORMAT
  1
GRIDFORMAT_BEGIN
 90
        0
 91
        1
 62
     0
 92
       -2
340
0
 93
        0
 40
0.045
309
GRIDFORMAT_END
 95
        2
302
GRIDFORMAT
  1
GRIDFORMAT_BEGIN
 90
        0
 91
        1
 62
     0
 92
       -2
340
0
 93
        0
 40
0.045
309
GRIDFORMAT_END
 95
        4
302
GRIDFORMAT
  1
GRIDFORMAT_BEGIN
 90
        0
 91
        1
 62
     0
 92
       -2
340
0
 93
        0
 40
0.045
309
GRIDFORMAT_END
 95
        8
302
GRIDFORMAT
  1
GRIDFORMAT_BEGIN
 90
        0
 91
        1
 62
     0
 92
       -2
340
0
 93
        0
 40
0.045
309
GRIDFORMAT_END
 95
       16
302
GRIDFORMAT
  1
GRIDFORMAT_BEGIN
 90
        0
 91
        1
 62
     0
 92
       -2
340
0
 93
        0
 40
0.045
309
GRIDFORMAT_END
 95
       32
302
GRIDFORMAT
  1
GRIDFORMAT_BEGIN
 90
        0
 91
        1
 62
     0
 92
       -2
340
0
 93
        0
 40
0.045
309
GRIDFORMAT_END
309
TABLEFORMAT_END
  1
CELLSTYLE_BEGIN
 90
        1
 91
        1
300
_TITLE
309
CELLSTYLE_END
300
CELLSTYLE
  1
TABLEFORMAT_BEGIN
 90
        5
170
     1
 91
        0
 92
        0
 62
   257
 93
        1
300
CONTENTFORMAT
  1
CONTENTFORMAT_BEGIN
 90
        0
 91
        0
 92
        4
 93
        0
300

 40
0.0
140
1.0
 94
        5
 62
     0
340
11
144
4.5
309
CONTENTFORMAT_END
171
     1
301
MARGIN
  1
CELLMARGIN_BEGIN
 40
1.5
 40
1.5
 40
1.5
 40
1.5
 40
0.18
 40
0.18
309
CELLMARGIN_END
 94
        6
 95
        1
302
GRIDFORMAT
  1
GRIDFORMAT_BEGIN
 90
        0
 91
        1
 62
     0
 92
       -2
340
0
 93
        0
 40
0.045
309
GRIDFORMAT_END
 95
        2
302
GRIDFORMAT
  1
GRIDFORMAT_BEGIN
 90
        0
 91
        1
 62
     0
 92
       -2
340
0
 93
        0
 40
0.045
309
GRIDFORMAT_END
 95
        4
302
GRIDFORMAT
  1
GRIDFORMAT_BEGIN
 90
        0
 91
        1
 62
     0
 92
       -2
340
0
 93
        0
 40
0.045
309
GRIDFORMAT_END
 95
        8
302
GRIDFORMAT
  1
GRIDFORMAT_BEGIN
 90
        0
 91
        1
 62
     0
 92
       -2
340
0
 93
        0
 40
0.045
309
GRIDFORMAT_END
 95
       16
302
GRIDFORMAT
  1
GRIDFORMAT_BEGIN
 90
        0
 91
        1
 62
     0
 92
       -2
340
0
 93
        0
 40
0.045
309
GRIDFORMAT_END
 95
       32
302
GRIDFORMAT
  1
GRIDFORMAT_BEGIN
 90
        0
 91
        1
 62
     0
 92
       -2
340
0
 93
        0
 40
0.045
309
GRIDFORMAT_END
309
TABLEFORMAT_END
  1
CELLSTYLE_BEGIN
 90
        2
 91
        1
300
_HEADER
309
CELLSTYLE_END
300
CELLSTYLE
  1
TABLEFORMAT_BEGIN
 90
        5
170
     1
 91
        0
 92
        0
 62
   257
 93
        1
300
CONTENTFORMAT
  1
CONTENTFORMAT_BEGIN
 90
        0
 91
        0
 92
        4
 93
        0
300

 40
0.0
140
1.0
 94
        2
 62
     0
340
11
144
4.5
309
CONTENTFORMAT_END
171
     1
301
MARGIN
  1
CELLMARGIN_BEGIN
 40
1.5
 40
1.5
 40
1.5
 40
1.5
 40
0.18
 40
0.18
309
CELLMARGIN_END
 94
        6
 95
        1
302
GRIDFORMAT
  1
GRIDFORMAT_BEGIN
 90
        0
 91
        1
 62
     0
 92
       -2
340
0
 93
        0
 40
0.045
309
GRIDFORMAT_END
 95
        2
302
GRIDFORMAT
  1
GRIDFORMAT_BEGIN
 90
        0
 91
        1
 62
     0
 92
       -2
340
0
 93
        0
 40
0.045
309
GRIDFORMAT_END
 95
        4
302
GRIDFORMAT
  1
GRIDFORMAT_BEGIN
 90
        0
 91
        1
 62
     0
 92
       -2
340
0
 93
        0
 40
0.045
309
GRIDFORMAT_END
 95
        8
302
GRIDFORMAT
  1
GRIDFORMAT_BEGIN
 90
        0
 91
        1
 62
     0
 92
       -2
340
0
 93
        0
 40
0.045
309
GRIDFORMAT_END
 95
       16
302
GRIDFORMAT
  1
GRIDFORMAT_BEGIN
 90
        0
 91
        1
 62
     0
 92
       -2
340
0
 93
        0
 40
0.045
309
GRIDFORMAT_END
 95
       32
302
GRIDFORMAT
  1
GRIDFORMAT_BEGIN
 90
        0
 91
        1
 62
     0
 92
       -2
340
0
 93
        0
 40
0.045
309
GRIDFORMAT_END
309
TABLEFORMAT_END
  1
CELLSTYLE_BEGIN
 90
        3
 91
        2
300
_DATA
309
CELLSTYLE_END
  0
ENDSEC
  0
SECTION
  2
ACDSDATA
 70
     2
 71
     8
  0
ACDSSCHEMA
 90
        0
  1
AcDb_Thumbnail_Schema
  2
AcDbDs::ID
280
    10
 91
        8
  2
Thumbnail_Data
280
    15
 91
        0
101
ACDSRECORD
 95
        0
 90
        1
  2
AcDbDs::TreatedAsObjectData
280
     1
291
     1
101
ACDSRECORD
 95
        0
 90
        2
  2
AcDbDs::Legacy
280
     1
291
     1
101
ACDSRECORD
  1
AcDbDs::ID
 90
        3
  2
AcDs:Indexable
280
     1
291
     1
101
ACDSRECORD
  1
AcDbDs::ID
 90
        4
  2
AcDbDs::HandleAttribute
280
     7
282
     1
  0
ACDSSCHEMA
 90
        1
  1
AcDbDs::TreatedAsObjectDataSchema
  2
AcDbDs::TreatedAsObjectData
280
     1
 91
        0
  0
ACDSSCHEMA
 90
        2
  1
AcDbDs::LegacySchema
  2
AcDbDs::Legacy
280
     1
 91
        0
  0
ACDSSCHEMA
 90
        3
  1
AcDbDs::IndexedPropertySchema
  2
AcDs:Indexable
280
     1
 91
        0
  0
ACDSSCHEMA
 90
        4
  1
AcDbDs::HandleAttributeSchema
  2
AcDbDs::HandleAttribute
280
     7
 91
        1
284
     1
  0
ACDSRECORD
 90
        0
  2
AcDbDs::ID
280
    10
320
22
  2
Thumbnail_Data
280
    15
 94
     2476
310
89504E470D0A1A0A0000000D4948445200000100000000870803000000CE6E778000000300504C5445000000FFFFFF0000000000000000000000000000000000000000000000000000000000330000660000990000CC0000FF0033000033330033660033990033CC0033FF0066000066330066660066990066CC0066FF0099
310
000099330099660099990099CC0099FF00CC0000CC3300CC6600CC9900CCCC00CCFF00FF0000FF3300FF6600FF9900FFCC00FFFF3300003300333300663300993300CC3300FF3333003333333333663333993333CC3333FF3366003366333366663366993366CC3366FF3399003399333399663399993399CC3399FF33CC00
310
33CC3333CC6633CC9933CCCC33CCFF33FF0033FF3333FF6633FF9933FFCC33FFFF6600006600336600666600996600CC6600FF6633006633336633666633996633CC6633FF6666006666336666666666996666CC6666FF6699006699336699666699996699CC6699FF66CC0066CC3366CC6666CC9966CCCC66CCFF66FF0066
310
FF3366FF6666FF9966FFCC66FFFF9900009900339900669900999900CC9900FF9933009933339933669933999933CC9933FF9966009966339966669966999966CC9966FF9999009999339999669999999999CC9999FF99CC0099CC3399CC6699CC9999CCCC99CCFF99FF0099FF3399FF6699FF9999FFCC99FFFFCC0000CC00
310
33CC0066CC0099CC00CCCC00FFCC3300CC3333CC3366CC3399CC33CCCC33FFCC6600CC6633CC6666CC6699CC66CCCC66FFCC9900CC9933CC9966CC9999CC99CCCC99FFCCCC00CCCC33CCCC66CCCC99CCCCCCCCCCFFCCFF00CCFF33CCFF66CCFF99CCFFCCCCFFFFFF0000FF0033FF0066FF0099FF00CCFF00FFFF3300FF3333
310
FF3366FF3399FF33CCFF33FFFF6600FF6633FF6666FF6699FF66CCFF66FFFF9900FF9933FF9966FF9999FF99CCFF99FFFFCC00FFCC33FFCC66FFCC99FFCCCCFFCCFFFFFF00FFFF33FFFF66FFFF99FFFFCCFFFFFF0000000D0D0D1A1A1A2828283535354343435050505D5D5D6B6B6B787878868686939393A1A1A1AEAEAEBB
310
BBBBC9C9C9D6D6D6E4E4E4F1F1F1FFFFFF0000000000000000000000000000000000000000000000000000000000003AE5ACE9000006674944415478DAED9D5D9EA3200CC07321EEFFC64BAF916BE47D1404C2B73856C0C2EC6FA76B85963F098424B800AB540A4D5DEE0030F5E82D00B7B431AFFCDF0560DAE15F00168051
310
9A4144507F5479198033FDB17D3F4B006702F09532A9046079E8CA1DE36F4E0A40A97A45548A6F2F15985805E22F8F7501403EFAC804685200E0F5B111007F7F2609F03A858D13995FF7EC6C391480FFE9F13767810727C1EBC64CAEEE5C93601F005541793980BAAABC1B00FEBA0ACC0920F6D25E05807208005A073F1F49
310
92481E3FFB1F553E27DC76685EF80DC84FA4DFC785A05AC9F3FD08003DAE39003228145FF9A401E87EC5561589BDA000294CE9AA029816ECE312D555808A0D400CE078BDF55BB0168603A02F9E745D5362D62801907BFFF79197230350DD0F6B867712701DE66A5F02805BCFB7FE4BA031006C8A9CAD5A0790B06C40352A73
310
00F6A9630740FA9EFE93E05D00A008009D04EC3D17424AEA2E01882515689600FE225401443E09929280FE93E0B70170DF8A0700C0AD7EFD014836A7078BBCA0B21DC06E60760E1AFB260220DDEA6F8B7C8B04F8C6EF1C1200DF5181E43238E41C70D73278B8539D6BB5B80C0EB40ADC04801B00E6C5247640C912A4B39620
310
41D87F3519E62D411ACC124C0250D7CEED05B6DEC61341712F00E3EF0508CEEF0631F501E5DDA01865376856815C39E10F2866F8E5FC0162147FC0E111CA3844EA4530568143A4EC11E23EA5FE3EC186B6FEDD92EDAEAC7B475F9924850DEEE15703C8C6E07B02B821B0590D8EF25C84D100DC10DAAD37D11244EE2A01F85D
310
0918720EC0FB34FCA635A73B80B371015B7B3A00876D224410AD3A61F844F60CF226B616FF2F400F9AC222FC746DA49E3085F58D87CADB2644D664429673CB5304C2DF4F6F8684B248C9ED563400AA6D87890340B32D223805A0965FF42480CD7887DD82572F3C97404D255CCF360DD8AB4BDD0ED5570A630DA0978A0E8F03
310
50BE29A5B5FAC7DDDEE2132438AAD3EEED3BBC3DD725009F958063DCA41DC066005113B2240170FC849995E86DA09FF407E8AD3A044EAA460950DE5E1330A773D6626030E1B3AB8071E0EAE1DA1D75D2DBA9B600D0358D9F4BE654204520674074088C04DE19123500E10DA2E63968492B7D2E342632E544682C5B2602A094
310
3F2D016DE171DE8068338492041ECC0F0866B0EB93A09D47DB97C1AE6E716E067D7D19349F8BDC33D44705B82164ED987F1A4242BF28AC02436D87599EA03003787119F4C7FF8E93FF8F4686D44448810FA0E5090768AB8BD266685800D60292D7B7C3A6FA6E4E4D02C01A42617CCAD801A2AC022EBCE54DE3622200C96855
310
43688CAD63B73FFDA3FFE1E933E9F2BE30DDEA1F1D1040E116841F07000BC02B00F887C731B37BCAF4135F777C1E538B4611C03A3E3FE5F1F951CB0230D86374106E14EF2901E00F03B87F869B0D40CDF27D37003BE6E8E7C4BF1E40FB725FD110C4F2838A86039076A0146EA9CC116D53C8100082D82542299A79F39E6808
310
009F20E179BB000D004C652FA9DAA5159565E191D018F364C994A7F7137A843E99112EF7D07D03E97DB3DE00D4DB26735F9A5F1475EA845B9CCCF943E940000770DC2A1DCB3100D848BEB0817DF31DF720C727748BF30BE8CE5BB97AFA928A8E3809707927E626390A00125230007B92C33509B03D24838F9C8A0C2C01643A
310
EE00B0439D549803F6F903380028029086A99D0B7E0CC0515FEE7FE14893A0E9AE3DC57C1500F8002006709C9933C6607700F87D00DE32A867479E08D9D70EC07F4AC056BD06002106A06C0F7DB1B721744880F0ED0076928F04950D214AAC18D23F55EA001CAB804902ED0F401F72CE03D893C0CA76807A80829DF2120098
310
1D609FB3C06A0F2201975500EA2A1048C09144605502A75E054E00F0570195922FBD45E1B70020FC38006307B08767FC18006B098E0520DA0C89FB3643D176D8D698623B2C1359629FE0526E3B6C9E2D34FE76387088F0EDF0F6CFB20A70A3694A8788324B438F107389D50E13222157811080E71293BE4B6C88EDB09602E9
310
7BEB240FFFE0C7FB8E5A0230D84EF8EDB8E6D851102CF3E90B2072FA7300E16330C23490E85959005E14293E238FA7C36B0F03489CE80F47081317C2F790BF487F0A8E05201FEE6AC885A905CE2E65D13CAD0289E18A235F914B01B3F7422D676C0C0065E1B870E5BED21BC073E960A34A406B9EE00B01F41CFF21F3032EDD
310
323180CE6501580016800560015800168005600158001680FF36F3EBFFFBFCBC6501B8A38DA90BAC52297FEE6B2870E1CAE3470000000049454E44AE426082
  0
ACDSRECORD
 90
        0
  2
AcDbDs::ID
280
    10
320
78E
  2
Thumbnail_Data
280
    15
 94
     3154
310
89504E470D0A1A0A0000000D4948445200000100000000B5080300000087DCD12600000300504C54450D0D0DFFFFFF0D0D0D0000000000000000000000000000000000000000000000000000330000660000990000CC0000FF0033000033330033660033990033CC0033FF0066000066330066660066990066CC0066FF0099
310
000099330099660099990099CC0099FF00CC0000CC3300CC6600CC9900CCCC00CCFF00FF0000FF3300FF6600FF9900FFCC00FFFF3300003300333300663300993300CC3300FF3333003333333333663333993333CC3333FF3366003366333366663366993366CC3366FF3399003399333399663399993399CC3399FF33CC00
310
33CC3333CC6633CC9933CCCC33CCFF33FF0033FF3333FF6633FF9933FFCC33FFFF6600006600336600666600996600CC6600FF6633006633336633666633996633CC6633FF6666006666336666666666996666CC6666FF6699006699336699666699996699CC6699FF66CC0066CC3366CC6666CC9966CCCC66CCFF66FF0066
310
FF3366FF6666FF9966FFCC66FFFF9900009900339900669900999900CC9900FF9933009933339933669933999933CC9933FF9966009966339966669966999966CC9966FF9999009999339999669999999999CC9999FF99CC0099CC3399CC6699CC9999CCCC99CCFF99FF0099FF3399FF6699FF9999FFCC99FFFFCC0000CC00
310
33CC0066CC0099CC00CCCC00FFCC3300CC3333CC3366CC3399CC33CCCC33FFCC6600CC6633CC6666CC6699CC66CCCC66FFCC9900CC9933CC9966CC9999CC99CCCC99FFCCCC00CCCC33CCCC66CCCC99CCCCCCCCCCFFCCFF00CCFF33CCFF66CCFF99CCFFCCCCFFFFFF0000FF0033FF0066FF0099FF00CCFF00FFFF3300FF3333
310
FF3366FF3399FF33CCFF33FFFF6600FF6633FF6666FF6699FF66CCFF66FFFF9900FF9933FF9966FF9999FF99CCFF99FFFFCC00FFCC33FFCC66FFCC99FFCCCCFFCCFFFFFF00FFFF33FFFF66FFFF99FFFFCCFFFFFF0000000D0D0D1A1A1A2828283535354343435050505D5D5D6B6B6B787878868686939393A1A1A1AEAEAEBB
310
BBBBC9C9C9D6D6D6E4E4E4F1F1F1FFFFFF000000000000000000000000000000000000000000000000000000000000D3F30D92000008FC4944415478DAED9D4B96A5200C40B321F63F63E236B2815E00F32E953F41FE884F39DD755EF92C946B08218408FF5E5EE003002F2E1F8013807869B100BCF1E97F003E0021007C51
310
A101BCE7F94F0380876069097B1D0047E8CE9F8F06507CFF478BCFFF0A43F9DF2F05E0066DB514803B64756500F9CF077345FE51007225345B9689D370652518DC6FA49D5100FE61AAC24F09AED905ECA1DDBA49BCC296516178EAB25D40B71F92B79B05006C83A9C1F218DE05829635A9AC94565DAB0B0CE8B1B769813A09
310
38E4B3AFA99CAC6F90088C9A0B34768152401F8068877AA904E413F879097825007CBB0E581940CCF3DE134099B6A806C081F8A7CB261A0010551700403E1080562D9BE082F8A7CB165B87639183F61F10556F917BD237A4FF18FD75BFBE1220BF1169008CE54B0063290062A3B5BAFAFDEF72B2A0F9B897510044AC0BC82A
310
364E97BFB6D0C7A5DC8A481710AA62A4BB8EE68A0CEC568B7100625A4E9D409F123B2A12379C0B00C169FF0D00E457A2540724B9E600E06800F0BB009C5F0A012512709C6C7FA7BA3B16013806A71D0057474601F8EBB57089A01880DB650253565FF002C0A94D4E00E7C79B24409E502C0184FF18CB246017BD0380B85902
310
7A01289300F9E019D3CFFFB112107A57B387412D01F02300E46779062601682538048096C8B10088F580F30CC2591C3674A41DA0AECFDD619CB4F85457CCB104FF0C01EB37CFBE47691EF33880BDE3D325A5AB064A40C95CE00F80A7006919219610E74A00E0241D100110AE8FCC067083122C1C05C62AC1E1003C03B802C0
310
A461709021E49B3FCA1ECC35848465083DD112A4DB7FFC9A3D17901270EF5C40D44D86844FC09A1265CF0526CD06AF00085129017B331BFD01D62870D75C40BB364A1C22E75C58062E377984260E838BFA04A701487885052BF40A8B8457380620F00A7B65D0BA401A40A94F50D4BAC5FD7501B78C5A1EA7E5B4616548E457
310
9D5C59E297366537007565D4AE9CC7001855B0F0F807E003D00D800C1485FEC17CE886E1622680B200DB6600E3C2198B6AAE0EAEEC220183E2394B5A437F873324607AB7EE7D950F401380D2BBCC328470E248543F17202372D253818CB9C0593D1213E60524C09A7C5D9E284A63847CCD85DE09B018000111006649A6C41F
310
60429C90720C331009007A53AADE9885D46EDD70EF6A8347E8AF9168E61EDC0350361B0C00A05D35837C00116B206A23B4B8C4D839DB26BD8F352E31A731A6D283A5C8EE024A83A2B109517FE3F89B5B25801F0B96F6CFE675017591A33A6EFDACE9028060FA022D234DEB02FC50855CFAA2E5CF3E00AC4AD505520B11892E
310
10B793EB25E0F4C10BE7763B01B02A5517A8E902568C9196FEC0A4AE05100829777B413D001EA93A0D80D67609CBADBE0B28DDC7483DD82A01E02E738AE45A5CBC070C5C178073258A7923610F1D20473FFD39A70BF81200FDB7CC980811BBD13300B0F428706D06F405C0C5B6B1CB521C23745D1DDBBC61B67C14E8351932
310
73810481B218A164C958E4B21E7738D8F5EE02C2B1D4C98636458AFAF5B6CD05A09B04B886D0441DD0C110EA3D0A106355E76190599FB30C21F3B0D11D132EB6DF37194217D3813B0CA12A7F559321C4D57838CC1466EA73862134DB21E2CC55864F86C47A1EA1B5A6C37700F0D4543F87C87E1153292B74884C04C0ECD1AF
310
934B8CC921CDAA94F14501D0A65E2FA7A8EB125E0F402AFCA83848CA1DCC43AA8B00488424D50749B9465B524BDCBE34567D42CEF6F9D84AEF4F00C83AFFF500E003F001F8003C0B00467773C55C4AA9E62D9F53B40E40DC3393CED2FAE514FD74C04A007EA77C0066A5D7D7914F0BA5D69F08609E52FB007C003E25B81A00
310
37E7385EFABE7E16008636FE22FD6018800E86AE89F8CBBB5855F2E9710020E7450AC99333F7BDD42BD6810022B79A7F7A7E6EE086A16528006A528BF4A4F8B63D2AAD00F8D56D6E61B7DC7F270EC7AFC87301F099003875591E02A0BBC0967CACFCE252869DDC686EB69C5B9FF2DF67531A24752CDC701DD66556F5F6EB9A
310
334BF7D2D8577436E23BED729B25228F42254FC1FE12A0A2F839840080DBCB77C79619E251EF97D8825ADDC564011400E032CF860340881080106301702B5FA10CE552C7ACA7B0AF026FF4EAB07F18AD141A7E5D4247891DD112AE04C8830E00796CAC0430AE577ECDA7BF83C27DD2F912E0C517818988B2C108E1E9809B24
310
0018B3EE8A591F1D00C5AFBEB57500C401C0FD3A200FC0DF3D644B8080560036C4870138DE7B5A0DC0D4CA9DB5F7C1008002C0FA01000A004401A8E44380E29500741AADDD44C1C70180560042F57C9975ED710000FA0090AF511E0840D920B702F02C411780F955E4BE9EAD0E8095B6D6D92552670AFB5965FDB45A5ECA39
310
0F801EFCD03D3A00C06984B9397C5D00DC98B3FB9EA14C5358E615367F1A05C0B9DD2ED79E46B7CADC17BE3DAD0B202D01E75B6F864B002CAA034EC90CB0BC6614407B2EF0C26110E1E500EC84AACEB1D700307301983517E83B1D86E6E9F0E131D36F2B5A643A3CD921225CDFD070A72805002A5D62F03097589E53F462CB
310
0C9D7338E514352F9F58C2294A98C26E1760257301E625435ED72D9EBD30B2BB260A96459EB230A2BE8D2C8DB9EF4AC77C0940EFC53A91A531747500CE5F1A0BBFE5912F4E00F4BA7FB838EA0340EA02EA3026D713A16079B715004601C4939860E2DDF248B7310500EF0080311A176D4F1EF5E288684A017C1FE24800483F
310
3AAC04E0F557FF151317721317A2C10092914E0DFB01F283A9BAEC2E18152213B985F89699BB02E60602288812BB3168720C8095F6C4DC2301F2F5489723A837C2E124CC01F6415D00CA241DABBB991D4F8A7E16253D7AA0CA306985EFC93F9B0D00BB0230A9822C00E80300379854E7D7C2B14A70B402406375DB3D2E30B3
310
13A6EC4C09E877FEF23A608A027703C4E386D59595F13B000855F8F30072FA0274CE29BA24005724CE8C8AC159565A392BC5F4CF0120E665B498987CDB4B02C84C0A4D4CA902A9A787C1D52520EE9636A9A27F7A18B4D2A30666AD4E118AB9553D7014B08D782013A5829540DFA4CA47C777880F06A075B5932916109C5FC0
310
CBA2EBBE9C2AEB652D0F57824602500BC04F00C8ED27CEA88681A3DAD5149151F287EC80C459B622490178512101BCAA7C003E00168077160DE0BDE503B0037879793D80FFC8AB227F7DE384890000000049454E44AE426082821128250D0000000049454E44AE426082
  0
ENDSEC
  0
EOF
