  0
SECTION
  2
HEADER
  9
$ACADVER
  1
AC1027
  9
$ACADMAINTVER
 70
   125
  9
$DWGCODEPAGE
  3
ANSI_932
  9
$LASTSAVEDBY
  1
D-mishima
  9
$REQUIREDVERSIONS
160
                 0
  9
$INSBASE
 10
0.0
 20
0.0
 30
0.0
  9
$EXTMIN
 10
0.0
 20
0.0
 30
0.0
  9
$EXTMAX
 10
4200.0
 20
2970.0
 30
0.0
  9
$LIMMIN
 10
0.0
 20
0.0
  9
$LIMMAX
 10
4200.0
 20
2970.0
  9
$ORTHOMODE
 70
     1
  9
$REGENMODE
 70
     1
  9
$FILLMODE
 70
     1
  9
$QTEXTMODE
 70
     0
  9
$MIRRTEXT
 70
     0
  9
$LTSCALE
 40
0.1
  9
$ATTMODE
 70
     1
  9
$TEXTSIZE
 40
25.0
  9
$TRACEWID
 40
1.0
  9
$TEXTSTYLE
  7
Standard
  9
$CLAYER
  8
破線
  9
$CELTYPE
  6
ByLayer
  9
$CECOLOR
 62
   256
  9
$CELTSCALE
 40
1.0
  9
$DISPSILH
 70
     0
  9
$DIMSCALE
 40
10.0
  9
$DIMASZ
 40
2.0
  9
$DIMEXO
 40
0.875
  9
$DIMDLI
 40
10.0
  9
$DIMRND
 40
0.0
  9
$DIMDLE
 40
0.0
  9
$DIMEXE
 40
1.0
  9
$DIMTP
 40
0.0
  9
$DIMTM
 40
0.0
  9
$DIMTXT
 40
2.5
  9
$DIMCEN
 40
0.0
  9
$DIMTSZ
 40
0.0
  9
$DIMTOL
 70
     0
  9
$DIMLIM
 70
     0
  9
$DIMTIH
 70
     0
  9
$DIMTOH
 70
     0
  9
$DIMSE1
 70
     0
  9
$DIMSE2
 70
     0
  9
$DIMTAD
 70
     1
  9
$DIMZIN
 70
     8
  9
$DIMBLK
  1

  9
$DIMASO
 70
     1
  9
$DIMSHO
 70
     1
  9
$DIMPOST
  1

  9
$DIMAPOST
  1

  9
$DIMALT
 70
     0
  9
$DIMALTD
 70
     2
  9
$DIMALTF
 40
25.4
  9
$DIMLFAC
 40
1.0
  9
$DIMTOFL
 70
     1
  9
$DIMTVP
 40
0.0
  9
$DIMTIX
 70
     0
  9
$DIMSOXD
 70
     0
  9
$DIMSAH
 70
     1
  9
$DIMBLK1
  1
OPEN
  9
$DIMBLK2
  1
OPEN
  9
$DIMSTYLE
  2
STANDARD
  9
$DIMCLRD
 70
     0
  9
$DIMCLRE
 70
     0
  9
$DIMCLRT
 70
     0
  9
$DIMTFAC
 40
1.0
  9
$DIMGAP
 40
0.875
  9
$DIMJUST
 70
     0
  9
$DIMSD1
 70
     0
  9
$DIMSD2
 70
     0
  9
$DIMTOLJ
 70
     1
  9
$DIMTZIN
 70
     0
  9
$DIMALTZ
 70
     0
  9
$DIMALTTZ
 70
     0
  9
$DIMUPT
 70
     0
  9
$DIMDEC
 70
     3
  9
$DIMTDEC
 70
     3
  9
$DIMALTU
 70
     2
  9
$DIMALTTD
 70
     2
  9
$DIMTXSTY
  7
Standard
  9
$DIMAUNIT
 70
     0
  9
$DIMADEC
 70
     0
  9
$DIMALTRND
 40
0.0
  9
$DIMAZIN
 70
     0
  9
$DIMDSEP
 70
    46
  9
$DIMATFIT
 70
     3
  9
$DIMFRAC
 70
     0
  9
$DIMLDRBLK
  1
OPEN
  9
$DIMLUNIT
 70
     2
  9
$DIMLWD
 70
    -2
  9
$DIMLWE
 70
    -2
  9
$DIMTMOVE
 70
     0
  9
$DIMFXL
 40
1.0
  9
$DIMFXLON
 70
     0
  9
$DIMJOGANG
 40
1.570796326794896
  9
$DIMTFILL
 70
     0
  9
$DIMTFILLCLR
 70
     0
  9
$DIMARCSYM
 70
     0
  9
$DIMLTYPE
  6

  9
$DIMLTEX1
  6

  9
$DIMLTEX2
  6

  9
$DIMTXTDIRECTION
 70
     0
  9
$LUNITS
 70
     2
  9
$LUPREC
 70
     4
  9
$SKETCHINC
 40
1.0
  9
$FILLETRAD
 40
0.0
  9
$AUNITS
 70
     0
  9
$AUPREC
 70
     0
  9
$MENU
  1
.
  9
$ELEVATION
 40
0.0
  9
$PELEVATION
 40
0.0
  9
$THICKNESS
 40
0.0
  9
$LIMCHECK
 70
     0
  9
$CHAMFERA
 40
0.0
  9
$CHAMFERB
 40
0.0
  9
$CHAMFERC
 40
0.0
  9
$CHAMFERD
 40
0.0
  9
$SKPOLY
 70
     0
  9
$TDCREATE
 40
2454064.449062500
  9
$TDUCREATE
 40
2454064.074062859
  9
$TDUPDATE
 40
2460315.475335648
  9
$TDUUPDATE
 40
2460315.100335648
  9
$TDINDWG
 40
3.9971357986
  9
$TDUSRTIMER
 40
3.9971139352
  9
$USRTIMER
 70
     1
  9
$ANGBASE
 50
0.0
  9
$ANGDIR
 70
     0
  9
$PDMODE
 70
     0
  9
$PDSIZE
 40
0.0
  9
$PLINEWID
 40
0.0
  9
$SPLFRAME
 70
     0
  9
$SPLINETYPE
 70
     6
  9
$SPLINESEGS
 70
     8
  9
$HANDSEED
  5
1422F
  9
$SURFTAB1
 70
     6
  9
$SURFTAB2
 70
     6
  9
$SURFTYPE
 70
     6
  9
$SURFU
 70
     6
  9
$SURFV
 70
     6
  9
$UCSBASE
  2

  9
$UCSNAME
  2

  9
$UCSORG
 10
0.0
 20
0.0
 30
0.0
  9
$UCSXDIR
 10
1.0
 20
0.0
 30
0.0
  9
$UCSYDIR
 10
0.0
 20
1.0
 30
0.0
  9
$UCSORTHOREF
  2

  9
$UCSORTHOVIEW
 70
     0
  9
$UCSORGTOP
 10
0.0
 20
0.0
 30
0.0
  9
$UCSORGBOTTOM
 10
0.0
 20
0.0
 30
0.0
  9
$UCSORGLEFT
 10
0.0
 20
0.0
 30
0.0
  9
$UCSORGRIGHT
 10
0.0
 20
0.0
 30
0.0
  9
$UCSORGFRONT
 10
0.0
 20
0.0
 30
0.0
  9
$UCSORGBACK
 10
0.0
 20
0.0
 30
0.0
  9
$PUCSBASE
  2

  9
$PUCSNAME
  2

  9
$PUCSORG
 10
0.0
 20
0.0
 30
0.0
  9
$PUCSXDIR
 10
1.0
 20
0.0
 30
0.0
  9
$PUCSYDIR
 10
0.0
 20
1.0
 30
0.0
  9
$PUCSORTHOREF
  2

  9
$PUCSORTHOVIEW
 70
     0
  9
$PUCSORGTOP
 10
0.0
 20
0.0
 30
0.0
  9
$PUCSORGBOTTOM
 10
0.0
 20
0.0
 30
0.0
  9
$PUCSORGLEFT
 10
0.0
 20
0.0
 30
0.0
  9
$PUCSORGRIGHT
 10
0.0
 20
0.0
 30
0.0
  9
$PUCSORGFRONT
 10
0.0
 20
0.0
 30
0.0
  9
$PUCSORGBACK
 10
0.0
 20
0.0
 30
0.0
  9
$USERI1
 70
     0
  9
$USERI2
 70
     0
  9
$USERI3
 70
     0
  9
$USERI4
 70
     0
  9
$USERI5
 70
     0
  9
$USERR1
 40
0.0
  9
$USERR2
 40
0.0
  9
$USERR3
 40
0.0
  9
$USERR4
 40
0.0
  9
$USERR5
 40
0.0
  9
$WORLDVIEW
 70
     1
  9
$SHADEDGE
 70
     3
  9
$SHADEDIF
 70
    70
  9
$TILEMODE
 70
     0
  9
$MAXACTVP
 70
    64
  9
$PINSBASE
 10
0.0
 20
0.0
 30
0.0
  9
$PLIMCHECK
 70
     0
  9
$PEXTMIN
 10
-0.0233557008396019
 20
-0.0155136928541424
 30
-0.0000000000112498
  9
$PEXTMAX
 10
408.2225153712125
 20
285.1940104826281
 30
0.0000000000002956
  9
$PLIMMIN
 10
-5.873748779296875
 20
-5.873749732971191
  9
$PLIMMAX
 10
414.0729064941406
 20
291.0522451400757
  9
$UNITMODE
 70
     0
  9
$VISRETAIN
 70
     1
  9
$PLINEGEN
 70
     0
  9
$PSLTSCALE
 70
     1
  9
$TREEDEPTH
 70
  3020
  9
$CMLSTYLE
  2
Standard
  9
$CMLJUST
 70
     0
  9
$CMLSCALE
 40
20.0
  9
$PROXYGRAPHICS
 70
     1
  9
$MEASUREMENT
 70
     1
  9
$CELWEIGHT
370
    -1
  9
$ENDCAPS
280
     0
  9
$JOINSTYLE
280
     0
  9
$LWDISPLAY
290
     0
  9
$INSUNITS
 70
     4
  9
$HYPERLINKBASE
  1

  9
$STYLESHEET
  1
SANKENTC.CTB
  9
$XEDIT
290
     1
  9
$CEPSNTYPE
380
     0
  9
$PSTYLEMODE
290
     1
  9
$FINGERPRINTGUID
  2
{072871F0-2771-4C56-B9BD-B27D0F751D9A}
  9
$VERSIONGUID
  2
{F7C66C0D-B64F-F843-8D1F-A5648F987C90}
  9
$EXTNAMES
290
     1
  9
$PSVPSCALE
 40
0.0
  9
$OLESTARTUP
290
     0
  9
$SORTENTS
280
   127
  9
$INDEXCTL
280
     0
  9
$HIDETEXT
280
     1
  9
$XCLIPFRAME
280
     2
  9
$HALOGAP
280
     0
  9
$OBSCOLOR
 70
   257
  9
$OBSLTYPE
280
     0
  9
$INTERSECTIONDISPLAY
280
     0
  9
$INTERSECTIONCOLOR
 70
   257
  9
$DIMASSOC
280
     2
  9
$PROJECTNAME
  1

  9
$CAMERADISPLAY
290
     0
  9
$LENSLENGTH
 40
50.0
  9
$CAMERAHEIGHT
 40
0.0
  9
$STEPSPERSEC
 40
2.0
  9
$STEPSIZE
 40
6.0
  9
$3DDWFPREC
 40
2.0
  9
$PSOLWIDTH
 40
0.25
  9
$PSOLHEIGHT
 40
4.0
  9
$LOFTANG1
 40
1.570796326794896
  9
$LOFTANG2
 40
1.570796326794896
  9
$LOFTMAG1
 40
0.0
  9
$LOFTMAG2
 40
0.0
  9
$LOFTPARAM
 70
     7
  9
$LOFTNORMALS
280
     1
  9
$LATITUDE
 40
37.795
  9
$LONGITUDE
 40
-122.394
  9
$NORTHDIRECTION
 40
0.0
  9
$TIMEZONE
 70
 -8000
  9
$LIGHTGLYPHDISPLAY
280
     1
  9
$TILEMODELIGHTSYNCH
280
     1
  9
$CMATERIAL
347
11EAC
  9
$SOLIDHIST
280
     0
  9
$SHOWHIST
280
     1
  9
$DWFFRAME
280
     2
  9
$DGNFRAME
280
     0
  9
$REALWORLDSCALE
290
     1
  9
$INTERFERECOLOR
 62
     1
  9
$INTERFEREOBJVS
345
11ECE
  9
$INTERFEREVPVS
346
13153
  9
$CSHADOW
280
     0
  9
$SHADOWPLANELOCATION
 40
0.0
  0
ENDSEC
  0
SECTION
  2
CLASSES
  0
CLASS
  1
ACDBDICTIONARYWDFLT
  2
AcDbDictionaryWithDefault
  3
ObjectDBX Classes
 90
        0
 91
        1
280
     0
281
     0
  0
CLASS
  1
DICTIONARYVAR
  2
AcDbDictionaryVar
  3
ObjectDBX Classes
 90
        0
 91
       18
280
     0
281
     0
  0
CLASS
  1
TABLESTYLE
  2
AcDbTableStyle
  3
ObjectDBX Classes
 90
     4095
 91
        1
280
     0
281
     0
  0
CLASS
  1
DIMASSOC
  2
AcDbDimAssoc
  3
"AcDbDimAssoc|Product Desc:     AcDim ARX App For Dimension|Company:          Autodesk, Inc.|WEB Address:      www.autodesk.com"
 90
        0
 91
        0
280
     0
281
     0
  0
CLASS
  1
SORTENTSTABLE
  2
AcDbSortentsTable
  3
ObjectDBX Classes
 90
        0
 91
        3
280
     0
281
     0
  0
CLASS
  1
MATERIAL
  2
AcDbMaterial
  3
ObjectDBX Classes
 90
     1153
 91
        3
280
     0
281
     0
  0
CLASS
  1
VISUALSTYLE
  2
AcDbVisualStyle
  3
ObjectDBX Classes
 90
     4095
 91
       26
280
     0
281
     0
  0
CLASS
  1
SCALE
  2
AcDbScale
  3
ObjectDBX Classes
 90
     1153
 91
       17
280
     0
281
     0
  0
CLASS
  1
MLEADERSTYLE
  2
AcDbMLeaderStyle
  3
ACDB_MLEADERSTYLE_CLASS
 90
     4095
 91
        1
280
     0
281
     0
  0
CLASS
  1
CELLSTYLEMAP
  2
AcDbCellStyleMap
  3
ObjectDBX Classes
 90
     1152
 91
        1
280
     0
281
     0
  0
CLASS
  1
AEC_REFEDIT_STATUS_TRACKER
  2
AecDbRefEditStatusTracker
  3
AecArchBase80|Product Desc: Autodesk Architectural Desktop 2007 |Company: Autodesk,Inc. |WEB Address: www.autodesk.com
 90
      129
 91
        0
280
     0
281
     0
  0
CLASS
  1
NPOCOLLECTION
  2
AcDbImpNonPersistentObjectsCollection
  3
ObjectDBX Classes
 90
     1153
 91
        0
280
     0
281
     0
  0
CLASS
  1
ACDBSECTIONVIEWSTYLE
  2
AcDbSectionViewStyle
  3
ObjectDBX Classes
 90
     1025
 91
        1
280
     0
281
     0
  0
CLASS
  1
ACDBDETAILVIEWSTYLE
  2
AcDbDetailViewStyle
  3
ObjectDBX Classes
 90
     1025
 91
        1
280
     0
281
     0
  0
ENDSEC
  0
SECTION
  2
TABLES
  0
TABLE
  2
VPORT
  5
8
102
{ACAD_XDICTIONARY
360
12005
102
}
330
0
100
AcDbSymbolTable
 70
     1
1001
ACAD
1000
DbSaveVer
1071
      278
  0
VPORT
  5
126DC
330
8
100
AcDbSymbolTableRecord
100
AcDbViewportTableRecord
  2
*Active
 70
     0
 10
0.0
 20
0.0
 11
1.0
 21
1.0
 12
2100.000009778887
 22
1485.000006915069
 13
0.0
 23
0.0
 14
10.0
 24
10.0
 15
10.0
 25
10.0
 16
0.0
 26
0.0
 36
1.0
 17
0.0
 27
0.0
 37
0.0
 40
2994.864221293063
 41
1.897364771151178
 42
50.0
 43
0.0
 44
0.0
 50
0.0
 51
0.0
 71
     0
 72
  1000
 73
     1
 74
     3
 75
     0
 76
     0
 77
     0
 78
     0
281
     0
 65
     1
110
0.0
120
0.0
130
0.0
111
1.0
121
0.0
131
0.0
112
0.0
122
1.0
132
0.0
 79
     0
146
0.0
348
11ECA
 60
     3
 61
     5
292
     1
282
     1
141
0.0
142
0.0
 63
   250
421
  3355443
1001
ACAD_NAV_VCDISPLAY
1070
     3
  0
ENDTAB
  0
TABLE
  2
LTYPE
  5
5
330
0
100
AcDbSymbolTable
 70
     4
  0
LTYPE
  5
14
330
5
100
AcDbSymbolTableRecord
100
AcDbLinetypeTableRecord
  2
ByBlock
 70
     0
  3

 72
    65
 73
     0
 40
0.0
  0
LTYPE
  5
15
330
5
100
AcDbSymbolTableRecord
100
AcDbLinetypeTableRecord
  2
ByLayer
 70
     0
  3

 72
    65
 73
     0
 40
0.0
  0
LTYPE
  5
16
330
5
100
AcDbSymbolTableRecord
100
AcDbLinetypeTableRecord
  2
Continuous
 70
     0
  3
Solid line
 72
    65
 73
     0
 40
0.0
  0
LTYPE
  5
1D4
330
5
100
AcDbSymbolTableRecord
100
AcDbLinetypeTableRecord
  2
PHANTOM
 70
     0
  3
Phantom ______  __  __  ______  __  __  ______
 72
    65
 73
     6
 40
63.5
 49
31.75
 74
     0
 49
-6.349999999999997
 74
     0
 49
6.349999999999997
 74
     0
 49
-6.349999999999997
 74
     0
 49
6.349999999999997
 74
     0
 49
-6.349999999999997
 74
     0
  0
LTYPE
  5
1D5
330
5
100
AcDbSymbolTableRecord
100
AcDbLinetypeTableRecord
  2
CENTER
 70
     0
  3
Center ____ _ ____ _ ____ _ ____ _ ____ _ ____
 72
    65
 73
     4
 40
50.8
 49
31.75
 74
     0
 49
-6.349999999999997
 74
     0
 49
6.349999999999997
 74
     0
 49
-6.349999999999997
 74
     0
  0
LTYPE
  5
1D7
330
5
100
AcDbSymbolTableRecord
100
AcDbLinetypeTableRecord
  2
DASHED
 70
     0
  3
Dashed __ __ __ __ __ __ __ __ __ __ __ __ __ _
 72
    65
 73
     2
 40
19.05
 49
12.7
 74
     0
 49
-6.349999999999997
 74
     0
  0
ENDTAB
  0
TABLE
  2
LAYER
  5
2
102
{ACAD_XDICTIONARY
360
11D
102
}
330
0
100
AcDbSymbolTable
 70
     9
  0
LAYER
  5
10
102
{ACAD_XDICTIONARY
360
11FCB
102
}
330
2
100
AcDbSymbolTableRecord
100
AcDbLayerTableRecord
  2
0
 70
     0
 62
     7
  6
Continuous
370
    -3
390
F
347
11EBC
348
0
  0
LAYER
  5
13F
330
2
100
AcDbSymbolTableRecord
100
AcDbLayerTableRecord
  2
Defpoints
 70
     0
 62
     7
  6
Continuous
290
     0
370
    -3
390
F
347
11EBC
348
0
  0
LAYER
  5
1BF
102
{ACAD_XDICTIONARY
360
11FCF
102
}
330
2
100
AcDbSymbolTableRecord
100
AcDbLayerTableRecord
  2
図面枠
 70
     0
 62
     2
  6
Continuous
370
    -3
390
F
347
11EBC
348
0
1001
AcAecLayerStandard
1000

1000

  0
LAYER
  5
1C1
102
{ACAD_XDICTIONARY
360
11FD3
102
}
330
2
100
AcDbSymbolTableRecord
100
AcDbLayerTableRecord
  2
仮想線
 70
     0
 62
     6
  6
PHANTOM
370
    -3
390
F
347
11EBC
348
0
1001
AcAecLayerStandard
1000

1000

  0
LAYER
  5
1C3
102
{ACAD_XDICTIONARY
360
11FD7
102
}
330
2
100
AcDbSymbolTableRecord
100
AcDbLayerTableRecord
  2
寸法線
 70
     0
 62
     2
  6
Continuous
370
    -3
390
F
347
11EBC
348
0
1001
AcAecLayerStandard
1000

1000

  0
LAYER
  5
1C4
102
{ACAD_XDICTIONARY
360
11FD9
102
}
330
2
100
AcDbSymbolTableRecord
100
AcDbLayerTableRecord
  2
中心線
 70
     0
 62
     1
  6
CENTER
370
    -3
390
F
347
11EBC
348
0
1001
AcAecLayerStandard
1000

1000

  0
LAYER
  5
1C5
102
{ACAD_XDICTIONARY
360
11FDB
102
}
330
2
100
AcDbSymbolTableRecord
100
AcDbLayerTableRecord
  2
破線
 70
     0
 62
     4
  6
DASHED
370
    -3
390
F
347
11EBC
348
0
1001
AcAecLayerStandard
1000

1000

  0
LAYER
  5
82E
102
{ACAD_XDICTIONARY
360
11FDD
102
}
330
2
100
AcDbSymbolTableRecord
100
AcDbLayerTableRecord
  2
実線
 70
     0
 62
     7
  6
Continuous
370
    -3
390
F
347
11EBC
348
0
1001
AcAecLayerStandard
1000

1000

  0
LAYER
  5
14207
102
{ACAD_XDICTIONARY
360
14208
102
}
330
2
100
AcDbSymbolTableRecord
100
AcDbLayerTableRecord
  2
仮線
 70
     0
 62
     5
  6
Continuous
370
    -3
390
F
347
11EBC
348
0
1001
AcAecLayerStandard
1000

1000

  0
ENDTAB
  0
TABLE
  2
STYLE
  5
3
330
0
100
AcDbSymbolTable
 70
     1
  0
STYLE
  5
11
330
3
100
AcDbSymbolTableRecord
100
AcDbTextStyleTableRecord
  2
Standard
 70
     0
 40
0.0
 41
1.0
 50
0.0
 71
     0
 42
25.0
  3
isocp.shx
  4
extfont2.shx
  0
ENDTAB
  0
TABLE
  2
VIEW
  5
6
330
0
100
AcDbSymbolTable
 70
     0
  0
ENDTAB
  0
TABLE
  2
UCS
  5
7
330
0
100
AcDbSymbolTable
 70
     0
  0
ENDTAB
  0
TABLE
  2
APPID
  5
9
330
0
100
AcDbSymbolTable
 70
    17
  0
APPID
  5
12
330
9
100
AcDbSymbolTableRecord
100
AcDbRegAppTableRecord
  2
ACAD
 70
     0
  0
APPID
  5
9E
330
9
100
AcDbSymbolTableRecord
100
AcDbRegAppTableRecord
  2
ACAD_PSEXT
 70
     0
  0
APPID
  5
1BE
330
9
100
AcDbSymbolTableRecord
100
AcDbRegAppTableRecord
  2
AcAecLayerStandard
 70
     0
  0
APPID
  5
1FF
330
9
100
AcDbSymbolTableRecord
100
AcDbRegAppTableRecord
  2
ACAD_EXEMPT_FROM_CAD_STANDARDS
 70
     0
  0
APPID
  5
1318
330
9
100
AcDbSymbolTableRecord
100
AcDbRegAppTableRecord
  2
ACAD_DSTYLE_DIMTEXT_FILL
 70
     0
  0
APPID
  5
1319
330
9
100
AcDbSymbolTableRecord
100
AcDbRegAppTableRecord
  2
ACAD_DSTYLE_DIMEXT_LENGTH
 70
     0
  0
APPID
  5
131A
330
9
100
AcDbSymbolTableRecord
100
AcDbRegAppTableRecord
  2
ACAD_DSTYLE_DIMEXT_ENABLED
 70
     0
  0
APPID
  5
131B
330
9
100
AcDbSymbolTableRecord
100
AcDbRegAppTableRecord
  2
ACAD_DSTYLE_DIM_LINETYPE
 70
     0
  0
APPID
  5
131C
330
9
100
AcDbSymbolTableRecord
100
AcDbRegAppTableRecord
  2
ACAD_DSTYLE_DIM_EXT1_LINETYPE
 70
     0
  0
APPID
  5
131D
330
9
100
AcDbSymbolTableRecord
100
AcDbRegAppTableRecord
  2
ACAD_DSTYLE_DIM_EXT2_LINETYPE
 70
     0
  0
APPID
  5
1439
330
9
100
AcDbSymbolTableRecord
100
AcDbRegAppTableRecord
  2
ACAD_DSTYLE_DIMJOGGED_JOGANGLE_SYMBOL
 70
     0
  0
APPID
  5
1CB2
330
9
100
AcDbSymbolTableRecord
100
AcDbRegAppTableRecord
  2
ACAD_DSTYLE_DIMARC_LENGTH_SYMBOL
 70
     0
  0
APPID
  5
356E
330
9
100
AcDbSymbolTableRecord
100
AcDbRegAppTableRecord
  2
ACAD_DIMASSOC_CALC_DIMLFAC
 70
     0
  0
APPID
  5
356F
330
9
100
AcDbSymbolTableRecord
100
AcDbRegAppTableRecord
  2
ACAD_DIMASSOC_DIMLFAC
 70
     0
  0
APPID
  5
3570
330
9
100
AcDbSymbolTableRecord
100
AcDbRegAppTableRecord
  2
ACAD_DIMASSOC_OVERRIDDEN_DIMLFAC
 70
     0
  0
APPID
  5
11EE9
330
9
100
AcDbSymbolTableRecord
100
AcDbRegAppTableRecord
  2
ACAD_MLEADERVER
 70
     0
  0
APPID
  5
1337A
330
9
100
AcDbSymbolTableRecord
100
AcDbRegAppTableRecord
  2
ACAD_NAV_VCDISPLAY
 70
     0
  0
ENDTAB
  0
TABLE
  2
DIMSTYLE
  5
A
330
0
100
AcDbSymbolTable
 70
     1
100
AcDbDimStyleTable
 71
     1
340
C0F
  0
DIMSTYLE
105
C0F
102
{ACAD_REACTORS
330
135F9
330
135FA
330
135FB
330
135FC
330
135FD
330
135FE
330
135FF
330
13601
330
13602
330
13816
330
13818
330
1381D
330
13823
330
13825
330
13826
330
13827
330
1385E
330
1385F
330
13862
330
13867
330
13868
330
13869
330
1386A
330
13654
330
13655
330
13656
330
13714
330
13715
330
13779
330
1377E
330
137AF
330
137B0
330
137B1
330
137E4
330
137E5
330
137E6
330
137E7
330
137E8
330
137F4
330
14180
330
14181
102
}
330
A
100
AcDbSymbolTableRecord
100
AcDbDimStyleTableRecord
  2
STANDARD
 70
     0
 40
10.0
 41
2.0
 42
0.875
 43
10.0
 44
1.0
 50
89.99999999999998
 73
     0
 74
     0
 77
     1
 78
     8
140
2.5
141
0.0
147
0.875
172
     1
173
     1
271
     3
272
     3
340
11
341
C08
343
C08
344
C08
1001
ACAD_DSTYLE_DIMJOGGED_JOGANGLE_SYMBOL
1070
   384
1040
1.570796326794896
  0
ENDTAB
  0
TABLE
  2
BLOCK_RECORD
  5
1
330
0
100
AcDbSymbolTable
 70
    42
  0
BLOCK_RECORD
  5
1F
102
{ACAD_XDICTIONARY
360
5C91
102
}
330
1
100
AcDbSymbolTableRecord
100
AcDbBlockTableRecord
  2
*Model_Space
340
22
 70
     0
280
     1
281
     0
  0
BLOCK_RECORD
  5
78D
330
1
100
AcDbSymbolTableRecord
100
AcDbBlockTableRecord
  2
*Paper_Space
340
78E
 70
     0
280
     1
281
     0
  0
BLOCK_RECORD
  5
C08
102
{ACAD_XDICTIONARY
360
124AB
102
}
330
1
100
AcDbSymbolTableRecord
100
AcDbBlockTableRecord
  2
_OPEN
340
0
102
{BLKREFS
331
14050
331
14058
331
14059
331
14061
331
14062
331
1406A
331
1406B
331
14075
331
14076
331
14080
331
14081
331
14089
331
1408A
331
14094
331
14095
331
1409F
331
140A0
331
140A8
331
140A9
331
140B1
331
140B2
331
140BA
331
140BB
331
140C3
331
140C4
331
1374C
331
141A6
331
141A7
331
13FDE
331
13FDF
331
13FE9
331
13FEA
331
13FF4
331
13FF5
331
13FFD
331
13FFE
331
14009
331
1400A
331
14014
331
14015
331
1401E
331
1401F
331
14029
331
1402A
331
14032
331
14033
331
1403D
331
1403E
331
14046
331
14047
331
1404F
331
13F6A
331
13F6B
331
13F73
331
13F74
331
13F7C
331
13F7D
331
13F87
331
13F88
331
13F90
331
13F91
331
13F99
331
13F9A
331
13FA2
331
13FA3
331
13FAC
331
13FAD
331
13FB6
331
13FB7
331
13FC1
331
13FC2
331
13FCA
331
13FCB
331
13FD3
331
13FD4
331
140CC
331
140CD
331
140D7
331
140D8
331
140E0
331
140E1
331
1419D
331
1419E
102
}
 70
     0
280
     1
281
     0
  0
BLOCK_RECORD
  5
1386B
330
1
100
AcDbSymbolTableRecord
100
AcDbBlockTableRecord
  2
*D1
340
0
 70
     0
280
     1
281
     0
  0
BLOCK_RECORD
  5
13877
330
1
100
AcDbSymbolTableRecord
100
AcDbBlockTableRecord
  2
*D2
340
0
 70
     0
280
     1
281
     0
  0
BLOCK_RECORD
  5
13883
330
1
100
AcDbSymbolTableRecord
100
AcDbBlockTableRecord
  2
*D3
340
0
 70
     0
280
     1
281
     0
  0
BLOCK_RECORD
  5
1388F
330
1
100
AcDbSymbolTableRecord
100
AcDbBlockTableRecord
  2
*D4
340
0
 70
     0
280
     1
281
     0
  0
BLOCK_RECORD
  5
1389D
330
1
100
AcDbSymbolTableRecord
100
AcDbBlockTableRecord
  2
*D5
340
0
 70
     0
280
     1
281
     0
  0
BLOCK_RECORD
  5
138A9
330
1
100
AcDbSymbolTableRecord
100
AcDbBlockTableRecord
  2
*D6
340
0
 70
     0
280
     1
281
     0
  0
BLOCK_RECORD
  5
138B5
330
1
100
AcDbSymbolTableRecord
100
AcDbBlockTableRecord
  2
*D7
340
0
 70
     0
280
     1
281
     0
  0
BLOCK_RECORD
  5
138C2
330
1
100
AcDbSymbolTableRecord
100
AcDbBlockTableRecord
  2
*D8
340
0
 70
     0
280
     1
281
     0
  0
BLOCK_RECORD
  5
138CF
330
1
100
AcDbSymbolTableRecord
100
AcDbBlockTableRecord
  2
*D9
340
0
 70
     0
280
     1
281
     0
  0
BLOCK_RECORD
  5
138DB
330
1
100
AcDbSymbolTableRecord
100
AcDbBlockTableRecord
  2
*D10
340
0
 70
     0
280
     1
281
     0
  0
BLOCK_RECORD
  5
138E7
330
1
100
AcDbSymbolTableRecord
100
AcDbBlockTableRecord
  2
*D11
340
0
 70
     0
280
     1
281
     0
  0
BLOCK_RECORD
  5
138F3
330
1
100
AcDbSymbolTableRecord
100
AcDbBlockTableRecord
  2
*D12
340
0
 70
     0
280
     1
281
     0
  0
BLOCK_RECORD
  5
13901
330
1
100
AcDbSymbolTableRecord
100
AcDbBlockTableRecord
  2
*D13
340
0
 70
     0
280
     1
281
     0
  0
BLOCK_RECORD
  5
1390F
330
1
100
AcDbSymbolTableRecord
100
AcDbBlockTableRecord
  2
*D14
340
0
 70
     0
280
     1
281
     0
  0
BLOCK_RECORD
  5
1391B
330
1
100
AcDbSymbolTableRecord
100
AcDbBlockTableRecord
  2
*D15
340
0
 70
     0
280
     1
281
     0
  0
BLOCK_RECORD
  5
13929
330
1
100
AcDbSymbolTableRecord
100
AcDbBlockTableRecord
  2
*D16
340
0
 70
     0
280
     1
281
     0
  0
BLOCK_RECORD
  5
13937
330
1
100
AcDbSymbolTableRecord
100
AcDbBlockTableRecord
  2
*D17
340
0
 70
     0
280
     1
281
     0
  0
BLOCK_RECORD
  5
13943
330
1
100
AcDbSymbolTableRecord
100
AcDbBlockTableRecord
  2
*D18
340
0
 70
     0
280
     1
281
     0
  0
BLOCK_RECORD
  5
1394F
330
1
100
AcDbSymbolTableRecord
100
AcDbBlockTableRecord
  2
*D19
340
0
 70
     0
280
     1
281
     0
  0
BLOCK_RECORD
  5
1395B
330
1
100
AcDbSymbolTableRecord
100
AcDbBlockTableRecord
  2
*D20
340
0
 70
     0
280
     1
281
     0
  0
BLOCK_RECORD
  5
13967
330
1
100
AcDbSymbolTableRecord
100
AcDbBlockTableRecord
  2
*D21
340
0
 70
     0
280
     1
281
     0
  0
BLOCK_RECORD
  5
13973
330
1
100
AcDbSymbolTableRecord
100
AcDbBlockTableRecord
  2
*D22
340
0
 70
     0
280
     1
281
     0
  0
BLOCK_RECORD
  5
13981
330
1
100
AcDbSymbolTableRecord
100
AcDbBlockTableRecord
  2
*D23
340
0
 70
     0
280
     1
281
     0
  0
BLOCK_RECORD
  5
1398D
330
1
100
AcDbSymbolTableRecord
100
AcDbBlockTableRecord
  2
*D24
340
0
 70
     0
280
     1
281
     0
  0
BLOCK_RECORD
  5
1399B
330
1
100
AcDbSymbolTableRecord
100
AcDbBlockTableRecord
  2
*D25
340
0
 70
     0
280
     1
281
     0
  0
BLOCK_RECORD
  5
139A7
330
1
100
AcDbSymbolTableRecord
100
AcDbBlockTableRecord
  2
*D26
340
0
 70
     0
280
     1
281
     0
  0
BLOCK_RECORD
  5
139B3
330
1
100
AcDbSymbolTableRecord
100
AcDbBlockTableRecord
  2
*D27
340
0
 70
     0
280
     1
281
     0
  0
BLOCK_RECORD
  5
139C1
330
1
100
AcDbSymbolTableRecord
100
AcDbBlockTableRecord
  2
*D28
340
0
 70
     0
280
     1
281
     0
  0
BLOCK_RECORD
  5
139E7
330
1
100
AcDbSymbolTableRecord
100
AcDbBlockTableRecord
  2
*D29
340
0
 70
     0
280
     1
281
     0
  0
BLOCK_RECORD
  5
139F5
330
1
100
AcDbSymbolTableRecord
100
AcDbBlockTableRecord
  2
*D30
340
0
 70
     0
280
     1
281
     0
  0
BLOCK_RECORD
  5
13A02
330
1
100
AcDbSymbolTableRecord
100
AcDbBlockTableRecord
  2
*D31
340
0
 70
     0
280
     1
281
     0
  0
BLOCK_RECORD
  5
13A10
330
1
100
AcDbSymbolTableRecord
100
AcDbBlockTableRecord
  2
*D32
340
0
 70
     0
280
     1
281
     0
  0
BLOCK_RECORD
  5
13A1E
330
1
100
AcDbSymbolTableRecord
100
AcDbBlockTableRecord
  2
*D33
340
0
 70
     0
280
     1
281
     0
  0
BLOCK_RECORD
  5
13A2B
330
1
100
AcDbSymbolTableRecord
100
AcDbBlockTableRecord
  2
*D34
340
0
 70
     0
280
     1
281
     0
  0
BLOCK_RECORD
  5
13A39
330
1
100
AcDbSymbolTableRecord
100
AcDbBlockTableRecord
  2
*D35
340
0
 70
     0
280
     1
281
     0
  0
BLOCK_RECORD
  5
13A45
330
1
100
AcDbSymbolTableRecord
100
AcDbBlockTableRecord
  2
*D36
340
0
 70
     0
280
     1
281
     0
  0
BLOCK_RECORD
  5
13A53
330
1
100
AcDbSymbolTableRecord
100
AcDbBlockTableRecord
  2
*D37
340
0
 70
     0
280
     1
281
     0
  0
BLOCK_RECORD
  5
13A5F
330
1
100
AcDbSymbolTableRecord
100
AcDbBlockTableRecord
  2
*D38
340
0
 70
     0
280
     1
281
     0
  0
BLOCK_RECORD
  5
13A6B
330
1
100
AcDbSymbolTableRecord
100
AcDbBlockTableRecord
  2
*D39
340
0
 70
     0
280
     1
281
     0
  0
BLOCK_RECORD
  5
14182
330
1
100
AcDbSymbolTableRecord
100
AcDbBlockTableRecord
  2
*D40
340
0
 70
     0
280
     1
281
     0
  0
BLOCK_RECORD
  5
1418E
330
1
100
AcDbSymbolTableRecord
100
AcDbBlockTableRecord
  2
*D41
340
0
 70
     0
280
     1
281
     0
  0
ENDTAB
  0
ENDSEC
  0
SECTION
  2
BLOCKS
  0
BLOCK
  5
20
330
1F
100
AcDbEntity
  8
0
100
AcDbBlockBegin
  2
*Model_Space
 70
     0
 10
0.0
 20
0.0
 30
0.0
  3
*Model_Space
  1

  0
ENDBLK
  5
21
330
1F
100
AcDbEntity
  8
0
100
AcDbBlockEnd
  0
BLOCK
  5
78F
330
78D
100
AcDbEntity
 67
     1
  8
0
100
AcDbBlockBegin
  2
*Paper_Space
 70
     0
 10
0.0
 20
0.0
 30
0.0
  3
*Paper_Space
  1

  0
ENDBLK
  5
790
330
78D
100
AcDbEntity
 67
     1
  8
0
100
AcDbBlockEnd
  0
BLOCK
  5
C09
330
C08
100
AcDbEntity
  8
0
100
AcDbBlockBegin
  2
_OPEN
 70
     0
 10
0.0
 20
0.0
 30
0.0
  3
_OPEN
  1

  0
LINE
  5
C0A
330
C08
100
AcDbEntity
  8
0
  6
ByBlock
 62
     0
100
AcDbLine
 10
-1.0
 20
0.1666666666666666
 30
0.0
 11
0.0
 21
0.0
 31
0.0
  0
LINE
  5
C0B
330
C08
100
AcDbEntity
  8
0
  6
ByBlock
 62
     0
100
AcDbLine
 10
0.0
 20
0.0
 30
0.0
 11
-1.0
 21
-0.1666666666666666
 31
0.0
  0
LINE
  5
C0C
330
C08
100
AcDbEntity
  8
0
  6
ByBlock
 62
     0
100
AcDbLine
 10
0.0
 20
0.0
 30
0.0
 11
-1.0
 21
0.0
 31
0.0
  0
ENDBLK
  5
C0D
330
C08
100
AcDbEntity
  8
0
100
AcDbBlockEnd
  0
BLOCK
  5
1386C
330
1386B
100
AcDbEntity
  8
0
100
AcDbBlockBegin
  2
*D1
 70
     1
 10
0.0
 20
0.0
 30
0.0
  3
*D1
  1

  0
LINE
  5
13F67
330
1386B
100
AcDbEntity
  8
寸法線
 62
     0
440
 16777216
370
    -2
100
AcDbLine
 10
1400.000000000002
 20
1426.250014756324
 30
0.0
 11
1400.000000000002
 21
1275.00002387864
 31
0.0
  0
LINE
  5
13F68
330
1386B
100
AcDbEntity
  8
寸法線
 62
     0
440
 16777216
370
    -2
100
AcDbLine
 10
2100.000000000002
 20
1426.250014756324
 30
0.0
 11
2100.000000000002
 21
1275.00002387864
 31
0.0
  0
LINE
  5
13F69
330
1386B
100
AcDbEntity
  8
寸法線
 62
     0
440
 16777216
370
    -2
100
AcDbLine
 10
1420.000000000002
 20
1285.00002387864
 30
0.0
 11
2080.000000000002
 21
1285.00002387864
 31
0.0
  0
INSERT
  5
13F6A
330
1386B
100
AcDbEntity
  8
寸法線
 62
     0
440
 16777216
370
    -2
100
AcDbBlockReference
  2
_OPEN
 10
1400.000000000002
 20
1285.00002387864
 30
0.0
 41
20.0
 42
20.0
 43
20.0
 50
180.0
  0
INSERT
  5
13F6B
330
1386B
100
AcDbEntity
  8
寸法線
 62
     0
440
 16777216
370
    -2
100
AcDbBlockReference
  2
_OPEN
 10
2100.000000000002
 20
1285.00002387864
 30
0.0
 41
20.0
 42
20.0
 43
20.0
  0
MTEXT
  5
13F6C
330
1386B
100
AcDbEntity
  8
寸法線
 62
     0
440
 16777216
100
AcDbMText
 10
1750.000000000001
 20
1306.25002387864
 30
0.0
 40
25.0
 41
0.0
 46
0.0
 71
     5
 72
     1
  1
\A1;700
 73
     1
 44
1.0
  0
POINT
  5
13F6D
330
1386B
100
AcDbEntity
  8
Defpoints
 62
     0
440
 16777216
100
AcDbPoint
 10
1400.000000000002
 20
1435.000014756324
 30
0.0
  0
POINT
  5
13F6E
330
1386B
100
AcDbEntity
  8
Defpoints
 62
     0
440
 16777216
100
AcDbPoint
 10
2100.000000000002
 20
1435.000014756324
 30
0.0
  0
POINT
  5
13F6F
330
1386B
100
AcDbEntity
  8
Defpoints
 62
     0
440
 16777216
100
AcDbPoint
 10
2100.000000000002
 20
1285.00002387864
 30
0.0
  0
ENDBLK
  5
1386D
330
1386B
100
AcDbEntity
  8
0
100
AcDbBlockEnd
  0
BLOCK
  5
13878
330
13877
100
AcDbEntity
  8
0
100
AcDbBlockBegin
  2
*D2
 70
     1
 10
0.0
 20
0.0
 30
0.0
  3
*D2
  1

  0
LINE
  5
13F70
330
13877
100
AcDbEntity
  8
寸法線
 62
     0
440
 16777216
370
    -2
100
AcDbLine
 10
849.9999801868925
 20
1436.25002387864
 30
0.0
 11
849.9999801868925
 21
1275.00002387864
 31
0.0
  0
LINE
  5
13F71
330
13877
100
AcDbEntity
  8
寸法線
 62
     0
440
 16777216
370
    -2
100
AcDbLine
 10
1399.999980186892
 20
1426.250061098314
 30
0.0
 11
1399.999980186892
 21
1275.00002387864
 31
0.0
  0
LINE
  5
13F72
330
13877
100
AcDbEntity
  8
寸法線
 62
     0
440
 16777216
370
    -2
100
AcDbLine
 10
869.9999801868925
 20
1285.00002387864
 30
0.0
 11
1379.999980186892
 21
1285.00002387864
 31
0.0
  0
INSERT
  5
13F73
330
13877
100
AcDbEntity
  8
寸法線
 62
     0
440
 16777216
370
    -2
100
AcDbBlockReference
  2
_OPEN
 10
849.9999801868925
 20
1285.00002387864
 30
0.0
 41
20.0
 42
20.0
 43
20.0
 50
180.0
  0
INSERT
  5
13F74
330
13877
100
AcDbEntity
  8
寸法線
 62
     0
440
 16777216
370
    -2
100
AcDbBlockReference
  2
_OPEN
 10
1399.999980186892
 20
1285.00002387864
 30
0.0
 41
20.0
 42
20.0
 43
20.0
  0
MTEXT
  5
13F75
330
13877
100
AcDbEntity
  8
寸法線
 62
     0
440
 16777216
100
AcDbMText
 10
1124.999980186892
 20
1306.25002387864
 30
0.0
 40
25.0
 41
0.0
 46
0.0
 71
     5
 72
     1
  1
\A1;550
 73
     1
 44
1.0
  0
POINT
  5
13F76
330
13877
100
AcDbEntity
  8
Defpoints
 62
     0
440
 16777216
100
AcDbPoint
 10
849.9999801868925
 20
1445.00002387864
 30
0.0
  0
POINT
  5
13F77
330
13877
100
AcDbEntity
  8
Defpoints
 62
     0
440
 16777216
100
AcDbPoint
 10
1399.999980186892
 20
1435.000061098314
 30
0.0
  0
POINT
  5
13F78
330
13877
100
AcDbEntity
  8
Defpoints
 62
     0
440
 16777216
100
AcDbPoint
 10
1399.999980186892
 20
1285.00002387864
 30
0.0
  0
ENDBLK
  5
13879
330
13877
100
AcDbEntity
  8
0
100
AcDbBlockEnd
  0
BLOCK
  5
13884
330
13883
100
AcDbEntity
  8
0
100
AcDbBlockBegin
  2
*D3
 70
     1
 10
0.0
 20
0.0
 30
0.0
  3
*D3
  1

  0
LINE
  5
13F79
330
13883
100
AcDbEntity
  8
寸法線
 62
     0
440
 16777216
370
    -2
100
AcDbLine
 10
841.249980186893
 20
1845.000023878641
 30
0.0
 11
719.9999801868921
 21
1845.000023878641
 31
0.0
  0
LINE
  5
13F7A
330
13883
100
AcDbEntity
  8
寸法線
 62
     0
440
 16777216
370
    -2
100
AcDbLine
 10
841.249980186893
 20
1445.00002387864
 30
0.0
 11
719.9999801868922
 21
1445.00002387864
 31
0.0
  0
LINE
  5
13F7B
330
13883
100
AcDbEntity
  8
寸法線
 62
     0
440
 16777216
370
    -2
100
AcDbLine
 10
729.9999801868921
 20
1825.000023878641
 30
0.0
 11
729.9999801868922
 21
1465.00002387864
 31
0.0
  0
INSERT
  5
13F7C
330
13883
100
AcDbEntity
  8
寸法線
 62
     0
440
 16777216
370
    -2
100
AcDbBlockReference
  2
_OPEN
 10
729.9999801868921
 20
1845.000023878641
 30
0.0
 41
20.0
 42
20.0
 43
20.0
 50
90.0
  0
INSERT
  5
13F7D
330
13883
100
AcDbEntity
  8
寸法線
 62
     0
440
 16777216
370
    -2
100
AcDbBlockReference
  2
_OPEN
 10
729.9999801868922
 20
1445.00002387864
 30
0.0
 41
20.0
 42
20.0
 43
20.0
 50
270.0
  0
MTEXT
  5
13F7E
330
13883
100
AcDbEntity
  8
寸法線
 62
     0
440
 16777216
100
AcDbMText
 10
708.7499801868926
 20
1645.00002387864
 30
0.0
 40
25.0
 41
0.0
 46
0.0
 71
     5
 72
     1
  1
\A1;400
 11
0.0000000000000001
 21
1.0
 31
0.0
 73
     1
 44
1.0
  0
POINT
  5
13F7F
330
13883
100
AcDbEntity
  8
Defpoints
 62
     0
440
 16777216
100
AcDbPoint
 10
849.9999801868931
 20
1845.000023878641
 30
0.0
  0
POINT
  5
13F80
330
13883
100
AcDbEntity
  8
Defpoints
 62
     0
440
 16777216
100
AcDbPoint
 10
849.9999801868931
 20
1445.00002387864
 30
0.0
  0
POINT
  5
13F81
330
13883
100
AcDbEntity
  8
Defpoints
 62
     0
440
 16777216
100
AcDbPoint
 10
729.9999801868922
 20
1445.00002387864
 30
0.0
  0
ENDBLK
  5
13885
330
13883
100
AcDbEntity
  8
0
100
AcDbBlockEnd
  0
BLOCK
  5
13890
330
1388F
100
AcDbEntity
  8
0
100
AcDbBlockBegin
  2
*D4
 70
     1
 10
0.0
 20
0.0
 30
0.0
  3
*D4
  1

  0
LINE
  5
13F82
330
1388F
100
AcDbEntity
  8
寸法線
 62
     0
440
 16777216
370
    -2
100
AcDbLine
 10
849.9999801868925
 20
2444.75004309357
 30
0.0
 11
849.9999801868925
 21
2615.000005873897
 31
0.0
  0
LINE
  5
13F83
330
1388F
100
AcDbEntity
  8
寸法線
 62
     0
440
 16777216
370
    -2
100
AcDbLine
 10
868.9999801868925
 20
2453.750005873896
 30
0.0
 11
868.9999801868925
 21
2615.000005873897
 31
0.0
  0
LINE
  5
13F84
330
1388F
100
AcDbEntity
  8
寸法線
 62
     0
440
 16777216
370
    -2
100
AcDbLine
 10
829.9999801868926
 20
2605.000005873897
 30
0.0
 11
809.9999801868925
 21
2605.000005873897
 31
0.0
  0
LINE
  5
13F85
330
1388F
100
AcDbEntity
  8
寸法線
 62
     0
440
 16777216
370
    -2
100
AcDbLine
 10
888.9999801868926
 20
2605.000005873897
 30
0.0
 11
908.9999801868925
 21
2605.000005873897
 31
0.0
  0
LINE
  5
13F86
330
1388F
100
AcDbEntity
  8
寸法線
 62
     0
440
 16777216
370
    -2
100
AcDbLine
 10
849.9999801868925
 20
2605.000005873897
 30
0.0
 11
868.9999801868925
 21
2605.000005873897
 31
0.0
  0
INSERT
  5
13F87
330
1388F
100
AcDbEntity
  8
寸法線
 62
     0
440
 16777216
370
    -2
100
AcDbBlockReference
  2
_OPEN
 10
849.9999801868925
 20
2605.000005873897
 30
0.0
 41
20.0
 42
20.0
 43
20.0
  0
INSERT
  5
13F88
330
1388F
100
AcDbEntity
  8
寸法線
 62
     0
440
 16777216
370
    -2
100
AcDbBlockReference
  2
_OPEN
 10
868.9999801868925
 20
2605.000005873897
 30
0.0
 41
20.0
 42
20.0
 43
20.0
 50
180.0
  0
MTEXT
  5
13F89
330
1388F
100
AcDbEntity
  8
寸法線
 62
     0
440
 16777216
100
AcDbMText
 10
859.4999801868926
 20
2626.250005873897
 30
0.0
 40
25.0
 41
0.0
 46
0.0
 71
     5
 72
     1
  1
\A1;19
 73
     1
 44
1.0
  0
POINT
  5
13F8A
330
1388F
100
AcDbEntity
  8
Defpoints
 62
     0
440
 16777216
100
AcDbPoint
 10
849.9999801868925
 20
2436.00004309357
 30
0.0
  0
POINT
  5
13F8B
330
1388F
100
AcDbEntity
  8
Defpoints
 62
     0
440
 16777216
100
AcDbPoint
 10
868.9999801868925
 20
2445.000005873896
 30
0.0
  0
POINT
  5
13F8C
330
1388F
100
AcDbEntity
  8
Defpoints
 62
     0
440
 16777216
100
AcDbPoint
 10
868.9999801868925
 20
2605.000005873897
 30
0.0
  0
ENDBLK
  5
13891
330
1388F
100
AcDbEntity
  8
0
100
AcDbBlockEnd
  0
BLOCK
  5
1389E
330
1389D
100
AcDbEntity
  8
0
100
AcDbBlockBegin
  2
*D5
 70
     1
 10
0.0
 20
0.0
 30
0.0
  3
*D5
  1

  0
LINE
  5
13F8D
330
1389D
100
AcDbEntity
  8
寸法線
 62
     0
440
 16777216
370
    -2
100
AcDbLine
 10
868.9999801868925
 20
2453.750005873896
 30
0.0
 11
868.9999801868925
 21
2615.000005873897
 31
0.0
  0
LINE
  5
13F8E
330
1389D
100
AcDbEntity
  8
寸法線
 62
     0
440
 16777216
370
    -2
100
AcDbLine
 10
1399.999980186892
 20
2463.750043093571
 30
0.0
 11
1399.999980186892
 21
2615.000005873897
 31
0.0
  0
LINE
  5
13F8F
330
1389D
100
AcDbEntity
  8
寸法線
 62
     0
440
 16777216
370
    -2
100
AcDbLine
 10
888.9999801868926
 20
2605.000005873897
 30
0.0
 11
1379.999980186892
 21
2605.000005873897
 31
0.0
  0
INSERT
  5
13F90
330
1389D
100
AcDbEntity
  8
寸法線
 62
     0
440
 16777216
370
    -2
100
AcDbBlockReference
  2
_OPEN
 10
868.9999801868925
 20
2605.000005873897
 30
0.0
 41
20.0
 42
20.0
 43
20.0
 50
180.0
  0
INSERT
  5
13F91
330
1389D
100
AcDbEntity
  8
寸法線
 62
     0
440
 16777216
370
    -2
100
AcDbBlockReference
  2
_OPEN
 10
1399.999980186892
 20
2605.000005873897
 30
0.0
 41
20.0
 42
20.0
 43
20.0
  0
MTEXT
  5
13F92
330
1389D
100
AcDbEntity
  8
寸法線
 62
     0
440
 16777216
100
AcDbMText
 10
1134.499980186892
 20
2626.250005873897
 30
0.0
 40
25.0
 41
0.0
 46
0.0
 71
     5
 72
     1
  1
\A1;531
 73
     1
 44
1.0
  0
POINT
  5
13F93
330
1389D
100
AcDbEntity
  8
Defpoints
 62
     0
440
 16777216
100
AcDbPoint
 10
868.9999801868925
 20
2445.000005873896
 30
0.0
  0
POINT
  5
13F94
330
1389D
100
AcDbEntity
  8
Defpoints
 62
     0
440
 16777216
100
AcDbPoint
 10
1399.999980186892
 20
2455.000043093571
 30
0.0
  0
POINT
  5
13F95
330
1389D
100
AcDbEntity
  8
Defpoints
 62
     0
440
 16777216
100
AcDbPoint
 10
1399.999980186892
 20
2605.000005873897
 30
0.0
  0
ENDBLK
  5
1389F
330
1389D
100
AcDbEntity
  8
0
100
AcDbBlockEnd
  0
BLOCK
  5
138AA
330
138A9
100
AcDbEntity
  8
0
100
AcDbBlockBegin
  2
*D6
 70
     1
 10
0.0
 20
0.0
 30
0.0
  3
*D6
  1

  0
LINE
  5
13F96
330
138A9
100
AcDbEntity
  8
寸法線
 62
     0
440
 16777216
370
    -2
100
AcDbLine
 10
860.249980186893
 20
2445.000005873897
 30
0.0
 11
719.9999801868919
 21
2445.000005873897
 31
0.0
  0
LINE
  5
13F97
330
138A9
100
AcDbEntity
  8
寸法線
 62
     0
440
 16777216
370
    -2
100
AcDbLine
 10
860.249980186893
 20
2045.000005873896
 30
0.0
 11
719.9999801868921
 21
2045.000005873896
 31
0.0
  0
LINE
  5
13F98
330
138A9
100
AcDbEntity
  8
寸法線
 62
     0
440
 16777216
370
    -2
100
AcDbLine
 10
729.999980186892
 20
2425.000005873897
 30
0.0
 11
729.9999801868921
 21
2065.000005873896
 31
0.0
  0
INSERT
  5
13F99
330
138A9
100
AcDbEntity
  8
寸法線
 62
     0
440
 16777216
370
    -2
100
AcDbBlockReference
  2
_OPEN
 10
729.999980186892
 20
2445.000005873897
 30
0.0
 41
20.0
 42
20.0
 43
20.0
 50
90.0
  0
INSERT
  5
13F9A
330
138A9
100
AcDbEntity
  8
寸法線
 62
     0
440
 16777216
370
    -2
100
AcDbBlockReference
  2
_OPEN
 10
729.9999801868921
 20
2045.000005873896
 30
0.0
 41
20.0
 42
20.0
 43
20.0
 50
270.0
  0
MTEXT
  5
13F9B
330
138A9
100
AcDbEntity
  8
寸法線
 62
     0
440
 16777216
100
AcDbMText
 10
708.7499801868926
 20
2245.000005873896
 30
0.0
 40
25.0
 41
0.0
 46
0.0
 71
     5
 72
     1
  1
\A1;400
 11
0.0000000000000001
 21
1.0
 31
0.0
 73
     1
 44
1.0
  0
POINT
  5
13F9C
330
138A9
100
AcDbEntity
  8
Defpoints
 62
     0
440
 16777216
100
AcDbPoint
 10
868.999980186893
 20
2445.000005873897
 30
0.0
  0
POINT
  5
13F9D
330
138A9
100
AcDbEntity
  8
Defpoints
 62
     0
440
 16777216
100
AcDbPoint
 10
868.999980186893
 20
2045.000005873896
 30
0.0
  0
POINT
  5
13F9E
330
138A9
100
AcDbEntity
  8
Defpoints
 62
     0
440
 16777216
100
AcDbPoint
 10
729.9999801868921
 20
2045.000005873896
 30
0.0
  0
ENDBLK
  5
138AB
330
138A9
100
AcDbEntity
  8
0
100
AcDbBlockEnd
  0
BLOCK
  5
138B6
330
138B5
100
AcDbEntity
  8
0
100
AcDbBlockBegin
  2
*D7
 70
     1
 10
0.0
 20
0.0
 30
0.0
  3
*D7
  1

  0
LINE
  5
13F9F
330
138B5
100
AcDbEntity
  8
寸法線
 62
     0
440
 16777216
370
    -2
100
AcDbLine
 10
849.9999801868925
 20
2444.75004309357
 30
0.0
 11
849.9999801868925
 21
2695.000005873897
 31
0.0
  0
LINE
  5
13FA0
330
138B5
100
AcDbEntity
  8
寸法線
 62
     0
440
 16777216
370
    -2
100
AcDbLine
 10
1399.999980186892
 20
2463.750043093571
 30
0.0
 11
1399.999980186892
 21
2695.000005873897
 31
0.0
  0
LINE
  5
13FA1
330
138B5
100
AcDbEntity
  8
寸法線
 62
     0
440
 16777216
370
    -2
100
AcDbLine
 10
869.9999801868925
 20
2685.000005873897
 30
0.0
 11
1379.999980186892
 21
2685.000005873897
 31
0.0
  0
INSERT
  5
13FA2
330
138B5
100
AcDbEntity
  8
寸法線
 62
     0
440
 16777216
370
    -2
100
AcDbBlockReference
  2
_OPEN
 10
849.9999801868925
 20
2685.000005873897
 30
0.0
 41
20.0
 42
20.0
 43
20.0
 50
180.0
  0
INSERT
  5
13FA3
330
138B5
100
AcDbEntity
  8
寸法線
 62
     0
440
 16777216
370
    -2
100
AcDbBlockReference
  2
_OPEN
 10
1399.999980186892
 20
2685.000005873897
 30
0.0
 41
20.0
 42
20.0
 43
20.0
  0
MTEXT
  5
13FA4
330
138B5
100
AcDbEntity
  8
寸法線
 62
     0
440
 16777216
100
AcDbMText
 10
1124.999980186892
 20
2706.250005873897
 30
0.0
 40
25.0
 41
0.0
 46
0.0
 71
     5
 72
     1
  1
\A1;550
 73
     1
 44
1.0
  0
MTEXT
  5
13FA5
330
138B5
100
AcDbEntity
  8
寸法線
 62
     0
440
 16777216
100
AcDbMText
 10
1124.999980186892
 20
2663.750005873897
 30
0.0
 40
25.0
 41
0.0
 46
0.0
 71
     5
 72
     1
  1
\A1;H型鋼（連結部）
 73
     1
 44
1.0
  0
POINT
  5
13FA6
330
138B5
100
AcDbEntity
  8
Defpoints
 62
     0
440
 16777216
100
AcDbPoint
 10
849.9999801868925
 20
2436.00004309357
 30
0.0
  0
POINT
  5
13FA7
330
138B5
100
AcDbEntity
  8
Defpoints
 62
     0
440
 16777216
100
AcDbPoint
 10
1399.999980186892
 20
2455.000043093571
 30
0.0
  0
POINT
  5
13FA8
330
138B5
100
AcDbEntity
  8
Defpoints
 62
     0
440
 16777216
100
AcDbPoint
 10
1399.999980186892
 20
2685.000005873897
 30
0.0
  0
ENDBLK
  5
138B7
330
138B5
100
AcDbEntity
  8
0
100
AcDbBlockEnd
  0
BLOCK
  5
138C3
330
138C2
100
AcDbEntity
  8
0
100
AcDbBlockBegin
  2
*D8
 70
     1
 10
0.0
 20
0.0
 30
0.0
  3
*D8
  1

  0
LINE
  5
13FA9
330
138C2
100
AcDbEntity
  8
寸法線
 62
     0
440
 16777216
370
    -2
100
AcDbLine
 10
1400.000000000002
 20
2463.750019680227
 30
0.0
 11
1400.000000000002
 21
2695.000005873897
 31
0.0
  0
LINE
  5
13FAA
330
138C2
100
AcDbEntity
  8
寸法線
 62
     0
440
 16777216
370
    -2
100
AcDbLine
 10
2100.000000000002
 20
2463.74999675158
 30
0.0
 11
2100.000000000002
 21
2695.000005873897
 31
0.0
  0
LINE
  5
13FAB
330
138C2
100
AcDbEntity
  8
寸法線
 62
     0
440
 16777216
370
    -2
100
AcDbLine
 10
1420.000000000002
 20
2685.000005873897
 30
0.0
 11
2080.000000000002
 21
2685.000005873897
 31
0.0
  0
INSERT
  5
13FAC
330
138C2
100
AcDbEntity
  8
寸法線
 62
     0
440
 16777216
370
    -2
100
AcDbBlockReference
  2
_OPEN
 10
1400.000000000002
 20
2685.000005873897
 30
0.0
 41
20.0
 42
20.0
 43
20.0
 50
180.0
  0
INSERT
  5
13FAD
330
138C2
100
AcDbEntity
  8
寸法線
 62
     0
440
 16777216
370
    -2
100
AcDbBlockReference
  2
_OPEN
 10
2100.000000000002
 20
2685.000005873897
 30
0.0
 41
20.0
 42
20.0
 43
20.0
  0
MTEXT
  5
13FAE
330
138C2
100
AcDbEntity
  8
寸法線
 62
     0
440
 16777216
100
AcDbMText
 10
1750.000000000001
 20
2706.250005873897
 30
0.0
 40
25.0
 41
0.0
 46
0.0
 71
     5
 72
     1
  1
\A1;W=700
 73
     1
 44
1.0
  0
MTEXT
  5
13FAF
330
138C2
100
AcDbEntity
  8
寸法線
 62
     0
440
 16777216
100
AcDbMText
 10
1750.000000000001
 20
2663.750005873897
 30
0.0
 40
25.0
 41
0.0
 46
0.0
 71
     5
 72
     1
  1
\A1;空洞金具
 73
     1
 44
1.0
  0
POINT
  5
13FB0
330
138C2
100
AcDbEntity
  8
Defpoints
 62
     0
440
 16777216
100
AcDbPoint
 10
1400.000000000002
 20
2455.000019680227
 30
0.0
  0
POINT
  5
13FB1
330
138C2
100
AcDbEntity
  8
Defpoints
 62
     0
440
 16777216
100
AcDbPoint
 10
2100.000000000002
 20
2454.99999675158
 30
0.0
  0
POINT
  5
13FB2
330
138C2
100
AcDbEntity
  8
Defpoints
 62
     0
440
 16777216
100
AcDbPoint
 10
2100.000000000002
 20
2685.000005873897
 30
0.0
  0
ENDBLK
  5
138C4
330
138C2
100
AcDbEntity
  8
0
100
AcDbBlockEnd
  0
BLOCK
  5
138D0
330
138CF
100
AcDbEntity
  8
0
100
AcDbBlockBegin
  2
*D9
 70
     1
 10
0.0
 20
0.0
 30
0.0
  3
*D9
  1

  0
LINE
  5
13FB3
330
138CF
100
AcDbEntity
  8
寸法線
 62
     0
440
 16777216
370
    -2
100
AcDbLine
 10
850.0000000000309
 20
2444.750019680241
 30
0.0
 11
850.0000000000309
 21
2775.000005873897
 31
0.0
  0
LINE
  5
13FB4
330
138CF
100
AcDbEntity
  8
寸法線
 62
     0
440
 16777216
370
    -2
100
AcDbLine
 10
2649.999999999971
 20
2444.750005873911
 30
0.0
 11
2649.999999999971
 21
2775.000005873897
 31
0.0
  0
LINE
  5
13FB5
330
138CF
100
AcDbEntity
  8
寸法線
 62
     0
440
 16777216
370
    -2
100
AcDbLine
 10
870.000000000031
 20
2765.000005873897
 30
0.0
 11
2629.999999999971
 21
2765.000005873897
 31
0.0
  0
INSERT
  5
13FB6
330
138CF
100
AcDbEntity
  8
寸法線
 62
     0
440
 16777216
370
    -2
100
AcDbBlockReference
  2
_OPEN
 10
850.0000000000309
 20
2765.000005873897
 30
0.0
 41
20.0
 42
20.0
 43
20.0
 50
180.0
  0
INSERT
  5
13FB7
330
138CF
100
AcDbEntity
  8
寸法線
 62
     0
440
 16777216
370
    -2
100
AcDbBlockReference
  2
_OPEN
 10
2649.999999999971
 20
2765.000005873897
 30
0.0
 41
20.0
 42
20.0
 43
20.0
  0
MTEXT
  5
13FB8
330
138CF
100
AcDbEntity
  8
寸法線
 62
     0
440
 16777216
100
AcDbMText
 10
1750.000000000001
 20
2786.250005873897
 30
0.0
 40
25.0
 41
0.0
 46
0.0
 71
     5
 72
     1
  1
\A1;スルーサーＢ L=1800
 73
     1
 44
1.0
  0
POINT
  5
13FB9
330
138CF
100
AcDbEntity
  8
Defpoints
 62
     0
440
 16777216
100
AcDbPoint
 10
850.0000000000309
 20
2436.000019680241
 30
0.0
  0
POINT
  5
13FBA
330
138CF
100
AcDbEntity
  8
Defpoints
 62
     0
440
 16777216
100
AcDbPoint
 10
2649.999999999971
 20
2436.000005873911
 30
0.0
  0
POINT
  5
13FBB
330
138CF
100
AcDbEntity
  8
Defpoints
 62
     0
440
 16777216
100
AcDbPoint
 10
2649.999999999971
 20
2765.000005873897
 30
0.0
  0
ENDBLK
  5
138D1
330
138CF
100
AcDbEntity
  8
0
100
AcDbBlockEnd
  0
BLOCK
  5
138DC
330
138DB
100
AcDbEntity
  8
0
100
AcDbBlockBegin
  2
*D10
 70
     1
 10
0.0
 20
0.0
 30
0.0
  3
*D10
  1

  0
LINE
  5
1405E
330
138DB
100
AcDbEntity
  8
寸法線
 62
     0
440
 16777216
370
    -2
100
AcDbLine
 10
781.2499439837933
 20
589.9997577728525
 30
0.0
 11
689.9999439837929
 21
589.9997577728523
 31
0.0
  0
LINE
  5
1405F
330
138DB
100
AcDbEntity
  8
寸法線
 62
     0
440
 16777216
370
    -2
100
AcDbLine
 10
781.2499439837933
 20
1009.999757772853
 30
0.0
 11
689.9999439837928
 21
1009.999757772853
 31
0.0
  0
LINE
  5
14060
330
138DB
100
AcDbEntity
  8
寸法線
 62
     0
440
 16777216
370
    -2
100
AcDbLine
 10
699.9999439837929
 20
609.9997577728523
 30
0.0
 11
699.9999439837928
 21
989.9997577728525
 31
0.0
  0
INSERT
  5
14061
330
138DB
100
AcDbEntity
  8
寸法線
 62
     0
440
 16777216
370
    -2
100
AcDbBlockReference
  2
_OPEN
 10
699.9999439837929
 20
589.9997577728523
 30
0.0
 41
20.0
 42
20.0
 43
20.0
 50
270.0
  0
INSERT
  5
14062
330
138DB
100
AcDbEntity
  8
寸法線
 62
     0
440
 16777216
370
    -2
100
AcDbBlockReference
  2
_OPEN
 10
699.9999439837928
 20
1009.999757772853
 30
0.0
 41
20.0
 42
20.0
 43
20.0
 50
90.0
  0
MTEXT
  5
14063
330
138DB
100
AcDbEntity
  8
寸法線
 62
     0
440
 16777216
100
AcDbMText
 10
678.7474833538716
 20
799.9997577728522
 30
0.0
 40
25.0
 41
0.0
 46
0.0
 71
     5
 72
     1
  1
\A1;420
 11
0.0000000000000001
 21
1.0
 31
0.0
 73
     1
 44
1.0
  0
POINT
  5
14064
330
138DB
100
AcDbEntity
  8
Defpoints
 62
     0
440
 16777216
100
AcDbPoint
 10
789.9999439837934
 20
589.9997577728525
 30
0.0
  0
POINT
  5
14065
330
138DB
100
AcDbEntity
  8
Defpoints
 62
     0
440
 16777216
100
AcDbPoint
 10
789.9999439837934
 20
1009.999757772853
 30
0.0
  0
POINT
  5
14066
330
138DB
100
AcDbEntity
  8
Defpoints
 62
     0
440
 16777216
100
AcDbPoint
 10
699.9999439837928
 20
1009.999757772853
 30
0.0
  0
ENDBLK
  5
138DD
330
138DB
100
AcDbEntity
  8
0
100
AcDbBlockEnd
  0
BLOCK
  5
138E8
330
138E7
100
AcDbEntity
  8
0
100
AcDbBlockBegin
  2
*D11
 70
     1
 10
0.0
 20
0.0
 30
0.0
  3
*D11
  1

  0
LINE
  5
14067
330
138E7
100
AcDbEntity
  8
寸法線
 62
     0
440
 16777216
370
    -2
100
AcDbLine
 10
2330.000120199395
 20
566.2502539956571
 30
0.0
 11
2330.000120199395
 21
489.9999830784627
 31
0.0
  0
LINE
  5
14068
330
138E7
100
AcDbEntity
  8
寸法線
 62
     0
440
 16777216
370
    -2
100
AcDbLine
 10
2670.000120199396
 20
566.2502539956571
 30
0.0
 11
2670.000120199396
 21
489.9999830784627
 31
0.0
  0
LINE
  5
14069
330
138E7
100
AcDbEntity
  8
寸法線
 62
     0
440
 16777216
370
    -2
100
AcDbLine
 10
2350.000120199396
 20
499.9999830784627
 30
0.0
 11
2650.000120199396
 21
499.9999830784627
 31
0.0
  0
INSERT
  5
1406A
330
138E7
100
AcDbEntity
  8
寸法線
 62
     0
440
 16777216
370
    -2
100
AcDbBlockReference
  2
_OPEN
 10
2330.000120199395
 20
499.9999830784627
 30
0.0
 41
20.0
 42
20.0
 43
20.0
 50
180.0
  0
INSERT
  5
1406B
330
138E7
100
AcDbEntity
  8
寸法線
 62
     0
440
 16777216
370
    -2
100
AcDbBlockReference
  2
_OPEN
 10
2670.000120199396
 20
499.9999830784627
 30
0.0
 41
20.0
 42
20.0
 43
20.0
  0
MTEXT
  5
1406C
330
138E7
100
AcDbEntity
  8
寸法線
 62
     0
440
 16777216
100
AcDbMText
 10
2500.000121120823
 20
521.2499830784627
 30
0.0
 40
25.0
 41
0.0
 46
0.0
 71
     5
 72
     1
  1
\A1;340
 73
     1
 44
1.0
  0
POINT
  5
1406D
330
138E7
100
AcDbEntity
  8
Defpoints
 62
     0
440
 16777216
100
AcDbPoint
 10
2330.000120199395
 20
575.0002539956572
 30
0.0
  0
POINT
  5
1406E
330
138E7
100
AcDbEntity
  8
Defpoints
 62
     0
440
 16777216
100
AcDbPoint
 10
2670.000120199396
 20
575.0002539956572
 30
0.0
  0
POINT
  5
1406F
330
138E7
100
AcDbEntity
  8
Defpoints
 62
     0
440
 16777216
100
AcDbPoint
 10
2670.000120199396
 20
499.9999830784627
 30
0.0
  0
ENDBLK
  5
138E9
330
138E7
100
AcDbEntity
  8
0
100
AcDbBlockEnd
  0
BLOCK
  5
138F4
330
138F3
100
AcDbEntity
  8
0
100
AcDbBlockBegin
  2
*D12
 70
     1
 10
0.0
 20
0.0
 30
0.0
  3
*D12
  1

  0
LINE
  5
14070
330
138F3
100
AcDbEntity
  8
寸法線
 62
     0
440
 16777216
370
    -2
100
AcDbLine
 10
2289.999896414979
 20
581.2504884236063
 30
0.0
 11
2289.999896414979
 21
489.9999830784627
 31
0.0
  0
LINE
  5
14071
330
138F3
100
AcDbEntity
  8
寸法線
 62
     0
440
 16777216
370
    -2
100
AcDbLine
 10
2330.000120199395
 20
566.2502539956571
 30
0.0
 11
2330.000120199395
 21
489.9999830784627
 31
0.0
  0
LINE
  5
14072
330
138F3
100
AcDbEntity
  8
寸法線
 62
     0
440
 16777216
370
    -2
100
AcDbLine
 10
2269.999896414979
 20
499.9999830784627
 30
0.0
 11
2249.999896414979
 21
499.9999830784627
 31
0.0
  0
LINE
  5
14073
330
138F3
100
AcDbEntity
  8
寸法線
 62
     0
440
 16777216
370
    -2
100
AcDbLine
 10
2350.000120199396
 20
499.9999830784627
 30
0.0
 11
2370.000120199396
 21
499.9999830784627
 31
0.0
  0
LINE
  5
14074
330
138F3
100
AcDbEntity
  8
寸法線
 62
     0
440
 16777216
370
    -2
100
AcDbLine
 10
2289.999896414979
 20
499.9999830784627
 30
0.0
 11
2330.000120199395
 21
499.9999830784627
 31
0.0
  0
INSERT
  5
14075
330
138F3
100
AcDbEntity
  8
寸法線
 62
     0
440
 16777216
370
    -2
100
AcDbBlockReference
  2
_OPEN
 10
2289.999896414979
 20
499.9999830784627
 30
0.0
 41
20.0
 42
20.0
 43
20.0
  0
INSERT
  5
14076
330
138F3
100
AcDbEntity
  8
寸法線
 62
     0
440
 16777216
370
    -2
100
AcDbBlockReference
  2
_OPEN
 10
2330.000120199395
 20
499.9999830784627
 30
0.0
 41
20.0
 42
20.0
 43
20.0
 50
180.0
  0
MTEXT
  5
14077
330
138F3
100
AcDbEntity
  8
寸法線
 62
     0
440
 16777216
100
AcDbMText
 10
2310.000008307187
 20
521.2499830784627
 30
0.0
 40
25.0
 41
0.0
 46
0.0
 71
     5
 72
     1
  1
\A1;40
 73
     1
 44
1.0
  0
POINT
  5
14078
330
138F3
100
AcDbEntity
  8
Defpoints
 62
     0
440
 16777216
100
AcDbPoint
 10
2289.999896414979
 20
590.0004884236063
 30
0.0
  0
POINT
  5
14079
330
138F3
100
AcDbEntity
  8
Defpoints
 62
     0
440
 16777216
100
AcDbPoint
 10
2330.000120199395
 20
575.0002539956572
 30
0.0
  0
POINT
  5
1407A
330
138F3
100
AcDbEntity
  8
Defpoints
 62
     0
440
 16777216
100
AcDbPoint
 10
2330.000120199395
 20
499.9999830784627
 30
0.0
  0
ENDBLK
  5
138F5
330
138F3
100
AcDbEntity
  8
0
100
AcDbBlockEnd
  0
BLOCK
  5
13902
330
13901
100
AcDbEntity
  8
0
100
AcDbBlockBegin
  2
*D13
 70
     1
 10
0.0
 20
0.0
 30
0.0
  3
*D13
  1

  0
LINE
  5
1407B
330
13901
100
AcDbEntity
  8
寸法線
 62
     0
440
 16777216
370
    -2
100
AcDbLine
 10
2733.750120199397
 20
970.0002539956576
 30
0.0
 11
2809.999896414981
 21
970.0002539956576
 31
0.0
  0
LINE
  5
1407C
330
13901
100
AcDbEntity
  8
寸法線
 62
     0
440
 16777216
370
    -2
100
AcDbLine
 10
2718.74989641498
 20
1010.000019567737
 30
0.0
 11
2809.999896414981
 21
1010.000019567737
 31
0.0
  0
LINE
  5
1407D
330
13901
100
AcDbEntity
  8
寸法線
 62
     0
440
 16777216
370
    -2
100
AcDbLine
 10
2799.999896414981
 20
950.0002539956577
 30
0.0
 11
2799.999896414981
 21
930.0002539956576
 31
0.0
  0
LINE
  5
1407E
330
13901
100
AcDbEntity
  8
寸法線
 62
     0
440
 16777216
370
    -2
100
AcDbLine
 10
2799.99989641498
 20
1030.000019567737
 30
0.0
 11
2799.99989641498
 21
1050.000019567737
 31
0.0
  0
LINE
  5
1407F
330
13901
100
AcDbEntity
  8
寸法線
 62
     0
440
 16777216
370
    -2
100
AcDbLine
 10
2799.999896414981
 20
970.0002539956576
 30
0.0
 11
2799.999896414981
 21
1010.000019567737
 31
0.0
  0
INSERT
  5
14080
330
13901
100
AcDbEntity
  8
寸法線
 62
     0
440
 16777216
370
    -2
100
AcDbBlockReference
  2
_OPEN
 10
2799.999896414981
 20
970.0002539956576
 30
0.0
 41
20.0
 42
20.0
 43
20.0
 50
90.0
  0
INSERT
  5
14081
330
13901
100
AcDbEntity
  8
寸法線
 62
     0
440
 16777216
370
    -2
100
AcDbBlockReference
  2
_OPEN
 10
2799.999896414981
 20
1010.000019567737
 30
0.0
 41
20.0
 42
20.0
 43
20.0
 50
270.0
  0
MTEXT
  5
14082
330
13901
100
AcDbEntity
  8
寸法線
 62
     0
440
 16777216
100
AcDbMText
 10
2778.74989641498
 20
990.0001367816967
 30
0.0
 40
25.0
 41
0.0
 46
0.0
 71
     5
 72
     1
  1
\A1;40
 11
0.0000000000000001
 21
1.0
 31
0.0
 73
     1
 44
1.0
  0
POINT
  5
14083
330
13901
100
AcDbEntity
  8
Defpoints
 62
     0
440
 16777216
100
AcDbPoint
 10
2725.000120199397
 20
970.0002539956576
 30
0.0
  0
POINT
  5
14084
330
13901
100
AcDbEntity
  8
Defpoints
 62
     0
440
 16777216
100
AcDbPoint
 10
2709.99989641498
 20
1010.000019567737
 30
0.0
  0
POINT
  5
14085
330
13901
100
AcDbEntity
  8
Defpoints
 62
     0
440
 16777216
100
AcDbPoint
 10
2799.999896414981
 20
1010.000019567737
 30
0.0
  0
ENDBLK
  5
13903
330
13901
100
AcDbEntity
  8
0
100
AcDbBlockEnd
  0
BLOCK
  5
13910
330
1390F
100
AcDbEntity
  8
0
100
AcDbBlockBegin
  2
*D14
 70
     1
 10
0.0
 20
0.0
 30
0.0
  3
*D14
  1

  0
LINE
  5
14086
330
1390F
100
AcDbEntity
  8
寸法線
 62
     0
440
 16777216
370
    -2
100
AcDbLine
 10
2733.750120199397
 20
630.0002539956574
 30
0.0
 11
2809.999896414979
 21
630.0002539956574
 31
0.0
  0
LINE
  5
14087
330
1390F
100
AcDbEntity
  8
寸法線
 62
     0
440
 16777216
370
    -2
100
AcDbLine
 10
2733.750120199397
 20
970.0002539956576
 30
0.0
 11
2809.999896414979
 21
970.0002539956576
 31
0.0
  0
LINE
  5
14088
330
1390F
100
AcDbEntity
  8
寸法線
 62
     0
440
 16777216
370
    -2
100
AcDbLine
 10
2799.99989641498
 20
650.0002539956574
 30
0.0
 11
2799.99989641498
 21
950.0002539956577
 31
0.0
  0
INSERT
  5
14089
330
1390F
100
AcDbEntity
  8
寸法線
 62
     0
440
 16777216
370
    -2
100
AcDbBlockReference
  2
_OPEN
 10
2799.99989641498
 20
630.0002539956574
 30
0.0
 41
20.0
 42
20.0
 43
20.0
 50
270.0
  0
INSERT
  5
1408A
330
1390F
100
AcDbEntity
  8
寸法線
 62
     0
440
 16777216
370
    -2
100
AcDbBlockReference
  2
_OPEN
 10
2799.99989641498
 20
970.0002539956576
 30
0.0
 41
20.0
 42
20.0
 43
20.0
 50
90.0
  0
MTEXT
  5
1408B
330
1390F
100
AcDbEntity
  8
寸法線
 62
     0
440
 16777216
100
AcDbMText
 10
2778.749896414979
 20
800.0002539956573
 30
0.0
 40
25.0
 41
0.0
 46
0.0
 71
     5
 72
     1
  1
\A1;340
 11
0.0000000000000001
 21
1.0
 31
0.0
 73
     1
 44
1.0
  0
POINT
  5
1408C
330
1390F
100
AcDbEntity
  8
Defpoints
 62
     0
440
 16777216
100
AcDbPoint
 10
2725.000120199397
 20
630.0002539956574
 30
0.0
  0
POINT
  5
1408D
330
1390F
100
AcDbEntity
  8
Defpoints
 62
     0
440
 16777216
100
AcDbPoint
 10
2725.000120199397
 20
970.0002539956576
 30
0.0
  0
POINT
  5
1408E
330
1390F
100
AcDbEntity
  8
Defpoints
 62
     0
440
 16777216
100
AcDbPoint
 10
2799.99989641498
 20
970.0002539956576
 30
0.0
  0
ENDBLK
  5
13911
330
1390F
100
AcDbEntity
  8
0
100
AcDbBlockEnd
  0
BLOCK
  5
1391C
330
1391B
100
AcDbEntity
  8
0
100
AcDbBlockBegin
  2
*D15
 70
     1
 10
0.0
 20
0.0
 30
0.0
  3
*D15
  1

  0
LINE
  5
1408F
330
1391B
100
AcDbEntity
  8
寸法線
 62
     0
440
 16777216
370
    -2
100
AcDbLine
 10
2718.74989641498
 20
590.0004884236066
 30
0.0
 11
2809.999896414979
 21
590.0004884236066
 31
0.0
  0
LINE
  5
14090
330
1391B
100
AcDbEntity
  8
寸法線
 62
     0
440
 16777216
370
    -2
100
AcDbLine
 10
2733.750120199397
 20
630.0002539956574
 30
0.0
 11
2809.999896414979
 21
630.0002539956574
 31
0.0
  0
LINE
  5
14091
330
1391B
100
AcDbEntity
  8
寸法線
 62
     0
440
 16777216
370
    -2
100
AcDbLine
 10
2799.99989641498
 20
570.0004884236066
 30
0.0
 11
2799.99989641498
 21
550.0004884236066
 31
0.0
  0
LINE
  5
14092
330
1391B
100
AcDbEntity
  8
寸法線
 62
     0
440
 16777216
370
    -2
100
AcDbLine
 10
2799.99989641498
 20
650.0002539956574
 30
0.0
 11
2799.99989641498
 21
670.0002539956574
 31
0.0
  0
LINE
  5
14093
330
1391B
100
AcDbEntity
  8
寸法線
 62
     0
440
 16777216
370
    -2
100
AcDbLine
 10
2799.99989641498
 20
590.0004884236066
 30
0.0
 11
2799.99989641498
 21
630.0002539956574
 31
0.0
  0
INSERT
  5
14094
330
1391B
100
AcDbEntity
  8
寸法線
 62
     0
440
 16777216
370
    -2
100
AcDbBlockReference
  2
_OPEN
 10
2799.99989641498
 20
590.0004884236066
 30
0.0
 41
20.0
 42
20.0
 43
20.0
 50
90.0
  0
INSERT
  5
14095
330
1391B
100
AcDbEntity
  8
寸法線
 62
     0
440
 16777216
370
    -2
100
AcDbBlockReference
  2
_OPEN
 10
2799.99989641498
 20
630.0002539956574
 30
0.0
 41
20.0
 42
20.0
 43
20.0
 50
270.0
  0
MTEXT
  5
14096
330
1391B
100
AcDbEntity
  8
寸法線
 62
     0
440
 16777216
100
AcDbMText
 10
2778.749896414979
 20
610.0003712096312
 30
0.0
 40
25.0
 41
0.0
 46
0.0
 71
     5
 72
     1
  1
\A1;40
 11
0.0000000000000001
 21
1.0
 31
0.0
 73
     1
 44
1.0
  0
POINT
  5
14097
330
1391B
100
AcDbEntity
  8
Defpoints
 62
     0
440
 16777216
100
AcDbPoint
 10
2709.99989641498
 20
590.0004884236066
 30
0.0
  0
POINT
  5
14098
330
1391B
100
AcDbEntity
  8
Defpoints
 62
     0
440
 16777216
100
AcDbPoint
 10
2725.000120199397
 20
630.0002539956574
 30
0.0
  0
POINT
  5
14099
330
1391B
100
AcDbEntity
  8
Defpoints
 62
     0
440
 16777216
100
AcDbPoint
 10
2799.99989641498
 20
630.0002539956574
 30
0.0
  0
ENDBLK
  5
1391D
330
1391B
100
AcDbEntity
  8
0
100
AcDbBlockEnd
  0
BLOCK
  5
1392A
330
13929
100
AcDbEntity
  8
0
100
AcDbBlockBegin
  2
*D16
 70
     1
 10
0.0
 20
0.0
 30
0.0
  3
*D16
  1

  0
LINE
  5
1409A
330
13929
100
AcDbEntity
  8
寸法線
 62
     0
440
 16777216
370
    -2
100
AcDbLine
 10
2670.000120199396
 20
566.2502539956571
 30
0.0
 11
2670.000120199396
 21
489.9999830784627
 31
0.0
  0
LINE
  5
1409B
330
13929
100
AcDbEntity
  8
寸法線
 62
     0
440
 16777216
370
    -2
100
AcDbLine
 10
2709.999896414979
 20
581.2504884236063
 30
0.0
 11
2709.999896414979
 21
489.9999830784627
 31
0.0
  0
LINE
  5
1409C
330
13929
100
AcDbEntity
  8
寸法線
 62
     0
440
 16777216
370
    -2
100
AcDbLine
 10
2650.000120199396
 20
499.9999830784627
 30
0.0
 11
2630.000120199396
 21
499.9999830784627
 31
0.0
  0
LINE
  5
1409D
330
13929
100
AcDbEntity
  8
寸法線
 62
     0
440
 16777216
370
    -2
100
AcDbLine
 10
2729.999896414979
 20
499.9999830784627
 30
0.0
 11
2749.999896414979
 21
499.9999830784627
 31
0.0
  0
LINE
  5
1409E
330
13929
100
AcDbEntity
  8
寸法線
 62
     0
440
 16777216
370
    -2
100
AcDbLine
 10
2670.000120199396
 20
499.9999830784627
 30
0.0
 11
2709.999896414979
 21
499.9999830784627
 31
0.0
  0
INSERT
  5
1409F
330
13929
100
AcDbEntity
  8
寸法線
 62
     0
440
 16777216
370
    -2
100
AcDbBlockReference
  2
_OPEN
 10
2670.000120199396
 20
499.9999830784627
 30
0.0
 41
20.0
 42
20.0
 43
20.0
  0
INSERT
  5
140A0
330
13929
100
AcDbEntity
  8
寸法線
 62
     0
440
 16777216
370
    -2
100
AcDbBlockReference
  2
_OPEN
 10
2709.999896414979
 20
499.9999830784627
 30
0.0
 41
20.0
 42
20.0
 43
20.0
 50
180.0
  0
MTEXT
  5
140A1
330
13929
100
AcDbEntity
  8
寸法線
 62
     0
440
 16777216
100
AcDbMText
 10
2690.000008307187
 20
521.2499830784627
 30
0.0
 40
25.0
 41
0.0
 46
0.0
 71
     5
 72
     1
  1
\A1;40
 73
     1
 44
1.0
  0
POINT
  5
140A2
330
13929
100
AcDbEntity
  8
Defpoints
 62
     0
440
 16777216
100
AcDbPoint
 10
2670.000120199396
 20
575.0002539956572
 30
0.0
  0
POINT
  5
140A3
330
13929
100
AcDbEntity
  8
Defpoints
 62
     0
440
 16777216
100
AcDbPoint
 10
2709.999896414979
 20
590.0004884236063
 30
0.0
  0
POINT
  5
140A4
330
13929
100
AcDbEntity
  8
Defpoints
 62
     0
440
 16777216
100
AcDbPoint
 10
2709.999896414979
 20
499.9999830784627
 30
0.0
  0
ENDBLK
  5
1392B
330
13929
100
AcDbEntity
  8
0
100
AcDbBlockEnd
  0
BLOCK
  5
13938
330
13937
100
AcDbEntity
  8
0
100
AcDbBlockBegin
  2
*D17
 70
     1
 10
0.0
 20
0.0
 30
0.0
  3
*D17
  1

  0
LINE
  5
140A5
330
13937
100
AcDbEntity
  8
寸法線
 62
     0
440
 16777216
370
    -2
100
AcDbLine
 10
3306.868466038583
 20
877.5779064409586
 30
0.0
 11
3306.243466978216
 21
878.660438739228
 31
0.0
  0
LINE
  5
140A6
330
13937
100
AcDbEntity
  8
寸法線
 62
     0
440
 16777216
370
    -2
100
AcDbLine
 10
3073.131218238308
 20
722.4226648582884
 30
0.0
 11
3073.756217299615
 21
721.340132558391
 31
0.0
  0
LINE
  5
140A7
330
13937
100
AcDbEntity
  8
寸法線
 62
     0
440
 16777216
370
    -2
100
AcDbLine
 10
3293.922942697732
 20
860.0001954006756
 30
0.0
 11
3086.0767415801
 21
740.0003758969432
 31
0.0
  0
INSERT
  5
140A8
330
13937
100
AcDbEntity
  8
寸法線
 62
     0
440
 16777216
370
    -2
100
AcDbBlockReference
  2
_OPEN
 10
3311.243459457541
 20
870.0001803593236
 30
0.0
 41
20.0
 42
20.0
 43
20.0
 50
29.99995024362024
  0
INSERT
  5
140A9
330
13937
100
AcDbEntity
  8
寸法線
 62
     0
440
 16777216
370
    -2
100
AcDbBlockReference
  2
_OPEN
 10
3068.756224820291
 20
730.0003909382954
 30
0.0
 41
20.0
 42
20.0
 43
20.0
 50
209.9999502436202
  0
MTEXT
  5
140AA
330
13937
100
AcDbEntity
  8
寸法線
 62
     0
440
 16777216
100
AcDbMText
 10
3242.999509797762
 20
855.1398120985256
 30
0.0
 40
25.0
 41
0.0
 46
0.0
 71
     5
 72
     1
  1
\A1;φ280
 11
0.8660258379904375
 21
0.4999992479323949
 31
0.0
 73
     1
 44
1.0
  0
POINT
  5
140AB
330
13937
100
AcDbEntity
  8
Defpoints
 62
     0
440
 16777216
100
AcDbPoint
 10
3311.243459457992
 20
870.0001803585424
 30
0.0
  0
POINT
  5
140AC
330
13937
100
AcDbEntity
  8
Defpoints
 62
     0
440
 16777216
100
AcDbPoint
 10
3068.7562248189
 20
730.0003909407047
 30
0.0
  0
POINT
  5
140AD
330
13937
100
AcDbEntity
  8
Defpoints
 62
     0
440
 16777216
100
AcDbPoint
 10
3068.756224820291
 20
730.0003909382954
 30
0.0
  0
ENDBLK
  5
13939
330
13937
100
AcDbEntity
  8
0
100
AcDbBlockEnd
  0
BLOCK
  5
13944
330
13943
100
AcDbEntity
  8
0
100
AcDbBlockBegin
  2
*D18
 70
     1
 10
0.0
 20
0.0
 30
0.0
  3
*D18
  1

  0
LINE
  5
140AE
330
13943
100
AcDbEntity
  8
寸法線
 62
     0
440
 16777216
370
    -2
100
AcDbLine
 10
2959.999679308204
 20
561.25019163974
 30
0.0
 11
2959.999679308204
 21
489.9999830784627
 31
0.0
  0
LINE
  5
140AF
330
13943
100
AcDbEntity
  8
寸法線
 62
     0
440
 16777216
370
    -2
100
AcDbLine
 10
3419.999896414979
 20
561.2500195677371
 30
0.0
 11
3419.999896414979
 21
489.9999830784627
 31
0.0
  0
LINE
  5
140B0
330
13943
100
AcDbEntity
  8
寸法線
 62
     0
440
 16777216
370
    -2
100
AcDbLine
 10
2979.999679308204
 20
499.9999830784627
 30
0.0
 11
3399.999896414979
 21
499.9999830784627
 31
0.0
  0
INSERT
  5
140B1
330
13943
100
AcDbEntity
  8
寸法線
 62
     0
440
 16777216
370
    -2
100
AcDbBlockReference
  2
_OPEN
 10
2959.999679308204
 20
499.9999830784627
 30
0.0
 41
20.0
 42
20.0
 43
20.0
 50
180.0
  0
INSERT
  5
140B2
330
13943
100
AcDbEntity
  8
寸法線
 62
     0
440
 16777216
370
    -2
100
AcDbBlockReference
  2
_OPEN
 10
3419.999896414979
 20
499.9999830784627
 30
0.0
 41
20.0
 42
20.0
 43
20.0
  0
MTEXT
  5
140B3
330
13943
100
AcDbEntity
  8
寸法線
 62
     0
440
 16777216
100
AcDbMText
 10
3189.999787861591
 20
521.2499830784627
 30
0.0
 40
25.0
 41
0.0
 46
0.0
 71
     5
 72
     1
  1
\A1;460
 73
     1
 44
1.0
  0
POINT
  5
140B4
330
13943
100
AcDbEntity
  8
Defpoints
 62
     0
440
 16777216
100
AcDbPoint
 10
2959.999679308204
 20
570.00019163974
 30
0.0
  0
POINT
  5
140B5
330
13943
100
AcDbEntity
  8
Defpoints
 62
     0
440
 16777216
100
AcDbPoint
 10
3419.999896414979
 20
570.0000195677371
 30
0.0
  0
POINT
  5
140B6
330
13943
100
AcDbEntity
  8
Defpoints
 62
     0
440
 16777216
100
AcDbPoint
 10
3419.999896414979
 20
499.9999830784627
 30
0.0
  0
ENDBLK
  5
13945
330
13943
100
AcDbEntity
  8
0
100
AcDbBlockEnd
  0
BLOCK
  5
13950
330
1394F
100
AcDbEntity
  8
0
100
AcDbBlockBegin
  2
*D19
 70
     1
 10
0.0
 20
0.0
 30
0.0
  3
*D19
  1

  0
LINE
  5
140B7
330
1394F
100
AcDbEntity
  8
寸法線
 62
     0
440
 16777216
370
    -2
100
AcDbLine
 10
3428.749896414981
 20
570.0000195677374
 30
0.0
 11
3499.999896415269
 21
570.0000195677374
 31
0.0
  0
LINE
  5
140B8
330
1394F
100
AcDbEntity
  8
寸法線
 62
     0
440
 16777216
370
    -2
100
AcDbLine
 10
3428.749896414981
 20
1030.000019567737
 30
0.0
 11
3499.999896415268
 21
1030.000019567737
 31
0.0
  0
LINE
  5
140B9
330
1394F
100
AcDbEntity
  8
寸法線
 62
     0
440
 16777216
370
    -2
100
AcDbLine
 10
3489.999896415269
 20
590.0000195677373
 30
0.0
 11
3489.999896415269
 21
1010.000019567738
 31
0.0
  0
INSERT
  5
140BA
330
1394F
100
AcDbEntity
  8
寸法線
 62
     0
440
 16777216
370
    -2
100
AcDbBlockReference
  2
_OPEN
 10
3489.999896415269
 20
570.0000195677374
 30
0.0
 41
20.0
 42
20.0
 43
20.0
 50
270.0
  0
INSERT
  5
140BB
330
1394F
100
AcDbEntity
  8
寸法線
 62
     0
440
 16777216
370
    -2
100
AcDbBlockReference
  2
_OPEN
 10
3489.999896415269
 20
1030.000019567737
 30
0.0
 41
20.0
 42
20.0
 43
20.0
 50
90.0
  0
MTEXT
  5
140BC
330
1394F
100
AcDbEntity
  8
寸法線
 62
     0
440
 16777216
100
AcDbMText
 10
3468.749896415268
 20
800.0000195677364
 30
0.0
 40
25.0
 41
0.0
 46
0.0
 71
     5
 72
     1
  1
\A1;460
 11
0.0000000000000001
 21
1.0
 31
0.0
 73
     1
 44
1.0
  0
POINT
  5
140BD
330
1394F
100
AcDbEntity
  8
Defpoints
 62
     0
440
 16777216
100
AcDbPoint
 10
3419.999896414981
 20
570.0000195677374
 30
0.0
  0
POINT
  5
140BE
330
1394F
100
AcDbEntity
  8
Defpoints
 62
     0
440
 16777216
100
AcDbPoint
 10
3419.999896414981
 20
1030.000019567737
 30
0.0
  0
POINT
  5
140BF
330
1394F
100
AcDbEntity
  8
Defpoints
 62
     0
440
 16777216
100
AcDbPoint
 10
3489.999896415269
 20
1030.000019567737
 30
0.0
  0
ENDBLK
  5
13951
330
1394F
100
AcDbEntity
  8
0
100
AcDbBlockEnd
  0
BLOCK
  5
1395C
330
1395B
100
AcDbEntity
  8
0
100
AcDbBlockBegin
  2
*D20
 70
     1
 10
0.0
 20
0.0
 30
0.0
  3
*D20
  1

  0
LINE
  5
140C0
330
1395B
100
AcDbEntity
  8
寸法線
 62
     0
440
 16777216
370
    -2
100
AcDbLine
 10
1415.999896414979
 20
1018.749739528228
 30
0.0
 11
1415.999896414979
 21
1109.999509661481
 31
0.0
  0
LINE
  5
140C1
330
1395B
100
AcDbEntity
  8
寸法線
 62
     0
440
 16777216
370
    -2
100
AcDbLine
 10
1741.999948207486
 20
1038.749739528228
 30
0.0
 11
1741.999948207486
 21
1109.999509661481
 31
0.0
  0
LINE
  5
140C2
330
1395B
100
AcDbEntity
  8
寸法線
 62
     0
440
 16777216
370
    -2
100
AcDbLine
 10
1435.999896414979
 20
1099.999509661481
 30
0.0
 11
1721.999948207486
 21
1099.999509661481
 31
0.0
  0
INSERT
  5
140C3
330
1395B
100
AcDbEntity
  8
寸法線
 62
     0
440
 16777216
370
    -2
100
AcDbBlockReference
  2
_OPEN
 10
1415.999896414979
 20
1099.999509661481
 30
0.0
 41
20.0
 42
20.0
 43
20.0
 50
180.0
  0
INSERT
  5
140C4
330
1395B
100
AcDbEntity
  8
寸法線
 62
     0
440
 16777216
370
    -2
100
AcDbBlockReference
  2
_OPEN
 10
1741.999948207486
 20
1099.999509661481
 30
0.0
 41
20.0
 42
20.0
 43
20.0
  0
MTEXT
  5
140C5
330
1395B
100
AcDbEntity
  8
寸法線
 62
     0
440
 16777216
100
AcDbMText
 10
1578.999922311233
 20
1121.251970291402
 30
0.0
 40
25.0
 41
0.0
 46
0.0
 71
     5
 72
     1
  1
\A1;326
 73
     1
 44
1.0
  0
POINT
  5
140C6
330
1395B
100
AcDbEntity
  8
Defpoints
 62
     0
440
 16777216
100
AcDbPoint
 10
1415.999896414979
 20
1009.999739528228
 30
0.0
  0
POINT
  5
140C7
330
1395B
100
AcDbEntity
  8
Defpoints
 62
     0
440
 16777216
100
AcDbPoint
 10
1741.999948207486
 20
1029.999739528228
 30
0.0
  0
POINT
  5
140C8
330
1395B
100
AcDbEntity
  8
Defpoints
 62
     0
440
 16777216
100
AcDbPoint
 10
1741.999948207486
 20
1099.999509661481
 30
0.0
  0
ENDBLK
  5
1395D
330
1395B
100
AcDbEntity
  8
0
100
AcDbBlockEnd
  0
BLOCK
  5
13968
330
13967
100
AcDbEntity
  8
0
100
AcDbBlockBegin
  2
*D21
 70
     1
 10
0.0
 20
0.0
 30
0.0
  3
*D21
  1

  0
LINE
  5
140C9
330
13967
100
AcDbEntity
  8
寸法線
 62
     0
440
 16777216
370
    -2
100
AcDbLine
 10
1757.999948207486
 20
1038.749739528228
 30
0.0
 11
1757.999948207486
 21
1109.999509661481
 31
0.0
  0
LINE
  5
140CA
330
13967
100
AcDbEntity
  8
寸法線
 62
     0
440
 16777216
370
    -2
100
AcDbLine
 10
2083.999896414979
 20
1018.749739528228
 30
0.0
 11
2083.999896414979
 21
1109.999509661481
 31
0.0
  0
LINE
  5
140CB
330
13967
100
AcDbEntity
  8
寸法線
 62
     0
440
 16777216
370
    -2
100
AcDbLine
 10
1777.999948207486
 20
1099.999509661481
 30
0.0
 11
2063.999896414979
 21
1099.999509661481
 31
0.0
  0
INSERT
  5
140CC
330
13967
100
AcDbEntity
  8
寸法線
 62
     0
440
 16777216
370
    -2
100
AcDbBlockReference
  2
_OPEN
 10
1757.999948207486
 20
1099.999509661481
 30
0.0
 41
20.0
 42
20.0
 43
20.0
 50
180.0
  0
INSERT
  5
140CD
330
13967
100
AcDbEntity
  8
寸法線
 62
     0
440
 16777216
370
    -2
100
AcDbBlockReference
  2
_OPEN
 10
2083.999896414979
 20
1099.999509661481
 30
0.0
 41
20.0
 42
20.0
 43
20.0
  0
MTEXT
  5
140CE
330
13967
100
AcDbEntity
  8
寸法線
 62
     0
440
 16777216
100
AcDbMText
 10
1920.999922311233
 20
1121.251970291402
 30
0.0
 40
25.0
 41
0.0
 46
0.0
 71
     5
 72
     1
  1
\A1;326
 73
     1
 44
1.0
  0
POINT
  5
140CF
330
13967
100
AcDbEntity
  8
Defpoints
 62
     0
440
 16777216
100
AcDbPoint
 10
1757.999948207486
 20
1029.999739528228
 30
0.0
  0
POINT
  5
140D0
330
13967
100
AcDbEntity
  8
Defpoints
 62
     0
440
 16777216
100
AcDbPoint
 10
2083.999896414979
 20
1009.999739528228
 30
0.0
  0
POINT
  5
140D1
330
13967
100
AcDbEntity
  8
Defpoints
 62
     0
440
 16777216
100
AcDbPoint
 10
2083.999896414979
 20
1099.999509661481
 30
0.0
  0
ENDBLK
  5
13969
330
13967
100
AcDbEntity
  8
0
100
AcDbBlockEnd
  0
BLOCK
  5
13974
330
13973
100
AcDbEntity
  8
0
100
AcDbBlockBegin
  2
*D22
 70
     1
 10
0.0
 20
0.0
 30
0.0
  3
*D22
  1

  0
LINE
  5
140D2
330
13973
100
AcDbEntity
  8
寸法線
 62
     0
440
 16777216
370
    -2
100
AcDbLine
 10
1741.999948207486
 20
1038.749739528228
 30
0.0
 11
1741.999948207486
 21
1109.999509661481
 31
0.0
  0
LINE
  5
140D3
330
13973
100
AcDbEntity
  8
寸法線
 62
     0
440
 16777216
370
    -2
100
AcDbLine
 10
1757.999948207486
 20
1038.749739528228
 30
0.0
 11
1757.999948207486
 21
1109.999509661481
 31
0.0
  0
LINE
  5
140D4
330
13973
100
AcDbEntity
  8
寸法線
 62
     0
440
 16777216
370
    -2
100
AcDbLine
 10
1721.999948207486
 20
1099.999509661481
 30
0.0
 11
1701.999948207486
 21
1099.999509661481
 31
0.0
  0
LINE
  5
140D5
330
13973
100
AcDbEntity
  8
寸法線
 62
     0
440
 16777216
370
    -2
100
AcDbLine
 10
1777.999948207486
 20
1099.999509661481
 30
0.0
 11
1797.999948207486
 21
1099.999509661481
 31
0.0
  0
LINE
  5
140D6
330
13973
100
AcDbEntity
  8
寸法線
 62
     0
440
 16777216
370
    -2
100
AcDbLine
 10
1741.999948207486
 20
1099.999509661481
 30
0.0
 11
1757.999948207486
 21
1099.999509661481
 31
0.0
  0
INSERT
  5
140D7
330
13973
100
AcDbEntity
  8
寸法線
 62
     0
440
 16777216
370
    -2
100
AcDbBlockReference
  2
_OPEN
 10
1741.999948207486
 20
1099.999509661481
 30
0.0
 41
20.0
 42
20.0
 43
20.0
  0
INSERT
  5
140D8
330
13973
100
AcDbEntity
  8
寸法線
 62
     0
440
 16777216
370
    -2
100
AcDbBlockReference
  2
_OPEN
 10
1757.999948207486
 20
1099.999509661481
 30
0.0
 41
20.0
 42
20.0
 43
20.0
 50
180.0
  0
MTEXT
  5
140D9
330
13973
100
AcDbEntity
  8
寸法線
 62
     0
440
 16777216
100
AcDbMText
 10
1749.999948207486
 20
1121.249509661481
 30
0.0
 40
25.0
 41
0.0
 46
0.0
 71
     5
 72
     1
  1
\A1;16
 73
     1
 44
1.0
  0
POINT
  5
140DA
330
13973
100
AcDbEntity
  8
Defpoints
 62
     0
440
 16777216
100
AcDbPoint
 10
1741.999948207486
 20
1029.999739528228
 30
0.0
  0
POINT
  5
140DB
330
13973
100
AcDbEntity
  8
Defpoints
 62
     0
440
 16777216
100
AcDbPoint
 10
1757.999948207486
 20
1029.999739528228
 30
0.0
  0
POINT
  5
140DC
330
13973
100
AcDbEntity
  8
Defpoints
 62
     0
440
 16777216
100
AcDbPoint
 10
1757.999948207486
 20
1099.999509661481
 30
0.0
  0
ENDBLK
  5
13975
330
13973
100
AcDbEntity
  8
0
100
AcDbBlockEnd
  0
BLOCK
  5
13982
330
13981
100
AcDbEntity
  8
0
100
AcDbBlockBegin
  2
*D23
 70
     1
 10
0.0
 20
0.0
 30
0.0
  3
*D23
  1

  0
LINE
  5
140DD
330
13981
100
AcDbEntity
  8
寸法線
 62
     0
440
 16777216
370
    -2
100
AcDbLine
 10
2658.750226983164
 20
2436.000043093572
 30
0.0
 11
2780.000226983163
 21
2436.000043093572
 31
0.0
  0
LINE
  5
140DE
330
13981
100
AcDbEntity
  8
寸法線
 62
     0
440
 16777216
370
    -2
100
AcDbLine
 10
2658.750226983164
 20
2054.000043093571
 30
0.0
 11
2780.000226983163
 21
2054.000043093571
 31
0.0
  0
LINE
  5
140DF
330
13981
100
AcDbEntity
  8
寸法線
 62
     0
440
 16777216
370
    -2
100
AcDbLine
 10
2770.000226983163
 20
2416.000043093572
 30
0.0
 11
2770.000226983163
 21
2074.000043093571
 31
0.0
  0
INSERT
  5
140E0
330
13981
100
AcDbEntity
  8
寸法線
 62
     0
440
 16777216
370
    -2
100
AcDbBlockReference
  2
_OPEN
 10
2770.000226983163
 20
2436.000043093572
 30
0.0
 41
20.0
 42
20.0
 43
20.0
 50
90.0
  0
INSERT
  5
140E1
330
13981
100
AcDbEntity
  8
寸法線
 62
     0
440
 16777216
370
    -2
100
AcDbBlockReference
  2
_OPEN
 10
2770.000226983163
 20
2054.000043093571
 30
0.0
 41
20.0
 42
20.0
 43
20.0
 50
270.0
  0
MTEXT
  5
140E2
330
13981
100
AcDbEntity
  8
寸法線
 62
     0
440
 16777216
100
AcDbMText
 10
2748.747766353242
 20
2245.000005873897
 30
0.0
 40
25.0
 41
0.0
 46
0.0
 71
     5
 72
     1
  1
\A1;382
 11
0.0000000000000001
 21
1.0
 31
0.0
 73
     1
 44
1.0
  0
POINT
  5
140E3
330
13981
100
AcDbEntity
  8
Defpoints
 62
     0
440
 16777216
100
AcDbPoint
 10
2650.000226983164
 20
2436.000043093572
 30
0.0
  0
POINT
  5
140E4
330
13981
100
AcDbEntity
  8
Defpoints
 62
     0
440
 16777216
100
AcDbPoint
 10
2650.000226983164
 20
2054.000043093571
 30
0.0
  0
POINT
  5
140E5
330
13981
100
AcDbEntity
  8
Defpoints
 62
     0
440
 16777216
100
AcDbPoint
 10
2770.000226983163
 20
2054.000043093571
 30
0.0
  0
ENDBLK
  5
13983
330
13981
100
AcDbEntity
  8
0
100
AcDbBlockEnd
  0
BLOCK
  5
1398E
330
1398D
100
AcDbEntity
  8
0
100
AcDbBlockBegin
  2
*D24
 70
     1
 10
0.0
 20
0.0
 30
0.0
  3
*D24
  1

  0
LINE
  5
13FBC
330
1398D
100
AcDbEntity
  8
寸法線
 62
     0
440
 16777216
370
    -2
100
AcDbLine
 10
2650.000226983166
 20
2444.75004309357
 30
0.0
 11
2650.000226983166
 21
2615.000005873897
 31
0.0
  0
LINE
  5
13FBD
330
1398D
100
AcDbEntity
  8
寸法線
 62
     0
440
 16777216
370
    -2
100
AcDbLine
 10
2631.000226983166
 20
2453.750005873896
 30
0.0
 11
2631.000226983166
 21
2615.000005873897
 31
0.0
  0
LINE
  5
13FBE
330
1398D
100
AcDbEntity
  8
寸法線
 62
     0
440
 16777216
370
    -2
100
AcDbLine
 10
2670.000226983166
 20
2605.000005873897
 30
0.0
 11
2690.000226983166
 21
2605.000005873897
 31
0.0
  0
LINE
  5
13FBF
330
1398D
100
AcDbEntity
  8
寸法線
 62
     0
440
 16777216
370
    -2
100
AcDbLine
 10
2611.000226983166
 20
2605.000005873897
 30
0.0
 11
2591.000226983166
 21
2605.000005873897
 31
0.0
  0
LINE
  5
13FC0
330
1398D
100
AcDbEntity
  8
寸法線
 62
     0
440
 16777216
370
    -2
100
AcDbLine
 10
2650.000226983166
 20
2605.000005873897
 30
0.0
 11
2631.000226983166
 21
2605.000005873897
 31
0.0
  0
INSERT
  5
13FC1
330
1398D
100
AcDbEntity
  8
寸法線
 62
     0
440
 16777216
370
    -2
100
AcDbBlockReference
  2
_OPEN
 10
2650.000226983166
 20
2605.000005873897
 30
0.0
 41
20.0
 42
20.0
 43
20.0
 50
180.0
  0
INSERT
  5
13FC2
330
1398D
100
AcDbEntity
  8
寸法線
 62
     0
440
 16777216
370
    -2
100
AcDbBlockReference
  2
_OPEN
 10
2631.000226983166
 20
2605.000005873897
 30
0.0
 41
20.0
 42
20.0
 43
20.0
  0
MTEXT
  5
13FC3
330
1398D
100
AcDbEntity
  8
寸法線
 62
     0
440
 16777216
100
AcDbMText
 10
2640.500226983166
 20
2626.250005873897
 30
0.0
 40
25.0
 41
0.0
 46
0.0
 71
     5
 72
     1
  1
\A1;19
 73
     1
 44
1.0
  0
POINT
  5
13FC4
330
1398D
100
AcDbEntity
  8
Defpoints
 62
     0
440
 16777216
100
AcDbPoint
 10
2650.000226983166
 20
2436.00004309357
 30
0.0
  0
POINT
  5
13FC5
330
1398D
100
AcDbEntity
  8
Defpoints
 62
     0
440
 16777216
100
AcDbPoint
 10
2631.000226983166
 20
2445.000005873896
 30
0.0
  0
POINT
  5
13FC6
330
1398D
100
AcDbEntity
  8
Defpoints
 62
     0
440
 16777216
100
AcDbPoint
 10
2631.000226983166
 20
2605.000005873897
 30
0.0
  0
ENDBLK
  5
1398F
330
1398D
100
AcDbEntity
  8
0
100
AcDbBlockEnd
  0
BLOCK
  5
1399C
330
1399B
100
AcDbEntity
  8
0
100
AcDbBlockBegin
  2
*D25
 70
     1
 10
0.0
 20
0.0
 30
0.0
  3
*D25
  1

  0
LINE
  5
13FC7
330
1399B
100
AcDbEntity
  8
寸法線
 62
     0
440
 16777216
370
    -2
100
AcDbLine
 10
2631.000226983166
 20
2453.750005873896
 30
0.0
 11
2631.000226983166
 21
2615.000005873897
 31
0.0
  0
LINE
  5
13FC8
330
1399B
100
AcDbEntity
  8
寸法線
 62
     0
440
 16777216
370
    -2
100
AcDbLine
 10
2100.000226983166
 20
2463.750043093571
 30
0.0
 11
2100.000226983166
 21
2615.000005873897
 31
0.0
  0
LINE
  5
13FC9
330
1399B
100
AcDbEntity
  8
寸法線
 62
     0
440
 16777216
370
    -2
100
AcDbLine
 10
2611.000226983166
 20
2605.000005873897
 30
0.0
 11
2120.000226983166
 21
2605.000005873897
 31
0.0
  0
INSERT
  5
13FCA
330
1399B
100
AcDbEntity
  8
寸法線
 62
     0
440
 16777216
370
    -2
100
AcDbBlockReference
  2
_OPEN
 10
2631.000226983166
 20
2605.000005873897
 30
0.0
 41
20.0
 42
20.0
 43
20.0
  0
INSERT
  5
13FCB
330
1399B
100
AcDbEntity
  8
寸法線
 62
     0
440
 16777216
370
    -2
100
AcDbBlockReference
  2
_OPEN
 10
2100.000226983166
 20
2605.000005873897
 30
0.0
 41
20.0
 42
20.0
 43
20.0
 50
180.0
  0
MTEXT
  5
13FCC
330
1399B
100
AcDbEntity
  8
寸法線
 62
     0
440
 16777216
100
AcDbMText
 10
2365.500226983166
 20
2626.250005873897
 30
0.0
 40
25.0
 41
0.0
 46
0.0
 71
     5
 72
     1
  1
\A1;531
 73
     1
 44
1.0
  0
POINT
  5
13FCD
330
1399B
100
AcDbEntity
  8
Defpoints
 62
     0
440
 16777216
100
AcDbPoint
 10
2631.000226983166
 20
2445.000005873896
 30
0.0
  0
POINT
  5
13FCE
330
1399B
100
AcDbEntity
  8
Defpoints
 62
     0
440
 16777216
100
AcDbPoint
 10
2100.000226983166
 20
2455.000043093571
 30
0.0
  0
POINT
  5
13FCF
330
1399B
100
AcDbEntity
  8
Defpoints
 62
     0
440
 16777216
100
AcDbPoint
 10
2100.000226983166
 20
2605.000005873897
 30
0.0
  0
ENDBLK
  5
1399D
330
1399B
100
AcDbEntity
  8
0
100
AcDbBlockEnd
  0
BLOCK
  5
139A8
330
139A7
100
AcDbEntity
  8
0
100
AcDbBlockBegin
  2
*D26
 70
     1
 10
0.0
 20
0.0
 30
0.0
  3
*D26
  1

  0
LINE
  5
13FD0
330
139A7
100
AcDbEntity
  8
寸法線
 62
     0
440
 16777216
370
    -2
100
AcDbLine
 10
2650.000000000002
 20
1436.25002387864
 30
0.0
 11
2650.000000000002
 21
1275.00002387864
 31
0.0
  0
LINE
  5
13FD1
330
139A7
100
AcDbEntity
  8
寸法線
 62
     0
440
 16777216
370
    -2
100
AcDbLine
 10
2100.000000000002
 20
1426.250061098314
 30
0.0
 11
2100.000000000002
 21
1275.00002387864
 31
0.0
  0
LINE
  5
13FD2
330
139A7
100
AcDbEntity
  8
寸法線
 62
     0
440
 16777216
370
    -2
100
AcDbLine
 10
2630.000000000002
 20
1285.00002387864
 30
0.0
 11
2120.000000000002
 21
1285.00002387864
 31
0.0
  0
INSERT
  5
13FD3
330
139A7
100
AcDbEntity
  8
寸法線
 62
     0
440
 16777216
370
    -2
100
AcDbBlockReference
  2
_OPEN
 10
2650.000000000002
 20
1285.00002387864
 30
0.0
 41
20.0
 42
20.0
 43
20.0
  0
INSERT
  5
13FD4
330
139A7
100
AcDbEntity
  8
寸法線
 62
     0
440
 16777216
370
    -2
100
AcDbBlockReference
  2
_OPEN
 10
2100.000000000002
 20
1285.00002387864
 30
0.0
 41
20.0
 42
20.0
 43
20.0
 50
180.0
  0
MTEXT
  5
13FD5
330
139A7
100
AcDbEntity
  8
寸法線
 62
     0
440
 16777216
100
AcDbMText
 10
2375.000000000002
 20
1306.25002387864
 30
0.0
 40
25.0
 41
0.0
 46
0.0
 71
     5
 72
     1
  1
\A1;550
 73
     1
 44
1.0
  0
POINT
  5
13FD6
330
139A7
100
AcDbEntity
  8
Defpoints
 62
     0
440
 16777216
100
AcDbPoint
 10
2650.000000000002
 20
1445.00002387864
 30
0.0
  0
POINT
  5
13FD7
330
139A7
100
AcDbEntity
  8
Defpoints
 62
     0
440
 16777216
100
AcDbPoint
 10
2100.000000000002
 20
1435.000061098314
 30
0.0
  0
POINT
  5
13FD8
330
139A7
100
AcDbEntity
  8
Defpoints
 62
     0
440
 16777216
100
AcDbPoint
 10
2100.000000000002
 20
1285.00002387864
 30
0.0
  0
ENDBLK
  5
139A9
330
139A7
100
AcDbEntity
  8
0
100
AcDbBlockEnd
  0
BLOCK
  5
139B4
330
139B3
100
AcDbEntity
  8
0
100
AcDbBlockBegin
  2
*D27
 70
     1
 10
0.0
 20
0.0
 30
0.0
  3
*D27
  1

  0
LINE
  5
13FD9
330
139B3
100
AcDbEntity
  8
寸法線
 62
     0
440
 16777216
370
    -2
100
AcDbLine
 10
2228.749980186872
 20
1824.499977536659
 30
0.0
 11
2309.999980186869
 21
1824.499977536659
 31
0.0
  0
LINE
  5
13FDA
330
139B3
100
AcDbEntity
  8
寸法線
 62
     0
440
 16777216
370
    -2
100
AcDbLine
 10
2228.749980186872
 20
1805.499977536658
 30
0.0
 11
2309.999980186869
 21
1805.499977536658
 31
0.0
  0
LINE
  5
13FDB
330
139B3
100
AcDbEntity
  8
寸法線
 62
     0
440
 16777216
370
    -2
100
AcDbLine
 10
2299.999980186869
 20
1844.499977536658
 30
0.0
 11
2299.999980186869
 21
1864.499977536658
 31
0.0
  0
LINE
  5
13FDC
330
139B3
100
AcDbEntity
  8
寸法線
 62
     0
440
 16777216
370
    -2
100
AcDbLine
 10
2299.999980186869
 20
1785.499977536658
 30
0.0
 11
2299.999980186869
 21
1765.499977536659
 31
0.0
  0
LINE
  5
13FDD
330
139B3
100
AcDbEntity
  8
寸法線
 62
     0
440
 16777216
370
    -2
100
AcDbLine
 10
2299.999980186869
 20
1824.499977536659
 30
0.0
 11
2299.999980186869
 21
1805.499977536658
 31
0.0
  0
INSERT
  5
13FDE
330
139B3
100
AcDbEntity
  8
寸法線
 62
     0
440
 16777216
370
    -2
100
AcDbBlockReference
  2
_OPEN
 10
2299.999980186869
 20
1824.499977536659
 30
0.0
 41
20.0
 42
20.0
 43
20.0
 50
270.0
  0
INSERT
  5
13FDF
330
139B3
100
AcDbEntity
  8
寸法線
 62
     0
440
 16777216
370
    -2
100
AcDbBlockReference
  2
_OPEN
 10
2299.999980186869
 20
1805.499977536658
 30
0.0
 41
20.0
 42
20.0
 43
20.0
 50
90.0
  0
MTEXT
  5
13FE0
330
139B3
100
AcDbEntity
  8
寸法線
 62
     0
440
 16777216
100
AcDbMText
 10
2278.749980186869
 20
1814.999977536658
 30
0.0
 40
25.0
 41
0.0
 46
0.0
 71
     5
 72
     1
  1
\A1;19
 11
0.0000000000000001
 21
1.0
 31
0.0
 73
     1
 44
1.0
  0
POINT
  5
13FE1
330
139B3
100
AcDbEntity
  8
Defpoints
 62
     0
440
 16777216
100
AcDbPoint
 10
2219.999980186872
 20
1824.499977536659
 30
0.0
  0
POINT
  5
13FE2
330
139B3
100
AcDbEntity
  8
Defpoints
 62
     0
440
 16777216
100
AcDbPoint
 10
2219.999980186872
 20
1805.499977536658
 30
0.0
  0
POINT
  5
13FE3
330
139B3
100
AcDbEntity
  8
Defpoints
 62
     0
440
 16777216
100
AcDbPoint
 10
2299.999980186869
 20
1805.499977536658
 30
0.0
  0
ENDBLK
  5
139B5
330
139B3
100
AcDbEntity
  8
0
100
AcDbBlockEnd
  0
BLOCK
  5
139C2
330
139C1
100
AcDbEntity
  8
0
100
AcDbBlockBegin
  2
*D28
 70
     1
 10
0.0
 20
0.0
 30
0.0
  3
*D28
  1

  0
LINE
  5
13FE4
330
139C1
100
AcDbEntity
  8
寸法線
 62
     0
440
 16777216
370
    -2
100
AcDbLine
 10
2236.75000376647
 20
1475.000045648062
 30
0.0
 11
2309.999980186869
 21
1475.000045648062
 31
0.0
  0
LINE
  5
13FE5
330
139C1
100
AcDbEntity
  8
寸法線
 62
     0
440
 16777216
370
    -2
100
AcDbLine
 10
2108.750000000003
 20
1444.999977740006
 30
0.0
 11
2309.999980186869
 21
1444.999977740006
 31
0.0
  0
LINE
  5
13FE6
330
139C1
100
AcDbEntity
  8
寸法線
 62
     0
440
 16777216
370
    -2
100
AcDbLine
 10
2299.999980186869
 20
1495.000045648062
 30
0.0
 11
2299.999980186869
 21
1515.000045648062
 31
0.0
  0
LINE
  5
13FE7
330
139C1
100
AcDbEntity
  8
寸法線
 62
     0
440
 16777216
370
    -2
100
AcDbLine
 10
2299.999980186869
 20
1424.999977740007
 30
0.0
 11
2299.999980186869
 21
1404.999977740007
 31
0.0
  0
LINE
  5
13FE8
330
139C1
100
AcDbEntity
  8
寸法線
 62
     0
440
 16777216
370
    -2
100
AcDbLine
 10
2299.999980186869
 20
1475.000045648062
 30
0.0
 11
2299.999980186869
 21
1444.999977740006
 31
0.0
  0
INSERT
  5
13FE9
330
139C1
100
AcDbEntity
  8
寸法線
 62
     0
440
 16777216
370
    -2
100
AcDbBlockReference
  2
_OPEN
 10
2299.999980186869
 20
1475.000045648062
 30
0.0
 41
20.0
 42
20.0
 43
20.0
 50
270.0
  0
INSERT
  5
13FEA
330
139C1
100
AcDbEntity
  8
寸法線
 62
     0
440
 16777216
370
    -2
100
AcDbBlockReference
  2
_OPEN
 10
2299.999980186869
 20
1444.999977740006
 30
0.0
 41
20.0
 42
20.0
 43
20.0
 50
90.0
  0
MTEXT
  5
13FEB
330
139C1
100
AcDbEntity
  8
寸法線
 62
     0
440
 16777216
100
AcDbMText
 10
2278.749980186869
 20
1460.000011694033
 30
0.0
 40
25.0
 41
0.0
 46
0.0
 71
     5
 72
     1
  1
\A1;30
 11
0.0000000000000001
 21
1.0
 31
0.0
 73
     1
 44
1.0
  0
POINT
  5
13FEC
330
139C1
100
AcDbEntity
  8
Defpoints
 62
     0
440
 16777216
100
AcDbPoint
 10
2228.00000376647
 20
1475.000045648062
 30
0.0
  0
POINT
  5
13FED
330
139C1
100
AcDbEntity
  8
Defpoints
 62
     0
440
 16777216
100
AcDbPoint
 10
2100.000000000003
 20
1444.999977740006
 30
0.0
  0
POINT
  5
13FEE
330
139C1
100
AcDbEntity
  8
Defpoints
 62
     0
440
 16777216
100
AcDbPoint
 10
2299.999980186869
 20
1444.999977740006
 30
0.0
  0
ENDBLK
  5
139C3
330
139C1
100
AcDbEntity
  8
0
100
AcDbBlockEnd
  0
BLOCK
  5
139E8
330
139E7
100
AcDbEntity
  8
0
100
AcDbBlockBegin
  2
*D29
 70
     1
 10
0.0
 20
0.0
 30
0.0
  3
*D29
  1

  0
LINE
  5
13FEF
330
139E7
100
AcDbEntity
  8
寸法線
 62
     0
440
 16777216
370
    -2
100
AcDbLine
 10
2422.24998018687
 20
2251.000002520663
 30
0.0
 11
2320.99999462186
 21
2251.000002520663
 31
0.0
  0
LINE
  5
13FF0
330
139E7
100
AcDbEntity
  8
寸法線
 62
     0
440
 16777216
370
    -2
100
AcDbLine
 10
2422.24998018687
 20
2239.000002520663
 30
0.0
 11
2320.99999462186
 21
2239.000002520663
 31
0.0
  0
LINE
  5
13FF1
330
139E7
100
AcDbEntity
  8
寸法線
 62
     0
440
 16777216
370
    -2
100
AcDbLine
 10
2330.99999462186
 20
2271.000002520663
 30
0.0
 11
2330.99999462186
 21
2291.000002520663
 31
0.0
  0
LINE
  5
13FF2
330
139E7
100
AcDbEntity
  8
寸法線
 62
     0
440
 16777216
370
    -2
100
AcDbLine
 10
2330.99999462186
 20
2219.000002520663
 30
0.0
 11
2330.99999462186
 21
2199.000002520663
 31
0.0
  0
LINE
  5
13FF3
330
139E7
100
AcDbEntity
  8
寸法線
 62
     0
440
 16777216
370
    -2
100
AcDbLine
 10
2330.99999462186
 20
2251.000002520663
 30
0.0
 11
2330.99999462186
 21
2239.000002520663
 31
0.0
  0
INSERT
  5
13FF4
330
139E7
100
AcDbEntity
  8
寸法線
 62
     0
440
 16777216
370
    -2
100
AcDbBlockReference
  2
_OPEN
 10
2330.99999462186
 20
2251.000002520663
 30
0.0
 41
20.0
 42
20.0
 43
20.0
 50
270.0
  0
INSERT
  5
13FF5
330
139E7
100
AcDbEntity
  8
寸法線
 62
     0
440
 16777216
370
    -2
100
AcDbBlockReference
  2
_OPEN
 10
2330.99999462186
 20
2239.000002520663
 30
0.0
 41
20.0
 42
20.0
 43
20.0
 50
90.0
  0
MTEXT
  5
13FF6
330
139E7
100
AcDbEntity
  8
寸法線
 62
     0
440
 16777216
100
AcDbMText
 10
2309.747533991938
 20
2245.000002520662
 30
0.0
 40
25.0
 41
0.0
 46
0.0
 71
     5
 72
     1
  1
\A1;12
 11
0.0000000000000001
 21
1.0
 31
0.0
 73
     1
 44
1.0
  0
POINT
  5
13FF7
330
139E7
100
AcDbEntity
  8
Defpoints
 62
     0
440
 16777216
100
AcDbPoint
 10
2430.99998018687
 20
2251.000002520663
 30
0.0
  0
POINT
  5
13FF8
330
139E7
100
AcDbEntity
  8
Defpoints
 62
     0
440
 16777216
100
AcDbPoint
 10
2430.99998018687
 20
2239.000002520663
 30
0.0
  0
POINT
  5
13FF9
330
139E7
100
AcDbEntity
  8
Defpoints
 62
     0
440
 16777216
100
AcDbPoint
 10
2330.99999462186
 20
2239.000002520663
 30
0.0
  0
ENDBLK
  5
139E9
330
139E7
100
AcDbEntity
  8
0
100
AcDbBlockEnd
  0
BLOCK
  5
139F6
330
139F5
100
AcDbEntity
  8
0
100
AcDbBlockBegin
  2
*D30
 70
     1
 10
0.0
 20
0.0
 30
0.0
  3
*D30
  1

  0
LINE
  5
13FFA
330
139F5
100
AcDbEntity
  8
寸法線
 62
     0
440
 16777216
370
    -2
100
AcDbLine
 10
2650.0
 20
2444.75004309357
 30
0.0
 11
2650.0
 21
2695.000005873897
 31
0.0
  0
LINE
  5
13FFB
330
139F5
100
AcDbEntity
  8
寸法線
 62
     0
440
 16777216
370
    -2
100
AcDbLine
 10
2100.0
 20
2463.750043093571
 30
0.0
 11
2100.0
 21
2695.000005873897
 31
0.0
  0
LINE
  5
13FFC
330
139F5
100
AcDbEntity
  8
寸法線
 62
     0
440
 16777216
370
    -2
100
AcDbLine
 10
2630.0
 20
2685.000005873897
 30
0.0
 11
2120.0
 21
2685.000005873897
 31
0.0
  0
INSERT
  5
13FFD
330
139F5
100
AcDbEntity
  8
寸法線
 62
     0
440
 16777216
370
    -2
100
AcDbBlockReference
  2
_OPEN
 10
2650.0
 20
2685.000005873897
 30
0.0
 41
20.0
 42
20.0
 43
20.0
  0
INSERT
  5
13FFE
330
139F5
100
AcDbEntity
  8
寸法線
 62
     0
440
 16777216
370
    -2
100
AcDbBlockReference
  2
_OPEN
 10
2100.0
 20
2685.000005873897
 30
0.0
 41
20.0
 42
20.0
 43
20.0
 50
180.0
  0
MTEXT
  5
13FFF
330
139F5
100
AcDbEntity
  8
寸法線
 62
     0
440
 16777216
100
AcDbMText
 10
2375.0
 20
2706.250005873897
 30
0.0
 40
25.0
 41
0.0
 46
0.0
 71
     5
 72
     1
  1
\A1;550
 73
     1
 44
1.0
  0
MTEXT
  5
14000
330
139F5
100
AcDbEntity
  8
寸法線
 62
     0
440
 16777216
100
AcDbMText
 10
2375.0
 20
2663.750005873897
 30
0.0
 40
25.0
 41
0.0
 46
0.0
 71
     5
 72
     1
  1
\A1;H型鋼（連結部）
 73
     1
 44
1.0
  0
POINT
  5
14001
330
139F5
100
AcDbEntity
  8
Defpoints
 62
     0
440
 16777216
100
AcDbPoint
 10
2650.0
 20
2436.00004309357
 30
0.0
  0
POINT
  5
14002
330
139F5
100
AcDbEntity
  8
Defpoints
 62
     0
440
 16777216
100
AcDbPoint
 10
2100.0
 20
2455.000043093571
 30
0.0
  0
POINT
  5
14003
330
139F5
100
AcDbEntity
  8
Defpoints
 62
     0
440
 16777216
100
AcDbPoint
 10
2100.0
 20
2685.000005873897
 30
0.0
  0
ENDBLK
  5
139F7
330
139F5
100
AcDbEntity
  8
0
100
AcDbBlockEnd
  0
BLOCK
  5
13A03
330
13A02
100
AcDbEntity
  8
0
100
AcDbBlockBegin
  2
*D31
 70
     1
 10
0.0
 20
0.0
 30
0.0
  3
*D31
  1

  0
LINE
  5
14004
330
13A02
100
AcDbEntity
  8
寸法線
 62
     0
440
 16777216
370
    -2
100
AcDbLine
 10
2051.999999999994
 20
591.2497395282285
 30
0.0
 11
2051.999999999994
 21
489.9999830784627
 31
0.0
  0
LINE
  5
14005
330
13A02
100
AcDbEntity
  8
寸法線
 62
     0
440
 16777216
370
    -2
100
AcDbLine
 10
2083.999896414979
 20
581.2497395282284
 30
0.0
 11
2083.999896414979
 21
489.9999830784627
 31
0.0
  0
LINE
  5
14006
330
13A02
100
AcDbEntity
  8
寸法線
 62
     0
440
 16777216
370
    -2
100
AcDbLine
 10
2031.999999999994
 20
499.9999830784627
 30
0.0
 11
2011.999999999994
 21
499.9999830784627
 31
0.0
  0
LINE
  5
14007
330
13A02
100
AcDbEntity
  8
寸法線
 62
     0
440
 16777216
370
    -2
100
AcDbLine
 10
2103.999896414979
 20
499.9999830784627
 30
0.0
 11
2123.999896414979
 21
499.9999830784627
 31
0.0
  0
LINE
  5
14008
330
13A02
100
AcDbEntity
  8
寸法線
 62
     0
440
 16777216
370
    -2
100
AcDbLine
 10
2051.999999999994
 20
499.9999830784627
 30
0.0
 11
2083.999896414979
 21
499.9999830784627
 31
0.0
  0
INSERT
  5
14009
330
13A02
100
AcDbEntity
  8
寸法線
 62
     0
440
 16777216
370
    -2
100
AcDbBlockReference
  2
_OPEN
 10
2051.999999999994
 20
499.9999830784627
 30
0.0
 41
20.0
 42
20.0
 43
20.0
  0
INSERT
  5
1400A
330
13A02
100
AcDbEntity
  8
寸法線
 62
     0
440
 16777216
370
    -2
100
AcDbBlockReference
  2
_OPEN
 10
2083.999896414979
 20
499.9999830784627
 30
0.0
 41
20.0
 42
20.0
 43
20.0
 50
180.0
  0
MTEXT
  5
1400B
330
13A02
100
AcDbEntity
  8
寸法線
 62
     0
440
 16777216
100
AcDbMText
 10
2067.999948207486
 20
521.252443708384
 30
0.0
 40
25.0
 41
0.0
 46
0.0
 71
     5
 72
     1
  1
\A1;32
 73
     1
 44
1.0
  0
POINT
  5
1400C
330
13A02
100
AcDbEntity
  8
Defpoints
 62
     0
440
 16777216
100
AcDbPoint
 10
2051.999999999994
 20
599.9997395282284
 30
0.0
  0
POINT
  5
1400D
330
13A02
100
AcDbEntity
  8
Defpoints
 62
     0
440
 16777216
100
AcDbPoint
 10
2083.999896414979
 20
589.9997395282285
 30
0.0
  0
POINT
  5
1400E
330
13A02
100
AcDbEntity
  8
Defpoints
 62
     0
440
 16777216
100
AcDbPoint
 10
2083.999896414979
 20
499.9999830784627
 30
0.0
  0
ENDBLK
  5
13A04
330
13A02
100
AcDbEntity
  8
0
100
AcDbBlockEnd
  0
BLOCK
  5
13A11
330
13A10
100
AcDbEntity
  8
0
100
AcDbBlockBegin
  2
*D32
 70
     1
 10
0.0
 20
0.0
 30
0.0
  3
*D32
  1

  0
LINE
  5
1400F
330
13A10
100
AcDbEntity
  8
寸法線
 62
     0
440
 16777216
370
    -2
100
AcDbLine
 10
2083.999896414979
 20
581.2497395282284
 30
0.0
 11
2083.999896414979
 21
429.9999830784627
 31
0.0
  0
LINE
  5
14010
330
13A10
100
AcDbEntity
  8
寸法線
 62
     0
440
 16777216
370
    -2
100
AcDbLine
 10
2099.999896414979
 20
581.2497395282284
 30
0.0
 11
2099.999896414979
 21
429.9999830784627
 31
0.0
  0
LINE
  5
14011
330
13A10
100
AcDbEntity
  8
寸法線
 62
     0
440
 16777216
370
    -2
100
AcDbLine
 10
2063.999896414979
 20
439.9999830784627
 30
0.0
 11
2043.999896414979
 21
439.9999830784627
 31
0.0
  0
LINE
  5
14012
330
13A10
100
AcDbEntity
  8
寸法線
 62
     0
440
 16777216
370
    -2
100
AcDbLine
 10
2119.999896414979
 20
439.9999830784627
 30
0.0
 11
2139.999896414979
 21
439.9999830784627
 31
0.0
  0
LINE
  5
14013
330
13A10
100
AcDbEntity
  8
寸法線
 62
     0
440
 16777216
370
    -2
100
AcDbLine
 10
2083.999896414979
 20
439.9999830784627
 30
0.0
 11
2099.999896414979
 21
439.9999830784627
 31
0.0
  0
INSERT
  5
14014
330
13A10
100
AcDbEntity
  8
寸法線
 62
     0
440
 16777216
370
    -2
100
AcDbBlockReference
  2
_OPEN
 10
2083.999896414979
 20
439.9999830784627
 30
0.0
 41
20.0
 42
20.0
 43
20.0
  0
INSERT
  5
14015
330
13A10
100
AcDbEntity
  8
寸法線
 62
     0
440
 16777216
370
    -2
100
AcDbBlockReference
  2
_OPEN
 10
2099.999896414979
 20
439.9999830784627
 30
0.0
 41
20.0
 42
20.0
 43
20.0
 50
180.0
  0
MTEXT
  5
14016
330
13A10
100
AcDbEntity
  8
寸法線
 62
     0
440
 16777216
100
AcDbMText
 10
2091.999896414979
 20
461.2499830784627
 30
0.0
 40
25.0
 41
0.0
 46
0.0
 71
     5
 72
     1
  1
\A1;16
 73
     1
 44
1.0
  0
POINT
  5
14017
330
13A10
100
AcDbEntity
  8
Defpoints
 62
     0
440
 16777216
100
AcDbPoint
 10
2083.999896414979
 20
589.9997395282285
 30
0.0
  0
POINT
  5
14018
330
13A10
100
AcDbEntity
  8
Defpoints
 62
     0
440
 16777216
100
AcDbPoint
 10
2099.999896414979
 20
589.9997395282285
 30
0.0
  0
POINT
  5
14019
330
13A10
100
AcDbEntity
  8
Defpoints
 62
     0
440
 16777216
100
AcDbPoint
 10
2099.999896414979
 20
439.9999830784627
 30
0.0
  0
ENDBLK
  5
13A12
330
13A10
100
AcDbEntity
  8
0
100
AcDbBlockEnd
  0
BLOCK
  5
13A1F
330
13A1E
100
AcDbEntity
  8
0
100
AcDbBlockBegin
  2
*D33
 70
     1
 10
0.0
 20
0.0
 30
0.0
  3
*D33
  1

  0
LINE
  5
1401A
330
13A1E
100
AcDbEntity
  8
寸法線
 62
     0
440
 16777216
370
    -2
100
AcDbLine
 10
2015.24989641498
 20
939.9997395282289
 30
0.0
 11
2013.999896414979
 21
939.9997395282289
 31
0.0
  0
LINE
  5
1401B
330
13A1E
100
AcDbEntity
  8
寸法線
 62
     0
440
 16777216
370
    -2
100
AcDbLine
 10
2015.24989641498
 20
999.9997395282289
 30
0.0
 11
2013.999896414979
 21
999.9997395282289
 31
0.0
  0
LINE
  5
1401C
330
13A1E
100
AcDbEntity
  8
寸法線
 62
     0
440
 16777216
370
    -2
100
AcDbLine
 10
2023.999896414979
 20
979.9997395282289
 30
0.0
 11
2023.999896414979
 21
959.9997395282288
 31
0.0
  0
LINE
  5
1401D
330
13A1E
100
AcDbEntity
  8
寸法線
 62
     0
440
 16777216
370
    -2
100
AcDbLine
 10
2023.999896414979
 20
939.9997395282289
 30
0.0
 11
2023.999896414979
 21
852.4800544888377
 31
0.0
  0
INSERT
  5
1401E
330
13A1E
100
AcDbEntity
  8
寸法線
 62
     0
440
 16777216
370
    -2
100
AcDbBlockReference
  2
_OPEN
 10
2023.999896414979
 20
999.9997395282289
 30
0.0
 41
20.0
 42
20.0
 43
20.0
 50
90.0
  0
INSERT
  5
1401F
330
13A1E
100
AcDbEntity
  8
寸法線
 62
     0
440
 16777216
370
    -2
100
AcDbBlockReference
  2
_OPEN
 10
2023.999896414979
 20
939.9997395282289
 30
0.0
 41
20.0
 42
20.0
 43
20.0
 50
270.0
  0
MTEXT
  5
14020
330
13A1E
100
AcDbEntity
  8
寸法線
 62
     0
440
 16777216
100
AcDbMText
 10
2002.749896414979
 20
886.2398970085219
 30
0.0
 40
25.0
 41
0.0
 46
0.0
 71
     5
 72
     1
  1
\A1;%%C60
 11
0.0000000000000001
 21
1.0
 31
0.0
 73
     1
 44
1.0
  0
POINT
  5
14021
330
13A1E
100
AcDbEntity
  8
Defpoints
 62
     0
440
 16777216
100
AcDbPoint
 10
2023.99989641498
 20
939.9997395282289
 30
0.0
  0
POINT
  5
14022
330
13A1E
100
AcDbEntity
  8
Defpoints
 62
     0
440
 16777216
100
AcDbPoint
 10
2023.99989641498
 20
999.9997395282289
 30
0.0
  0
POINT
  5
14023
330
13A1E
100
AcDbEntity
  8
Defpoints
 62
     0
440
 16777216
100
AcDbPoint
 10
2023.999896414979
 20
999.9997395282289
 30
0.0
  0
ENDBLK
  5
13A20
330
13A1E
100
AcDbEntity
  8
0
100
AcDbBlockEnd
  0
BLOCK
  5
13A2C
330
13A2B
100
AcDbEntity
  8
0
100
AcDbBlockBegin
  2
*D34
 70
     1
 10
0.0
 20
0.0
 30
0.0
  3
*D34
  1

  0
LINE
  5
14024
330
13A2B
100
AcDbEntity
  8
寸法線
 62
     0
440
 16777216
370
    -2
100
AcDbLine
 10
1415.999896414979
 20
581.2497532116999
 30
0.0
 11
1415.999896414979
 21
489.9999830784627
 31
0.0
  0
LINE
  5
14025
330
13A2B
100
AcDbEntity
  8
寸法線
 62
     0
440
 16777216
370
    -2
100
AcDbLine
 10
1447.999896414979
 20
591.2497532116999
 30
0.0
 11
1447.999896414979
 21
489.9999830784627
 31
0.0
  0
LINE
  5
14026
330
13A2B
100
AcDbEntity
  8
寸法線
 62
     0
440
 16777216
370
    -2
100
AcDbLine
 10
1395.999896414979
 20
499.9999830784627
 30
0.0
 11
1375.999896414979
 21
499.9999830784627
 31
0.0
  0
LINE
  5
14027
330
13A2B
100
AcDbEntity
  8
寸法線
 62
     0
440
 16777216
370
    -2
100
AcDbLine
 10
1467.999896414979
 20
499.9999830784627
 30
0.0
 11
1487.999896414979
 21
499.9999830784627
 31
0.0
  0
LINE
  5
14028
330
13A2B
100
AcDbEntity
  8
寸法線
 62
     0
440
 16777216
370
    -2
100
AcDbLine
 10
1415.999896414979
 20
499.9999830784627
 30
0.0
 11
1447.999896414979
 21
499.9999830784627
 31
0.0
  0
INSERT
  5
14029
330
13A2B
100
AcDbEntity
  8
寸法線
 62
     0
440
 16777216
370
    -2
100
AcDbBlockReference
  2
_OPEN
 10
1415.999896414979
 20
499.9999830784627
 30
0.0
 41
20.0
 42
20.0
 43
20.0
  0
INSERT
  5
1402A
330
13A2B
100
AcDbEntity
  8
寸法線
 62
     0
440
 16777216
370
    -2
100
AcDbBlockReference
  2
_OPEN
 10
1447.999896414979
 20
499.9999830784627
 30
0.0
 41
20.0
 42
20.0
 43
20.0
 50
180.0
  0
MTEXT
  5
1402B
330
13A2B
100
AcDbEntity
  8
寸法線
 62
     0
440
 16777216
100
AcDbMText
 10
1431.999896414979
 20
521.252443708384
 30
0.0
 40
25.0
 41
0.0
 46
0.0
 71
     5
 72
     1
  1
\A1;32
 73
     1
 44
1.0
  0
POINT
  5
1402C
330
13A2B
100
AcDbEntity
  8
Defpoints
 62
     0
440
 16777216
100
AcDbPoint
 10
1415.999896414979
 20
589.9997532116999
 30
0.0
  0
POINT
  5
1402D
330
13A2B
100
AcDbEntity
  8
Defpoints
 62
     0
440
 16777216
100
AcDbPoint
 10
1447.999896414979
 20
599.9997532116999
 30
0.0
  0
POINT
  5
1402E
330
13A2B
100
AcDbEntity
  8
Defpoints
 62
     0
440
 16777216
100
AcDbPoint
 10
1447.999896414979
 20
499.9999830784627
 30
0.0
  0
ENDBLK
  5
13A2D
330
13A2B
100
AcDbEntity
  8
0
100
AcDbBlockEnd
  0
BLOCK
  5
13A3A
330
13A39
100
AcDbEntity
  8
0
100
AcDbBlockBegin
  2
*D35
 70
     1
 10
0.0
 20
0.0
 30
0.0
  3
*D35
  1

  0
LINE
  5
1402F
330
13A39
100
AcDbEntity
  8
寸法線
 62
     0
440
 16777216
370
    -2
100
AcDbLine
 10
1447.999896414979
 20
591.2497532116999
 30
0.0
 11
1447.999896414979
 21
489.9999830784627
 31
0.0
  0
LINE
  5
14030
330
13A39
100
AcDbEntity
  8
寸法線
 62
     0
440
 16777216
370
    -2
100
AcDbLine
 10
2051.999896414979
 20
591.2497395282285
 30
0.0
 11
2051.999896414979
 21
489.9999830784627
 31
0.0
  0
LINE
  5
14031
330
13A39
100
AcDbEntity
  8
寸法線
 62
     0
440
 16777216
370
    -2
100
AcDbLine
 10
1467.999896414979
 20
499.9999830784627
 30
0.0
 11
2031.999896414979
 21
499.9999830784627
 31
0.0
  0
INSERT
  5
14032
330
13A39
100
AcDbEntity
  8
寸法線
 62
     0
440
 16777216
370
    -2
100
AcDbBlockReference
  2
_OPEN
 10
1447.999896414979
 20
499.9999830784627
 30
0.0
 41
20.0
 42
20.0
 43
20.0
 50
180.0
  0
INSERT
  5
14033
330
13A39
100
AcDbEntity
  8
寸法線
 62
     0
440
 16777216
370
    -2
100
AcDbBlockReference
  2
_OPEN
 10
2051.999896414979
 20
499.9999830784627
 30
0.0
 41
20.0
 42
20.0
 43
20.0
  0
MTEXT
  5
14034
330
13A39
100
AcDbEntity
  8
寸法線
 62
     0
440
 16777216
100
AcDbMText
 10
1749.999896414979
 20
521.2499830784627
 30
0.0
 40
25.0
 41
0.0
 46
0.0
 71
     5
 72
     1
  1
\A1;604
 73
     1
 44
1.0
  0
POINT
  5
14035
330
13A39
100
AcDbEntity
  8
Defpoints
 62
     0
440
 16777216
100
AcDbPoint
 10
1447.999896414979
 20
599.9997532116999
 30
0.0
  0
POINT
  5
14036
330
13A39
100
AcDbEntity
  8
Defpoints
 62
     0
440
 16777216
100
AcDbPoint
 10
2051.999896414979
 20
599.9997395282284
 30
0.0
  0
POINT
  5
14037
330
13A39
100
AcDbEntity
  8
Defpoints
 62
     0
440
 16777216
100
AcDbPoint
 10
2051.999896414979
 20
499.9999830784627
 30
0.0
  0
ENDBLK
  5
13A3B
330
13A39
100
AcDbEntity
  8
0
100
AcDbBlockEnd
  0
BLOCK
  5
13A46
330
13A45
100
AcDbEntity
  8
0
100
AcDbBlockBegin
  2
*D36
 70
     1
 10
0.0
 20
0.0
 30
0.0
  3
*D36
  1

  0
LINE
  5
14038
330
13A45
100
AcDbEntity
  8
寸法線
 62
     0
440
 16777216
370
    -2
100
AcDbLine
 10
1399.999896414979
 20
581.2497532116999
 30
0.0
 11
1399.999896414979
 21
429.9999830784627
 31
0.0
  0
LINE
  5
14039
330
13A45
100
AcDbEntity
  8
寸法線
 62
     0
440
 16777216
370
    -2
100
AcDbLine
 10
1415.999896414979
 20
581.2497532116999
 30
0.0
 11
1415.999896414979
 21
429.9999830784627
 31
0.0
  0
LINE
  5
1403A
330
13A45
100
AcDbEntity
  8
寸法線
 62
     0
440
 16777216
370
    -2
100
AcDbLine
 10
1379.999896414979
 20
439.9999830784627
 30
0.0
 11
1359.999896414979
 21
439.9999830784627
 31
0.0
  0
LINE
  5
1403B
330
13A45
100
AcDbEntity
  8
寸法線
 62
     0
440
 16777216
370
    -2
100
AcDbLine
 10
1435.999896414979
 20
439.9999830784627
 30
0.0
 11
1455.999896414979
 21
439.9999830784627
 31
0.0
  0
LINE
  5
1403C
330
13A45
100
AcDbEntity
  8
寸法線
 62
     0
440
 16777216
370
    -2
100
AcDbLine
 10
1399.999896414979
 20
439.9999830784627
 30
0.0
 11
1415.999896414979
 21
439.9999830784627
 31
0.0
  0
INSERT
  5
1403D
330
13A45
100
AcDbEntity
  8
寸法線
 62
     0
440
 16777216
370
    -2
100
AcDbBlockReference
  2
_OPEN
 10
1399.999896414979
 20
439.9999830784627
 30
0.0
 41
20.0
 42
20.0
 43
20.0
  0
INSERT
  5
1403E
330
13A45
100
AcDbEntity
  8
寸法線
 62
     0
440
 16777216
370
    -2
100
AcDbBlockReference
  2
_OPEN
 10
1415.999896414979
 20
439.9999830784627
 30
0.0
 41
20.0
 42
20.0
 43
20.0
 50
180.0
  0
MTEXT
  5
1403F
330
13A45
100
AcDbEntity
  8
寸法線
 62
     0
440
 16777216
100
AcDbMText
 10
1407.999896414979
 20
461.2499830784627
 30
0.0
 40
25.0
 41
0.0
 46
0.0
 71
     5
 72
     1
  1
\A1;16
 73
     1
 44
1.0
  0
POINT
  5
14040
330
13A45
100
AcDbEntity
  8
Defpoints
 62
     0
440
 16777216
100
AcDbPoint
 10
1399.999896414979
 20
589.9997532116999
 30
0.0
  0
POINT
  5
14041
330
13A45
100
AcDbEntity
  8
Defpoints
 62
     0
440
 16777216
100
AcDbPoint
 10
1415.999896414979
 20
589.9997532116999
 30
0.0
  0
POINT
  5
14042
330
13A45
100
AcDbEntity
  8
Defpoints
 62
     0
440
 16777216
100
AcDbPoint
 10
1415.999896414979
 20
439.9999830784627
 30
0.0
  0
ENDBLK
  5
13A47
330
13A45
100
AcDbEntity
  8
0
100
AcDbBlockEnd
  0
BLOCK
  5
13A54
330
13A53
100
AcDbEntity
  8
0
100
AcDbBlockBegin
  2
*D37
 70
     1
 10
0.0
 20
0.0
 30
0.0
  3
*D37
  1

  0
LINE
  5
14043
330
13A53
100
AcDbEntity
  8
寸法線
 62
     0
440
 16777216
370
    -2
100
AcDbLine
 10
1415.999896414979
 20
581.2497532116999
 30
0.0
 11
1415.999896414979
 21
429.9999830784627
 31
0.0
  0
LINE
  5
14044
330
13A53
100
AcDbEntity
  8
寸法線
 62
     0
440
 16777216
370
    -2
100
AcDbLine
 10
2083.999896414979
 20
581.2497577728377
 30
0.0
 11
2083.999896414979
 21
429.9999830784627
 31
0.0
  0
LINE
  5
14045
330
13A53
100
AcDbEntity
  8
寸法線
 62
     0
440
 16777216
370
    -2
100
AcDbLine
 10
1435.999896414979
 20
439.9999830784627
 30
0.0
 11
2063.999896414979
 21
439.9999830784627
 31
0.0
  0
INSERT
  5
14046
330
13A53
100
AcDbEntity
  8
寸法線
 62
     0
440
 16777216
370
    -2
100
AcDbBlockReference
  2
_OPEN
 10
1415.999896414979
 20
439.9999830784627
 30
0.0
 41
20.0
 42
20.0
 43
20.0
 50
180.0
  0
INSERT
  5
14047
330
13A53
100
AcDbEntity
  8
寸法線
 62
     0
440
 16777216
370
    -2
100
AcDbBlockReference
  2
_OPEN
 10
2083.999896414979
 20
439.9999830784627
 30
0.0
 41
20.0
 42
20.0
 43
20.0
  0
MTEXT
  5
14048
330
13A53
100
AcDbEntity
  8
寸法線
 62
     0
440
 16777216
100
AcDbMText
 10
1749.999896414979
 20
461.2499830784627
 30
0.0
 40
25.0
 41
0.0
 46
0.0
 71
     5
 72
     1
  1
\A1;668
 73
     1
 44
1.0
  0
POINT
  5
14049
330
13A53
100
AcDbEntity
  8
Defpoints
 62
     0
440
 16777216
100
AcDbPoint
 10
1415.999896414979
 20
589.9997532116999
 30
0.0
  0
POINT
  5
1404A
330
13A53
100
AcDbEntity
  8
Defpoints
 62
     0
440
 16777216
100
AcDbPoint
 10
2083.999896414979
 20
589.9997577728377
 30
0.0
  0
POINT
  5
1404B
330
13A53
100
AcDbEntity
  8
Defpoints
 62
     0
440
 16777216
100
AcDbPoint
 10
2083.999896414979
 20
439.9999830784627
 30
0.0
  0
ENDBLK
  5
13A55
330
13A53
100
AcDbEntity
  8
0
100
AcDbBlockEnd
  0
BLOCK
  5
13A60
330
13A5F
100
AcDbEntity
  8
0
100
AcDbBlockBegin
  2
*D38
 70
     1
 10
0.0
 20
0.0
 30
0.0
  3
*D38
  1

  0
LINE
  5
1404C
330
13A5F
100
AcDbEntity
  8
寸法線
 62
     0
440
 16777216
370
    -2
100
AcDbLine
 10
1399.999896414979
 20
581.2497714563091
 30
0.0
 11
1399.999896414979
 21
369.9999830784627
 31
0.0
  0
LINE
  5
1404D
330
13A5F
100
AcDbEntity
  8
寸法線
 62
     0
440
 16777216
370
    -2
100
AcDbLine
 10
2099.999896414979
 20
581.2497577728377
 30
0.0
 11
2099.999896414979
 21
369.9999830784627
 31
0.0
  0
LINE
  5
1404E
330
13A5F
100
AcDbEntity
  8
寸法線
 62
     0
440
 16777216
370
    -2
100
AcDbLine
 10
1419.999896414979
 20
379.9999830784627
 30
0.0
 11
2079.999896414979
 21
379.9999830784627
 31
0.0
  0
INSERT
  5
1404F
330
13A5F
100
AcDbEntity
  8
寸法線
 62
     0
440
 16777216
370
    -2
100
AcDbBlockReference
  2
_OPEN
 10
1399.999896414979
 20
379.9999830784627
 30
0.0
 41
20.0
 42
20.0
 43
20.0
 50
180.0
  0
INSERT
  5
14050
330
13A5F
100
AcDbEntity
  8
寸法線
 62
     0
440
 16777216
370
    -2
100
AcDbBlockReference
  2
_OPEN
 10
2099.999896414979
 20
379.9999830784627
 30
0.0
 41
20.0
 42
20.0
 43
20.0
  0
MTEXT
  5
14051
330
13A5F
100
AcDbEntity
  8
寸法線
 62
     0
440
 16777216
100
AcDbMText
 10
1749.999896414979
 20
401.2499830784626
 30
0.0
 40
25.0
 41
0.0
 46
0.0
 71
     5
 72
     1
  1
\A1;700
 73
     1
 44
1.0
  0
POINT
  5
14052
330
13A5F
100
AcDbEntity
  8
Defpoints
 62
     0
440
 16777216
100
AcDbPoint
 10
1399.999896414979
 20
589.9997714563092
 30
0.0
  0
POINT
  5
14053
330
13A5F
100
AcDbEntity
  8
Defpoints
 62
     0
440
 16777216
100
AcDbPoint
 10
2099.999896414979
 20
589.9997577728377
 30
0.0
  0
POINT
  5
14054
330
13A5F
100
AcDbEntity
  8
Defpoints
 62
     0
440
 16777216
100
AcDbPoint
 10
2099.999896414979
 20
379.9999830784627
 30
0.0
  0
ENDBLK
  5
13A61
330
13A5F
100
AcDbEntity
  8
0
100
AcDbBlockEnd
  0
BLOCK
  5
13A6C
330
13A6B
100
AcDbEntity
  8
0
100
AcDbBlockBegin
  2
*D39
 70
     1
 10
0.0
 20
0.0
 30
0.0
  3
*D39
  1

  0
LINE
  5
14055
330
13A6B
100
AcDbEntity
  8
寸法線
 62
     0
440
 16777216
370
    -2
100
AcDbLine
 10
789.999896414979
 20
581.2497212835755
 30
0.0
 11
789.999896414979
 21
489.9999830784627
 31
0.0
  0
LINE
  5
14056
330
13A6B
100
AcDbEntity
  8
寸法線
 62
     0
440
 16777216
370
    -2
100
AcDbLine
 10
1209.999896414979
 20
581.2497577728522
 30
0.0
 11
1209.999896414979
 21
489.9999830784627
 31
0.0
  0
LINE
  5
14057
330
13A6B
100
AcDbEntity
  8
寸法線
 62
     0
440
 16777216
370
    -2
100
AcDbLine
 10
809.999896414979
 20
499.9999830784627
 30
0.0
 11
1189.999896414979
 21
499.9999830784627
 31
0.0
  0
INSERT
  5
14058
330
13A6B
100
AcDbEntity
  8
寸法線
 62
     0
440
 16777216
370
    -2
100
AcDbBlockReference
  2
_OPEN
 10
789.999896414979
 20
499.9999830784627
 30
0.0
 41
20.0
 42
20.0
 43
20.0
 50
180.0
  0
INSERT
  5
14059
330
13A6B
100
AcDbEntity
  8
寸法線
 62
     0
440
 16777216
370
    -2
100
AcDbBlockReference
  2
_OPEN
 10
1209.999896414979
 20
499.9999830784627
 30
0.0
 41
20.0
 42
20.0
 43
20.0
  0
MTEXT
  5
1405A
330
13A6B
100
AcDbEntity
  8
寸法線
 62
     0
440
 16777216
100
AcDbMText
 10
999.999896414979
 20
521.252443708384
 30
0.0
 40
25.0
 41
0.0
 46
0.0
 71
     5
 72
     1
  1
\A1;420
 73
     1
 44
1.0
  0
POINT
  5
1405B
330
13A6B
100
AcDbEntity
  8
Defpoints
 62
     0
440
 16777216
100
AcDbPoint
 10
789.999896414979
 20
589.9997212835756
 30
0.0
  0
POINT
  5
1405C
330
13A6B
100
AcDbEntity
  8
Defpoints
 62
     0
440
 16777216
100
AcDbPoint
 10
1209.999896414979
 20
589.9997577728522
 30
0.0
  0
POINT
  5
1405D
330
13A6B
100
AcDbEntity
  8
Defpoints
 62
     0
440
 16777216
100
AcDbPoint
 10
1209.999896414979
 20
499.9999830784627
 30
0.0
  0
ENDBLK
  5
13A6D
330
13A6B
100
AcDbEntity
  8
0
100
AcDbBlockEnd
  0
BLOCK
  5
14183
330
14182
100
AcDbEntity
  8
0
100
AcDbBlockBegin
  2
*D40
 70
     1
 10
0.0
 20
0.0
 30
0.0
  3
*D40
  1

  0
LINE
  5
1419A
330
14182
100
AcDbEntity
  8
寸法線
 62
     0
440
 16777216
370
    -2
100
AcDbLine
 10
3549.99999999997
 20
2036.250005162844
 30
0.0
 11
3549.99999999997
 21
1915.000005162843
 31
0.0
  0
LINE
  5
1419B
330
14182
100
AcDbEntity
  8
寸法線
 62
     0
440
 16777216
370
    -2
100
AcDbLine
 10
3149.999999999969
 20
2036.250005162844
 30
0.0
 11
3149.999999999969
 21
1915.000005162843
 31
0.0
  0
LINE
  5
1419C
330
14182
100
AcDbEntity
  8
寸法線
 62
     0
440
 16777216
370
    -2
100
AcDbLine
 10
3529.999999999969
 20
1925.000005162844
 30
0.0
 11
3169.999999999969
 21
1925.000005162844
 31
0.0
  0
INSERT
  5
1419D
330
14182
100
AcDbEntity
  8
寸法線
 62
     0
440
 16777216
370
    -2
100
AcDbBlockReference
  2
_OPEN
 10
3549.99999999997
 20
1925.000005162844
 30
0.0
 41
20.0
 42
20.0
 43
20.0
  0
INSERT
  5
1419E
330
14182
100
AcDbEntity
  8
寸法線
 62
     0
440
 16777216
370
    -2
100
AcDbBlockReference
  2
_OPEN
 10
3149.999999999969
 20
1925.000005162844
 30
0.0
 41
20.0
 42
20.0
 43
20.0
 50
180.0
  0
MTEXT
  5
1419F
330
14182
100
AcDbEntity
  8
寸法線
 62
     0
440
 16777216
100
AcDbMText
 10
3349.999999999971
 20
1946.250005162843
 30
0.0
 40
25.0
 41
0.0
 46
0.0
 71
     5
 72
     1
  1
\A1;400
 73
     1
 44
1.0
  0
POINT
  5
141A0
330
14182
100
AcDbEntity
  8
Defpoints
 62
     0
440
 16777216
100
AcDbPoint
 10
3549.99999999997
 20
2045.000005162844
 30
0.0
  0
POINT
  5
141A1
330
14182
100
AcDbEntity
  8
Defpoints
 62
     0
440
 16777216
100
AcDbPoint
 10
3149.999999999969
 20
2045.000005162844
 30
0.0
  0
POINT
  5
141A2
330
14182
100
AcDbEntity
  8
Defpoints
 62
     0
440
 16777216
100
AcDbPoint
 10
3149.999999999969
 20
1925.000005162844
 30
0.0
  0
ENDBLK
  5
14184
330
14182
100
AcDbEntity
  8
0
100
AcDbBlockEnd
  0
BLOCK
  5
1418F
330
1418E
100
AcDbEntity
  8
0
100
AcDbBlockBegin
  2
*D41
 70
     1
 10
0.0
 20
0.0
 30
0.0
  3
*D41
  1

  0
LINE
  5
141A3
330
1418E
100
AcDbEntity
  8
寸法線
 62
     0
440
 16777216
370
    -2
100
AcDbLine
 10
3141.249999999969
 20
2445.000044789062
 30
0.0
 11
3019.999999999968
 21
2445.000044789062
 31
0.0
  0
LINE
  5
141A4
330
1418E
100
AcDbEntity
  8
寸法線
 62
     0
440
 16777216
370
    -2
100
AcDbLine
 10
3141.249999999969
 20
2045.000044789061
 30
0.0
 11
3019.999999999968
 21
2045.000044789061
 31
0.0
  0
LINE
  5
141A5
330
1418E
100
AcDbEntity
  8
寸法線
 62
     0
440
 16777216
370
    -2
100
AcDbLine
 10
3029.999999999967
 20
2425.000044789062
 30
0.0
 11
3029.999999999967
 21
2065.000044789061
 31
0.0
  0
INSERT
  5
141A6
330
1418E
100
AcDbEntity
  8
寸法線
 62
     0
440
 16777216
370
    -2
100
AcDbBlockReference
  2
_OPEN
 10
3029.999999999967
 20
2445.000044789062
 30
0.0
 41
20.0
 42
20.0
 43
20.0
 50
90.0
  0
INSERT
  5
141A7
330
1418E
100
AcDbEntity
  8
寸法線
 62
     0
440
 16777216
370
    -2
100
AcDbBlockReference
  2
_OPEN
 10
3029.999999999967
 20
2045.000044789061
 30
0.0
 41
20.0
 42
20.0
 43
20.0
 50
270.0
  0
MTEXT
  5
141A8
330
1418E
100
AcDbEntity
  8
寸法線
 62
     0
440
 16777216
100
AcDbMText
 10
3008.749999999967
 20
2245.000024975952
 30
0.0
 40
25.0
 41
0.0
 46
0.0
 71
     5
 72
     1
  1
\A1;400
 11
0.0000000000000001
 21
1.0
 31
0.0
 73
     1
 44
1.0
  0
POINT
  5
141A9
330
1418E
100
AcDbEntity
  8
Defpoints
 62
     0
440
 16777216
100
AcDbPoint
 10
3149.999999999969
 20
2445.000044789062
 30
0.0
  0
POINT
  5
141AA
330
1418E
100
AcDbEntity
  8
Defpoints
 62
     0
440
 16777216
100
AcDbPoint
 10
3149.999999999969
 20
2045.000044789061
 30
0.0
  0
POINT
  5
141AB
330
1418E
100
AcDbEntity
  8
Defpoints
 62
     0
440
 16777216
100
AcDbPoint
 10
3029.999999999967
 20
2045.000044789061
 30
0.0
  0
ENDBLK
  5
14190
330
1418E
100
AcDbEntity
  8
0
100
AcDbBlockEnd
  0
ENDSEC
  0
SECTION
  2
ENTITIES
  0
LWPOLYLINE
  5
135F6
330
1F
100
AcDbEntity
  8
Defpoints
100
AcDbPolyline
 90
        4
 70
     1
 43
0.0
 10
0.0
 20
0.0
 10
4200.0
 20
0.0
 10
4200.0
 20
2970.0
 10
0.0
 20
2970.0
  0
LWPOLYLINE
  5
135F7
330
1F
100
AcDbEntity
  8
Defpoints
100
AcDbPolyline
 90
        4
 70
     1
 43
0.0
 10
69.0039999999999
 20
69.10750000000007
 10
4130.995999999998
 20
69.10750000000007
 10
4130.995999999998
 20
2900.8925
 10
69.0039999999999
 20
2900.8925
  0
LINE
  5
135F8
330
1F
100
AcDbEntity
  8
中心線
100
AcDbLine
 10
825.0000000000017
 20
1645.00002413303
 30
0.0
 11
2675.000000000002
 21
1645.000023874471
 31
0.0
  0
DIMENSION
  5
135F9
330
1F
100
AcDbEntity
  8
寸法線
100
AcDbDimension
280
     0
  2
*D1
 10
2100.000000000002
 20
1285.00002387864
 30
0.0
 11
1750.000000000001
 21
1306.25002387864
 31
0.0
 70
    32
 71
     5
 42
700.0
 73
     0
 74
     0
 75
     0
  3
STANDARD
100
AcDbAlignedDimension
 13
1400.000000000002
 23
1435.000014756324
 33
0.0
 14
2100.000000000002
 24
1435.000014756324
 34
0.0
100
AcDbRotatedDimension
  0
DIMENSION
  5
135FA
330
1F
100
AcDbEntity
  8
寸法線
100
AcDbDimension
280
     0
  2
*D2
 10
1399.999980186892
 20
1285.00002387864
 30
0.0
 11
1124.999980186892
 21
1285.00002387864
 31
0.0
 70
   160
 71
     5
 42
550.0
 73
     0
 74
     0
 75
     0
  3
STANDARD
100
AcDbAlignedDimension
 13
849.9999801868925
 23
1445.00002387864
 33
0.0
 14
1399.999980186892
 24
1435.000061098314
 34
0.0
100
AcDbRotatedDimension
  0
DIMENSION
  5
135FB
330
1F
100
AcDbEntity
  8
寸法線
100
AcDbDimension
280
     0
  2
*D3
 10
729.9999801868922
 20
1445.00002387864
 30
0.0
 11
729.9999801868925
 21
1645.00002387864
 31
0.0
 70
   160
 71
     5
 42
400.0000000000002
 73
     0
 74
     0
 75
     0
  3
STANDARD
100
AcDbAlignedDimension
 13
849.9999801868925
 23
1845.00002387864
 33
0.0
 14
849.9999801868925
 24
1445.00002387864
 34
0.0
 50
90.0
100
AcDbRotatedDimension
  0
DIMENSION
  5
135FC
330
1F
100
AcDbEntity
  8
寸法線
100
AcDbDimension
280
     0
  2
*D4
 10
868.9999801868925
 20
2605.000005873897
 30
0.0
 11
859.4999801868926
 21
2605.000005873897
 31
0.0
 70
   160
 71
     5
 42
19.0
 73
     0
 74
     0
 75
     0
  3
STANDARD
100
AcDbAlignedDimension
 13
849.9999801868925
 23
2436.00004309357
 33
0.0
 14
868.9999801868925
 24
2445.000005873896
 34
0.0
100
AcDbRotatedDimension
  0
DIMENSION
  5
135FD
330
1F
100
AcDbEntity
  8
寸法線
100
AcDbDimension
280
     0
  2
*D5
 10
1399.999980186892
 20
2605.000005873897
 30
0.0
 11
1134.499980186892
 21
2605.000005873897
 31
0.0
 70
   160
 71
     5
 42
531.0
 73
     0
 74
     0
 75
     0
  3
STANDARD
100
AcDbAlignedDimension
 13
868.9999801868925
 23
2445.000005873896
 33
0.0
 14
1399.999980186892
 24
2455.000043093571
 34
0.0
100
AcDbRotatedDimension
  0
DIMENSION
  5
135FE
330
1F
100
AcDbEntity
  8
寸法線
100
AcDbDimension
280
     0
  2
*D6
 10
729.9999801868921
 20
2045.000005873896
 30
0.0
 11
729.9999801868925
 21
2245.000005873896
 31
0.0
 70
   160
 71
     5
 42
400.0000000000011
 73
     0
 74
     0
 75
     0
  3
STANDARD
100
AcDbAlignedDimension
 13
868.9999801868925
 23
2445.000005873896
 33
0.0
 14
868.9999801868925
 24
2045.000005873895
 34
0.0
 50
90.0
100
AcDbRotatedDimension
  0
DIMENSION
  5
135FF
330
1F
100
AcDbEntity
  8
寸法線
100
AcDbDimension
280
     0
  2
*D7
 10
1399.999980186892
 20
2685.000005873897
 30
0.0
 11
1124.999980186892
 21
2685.000005873897
 31
0.0
 70
   160
  1
<>\XH型鋼（連結部）
 71
     5
 42
550.0
 73
     0
 74
     0
 75
     0
  3
STANDARD
100
AcDbAlignedDimension
 13
849.9999801868925
 23
2436.00004309357
 33
0.0
 14
1399.999980186892
 24
2455.000043093571
 34
0.0
100
AcDbRotatedDimension
  0
LINE
  5
13600
330
1F
100
AcDbEntity
  8
中心線
100
AcDbLine
 10
825.0000000000017
 20
2245.000005508996
 30
0.0
 11
2675.000226983166
 21
2245.000043709708
 31
0.0
  0
DIMENSION
  5
13601
330
1F
100
AcDbEntity
  8
寸法線
100
AcDbDimension
280
     0
  2
*D8
 10
2100.000000000002
 20
2685.000005873897
 30
0.0
 11
1750.000000000001
 21
2685.000005873897
 31
0.0
 70
    32
  1
W=<>\X空洞金具
 71
     5
 42
700.0
 73
     0
 74
     0
 75
     0
  3
STANDARD
100
AcDbAlignedDimension
 13
1400.000000000002
 23
2455.000019680227
 33
0.0
 14
2100.000000000002
 24
2454.99999675158
 34
0.0
100
AcDbRotatedDimension
  0
DIMENSION
  5
13602
330
1F
100
AcDbEntity
  8
寸法線
100
AcDbDimension
280
     0
  2
*D9
 10
2649.999999999971
 20
2765.000005873897
 30
0.0
 11
1750.000000000001
 21
2786.250005873897
 31
0.0
 70
    32
  1
スルーサーＢ L=<>
 71
     5
 42
1799.99999999994
 73
     0
 74
     0
 75
     0
  3
STANDARD
100
AcDbAlignedDimension
 13
850.0000000000309
 23
2436.000019680241
 33
0.0
 14
2649.999999999971
 24
2436.000005873911
 34
0.0
100
AcDbRotatedDimension
  0
LINE
  5
13603
330
1F
100
AcDbEntity
  8
実線
100
AcDbLine
 10
1400.000000000002
 20
1855.000014756324
 30
0.0
 11
1416.000000000002
 21
1855.000014756324
 31
0.0
  0
LINE
  5
13604
330
1F
100
AcDbEntity
  8
実線
100
AcDbLine
 10
1448.000000000002
 20
1502.000033000955
 30
0.0
 11
1448.000000000002
 21
1788.000033000956
 31
0.0
  0
LINE
  5
13605
330
1F
100
AcDbEntity
  8
実線
100
AcDbLine
 10
1758.000000000002
 20
1785.000014756325
 30
0.0
 11
2052.000103585028
 21
1785.000014756325
 31
0.0
  0
LINE
  5
13606
330
1F
100
AcDbEntity
  8
実線
100
AcDbLine
 10
1758.000000000002
 20
1845.000014756324
 30
0.0
 11
2084.000103585028
 21
1845.000014756324
 31
0.0
  0
LINE
  5
13607
330
1F
100
AcDbEntity
  8
破線
100
AcDbLine
 10
1416.000000000002
 20
1829.000014756324
 30
0.0
 11
1448.000000000002
 21
1829.000014756324
 31
0.0
  0
LINE
  5
13608
330
1F
100
AcDbEntity
  8
破線
100
AcDbLine
 10
1448.000000000002
 20
1829.000033000956
 30
0.0
 11
1448.000000000002
 21
1845.000014756324
 31
0.0
  0
LINE
  5
13609
330
1F
100
AcDbEntity
  8
破線
100
AcDbLine
 10
1425.000000000002
 20
1785.000014756325
 30
0.0
 11
1448.000000000002
 21
1785.000014756325
 31
0.0
  0
LINE
  5
1360A
330
1F
100
AcDbEntity
  8
実線
100
AcDbLine
 10
1428.000000000002
 20
1788.000014756325
 30
0.0
 11
1448.000000000002
 21
1788.000014756325
 31
0.0
  0
LINE
  5
1360B
330
1F
100
AcDbEntity
  8
実線
100
AcDbLine
 10
1416.000000000002
 20
1776.000014756325
 30
0.0
 11
1428.000000000002
 21
1788.000014756325
 31
0.0
  0
LINE
  5
1360C
330
1F
100
AcDbEntity
  8
実線
100
AcDbLine
 10
1416.000000000002
 20
1785.000014756325
 30
0.0
 11
1425.000000000002
 21
1785.000014756325
 31
0.0
  0
LINE
  5
1360D
330
1F
100
AcDbEntity
  8
破線
100
AcDbLine
 10
2052.000000000002
 20
1829.000033000956
 30
0.0
 11
2052.000000000002
 21
1845.000014756324
 31
0.0
  0
LINE
  5
1360E
330
1F
100
AcDbEntity
  8
破線
100
AcDbLine
 10
2084.000000000002
 20
1829.000014756324
 30
0.0
 11
2052.000000000002
 21
1829.000014756324
 31
0.0
  0
LINE
  5
1360F
330
1F
100
AcDbEntity
  8
破線
100
AcDbLine
 10
1416.000000000002
 20
1653.000014756324
 30
0.0
 11
1448.000000000002
 21
1653.000014756324
 31
0.0
  0
LINE
  5
13610
330
1F
100
AcDbEntity
  8
破線
100
AcDbLine
 10
1416.000000000002
 20
1637.000014756324
 30
0.0
 11
1448.000000000002
 21
1637.000014756324
 31
0.0
  0
LINE
  5
13611
330
1F
100
AcDbEntity
  8
破線
100
AcDbLine
 10
2052.000000000002
 20
1653.000014756324
 30
0.0
 11
2084.000000000002
 21
1653.000014756324
 31
0.0
  0
LINE
  5
13612
330
1F
100
AcDbEntity
  8
破線
100
AcDbLine
 10
2052.000000000002
 20
1637.000014756324
 30
0.0
 11
2084.000000000002
 21
1637.000014756324
 31
0.0
  0
LINE
  5
13613
330
1F
100
AcDbEntity
  8
実線
100
AcDbLine
 10
2084.000000000002
 20
1855.000014756324
 30
0.0
 11
2100.000000000002
 21
1855.000014756324
 31
0.0
  0
LINE
  5
13614
330
1F
100
AcDbEntity
  8
実線
100
AcDbLine
 10
1416.000000000002
 20
1435.000033000956
 30
0.0
 11
1416.000000000002
 21
1855.000014756324
 31
0.0
  0
LINE
  5
13615
330
1F
100
AcDbEntity
  8
実線
100
AcDbLine
 10
2084.000000000002
 20
1435.000033000956
 30
0.0
 11
2084.000000000002
 21
1855.000014756324
 31
0.0
  0
LINE
  5
13616
330
1F
100
AcDbEntity
  8
実線
100
AcDbLine
 10
1400.000000000002
 20
1435.000014756324
 30
0.0
 11
1416.000000000002
 21
1435.000014756324
 31
0.0
  0
LINE
  5
13617
330
1F
100
AcDbEntity
  8
実線
100
AcDbLine
 10
1758.000000000002
 20
1505.000014756325
 30
0.0
 11
2052.000103585028
 21
1505.000014756324
 31
0.0
  0
LINE
  5
13618
330
1F
100
AcDbEntity
  8
実線
100
AcDbLine
 10
1758.000000000002
 20
1445.000014756325
 30
0.0
 11
2084.000103585028
 21
1445.000014756324
 31
0.0
  0
LINE
  5
13619
330
1F
100
AcDbEntity
  8
破線
100
AcDbLine
 10
1416.000000000002
 20
1461.000014756324
 30
0.0
 11
1448.000000000002
 21
1461.000014756324
 31
0.0
  0
LINE
  5
1361A
330
1F
100
AcDbEntity
  8
破線
100
AcDbLine
 10
1448.000000000002
 20
1460.999996511693
 30
0.0
 11
1448.000000000002
 21
1445.000014756324
 31
0.0
  0
LINE
  5
1361B
330
1F
100
AcDbEntity
  8
破線
100
AcDbLine
 10
1425.000000000002
 20
1505.000014756324
 30
0.0
 11
1448.000000000002
 21
1505.000014756324
 31
0.0
  0
LINE
  5
1361C
330
1F
100
AcDbEntity
  8
実線
100
AcDbLine
 10
1428.000000000002
 20
1502.000014756325
 30
0.0
 11
1448.000000000002
 21
1502.000014756325
 31
0.0
  0
LINE
  5
1361D
330
1F
100
AcDbEntity
  8
実線
100
AcDbLine
 10
1416.000000000002
 20
1514.000014756324
 30
0.0
 11
1428.000000000002
 21
1502.000014756325
 31
0.0
  0
LINE
  5
1361E
330
1F
100
AcDbEntity
  8
実線
100
AcDbLine
 10
1416.000000000002
 20
1505.000014756324
 30
0.0
 11
1425.000000000002
 21
1505.000014756324
 31
0.0
  0
LINE
  5
1361F
330
1F
100
AcDbEntity
  8
破線
100
AcDbLine
 10
2052.000000000002
 20
1460.999996511693
 30
0.0
 11
2052.000000000002
 21
1445.000014756324
 31
0.0
  0
LINE
  5
13620
330
1F
100
AcDbEntity
  8
破線
100
AcDbLine
 10
2084.000000000002
 20
1461.000014756324
 30
0.0
 11
2052.000000000002
 21
1461.000014756324
 31
0.0
  0
LINE
  5
13621
330
1F
100
AcDbEntity
  8
実線
100
AcDbLine
 10
2084.000000000002
 20
1435.000014756324
 30
0.0
 11
2100.000000000002
 21
1435.000014756324
 31
0.0
  0
LINE
  5
13622
330
1F
100
AcDbEntity
  8
実線
100
AcDbLine
 10
2052.000103585028
 20
1502.000033000955
 30
0.0
 11
2052.000103585028
 21
1788.000033000956
 31
0.0
  0
LINE
  5
13623
330
1F
100
AcDbEntity
  8
破線
100
AcDbLine
 10
2075.000103585027
 20
1785.000014756325
 30
0.0
 11
2052.000103585028
 21
1785.000014756325
 31
0.0
  0
LINE
  5
13624
330
1F
100
AcDbEntity
  8
実線
100
AcDbLine
 10
2072.000103585029
 20
1788.000014756325
 30
0.0
 11
2052.000103585028
 21
1788.000014756325
 31
0.0
  0
LINE
  5
13625
330
1F
100
AcDbEntity
  8
実線
100
AcDbLine
 10
2084.000103585028
 20
1776.000014756325
 30
0.0
 11
2072.000103585029
 21
1788.000014756325
 31
0.0
  0
LINE
  5
13626
330
1F
100
AcDbEntity
  8
実線
100
AcDbLine
 10
2084.000103585028
 20
1785.000014756325
 30
0.0
 11
2075.000103585027
 21
1785.000014756325
 31
0.0
  0
LINE
  5
13627
330
1F
100
AcDbEntity
  8
破線
100
AcDbLine
 10
2075.000103585027
 20
1505.000014756324
 30
0.0
 11
2052.000103585028
 21
1505.000014756324
 31
0.0
  0
LINE
  5
13628
330
1F
100
AcDbEntity
  8
実線
100
AcDbLine
 10
2072.000103585029
 20
1502.000014756325
 30
0.0
 11
2052.000103585028
 21
1502.000014756325
 31
0.0
  0
LINE
  5
13629
330
1F
100
AcDbEntity
  8
実線
100
AcDbLine
 10
2084.000103585028
 20
1514.000014756324
 30
0.0
 11
2072.000103585029
 21
1502.000014756325
 31
0.0
  0
LINE
  5
1362A
330
1F
100
AcDbEntity
  8
実線
100
AcDbLine
 10
2084.000103585028
 20
1505.000014756324
 30
0.0
 11
2075.000103585027
 21
1505.000014756324
 31
0.0
  0
LINE
  5
1362B
330
1F
100
AcDbEntity
  8
実線
100
AcDbLine
 10
1400.000000000002
 20
2035.000014996212
 30
0.0
 11
1400.000000000002
 21
2455.000019680227
 31
0.0
  0
LINE
  5
1362C
330
1F
100
AcDbEntity
  8
実線
100
AcDbLine
 10
1400.000000000002
 20
2454.999996751581
 30
0.0
 11
1416.000000000002
 21
2454.999996751581
 31
0.0
  0
LINE
  5
1362D
330
1F
100
AcDbEntity
  8
実線
100
AcDbLine
 10
1448.000000000002
 20
2102.000014996212
 30
0.0
 11
1448.000000000002
 21
2388.000014996212
 31
0.0
  0
LINE
  5
1362E
330
1F
100
AcDbEntity
  8
実線
100
AcDbLine
 10
1758.000000000002
 20
2384.999996751581
 30
0.0
 11
2052.000103585028
 21
2384.999996751581
 31
0.0
  0
LINE
  5
1362F
330
1F
100
AcDbEntity
  8
実線
100
AcDbLine
 10
1758.000000000002
 20
2444.99999675158
 30
0.0
 11
2084.000103585028
 21
2444.99999675158
 31
0.0
  0
LINE
  5
13630
330
1F
100
AcDbEntity
  8
破線
100
AcDbLine
 10
1416.000000000002
 20
2428.99999675158
 30
0.0
 11
1448.000000000002
 21
2428.99999675158
 31
0.0
  0
LINE
  5
13631
330
1F
100
AcDbEntity
  8
破線
100
AcDbLine
 10
1448.000000000002
 20
2429.000014996212
 30
0.0
 11
1448.000000000002
 21
2444.99999675158
 31
0.0
  0
LINE
  5
13632
330
1F
100
AcDbEntity
  8
破線
100
AcDbLine
 10
1425.000000000002
 20
2384.999996751581
 30
0.0
 11
1448.000000000002
 21
2384.999996751581
 31
0.0
  0
LINE
  5
13633
330
1F
100
AcDbEntity
  8
実線
100
AcDbLine
 10
1428.000000000002
 20
2387.999996751581
 30
0.0
 11
1448.000000000002
 21
2387.999996751581
 31
0.0
  0
LINE
  5
13634
330
1F
100
AcDbEntity
  8
実線
100
AcDbLine
 10
1416.000000000002
 20
2375.999996751581
 30
0.0
 11
1428.000000000002
 21
2387.999996751581
 31
0.0
  0
LINE
  5
13635
330
1F
100
AcDbEntity
  8
実線
100
AcDbLine
 10
1416.000000000002
 20
2384.999996751581
 30
0.0
 11
1425.000000000002
 21
2384.999996751581
 31
0.0
  0
LINE
  5
13636
330
1F
100
AcDbEntity
  8
破線
100
AcDbLine
 10
2052.000000000002
 20
2429.000014996212
 30
0.0
 11
2052.000000000002
 21
2444.99999675158
 31
0.0
  0
LINE
  5
13637
330
1F
100
AcDbEntity
  8
破線
100
AcDbLine
 10
2084.000000000002
 20
2428.99999675158
 30
0.0
 11
2052.000000000002
 21
2428.99999675158
 31
0.0
  0
LINE
  5
13638
330
1F
100
AcDbEntity
  8
破線
100
AcDbLine
 10
1416.000000000002
 20
2252.999996751581
 30
0.0
 11
1448.000000000002
 21
2252.999996751581
 31
0.0
  0
LINE
  5
13639
330
1F
100
AcDbEntity
  8
破線
100
AcDbLine
 10
1416.000000000002
 20
2236.999996751581
 30
0.0
 11
1448.000000000002
 21
2236.999996751581
 31
0.0
  0
LINE
  5
1363A
330
1F
100
AcDbEntity
  8
破線
100
AcDbLine
 10
2052.000000000002
 20
2252.999996751581
 30
0.0
 11
2084.000000000002
 21
2252.999996751581
 31
0.0
  0
LINE
  5
1363B
330
1F
100
AcDbEntity
  8
破線
100
AcDbLine
 10
2052.000000000002
 20
2236.999996751581
 30
0.0
 11
2084.000000000002
 21
2236.999996751581
 31
0.0
  0
LINE
  5
1363C
330
1F
100
AcDbEntity
  8
実線
100
AcDbLine
 10
2084.000000000002
 20
2454.999996751581
 30
0.0
 11
2100.000000000002
 21
2454.999996751581
 31
0.0
  0
LINE
  5
1363D
330
1F
100
AcDbEntity
  8
実線
100
AcDbLine
 10
1416.000000000002
 20
2035.000014996212
 30
0.0
 11
1416.000000000002
 21
2454.999996751581
 31
0.0
  0
LINE
  5
1363E
330
1F
100
AcDbEntity
  8
実線
100
AcDbLine
 10
2084.000000000002
 20
2035.000014996212
 30
0.0
 11
2084.000000000002
 21
2454.999996751581
 31
0.0
  0
LINE
  5
1363F
330
1F
100
AcDbEntity
  8
実線
100
AcDbLine
 10
1400.000000000002
 20
2034.999996751581
 30
0.0
 11
1416.000000000002
 21
2034.999996751581
 31
0.0
  0
LINE
  5
13640
330
1F
100
AcDbEntity
  8
実線
100
AcDbLine
 10
1758.000000000002
 20
2104.999996751581
 30
0.0
 11
2052.000103585028
 21
2104.999996751581
 31
0.0
  0
LINE
  5
13641
330
1F
100
AcDbEntity
  8
実線
100
AcDbLine
 10
1758.000000000002
 20
2044.999996751581
 30
0.0
 11
2084.000103585028
 21
2044.999996751581
 31
0.0
  0
LINE
  5
13642
330
1F
100
AcDbEntity
  8
破線
100
AcDbLine
 10
1416.000000000002
 20
2060.999996751581
 30
0.0
 11
1448.000000000002
 21
2060.999996751581
 31
0.0
  0
LINE
  5
13643
330
1F
100
AcDbEntity
  8
破線
100
AcDbLine
 10
1448.000000000002
 20
2060.999978506949
 30
0.0
 11
1448.000000000002
 21
2044.999996751581
 31
0.0
  0
LINE
  5
13644
330
1F
100
AcDbEntity
  8
破線
100
AcDbLine
 10
1425.000000000002
 20
2104.999996751581
 30
0.0
 11
1448.000000000002
 21
2104.999996751581
 31
0.0
  0
LINE
  5
13645
330
1F
100
AcDbEntity
  8
実線
100
AcDbLine
 10
1428.000000000002
 20
2101.999996751581
 30
0.0
 11
1448.000000000002
 21
2101.999996751581
 31
0.0
  0
LINE
  5
13646
330
1F
100
AcDbEntity
  8
実線
100
AcDbLine
 10
1416.000000000002
 20
2113.999996751581
 30
0.0
 11
1428.000000000002
 21
2101.999996751581
 31
0.0
  0
LINE
  5
13647
330
1F
100
AcDbEntity
  8
実線
100
AcDbLine
 10
1416.000000000002
 20
2104.999996751581
 30
0.0
 11
1425.000000000002
 21
2104.999996751581
 31
0.0
  0
LINE
  5
13648
330
1F
100
AcDbEntity
  8
破線
100
AcDbLine
 10
2052.000000000002
 20
2060.999978506949
 30
0.0
 11
2052.000000000002
 21
2044.999996751581
 31
0.0
  0
LINE
  5
13649
330
1F
100
AcDbEntity
  8
破線
100
AcDbLine
 10
2084.000000000002
 20
2060.999996751581
 30
0.0
 11
2052.000000000002
 21
2060.999996751581
 31
0.0
  0
LINE
  5
1364A
330
1F
100
AcDbEntity
  8
実線
100
AcDbLine
 10
2084.000000000002
 20
2034.999996751581
 30
0.0
 11
2100.000000000002
 21
2034.999996751581
 31
0.0
  0
LINE
  5
1364B
330
1F
100
AcDbEntity
  8
実線
100
AcDbLine
 10
2052.000103585028
 20
2102.000014996212
 30
0.0
 11
2052.000103585028
 21
2388.000014996212
 31
0.0
  0
LINE
  5
1364C
330
1F
100
AcDbEntity
  8
破線
100
AcDbLine
 10
2075.000103585027
 20
2384.999996751581
 30
0.0
 11
2052.000103585028
 21
2384.999996751581
 31
0.0
  0
LINE
  5
1364D
330
1F
100
AcDbEntity
  8
実線
100
AcDbLine
 10
2072.000103585029
 20
2387.999996751581
 30
0.0
 11
2052.000103585028
 21
2387.999996751581
 31
0.0
  0
LINE
  5
1364E
330
1F
100
AcDbEntity
  8
実線
100
AcDbLine
 10
2084.000103585028
 20
2375.999996751581
 30
0.0
 11
2072.000103585029
 21
2387.999996751581
 31
0.0
  0
LINE
  5
1364F
330
1F
100
AcDbEntity
  8
実線
100
AcDbLine
 10
2084.000103585028
 20
2384.999996751581
 30
0.0
 11
2075.000103585027
 21
2384.999996751581
 31
0.0
  0
LINE
  5
13650
330
1F
100
AcDbEntity
  8
破線
100
AcDbLine
 10
2075.000103585027
 20
2104.999996751581
 30
0.0
 11
2052.000103585028
 21
2104.999996751581
 31
0.0
  0
LINE
  5
13651
330
1F
100
AcDbEntity
  8
実線
100
AcDbLine
 10
2072.000103585029
 20
2101.999996751581
 30
0.0
 11
2052.000103585028
 21
2101.999996751581
 31
0.0
  0
LINE
  5
13652
330
1F
100
AcDbEntity
  8
実線
100
AcDbLine
 10
2084.000103585028
 20
2113.999996751581
 30
0.0
 11
2072.000103585029
 21
2101.999996751581
 31
0.0
  0
LINE
  5
13653
330
1F
100
AcDbEntity
  8
実線
100
AcDbLine
 10
2084.000103585028
 20
2104.999996751581
 30
0.0
 11
2075.000103585027
 21
2104.999996751581
 31
0.0
  0
DIMENSION
  5
13654
330
1F
100
AcDbEntity
  8
寸法線
100
AcDbDimension
280
     0
  2
*D24
 10
2631.000226983166
 20
2605.000005873897
 30
0.0
 11
2640.500226983166
 21
2605.000005873897
 31
0.0
 70
   160
 71
     5
 42
19.0
 73
     0
 74
     0
 75
     0
  3
STANDARD
100
AcDbAlignedDimension
 13
2650.000226983166
 23
2436.00004309357
 33
0.0
 14
2631.000226983166
 24
2445.000005873896
 34
0.0
 50
180.0
100
AcDbRotatedDimension
  0
DIMENSION
  5
13655
330
1F
100
AcDbEntity
  8
寸法線
100
AcDbDimension
280
     0
  2
*D25
 10
2100.000226983166
 20
2605.000005873897
 30
0.0
 11
2365.500226983166
 21
2605.000005873897
 31
0.0
 70
   160
 71
     5
 42
531.0
 73
     0
 74
     0
 75
     0
  3
STANDARD
100
AcDbAlignedDimension
 13
2631.000226983166
 23
2445.000005873896
 33
0.0
 14
2100.000226983166
 24
2455.000043093571
 34
0.0
 50
180.0
100
AcDbRotatedDimension
  0
DIMENSION
  5
13656
330
1F
100
AcDbEntity
  8
寸法線
100
AcDbDimension
280
     0
  2
*D26
 10
2100.000000000002
 20
1285.00002387864
 30
0.0
 11
2375.000000000002
 21
1285.00002387864
 31
0.0
 70
   160
 71
     5
 42
550.0
 73
     0
 74
     0
 75
     0
  3
STANDARD
100
AcDbAlignedDimension
 13
2650.000000000002
 23
1445.00002387864
 33
0.0
 14
2100.000000000002
 24
1435.000061098314
 34
0.0
 50
180.0
100
AcDbRotatedDimension
  0
LINE
  5
13657
330
1F
100
AcDbEntity
  8
中心線
100
AcDbLine
 10
1272.000000000002
 20
1815.00002387864
 30
0.0
 11
2228.000003823188
 21
1815.000002250002
 31
0.0
  0
LINE
  5
13658
330
1F
100
AcDbEntity
  8
中心線
100
AcDbLine
 10
1390.000051792515
 20
2415.000014996209
 30
0.0
 11
2110.00015537754
 21
2415.000014996209
 31
0.0
  0
LINE
  5
13659
330
1F
100
AcDbEntity
  8
中心線
100
AcDbLine
 10
1390.000051792515
 20
2075.000014996215
 30
0.0
 11
2110.00015537754
 21
2075.000014996215
 31
0.0
  0
LINE
  5
1365A
330
1F
100
AcDbEntity
  8
中心線
100
AcDbLine
 10
1271.99999994328
 20
1475.000024238291
 30
0.0
 11
2228.000003766469
 21
1475.000045648062
 31
0.0
  0
LINE
  5
1365B
330
1F
100
AcDbEntity
  8
寸法線
100
AcDbLine
 10
1589.999948207486
 20
1169.999779683914
 30
0.0
 11
1909.999948207486
 21
1169.999779683914
 31
0.0
  0
TEXT
  5
1365C
330
1F
100
AcDbEntity
  8
寸法線
100
AcDbText
 10
1598.749948207486
 20
1178.749779683914
 30
0.0
 40
37.5
  1
空洞金具詳細図
 72
     1
 11
1749.999948207486
 21
1178.749779683914
 31
0.0
100
AcDbText
 73
     1
  0
LINE
  5
1365D
330
1F
100
AcDbEntity
  8
実線
100
AcDbLine
 10
850.0000000000309
 20
2436.000019680241
 30
0.0
 11
850.0000000000309
 21
2054.000019680241
 31
0.0
  0
LINE
  5
1365E
330
1F
100
AcDbEntity
  8
実線
100
AcDbLine
 10
869.0000000000308
 20
2444.99998246056
 30
0.0
 11
869.0000000000308
 21
2044.99998246056
 31
0.0
  0
LINE
  5
1365F
330
1F
100
AcDbEntity
  8
実線
100
AcDbLine
 10
869.0000000000308
 20
2444.99998246056
 30
0.0
 11
1400.000019813133
 21
2444.99998246056
 31
0.0
  0
LINE
  5
13660
330
1F
100
AcDbEntity
  8
実線
100
AcDbLine
 10
869.0000000000308
 20
2423.999982460561
 30
0.0
 11
1400.000019813133
 21
2423.999982460561
 31
0.0
  0
LINE
  5
13661
330
1F
100
AcDbEntity
  8
実線
100
AcDbLine
 10
1280.000000000031
 20
2423.999982460561
 30
0.0
 11
1280.000000000031
 21
2394.000019680241
 31
0.0
  0
LINE
  5
13662
330
1F
100
AcDbEntity
  8
実線
100
AcDbLine
 10
1360.000019813133
 20
2353.99998246056
 30
0.0
 11
1400.000019813133
 21
2353.99998246056
 31
0.0
  0
LINE
  5
13663
330
1F
100
AcDbEntity
  8
実線
100
AcDbLine
 10
1280.000000000031
 20
2394.000019680241
 30
0.0
 11
1360.000019813133
 21
2353.99998246056
 31
0.0
  0
LINE
  5
13664
330
1F
100
AcDbEntity
  8
実線
100
AcDbLine
 10
1388.00002377575
 20
2423.999982460561
 30
0.0
 11
1400.00002377575
 21
2411.999982460561
 31
0.0
  0
LINE
  5
13665
330
1F
100
AcDbEntity
  8
仮想線
100
AcDbLine
 10
1391.000019813133
 20
2423.999982460561
 30
0.0
 11
1400.000019813133
 21
2414.99998246056
 31
0.0
  0
LINE
  5
13666
330
1F
100
AcDbEntity
  8
実線
100
AcDbLine
 10
1280.000000000031
 20
2065.99998246056
 30
0.0
 11
1280.000000000031
 21
2095.999945240894
 31
0.0
  0
LINE
  5
13667
330
1F
100
AcDbEntity
  8
実線
100
AcDbLine
 10
1360.000019813133
 20
2135.99998246056
 30
0.0
 11
1400.000019813133
 21
2135.99998246056
 31
0.0
  0
LINE
  5
13668
330
1F
100
AcDbEntity
  8
実線
100
AcDbLine
 10
1280.000000000031
 20
2095.999945240894
 30
0.0
 11
1360.000019813133
 21
2135.99998246056
 31
0.0
  0
LINE
  5
13669
330
1F
100
AcDbEntity
  8
実線
100
AcDbLine
 10
1388.00002377575
 20
2065.99998246056
 30
0.0
 11
1400.00002377575
 21
2077.999982460561
 31
0.0
  0
LINE
  5
1366A
330
1F
100
AcDbEntity
  8
仮想線
100
AcDbLine
 10
1391.000019813133
 20
2065.99998246056
 30
0.0
 11
1400.000019813133
 21
2074.99998246056
 31
0.0
  0
LINE
  5
1366B
330
1F
100
AcDbEntity
  8
実線
100
AcDbLine
 10
850.0000000000309
 20
2436.000019680241
 30
0.0
 11
869.0000000000308
 21
2436.000019680241
 31
0.0
  0
LINE
  5
1366C
330
1F
100
AcDbEntity
  8
実線
100
AcDbLine
 10
850.0000000000309
 20
2054.000045240884
 30
0.0
 11
869.0000000000308
 21
2054.000045240884
 31
0.0
  0
LINE
  5
1366D
330
1F
100
AcDbEntity
  8
仮想線
100
AcDbLine
 10
869.0000000000308
 20
2444.99998246056
 30
0.0
 11
860.0000372196973
 21
2436.000019680241
 31
0.0
  0
LINE
  5
1366E
330
1F
100
AcDbEntity
  8
仮想線
100
AcDbLine
 10
869.0000000000308
 20
2044.99998246056
 30
0.0
 11
859.9999372197071
 21
2054.000045240884
 31
0.0
  0
LINE
  5
1366F
330
1F
100
AcDbEntity
  8
実線
100
AcDbLine
 10
869.0000000000308
 20
2250.999982460561
 30
0.0
 11
1069.000019813133
 21
2250.999982460561
 31
0.0
  0
LINE
  5
13670
330
1F
100
AcDbEntity
  8
実線
100
AcDbLine
 10
869.0000000000308
 20
2238.99998246056
 30
0.0
 11
1069.000019813133
 21
2238.99998246056
 31
0.0
  0
LINE
  5
13671
330
1F
100
AcDbEntity
  8
実線
100
AcDbLine
 10
1069.000019813133
 20
2250.999982460561
 30
0.0
 11
1069.000019813133
 21
2238.99998246056
 31
0.0
  0
LINE
  5
13672
330
1F
100
AcDbEntity
  8
仮想線
100
AcDbLine
 10
1400.000001981332
 20
2454.000015958269
 30
0.0
 11
1390.999968483624
 21
2444.99998246056
 31
0.0
  0
LINE
  5
13673
330
1F
100
AcDbEntity
  8
仮想線
100
AcDbLine
 10
1400.000001981332
 20
2036.000015958268
 30
0.0
 11
1391.000035479041
 21
2044.99998246056
 31
0.0
  0
LINE
  5
13674
330
1F
100
AcDbEntity
  8
実線
100
AcDbLine
 10
869.0000000000308
 20
2044.99998246056
 30
0.0
 11
1400.000083079491
 21
2045.000246699126
 31
0.0
  0
LINE
  5
13675
330
1F
100
AcDbEntity
  8
実線
100
AcDbLine
 10
869.0000000000308
 20
2066.00007872682
 30
0.0
 11
1400.000076436512
 21
2066.000246699127
 31
0.0
  0
LINE
  5
13676
330
1F
100
AcDbEntity
  8
中心線
100
AcDbLine
 10
900.0000000000309
 20
2455.000019677011
 30
0.0
 11
900.0000000000309
 21
2414.000019677011
 31
0.0
  0
LINE
  5
13677
330
1F
100
AcDbEntity
  8
中心線
100
AcDbLine
 10
900.0000000000309
 20
2035.000019683486
 30
0.0
 11
900.0000000000309
 21
2076.000019683486
 31
0.0
  0
LINE
  5
13678
330
1F
100
AcDbEntity
  8
中心線
100
AcDbLine
 10
840.0000044978824
 20
2344.999982355204
 30
0.0
 11
876.000024310988
 21
2344.999982355204
 31
0.0
  0
LINE
  5
13679
330
1F
100
AcDbEntity
  8
中心線
100
AcDbLine
 10
840.0000044978824
 20
2144.999982355205
 30
0.0
 11
876.000024310988
 21
2144.999982355205
 31
0.0
  0
LINE
  5
1367A
330
1F
100
AcDbEntity
  8
中心線
100
AcDbLine
 10
840.0000044978824
 20
2169.999982355204
 30
0.0
 11
876.000024310988
 21
2169.999982355204
 31
0.0
  0
LINE
  5
1367B
330
1F
100
AcDbEntity
  8
中心線
100
AcDbLine
 10
840.0000044978824
 20
2320.000057005278
 30
0.0
 11
876.000024310988
 21
2320.000057005278
 31
0.0
  0
LINE
  5
1367C
330
1F
100
AcDbEntity
  8
中心線
100
AcDbLine
 10
950.0000000000309
 20
2455.000019677011
 30
0.0
 11
950.0000000000309
 21
2414.000019677011
 31
0.0
  0
LINE
  5
1367D
330
1F
100
AcDbEntity
  8
中心線
100
AcDbLine
 10
950.0000000000309
 20
2035.000019683486
 30
0.0
 11
950.0000000000309
 21
2076.000019683486
 31
0.0
  0
LINE
  5
1367E
330
1F
100
AcDbEntity
  8
中心線
100
AcDbLine
 10
1000.000000000031
 20
2455.000019677011
 30
0.0
 11
1000.000000000031
 21
2414.000019677011
 31
0.0
  0
LINE
  5
1367F
330
1F
100
AcDbEntity
  8
中心線
100
AcDbLine
 10
1000.000000000031
 20
2035.000019683486
 30
0.0
 11
1000.000000000031
 21
2076.000019683486
 31
0.0
  0
LINE
  5
13680
330
1F
100
AcDbEntity
  8
中心線
100
AcDbLine
 10
1050.000000000031
 20
2455.000019677011
 30
0.0
 11
1050.000000000031
 21
2414.000019677011
 31
0.0
  0
LINE
  5
13681
330
1F
100
AcDbEntity
  8
中心線
100
AcDbLine
 10
1050.000000000031
 20
2035.000019683486
 30
0.0
 11
1050.000000000031
 21
2076.000019683486
 31
0.0
  0
LINE
  5
13682
330
1F
100
AcDbEntity
  8
中心線
100
AcDbLine
 10
1100.000000000031
 20
2455.000019677011
 30
0.0
 11
1100.000000000031
 21
2414.000019677011
 31
0.0
  0
LINE
  5
13683
330
1F
100
AcDbEntity
  8
中心線
100
AcDbLine
 10
1100.000000000031
 20
2035.000019683486
 30
0.0
 11
1100.000000000031
 21
2076.000019683486
 31
0.0
  0
LINE
  5
13684
330
1F
100
AcDbEntity
  8
中心線
100
AcDbLine
 10
1150.000000000031
 20
2455.000019677011
 30
0.0
 11
1150.000000000031
 21
2414.000019677011
 31
0.0
  0
LINE
  5
13685
330
1F
100
AcDbEntity
  8
中心線
100
AcDbLine
 10
1150.000000000031
 20
2035.000019683486
 30
0.0
 11
1150.000000000031
 21
2076.000019683486
 31
0.0
  0
LINE
  5
13686
330
1F
100
AcDbEntity
  8
中心線
100
AcDbLine
 10
1200.000000000031
 20
2455.000019677011
 30
0.0
 11
1200.000000000031
 21
2414.000019677011
 31
0.0
  0
LINE
  5
13687
330
1F
100
AcDbEntity
  8
中心線
100
AcDbLine
 10
1200.000000000031
 20
2035.000019683486
 30
0.0
 11
1200.000000000031
 21
2076.000019683486
 31
0.0
  0
LINE
  5
13688
330
1F
100
AcDbEntity
  8
実線
100
AcDbLine
 10
850.0000000000017
 20
1844.999977536658
 30
0.0
 11
1400.000019813133
 21
1844.999977536658
 31
0.0
  0
LINE
  5
13689
330
1F
100
AcDbEntity
  8
実線
100
AcDbLine
 10
869.0000000000019
 20
1844.999977536658
 30
0.0
 11
869.0000000000019
 21
1444.999977536658
 31
0.0
  0
LINE
  5
1368A
330
1F
100
AcDbEntity
  8
実線
100
AcDbLine
 10
850.0000000000017
 20
1844.999977536658
 30
0.0
 11
850.0000000000017
 21
1444.999977536658
 31
0.0
  0
LINE
  5
1368B
330
1F
100
AcDbEntity
  8
破線
100
AcDbLine
 10
869.0000000000019
 20
1651.499977536658
 30
0.0
 11
1400.000019813133
 21
1651.499977536658
 31
0.0
  0
LINE
  5
1368C
330
1F
100
AcDbEntity
  8
破線
100
AcDbLine
 10
879.0000000000018
 20
1651.499977536658
 30
0.0
 11
869.0000000000019
 21
1661.499977536658
 31
0.0
  0
LINE
  5
1368D
330
1F
100
AcDbEntity
  8
仮想線
100
AcDbLine
 10
876.0000000000017
 20
1651.499977536658
 30
0.0
 11
869.0000000000019
 21
1658.499977536657
 31
0.0
  0
LINE
  5
1368E
330
1F
100
AcDbEntity
  8
破線
100
AcDbLine
 10
879.0000000000018
 20
1638.499977536658
 30
0.0
 11
869.0000000000019
 21
1628.499977536658
 31
0.0
  0
LINE
  5
1368F
330
1F
100
AcDbEntity
  8
仮想線
100
AcDbLine
 10
876.0000000000017
 20
1638.499977536658
 30
0.0
 11
869.0000000000019
 21
1631.499977536657
 31
0.0
  0
LINE
  5
13690
330
1F
100
AcDbEntity
  8
実線
100
AcDbLine
 10
1400.000000000002
 20
1855.000014756324
 30
0.0
 11
1400.000000000002
 21
1435.000014756324
 31
0.0
  0
LINE
  5
13691
330
1F
100
AcDbEntity
  8
破線
100
AcDbLine
 10
1280.000019813133
 20
1824.499977536657
 30
0.0
 11
1400.000000000002
 21
1824.499977536657
 31
0.0
  0
LINE
  5
13692
330
1F
100
AcDbEntity
  8
破線
100
AcDbLine
 10
1280.000019813133
 20
1805.499977536658
 30
0.0
 11
1400.000000000002
 21
1805.499977536658
 31
0.0
  0
LINE
  5
13693
330
1F
100
AcDbEntity
  8
破線
100
AcDbLine
 10
1280.000019813133
 20
1824.499977536657
 30
0.0
 11
1280.000019813133
 21
1805.499977536658
 31
0.0
  0
LINE
  5
13694
330
1F
100
AcDbEntity
  8
破線
100
AcDbLine
 10
1280.000019813133
 20
1465.499977536658
 30
0.0
 11
1400.000000000002
 21
1465.499977536658
 31
0.0
  0
LINE
  5
13695
330
1F
100
AcDbEntity
  8
破線
100
AcDbLine
 10
1280.000019813133
 20
1484.499977536658
 30
0.0
 11
1400.000000000002
 21
1484.499977536658
 31
0.0
  0
LINE
  5
13696
330
1F
100
AcDbEntity
  8
破線
100
AcDbLine
 10
1280.000019813133
 20
1465.499977536658
 30
0.0
 11
1280.000019813133
 21
1484.499977536658
 31
0.0
  0
LINE
  5
13697
330
1F
100
AcDbEntity
  8
破線
100
AcDbLine
 10
869.0000000000019
 20
1841.499977536658
 30
0.0
 11
899.0000198131328
 21
1841.499977536658
 31
0.0
  0
LINE
  5
13698
330
1F
100
AcDbEntity
  8
破線
100
AcDbLine
 10
1069.000000000002
 20
1681.500014756324
 30
0.0
 11
1069.000000000002
 21
1651.499977536658
 31
0.0
  0
LINE
  5
13699
330
1F
100
AcDbEntity
  8
破線
100
AcDbLine
 10
899.0000198131328
 20
1841.499977536658
 30
0.0
 11
1069.000000000002
 21
1681.500014756324
 31
0.0
  0
LINE
  5
1369A
330
1F
100
AcDbEntity
  8
破線
100
AcDbLine
 10
1069.000000000002
 20
1608.499940316991
 30
0.0
 11
1069.000000000002
 21
1638.499977536658
 31
0.0
  0
LINE
  5
1369B
330
1F
100
AcDbEntity
  8
破線
100
AcDbLine
 10
899.0000198131328
 20
1448.499977536658
 30
0.0
 11
1069.000000000002
 21
1608.499940316991
 31
0.0
  0
LINE
  5
1369C
330
1F
100
AcDbEntity
  8
破線
100
AcDbLine
 10
869.0000000000019
 20
1448.499977536658
 30
0.0
 11
899.0000198131328
 21
1448.499977536658
 31
0.0
  0
LINE
  5
1369D
330
1F
100
AcDbEntity
  8
実線
100
AcDbLine
 10
850.0000000000017
 20
1444.999977536658
 30
0.0
 11
1400.000019813133
 21
1444.999977747398
 31
0.0
  0
LINE
  5
1369E
330
1F
100
AcDbEntity
  8
破線
100
AcDbLine
 10
869.0000000000019
 20
1638.499977747398
 30
0.0
 11
1400.000019813133
 21
1638.499977747398
 31
0.0
  0
LEADER
  5
1369F
330
1F
100
AcDbEntity
  8
寸法線
100
AcDbLeader
  3
STANDARD
 76
     3
 10
956.1230929806461
 20
1780.897598284157
 30
0.0
 10
1031.471927565886
 20
1915.000023878641
 30
0.0
 10
1299.132104500706
 20
1915.000023878641
 30
0.0
211
-1.0
221
0.0
231
0.0
1001
ACAD
1000
DSTYLE
1002
{
1070
   147
1040
0.875
1070
    77
1070
     0
1002
}
  0
TEXT
  5
136A0
330
1F
100
AcDbEntity
  8
寸法線
100
AcDbText
 10
1040.221927565881
 20
1923.750023878641
 30
0.0
 40
25.0
  1
ｶﾊﾞｰﾌﾟﾚｰﾄ連結用孔
 72
     2
 11
1288.555260899215
 21
1948.750023878641
 31
0.0
100
AcDbText
 73
     3
  0
LINE
  5
136A1
330
1F
100
AcDbEntity
  8
中心線
100
AcDbLine
 10
900.0000000000017
 20
1754.999977536672
 30
0.0
 11
900.0000000000017
 21
1685.000014756346
 31
0.0
  0
LINE
  5
136A2
330
1F
100
AcDbEntity
  8
中心線
100
AcDbLine
 10
865.0000186098386
 20
1719.999996146513
 30
0.0
 11
934.999981390165
 21
1719.999996146513
 31
0.0
  0
CIRCLE
  5
136A3
330
1F
100
AcDbEntity
  8
実線
100
AcDbCircle
 10
900.0000000000017
 20
1719.999996146513
 30
0.0
 40
12.5
  0
LINE
  5
136A4
330
1F
100
AcDbEntity
  8
中心線
100
AcDbLine
 10
900.0000000000017
 20
1535.00007753667
 30
0.0
 11
900.0000000000017
 21
1605.000040316996
 31
0.0
  0
LINE
  5
136A5
330
1F
100
AcDbEntity
  8
中心線
100
AcDbLine
 10
865.0000186098386
 20
1570.000058926837
 30
0.0
 11
934.999981390165
 21
1570.000058926837
 31
0.0
  0
CIRCLE
  5
136A6
330
1F
100
AcDbEntity
  8
実線
100
AcDbCircle
 10
900.0000000000017
 20
1570.000058926837
 30
0.0
 40
12.5
  0
LINE
  5
136A7
330
1F
100
AcDbEntity
  8
中心線
100
AcDbLine
 10
1000.000000000001
 20
1754.999977536672
 30
0.0
 11
1000.000000000001
 21
1685.000014756346
 31
0.0
  0
LINE
  5
136A8
330
1F
100
AcDbEntity
  8
中心線
100
AcDbLine
 10
965.0000186098386
 20
1719.999996146513
 30
0.0
 11
1034.999981390165
 21
1719.999996146513
 31
0.0
  0
CIRCLE
  5
136A9
330
1F
100
AcDbEntity
  8
実線
100
AcDbCircle
 10
1000.000000000001
 20
1719.999996146513
 30
0.0
 40
12.5
  0
LINE
  5
136AA
330
1F
100
AcDbEntity
  8
中心線
100
AcDbLine
 10
1000.000000000001
 20
1535.00007753667
 30
0.0
 11
1000.000000000001
 21
1605.000040316996
 31
0.0
  0
LINE
  5
136AB
330
1F
100
AcDbEntity
  8
中心線
100
AcDbLine
 10
965.0000186098386
 20
1570.000058926837
 30
0.0
 11
1034.999981390165
 21
1570.000058926837
 31
0.0
  0
CIRCLE
  5
136AC
330
1F
100
AcDbEntity
  8
実線
100
AcDbCircle
 10
1000.000000000001
 20
1570.000058926837
 30
0.0
 40
12.5
  0
LINE
  5
136AD
330
1F
100
AcDbEntity
  8
中心線
100
AcDbLine
 10
1100.000000000002
 20
1754.999977536672
 30
0.0
 11
1100.000000000002
 21
1685.000014756346
 31
0.0
  0
LINE
  5
136AE
330
1F
100
AcDbEntity
  8
中心線
100
AcDbLine
 10
1065.000018609838
 20
1719.999996146513
 30
0.0
 11
1134.999981390165
 21
1719.999996146513
 31
0.0
  0
CIRCLE
  5
136AF
330
1F
100
AcDbEntity
  8
実線
100
AcDbCircle
 10
1100.000000000002
 20
1719.999996146513
 30
0.0
 40
12.5
  0
LINE
  5
136B0
330
1F
100
AcDbEntity
  8
中心線
100
AcDbLine
 10
1100.000000000002
 20
1535.00007753667
 30
0.0
 11
1100.000000000002
 21
1605.000040316996
 31
0.0
  0
LINE
  5
136B1
330
1F
100
AcDbEntity
  8
中心線
100
AcDbLine
 10
1065.000018609838
 20
1570.000058926837
 30
0.0
 11
1134.999981390165
 21
1570.000058926837
 31
0.0
  0
CIRCLE
  5
136B2
330
1F
100
AcDbEntity
  8
実線
100
AcDbCircle
 10
1100.000000000002
 20
1570.000058926837
 30
0.0
 40
12.5
  0
LINE
  5
136B3
330
1F
100
AcDbEntity
  8
中心線
100
AcDbLine
 10
950.0000000000017
 20
1804.999977536672
 30
0.0
 11
950.0000000000017
 21
1735.000014756346
 31
0.0
  0
LINE
  5
136B4
330
1F
100
AcDbEntity
  8
中心線
100
AcDbLine
 10
915.0000186098386
 20
1769.999996146513
 30
0.0
 11
984.999981390165
 21
1769.999996146513
 31
0.0
  0
CIRCLE
  5
136B5
330
1F
100
AcDbEntity
  8
実線
100
AcDbCircle
 10
950.0000000000017
 20
1769.999996146513
 30
0.0
 40
12.5
  0
LINE
  5
136B6
330
1F
100
AcDbEntity
  8
中心線
100
AcDbLine
 10
1050.000000000002
 20
1804.999977536672
 30
0.0
 11
1050.000000000002
 21
1735.000014756346
 31
0.0
  0
LINE
  5
136B7
330
1F
100
AcDbEntity
  8
中心線
100
AcDbLine
 10
1015.000018609838
 20
1769.999996146513
 30
0.0
 11
1084.999981390165
 21
1769.999996146513
 31
0.0
  0
CIRCLE
  5
136B8
330
1F
100
AcDbEntity
  8
実線
100
AcDbCircle
 10
1050.000000000002
 20
1769.999996146513
 30
0.0
 40
12.5
  0
LINE
  5
136B9
330
1F
100
AcDbEntity
  8
中心線
100
AcDbLine
 10
950.0000000000017
 20
1485.00007753667
 30
0.0
 11
950.0000000000017
 21
1555.000040316996
 31
0.0
  0
LINE
  5
136BA
330
1F
100
AcDbEntity
  8
中心線
100
AcDbLine
 10
915.0000186098386
 20
1520.000058926837
 30
0.0
 11
984.999981390165
 21
1520.000058926837
 31
0.0
  0
CIRCLE
  5
136BB
330
1F
100
AcDbEntity
  8
実線
100
AcDbCircle
 10
950.0000000000017
 20
1520.000058926837
 30
0.0
 40
12.5
  0
LINE
  5
136BC
330
1F
100
AcDbEntity
  8
中心線
100
AcDbLine
 10
1050.000000000002
 20
1485.00007753667
 30
0.0
 11
1050.000000000002
 21
1555.000040316996
 31
0.0
  0
LINE
  5
136BD
330
1F
100
AcDbEntity
  8
中心線
100
AcDbLine
 10
1015.000018609838
 20
1520.000058926837
 30
0.0
 11
1084.999981390165
 21
1520.000058926837
 31
0.0
  0
CIRCLE
  5
136BE
330
1F
100
AcDbEntity
  8
実線
100
AcDbCircle
 10
1050.000000000002
 20
1520.000058926837
 30
0.0
 40
12.5
  0
LINE
  5
136BF
330
1F
100
AcDbEntity
  8
中心線
100
AcDbLine
 10
1200.000000000002
 20
1754.999977536672
 30
0.0
 11
1200.000000000002
 21
1685.000014756346
 31
0.0
  0
LINE
  5
136C0
330
1F
100
AcDbEntity
  8
中心線
100
AcDbLine
 10
1165.000018609839
 20
1719.999996146513
 30
0.0
 11
1234.999981390165
 21
1719.999996146513
 31
0.0
  0
CIRCLE
  5
136C1
330
1F
100
AcDbEntity
  8
実線
100
AcDbCircle
 10
1200.000000000002
 20
1719.999996146513
 30
0.0
 40
12.5
  0
LINE
  5
136C2
330
1F
100
AcDbEntity
  8
中心線
100
AcDbLine
 10
1200.000000000002
 20
1535.00007753667
 30
0.0
 11
1200.000000000002
 21
1605.000040316996
 31
0.0
  0
LINE
  5
136C3
330
1F
100
AcDbEntity
  8
中心線
100
AcDbLine
 10
1165.000018609839
 20
1570.000058926837
 30
0.0
 11
1234.999981390165
 21
1570.000058926837
 31
0.0
  0
CIRCLE
  5
136C4
330
1F
100
AcDbEntity
  8
実線
100
AcDbCircle
 10
1200.000000000002
 20
1570.000058926837
 30
0.0
 40
12.5
  0
LINE
  5
136C5
330
1F
100
AcDbEntity
  8
中心線
100
AcDbLine
 10
1150.000000000002
 20
1804.999977536672
 30
0.0
 11
1150.000000000002
 21
1735.000014756346
 31
0.0
  0
LINE
  5
136C6
330
1F
100
AcDbEntity
  8
中心線
100
AcDbLine
 10
1115.000018609838
 20
1769.999996146513
 30
0.0
 11
1184.999981390165
 21
1769.999996146513
 31
0.0
  0
CIRCLE
  5
136C7
330
1F
100
AcDbEntity
  8
実線
100
AcDbCircle
 10
1150.000000000002
 20
1769.999996146513
 30
0.0
 40
12.5
  0
LINE
  5
136C8
330
1F
100
AcDbEntity
  8
中心線
100
AcDbLine
 10
1150.000000000002
 20
1485.00007753667
 30
0.0
 11
1150.000000000002
 21
1555.000040316996
 31
0.0
  0
LINE
  5
136C9
330
1F
100
AcDbEntity
  8
中心線
100
AcDbLine
 10
1115.000018609838
 20
1520.000058926837
 30
0.0
 11
1184.999981390165
 21
1520.000058926837
 31
0.0
  0
CIRCLE
  5
136CA
330
1F
100
AcDbEntity
  8
実線
100
AcDbCircle
 10
1150.000000000002
 20
1520.000058926837
 30
0.0
 40
12.5
  0
LINE
  5
136CB
330
1F
100
AcDbEntity
  8
中心線
100
AcDbLine
 10
840.0000044978568
 20
1744.939077215144
 30
0.0
 11
876.0000243109661
 21
1744.939077215144
 31
0.0
  0
LINE
  5
136CC
330
1F
100
AcDbEntity
  8
中心線
100
AcDbLine
 10
840.0000044978568
 20
1544.939077215144
 30
0.0
 11
876.0000243109661
 21
1544.939077215144
 31
0.0
  0
LINE
  5
136CD
330
1F
100
AcDbEntity
  8
中心線
100
AcDbLine
 10
840.0000044978568
 20
1594.939077215143
 30
0.0
 11
876.0000243109661
 21
1594.939077215143
 31
0.0
  0
LINE
  5
136CE
330
1F
100
AcDbEntity
  8
中心線
100
AcDbLine
 10
840.0000044978568
 20
1694.939151865224
 30
0.0
 11
876.0000243109661
 21
1694.939151865224
 31
0.0
  0
LINE
  5
136CF
330
1F
100
AcDbEntity
  8
実線
100
AcDbLine
 10
2650.000000000002
 20
1844.999977536658
 30
0.0
 11
2099.999980186871
 21
1844.999977536658
 31
0.0
  0
LINE
  5
136D0
330
1F
100
AcDbEntity
  8
実線
100
AcDbLine
 10
2631.000000000002
 20
1844.999977536658
 30
0.0
 11
2630.999999999998
 21
1444.999977536658
 31
0.0
  0
LINE
  5
136D1
330
1F
100
AcDbEntity
  8
実線
100
AcDbLine
 10
2650.000000000002
 20
1844.999977536658
 30
0.0
 11
2649.999999999999
 21
1444.999977536658
 31
0.0
  0
LINE
  5
136D2
330
1F
100
AcDbEntity
  8
破線
100
AcDbLine
 10
2631.000000000002
 20
1651.499977536658
 30
0.0
 11
2099.999980186871
 21
1651.499977536658
 31
0.0
  0
LINE
  5
136D3
330
1F
100
AcDbEntity
  8
破線
100
AcDbLine
 10
2621.000000000002
 20
1651.499977536658
 30
0.0
 11
2631.000000000002
 21
1661.499977536658
 31
0.0
  0
LINE
  5
136D4
330
1F
100
AcDbEntity
  8
仮想線
100
AcDbLine
 10
2624.000000000002
 20
1651.499977536658
 30
0.0
 11
2631.000000000002
 21
1658.499977536657
 31
0.0
  0
LINE
  5
136D5
330
1F
100
AcDbEntity
  8
破線
100
AcDbLine
 10
2621.000000000002
 20
1638.499977536658
 30
0.0
 11
2631.000000000002
 21
1628.499977536658
 31
0.0
  0
LINE
  5
136D6
330
1F
100
AcDbEntity
  8
仮想線
100
AcDbLine
 10
2624.000000000002
 20
1638.499977536658
 30
0.0
 11
2631.000000000002
 21
1631.499977536657
 31
0.0
  0
LINE
  5
136D7
330
1F
100
AcDbEntity
  8
実線
100
AcDbLine
 10
2100.000000000002
 20
1855.000014756324
 30
0.0
 11
2099.999999999998
 21
1435.000014756324
 31
0.0
  0
LINE
  5
136D8
330
1F
100
AcDbEntity
  8
破線
100
AcDbLine
 10
2219.999980186871
 20
1824.499977536657
 30
0.0
 11
2100.000000000002
 21
1824.499977536657
 31
0.0
  0
LINE
  5
136D9
330
1F
100
AcDbEntity
  8
破線
100
AcDbLine
 10
2219.999980186871
 20
1805.499977536658
 30
0.0
 11
2100.000000000002
 21
1805.499977536658
 31
0.0
  0
LINE
  5
136DA
330
1F
100
AcDbEntity
  8
破線
100
AcDbLine
 10
2219.999980186871
 20
1824.499977536657
 30
0.0
 11
2219.999980186871
 21
1805.499977536658
 31
0.0
  0
LINE
  5
136DB
330
1F
100
AcDbEntity
  8
破線
100
AcDbLine
 10
2219.999980186867
 20
1465.499977536658
 30
0.0
 11
2099.999999999998
 21
1465.499977536658
 31
0.0
  0
LINE
  5
136DC
330
1F
100
AcDbEntity
  8
破線
100
AcDbLine
 10
2219.999980186867
 20
1484.499977536658
 30
0.0
 11
2099.999999999998
 21
1484.499977536658
 31
0.0
  0
LINE
  5
136DD
330
1F
100
AcDbEntity
  8
破線
100
AcDbLine
 10
2219.999980186867
 20
1465.499977536658
 30
0.0
 11
2219.999980186867
 21
1484.499977536658
 31
0.0
  0
LINE
  5
136DE
330
1F
100
AcDbEntity
  8
破線
100
AcDbLine
 10
2631.000000000002
 20
1841.499977536658
 30
0.0
 11
2600.999980186871
 21
1841.499977536658
 31
0.0
  0
LINE
  5
136DF
330
1F
100
AcDbEntity
  8
破線
100
AcDbLine
 10
2431.000000000002
 20
1681.500014756324
 30
0.0
 11
2431.000000000002
 21
1651.499977536658
 31
0.0
  0
LINE
  5
136E0
330
1F
100
AcDbEntity
  8
破線
100
AcDbLine
 10
2600.999980186871
 20
1841.499977536658
 30
0.0
 11
2431.000000000002
 21
1681.500014756324
 31
0.0
  0
LINE
  5
136E1
330
1F
100
AcDbEntity
  8
破線
100
AcDbLine
 10
2431.000000000002
 20
1608.499940316991
 30
0.0
 11
2431.000000000002
 21
1638.499977536658
 31
0.0
  0
LINE
  5
136E2
330
1F
100
AcDbEntity
  8
破線
100
AcDbLine
 10
2600.999980186867
 20
1448.499977536658
 30
0.0
 11
2431.000000000002
 21
1608.499940316991
 31
0.0
  0
LINE
  5
136E3
330
1F
100
AcDbEntity
  8
破線
100
AcDbLine
 10
2630.999999999998
 20
1448.499977536658
 30
0.0
 11
2600.999980186867
 21
1448.499977536658
 31
0.0
  0
LINE
  5
136E4
330
1F
100
AcDbEntity
  8
実線
100
AcDbLine
 10
2649.999999999999
 20
1444.999977536658
 30
0.0
 11
2099.999980186867
 21
1444.999977747398
 31
0.0
  0
LINE
  5
136E5
330
1F
100
AcDbEntity
  8
破線
100
AcDbLine
 10
2631.000000000002
 20
1638.499977747398
 30
0.0
 11
2099.999980186871
 21
1638.499977747398
 31
0.0
  0
LINE
  5
136E6
330
1F
100
AcDbEntity
  8
中心線
100
AcDbLine
 10
2600.000000000002
 20
1754.999977536672
 30
0.0
 11
2600.000000000002
 21
1685.000014756346
 31
0.0
  0
LINE
  5
136E7
330
1F
100
AcDbEntity
  8
中心線
100
AcDbLine
 10
2634.999981390163
 20
1719.999996146513
 30
0.0
 11
2565.000018609839
 21
1719.999996146513
 31
0.0
  0
CIRCLE
  5
136E8
330
1F
100
AcDbEntity
  8
実線
100
AcDbCircle
 10
2600.000000000002
 20
1719.999996146513
 30
0.0
 40
12.5
  0
LINE
  5
136E9
330
1F
100
AcDbEntity
  8
中心線
100
AcDbLine
 10
2600.000000000002
 20
1535.00007753667
 30
0.0
 11
2600.000000000002
 21
1605.000040316996
 31
0.0
  0
LINE
  5
136EA
330
1F
100
AcDbEntity
  8
中心線
100
AcDbLine
 10
2634.999981390163
 20
1570.000058926837
 30
0.0
 11
2565.000018609839
 21
1570.000058926837
 31
0.0
  0
CIRCLE
  5
136EB
330
1F
100
AcDbEntity
  8
実線
100
AcDbCircle
 10
2600.000000000002
 20
1570.000058926837
 30
0.0
 40
12.5
  0
LINE
  5
136EC
330
1F
100
AcDbEntity
  8
中心線
100
AcDbLine
 10
2500.000000000002
 20
1754.999977536672
 30
0.0
 11
2500.000000000002
 21
1685.000014756346
 31
0.0
  0
LINE
  5
136ED
330
1F
100
AcDbEntity
  8
中心線
100
AcDbLine
 10
2534.999981390165
 20
1719.999996146513
 30
0.0
 11
2465.000018609839
 21
1719.999996146513
 31
0.0
  0
CIRCLE
  5
136EE
330
1F
100
AcDbEntity
  8
実線
100
AcDbCircle
 10
2500.000000000002
 20
1719.999996146513
 30
0.0
 40
12.5
  0
LINE
  5
136EF
330
1F
100
AcDbEntity
  8
中心線
100
AcDbLine
 10
2500.000000000002
 20
1535.00007753667
 30
0.0
 11
2500.000000000002
 21
1605.000040316996
 31
0.0
  0
LINE
  5
136F0
330
1F
100
AcDbEntity
  8
中心線
100
AcDbLine
 10
2534.999981390165
 20
1570.000058926837
 30
0.0
 11
2465.000018609839
 21
1570.000058926837
 31
0.0
  0
CIRCLE
  5
136F1
330
1F
100
AcDbEntity
  8
実線
100
AcDbCircle
 10
2500.000000000002
 20
1570.000058926837
 30
0.0
 40
12.5
  0
LINE
  5
136F2
330
1F
100
AcDbEntity
  8
中心線
100
AcDbLine
 10
2400.000000000002
 20
1754.999977536672
 30
0.0
 11
2400.000000000002
 21
1685.000014756346
 31
0.0
  0
LINE
  5
136F3
330
1F
100
AcDbEntity
  8
中心線
100
AcDbLine
 10
2434.999981390165
 20
1719.999996146513
 30
0.0
 11
2365.000018609839
 21
1719.999996146513
 31
0.0
  0
CIRCLE
  5
136F4
330
1F
100
AcDbEntity
  8
実線
100
AcDbCircle
 10
2400.000000000002
 20
1719.999996146513
 30
0.0
 40
12.5
  0
LINE
  5
136F5
330
1F
100
AcDbEntity
  8
中心線
100
AcDbLine
 10
2400.000000000002
 20
1535.00007753667
 30
0.0
 11
2400.000000000002
 21
1605.000040316996
 31
0.0
  0
LINE
  5
136F6
330
1F
100
AcDbEntity
  8
中心線
100
AcDbLine
 10
2434.999981390165
 20
1570.000058926837
 30
0.0
 11
2365.000018609839
 21
1570.000058926837
 31
0.0
  0
CIRCLE
  5
136F7
330
1F
100
AcDbEntity
  8
実線
100
AcDbCircle
 10
2400.000000000002
 20
1570.000058926837
 30
0.0
 40
12.5
  0
LINE
  5
136F8
330
1F
100
AcDbEntity
  8
中心線
100
AcDbLine
 10
2550.000000000002
 20
1804.999977536672
 30
0.0
 11
2550.000000000002
 21
1735.000014756346
 31
0.0
  0
LINE
  5
136F9
330
1F
100
AcDbEntity
  8
中心線
100
AcDbLine
 10
2584.999981390165
 20
1769.999996146513
 30
0.0
 11
2515.000018609839
 21
1769.999996146513
 31
0.0
  0
CIRCLE
  5
136FA
330
1F
100
AcDbEntity
  8
実線
100
AcDbCircle
 10
2550.000000000002
 20
1769.999996146513
 30
0.0
 40
12.5
  0
LINE
  5
136FB
330
1F
100
AcDbEntity
  8
中心線
100
AcDbLine
 10
2450.000000000002
 20
1804.999977536672
 30
0.0
 11
2450.000000000002
 21
1735.000014756346
 31
0.0
  0
LINE
  5
136FC
330
1F
100
AcDbEntity
  8
中心線
100
AcDbLine
 10
2484.999981390165
 20
1769.999996146513
 30
0.0
 11
2415.000018609839
 21
1769.999996146513
 31
0.0
  0
CIRCLE
  5
136FD
330
1F
100
AcDbEntity
  8
実線
100
AcDbCircle
 10
2450.000000000002
 20
1769.999996146513
 30
0.0
 40
12.5
  0
LINE
  5
136FE
330
1F
100
AcDbEntity
  8
中心線
100
AcDbLine
 10
2549.999999999998
 20
1485.00007753667
 30
0.0
 11
2550.000000000002
 21
1555.000040316996
 31
0.0
  0
LINE
  5
136FF
330
1F
100
AcDbEntity
  8
中心線
100
AcDbLine
 10
2584.999981390162
 20
1520.000058926837
 30
0.0
 11
2515.000018609835
 21
1520.000058926837
 31
0.0
  0
CIRCLE
  5
13700
330
1F
100
AcDbEntity
  8
実線
100
AcDbCircle
 10
2549.999999999998
 20
1520.000058926837
 30
0.0
 40
12.5
  0
LINE
  5
13701
330
1F
100
AcDbEntity
  8
中心線
100
AcDbLine
 10
2449.999999999998
 20
1485.00007753667
 30
0.0
 11
2450.000000000002
 21
1555.000040316996
 31
0.0
  0
LINE
  5
13702
330
1F
100
AcDbEntity
  8
中心線
100
AcDbLine
 10
2484.999981390162
 20
1520.000058926837
 30
0.0
 11
2415.000018609835
 21
1520.000058926837
 31
0.0
  0
CIRCLE
  5
13703
330
1F
100
AcDbEntity
  8
実線
100
AcDbCircle
 10
2449.999999999998
 20
1520.000058926837
 30
0.0
 40
12.5
  0
LINE
  5
13704
330
1F
100
AcDbEntity
  8
中心線
100
AcDbLine
 10
2300.000000000002
 20
1754.999977536672
 30
0.0
 11
2300.000000000002
 21
1685.000014756346
 31
0.0
  0
LINE
  5
13705
330
1F
100
AcDbEntity
  8
中心線
100
AcDbLine
 10
2334.999981390165
 20
1719.999996146513
 30
0.0
 11
2265.000018609839
 21
1719.999996146513
 31
0.0
  0
CIRCLE
  5
13706
330
1F
100
AcDbEntity
  8
実線
100
AcDbCircle
 10
2300.000000000002
 20
1719.999996146513
 30
0.0
 40
12.5
  0
LINE
  5
13707
330
1F
100
AcDbEntity
  8
中心線
100
AcDbLine
 10
2300.000000000002
 20
1535.00007753667
 30
0.0
 11
2300.000000000002
 21
1605.000040316996
 31
0.0
  0
LINE
  5
13708
330
1F
100
AcDbEntity
  8
中心線
100
AcDbLine
 10
2334.999981390165
 20
1570.000058926837
 30
0.0
 11
2265.000018609839
 21
1570.000058926837
 31
0.0
  0
CIRCLE
  5
13709
330
1F
100
AcDbEntity
  8
実線
100
AcDbCircle
 10
2300.000000000002
 20
1570.000058926837
 30
0.0
 40
12.5
  0
LINE
  5
1370A
330
1F
100
AcDbEntity
  8
中心線
100
AcDbLine
 10
2350.000000000002
 20
1804.999977536672
 30
0.0
 11
2350.000000000002
 21
1735.000014756346
 31
0.0
  0
LINE
  5
1370B
330
1F
100
AcDbEntity
  8
中心線
100
AcDbLine
 10
2384.999981390165
 20
1769.999996146513
 30
0.0
 11
2315.000018609839
 21
1769.999996146513
 31
0.0
  0
CIRCLE
  5
1370C
330
1F
100
AcDbEntity
  8
実線
100
AcDbCircle
 10
2350.000000000002
 20
1769.999996146513
 30
0.0
 40
12.5
  0
LINE
  5
1370D
330
1F
100
AcDbEntity
  8
中心線
100
AcDbLine
 10
2349.999999999998
 20
1485.00007753667
 30
0.0
 11
2350.000000000002
 21
1555.000040316996
 31
0.0
  0
LINE
  5
1370E
330
1F
100
AcDbEntity
  8
中心線
100
AcDbLine
 10
2384.999981390162
 20
1520.000058926837
 30
0.0
 11
2315.000018609835
 21
1520.000058926837
 31
0.0
  0
CIRCLE
  5
1370F
330
1F
100
AcDbEntity
  8
実線
100
AcDbCircle
 10
2349.999999999998
 20
1520.000058926837
 30
0.0
 40
12.5
  0
LINE
  5
13710
330
1F
100
AcDbEntity
  8
中心線
100
AcDbLine
 10
2659.999995502145
 20
1744.939077215144
 30
0.0
 11
2623.999975689037
 21
1744.939077215144
 31
0.0
  0
LINE
  5
13711
330
1F
100
AcDbEntity
  8
中心線
100
AcDbLine
 10
2659.999995502145
 20
1544.939077215144
 30
0.0
 11
2623.999975689037
 21
1544.939077215144
 31
0.0
  0
LINE
  5
13712
330
1F
100
AcDbEntity
  8
中心線
100
AcDbLine
 10
2659.999995502145
 20
1594.939077215143
 30
0.0
 11
2623.999975689037
 21
1594.939077215143
 31
0.0
  0
LINE
  5
13713
330
1F
100
AcDbEntity
  8
中心線
100
AcDbLine
 10
2659.999995502145
 20
1694.939151865224
 30
0.0
 11
2623.999975689037
 21
1694.939151865224
 31
0.0
  0
DIMENSION
  5
13714
330
1F
100
AcDbEntity
  8
寸法線
100
AcDbDimension
280
     0
  2
*D27
 10
2299.999980186869
 20
1805.499977536658
 30
0.0
 11
2299.999980186869
 21
1814.999977536658
 31
0.0
 70
   160
 71
     5
 42
19.0
 73
     0
 74
     0
 75
     0
  3
STANDARD
100
AcDbAlignedDimension
 13
2219.999980186871
 23
1824.499977536657
 33
0.0
 14
2219.999980186871
 24
1805.499977536658
 34
0.0
 50
270.0
100
AcDbRotatedDimension
1001
ACAD
1000
DSTYLE
1002
{
1070
   271
1070
     1
1002
}
  0
DIMENSION
  5
13715
330
1F
100
AcDbEntity
  8
寸法線
100
AcDbDimension
280
     0
  2
*D28
 10
2299.999980186869
 20
1444.999977740006
 30
0.0
 11
2299.999980186869
 21
1460.000011694033
 31
0.0
 70
   160
 71
     5
 42
30.00006790805583
 73
     0
 74
     0
 75
     0
  3
STANDARD
100
AcDbAlignedDimension
 13
2228.000003766469
 23
1475.000045648062
 33
0.0
 14
2100.000000000002
 24
1444.999977740006
 34
0.0
 50
270.0
100
AcDbRotatedDimension
1001
ACAD
1000
DSTYLE
1002
{
1070
   271
1070
     1
1002
}
  0
TEXT
  5
1374A
330
1F
100
AcDbEntity
  8
寸法線
100
AcDbText
 10
2444.125310406613
 20
2137.429299490987
 30
0.0
 40
25.0
  1
ｴﾝﾄﾞﾌﾟﾚｰﾄ
 11
2444.125310406613
 21
2137.429299490987
 31
0.0
100
AcDbText
 73
     1
  0
LINE
  5
1374B
330
1F
100
AcDbEntity
  8
寸法線
100
AcDbLine
 10
2630.999990093414
 20
2131.500005300282
 30
0.0
 11
2436.83525081868
 21
2131.500005300282
 31
0.0
  0
INSERT
  5
1374C
330
1F
100
AcDbEntity
  8
寸法線
100
AcDbBlockReference
  2
_OPEN
 10
2630.999990093414
 20
2131.500005300282
 30
0.0
 41
20.0
 42
20.0
 43
20.0
  0
LINE
  5
1374D
330
1F
100
AcDbEntity
  8
実線
100
AcDbLine
 10
2649.999999999971
 20
2436.000005873911
 30
0.0
 11
2649.999999999971
 21
2054.000005873911
 31
0.0
  0
LINE
  5
1374E
330
1F
100
AcDbEntity
  8
実線
100
AcDbLine
 10
2630.999999999971
 20
2444.99996865423
 30
0.0
 11
2630.999999999971
 21
2044.999968654229
 31
0.0
  0
LINE
  5
1374F
330
1F
100
AcDbEntity
  8
実線
100
AcDbLine
 10
2630.999999999971
 20
2444.99996865423
 30
0.0
 11
2099.999980186869
 21
2444.99996865423
 31
0.0
  0
LINE
  5
13750
330
1F
100
AcDbEntity
  8
実線
100
AcDbLine
 10
2630.999999999971
 20
2423.99996865423
 30
0.0
 11
2099.999980186869
 21
2423.99996865423
 31
0.0
  0
LINE
  5
13751
330
1F
100
AcDbEntity
  8
実線
100
AcDbLine
 10
2219.999999999971
 20
2423.99996865423
 30
0.0
 11
2219.999999999971
 21
2394.000005873911
 31
0.0
  0
LINE
  5
13752
330
1F
100
AcDbEntity
  8
実線
100
AcDbLine
 10
2139.999980186869
 20
2353.99996865423
 30
0.0
 11
2099.999980186869
 21
2353.99996865423
 31
0.0
  0
LINE
  5
13753
330
1F
100
AcDbEntity
  8
実線
100
AcDbLine
 10
2219.999999999971
 20
2394.000005873911
 30
0.0
 11
2139.999980186869
 21
2353.99996865423
 31
0.0
  0
LINE
  5
13754
330
1F
100
AcDbEntity
  8
実線
100
AcDbLine
 10
2111.999976224252
 20
2423.99996865423
 30
0.0
 11
2099.999976224252
 21
2411.99996865423
 31
0.0
  0
LINE
  5
13755
330
1F
100
AcDbEntity
  8
仮想線
100
AcDbLine
 10
2108.999980186869
 20
2423.99996865423
 30
0.0
 11
2099.999980186869
 21
2414.99996865423
 31
0.0
  0
LINE
  5
13756
330
1F
100
AcDbEntity
  8
実線
100
AcDbLine
 10
2219.999999999971
 20
2065.99996865423
 30
0.0
 11
2219.999999999971
 21
2095.999931434564
 31
0.0
  0
LINE
  5
13757
330
1F
100
AcDbEntity
  8
実線
100
AcDbLine
 10
2139.999980186869
 20
2135.99996865423
 30
0.0
 11
2099.999980186869
 21
2135.99996865423
 31
0.0
  0
LINE
  5
13758
330
1F
100
AcDbEntity
  8
実線
100
AcDbLine
 10
2219.999999999971
 20
2095.999931434564
 30
0.0
 11
2139.999980186869
 21
2135.99996865423
 31
0.0
  0
LINE
  5
13759
330
1F
100
AcDbEntity
  8
実線
100
AcDbLine
 10
2111.999976224252
 20
2065.99996865423
 30
0.0
 11
2099.999976224252
 21
2077.99996865423
 31
0.0
  0
LINE
  5
1375A
330
1F
100
AcDbEntity
  8
仮想線
100
AcDbLine
 10
2108.999980186869
 20
2065.99996865423
 30
0.0
 11
2099.999980186869
 21
2074.99996865423
 31
0.0
  0
LINE
  5
1375B
330
1F
100
AcDbEntity
  8
実線
100
AcDbLine
 10
2649.999999999971
 20
2436.000005873911
 30
0.0
 11
2630.999999999971
 21
2436.000005873911
 31
0.0
  0
LINE
  5
1375C
330
1F
100
AcDbEntity
  8
実線
100
AcDbLine
 10
2649.999999999971
 20
2054.000031434553
 30
0.0
 11
2630.999999999971
 21
2054.000031434553
 31
0.0
  0
LINE
  5
1375D
330
1F
100
AcDbEntity
  8
仮想線
100
AcDbLine
 10
2630.999999999971
 20
2444.99996865423
 30
0.0
 11
2639.999962780305
 21
2436.000005873911
 31
0.0
  0
LINE
  5
1375E
330
1F
100
AcDbEntity
  8
仮想線
100
AcDbLine
 10
2630.999999999971
 20
2044.999968654229
 30
0.0
 11
2640.000062780295
 21
2054.000031434553
 31
0.0
  0
LINE
  5
1375F
330
1F
100
AcDbEntity
  8
実線
100
AcDbLine
 10
2630.999999999971
 20
2250.99996865423
 30
0.0
 11
2430.999980186869
 21
2250.99996865423
 31
0.0
  0
LINE
  5
13760
330
1F
100
AcDbEntity
  8
実線
100
AcDbLine
 10
2630.999999999971
 20
2238.99996865423
 30
0.0
 11
2430.999980186869
 21
2238.99996865423
 31
0.0
  0
LINE
  5
13761
330
1F
100
AcDbEntity
  8
実線
100
AcDbLine
 10
2430.999980186869
 20
2250.99996865423
 30
0.0
 11
2430.999980186869
 21
2238.99996865423
 31
0.0
  0
LINE
  5
13762
330
1F
100
AcDbEntity
  8
仮想線
100
AcDbLine
 10
2099.999998018669
 20
2454.000002151938
 30
0.0
 11
2109.000031516378
 21
2444.99996865423
 31
0.0
  0
LINE
  5
13763
330
1F
100
AcDbEntity
  8
仮想線
100
AcDbLine
 10
2099.999998018669
 20
2036.000002151938
 30
0.0
 11
2108.999964520961
 21
2044.999968654229
 31
0.0
  0
LINE
  5
13764
330
1F
100
AcDbEntity
  8
実線
100
AcDbLine
 10
2630.999999999971
 20
2044.999968654229
 30
0.0
 11
2099.999916920511
 21
2045.000232892796
 31
0.0
  0
LINE
  5
13765
330
1F
100
AcDbEntity
  8
実線
100
AcDbLine
 10
2630.999999999971
 20
2066.00006492049
 30
0.0
 11
2099.99992356349
 21
2066.000232892796
 31
0.0
  0
LINE
  5
13766
330
1F
100
AcDbEntity
  8
実線
100
AcDbLine
 10
2100.0
 20
2455.000005873896
 30
0.0
 11
2100.0
 21
2035.000005873896
 31
0.0
  0
LINE
  5
13767
330
1F
100
AcDbEntity
  8
中心線
100
AcDbLine
 10
2599.999999999971
 20
2455.00000587068
 30
0.0
 11
2599.999999999971
 21
2414.00000587068
 31
0.0
  0
LINE
  5
13768
330
1F
100
AcDbEntity
  8
中心線
100
AcDbLine
 10
2599.999999999971
 20
2035.000005877156
 30
0.0
 11
2599.999999999971
 21
2076.000005877156
 31
0.0
  0
LINE
  5
13769
330
1F
100
AcDbEntity
  8
中心線
100
AcDbLine
 10
2659.999995502119
 20
2344.999968548874
 30
0.0
 11
2623.999975689014
 21
2344.999968548874
 31
0.0
  0
LINE
  5
1376A
330
1F
100
AcDbEntity
  8
中心線
100
AcDbLine
 10
2659.999995502119
 20
2144.999968548874
 30
0.0
 11
2623.999975689014
 21
2144.999968548874
 31
0.0
  0
LINE
  5
1376B
330
1F
100
AcDbEntity
  8
中心線
100
AcDbLine
 10
2659.999995502119
 20
2169.999968548874
 30
0.0
 11
2623.999975689014
 21
2169.999968548874
 31
0.0
  0
LINE
  5
1376C
330
1F
100
AcDbEntity
  8
中心線
100
AcDbLine
 10
2659.999995502119
 20
2320.000043198948
 30
0.0
 11
2623.999975689014
 21
2320.000043198948
 31
0.0
  0
LINE
  5
1376D
330
1F
100
AcDbEntity
  8
中心線
100
AcDbLine
 10
2549.999999999971
 20
2455.00000587068
 30
0.0
 11
2549.999999999971
 21
2414.00000587068
 31
0.0
  0
LINE
  5
1376E
330
1F
100
AcDbEntity
  8
中心線
100
AcDbLine
 10
2549.999999999971
 20
2035.000005877156
 30
0.0
 11
2549.999999999971
 21
2076.000005877156
 31
0.0
  0
LINE
  5
1376F
330
1F
100
AcDbEntity
  8
中心線
100
AcDbLine
 10
2499.999999999971
 20
2455.00000587068
 30
0.0
 11
2499.999999999971
 21
2414.00000587068
 31
0.0
  0
LINE
  5
13770
330
1F
100
AcDbEntity
  8
中心線
100
AcDbLine
 10
2499.999999999971
 20
2035.000005877156
 30
0.0
 11
2499.999999999971
 21
2076.000005877156
 31
0.0
  0
LINE
  5
13771
330
1F
100
AcDbEntity
  8
中心線
100
AcDbLine
 10
2449.999999999971
 20
2455.00000587068
 30
0.0
 11
2449.999999999971
 21
2414.00000587068
 31
0.0
  0
LINE
  5
13772
330
1F
100
AcDbEntity
  8
中心線
100
AcDbLine
 10
2449.999999999971
 20
2035.000005877156
 30
0.0
 11
2449.999999999971
 21
2076.000005877156
 31
0.0
  0
LINE
  5
13773
330
1F
100
AcDbEntity
  8
中心線
100
AcDbLine
 10
2399.999999999971
 20
2455.00000587068
 30
0.0
 11
2399.999999999971
 21
2414.00000587068
 31
0.0
  0
LINE
  5
13774
330
1F
100
AcDbEntity
  8
中心線
100
AcDbLine
 10
2399.999999999971
 20
2035.000005877156
 30
0.0
 11
2399.999999999971
 21
2076.000005877156
 31
0.0
  0
LINE
  5
13775
330
1F
100
AcDbEntity
  8
中心線
100
AcDbLine
 10
2349.999999999971
 20
2455.00000587068
 30
0.0
 11
2349.999999999971
 21
2414.00000587068
 31
0.0
  0
LINE
  5
13776
330
1F
100
AcDbEntity
  8
中心線
100
AcDbLine
 10
2349.999999999971
 20
2035.000005877156
 30
0.0
 11
2349.999999999971
 21
2076.000005877156
 31
0.0
  0
LINE
  5
13777
330
1F
100
AcDbEntity
  8
中心線
100
AcDbLine
 10
2299.999999999971
 20
2455.00000587068
 30
0.0
 11
2299.999999999971
 21
2414.00000587068
 31
0.0
  0
LINE
  5
13778
330
1F
100
AcDbEntity
  8
中心線
100
AcDbLine
 10
2299.999999999971
 20
2035.000005877156
 30
0.0
 11
2299.999999999971
 21
2076.000005877156
 31
0.0
  0
DIMENSION
  5
13779
330
1F
100
AcDbEntity
  8
寸法線
100
AcDbDimension
280
     0
  2
*D29
 10
2330.99999462186
 20
2239.000002520663
 30
0.0
 11
2330.99999462186
 21
2245.000002520662
 31
0.0
 70
   160
 71
     5
 42
12.0
 73
     0
 74
     0
 75
     0
  3
STANDARD
100
AcDbAlignedDimension
 13
2430.999980186869
 23
2251.000002520662
 33
0.0
 14
2430.999980186869
 24
2239.000002520662
 34
0.0
 50
90.0
100
AcDbRotatedDimension
1001
ACAD
1000
DSTYLE
1002
{
1070
   140
1040
2.5
1002
}
  0
TEXT
  5
1377A
330
1F
100
AcDbEntity
  8
寸法線
100
AcDbText
 10
2359.029106229262
 20
2328.750002520662
 30
0.0
 40
25.0
  1
ﾘﾌﾞﾌﾟﾚｰﾄ②
 72
     2
 11
2502.362439562596
 21
2328.750002520662
 31
0.0
100
AcDbText
 73
     1
  0
LEADER
  5
1377B
330
1F
100
AcDbEntity
  8
寸法線
100
AcDbLeader
  3
STANDARD
 76
     3
 10
2537.253722114809
 20
2250.999968654222
 30
0.0
 10
2505.166366832157
 20
2320.000002520662
 30
0.0
 10
2353.025278840068
 20
2320.000002520662
 30
0.0
1001
ACAD
1000
DSTYLE
1002
{
1070
   147
1040
0.875
1070
    77
1070
     0
1002
}
  0
TEXT
  5
1377C
330
1F
100
AcDbEntity
  8
寸法線
100
AcDbText
 10
2194.018087443054
 20
2144.267188294471
 30
0.0
 40
25.0
  1
ﾘﾌﾞﾌﾟﾚｰﾄ①
 72
     2
 11
2337.351420776387
 21
2144.267188294471
 31
0.0
100
AcDbText
 73
     1
  0
LEADER
  5
1377D
330
1F
100
AcDbEntity
  8
寸法線
100
AcDbLeader
  3
STANDARD
 76
     3
 10
2156.294238475448
 20
2090.943878124836
 30
0.0
 10
2191.294238475448
 20
2138.443878124836
 30
0.0
 10
2344.384783010166
 20
2138.443878124836
 30
0.0
211
-1.0
221
0.0
231
0.0
1001
ACAD
1000
DSTYLE
1002
{
1070
   147
1040
0.875
1070
    77
1070
     0
1002
}
  0
DIMENSION
  5
1377E
330
1F
100
AcDbEntity
  8
寸法線
100
AcDbDimension
280
     0
  2
*D30
 10
2100.0
 20
2685.000005873897
 30
0.0
 11
2375.0
 21
2685.000005873897
 31
0.0
 70
   160
  1
<>\XH型鋼（連結部）
 71
     5
 42
550.0
 73
     0
 74
     0
 75
     0
  3
STANDARD
100
AcDbAlignedDimension
 13
2650.0
 23
2436.00004309357
 33
0.0
 14
2100.0
 24
2455.000043093571
 34
0.0
 50
180.0
100
AcDbRotatedDimension
  0
LEADER
  5
1377F
330
1F
100
AcDbEntity
  8
寸法線
100
AcDbLeader
  3
STANDARD
 76
     3
 10
2356.123092980646
 20
1780.897598284157
 30
0.0
 10
2431.471927565886
 20
1915.000023878641
 30
0.0
 10
2699.132104500706
 20
1915.000023878641
 30
0.0
211
-1.0
221
0.0
231
0.0
1001
ACAD
1000
DSTYLE
1002
{
1070
   147
1040
0.875
1070
    77
1070
     0
1002
}
  0
TEXT
  5
13780
330
1F
100
AcDbEntity
  8
寸法線
100
AcDbText
 10
2440.221927565881
 20
1923.750023878641
 30
0.0
 40
25.0
  1
ｶﾊﾞｰﾌﾟﾚｰﾄ連結用孔
 72
     2
 11
2688.555260899215
 21
1948.750023878641
 31
0.0
100
AcDbText
 73
     3
  0
LINE
  5
13781
330
1F
100
AcDbEntity
  8
実線
100
AcDbLine
 10
1742.000000000002
 20
2014.999995055719
 30
0.0
 11
1742.000000000002
 21
2474.999995055719
 31
0.0
  0
LINE
  5
13782
330
1F
100
AcDbEntity
  8
実線
100
AcDbLine
 10
1742.000000000002
 20
2474.999995055719
 30
0.0
 11
1758.000000000002
 21
2474.999995055719
 31
0.0
  0
LINE
  5
13783
330
1F
100
AcDbEntity
  8
実線
100
AcDbLine
 10
1758.000000000002
 20
2014.999995055719
 30
0.0
 11
1758.000000000002
 21
2474.999995055719
 31
0.0
  0
LINE
  5
13784
330
1F
100
AcDbEntity
  8
実線
100
AcDbLine
 10
1742.000000000002
 20
2014.999995055719
 30
0.0
 11
1758.000000000002
 21
2014.999995055719
 31
0.0
  0
LINE
  5
13785
330
1F
100
AcDbEntity
  8
破線
100
AcDbLine
 10
1742.000000000002
 20
2384.999995055719
 30
0.0
 11
1758.000000000002
 21
2384.999995055719
 31
0.0
  0
LINE
  5
13786
330
1F
100
AcDbEntity
  8
破線
100
AcDbLine
 10
1742.000000000002
 20
2104.999995055719
 30
0.0
 11
1758.000000000002
 21
2104.999995055719
 31
0.0
  0
LINE
  5
13787
330
1F
100
AcDbEntity
  8
破線
100
AcDbLine
 10
1742.000000000002
 20
2044.999995055719
 30
0.0
 11
1758.000000000002
 21
2044.999995055719
 31
0.0
  0
LINE
  5
13788
330
1F
100
AcDbEntity
  8
実線
100
AcDbLine
 10
1742.000000000002
 20
1415.000003938147
 30
0.0
 11
1742.000000000002
 21
1875.000003938147
 31
0.0
  0
LINE
  5
13789
330
1F
100
AcDbEntity
  8
実線
100
AcDbLine
 10
1742.000000000002
 20
1875.000003938147
 30
0.0
 11
1758.000000000002
 21
1875.000003938147
 31
0.0
  0
LINE
  5
1378A
330
1F
100
AcDbEntity
  8
実線
100
AcDbLine
 10
1758.000000000002
 20
1415.000003938147
 30
0.0
 11
1758.000000000002
 21
1875.000003938147
 31
0.0
  0
LINE
  5
1378B
330
1F
100
AcDbEntity
  8
実線
100
AcDbLine
 10
1742.000000000002
 20
1415.000003938147
 30
0.0
 11
1758.000000000002
 21
1415.000003938147
 31
0.0
  0
LINE
  5
1378C
330
1F
100
AcDbEntity
  8
破線
100
AcDbLine
 10
1742.000000000002
 20
1785.000003938147
 30
0.0
 11
1758.000000000002
 21
1785.000003938147
 31
0.0
  0
LINE
  5
1378D
330
1F
100
AcDbEntity
  8
破線
100
AcDbLine
 10
1742.000000000002
 20
1505.000003938147
 30
0.0
 11
1758.000000000002
 21
1505.000003938147
 31
0.0
  0
LINE
  5
1378E
330
1F
100
AcDbEntity
  8
破線
100
AcDbLine
 10
1742.000000000002
 20
1445.000003938147
 30
0.0
 11
1758.000000000002
 21
1445.000003938147
 31
0.0
  0
LINE
  5
1378F
330
1F
100
AcDbEntity
  8
破線
100
AcDbLine
 10
1742.000000000002
 20
2444.999995055719
 30
0.0
 11
1758.000000000002
 21
2444.999995055719
 31
0.0
  0
LINE
  5
13790
330
1F
100
AcDbEntity
  8
実線
100
AcDbLine
 10
1742.000000000002
 20
1785.000014756325
 30
0.0
 11
1447.999896414976
 21
1785.000014756325
 31
0.0
  0
LINE
  5
13791
330
1F
100
AcDbEntity
  8
実線
100
AcDbLine
 10
1742.000000000002
 20
1845.000014756324
 30
0.0
 11
1415.999896414976
 21
1845.000014756324
 31
0.0
  0
LINE
  5
13792
330
1F
100
AcDbEntity
  8
実線
100
AcDbLine
 10
1742.000000000002
 20
1505.000014756324
 30
0.0
 11
1447.999896414976
 21
1505.000014756324
 31
0.0
  0
LINE
  5
13793
330
1F
100
AcDbEntity
  8
実線
100
AcDbLine
 10
1742.000000000002
 20
1445.000014756324
 30
0.0
 11
1415.999896414976
 21
1445.000014756324
 31
0.0
  0
LINE
  5
13794
330
1F
100
AcDbEntity
  8
実線
100
AcDbLine
 10
1742.000000000002
 20
2384.999996751581
 30
0.0
 11
1447.999896414976
 21
2384.999996751581
 31
0.0
  0
LINE
  5
13795
330
1F
100
AcDbEntity
  8
実線
100
AcDbLine
 10
1742.000000000002
 20
2444.99999675158
 30
0.0
 11
1415.999896414976
 21
2444.99999675158
 31
0.0
  0
LINE
  5
13796
330
1F
100
AcDbEntity
  8
実線
100
AcDbLine
 10
1742.000000000002
 20
2104.999996751581
 30
0.0
 11
1447.999896414976
 21
2104.999996751581
 31
0.0
  0
LINE
  5
13797
330
1F
100
AcDbEntity
  8
実線
100
AcDbLine
 10
1742.000000000002
 20
2044.999996751581
 30
0.0
 11
1415.999896414976
 21
2044.999996751581
 31
0.0
  0
LINE
  5
13798
330
1F
100
AcDbEntity
  8
破線
100
AcDbLine
 10
1742.000000000002
 20
1845.000003938147
 30
0.0
 11
1758.000000000002
 21
1845.000003938147
 31
0.0
  0
TEXT
  5
13799
330
1F
100
AcDbEntity
  8
寸法線
100
AcDbText
 10
3152.960992024409
 20
1743.395834101175
 30
0.0
 40
25.0
  1
※　H型鋼（連結部）の長さは、切梁メーカー仕様または施工条件
 11
3152.960992024409
 21
1743.395834101175
 31
0.0
100
AcDbText
 73
     1
  0
TEXT
  5
1379A
330
1F
100
AcDbEntity
  8
寸法線
100
AcDbText
 10
3152.960992024409
 20
1793.395834101175
 30
0.0
 40
25.0
  1
※　H型鋼（連結部）の穴開け位置は、切梁メーカー仕様による。
 11
3152.960992024409
 21
1793.395834101175
 31
0.0
100
AcDbText
 73
     1
  0
TEXT
  5
1379B
330
1F
100
AcDbEntity
  8
寸法線
100
AcDbText
 10
3152.960992024409
 20
1693.395834101175
 30
0.0
 40
25.0
  1
　　により変更する場合がある。
 11
3152.960992024409
 21
1693.395834101175
 31
0.0
100
AcDbText
 73
     1
  0
TEXT
  5
1379C
330
1F
100
AcDbEntity
  8
寸法線
100
AcDbText
 10
3152.960992024409
 20
1643.395834101175
 30
0.0
 40
25.0
  1
※　空洞金具部は鉄筋防錆剤塗装仕上げ。
 11
3152.960992024409
 21
1643.395834101175
 31
0.0
100
AcDbText
 73
     1
  0
TEXT
  5
1379D
330
1F
100
AcDbEntity
  8
寸法線
100
AcDbText
 10
3152.960992024409
 20
1593.395834101175
 30
0.0
 40
25.0
  1
※　H型鋼（連結部）は赤さび塗装仕上げ。
 11
3152.960992024409
 21
1593.395834101175
 31
0.0
100
AcDbText
 73
     1
  0
LINE
  5
1379E
330
1F
100
AcDbEntity
  8
実線
100
AcDbLine
 10
1399.999896414979
 20
589.9997577728377
 30
0.0
 11
1399.999896414979
 21
1009.999739528228
 31
0.0
  0
LINE
  5
1379F
330
1F
100
AcDbEntity
  8
実線
100
AcDbLine
 10
1399.999896414979
 20
1009.999739528228
 30
0.0
 11
1415.999896414979
 21
1009.999739528228
 31
0.0
  0
LINE
  5
137A0
330
1F
100
AcDbEntity
  8
実線
100
AcDbLine
 10
1447.999896414979
 20
656.9997577728377
 30
0.0
 11
1447.999896414979
 21
942.9997577728377
 31
0.0
  0
LINE
  5
137A1
330
1F
100
AcDbEntity
  8
中心線
100
AcDbLine
 10
1374.999896414979
 20
799.9997395282303
 30
0.0
 11
2124.999896414975
 21
799.9997395282284
 31
0.0
  0
LINE
  5
137A2
330
1F
100
AcDbEntity
  8
中心線
100
AcDbLine
 10
1389.999999999993
 20
969.9997395282284
 30
0.0
 11
2109.999999999994
 21
969.9997395282284
 31
0.0
  0
LINE
  5
137A3
330
1F
100
AcDbEntity
  8
破線
100
AcDbLine
 10
1415.999896414979
 20
983.9997395282285
 30
0.0
 11
1447.999896414979
 21
983.9997395282285
 31
0.0
  0
LINE
  5
137A4
330
1F
100
AcDbEntity
  8
破線
100
AcDbLine
 10
1447.999896414979
 20
983.9997577728377
 30
0.0
 11
1447.999896414979
 21
999.9997395282285
 31
0.0
  0
LINE
  5
137A5
330
1F
100
AcDbEntity
  8
破線
100
AcDbLine
 10
1424.999896414979
 20
939.9997395282284
 30
0.0
 11
1447.999896414979
 21
939.9997395282284
 31
0.0
  0
LINE
  5
137A6
330
1F
100
AcDbEntity
  8
実線
100
AcDbLine
 10
1427.999896414979
 20
942.9997395282285
 30
0.0
 11
1447.999896414979
 21
942.9997395282285
 31
0.0
  0
LINE
  5
137A7
330
1F
100
AcDbEntity
  8
実線
100
AcDbLine
 10
1415.999896414979
 20
930.9997395282284
 30
0.0
 11
1427.999896414979
 21
942.9997395282285
 31
0.0
  0
LINE
  5
137A8
330
1F
100
AcDbEntity
  8
実線
100
AcDbLine
 10
1415.999896414979
 20
939.9997395282284
 30
0.0
 11
1424.999896414979
 21
939.9997395282284
 31
0.0
  0
LINE
  5
137A9
330
1F
100
AcDbEntity
  8
破線
100
AcDbLine
 10
2051.999896414979
 20
983.9997577728377
 30
0.0
 11
2051.999896414979
 21
999.9997395282285
 31
0.0
  0
LINE
  5
137AA
330
1F
100
AcDbEntity
  8
破線
100
AcDbLine
 10
2083.999896414979
 20
983.9997395282285
 30
0.0
 11
2051.999896414979
 21
983.9997395282285
 31
0.0
  0
LINE
  5
137AB
330
1F
100
AcDbEntity
  8
破線
100
AcDbLine
 10
1415.999896414979
 20
807.9997395282285
 30
0.0
 11
1447.999896414979
 21
807.9997395282285
 31
0.0
  0
LINE
  5
137AC
330
1F
100
AcDbEntity
  8
破線
100
AcDbLine
 10
1415.999896414979
 20
791.9997395282284
 30
0.0
 11
1447.999896414979
 21
791.9997395282284
 31
0.0
  0
LINE
  5
137AD
330
1F
100
AcDbEntity
  8
破線
100
AcDbLine
 10
2051.999896414979
 20
807.9997395282285
 30
0.0
 11
2083.999896414979
 21
807.9997395282285
 31
0.0
  0
LINE
  5
137AE
330
1F
100
AcDbEntity
  8
破線
100
AcDbLine
 10
2051.999896414979
 20
791.9997395282284
 30
0.0
 11
2083.999896414979
 21
791.9997395282284
 31
0.0
  0
DIMENSION
  5
137AF
330
1F
100
AcDbEntity
  8
寸法線
100
AcDbDimension
280
     0
  2
*D31
 10
2083.999896414979
 20
499.9999830784627
 30
0.0
 11
2067.999948207486
 21
499.9999830784627
 31
0.0
 70
   160
 71
     5
 42
31.99989641498542
 73
     0
 74
     0
 75
     0
  3
STANDARD
100
AcDbAlignedDimension
 13
2051.999999999994
 23
599.9997395282284
 33
0.0
 14
2083.999896414979
 24
589.9997395282285
 34
0.0
100
AcDbRotatedDimension
  0
DIMENSION
  5
137B0
330
1F
100
AcDbEntity
  8
寸法線
100
AcDbDimension
280
     0
  2
*D32
 10
2099.999896414979
 20
439.9999830784627
 30
0.0
 11
2091.999896414979
 21
439.9999830784627
 31
0.0
 70
   160
 71
     5
 42
16.0
 73
     0
 74
     0
 75
     0
  3
STANDARD
100
AcDbAlignedDimension
 13
2083.999896414979
 23
589.9997395282285
 33
0.0
 14
2099.999896414979
 24
589.9997395282285
 34
0.0
100
AcDbRotatedDimension
  0
DIMENSION
  5
137B1
330
1F
100
AcDbEntity
  8
寸法線
100
AcDbDimension
280
     0
  2
*D33
 10
2023.999896414979
 20
999.9997395282289
 30
0.0
 11
2023.999896414979
 21
886.2398970085219
 31
0.0
 70
   160
  1
%%C<>
 71
     5
 42
60.0
 73
     0
 74
     0
 75
     0
  3
STANDARD
100
AcDbAlignedDimension
 13
2023.999896414979
 23
939.9997395282284
 33
0.0
 14
2023.999896414979
 24
999.9997395282285
 34
0.0
 50
90.0
100
AcDbRotatedDimension
  0
LINE
  5
137B2
330
1F
100
AcDbEntity
  8
仮想線
100
AcDbLine
 10
1471.462948669149
 20
539.9997577728377
 30
0.0
 11
1471.462948669149
 21
1059.999757772837
 31
0.0
  0
TEXT
  5
137B3
330
1F
100
AcDbEntity
  8
寸法線
100
AcDbText
 10
1521.118171036196
 20
1038.799739528228
 30
0.0
 40
21.0
  1
Ａ
 72
     4
 11
1530.918171036196
 21
1049.999739528228
 31
0.0
100
AcDbText
  0
TEXT
  5
137B4
330
1F
100
AcDbEntity
  8
寸法線
100
AcDbText
 10
1521.118171036196
 20
538.7997395282284
 30
0.0
 40
21.0
  1
Ａ
 72
     4
 11
1530.918171036196
 21
549.9997395282284
 31
0.0
100
AcDbText
  0
LINE
  5
137B5
330
1F
100
AcDbEntity
  8
実線
100
AcDbLine
 10
2083.999896414979
 20
1009.999739528228
 30
0.0
 11
2099.999896414979
 21
1009.999739528228
 31
0.0
  0
LINE
  5
137B6
330
1F
100
AcDbEntity
  8
実線
100
AcDbLine
 10
1415.999896414979
 20
589.9997577728377
 30
0.0
 11
1415.999896414979
 21
1009.999739528228
 31
0.0
  0
LINE
  5
137B7
330
1F
100
AcDbEntity
  8
実線
100
AcDbLine
 10
2083.999896414979
 20
589.9997577728377
 30
0.0
 11
2083.999896414979
 21
1009.999739528228
 31
0.0
  0
LINE
  5
137B8
330
1F
100
AcDbEntity
  8
実線
100
AcDbLine
 10
2099.999896414979
 20
589.9997577728377
 30
0.0
 11
2099.999896414979
 21
1009.999739528228
 31
0.0
  0
LINE
  5
137B9
330
1F
100
AcDbEntity
  8
実線
100
AcDbLine
 10
1399.999896414979
 20
589.9997395282285
 30
0.0
 11
1415.999896414979
 21
589.9997395282285
 31
0.0
  0
LINE
  5
137BA
330
1F
100
AcDbEntity
  8
中心線
100
AcDbLine
 10
1389.999999999993
 20
629.9997395282284
 30
0.0
 11
2109.999999999994
 21
629.9997395282284
 31
0.0
  0
LINE
  5
137BB
330
1F
100
AcDbEntity
  8
破線
100
AcDbLine
 10
1415.999896414979
 20
615.9997395282284
 30
0.0
 11
1447.999896414979
 21
615.9997395282284
 31
0.0
  0
LINE
  5
137BC
330
1F
100
AcDbEntity
  8
破線
100
AcDbLine
 10
1447.999896414979
 20
615.9997212835901
 30
0.0
 11
1447.999896414979
 21
599.9997395282284
 31
0.0
  0
LINE
  5
137BD
330
1F
100
AcDbEntity
  8
破線
100
AcDbLine
 10
1424.999896414979
 20
659.9997395282285
 30
0.0
 11
1447.999896414979
 21
659.9997395282285
 31
0.0
  0
LINE
  5
137BE
330
1F
100
AcDbEntity
  8
実線
100
AcDbLine
 10
1427.999896414979
 20
656.9997395282284
 30
0.0
 11
1447.999896414979
 21
656.9997395282284
 31
0.0
  0
LINE
  5
137BF
330
1F
100
AcDbEntity
  8
実線
100
AcDbLine
 10
1415.999896414979
 20
668.9997395282285
 30
0.0
 11
1427.999896414979
 21
656.9997395282284
 31
0.0
  0
LINE
  5
137C0
330
1F
100
AcDbEntity
  8
実線
100
AcDbLine
 10
1415.999896414979
 20
659.9997395282285
 30
0.0
 11
1424.999896414979
 21
659.9997395282285
 31
0.0
  0
LINE
  5
137C1
330
1F
100
AcDbEntity
  8
破線
100
AcDbLine
 10
2051.999896414979
 20
615.9997212835901
 30
0.0
 11
2051.999896414979
 21
599.9997395282284
 31
0.0
  0
LINE
  5
137C2
330
1F
100
AcDbEntity
  8
破線
100
AcDbLine
 10
2083.999896414979
 20
615.9997395282284
 30
0.0
 11
2051.999896414979
 21
615.9997395282284
 31
0.0
  0
LINE
  5
137C3
330
1F
100
AcDbEntity
  8
実線
100
AcDbLine
 10
2083.999896414979
 20
589.9997395282285
 30
0.0
 11
2099.999896414979
 21
589.9997395282285
 31
0.0
  0
LINE
  5
137C4
330
1F
100
AcDbEntity
  8
実線
100
AcDbLine
 10
2051.999999999994
 20
656.9997577728377
 30
0.0
 11
2051.999999999994
 21
942.9997577728377
 31
0.0
  0
LINE
  5
137C5
330
1F
100
AcDbEntity
  8
破線
100
AcDbLine
 10
2074.999999999993
 20
939.9997395282284
 30
0.0
 11
2051.999999999994
 21
939.9997395282284
 31
0.0
  0
LINE
  5
137C6
330
1F
100
AcDbEntity
  8
実線
100
AcDbLine
 10
2071.999999999994
 20
942.9997395282285
 30
0.0
 11
2051.999999999994
 21
942.9997395282285
 31
0.0
  0
LINE
  5
137C7
330
1F
100
AcDbEntity
  8
実線
100
AcDbLine
 10
2083.999999999994
 20
930.9997395282284
 30
0.0
 11
2071.999999999994
 21
942.9997395282285
 31
0.0
  0
LINE
  5
137C8
330
1F
100
AcDbEntity
  8
実線
100
AcDbLine
 10
2083.999999999994
 20
939.9997395282284
 30
0.0
 11
2074.999999999993
 21
939.9997395282284
 31
0.0
  0
LINE
  5
137C9
330
1F
100
AcDbEntity
  8
破線
100
AcDbLine
 10
2074.999999999993
 20
659.9997395282285
 30
0.0
 11
2051.999999999994
 21
659.9997395282285
 31
0.0
  0
LINE
  5
137CA
330
1F
100
AcDbEntity
  8
実線
100
AcDbLine
 10
2071.999999999994
 20
656.9997395282284
 30
0.0
 11
2051.999999999994
 21
656.9997395282284
 31
0.0
  0
LINE
  5
137CB
330
1F
100
AcDbEntity
  8
実線
100
AcDbLine
 10
2083.999999999994
 20
668.9997395282285
 30
0.0
 11
2071.999999999994
 21
656.9997395282284
 31
0.0
  0
LINE
  5
137CC
330
1F
100
AcDbEntity
  8
実線
100
AcDbLine
 10
2083.999999999994
 20
659.9997395282285
 30
0.0
 11
2074.999999999993
 21
659.9997395282285
 31
0.0
  0
LINE
  5
137CD
330
1F
100
AcDbEntity
  8
実線
100
AcDbLine
 10
1741.999948207486
 20
569.9997395282284
 30
0.0
 11
1741.999948207486
 21
1029.999739528228
 31
0.0
  0
LINE
  5
137CE
330
1F
100
AcDbEntity
  8
実線
100
AcDbLine
 10
1741.999948207486
 20
1029.999739528228
 30
0.0
 11
1757.999948207486
 21
1029.999739528228
 31
0.0
  0
LINE
  5
137CF
330
1F
100
AcDbEntity
  8
実線
100
AcDbLine
 10
1757.999948207486
 20
569.9997395282284
 30
0.0
 11
1757.999948207486
 21
1029.999739528228
 31
0.0
  0
LINE
  5
137D0
330
1F
100
AcDbEntity
  8
実線
100
AcDbLine
 10
1741.999948207486
 20
569.9997395282284
 30
0.0
 11
1757.999948207486
 21
569.9997395282284
 31
0.0
  0
LINE
  5
137D1
330
1F
100
AcDbEntity
  8
破線
100
AcDbLine
 10
1741.999948207486
 20
999.9997395282285
 30
0.0
 11
1757.999948207486
 21
999.9997395282285
 31
0.0
  0
LINE
  5
137D2
330
1F
100
AcDbEntity
  8
破線
100
AcDbLine
 10
1741.999948207486
 20
939.9997395282284
 30
0.0
 11
1757.999948207486
 21
939.9997395282284
 31
0.0
  0
LINE
  5
137D3
330
1F
100
AcDbEntity
  8
破線
100
AcDbLine
 10
1741.999948207486
 20
659.9997395282285
 30
0.0
 11
1757.999948207486
 21
659.9997395282285
 31
0.0
  0
LINE
  5
137D4
330
1F
100
AcDbEntity
  8
破線
100
AcDbLine
 10
1741.999948207486
 20
599.9997395282284
 30
0.0
 11
1757.999948207486
 21
599.9997395282284
 31
0.0
  0
LINE
  5
137D5
330
1F
100
AcDbEntity
  8
仮想線
100
AcDbLine
 10
1813.463000461685
 20
539.9997577728377
 30
0.0
 11
1813.463000461685
 21
1059.999757772837
 31
0.0
  0
TEXT
  5
137D6
330
1F
100
AcDbEntity
  8
寸法線
100
AcDbText
 10
1862.418222828704
 20
1038.799739528228
 30
0.0
 40
21.0
  1
Ｂ
 72
     4
 11
1872.918222828704
 21
1049.999739528228
 31
0.0
100
AcDbText
  0
TEXT
  5
137D7
330
1F
100
AcDbEntity
  8
寸法線
100
AcDbText
 10
1862.418222828704
 20
538.7997395282284
 30
0.0
 40
21.0
  1
Ｂ
 72
     4
 11
1872.918222828704
 21
549.9997395282284
 31
0.0
100
AcDbText
  0
LINE
  5
137D8
330
1F
100
AcDbEntity
  8
実線
100
AcDbLine
 10
1757.999948207486
 20
939.9997395282266
 30
0.0
 11
2051.999999999994
 21
939.9997395282284
 31
0.0
  0
LINE
  5
137D9
330
1F
100
AcDbEntity
  8
実線
100
AcDbLine
 10
1757.999948207486
 20
999.9997395282285
 30
0.0
 11
2083.999999999994
 21
999.9997395282285
 31
0.0
  0
LINE
  5
137DA
330
1F
100
AcDbEntity
  8
実線
100
AcDbLine
 10
1757.999948207486
 20
659.9997395282285
 30
0.0
 11
2051.999999999994
 21
659.9997395282285
 31
0.0
  0
LINE
  5
137DB
330
1F
100
AcDbEntity
  8
実線
100
AcDbLine
 10
1757.999948207486
 20
599.9997395282284
 30
0.0
 11
2083.999999999994
 21
599.9997395282284
 31
0.0
  0
LINE
  5
137DC
330
1F
100
AcDbEntity
  8
実線
100
AcDbLine
 10
1741.999948207486
 20
939.9997395282266
 30
0.0
 11
1447.999896414979
 21
939.9997395282284
 31
0.0
  0
LINE
  5
137DD
330
1F
100
AcDbEntity
  8
実線
100
AcDbLine
 10
1741.999948207486
 20
999.9997395282285
 30
0.0
 11
1415.999896414979
 21
999.9997395282285
 31
0.0
  0
LINE
  5
137DE
330
1F
100
AcDbEntity
  8
実線
100
AcDbLine
 10
1741.999948207486
 20
659.9997395282285
 30
0.0
 11
1447.999896414979
 21
659.9997395282285
 31
0.0
  0
LINE
  5
137DF
330
1F
100
AcDbEntity
  8
実線
100
AcDbLine
 10
1741.999948207486
 20
599.9997395282284
 30
0.0
 11
1415.999896414979
 21
599.9997395282284
 31
0.0
  0
LEADER
  5
137E0
330
1F
100
AcDbEntity
  8
寸法線
100
AcDbLeader
  3
STANDARD
 76
     2
 10
1471.462948669149
 20
1049.999739528228
 30
0.0
 10
1518.859683854994
 20
1049.999739528228
 30
0.0
1001
ACAD
1000
DSTYLE
1002
{
1070
   147
1040
0.875
1070
    77
1070
     0
1070
    49
1040
0.5
1002
}
  0
LEADER
  5
137E1
330
1F
100
AcDbEntity
  8
寸法線
100
AcDbLeader
  3
STANDARD
 76
     2
 10
1471.462948669149
 20
549.9997395282284
 30
0.0
 10
1518.859683854994
 20
549.9997395282284
 30
0.0
1001
ACAD
1000
DSTYLE
1002
{
1070
   147
1040
0.875
1070
    77
1070
     0
1070
    49
1040
0.5
1002
}
  0
LEADER
  5
137E2
330
1F
100
AcDbEntity
  8
寸法線
100
AcDbLeader
  3
STANDARD
 76
     2
 10
1813.463000461685
 20
1049.999739528228
 30
0.0
 10
1860.859735647501
 20
1049.999739528228
 30
0.0
1001
ACAD
1000
DSTYLE
1002
{
1070
   147
1040
0.875
1070
    77
1070
     0
1070
    49
1040
0.5
1002
}
  0
LEADER
  5
137E3
330
1F
100
AcDbEntity
  8
寸法線
100
AcDbLeader
  3
STANDARD
 76
     2
 10
1813.463000461685
 20
549.9997395282284
 30
0.0
 10
1860.859735647501
 20
549.9997395282284
 30
0.0
1001
ACAD
1000
DSTYLE
1002
{
1070
   147
1040
0.875
1070
    77
1070
     0
1070
    49
1040
0.5
1002
}
  0
DIMENSION
  5
137E4
330
1F
100
AcDbEntity
  8
寸法線
100
AcDbDimension
280
     0
  2
*D34
 10
1447.999896414979
 20
499.9999830784627
 30
0.0
 11
1431.999896414979
 21
499.9999830784627
 31
0.0
 70
   160
 71
     5
 42
32.0
 73
     0
 74
     0
 75
     0
  3
STANDARD
100
AcDbAlignedDimension
 13
1415.999896414979
 23
589.9997532116999
 33
0.0
 14
1447.999896414979
 24
599.9997532116999
 34
0.0
100
AcDbRotatedDimension
  0
DIMENSION
  5
137E5
330
1F
100
AcDbEntity
  8
寸法線
100
AcDbDimension
280
     0
  2
*D35
 10
2051.999896414979
 20
499.9999830784627
 30
0.0
 11
1749.999896414979
 21
521.2499830784627
 31
0.0
 70
    32
 71
     5
 42
604.0
 73
     0
 74
     0
 75
     0
  3
STANDARD
100
AcDbAlignedDimension
 13
1447.999896414979
 23
599.9997532116999
 33
0.0
 14
2051.999896414979
 24
599.9997395282284
 34
0.0
100
AcDbRotatedDimension
  0
DIMENSION
  5
137E6
330
1F
100
AcDbEntity
  8
寸法線
100
AcDbDimension
280
     0
  2
*D36
 10
1415.999896414979
 20
439.9999830784627
 30
0.0
 11
1407.999896414979
 21
439.9999830784627
 31
0.0
 70
   160
 71
     5
 42
16.0
 73
     0
 74
     0
 75
     0
  3
STANDARD
100
AcDbAlignedDimension
 13
1399.999896414979
 23
589.9997532116999
 33
0.0
 14
1415.999896414979
 24
589.9997532116999
 34
0.0
100
AcDbRotatedDimension
  0
DIMENSION
  5
137E7
330
1F
100
AcDbEntity
  8
寸法線
100
AcDbDimension
280
     0
  2
*D37
 10
2083.999896414979
 20
439.9999830784627
 30
0.0
 11
1749.999896414979
 21
461.2499830784627
 31
0.0
 70
    32
 71
     5
 42
668.0
 73
     0
 74
     0
 75
     0
  3
STANDARD
100
AcDbAlignedDimension
 13
1415.999896414979
 23
589.9997532116999
 33
0.0
 14
2083.999896414979
 24
589.9997577728377
 34
0.0
100
AcDbRotatedDimension
  0
DIMENSION
  5
137E8
330
1F
100
AcDbEntity
  8
寸法線
100
AcDbDimension
280
     0
  2
*D38
 10
2099.999896414979
 20
379.9999830784627
 30
0.0
 11
1749.999896414979
 21
401.2499830784626
 31
0.0
 70
    32
 71
     5
 42
700.0
 73
     0
 74
     0
 75
     0
  3
STANDARD
100
AcDbAlignedDimension
 13
1399.999896414979
 23
589.9997714563092
 33
0.0
 14
2099.999896414979
 24
589.9997577728377
 34
0.0
100
AcDbRotatedDimension
  0
LINE
  5
137E9
330
1F
100
AcDbEntity
  8
破線
100
AcDbLine
 10
816.4998964149789
 20
807.999739528214
 30
0.0
 11
1183.499896414979
 21
807.999739528214
 31
0.0
  0
LINE
  5
137EA
330
1F
100
AcDbEntity
  8
中心線
100
AcDbLine
 10
764.999920199386
 20
799.9997395282139
 30
0.0
 11
1234.999920199386
 21
799.9997395282139
 31
0.0
  0
LINE
  5
137EB
330
1F
100
AcDbEntity
  8
実線
100
AcDbLine
 10
789.999896414979
 20
1009.999757772852
 30
0.0
 11
1209.999896414979
 21
1009.999757772852
 31
0.0
  0
LINE
  5
137EC
330
1F
100
AcDbEntity
  8
実線
100
AcDbLine
 10
789.999896414979
 20
589.9997577728522
 30
0.0
 11
789.999896414979
 21
1009.999757772852
 31
0.0
  0
LINE
  5
137ED
330
1F
100
AcDbEntity
  8
破線
100
AcDbLine
 10
816.4998964149789
 20
791.9997395282138
 30
0.0
 11
816.4998964149789
 21
807.999739528214
 31
0.0
  0
CIRCLE
  5
137EE
330
1F
100
AcDbEntity
  8
破線
100
AcDbCircle
 10
829.9997890223394
 20
969.9997395282139
 30
0.0
 40
30.0
  0
LINE
  5
137EF
330
1F
100
AcDbEntity
  8
破線
100
AcDbLine
 10
799.9997890223394
 20
942.9997577728522
 30
0.0
 11
815.9997890223394
 21
942.9997577728522
 31
0.0
  0
LINE
  5
137F0
330
1F
100
AcDbEntity
  8
破線
100
AcDbLine
 10
991.999896414979
 20
983.4997395282139
 30
0.0
 11
991.999896414979
 21
807.9997577728523
 31
0.0
  0
LINE
  5
137F1
330
1F
100
AcDbEntity
  8
破線
100
AcDbLine
 10
1007.999896414979
 20
983.4997395282139
 30
0.0
 11
1007.999896414979
 21
807.9997577728523
 31
0.0
  0
LINE
  5
137F2
330
1F
100
AcDbEntity
  8
破線
100
AcDbLine
 10
1183.499896414979
 20
807.999739528214
 30
0.0
 11
1183.499896414979
 21
791.9997395282138
 31
0.0
  0
LINE
  5
137F3
330
1F
100
AcDbEntity
  8
破線
100
AcDbLine
 10
991.999896414979
 20
983.4997395282139
 30
0.0
 11
1007.999896414979
 21
983.4997395282139
 31
0.0
  0
DIMENSION
  5
137F4
330
1F
100
AcDbEntity
  8
寸法線
100
AcDbDimension
280
     0
  2
*D39
 10
1209.999896414979
 20
499.9999830784627
 30
0.0
 11
999.999896414979
 21
499.9999830784627
 31
0.0
 70
   160
 71
     5
 42
420.0
 73
     0
 74
     0
 75
     0
  3
STANDARD
100
AcDbAlignedDimension
 13
789.999896414979
 23
589.9997212835756
 33
0.0
 14
1209.999896414979
 24
589.9997577728522
 34
0.0
100
AcDbRotatedDimension
  0
LINE
  5
137F5
330
1F
100
AcDbEntity
  8
実線
100
AcDbLine
 10
1209.999896414979
 20
589.9997577728522
 30
0.0
 11
1209.999896414979
 21
1009.999757772852
 31
0.0
  0
CIRCLE
  5
137F6
330
1F
100
AcDbEntity
  8
破線
100
AcDbCircle
 10
1169.999789022339
 20
969.9997395282139
 30
0.0
 40
30.0
  0
LINE
  5
137F7
330
1F
100
AcDbEntity
  8
中心線
100
AcDbLine
 10
1114.999920199386
 20
969.9997395282139
 30
0.0
 11
1224.999920199386
 21
969.9997395282139
 31
0.0
  0
LINE
  5
137F8
330
1F
100
AcDbEntity
  8
破線
100
AcDbLine
 10
799.9997890223394
 20
656.9997577728522
 30
0.0
 11
799.9997890223394
 21
942.9997577728522
 31
0.0
  0
LINE
  5
137F9
330
1F
100
AcDbEntity
  8
破線
100
AcDbLine
 10
856.9998964149791
 20
615.9997395282139
 30
0.0
 11
1142.999896414979
 21
615.9997395282139
 31
0.0
  0
LINE
  5
137FA
330
1F
100
AcDbEntity
  8
破線
100
AcDbLine
 10
816.4998964149789
 20
791.9997395282138
 30
0.0
 11
1183.499896414979
 21
791.9997395282138
 31
0.0
  0
LINE
  5
137FB
330
1F
100
AcDbEntity
  8
実線
100
AcDbLine
 10
789.999896414979
 20
589.9997212835756
 30
0.0
 11
1209.999896414979
 21
589.9997212835756
 31
0.0
  0
CIRCLE
  5
137FC
330
1F
100
AcDbEntity
  8
破線
100
AcDbCircle
 10
829.9997890223394
 20
629.9997395282139
 30
0.0
 40
30.0
  0
LINE
  5
137FD
330
1F
100
AcDbEntity
  8
破線
100
AcDbLine
 10
799.9997890223394
 20
656.9997577728522
 30
0.0
 11
815.9997890223394
 21
656.9997577728522
 31
0.0
  0
LINE
  5
137FE
330
1F
100
AcDbEntity
  8
破線
100
AcDbLine
 10
856.9998964149791
 20
599.9997395282139
 30
0.0
 11
856.9998964149791
 21
615.9997395282139
 31
0.0
  0
LINE
  5
137FF
330
1F
100
AcDbEntity
  8
破線
100
AcDbLine
 10
991.999896414979
 20
616.4997395282139
 30
0.0
 11
991.999896414979
 21
791.9997212835755
 31
0.0
  0
LINE
  5
13800
330
1F
100
AcDbEntity
  8
破線
100
AcDbLine
 10
1007.999896414979
 20
616.4997395282139
 30
0.0
 11
1007.999896414979
 21
791.9997212835755
 31
0.0
  0
LINE
  5
13801
330
1F
100
AcDbEntity
  8
破線
100
AcDbLine
 10
991.999896414979
 20
616.4997395282139
 30
0.0
 11
1007.999896414979
 21
616.4997395282139
 31
0.0
  0
LINE
  5
13802
330
1F
100
AcDbEntity
  8
破線
100
AcDbLine
 10
1142.999896414979
 20
599.9997395282139
 30
0.0
 11
1142.999896414979
 21
615.9997395282139
 31
0.0
  0
CIRCLE
  5
13803
330
1F
100
AcDbEntity
  8
破線
100
AcDbCircle
 10
1169.999789022339
 20
629.9997395282139
 30
0.0
 40
30.0
  0
LINE
  5
13804
330
1F
100
AcDbEntity
  8
破線
100
AcDbLine
 10
856.9998964149791
 20
599.9997395282139
 30
0.0
 11
1142.999896414979
 21
599.9997395282139
 31
0.0
  0
LINE
  5
13805
330
1F
100
AcDbEntity
  8
破線
100
AcDbLine
 10
856.9998964149791
 20
999.9997395282139
 30
0.0
 11
1142.999896414979
 21
999.9997395282139
 31
0.0
  0
LINE
  5
13806
330
1F
100
AcDbEntity
  8
破線
100
AcDbLine
 10
856.9998964149791
 20
983.9997395282139
 30
0.0
 11
856.9998964149791
 21
999.9997395282139
 31
0.0
  0
LINE
  5
13807
330
1F
100
AcDbEntity
  8
破線
100
AcDbLine
 10
1142.999896414979
 20
983.9997395282139
 30
0.0
 11
1142.999896414979
 21
999.9997395282139
 31
0.0
  0
LINE
  5
13808
330
1F
100
AcDbEntity
  8
破線
100
AcDbLine
 10
856.9998964149791
 20
983.9997395282139
 30
0.0
 11
1142.999896414979
 21
983.9997395282139
 31
0.0
  0
LINE
  5
13809
330
1F
100
AcDbEntity
  8
破線
100
AcDbLine
 10
815.9997890223394
 20
656.9997577728522
 30
0.0
 11
815.9997890223394
 21
942.9997577728522
 31
0.0
  0
LINE
  5
1380A
330
1F
100
AcDbEntity
  8
破線
100
AcDbLine
 10
1183.999789022339
 20
942.9997577728522
 30
0.0
 11
1199.999789022339
 21
942.9997577728522
 31
0.0
  0
LINE
  5
1380B
330
1F
100
AcDbEntity
  8
破線
100
AcDbLine
 10
1183.999789022339
 20
656.9997577728522
 30
0.0
 11
1183.999789022339
 21
942.9997577728522
 31
0.0
  0
LINE
  5
1380C
330
1F
100
AcDbEntity
  8
破線
100
AcDbLine
 10
1183.999789022339
 20
656.9997577728522
 30
0.0
 11
1199.999789022339
 21
656.9997577728522
 31
0.0
  0
LINE
  5
1380D
330
1F
100
AcDbEntity
  8
破線
100
AcDbLine
 10
1199.999789022339
 20
656.9997577728522
 30
0.0
 11
1199.999789022339
 21
942.9997577728522
 31
0.0
  0
LINE
  5
1380E
330
1F
100
AcDbEntity
  8
中心線
100
AcDbLine
 10
999.999920199386
 20
564.9997395282139
 30
0.0
 11
999.999920199386
 21
1034.999739528214
 31
0.0
  0
LINE
  5
1380F
330
1F
100
AcDbEntity
  8
中心線
100
AcDbLine
 10
1169.999920199386
 20
914.999739528214
 30
0.0
 11
1169.999920199386
 21
1024.999739528214
 31
0.0
  0
LINE
  5
13810
330
1F
100
AcDbEntity
  8
中心線
100
AcDbLine
 10
1114.999920199386
 20
629.9997395282139
 30
0.0
 11
1224.999920199386
 21
629.9997395282139
 31
0.0
  0
LINE
  5
13811
330
1F
100
AcDbEntity
  8
中心線
100
AcDbLine
 10
1169.999920199386
 20
574.9997395282139
 30
0.0
 11
1169.999920199386
 21
684.9997395282139
 31
0.0
  0
LINE
  5
13812
330
1F
100
AcDbEntity
  8
中心線
100
AcDbLine
 10
774.9999201993859
 20
969.9997395282139
 30
0.0
 11
884.999920199386
 21
969.9997395282139
 31
0.0
  0
LINE
  5
13813
330
1F
100
AcDbEntity
  8
中心線
100
AcDbLine
 10
829.9999201993859
 20
914.999739528214
 30
0.0
 11
829.9999201993859
 21
1024.999739528214
 31
0.0
  0
LINE
  5
13814
330
1F
100
AcDbEntity
  8
中心線
100
AcDbLine
 10
774.9999201993859
 20
629.9997395282139
 30
0.0
 11
884.999920199386
 21
629.9997395282139
 31
0.0
  0
LINE
  5
13815
330
1F
100
AcDbEntity
  8
中心線
100
AcDbLine
 10
829.9999201993859
 20
574.9997395282139
 30
0.0
 11
829.9999201993859
 21
684.9997395282139
 31
0.0
  0
DIMENSION
  5
13816
330
1F
100
AcDbEntity
  8
寸法線
100
AcDbDimension
280
     0
  2
*D10
 10
699.9999439837928
 20
1009.999757772853
 30
0.0
 11
699.9999439837929
 21
799.9997577728522
 31
0.0
 70
   160
 71
     5
 42
420.0000000000001
 73
     0
 74
     0
 75
     0
  3
STANDARD
100
AcDbAlignedDimension
 13
789.9999439837929
 23
589.9997577728522
 33
0.0
 14
789.9999439837929
 24
1009.999757772852
 34
0.0
 50
90.0
100
AcDbRotatedDimension
  0
TEXT
  5
13817
330
1F
100
AcDbEntity
  8
寸法線
100
AcDbText
 10
2429.999896414979
 20
1083.750488423606
 30
0.0
 40
25.0
  1
断面Ａ－Ａ
 72
     1
 11
2499.999896414979
 21
1083.750488423606
 31
0.0
100
AcDbText
 73
     1
  0
DIMENSION
  5
13818
330
1F
100
AcDbEntity
  8
寸法線
100
AcDbDimension
280
     0
  2
*D11
 10
2670.000120199396
 20
499.9999830784627
 30
0.0
 11
2500.000121120823
 21
499.9999830784627
 31
0.0
 70
   160
 71
     5
 42
340.0
 73
     0
 74
     0
 75
     0
  3
STANDARD
100
AcDbAlignedDimension
 13
2330.000120199395
 23
575.0002539956572
 33
0.0
 14
2670.000120199396
 24
575.0002539956572
 34
0.0
100
AcDbRotatedDimension
  0
LINE
  5
13819
330
1F
100
AcDbEntity
  8
実線
100
AcDbLine
 10
2289.999896414979
 20
1010.000019567737
 30
0.0
 11
2709.999896414979
 21
1010.000019567737
 31
0.0
  0
LINE
  5
1381A
330
1F
100
AcDbEntity
  8
中心線
100
AcDbLine
 10
2264.999920199386
 20
800.0002539956572
 30
0.0
 11
2734.999920199386
 21
800.0002539956572
 31
0.0
  0
LINE
  5
1381B
330
1F
100
AcDbEntity
  8
実線
100
AcDbLine
 10
2316.499896414979
 20
808.0000195677371
 30
0.0
 11
2683.499896414979
 21
808.0000195677371
 31
0.0
  0
LINE
  5
1381C
330
1F
100
AcDbEntity
  8
実線
100
AcDbLine
 10
2289.999896414979
 20
590.0000195677371
 30
0.0
 11
2289.999896414979
 21
1010.000019567737
 31
0.0
  0
DIMENSION
  5
1381D
330
1F
100
AcDbEntity
  8
寸法線
100
AcDbDimension
280
     0
  2
*D12
 10
2330.000120199395
 20
499.9999830784627
 30
0.0
 11
2310.000008307187
 21
499.9999830784627
 31
0.0
 70
   160
 71
     5
 42
40.00022378441644
 73
     0
 74
     0
 75
     0
  3
STANDARD
100
AcDbAlignedDimension
 13
2289.999896414979
 23
590.0004884236063
 33
0.0
 14
2330.000120199395
 24
575.0002539956572
 34
0.0
100
AcDbRotatedDimension
  0
LINE
  5
1381E
330
1F
100
AcDbEntity
  8
実線
100
AcDbLine
 10
2316.499896414979
 20
792.0000195677371
 30
0.0
 11
2316.499896414979
 21
808.0000195677371
 31
0.0
  0
LINE
  5
1381F
330
1F
100
AcDbEntity
  8
実線
100
AcDbLine
 10
2300.000121120823
 20
943.000019567737
 30
0.0
 11
2316.000121120823
 21
943.000019567737
 31
0.0
  0
LINE
  5
13820
330
1F
100
AcDbEntity
  8
実線
100
AcDbLine
 10
2356.999896414979
 20
1000.000253995657
 30
0.0
 11
2356.999896414979
 21
984.0002539956572
 31
0.0
  0
LINE
  5
13821
330
1F
100
AcDbEntity
  8
実線
100
AcDbLine
 10
2507.999896414979
 20
983.5002539956573
 30
0.0
 11
2507.999896414979
 21
808.0002539956572
 31
0.0
  0
LINE
  5
13822
330
1F
100
AcDbEntity
  8
実線
100
AcDbLine
 10
2491.999896414979
 20
983.5002539956573
 30
0.0
 11
2491.999896414979
 21
808.0002539956572
 31
0.0
  0
DIMENSION
  5
13823
330
1F
100
AcDbEntity
  8
寸法線
100
AcDbDimension
280
     0
  2
*D13
 10
2799.999896414981
 20
1010.000019567737
 30
0.0
 11
2799.99989641498
 21
990.0001367816965
 31
0.0
 70
   160
 71
     5
 42
39.99976557207992
 73
     0
 74
     0
 75
     0
  3
STANDARD
100
AcDbAlignedDimension
 13
2725.000120199396
 23
970.0002539956571
 33
0.0
 14
2709.999896414979
 24
1010.000019567737
 34
0.0
 50
90.0
100
AcDbRotatedDimension
  0
LINE
  5
13824
330
1F
100
AcDbEntity
  8
実線
100
AcDbLine
 10
2709.999896414979
 20
590.0000195677371
 30
0.0
 11
2709.999896414979
 21
1010.000019567737
 31
0.0
  0
DIMENSION
  5
13825
330
1F
100
AcDbEntity
  8
寸法線
100
AcDbDimension
280
     0
  2
*D14
 10
2799.99989641498
 20
970.0002539956576
 30
0.0
 11
2799.999896414979
 21
800.0002539956572
 31
0.0
 70
   160
 71
     5
 42
340.0000000000001
 73
     0
 74
     0
 75
     0
  3
STANDARD
100
AcDbAlignedDimension
 13
2725.000120199396
 23
630.0002539956572
 33
0.0
 14
2725.000120199396
 24
970.0002539956571
 34
0.0
 50
90.0
100
AcDbRotatedDimension
  0
DIMENSION
  5
13826
330
1F
100
AcDbEntity
  8
寸法線
100
AcDbDimension
280
     0
  2
*D15
 10
2799.99989641498
 20
630.0002539956574
 30
0.0
 11
2799.999896414979
 21
610.000371209631
 31
0.0
 70
   160
 71
     5
 42
39.99976557205082
 73
     0
 74
     0
 75
     0
  3
STANDARD
100
AcDbAlignedDimension
 13
2709.999896414979
 23
590.0004884236063
 33
0.0
 14
2725.000120199396
 24
630.0002539956572
 34
0.0
 50
90.0
100
AcDbRotatedDimension
  0
DIMENSION
  5
13827
330
1F
100
AcDbEntity
  8
寸法線
100
AcDbDimension
280
     0
  2
*D16
 10
2709.999896414979
 20
499.9999830784627
 30
0.0
 11
2690.000008307187
 21
499.9999830784627
 31
0.0
 70
   160
 71
     5
 42
39.99977621558355
 73
     0
 74
     0
 75
     0
  3
STANDARD
100
AcDbAlignedDimension
 13
2670.000120199396
 23
575.0002539956572
 33
0.0
 14
2709.999896414979
 24
590.0004884236063
 34
0.0
100
AcDbRotatedDimension
  0
LINE
  5
13828
330
1F
100
AcDbEntity
  8
実線
100
AcDbLine
 10
2683.499896414979
 20
808.0000195677371
 30
0.0
 11
2683.499896414979
 21
792.0000195677371
 31
0.0
  0
LINE
  5
13829
330
1F
100
AcDbEntity
  8
実線
100
AcDbLine
 10
2491.999896414979
 20
983.5002539956573
 30
0.0
 11
2507.999896414979
 21
983.5002539956573
 31
0.0
  0
LINE
  5
1382A
330
1F
100
AcDbEntity
  8
実線
100
AcDbLine
 10
2642.999896414979
 20
1000.000253995657
 30
0.0
 11
2642.999896414979
 21
984.0002539956572
 31
0.0
  0
CIRCLE
  5
1382B
330
1F
100
AcDbEntity
  8
実線
100
AcDbCircle
 10
2330.000121120823
 20
970.0002539956571
 30
0.0
 40
30.0
  0
LINE
  5
1382C
330
1F
100
AcDbEntity
  8
実線
100
AcDbLine
 10
2316.000121120823
 20
657.0000195677371
 30
0.0
 11
2316.000121120823
 21
943.000019567737
 31
0.0
  0
LINE
  5
1382D
330
1F
100
AcDbEntity
  8
中心線
100
AcDbLine
 10
2615.000120199395
 20
970.0002539956571
 30
0.0
 11
2725.000120199396
 21
970.0002539956571
 31
0.0
  0
CIRCLE
  5
1382E
330
1F
100
AcDbEntity
  8
実線
100
AcDbCircle
 10
2670.000121120823
 20
970.0002539956571
 30
0.0
 40
30.0
  0
LINE
  5
1382F
330
1F
100
AcDbEntity
  8
実線
100
AcDbLine
 10
2356.999896414979
 20
1000.000253995657
 30
0.0
 11
2642.999896414979
 21
1000.000253995657
 31
0.0
  0
LINE
  5
13830
330
1F
100
AcDbEntity
  8
実線
100
AcDbLine
 10
2289.999896414979
 20
590.0004884236063
 30
0.0
 11
2709.999896414979
 21
590.0004884236063
 31
0.0
  0
LINE
  5
13831
330
1F
100
AcDbEntity
  8
実線
100
AcDbLine
 10
2300.000121120823
 20
657.0000195677371
 30
0.0
 11
2316.000121120823
 21
657.0000195677371
 31
0.0
  0
LINE
  5
13832
330
1F
100
AcDbEntity
  8
実線
100
AcDbLine
 10
2507.999896414979
 20
616.5002539956572
 30
0.0
 11
2507.999896414979
 21
792.0002539956572
 31
0.0
  0
LINE
  5
13833
330
1F
100
AcDbEntity
  8
実線
100
AcDbLine
 10
2491.999896414979
 20
616.5002539956572
 30
0.0
 11
2491.999896414979
 21
792.0002539956572
 31
0.0
  0
LINE
  5
13834
330
1F
100
AcDbEntity
  8
実線
100
AcDbLine
 10
2491.999896414979
 20
616.5002539956572
 30
0.0
 11
2507.999896414979
 21
616.5002539956572
 31
0.0
  0
CIRCLE
  5
13835
330
1F
100
AcDbEntity
  8
実線
100
AcDbCircle
 10
2330.000121120823
 20
630.0002539956572
 30
0.0
 40
30.0
  0
CIRCLE
  5
13836
330
1F
100
AcDbEntity
  8
実線
100
AcDbCircle
 10
2670.000121120823
 20
630.0002539956572
 30
0.0
 40
30.0
  0
LINE
  5
13837
330
1F
100
AcDbEntity
  8
実線
100
AcDbLine
 10
2316.499896414979
 20
792.0000195677371
 30
0.0
 11
2683.499896414979
 21
792.0000195677371
 31
0.0
  0
LINE
  5
13838
330
1F
100
AcDbEntity
  8
実線
100
AcDbLine
 10
2356.999896414979
 20
984.0002539956572
 30
0.0
 11
2642.999896414979
 21
984.0002539956572
 31
0.0
  0
LINE
  5
13839
330
1F
100
AcDbEntity
  8
実線
100
AcDbLine
 10
2356.999896414979
 20
616.0002539956572
 30
0.0
 11
2356.999896414979
 21
600.0002539956572
 31
0.0
  0
LINE
  5
1383A
330
1F
100
AcDbEntity
  8
実線
100
AcDbLine
 10
2642.999896414979
 20
616.0002539956572
 30
0.0
 11
2642.999896414979
 21
600.0002539956572
 31
0.0
  0
LINE
  5
1383B
330
1F
100
AcDbEntity
  8
実線
100
AcDbLine
 10
2356.999896414979
 20
616.0002539956572
 30
0.0
 11
2642.999896414979
 21
616.0002539956572
 31
0.0
  0
LINE
  5
1383C
330
1F
100
AcDbEntity
  8
実線
100
AcDbLine
 10
2356.999896414979
 20
600.0002539956572
 30
0.0
 11
2642.999896414979
 21
600.0002539956572
 31
0.0
  0
LINE
  5
1383D
330
1F
100
AcDbEntity
  8
実線
100
AcDbLine
 10
2300.000121120823
 20
657.0000195677371
 30
0.0
 11
2300.000121120823
 21
943.000019567737
 31
0.0
  0
LINE
  5
1383E
330
1F
100
AcDbEntity
  8
実線
100
AcDbLine
 10
2684.000121120823
 20
943.000019567737
 30
0.0
 11
2700.000121120823
 21
943.000019567737
 31
0.0
  0
LINE
  5
1383F
330
1F
100
AcDbEntity
  8
実線
100
AcDbLine
 10
2700.000121120823
 20
657.0000195677371
 30
0.0
 11
2700.000121120823
 21
943.000019567737
 31
0.0
  0
LINE
  5
13840
330
1F
100
AcDbEntity
  8
実線
100
AcDbLine
 10
2684.000121120823
 20
657.0000195677371
 30
0.0
 11
2700.000121120823
 21
657.0000195677371
 31
0.0
  0
LINE
  5
13841
330
1F
100
AcDbEntity
  8
実線
100
AcDbLine
 10
2684.000121120823
 20
657.0000195677371
 30
0.0
 11
2684.000121120823
 21
943.000019567737
 31
0.0
  0
LINE
  5
13842
330
1F
100
AcDbEntity
  8
中心線
100
AcDbLine
 10
2670.000120199396
 20
915.0002539956572
 30
0.0
 11
2670.000120199396
 21
1025.000253995657
 31
0.0
  0
LINE
  5
13843
330
1F
100
AcDbEntity
  8
中心線
100
AcDbLine
 10
2615.000120199395
 20
630.0002539956572
 30
0.0
 11
2725.000120199396
 21
630.0002539956572
 31
0.0
  0
LINE
  5
13844
330
1F
100
AcDbEntity
  8
中心線
100
AcDbLine
 10
2670.000120199396
 20
575.0002539956572
 30
0.0
 11
2670.000120199396
 21
685.0002539956571
 31
0.0
  0
LINE
  5
13845
330
1F
100
AcDbEntity
  8
中心線
100
AcDbLine
 10
2275.000120199396
 20
970.0002539956571
 30
0.0
 11
2385.000120199396
 21
970.0002539956571
 31
0.0
  0
LINE
  5
13846
330
1F
100
AcDbEntity
  8
中心線
100
AcDbLine
 10
2330.000120199395
 20
915.0002539956572
 30
0.0
 11
2330.000120199395
 21
1025.000253995657
 31
0.0
  0
LINE
  5
13847
330
1F
100
AcDbEntity
  8
中心線
100
AcDbLine
 10
2275.000120199396
 20
630.0002539956572
 30
0.0
 11
2385.000120199396
 21
630.0002539956572
 31
0.0
  0
LINE
  5
13848
330
1F
100
AcDbEntity
  8
中心線
100
AcDbLine
 10
2330.000120199395
 20
575.0002539956572
 30
0.0
 11
2330.000120199395
 21
685.0002539956571
 31
0.0
  0
LINE
  5
13849
330
1F
100
AcDbEntity
  8
寸法線
100
AcDbLine
 10
2421.249896414979
 20
1075.000488423606
 30
0.0
 11
2578.749896414979
 21
1075.000488423606
 31
0.0
  0
LINE
  5
1384A
330
1F
100
AcDbEntity
  8
中心線
100
AcDbLine
 10
2499.999920199386
 20
564.999953995672
 30
0.0
 11
2499.999920199386
 21
1034.999953995672
 31
0.0
  0
LINE
  5
1384B
330
1F
100
AcDbEntity
  8
実線
100
AcDbLine
 10
2959.999896414979
 20
570.0000195677371
 30
0.0
 11
2959.999896414979
 21
1030.000019567737
 31
0.0
  0
LINE
  5
1384C
330
1F
100
AcDbEntity
  8
実線
100
AcDbLine
 10
3419.999896414979
 20
570.0000195677371
 30
0.0
 11
3419.999896414979
 21
1030.000019567737
 31
0.0
  0
LINE
  5
1384D
330
1F
100
AcDbEntity
  8
実線
100
AcDbLine
 10
2959.999679308204
 20
570.00019163974
 30
0.0
 11
3419.999679308204
 21
570.00019163974
 31
0.0
  0
LINE
  5
1384E
330
1F
100
AcDbEntity
  8
実線
100
AcDbLine
 10
2959.999679308204
 20
1030.00019163974
 30
0.0
 11
3419.999679308204
 21
1030.00019163974
 31
0.0
  0
LINE
  5
1384F
330
1F
100
AcDbEntity
  8
中心線
100
AcDbLine
 10
3189.999896414979
 20
1040.000019567737
 30
0.0
 11
3189.999896414979
 21
560.0000195677371
 31
0.0
  0
LINE
  5
13850
330
1F
100
AcDbEntity
  8
中心線
100
AcDbLine
 10
2967.499679308204
 20
970.00019163974
 30
0.0
 11
3072.499679308204
 21
970.00019163974
 31
0.0
  0
CIRCLE
  5
13851
330
1F
100
AcDbEntity
  8
実線
100
AcDbCircle
 10
3189.999896414979
 20
800.0001916397399
 30
0.0
 40
140.0
  0
CIRCLE
  5
13852
330
1F
100
AcDbEntity
  8
実線
100
AcDbCircle
 10
3019.999896414979
 20
970.00019163974
 30
0.0
 40
30.25
  0
CIRCLE
  5
13853
330
1F
100
AcDbEntity
  8
実線
100
AcDbCircle
 10
3359.999896414979
 20
970.00019163974
 30
0.0
 40
30.25
  0
CIRCLE
  5
13854
330
1F
100
AcDbEntity
  8
実線
100
AcDbCircle
 10
3019.999896414979
 20
630.00019163974
 30
0.0
 40
30.25
  0
CIRCLE
  5
13855
330
1F
100
AcDbEntity
  8
実線
100
AcDbCircle
 10
3359.999896414979
 20
630.00019163974
 30
0.0
 40
30.25
  0
LINE
  5
13856
330
1F
100
AcDbEntity
  8
中心線
100
AcDbLine
 10
2949.999679308204
 20
800.0001916397399
 30
0.0
 11
3429.999679308204
 21
800.0001916397399
 31
0.0
  0
LINE
  5
13857
330
1F
100
AcDbEntity
  8
中心線
100
AcDbLine
 10
3019.999896414979
 20
917.4999745329355
 30
0.0
 11
3019.999896414979
 21
1022.499974532935
 31
0.0
  0
LINE
  5
13858
330
1F
100
AcDbEntity
  8
中心線
100
AcDbLine
 10
2967.499679308204
 20
630.00019163974
 30
0.0
 11
3072.499679308204
 21
630.00019163974
 31
0.0
  0
LINE
  5
13859
330
1F
100
AcDbEntity
  8
中心線
100
AcDbLine
 10
3019.999896414979
 20
577.4999745329355
 30
0.0
 11
3019.999896414979
 21
682.4999745329355
 31
0.0
  0
LINE
  5
1385A
330
1F
100
AcDbEntity
  8
中心線
100
AcDbLine
 10
3307.499679308204
 20
970.00019163974
 30
0.0
 11
3412.499679308204
 21
970.00019163974
 31
0.0
  0
LINE
  5
1385B
330
1F
100
AcDbEntity
  8
中心線
100
AcDbLine
 10
3359.999896414979
 20
917.4999745329355
 30
0.0
 11
3359.999896414979
 21
1022.499974532935
 31
0.0
  0
LINE
  5
1385C
330
1F
100
AcDbEntity
  8
中心線
100
AcDbLine
 10
3307.499679308204
 20
630.00019163974
 30
0.0
 11
3412.499679308204
 21
630.00019163974
 31
0.0
  0
LINE
  5
1385D
330
1F
100
AcDbEntity
  8
中心線
100
AcDbLine
 10
3359.999896414979
 20
577.4999745329355
 30
0.0
 11
3359.999896414979
 21
682.4999745329355
 31
0.0
  0
DIMENSION
  5
1385E
330
1F
100
AcDbEntity
  8
寸法線
100
AcDbDimension
280
     0
  2
*D17
 10
3068.756224820291
 20
730.0003909382954
 30
0.0
 11
3253.625724129435
 21
836.7346320721392
 31
0.0
 70
   160
  1
φ280
 71
     5
 42
279.9999999999154
 73
     0
 74
     0
 75
     0
  3
STANDARD
100
AcDbAlignedDimension
 13
3311.243459457991
 23
870.0001803585424
 33
0.0
 14
3068.7562248189
 24
730.0003909407045
 34
0.0
 50
209.9999502436202
100
AcDbRotatedDimension
  0
DIMENSION
  5
1385F
330
1F
100
AcDbEntity
  8
寸法線
100
AcDbDimension
280
     0
  2
*D18
 10
3419.999896414979
 20
499.9999830784627
 30
0.0
 11
3189.999787861591
 21
521.2499830784627
 31
0.0
 70
    32
 71
     5
 42
460.0002171067753
 73
     0
 74
     0
 75
     0
  3
STANDARD
100
AcDbAlignedDimension
 13
2959.999679308204
 23
570.00019163974
 33
0.0
 14
3419.999896414979
 24
570.0000195677371
 34
0.0
100
AcDbRotatedDimension
  0
LINE
  5
13860
330
1F
100
AcDbEntity
  8
寸法線
100
AcDbLine
 10
3109.732808044029
 20
1074.999983078463
 30
0.0
 11
3270.266767679154
 21
1074.999983078463
 31
0.0
  0
TEXT
  5
13861
330
1F
100
AcDbEntity
  8
寸法線
100
AcDbText
 10
3121.135075283551
 20
1081.7288079158
 30
0.0
 40
24.0
  1
断面Ｂ－Ｂ
100
AcDbText
  0
DIMENSION
  5
13862
330
1F
100
AcDbEntity
  8
寸法線
100
AcDbDimension
280
     0
  2
*D19
 10
3489.999896415269
 20
1030.000019567737
 30
0.0
 11
3468.749896415268
 21
800.0000195677364
 31
0.0
 70
    32
 71
     5
 42
460.0000000000002
 73
     0
 74
     0
 75
     0
  3
STANDARD
100
AcDbAlignedDimension
 13
3419.999896414979
 23
570.0000195677371
 33
0.0
 14
3419.999896414979
 24
1030.000019567737
 34
0.0
 50
90.0
100
AcDbRotatedDimension
  0
CIRCLE
  5
13863
330
1F
100
AcDbEntity
  8
実線
100
AcDbCircle
 10
3359.999896414979
 20
969.9999745329355
 30
0.0
 40
31.5
  0
CIRCLE
  5
13864
330
1F
100
AcDbEntity
  8
実線
100
AcDbCircle
 10
3019.999896414979
 20
969.9999745329355
 30
0.0
 40
31.5
  0
CIRCLE
  5
13865
330
1F
100
AcDbEntity
  8
実線
100
AcDbCircle
 10
3020.000113521755
 20
629.9997574261602
 30
0.0
 40
31.5
  0
CIRCLE
  5
13866
330
1F
100
AcDbEntity
  8
実線
100
AcDbCircle
 10
3359.999896414979
 20
629.9999745329355
 30
0.0
 40
31.5
  0
DIMENSION
  5
13867
330
1F
100
AcDbEntity
  8
寸法線
100
AcDbDimension
280
     0
  2
*D20
 10
1741.999948207486
 20
1099.999509661481
 30
0.0
 11
1578.999922311233
 21
1121.251970291402
 31
0.0
 70
    32
 71
     5
 42
326.0000517925073
 73
     0
 74
     0
 75
     0
  3
STANDARD
100
AcDbAlignedDimension
 13
1415.999896414979
 23
1009.999739528228
 33
0.0
 14
1741.999948207486
 24
1029.999739528228
 34
0.0
100
AcDbRotatedDimension
1001
ACAD
1000
DSTYLE
1002
{
1070
   279
1070
     1
1002
}
  0
DIMENSION
  5
13868
330
1F
100
AcDbEntity
  8
寸法線
100
AcDbDimension
280
     0
  2
*D21
 10
2083.999896414979
 20
1099.999509661481
 30
0.0
 11
1920.999922311233
 21
1121.251970291402
 31
0.0
 70
    32
 71
     5
 42
325.9999482074927
 73
     0
 74
     0
 75
     0
  3
STANDARD
100
AcDbAlignedDimension
 13
1757.999948207486
 23
1029.999739528228
 33
0.0
 14
2083.999896414979
 24
1009.999739528228
 34
0.0
100
AcDbRotatedDimension
1001
ACAD
1000
DSTYLE
1002
{
1070
   279
1070
     1
1002
}
  0
DIMENSION
  5
13869
330
1F
100
AcDbEntity
  8
寸法線
100
AcDbDimension
280
     0
  2
*D22
 10
1757.999948207486
 20
1099.999509661481
 30
0.0
 11
1749.999948207486
 21
1099.999509661481
 31
0.0
 70
   160
 71
     5
 42
16.0
 73
     0
 74
     0
 75
     0
  3
STANDARD
100
AcDbAlignedDimension
 13
1741.999948207486
 23
1029.999739528228
 33
0.0
 14
1757.999948207486
 24
1029.999739528228
 34
0.0
100
AcDbRotatedDimension
  0
DIMENSION
  5
1386A
330
1F
100
AcDbEntity
  8
寸法線
100
AcDbDimension
280
     0
  2
*D23
 10
2770.000226983163
 20
2054.000043093571
 30
0.0
 11
2770.000226983163
 21
2245.000005873897
 31
0.0
 70
   160
 71
     5
 42
382.0000000000009
 73
     0
 74
     0
 75
     0
  3
STANDARD
100
AcDbAlignedDimension
 13
2650.000226983163
 23
2436.000043093571
 33
0.0
 14
2650.000226983163
 24
2054.00004309357
 34
0.0
 50
90.0
100
AcDbRotatedDimension
  0
LINE
  5
1414E
330
1F
100
AcDbEntity
  8
実線
100
AcDbLine
 10
3549.999999999971
 20
2445.000024975955
 30
0.0
 11
3549.999999999971
 21
2045.000024975954
 31
0.0
  0
LINE
  5
1414F
330
1F
100
AcDbEntity
  8
中心線
100
AcDbLine
 10
3349.999999999971
 20
2461.000024975955
 30
0.0
 11
3349.999999999971
 21
2029.00002497595
 31
0.0
  0
LINE
  5
14150
330
1F
100
AcDbEntity
  8
中心線
100
AcDbLine
 10
3124.999999999969
 20
2245.000024975954
 30
0.0
 11
3574.999999999971
 21
2245.000024975954
 31
0.0
  0
LINE
  5
14151
330
1F
100
AcDbEntity
  8
実線
100
AcDbLine
 10
3149.999999999971
 20
2054.000005162845
 30
0.0
 11
3549.999999999971
 21
2054.000005162845
 31
0.0
  0
LINE
  5
14152
330
1F
100
AcDbEntity
  8
実線
100
AcDbLine
 10
3149.999999999971
 20
2436.000005162845
 30
0.0
 11
3549.999999999971
 21
2436.000005162845
 31
0.0
  0
LINE
  5
14153
330
1F
100
AcDbEntity
  8
中心線
100
AcDbLine
 10
3299.999981390134
 20
2135.00004358579
 30
0.0
 11
3299.999981390134
 21
2205.000006366113
 31
0.0
  0
CIRCLE
  5
14154
330
1F
100
AcDbEntity
  8
実線
100
AcDbCircle
 10
3299.999981390134
 20
2170.000024975951
 30
0.0
 40
12.5
  0
LINE
  5
14155
330
1F
100
AcDbEntity
  8
中心線
100
AcDbLine
 10
3334.999962780297
 20
2170.000024975951
 30
0.0
 11
3264.999999999971
 21
2170.000024975951
 31
0.0
  0
LINE
  5
14156
330
1F
100
AcDbEntity
  8
中心線
100
AcDbLine
 10
3249.999981390134
 20
2110.00004358579
 30
0.0
 11
3249.999981390134
 21
2180.000006366118
 31
0.0
  0
CIRCLE
  5
14157
330
1F
100
AcDbEntity
  8
実線
100
AcDbCircle
 10
3249.999981390134
 20
2145.000024975951
 30
0.0
 40
12.5
  0
LINE
  5
14158
330
1F
100
AcDbEntity
  8
中心線
100
AcDbLine
 10
3284.999962780297
 20
2145.000024975951
 30
0.0
 11
3214.999999999971
 21
2145.000024975951
 31
0.0
  0
LINE
  5
14159
330
1F
100
AcDbEntity
  8
中心線
100
AcDbLine
 10
3299.999981390134
 20
2355.000006366116
 30
0.0
 11
3299.999981390134
 21
2285.000043585791
 31
0.0
  0
CIRCLE
  5
1415A
330
1F
100
AcDbEntity
  8
実線
100
AcDbCircle
 10
3299.999981390134
 20
2320.000024975955
 30
0.0
 40
12.5
  0
LINE
  5
1415B
330
1F
100
AcDbEntity
  8
中心線
100
AcDbLine
 10
3334.999962780297
 20
2320.000024975955
 30
0.0
 11
3264.999999999971
 21
2320.000024975955
 31
0.0
  0
LINE
  5
1415C
330
1F
100
AcDbEntity
  8
中心線
100
AcDbLine
 10
3249.999981390134
 20
2380.000006366117
 30
0.0
 11
3249.999981390134
 21
2310.000043585791
 31
0.0
  0
CIRCLE
  5
1415D
330
1F
100
AcDbEntity
  8
実線
100
AcDbCircle
 10
3249.999981390134
 20
2345.000024975954
 30
0.0
 40
12.5
  0
LINE
  5
1415E
330
1F
100
AcDbEntity
  8
中心線
100
AcDbLine
 10
3284.999962780297
 20
2345.000024975954
 30
0.0
 11
3214.999999999971
 21
2345.000024975954
 31
0.0
  0
LINE
  5
1415F
330
1F
100
AcDbEntity
  8
中心線
100
AcDbLine
 10
3400.000018609808
 20
2135.00004358579
 30
0.0
 11
3400.000018609808
 21
2205.000006366113
 31
0.0
  0
CIRCLE
  5
14160
330
1F
100
AcDbEntity
  8
実線
100
AcDbCircle
 10
3400.000018609808
 20
2170.000024975951
 30
0.0
 40
12.5
  0
LINE
  5
14161
330
1F
100
AcDbEntity
  8
中心線
100
AcDbLine
 10
3365.000037219644
 20
2170.000024975951
 30
0.0
 11
3434.999999999969
 21
2170.000024975951
 31
0.0
  0
LINE
  5
14162
330
1F
100
AcDbEntity
  8
中心線
100
AcDbLine
 10
3450.000018609808
 20
2110.00004358579
 30
0.0
 11
3450.000018609808
 21
2180.000006366118
 31
0.0
  0
CIRCLE
  5
14163
330
1F
100
AcDbEntity
  8
実線
100
AcDbCircle
 10
3450.000018609808
 20
2145.000024975951
 30
0.0
 40
12.5
  0
LINE
  5
14164
330
1F
100
AcDbEntity
  8
中心線
100
AcDbLine
 10
3415.000037219643
 20
2145.000024975951
 30
0.0
 11
3484.999999999969
 21
2145.000024975951
 31
0.0
  0
LINE
  5
14165
330
1F
100
AcDbEntity
  8
中心線
100
AcDbLine
 10
3400.000018609808
 20
2355.000006366116
 30
0.0
 11
3400.000018609808
 21
2285.000043585791
 31
0.0
  0
CIRCLE
  5
14166
330
1F
100
AcDbEntity
  8
実線
100
AcDbCircle
 10
3400.000018609808
 20
2320.000024975955
 30
0.0
 40
12.5
  0
LINE
  5
14167
330
1F
100
AcDbEntity
  8
中心線
100
AcDbLine
 10
3365.000037219644
 20
2320.000024975955
 30
0.0
 11
3434.999999999969
 21
2320.000024975955
 31
0.0
  0
LINE
  5
14168
330
1F
100
AcDbEntity
  8
中心線
100
AcDbLine
 10
3450.000018609808
 20
2380.000006366117
 30
0.0
 11
3450.000018609808
 21
2310.000043585791
 31
0.0
  0
CIRCLE
  5
14169
330
1F
100
AcDbEntity
  8
実線
100
AcDbCircle
 10
3450.000018609808
 20
2345.000024975954
 30
0.0
 40
12.5
  0
LINE
  5
1416A
330
1F
100
AcDbEntity
  8
中心線
100
AcDbLine
 10
3415.000037219643
 20
2345.000024975954
 30
0.0
 11
3484.999999999969
 21
2345.000024975954
 31
0.0
  0
LINE
  5
1416B
330
1F
100
AcDbEntity
  8
破線
100
AcDbLine
 10
3149.999999999971
 20
2066.000005162845
 30
0.0
 11
3321.499962780297
 21
2066.000005162845
 31
0.0
  0
LINE
  5
1416C
330
1F
100
AcDbEntity
  8
破線
100
AcDbLine
 10
3549.999999999971
 20
2066.000005162845
 30
0.0
 11
3378.500037219647
 21
2066.000005162845
 31
0.0
  0
LINE
  5
1416D
330
1F
100
AcDbEntity
  8
破線
100
AcDbLine
 10
3149.999999999971
 20
2424.000005162845
 30
0.0
 11
3321.499962780297
 21
2424.000005162845
 31
0.0
  0
LINE
  5
1416E
330
1F
100
AcDbEntity
  8
破線
100
AcDbLine
 10
3549.999999999971
 20
2424.000005162845
 30
0.0
 11
3378.500037219647
 21
2424.000005162845
 31
0.0
  0
LINE
  5
1416F
330
1F
100
AcDbEntity
  8
破線
100
AcDbLine
 10
3343.499999999969
 20
2402.000024975954
 30
0.0
 11
3343.499999999969
 21
2088.000024975951
 31
0.0
  0
LINE
  5
14170
330
1F
100
AcDbEntity
  8
破線
100
AcDbLine
 10
3356.499999999971
 20
2402.000024975954
 30
0.0
 11
3356.499999999971
 21
2088.000024975951
 31
0.0
  0
ARC
  5
14171
330
1F
100
AcDbEntity
  8
破線
100
AcDbCircle
 10
3321.499999999971
 20
2088.000024975951
 30
0.0
 40
22.0
100
AcDbArc
 50
269.9999030668841
 51
0.0
  0
ARC
  5
14172
330
1F
100
AcDbEntity
  8
破線
100
AcDbCircle
 10
3378.499999999971
 20
2088.000024975951
 30
0.0
 40
22.0
100
AcDbArc
 50
180.0
 51
270.0000969331159
  0
ARC
  5
14173
330
1F
100
AcDbEntity
  8
破線
100
AcDbCircle
 10
3321.499999999971
 20
2402.000024975951
 30
0.0
 40
22.0
100
AcDbArc
 50
0.0
 51
90.00009693311588
  0
ARC
  5
14174
330
1F
100
AcDbEntity
  8
破線
100
AcDbCircle
 10
3378.499999999971
 20
2402.000024975951
 30
0.0
 40
22.0
100
AcDbArc
 50
89.99990306688411
 51
180.0
  0
LINE
  5
14175
330
1F
100
AcDbEntity
  8
破線
100
AcDbLine
 10
3153.499962780297
 20
2239.000024975954
 30
0.0
 11
3343.499999999969
 21
2239.000024975954
 31
0.0
  0
LINE
  5
14176
330
1F
100
AcDbEntity
  8
破線
100
AcDbLine
 10
3153.499962780297
 20
2251.000024975954
 30
0.0
 11
3343.499999999969
 21
2251.000024975954
 31
0.0
  0
LINE
  5
14177
330
1F
100
AcDbEntity
  8
破線
100
AcDbLine
 10
3546.500037219643
 20
2239.000024975954
 30
0.0
 11
3356.499999999971
 21
2239.000024975954
 31
0.0
  0
LINE
  5
14178
330
1F
100
AcDbEntity
  8
破線
100
AcDbLine
 10
3546.500037219643
 20
2251.000024975954
 30
0.0
 11
3356.499999999971
 21
2251.000024975954
 31
0.0
  0
LINE
  5
14179
330
1F
100
AcDbEntity
  8
破線
 48
10.0
100
AcDbLine
 10
3546.500037219643
 20
2251.000024975954
 30
0.0
 11
3546.500037219643
 21
2239.000024975954
 31
0.0
  0
LINE
  5
1417A
330
1F
100
AcDbEntity
  8
実線
100
AcDbLine
 10
3149.999999999971
 20
2445.000024975955
 30
0.0
 11
3549.999999999971
 21
2445.000024975955
 31
0.0
  0
LINE
  5
1417B
330
1F
100
AcDbEntity
  8
実線
100
AcDbLine
 10
3149.999999999971
 20
2045.000024975954
 30
0.0
 11
3549.999999999971
 21
2045.000024975954
 31
0.0
  0
LINE
  5
1417C
330
1F
100
AcDbEntity
  8
実線
100
AcDbLine
 10
3149.999999999971
 20
2445.000024975955
 30
0.0
 11
3149.999999999971
 21
2045.000024975954
 31
0.0
  0
LEADER
  5
1417D
330
1F
100
AcDbEntity
  8
寸法線
100
AcDbLeader
  3
STANDARD
 76
     3
 10
3257.532916238339
 20
2354.975238887079
 30
0.0
 10
3385.929725329277
 20
2525.000024975954
 30
0.0
 10
3578.508016089541
 20
2525.000024975954
 30
0.0
211
1.0
221
0.0000000000000002
231
0.0
1001
ACAD
1000
DSTYLE
1002
{
1070
   147
1040
0.875
1070
    77
1070
     0
1002
}
  0
TEXT
  5
1417E
330
1F
100
AcDbEntity
  8
寸法線
100
AcDbText
 10
3394.679725329276
 20
2533.750024975955
 30
0.0
 40
25.0
  1
主材連結用孔
 72
     2
 11
3568.013058662609
 21
2558.750024975955
 31
0.0
100
AcDbText
 73
     3
  0
LINE
  5
1417F
330
1F
100
AcDbEntity
  8
破線
 48
10.0
100
AcDbLine
 10
3153.499962780297
 20
2251.000024975954
 30
0.0
 11
3153.499962780297
 21
2239.000024975954
 31
0.0
  0
DIMENSION
  5
14180
330
1F
100
AcDbEntity
  8
寸法線
100
AcDbDimension
280
     0
  2
*D40
 10
3149.999999999969
 20
1925.000005162844
 30
0.0
 11
3349.999999999971
 21
1925.000005162844
 31
0.0
 70
   160
 71
     5
 42
400.0
 73
     0
 74
     0
 75
     0
  3
STANDARD
100
AcDbAlignedDimension
 13
3549.99999999997
 23
2045.000005162844
 33
0.0
 14
3149.999999999969
 24
2045.000005162844
 34
0.0
100
AcDbRotatedDimension
  0
DIMENSION
  5
14181
330
1F
100
AcDbEntity
  8
寸法線
100
AcDbDimension
280
     0
  2
*D41
 10
3029.999999999967
 20
2045.000044789061
 30
0.0
 11
3029.999999999967
 21
2245.000024975952
 31
0.0
 70
   160
 71
     5
 42
400.0000000000002
 73
     0
 74
     0
 75
     0
  3
STANDARD
100
AcDbAlignedDimension
 13
3149.999999999967
 23
2445.000044789061
 33
0.0
 14
3149.999999999967
 24
2045.00004478906
 34
0.0
 50
270.0
100
AcDbRotatedDimension
  0
VIEWPORT
  5
794
330
78D
100
AcDbEntity
 67
     1
  8
0
100
AcDbViewport
 10
204.0995798351864
 20
142.5892483948869
 30
0.0
 40
568.7138760531154
 41
287.6682269700984
 68
     1
 69
     1
 12
204.0995798351864
 22
142.5892483948869
 13
0.0
 23
0.0
 14
10.0
 24
10.0
 15
10.0
 25
10.0
 16
0.0
 26
0.0
 36
1.0
 17
0.0
 27
0.0
 37
0.0
 42
50.0
 43
0.0
 44
0.0
 45
287.6682269700984
 50
0.0
 51
0.0
 72
  1000
 90
    32800
  1

281
     0
 71
     1
 74
     0
110
0.0
120
0.0
130
0.0
111
1.0
121
0.0
131
0.0
112
0.0
122
1.0
132
0.0
 79
     0
146
0.0
170
     0
 61
     5
348
11ECA
292
     1
282
     1
141
0.0
142
0.0
 63
   250
421
  3355443
  0
VIEWPORT
  5
796
330
78D
100
AcDbEntity
 67
     1
  8
Defpoints
100
AcDbViewport
 10
204.099579334259
 20
142.5892481803894
 30
0.0
 40
408.1991586685178
 41
285.1784963607788
 68
     2
 69
     2
 12
2100.207206595808
 22
1486.804522350007
 13
0.0
 23
0.0
 14
10.0
 24
10.0
 15
10.0
 25
10.0
 16
0.0
 26
0.0
 36
1.0
 17
0.0
 27
0.0
 37
0.0
 42
50.0
 43
0.0
 44
0.0
 45
2851.784980677949
 50
0.0
 51
0.0
 72
  1000
 90
    32864
  1

281
     0
 71
     1
 74
     0
110
0.0
120
0.0
130
0.0
111
1.0
121
0.0
131
0.0
112
0.0
122
1.0
132
0.0
 79
     0
146
0.0
170
     0
 61
     5
348
11ECA
292
     1
282
     1
141
0.0
142
0.0
 63
   250
421
  3355443
  0
LINE
  5
9A2
330
78D
100
AcDbEntity
 67
     1
  8
図面枠
100
AcDbLine
 10
14.0996
 20
6.589249999999998
 30
0.0
 11
14.0996
 21
278.58925
 31
0.0
  0
LINE
  5
9A3
330
78D
100
AcDbEntity
 67
     1
  8
図面枠
100
AcDbLine
 10
404.0995999999998
 20
6.589249999999998
 30
0.0
 11
404.0995999999998
 21
278.58925
 31
0.0
  0
LINE
  5
9A4
330
78D
100
AcDbEntity
 67
     1
  8
図面枠
100
AcDbLine
 10
14.0996
 20
278.58925
 30
0.0
 11
404.0995999999998
 21
278.58925
 31
0.0
  0
LINE
  5
9A5
330
78D
100
AcDbEntity
 67
     1
  8
図面枠
100
AcDbLine
 10
14.0996
 20
6.589249999999998
 30
0.0
 11
404.0995999999998
 21
6.589249999999991
 31
0.0
  0
LINE
  5
9BB
330
78D
100
AcDbEntity
 67
     1
  8
図面枠
100
AcDbLine
 10
289.0996
 20
36.58924999999999
 30
0.0
 11
404.0995999999998
 21
36.58924999999999
 31
0.0
  0
LINE
  5
9BC
330
78D
100
AcDbEntity
 67
     1
  8
図面枠
100
AcDbLine
 10
289.0996
 20
30.58924999999999
 30
0.0
 11
404.0995999999998
 21
30.58924999999999
 31
0.0
  0
LINE
  5
9BE
330
78D
100
AcDbEntity
 67
     1
  8
図面枠
100
AcDbLine
 10
289.0996
 20
36.5893
 30
0.0
 11
289.0996
 21
6.589249999999991
 31
0.0
  0
LINE
  5
9C4
330
78D
100
AcDbEntity
 67
     1
  8
図面枠
100
AcDbLine
 10
289.0996
 20
18.58924999999999
 30
0.0
 11
404.0995999999998
 21
18.58924999999999
 31
0.0
  0
LINE
  5
9CD
330
78D
100
AcDbEntity
 67
     1
  8
図面枠
100
AcDbLine
 10
352.0996
 20
36.5893
 30
0.0
 11
352.0996
 21
30.58924999999999
 31
0.0
  0
LINE
  5
9CF
330
78D
100
AcDbEntity
 67
     1
  8
図面枠
100
AcDbLine
 10
383.0996
 20
36.5893
 30
0.0
 11
383.0996
 21
30.58924999999999
 31
0.0
  0
LINE
  5
9D0
330
78D
100
AcDbEntity
 67
     1
  8
図面枠
100
AcDbLine
 10
352.0996
 20
30.58924999999999
 30
0.0
 11
352.0996
 21
6.589249999999991
 31
0.0
  0
LINE
  5
9D1
330
78D
100
AcDbEntity
 67
     1
  8
図面枠
100
AcDbLine
 10
312.0996
 20
36.58924999999999
 30
0.0
 11
312.0996
 21
30.58924999999999
 31
0.0
  0
LINE
  5
9D2
330
78D
100
AcDbEntity
 67
     1
  8
図面枠
100
AcDbLine
 10
304.0996
 20
24.58924999999999
 30
0.0
 11
349.0996
 21
24.58924999999999
 31
0.0
  0
TEXT
  5
9EB
330
78D
100
AcDbEntity
 67
     1
  8
図面枠
100
AcDbText
 10
289.9746
 20
32.33924999999999
 30
0.0
 40
2.5
  1
重量
 11
289.9746
 21
32.33924999999999
 31
0.0
100
AcDbText
 73
     1
  0
TEXT
  5
9ED
330
78D
100
AcDbEntity
 67
     1
  8
図面枠
100
AcDbText
 10
289.97465
 20
27.21424999999999
 30
0.0
 40
2.5
  1
名　称
 11
289.97465
 21
29.71424999999999
 31
0.0
100
AcDbText
 73
     3
  0
TEXT
  5
9EF
330
78D
100
AcDbEntity
 67
     1
  8
図面枠
100
AcDbText
 10
318.5375983281357
 20
32.33929999999999
 30
0.0
 40
2.5
  1
表面仕上げ
 41
0.8
 11
318.5375983281357
 21
32.33929999999999
 31
0.0
100
AcDbText
 73
     1
  0
TEXT
  5
A20
330
78D
100
AcDbEntity
 67
     1
  8
図面枠
100
AcDbText
 10
352.9746
 20
32.33924999999999
 30
0.0
 40
2.5
  1
日付
 11
352.9746
 21
32.33924999999999
 31
0.0
100
AcDbText
 73
     1
  0
TEXT
  5
A39
330
78D
100
AcDbEntity
 67
     1
  8
図面枠
100
AcDbText
 10
383.9746
 20
32.33924999999999
 30
0.0
 40
2.5
  1
尺度
 11
383.9746
 21
32.33924999999999
 31
0.0
100
AcDbText
 73
     1
  0
TEXT
  5
A59
330
78D
100
AcDbEntity
 67
     1
  8
図面枠
100
AcDbText
 10
313.5162666666667
 20
26.33924999999999
 30
0.0
 40
2.5
  1
スルーサーＢ構造図
 72
     1
 11
326.5996
 21
26.33924999999999
 31
0.0
100
AcDbText
 73
     1
  0
TEXT
  5
A5A
330
78D
100
AcDbEntity
 67
     1
  8
図面枠
100
AcDbText
 10
317.6611157480315
 20
20.33924999999999
 30
0.0
 40
2.5
  1
切り梁H-400
 72
     1
 11
326.5996
 21
22.83924999999999
 31
0.0
100
AcDbText
 73
     3
  0
TEXT
  5
A63
330
78D
100
AcDbEntity
 67
     1
  8
図面枠
100
AcDbText
 10
368.0162666666667
 20
8.33924999999999
 30
0.0
 40
2.5
  1
Ｈ４０－Ｗ７０
 72
     1
 11
378.0996
 21
8.33924999999999
 31
0.0
100
AcDbText
 73
     1
  0
TEXT
  5
9054
330
78D
100
AcDbEntity
 67
     1
  8
図面枠
100
AcDbText
 10
300.3079
 20
32.33924999999999
 30
0.0
 40
2.5
  1
382kg
 11
300.3079
 21
32.33924999999999
 31
0.0
100
AcDbText
 73
     1
  0
TEXT
  5
9055
330
78D
100
AcDbEntity
 67
     1
  8
図面枠
100
AcDbText
 10
333.8708983281357
 20
32.33929999999999
 30
0.0
 40
2.5
  1
鉄筋防錆剤
 41
0.8
 11
333.8708983281357
 21
32.33929999999999
 31
0.0
100
AcDbText
 73
     1
  0
TEXT
  5
9057
330
78D
100
AcDbEntity
 67
     1
  8
図面枠
100
AcDbText
 10
394.3079
 20
32.33924999999999
 30
0.0
 40
2.5
  1
1/10
 11
394.3079
 21
32.33924999999999
 31
0.0
100
AcDbText
 73
     1
  0
TEXT
  5
933A
330
78D
100
AcDbEntity
 67
     1
  8
図面枠
100
AcDbText
 10
300.0162781896648
 20
10.58922126233957
 30
0.0
 40
4.0
  1
三研テクノクリエイト
 11
300.0162781896648
 21
12.58922126233957
 31
0.0
100
AcDbText
 73
     2
  0
TEXT
  5
933B
330
78D
100
AcDbEntity
 67
     1
  8
図面枠
100
AcDbText
 10
294.2496115229981
 20
12.83922126233957
 30
0.0
 40
2.0
  1
株式
 72
     2
 11
298.5162781896648
 21
12.83922126233957
 31
0.0
100
AcDbText
 73
     1
  0
TEXT
  5
933C
330
78D
100
AcDbEntity
 67
     1
  8
図面枠
100
AcDbText
 10
294.2496115229981
 20
10.33922126233957
 30
0.0
 40
2.0
  1
会社
 72
     2
 11
298.5162781896648
 21
12.33922126233957
 31
0.0
100
AcDbText
 73
     3
  0
TEXT
  5
124B2
330
78D
100
AcDbEntity
 67
     1
  8
図面枠
100
AcDbText
 10
352.97465
 20
27.21425
 30
0.0
 40
2.5
  1
摘　要
 11
352.97465
 21
29.71425
 31
0.0
100
AcDbText
 73
     3
  0
TEXT
  5
124B3
330
78D
100
AcDbEntity
 67
     1
  8
図面枠
100
AcDbText
 10
352.9746
 20
15.21425
 30
0.0
 40
2.5
  1
型　式
 11
352.9746
 21
17.71425
 31
0.0
100
AcDbText
 73
     3
  0
LINE
  5
124B5
330
78D
100
AcDbEntity
 67
     1
  8
図面枠
100
AcDbLine
 10
227.3699773983349
 20
19.86719851721269
 30
0.0
 11
282.3699773983349
 21
19.86719851721269
 31
0.0
  0
LINE
  5
124B6
330
78D
100
AcDbEntity
 67
     1
  8
図面枠
100
AcDbLine
 10
227.3699773983349
 20
19.86719851721269
 30
0.0
 11
227.3699773983349
 21
10.86719851721269
 31
0.0
  0
LINE
  5
124B8
330
78D
100
AcDbEntity
 67
     1
  8
図面枠
100
AcDbLine
 10
282.3699773983349
 20
19.86719851721269
 30
0.0
 11
282.3699773983349
 21
10.86719851721269
 31
0.0
  0
LINE
  5
124B9
330
78D
100
AcDbEntity
 67
     1
  8
図面枠
100
AcDbLine
 10
227.3699773983349
 20
10.86719851721269
 30
0.0
 11
282.3699773983349
 21
10.86719851721269
 31
0.0
  0
TEXT
  5
1273C
330
78D
100
AcDbEntity
 67
     1
  8
図面枠
100
AcDbText
 10
364.7662666666667
 20
20.86235908820162
 30
0.0
 40
2.5
  1
Ｈ４０－Ｗシリーズ
 72
     1
 11
378.0996
 21
20.86235908820162
 31
0.0
100
AcDbText
 73
     1
  0
TEXT
  5
130A6
330
78D
100
AcDbEntity
 67
     1
  8
図面枠
100
AcDbText
 10
228.6019716746131
 20
13.16588865156561
 30
0.0
 40
4.0
  1
スクラップ重量　324kg
 72
     1
 11
254.7744590480284
 21
13.16588865156561
 31
0.0
100
AcDbText
  0
TEXT
  5
14210
330
78D
100
AcDbEntity
 67
     1
  8
図面枠
100
AcDbText
 10
363.3079
 20
32.33919999999999
 30
0.0
 40
2.5
  1
2024.01.01
 11
363.3079
 21
32.33919999999999
 31
0.0
100
AcDbText
 73
     1
  0
ENDSEC
  0
SECTION
  2
OBJECTS
  0
DICTIONARY
  5
C
330
0
100
AcDbDictionary
281
     1
  3
ACAD_CIP_PREVIOUS_PRODUCT_INFO
350
13165
  3
ACAD_COLOR
350
6B
  3
ACAD_DETAILVIEWSTYLE
350
1315F
  3
ACAD_GROUP
350
D
  3
ACAD_LAYOUT
350
1A
  3
ACAD_MATERIAL
350
6A
  3
ACAD_MLEADERSTYLE
350
11EE7
  3
ACAD_MLINESTYLE
350
17
  3
ACAD_PLOTSETTINGS
350
19
  3
ACAD_PLOTSTYLENAME
350
E
  3
ACAD_SCALELIST
350
11ED5
  3
ACAD_SECTIONVIEWSTYLE
350
1315D
  3
ACAD_TABLESTYLE
350
7E
  3
ACAD_VISUALSTYLE
350
11EC4
  3
AcadDim
350
89BC
  3
ACDB_RECOMPOSE_DATA
350
14222
  3
ACDBHEADERROUNDTRIPXREC
350
126E8
  3
AcDbVariableDictionary
350
5E
  3
AcDsDecomposeData
350
14228
  3
AEC_PROPERTY_SET_DEFS
350
1224D
  0
DICTIONARY
  5
12005
330
8
100
AcDbDictionary
280
     1
281
     1
  0
DICTIONARY
  5
11D
330
2
100
AcDbDictionary
280
     1
281
     1
  3
ACAD_LAYERFILTERS
360
98AE
  3
ACAD_LAYERSTATES
360
11E
  3
ACLYDICTIONARY
360
98AD
  0
DICTIONARY
  5
11FCB
330
10
100
AcDbDictionary
280
     1
281
     1
  3
ADSK_XREC_LAYER_RECONCILED
360
11FCC
  0
DICTIONARY
  5
11FCF
330
1BF
100
AcDbDictionary
280
     1
281
     1
  3
ADSK_XREC_LAYER_RECONCILED
360
11FD0
  0
DICTIONARY
  5
11FD3
330
1C1
100
AcDbDictionary
280
     1
281
     1
  3
ADSK_XREC_LAYER_RECONCILED
360
11FD4
  0
DICTIONARY
  5
11FD7
330
1C3
100
AcDbDictionary
280
     1
281
     1
  3
ADSK_XREC_LAYER_RECONCILED
360
11FD8
  0
DICTIONARY
  5
11FD9
330
1C4
100
AcDbDictionary
280
     1
281
     1
  3
ADSK_XREC_LAYER_RECONCILED
360
11FDA
  0
DICTIONARY
  5
11FDB
330
1C5
100
AcDbDictionary
280
     1
281
     1
  3
ADSK_XREC_LAYER_RECONCILED
360
11FDC
  0
DICTIONARY
  5
11FDD
330
82E
100
AcDbDictionary
280
     1
281
     1
  3
ADSK_XREC_LAYER_RECONCILED
360
11FDE
  0
DICTIONARY
  5
14208
330
14207
100
AcDbDictionary
280
     1
281
     1
  0
DICTIONARY
  5
5C91
330
1F
100
AcDbDictionary
280
     1
281
     1
  3
ACAD_SORTENTS
360
5C92
  0
DICTIONARY
  5
124AB
330
C08
100
AcDbDictionary
280
     1
281
     1
  3
ACAD_SORTENTS
360
125CF
  0
XRECORD
  5
13165
102
{ACAD_REACTORS
330
C
102
}
330
C
100
AcDbXrecord
280
     1
300
ACD
300
2023
300

  0
DICTIONARY
  5
6B
102
{ACAD_REACTORS
330
C
102
}
330
C
100
AcDbDictionary
281
     1
  0
DICTIONARY
  5
1315F
102
{ACAD_REACTORS
330
C
102
}
330
C
100
AcDbDictionary
281
     1
  3
Metric50
350
13160
  0
DICTIONARY
  5
D
102
{ACAD_REACTORS
330
C
102
}
330
C
100
AcDbDictionary
281
     1
  0
DICTIONARY
  5
1A
102
{ACAD_REACTORS
330
C
102
}
330
C
100
AcDbDictionary
281
     1
  3
Model
350
22
  3
レイアウト1
350
78E
  0
DICTIONARY
  5
6A
102
{ACAD_REACTORS
330
C
102
}
330
C
100
AcDbDictionary
281
     1
  3
ByBlock
350
11EB4
  3
ByLayer
350
11EAC
  3
Global
350
11EBC
  0
DICTIONARY
  5
11EE7
102
{ACAD_REACTORS
330
C
102
}
330
C
100
AcDbDictionary
281
     1
  3
Standard
350
11EE8
  0
DICTIONARY
  5
17
102
{ACAD_REACTORS
330
C
102
}
330
C
100
AcDbDictionary
281
     1
  3
Standard
350
18
  0
DICTIONARY
  5
19
102
{ACAD_REACTORS
330
C
102
}
330
C
100
AcDbDictionary
281
     1
  0
ACDBDICTIONARYWDFLT
  5
E
102
{ACAD_REACTORS
330
C
102
}
330
C
100
AcDbDictionary
281
     1
  3
Normal
350
F
100
AcDbDictionaryWithDefault
340
F
  0
DICTIONARY
  5
11ED5
102
{ACAD_REACTORS
330
C
102
}
330
C
100
AcDbDictionary
281
     1
  3
A0
350
11ED6
  3
A1
350
11ED7
  3
A2
350
11ED8
  3
A3
350
11ED9
  3
A4
350
11EDA
  3
A5
350
11EDB
  3
A6
350
11EDC
  3
A7
350
11EDD
  3
A8
350
11EDE
  3
A9
350
11EDF
  3
B0
350
11EE0
  3
B1
350
11EE1
  3
B2
350
11EE2
  3
B3
350
11EE3
  3
B4
350
11EE4
  3
B5
350
11EE5
  3
B6
350
11EE6
  0
DICTIONARY
  5
1315D
102
{ACAD_REACTORS
330
C
102
}
330
C
100
AcDbDictionary
281
     1
  3
Metric50
350
1315E
  0
DICTIONARY
  5
7E
102
{ACAD_REACTORS
330
C
102
}
330
C
100
AcDbDictionary
281
     1
  3
Standard
350
7F
  0
DICTIONARY
  5
11EC4
102
{ACAD_REACTORS
330
C
102
}
330
C
100
AcDbDictionary
281
     1
  3
2dWireframe
350
11ECA
  3
3D Hidden
350
11ECC
  3
3dWireframe
350
11ECB
  3
Basic
350
11EC9
  3
Brighten
350
11ED0
  3
ColorChange
350
11ED4
  3
Conceptual
350
11ECD
  3
Dim
350
11ECF
  3
EdgeColorOff
350
1315C
  3
Facepattern
350
11ED3
  3
Flat
350
11EC5
  3
FlatWithEdges
350
11EC6
  3
Gouraud
350
11EC7
  3
GouraudWithEdges
350
11EC8
  3
Hidden
350
13154
  3
JitterOff
350
1315A
  3
Linepattern
350
11ED2
  3
OverhangOff
350
1315B
  3
Realistic
350
11ECE
  3
Shaded
350
13159
  3
Shaded with edges
350
13158
  3
Shades of Gray
350
13155
  3
Sketchy
350
13156
  3
Thicken
350
11ED1
  3
Wireframe
350
13153
  3
X-Ray
350
13157
  0
XRECORD
  5
89BC
102
{ACAD_REACTORS
330
C
102
}
330
C
100
AcDbXrecord
280
     1
 90
   990106
  3

 60
     0
 61
     0
 62
     1
 63
     3
 64
     0
 65
     0
 66
     0
 67
     3
 68
     1
 69
     0
 70
     0
 71
     0
 72
     0
 40
0.0
170
     0
  0
XRECORD
  5
14222
102
{ACAD_REACTORS
330
C
102
}
330
C
100
AcDbXrecord
280
     1
 90
        1
330
7F
  0
DICTIONARY
  5
126E8
102
{ACAD_REACTORS
330
C
102
}
330
C
100
AcDbDictionary
281
     1
  0
DICTIONARY
  5
5E
102
{ACAD_REACTORS
330
C
102
}
330
C
100
AcDbDictionary
281
     1
  3
CANNOSCALE
350
12013
  3
CMLEADERSTYLE
350
12012
  3
CTABLESTYLE
350
84
  3
CVIEWDETAILSTYLE
350
13F60
  3
CVIEWSECTIONSTYLE
350
13F61
  3
DIMASSOC
350
5F
  3
HIDETEXT
350
63
  3
INDEXCTL
350
12015
  3
LAYEREVAL
350
13F64
  3
LAYERNOTIFY
350
13F65
  3
LIGHTINGUNITS
350
13F63
  3
MSLTSCALE
350
13F62
  3
PROJECTNAME
350
125BD
  3
SORTENTS
350
12014
  0
DICTIONARY
  5
14228
102
{ACAD_REACTORS
330
C
102
}
330
C
100
AcDbDictionary
281
     1
  3
AcDsRecords
350
1422A
  3
AcDsSchemas
350
14229
1001
ACAD
1070
     2
  0
DICTIONARY
  5
1224D
102
{ACAD_REACTORS
330
C
102
}
330
C
100
AcDbDictionary
281
     1
  0
DICTIONARY
  5
98AE
102
{ACAD_REACTORS
330
11D
102
}
330
11D
100
AcDbDictionary
281
     1
  0
DICTIONARY
  5
11E
102
{ACAD_REACTORS
330
11D
102
}
330
11D
100
AcDbDictionary
281
     1
  0
DICTIONARY
  5
98AD
102
{ACAD_REACTORS
330
11D
102
}
330
11D
100
AcDbDictionary
281
     1
1001
ACAD
1000
<All
  0
XRECORD
  5
11FCC
102
{ACAD_REACTORS
330
11FCB
102
}
330
11FCB
100
AcDbXrecord
280
     1
290
     1
  0
XRECORD
  5
11FD0
102
{ACAD_REACTORS
330
11FCF
102
}
330
11FCF
100
AcDbXrecord
280
     1
290
     1
  0
XRECORD
  5
11FD4
102
{ACAD_REACTORS
330
11FD3
102
}
330
11FD3
100
AcDbXrecord
280
     1
290
     1
  0
XRECORD
  5
11FD8
102
{ACAD_REACTORS
330
11FD7
102
}
330
11FD7
100
AcDbXrecord
280
     1
290
     1
  0
XRECORD
  5
11FDA
102
{ACAD_REACTORS
330
11FD9
102
}
330
11FD9
100
AcDbXrecord
280
     1
290
     1
  0
XRECORD
  5
11FDC
102
{ACAD_REACTORS
330
11FDB
102
}
330
11FDB
100
AcDbXrecord
280
     1
290
     1
  0
XRECORD
  5
11FDE
102
{ACAD_REACTORS
330
11FDD
102
}
330
11FDD
100
AcDbXrecord
280
     1
290
     1
  0
SORTENTSTABLE
  5
5C92
102
{ACAD_REACTORS
330
5C91
102
}
330
5C91
100
AcDbSortentsTable
330
1F
  0
SORTENTSTABLE
  5
125CF
102
{ACAD_REACTORS
330
124AB
102
}
330
124AB
100
AcDbSortentsTable
330
C08
  0
ACDBDETAILVIEWSTYLE
  5
13160
102
{ACAD_XDICTIONARY
360
1422D
102
}
102
{ACAD_REACTORS
330
1315F
102
}
330
1315F
100
AcDbModelDocViewStyle
 70
     0
  3
Metric50
290
     0
100
AcDbDetailViewStyle
 70
     0
 71
     0
 90
        3
 71
     1
340
11
 62
   256
 40
5.0
340
0
 62
   256
 40
5.0
300

 40
0.0
280
     1
 71
     2
340
16
 90
       25
 62
   256
 71
     3
340
11
 62
   256
 40
5.0
 90
        0
 40
15.0
 90
        1
300
%<\AcVar ViewDetailId>% (%<\AcVar ViewScale \f "%sn">%)
 71
     4
340
16
 90
       25
 62
   256
340
16
 90
       25
 62
   256
280
     0
  0
LAYOUT
  5
22
102
{ACAD_REACTORS
330
1A
102
}
330
1A
100
AcDbPlotSettings
  1

  2
none_device
  4
ISO_A4_(210.00_x_297.00_MM)
  6

 40
7.5
 41
20.0
 42
7.5
 43
20.0
 44
210.0
 45
297.0
 46
11.54999923706054
 47
-13.65000009536743
 48
0.0
 49
0.0
140
0.0
141
0.0
142
1.0
143
8.704084754739808
 70
 11952
 72
     1
 73
     0
 74
     0
  7

 75
     0
147
0.1148885871608098
 76
     0
 77
     2
 78
   300
148
0.0
149
0.0
100
AcDbLayout
  1
Model
 70
     1
 71
     0
 10
0.0
 20
0.0
 11
12.0
 21
9.0
 12
0.0
 22
0.0
 32
0.0
 14
0.0
 24
0.0
 34
0.0
 15
0.0
 25
0.0
 35
0.0
146
0.0
 13
0.0
 23
0.0
 33
0.0
 16
1.0
 26
0.0
 36
0.0
 17
0.0
 27
1.0
 37
0.0
 76
     0
330
1F
331
126DC
1001
ACAD_PSEXT
1000
None
1000
None
1000
Not applicable
1000
The layout will not be plotted unless a new plotter configuration name is selected.
1070
     0
  0
LAYOUT
  5
78E
102
{ACAD_XDICTIONARY
360
79B
102
}
102
{ACAD_REACTORS
330
1A
102
}
330
1A
100
AcDbPlotSettings
  1

  2
RICOH MP C2503 JPN RPCS V2
  4
A3
  6

 40
5.873749732971191
 41
5.873748779296875
 42
5.873748779296875
 43
5.873748779296875
 44
296.9259948730469
 45
419.9466552734374
 46
0.0
 47
0.0
 48
0.0
 49
0.0
140
0.0
141
0.0
142
1.0
143
1.0
 70
   688
 72
     1
 73
     1
 74
     5
  7
monochrome.ctb
 75
    16
147
1.0
 76
     1
 77
     2
 78
   300
148
0.0
149
0.0
100
AcDbLayout
  1
レイアウト1
 70
     1
 71
     1
 10
-5.873748779296875
 20
-5.873749732971191
 11
414.0729064941406
 21
291.0522451400757
 12
0.0
 22
0.0
 32
0.0
 14
-0.0233557008396019
 24
-0.0155136928541424
 34
-0.0000000000112498
 15
408.2225153712125
 25
285.1940104826281
 35
0.0000000000002956
146
0.0
 13
0.0
 23
0.0
 33
0.0
 16
1.0
 26
0.0
 36
0.0
 17
0.0
 27
1.0
 37
0.0
 76
     0
330
78D
331
794
1001
ACAD_PSEXT
1000
RICOH MP C2503 JPN RPCS V2
1000
RICOH MP C2503 JPN RPCS V2
1000
IP_192.168.24.100
1000
RPCS Driver (For Windows)
1070
     0
  0
MATERIAL
  5
11EB4
102
{ACAD_XDICTIONARY
360
11EB5
102
}
102
{ACAD_REACTORS
330
6A
102
}
330
6A
100
AcDbMaterial
  1
ByBlock
 72
     0
 43
0.0008202099737533
 43
0.0
 43
0.0
 43
0.0
 43
0.0
 43
0.0008202099737533
 43
0.0
 43
0.0
 43
0.0
 43
0.0
 43
1.0
 43
0.0
 43
0.0
 43
0.0
 43
0.0
 43
1.0
 77
     0
 47
0.0008202099737533
 47
0.0
 47
0.0
 47
0.0
 47
0.0
 47
0.0008202099737533
 47
0.0
 47
0.0
 47
0.0
 47
0.0
 47
1.0
 47
0.0
 47
0.0
 47
0.0
 47
0.0
 47
1.0
171
     0
 49
0.0008202099737533
 49
0.0
 49
0.0
 49
0.0
 49
0.0
 49
0.0008202099737533
 49
0.0
 49
0.0
 49
0.0
 49
0.0
 49
1.0
 49
0.0
 49
0.0
 49
0.0
 49
0.0
 49
1.0
175
     0
142
0.0008202099737533
142
0.0
142
0.0
142
0.0
142
0.0
142
0.0008202099737533
142
0.0
142
0.0
142
0.0
142
0.0
142
1.0
142
0.0
142
0.0
142
0.0
142
0.0
142
1.0
179
     0
144
0.0008202099737533
144
0.0
144
0.0
144
0.0
144
0.0
144
0.0008202099737533
144
0.0
144
0.0
144
0.0
144
0.0
144
1.0
144
0.0
144
0.0
144
0.0
144
0.0
144
1.0
147
0.0008202099737533
147
0.0
147
0.0
147
0.0
147
0.0
147
0.0008202099737533
147
0.0
147
0.0
147
0.0
147
0.0
147
1.0
147
0.0
147
0.0
147
0.0
147
0.0
147
1.0
  0
MATERIAL
  5
11EAC
102
{ACAD_XDICTIONARY
360
11EAD
102
}
102
{ACAD_REACTORS
330
6A
102
}
330
6A
100
AcDbMaterial
  1
ByLayer
 72
     0
 43
0.0008202099737533
 43
0.0
 43
0.0
 43
0.0
 43
0.0
 43
0.0008202099737533
 43
0.0
 43
0.0
 43
0.0
 43
0.0
 43
1.0
 43
0.0
 43
0.0
 43
0.0
 43
0.0
 43
1.0
 77
     0
 47
0.0008202099737533
 47
0.0
 47
0.0
 47
0.0
 47
0.0
 47
0.0008202099737533
 47
0.0
 47
0.0
 47
0.0
 47
0.0
 47
1.0
 47
0.0
 47
0.0
 47
0.0
 47
0.0
 47
1.0
171
     0
 49
0.0008202099737533
 49
0.0
 49
0.0
 49
0.0
 49
0.0
 49
0.0008202099737533
 49
0.0
 49
0.0
 49
0.0
 49
0.0
 49
1.0
 49
0.0
 49
0.0
 49
0.0
 49
0.0
 49
1.0
175
     0
142
0.0008202099737533
142
0.0
142
0.0
142
0.0
142
0.0
142
0.0008202099737533
142
0.0
142
0.0
142
0.0
142
0.0
142
1.0
142
0.0
142
0.0
142
0.0
142
0.0
142
1.0
179
     0
144
0.0008202099737533
144
0.0
144
0.0
144
0.0
144
0.0
144
0.0008202099737533
144
0.0
144
0.0
144
0.0
144
0.0
144
1.0
144
0.0
144
0.0
144
0.0
144
0.0
144
1.0
147
0.0008202099737533
147
0.0
147
0.0
147
0.0
147
0.0
147
0.0008202099737533
147
0.0
147
0.0
147
0.0
147
0.0
147
1.0
147
0.0
147
0.0
147
0.0
147
0.0
147
1.0
  0
MATERIAL
  5
11EBC
102
{ACAD_XDICTIONARY
360
11EBD
102
}
102
{ACAD_REACTORS
330
6A
102
}
330
6A
100
AcDbMaterial
  1
Global
 72
     0
 43
0.0008202099737533
 43
0.0
 43
0.0
 43
0.0
 43
0.0
 43
0.0008202099737533
 43
0.0
 43
0.0
 43
0.0
 43
0.0
 43
1.0
 43
0.0
 43
0.0
 43
0.0
 43
0.0
 43
1.0
 77
     0
 47
0.0008202099737533
 47
0.0
 47
0.0
 47
0.0
 47
0.0
 47
0.0008202099737533
 47
0.0
 47
0.0
 47
0.0
 47
0.0
 47
1.0
 47
0.0
 47
0.0
 47
0.0
 47
0.0
 47
1.0
171
     0
 49
0.0008202099737533
 49
0.0
 49
0.0
 49
0.0
 49
0.0
 49
0.0008202099737533
 49
0.0
 49
0.0
 49
0.0
 49
0.0
 49
1.0
 49
0.0
 49
0.0
 49
0.0
 49
0.0
 49
1.0
175
     0
142
0.0008202099737533
142
0.0
142
0.0
142
0.0
142
0.0
142
0.0008202099737533
142
0.0
142
0.0
142
0.0
142
0.0
142
1.0
142
0.0
142
0.0
142
0.0
142
0.0
142
1.0
179
     0
144
0.0008202099737533
144
0.0
144
0.0
144
0.0
144
0.0
144
0.0008202099737533
144
0.0
144
0.0
144
0.0
144
0.0
144
1.0
144
0.0
144
0.0
144
0.0
144
0.0
144
1.0
147
0.0008202099737533
147
0.0
147
0.0
147
0.0
147
0.0
147
0.0008202099737533
147
0.0
147
0.0
147
0.0
147
0.0
147
1.0
147
0.0
147
0.0
147
0.0
147
0.0
147
1.0
  0
MLEADERSTYLE
  5
11EE8
102
{ACAD_REACTORS
330
11EE7
102
}
330
11EE7
100
AcDbMLeaderStyle
179
     2
170
     2
171
     1
172
     0
 90
        2
 40
0.0
 41
0.0
173
     1
 91
-1056964608
340
14
 92
       -2
290
     1
 42
2.0
291
     1
 43
0.36
  3
Standard
 44
4.0
300

342
11
174
     1
178
     6
175
     1
176
     0
 93
-1056964608
 45
4.0
292
     0
297
     0
 46
4.0
 94
-1056964608
 47
1.0
 49
1.0
140
1.0
293
     1
141
0.0
294
     1
177
     0
142
1.0
295
     0
296
     0
143
0.125
271
     0
272
     9
273
     9
298
     0
1001
ACAD
1000
AcRTDxfName
1000
MLEADERSTYLE
1000
AcRTDxfName
1000
MLEADERSTYLE
1000
AcRTDxfName
1000
MLEADERSTYLE
  0
MLINESTYLE
  5
18
102
{ACAD_REACTORS
330
17
102
}
330
17
100
AcDbMlineStyle
  2
STANDARD
 70
     0
  3

 62
   256
 51
90.0
 52
90.0
 71
     2
 49
0.5
 62
   256
  6
BYLAYER
 49
-0.5
 62
   256
  6
BYLAYER
  0
ACDBPLACEHOLDER
  5
F
102
{ACAD_REACTORS
330
E
102
}
330
E
  0
SCALE
  5
11ED6
102
{ACAD_REACTORS
330
11ED5
102
}
330
11ED5
100
AcDbScale
 70
     0
300
1:1
140
1.0
141
1.0
290
     1
1001
ACAD
1000
AcRTDxfName
1000
SCALE
1000
AcRTDxfName
1000
SCALE
1000
AcRTDxfName
1000
SCALE
  0
SCALE
  5
11ED7
102
{ACAD_REACTORS
330
11ED5
102
}
330
11ED5
100
AcDbScale
 70
     0
300
1:2
140
1.0
141
2.0
290
     0
1001
ACAD
1000
AcRTDxfName
1000
SCALE
1000
AcRTDxfName
1000
SCALE
1000
AcRTDxfName
1000
SCALE
  0
SCALE
  5
11ED8
102
{ACAD_REACTORS
330
11ED5
102
}
330
11ED5
100
AcDbScale
 70
     0
300
1:4
140
1.0
141
4.0
290
     0
1001
ACAD
1000
AcRTDxfName
1000
SCALE
1000
AcRTDxfName
1000
SCALE
1000
AcRTDxfName
1000
SCALE
  0
SCALE
  5
11ED9
102
{ACAD_REACTORS
330
11ED5
102
}
330
11ED5
100
AcDbScale
 70
     0
300
1:5
140
1.0
141
5.0
290
     0
1001
ACAD
1000
AcRTDxfName
1000
SCALE
1000
AcRTDxfName
1000
SCALE
1000
AcRTDxfName
1000
SCALE
  0
SCALE
  5
11EDA
102
{ACAD_REACTORS
330
11ED5
102
}
330
11ED5
100
AcDbScale
 70
     0
300
1:8
140
1.0
141
8.0
290
     0
1001
ACAD
1000
AcRTDxfName
1000
SCALE
1000
AcRTDxfName
1000
SCALE
1000
AcRTDxfName
1000
SCALE
  0
SCALE
  5
11EDB
102
{ACAD_REACTORS
330
11ED5
102
}
330
11ED5
100
AcDbScale
 70
     0
300
1:10
140
1.0
141
10.0
290
     0
1001
ACAD
1000
AcRTDxfName
1000
SCALE
1000
AcRTDxfName
1000
SCALE
1000
AcRTDxfName
1000
SCALE
  0
SCALE
  5
11EDC
102
{ACAD_REACTORS
330
11ED5
102
}
330
11ED5
100
AcDbScale
 70
     0
300
1:16
140
1.0
141
16.0
290
     0
1001
ACAD
1000
AcRTDxfName
1000
SCALE
1000
AcRTDxfName
1000
SCALE
1000
AcRTDxfName
1000
SCALE
  0
SCALE
  5
11EDD
102
{ACAD_REACTORS
330
11ED5
102
}
330
11ED5
100
AcDbScale
 70
     0
300
1:20
140
1.0
141
20.0
290
     0
1001
ACAD
1000
AcRTDxfName
1000
SCALE
1000
AcRTDxfName
1000
SCALE
1000
AcRTDxfName
1000
SCALE
  0
SCALE
  5
11EDE
102
{ACAD_REACTORS
330
11ED5
102
}
330
11ED5
100
AcDbScale
 70
     0
300
1:30
140
1.0
141
30.0
290
     0
1001
ACAD
1000
AcRTDxfName
1000
SCALE
1000
AcRTDxfName
1000
SCALE
1000
AcRTDxfName
1000
SCALE
  0
SCALE
  5
11EDF
102
{ACAD_REACTORS
330
11ED5
102
}
330
11ED5
100
AcDbScale
 70
     0
300
1:40
140
1.0
141
40.0
290
     0
1001
ACAD
1000
AcRTDxfName
1000
SCALE
1000
AcRTDxfName
1000
SCALE
1000
AcRTDxfName
1000
SCALE
  0
SCALE
  5
11EE0
102
{ACAD_REACTORS
330
11ED5
102
}
330
11ED5
100
AcDbScale
 70
     0
300
1:50
140
1.0
141
50.0
290
     0
1001
ACAD
1000
AcRTDxfName
1000
SCALE
1000
AcRTDxfName
1000
SCALE
1000
AcRTDxfName
1000
SCALE
  0
SCALE
  5
11EE1
102
{ACAD_REACTORS
330
11ED5
102
}
330
11ED5
100
AcDbScale
 70
     0
300
1:100
140
1.0
141
100.0
290
     0
1001
ACAD
1000
AcRTDxfName
1000
SCALE
1000
AcRTDxfName
1000
SCALE
1000
AcRTDxfName
1000
SCALE
  0
SCALE
  5
11EE2
102
{ACAD_REACTORS
330
11ED5
102
}
330
11ED5
100
AcDbScale
 70
     0
300
2:1
140
2.0
141
1.0
290
     0
1001
ACAD
1000
AcRTDxfName
1000
SCALE
1000
AcRTDxfName
1000
SCALE
1000
AcRTDxfName
1000
SCALE
  0
SCALE
  5
11EE3
102
{ACAD_REACTORS
330
11ED5
102
}
330
11ED5
100
AcDbScale
 70
     0
300
4:1
140
4.0
141
1.0
290
     0
1001
ACAD
1000
AcRTDxfName
1000
SCALE
1000
AcRTDxfName
1000
SCALE
1000
AcRTDxfName
1000
SCALE
  0
SCALE
  5
11EE4
102
{ACAD_REACTORS
330
11ED5
102
}
330
11ED5
100
AcDbScale
 70
     0
300
8:1
140
8.0
141
1.0
290
     0
1001
ACAD
1000
AcRTDxfName
1000
SCALE
1000
AcRTDxfName
1000
SCALE
1000
AcRTDxfName
1000
SCALE
  0
SCALE
  5
11EE5
102
{ACAD_REACTORS
330
11ED5
102
}
330
11ED5
100
AcDbScale
 70
     0
300
10:1
140
10.0
141
1.0
290
     0
1001
ACAD
1000
AcRTDxfName
1000
SCALE
1000
AcRTDxfName
1000
SCALE
1000
AcRTDxfName
1000
SCALE
  0
SCALE
  5
11EE6
102
{ACAD_REACTORS
330
11ED5
102
}
330
11ED5
100
AcDbScale
 70
     0
300
100:1
140
100.0
141
1.0
290
     0
1001
ACAD
1000
AcRTDxfName
1000
SCALE
1000
AcRTDxfName
1000
SCALE
1000
AcRTDxfName
1000
SCALE
  0
ACDBSECTIONVIEWSTYLE
  5
1315E
102
{ACAD_XDICTIONARY
360
1422B
102
}
102
{ACAD_REACTORS
330
1315D
102
}
330
1315D
100
AcDbModelDocViewStyle
 70
     0
  3
Metric50
290
     0
100
AcDbSectionViewStyle
 70
     0
 71
     0
 90
      102
 71
     1
340
11
 62
   256
 40
5.0
340
0
340
0
 62
   256
 40
5.0
300
I, O, Q, S, X, Z
 40
10.0
 90
        0
 40
2.5
 90
        0
 71
     2
340
16
 90
       25
 62
   256
340
16
 90
       50
 62
   256
 40
5.0
 40
2.5
 40
5.0
 71
     3
340
11
 62
   256
 40
5.0
 90
        0
 40
15.0
 90
        1
300
%<\AcVar ViewSectionStartId>%-%<\AcVar ViewSectionEndId>% (%<\AcVar ViewScale \f "%sn">%)
 71
     4
 62
   256
 62
   257
300
ANSI31
 40
1.0
 90
        0
290
     0
290
     0
 90
        6
 40
0.0
 40
1.570796326794896
 40
0.2617993877991494
 40
1.308996938995747
 40
-0.2617993877991494
 40
1.832595714594046
  0
TABLESTYLE
  5
7F
102
{ACAD_XDICTIONARY
360
11FFF
102
}
102
{ACAD_REACTORS
330
7E
102
}
330
7E
100
AcDbTableStyle
280
     0
  3
Standard
 70
     0
 71
     0
 40
1.5
 41
1.5
280
     0
281
     0
  7
Standard
140
4.5
170
     2
 62
     0
 63
     7
283
     0
 90
        4
 91
        0
  1

274
    -2
284
     1
 64
     0
275
    -2
285
     1
 65
     0
276
    -2
286
     1
 66
     0
277
    -2
287
     1
 67
     0
278
    -2
288
     1
 68
     0
279
    -2
289
     1
 69
     0
  7
Standard
140
6.0
170
     5
 62
     0
 63
     7
283
     0
 90
        4
 91
        0
  1

274
    -2
284
     1
 64
     0
275
    -2
285
     1
 65
     0
276
    -2
286
     1
 66
     0
277
    -2
287
     1
 67
     0
278
    -2
288
     1
 68
     0
279
    -2
289
     1
 69
     0
  7
Standard
140
4.5
170
     5
 62
     0
 63
     7
283
     0
 90
        4
 91
        0
  1

274
    -2
284
     1
 64
     0
275
    -2
285
     1
 65
     0
276
    -2
286
     1
 66
     0
277
    -2
287
     1
 67
     0
278
    -2
288
     1
 68
     0
279
    -2
289
     1
 69
     0
  0
VISUALSTYLE
  5
11ECA
102
{ACAD_REACTORS
330
11EC4
102
}
330
11EC4
100
AcDbVisualStyle
  2
2dWireframe
 70
     4
177
     3
291
     0
 70
    58
 90
        0
176
     1
 90
        2
176
     1
 90
        0
176
     1
 90
        0
176
     1
 40
0.6
176
     1
 40
30.0
176
     1
 62
     7
176
     1
 90
        1
176
     1
 90
        4
176
     1
 62
     7
176
     1
 62
   257
176
     1
 90
        1
176
     1
 90
        1
176
     1
 40
1.0
176
     1
 90
        0
176
     1
 62
   257
176
     1
 40
1.0
176
     1
 90
        1
176
     1
 90
        6
176
     1
 90
        2
176
     1
 62
     7
176
     1
 90
        5
176
     1
 90
        0
176
     1
 90
        0
176
     1
290
     0
176
     1
 90
        1
176
     1
 40
0.0
176
     1
 90
        0
176
     1
290
     1
176
     1
290
     1
176
     1
290
     0
176
     1
290
     0
176
     1
290
     0
176
     1
290
     0
176
     1
290
     0
176
     1
290
     0
176
     1
290
     0
176
     1
 90
       50
176
     1
 40
0.0
176
     1
 40
1.0
176
     1
 90
        0
176
     1
 62
    18
420
        0
176
     1
 90
       50
176
     1
 90
        3
176
     1
 62
     5
420
      255
176
     1
290
     0
176
     1
 90
       50
176
     1
 90
       50
176
     1
 90
       50
176
     1
290
     0
176
     1
 90
       50
176
     1
 62
   256
176
     0
 40
1.0
176
     0
 90
        2
176
     1
  1
strokes_ogs.tif
176
     1
290
     0
176
     1
 40
1.0
176
     1
 40
1.0
176
     1
1001
ACAD
1000
AcRTDxfName
1000
VISUALSTYLE
1000
AcRTDxfName
1000
VISUALSTYLE
1000
AcRTDxfName
1000
VISUALSTYLE
1000
AcDbSavedByObjectVersion
1070
     0
  0
VISUALSTYLE
  5
11ECC
102
{ACAD_REACTORS
330
11EC4
102
}
330
11EC4
100
AcDbVisualStyle
  2
3D Hidden
 70
     6
177
     3
291
     0
 70
    58
 90
        1
176
     1
 90
        2
176
     1
 90
        2
176
     1
 90
        0
176
     1
 40
0.6
176
     1
 40
30.0
176
     1
 62
     7
176
     1
 90
        2
176
     1
 90
        2
176
     1
 62
     7
176
     1
 62
   257
176
     1
 90
        2
176
     1
 90
        1
176
     1
 40
40.0
176
     1
 90
        0
176
     1
 62
   257
176
     1
 40
1.0
176
     1
 90
        1
176
     1
 90
        6
176
     1
 90
        2
176
     1
 62
     7
176
     1
 90
        3
176
     1
 90
        0
176
     1
 90
        0
176
     1
290
     0
176
     1
 90
        1
176
     1
 40
0.0
176
     1
 90
        0
176
     1
290
     0
176
     1
290
     1
176
     1
290
     1
176
     1
290
     0
176
     1
290
     0
176
     1
290
     0
176
     1
290
     0
176
     1
290
     0
176
     1
290
     0
176
     1
 90
       50
176
     1
 40
0.0
176
     1
 40
1.0
176
     1
 90
        0
176
     1
 62
    18
420
        0
176
     1
 90
       50
176
     1
 90
        3
176
     1
 62
     5
420
      255
176
     1
290
     0
176
     1
 90
       50
176
     1
 90
       50
176
     1
 90
       50
176
     1
290
     0
176
     1
 90
       50
176
     1
 62
   256
176
     0
 40
1.0
176
     0
 90
        2
176
     1
  1
strokes_ogs.tif
176
     1
290
     0
176
     1
 40
1.0
176
     1
 40
1.0
176
     1
1001
ACAD
1000
AcRTDxfName
1000
VISUALSTYLE
1000
AcRTDxfName
1000
VISUALSTYLE
1000
AcRTDxfName
1000
VISUALSTYLE
1000
AcDbSavedByObjectVersion
1070
     0
  0
VISUALSTYLE
  5
11ECB
102
{ACAD_REACTORS
330
11EC4
102
}
330
11EC4
100
AcDbVisualStyle
  2
3dWireframe
 70
     5
177
     3
291
     0
 70
    58
 90
        0
176
     1
 90
        2
176
     1
 90
        0
176
     1
 90
        0
176
     1
 40
0.6
176
     1
 40
30.0
176
     1
 62
     7
176
     1
 90
        1
176
     1
 90
        4
176
     1
 62
     7
176
     1
 62
   257
176
     1
 90
        1
176
     1
 90
        1
176
     1
 40
1.0
176
     1
 90
        0
176
     1
 62
   257
176
     1
 40
1.0
176
     1
 90
        1
176
     1
 90
        6
176
     1
 90
        2
176
     1
 62
     7
176
     1
 90
        5
176
     1
 90
        0
176
     1
 90
        0
176
     1
290
     0
176
     1
 90
        1
176
     1
 40
0.0
176
     1
 90
        0
176
     1
290
     0
176
     1
290
     1
176
     1
290
     1
176
     1
290
     0
176
     1
290
     0
176
     1
290
     0
176
     1
290
     0
176
     1
290
     0
176
     1
290
     0
176
     1
 90
       50
176
     1
 40
0.0
176
     1
 40
1.0
176
     1
 90
        0
176
     1
 62
    18
420
        0
176
     1
 90
       50
176
     1
 90
        3
176
     1
 62
     5
420
      255
176
     1
290
     0
176
     1
 90
       50
176
     1
 90
       50
176
     1
 90
       50
176
     1
290
     0
176
     1
 90
       50
176
     1
 62
   256
176
     0
 40
1.0
176
     0
 90
        2
176
     1
  1
strokes_ogs.tif
176
     1
290
     0
176
     1
 40
1.0
176
     1
 40
1.0
176
     1
1001
ACAD
1000
AcRTDxfName
1000
VISUALSTYLE
1000
AcRTDxfName
1000
VISUALSTYLE
1000
AcRTDxfName
1000
VISUALSTYLE
1000
AcDbSavedByObjectVersion
1070
     0
  0
VISUALSTYLE
  5
11EC9
102
{ACAD_REACTORS
330
11EC4
102
}
330
11EC4
100
AcDbVisualStyle
  2
Basic
 70
     7
177
     3
291
     1
 70
    58
 90
        1
176
     1
 90
        0
176
     1
 90
        1
176
     1
 90
        0
176
     1
 40
0.6
176
     1
 40
30.0
176
     1
 62
     7
176
     1
 90
        0
176
     1
 90
        4
176
     1
 62
     7
176
     1
 62
   257
176
     1
 90
        1
176
     1
 90
        1
176
     1
 40
1.0
176
     1
 90
        8
176
     1
 62
     7
176
     1
 40
1.0
176
     1
 90
        1
176
     1
 90
        6
176
     1
 90
        2
176
     1
 62
     7
176
     1
 90
        5
176
     1
 90
        0
176
     1
 90
        0
176
     1
290
     0
176
     1
 90
        1
176
     1
 40
0.0
176
     1
 90
        0
176
     1
290
     0
176
     1
290
     1
176
     1
290
     1
176
     1
290
     0
176
     1
290
     0
176
     1
290
     0
176
     1
290
     0
176
     1
290
     0
176
     1
290
     0
176
     1
 90
       50
176
     1
 40
0.0
176
     1
 40
1.0
176
     1
 90
        0
176
     1
 62
    18
420
        0
176
     1
 90
       50
176
     1
 90
        3
176
     1
 62
     5
420
      255
176
     1
290
     0
176
     1
 90
       50
176
     1
 90
       50
176
     1
 90
       50
176
     1
290
     0
176
     1
 90
       50
176
     1
 62
   256
176
     0
 40
1.0
176
     0
 90
        2
176
     1
  1
strokes_ogs.tif
176
     1
290
     0
176
     1
 40
1.0
176
     1
 40
1.0
176
     1
1001
ACAD
1000
AcRTDxfName
1000
VISUALSTYLE
1000
AcRTDxfName
1000
VISUALSTYLE
1000
AcRTDxfName
1000
VISUALSTYLE
1000
AcDbSavedByObjectVersion
1070
     0
  0
VISUALSTYLE
  5
11ED0
102
{ACAD_REACTORS
330
11EC4
102
}
330
11EC4
100
AcDbVisualStyle
  2
Brighten
 70
    12
177
     3
291
     1
 70
    58
 90
        2
176
     1
 90
        2
176
     1
 90
        0
176
     1
 90
        0
176
     1
 40
0.6
176
     1
 40
30.0
176
     1
 62
     7
176
     1
 90
        1
176
     1
 90
        4
176
     1
 62
     7
176
     1
 62
   257
176
     1
 90
        1
176
     1
 90
        1
176
     1
 40
1.0
176
     1
 90
        8
176
     1
 62
     7
176
     1
 40
1.0
176
     1
 90
        1
176
     1
 90
        6
176
     1
 90
        2
176
     1
 62
     7
176
     1
 90
        5
176
     1
 90
        0
176
     1
 90
        0
176
     1
290
     0
176
     1
 90
        1
176
     1
 40
50.0
176
     1
 90
        0
176
     1
290
     0
176
     1
290
     1
176
     1
290
     1
176
     1
290
     0
176
     1
290
     0
176
     1
290
     0
176
     1
290
     0
176
     1
290
     0
176
     1
290
     0
176
     1
 90
       50
176
     1
 40
0.0
176
     1
 40
1.0
176
     1
 90
        0
176
     1
 62
    18
420
        0
176
     1
 90
       50
176
     1
 90
        3
176
     1
 62
     5
420
      255
176
     1
290
     0
176
     1
 90
       50
176
     1
 90
       50
176
     1
 90
       50
176
     1
290
     0
176
     1
 90
       50
176
     1
 62
   256
176
     0
 40
1.0
176
     0
 90
        2
176
     1
  1
strokes_ogs.tif
176
     1
290
     0
176
     1
 40
1.0
176
     1
 40
1.0
176
     1
1001
ACAD
1000
AcRTDxfName
1000
VISUALSTYLE
1000
AcRTDxfName
1000
VISUALSTYLE
1000
AcRTDxfName
1000
VISUALSTYLE
1000
AcDbSavedByObjectVersion
1070
     0
  0
VISUALSTYLE
  5
11ED4
102
{ACAD_REACTORS
330
11EC4
102
}
330
11EC4
100
AcDbVisualStyle
  2
ColorChange
 70
    16
177
     3
291
     1
 70
    58
 90
        2
176
     1
 90
        2
176
     1
 90
        3
176
     1
 90
        0
176
     1
 40
0.6
176
     1
 40
30.0
176
     1
 62
     8
176
     1
 90
        1
176
     1
 90
        4
176
     1
 62
     7
176
     1
 62
   257
176
     1
 90
        1
176
     1
 90
        1
176
     1
 40
1.0
176
     1
 90
        8
176
     1
 62
     8
176
     1
 40
1.0
176
     1
 90
        1
176
     1
 90
        6
176
     1
 90
        2
176
     1
 62
     7
176
     1
 90
        5
176
     1
 90
        0
176
     1
 90
        0
176
     1
290
     0
176
     1
 90
        1
176
     1
 40
0.0
176
     1
 90
        0
176
     1
290
     0
176
     1
290
     1
176
     1
290
     1
176
     1
290
     0
176
     1
290
     0
176
     1
290
     0
176
     1
290
     0
176
     1
290
     0
176
     1
290
     0
176
     1
 90
       50
176
     1
 40
0.0
176
     1
 40
1.0
176
     1
 90
        0
176
     1
 62
    18
420
        0
176
     1
 90
       50
176
     1
 90
        3
176
     1
 62
     5
420
      255
176
     1
290
     0
176
     1
 90
       50
176
     1
 90
       50
176
     1
 90
       50
176
     1
290
     0
176
     1
 90
       50
176
     1
 62
   256
176
     0
 40
1.0
176
     0
 90
        2
176
     1
  1
strokes_ogs.tif
176
     1
290
     0
176
     1
 40
1.0
176
     1
 40
1.0
176
     1
1001
ACAD
1000
AcRTDxfName
1000
VISUALSTYLE
1000
AcRTDxfName
1000
VISUALSTYLE
1000
AcRTDxfName
1000
VISUALSTYLE
1000
AcDbSavedByObjectVersion
1070
     0
  0
VISUALSTYLE
  5
11ECD
102
{ACAD_REACTORS
330
11EC4
102
}
330
11EC4
100
AcDbVisualStyle
  2
Conceptual
 70
     9
177
     3
291
     0
 70
    58
 90
        3
176
     1
 90
        2
176
     1
 90
        0
176
     1
 90
        0
176
     1
 40
0.6
176
     1
 40
30.0
176
     1
 62
     7
176
     1
 90
        2
176
     1
 90
        2
176
     1
 62
     7
176
     1
 62
   257
176
     1
 90
        1
176
     1
 90
        1
176
     1
 40
40.0
176
     1
 90
        8
176
     1
 62
     7
176
     1
 40
1.0
176
     1
 90
        1
176
     1
 90
        6
176
     1
 90
        2
176
     1
 62
     7
176
     1
 90
        3
176
     1
 90
        0
176
     1
 90
        0
176
     1
290
     0
176
     1
 90
        1
176
     1
 40
0.0
176
     1
 90
        0
176
     1
290
     0
176
     1
290
     1
176
     1
290
     1
176
     1
290
     0
176
     1
290
     0
176
     1
290
     0
176
     1
290
     0
176
     1
290
     0
176
     1
290
     0
176
     1
 90
       50
176
     1
 40
0.0
176
     1
 40
1.0
176
     1
 90
        0
176
     1
 62
    18
420
        0
176
     1
 90
       50
176
     1
 90
        3
176
     1
 62
     5
420
      255
176
     1
290
     0
176
     1
 90
       50
176
     1
 90
       50
176
     1
 90
       50
176
     1
290
     0
176
     1
 90
       50
176
     1
 62
   256
176
     0
 40
1.0
176
     0
 90
        2
176
     1
  1
strokes_ogs.tif
176
     1
290
     0
176
     1
 40
1.0
176
     1
 40
1.0
176
     1
1001
ACAD
1000
AcRTDxfName
1000
VISUALSTYLE
1000
AcRTDxfName
1000
VISUALSTYLE
1000
AcRTDxfName
1000
VISUALSTYLE
1000
AcDbSavedByObjectVersion
1070
     0
  0
VISUALSTYLE
  5
11ECF
102
{ACAD_REACTORS
330
11EC4
102
}
330
11EC4
100
AcDbVisualStyle
  2
Dim
 70
    11
177
     3
291
     1
 70
    58
 90
        2
176
     1
 90
        2
176
     1
 90
        0
176
     1
 90
        0
176
     1
 40
0.6
176
     1
 40
30.0
176
     1
 62
     7
176
     1
 90
        1
176
     1
 90
        4
176
     1
 62
     7
176
     1
 62
   257
176
     1
 90
        1
176
     1
 90
        1
176
     1
 40
1.0
176
     1
 90
        8
176
     1
 62
     7
176
     1
 40
1.0
176
     1
 90
        1
176
     1
 90
        6
176
     1
 90
        2
176
     1
 62
     7
176
     1
 90
        5
176
     1
 90
        0
176
     1
 90
        0
176
     1
290
     0
176
     1
 90
        1
176
     1
 40
-50.0
176
     1
 90
        0
176
     1
290
     0
176
     1
290
     1
176
     1
290
     1
176
     1
290
     0
176
     1
290
     0
176
     1
290
     0
176
     1
290
     0
176
     1
290
     0
176
     1
290
     0
176
     1
 90
       50
176
     1
 40
0.0
176
     1
 40
1.0
176
     1
 90
        0
176
     1
 62
    18
420
        0
176
     1
 90
       50
176
     1
 90
        3
176
     1
 62
     5
420
      255
176
     1
290
     0
176
     1
 90
       50
176
     1
 90
       50
176
     1
 90
       50
176
     1
290
     0
176
     1
 90
       50
176
     1
 62
   256
176
     0
 40
1.0
176
     0
 90
        2
176
     1
  1
strokes_ogs.tif
176
     1
290
     0
176
     1
 40
1.0
176
     1
 40
1.0
176
     1
1001
ACAD
1000
AcRTDxfName
1000
VISUALSTYLE
1000
AcRTDxfName
1000
VISUALSTYLE
1000
AcRTDxfName
1000
VISUALSTYLE
1000
AcDbSavedByObjectVersion
1070
     0
  0
VISUALSTYLE
  5
1315C
102
{ACAD_REACTORS
330
11EC4
102
}
330
11EC4
100
AcDbVisualStyle
  2
EdgeColorOff
 70
    22
177
     3
291
     1
 70
    58
 90
        2
176
     0
 90
        2
176
     0
 90
        0
176
     0
 90
        0
176
     0
 40
0.6
176
     0
 40
30.0
176
     0
 62
     7
420
 16777215
176
     0
 90
        1
176
     0
 90
        4
176
     0
 62
     7
176
     0
 62
   257
176
     0
 90
        1
176
     0
 90
        1
176
     0
 40
1.0
176
     0
 90
        8
176
     2
 62
     7
176
     0
 40
1.0
176
     0
 90
        1
176
     0
 90
        6
176
     0
 90
        2
176
     0
 62
     7
176
     0
 90
        5
176
     0
 90
        0
176
     0
 90
        0
176
     0
290
     0
176
     0
 90
        1
176
     0
 40
0.0
176
     0
 90
        0
176
     0
290
     0
176
     0
290
     1
176
     0
290
     1
176
     0
290
     0
176
     0
290
     0
176
     0
290
     0
176
     0
290
     0
176
     0
290
     0
176
     0
290
     0
176
     0
 90
       50
176
     0
 40
0.0
176
     0
 40
1.0
176
     0
 90
        0
176
     0
 62
    18
420
        0
176
     0
 90
       50
176
     0
 90
        3
176
     0
 62
     5
420
      255
176
     0
290
     0
176
     0
 90
       50
176
     0
 90
       50
176
     0
 90
       50
176
     0
290
     0
176
     0
 90
       50
176
     0
 62
   256
176
     0
 40
1.0
176
     0
 90
        2
176
     0
  1
strokes_ogs.tif
176
     0
290
     0
176
     0
 40
1.0
176
     0
 40
1.0
176
     0
1001
ACAD
1000
AcDbSavedByObjectVersion
1070
     0
  0
VISUALSTYLE
  5
11ED3
102
{ACAD_REACTORS
330
11EC4
102
}
330
11EC4
100
AcDbVisualStyle
  2
Facepattern
 70
    15
177
     3
291
     1
 70
    58
 90
        2
176
     1
 90
        2
176
     1
 90
        0
176
     1
 90
        0
176
     1
 40
0.6
176
     1
 40
30.0
176
     1
 62
     7
176
     1
 90
        1
176
     1
 90
        4
176
     1
 62
     7
176
     1
 62
   257
176
     1
 90
        1
176
     1
 90
        1
176
     1
 40
1.0
176
     1
 90
        8
176
     1
 62
     7
176
     1
 40
1.0
176
     1
 90
        1
176
     1
 90
        6
176
     1
 90
        2
176
     1
 62
     7
176
     1
 90
        5
176
     1
 90
        0
176
     1
 90
        0
176
     1
290
     0
176
     1
 90
        1
176
     1
 40
0.0
176
     1
 90
        0
176
     1
290
     0
176
     1
290
     1
176
     1
290
     1
176
     1
290
     0
176
     1
290
     0
176
     1
290
     0
176
     1
290
     0
176
     1
290
     0
176
     1
290
     0
176
     1
 90
       50
176
     1
 40
0.0
176
     1
 40
1.0
176
     1
 90
        0
176
     1
 62
    18
420
        0
176
     1
 90
       50
176
     1
 90
        3
176
     1
 62
     5
420
      255
176
     1
290
     0
176
     1
 90
       50
176
     1
 90
       50
176
     1
 90
       50
176
     1
290
     0
176
     1
 90
       50
176
     1
 62
   256
176
     0
 40
1.0
176
     0
 90
        2
176
     1
  1
strokes_ogs.tif
176
     1
290
     0
176
     1
 40
1.0
176
     1
 40
1.0
176
     1
1001
ACAD
1000
AcRTDxfName
1000
VISUALSTYLE
1000
AcRTDxfName
1000
VISUALSTYLE
1000
AcRTDxfName
1000
VISUALSTYLE
1000
AcDbSavedByObjectVersion
1070
     0
  0
VISUALSTYLE
  5
11EC5
102
{ACAD_REACTORS
330
11EC4
102
}
330
11EC4
100
AcDbVisualStyle
  2
Flat
 70
     0
177
     3
291
     1
 70
    58
 90
        2
176
     1
 90
        1
176
     1
 90
        1
176
     1
 90
        2
176
     1
 40
0.6
176
     1
 40
30.0
176
     1
 62
     7
176
     1
 90
        0
176
     1
 90
        4
176
     1
 62
     7
176
     1
 62
   257
176
     1
 90
        1
176
     1
 90
        1
176
     1
 40
1.0
176
     1
 90
        8
176
     1
 62
     7
176
     1
 40
1.0
176
     1
 90
        1
176
     1
 90
        6
176
     1
 90
        2
176
     1
 62
     7
176
     1
 90
        5
176
     1
 90
        0
176
     1
 90
        0
176
     1
290
     0
176
     1
 90
       13
176
     1
 40
0.0
176
     1
 90
        0
176
     1
290
     0
176
     1
290
     1
176
     1
290
     1
176
     1
290
     0
176
     1
290
     0
176
     1
290
     0
176
     1
290
     0
176
     1
290
     0
176
     1
290
     0
176
     1
 90
       50
176
     1
 40
0.0
176
     1
 40
1.0
176
     1
 90
        0
176
     1
 62
    18
420
        0
176
     1
 90
       50
176
     1
 90
        3
176
     1
 62
     5
420
      255
176
     1
290
     0
176
     1
 90
       50
176
     1
 90
       50
176
     1
 90
       50
176
     1
290
     0
176
     1
 90
       50
176
     1
 62
   256
176
     0
 40
1.0
176
     0
 90
        2
176
     1
  1
strokes_ogs.tif
176
     1
290
     0
176
     1
 40
1.0
176
     1
 40
1.0
176
     1
1001
ACAD
1000
AcRTDxfName
1000
VISUALSTYLE
1000
AcRTDxfName
1000
VISUALSTYLE
1000
AcRTDxfName
1000
VISUALSTYLE
1000
AcDbSavedByObjectVersion
1070
     0
  0
VISUALSTYLE
  5
11EC6
102
{ACAD_REACTORS
330
11EC4
102
}
330
11EC4
100
AcDbVisualStyle
  2
FlatWithEdges
 70
     1
177
     3
291
     1
 70
    58
 90
        2
176
     1
 90
        1
176
     1
 90
        1
176
     1
 90
        2
176
     1
 40
0.6
176
     1
 40
30.0
176
     1
 62
     7
176
     1
 90
        1
176
     1
 90
        4
176
     1
 62
     7
176
     1
 62
   257
176
     1
 90
        1
176
     1
 90
        1
176
     1
 40
1.0
176
     1
 90
        0
176
     1
 62
   257
176
     1
 40
1.0
176
     1
 90
        1
176
     1
 90
        6
176
     1
 90
        2
176
     1
 62
     7
176
     1
 90
        5
176
     1
 90
        0
176
     1
 90
        0
176
     1
290
     0
176
     1
 90
       13
176
     1
 40
0.0
176
     1
 90
        0
176
     1
290
     0
176
     1
290
     1
176
     1
290
     1
176
     1
290
     0
176
     1
290
     0
176
     1
290
     0
176
     1
290
     0
176
     1
290
     0
176
     1
290
     0
176
     1
 90
       50
176
     1
 40
0.0
176
     1
 40
1.0
176
     1
 90
        0
176
     1
 62
    18
420
        0
176
     1
 90
       50
176
     1
 90
        3
176
     1
 62
     5
420
      255
176
     1
290
     0
176
     1
 90
       50
176
     1
 90
       50
176
     1
 90
       50
176
     1
290
     0
176
     1
 90
       50
176
     1
 62
   256
176
     0
 40
1.0
176
     0
 90
        2
176
     1
  1
strokes_ogs.tif
176
     1
290
     0
176
     1
 40
1.0
176
     1
 40
1.0
176
     1
1001
ACAD
1000
AcRTDxfName
1000
VISUALSTYLE
1000
AcRTDxfName
1000
VISUALSTYLE
1000
AcRTDxfName
1000
VISUALSTYLE
1000
AcDbSavedByObjectVersion
1070
     0
  0
VISUALSTYLE
  5
11EC7
102
{ACAD_REACTORS
330
11EC4
102
}
330
11EC4
100
AcDbVisualStyle
  2
Gouraud
 70
     2
177
     3
291
     1
 70
    58
 90
        2
176
     1
 90
        2
176
     1
 90
        1
176
     1
 90
        2
176
     1
 40
0.6
176
     1
 40
30.0
176
     1
 62
     7
176
     1
 90
        0
176
     1
 90
        4
176
     1
 62
     7
176
     1
 62
   257
176
     1
 90
        1
176
     1
 90
        1
176
     1
 40
1.0
176
     1
 90
        0
176
     1
 62
     7
176
     1
 40
1.0
176
     1
 90
        1
176
     1
 90
        6
176
     1
 90
        2
176
     1
 62
     7
176
     1
 90
        5
176
     1
 90
        0
176
     1
 90
        0
176
     1
290
     0
176
     1
 90
       13
176
     1
 40
0.0
176
     1
 90
        0
176
     1
290
     0
176
     1
290
     1
176
     1
290
     1
176
     1
290
     0
176
     1
290
     0
176
     1
290
     0
176
     1
290
     0
176
     1
290
     0
176
     1
290
     0
176
     1
 90
       50
176
     1
 40
0.0
176
     1
 40
1.0
176
     1
 90
        0
176
     1
 62
    18
420
        0
176
     1
 90
       50
176
     1
 90
        3
176
     1
 62
     5
420
      255
176
     1
290
     0
176
     1
 90
       50
176
     1
 90
       50
176
     1
 90
       50
176
     1
290
     0
176
     1
 90
       50
176
     1
 62
   256
176
     0
 40
1.0
176
     0
 90
        2
176
     1
  1
strokes_ogs.tif
176
     1
290
     0
176
     1
 40
1.0
176
     1
 40
1.0
176
     1
1001
ACAD
1000
AcRTDxfName
1000
VISUALSTYLE
1000
AcRTDxfName
1000
VISUALSTYLE
1000
AcRTDxfName
1000
VISUALSTYLE
1000
AcDbSavedByObjectVersion
1070
     0
  0
VISUALSTYLE
  5
11EC8
102
{ACAD_REACTORS
330
11EC4
102
}
330
11EC4
100
AcDbVisualStyle
  2
GouraudWithEdges
 70
     3
177
     3
291
     1
 70
    58
 90
        2
176
     1
 90
        2
176
     1
 90
        1
176
     1
 90
        2
176
     1
 40
0.6
176
     1
 40
30.0
176
     1
 62
     7
176
     1
 90
        1
176
     1
 90
        4
176
     1
 62
     7
176
     1
 62
   257
176
     1
 90
        1
176
     1
 90
        1
176
     1
 40
1.0
176
     1
 90
        0
176
     1
 62
   257
176
     1
 40
1.0
176
     1
 90
        1
176
     1
 90
        6
176
     1
 90
        2
176
     1
 62
     7
176
     1
 90
        5
176
     1
 90
        0
176
     1
 90
        0
176
     1
290
     0
176
     1
 90
       13
176
     1
 40
0.0
176
     1
 90
        0
176
     1
290
     0
176
     1
290
     1
176
     1
290
     1
176
     1
290
     0
176
     1
290
     0
176
     1
290
     0
176
     1
290
     0
176
     1
290
     0
176
     1
290
     0
176
     1
 90
       50
176
     1
 40
0.0
176
     1
 40
1.0
176
     1
 90
        0
176
     1
 62
    18
420
        0
176
     1
 90
       50
176
     1
 90
        3
176
     1
 62
     5
420
      255
176
     1
290
     0
176
     1
 90
       50
176
     1
 90
       50
176
     1
 90
       50
176
     1
290
     0
176
     1
 90
       50
176
     1
 62
   256
176
     0
 40
1.0
176
     0
 90
        2
176
     1
  1
strokes_ogs.tif
176
     1
290
     0
176
     1
 40
1.0
176
     1
 40
1.0
176
     1
1001
ACAD
1000
AcRTDxfName
1000
VISUALSTYLE
1000
AcRTDxfName
1000
VISUALSTYLE
1000
AcRTDxfName
1000
VISUALSTYLE
1000
AcDbSavedByObjectVersion
1070
     0
  0
VISUALSTYLE
  5
13154
102
{ACAD_REACTORS
330
11EC4
102
}
330
11EC4
100
AcDbVisualStyle
  2
Hidden
 70
     6
177
     3
291
     0
 70
    58
 90
        1
176
     1
 90
        2
176
     1
 90
        2
176
     1
 90
        0
176
     1
 40
0.6
176
     1
 40
30.0
176
     1
 62
     7
420
 16777215
176
     1
 90
        2
176
     1
 90
        2
176
     1
 62
     7
176
     1
 62
   257
176
     1
 90
        2
176
     1
 90
        1
176
     1
 40
40.0
176
     1
 90
        0
176
     1
 62
   257
176
     1
 40
1.0
176
     1
 90
        1
176
     1
 90
        6
176
     1
 90
        2
176
     1
 62
     7
176
     1
 90
        3
176
     1
 90
        0
176
     1
 90
        0
176
     1
290
     0
176
     1
 90
        1
176
     1
 40
0.0
176
     1
 90
        0
176
     1
290
     0
176
     1
290
     1
176
     1
290
     1
176
     1
290
     0
176
     1
290
     0
176
     1
290
     0
176
     1
290
     0
176
     1
290
     0
176
     1
290
     0
176
     1
 90
       50
176
     1
 40
0.0
176
     1
 40
1.0
176
     1
 90
        0
176
     1
 62
    18
420
        0
176
     1
 90
       50
176
     1
 90
        3
176
     1
 62
     5
420
      255
176
     1
290
     0
176
     1
 90
       50
176
     1
 90
       50
176
     1
 90
       50
176
     1
290
     0
176
     1
 90
       50
176
     1
 62
   256
176
     0
 40
1.0
176
     0
 90
        2
176
     1
  1
strokes_ogs.tif
176
     1
290
     0
176
     1
 40
1.0
176
     1
 40
1.0
176
     1
1001
ACAD
1000
AcDbSavedByObjectVersion
1070
     0
  0
VISUALSTYLE
  5
1315A
102
{ACAD_REACTORS
330
11EC4
102
}
330
11EC4
100
AcDbVisualStyle
  2
JitterOff
 70
    20
177
     3
291
     1
 70
    58
 90
        2
176
     0
 90
        2
176
     0
 90
        0
176
     0
 90
        0
176
     0
 40
0.6
176
     0
 40
30.0
176
     0
 62
     7
420
 16777215
176
     0
 90
        1
176
     0
 90
        4
176
     0
 62
     7
176
     0
 62
   257
176
     0
 90
        1
176
     0
 90
        1
176
     0
 40
1.0
176
     0
 90
       10
176
     2
 62
     7
176
     0
 40
1.0
176
     0
 90
        1
176
     0
 90
        6
176
     0
 90
        2
176
     0
 62
     7
176
     0
 90
        5
176
     0
 90
        0
176
     0
 90
        0
176
     0
290
     0
176
     0
 90
        1
176
     0
 40
0.0
176
     0
 90
        0
176
     0
290
     0
176
     0
290
     1
176
     0
290
     1
176
     0
290
     0
176
     0
290
     0
176
     0
290
     0
176
     0
290
     0
176
     0
290
     0
176
     0
290
     0
176
     0
 90
       50
176
     0
 40
0.0
176
     0
 40
1.0
176
     0
 90
        0
176
     0
 62
    18
420
        0
176
     0
 90
       50
176
     0
 90
        3
176
     0
 62
     5
420
      255
176
     0
290
     0
176
     0
 90
       50
176
     0
 90
       50
176
     0
 90
       50
176
     0
290
     0
176
     0
 90
       50
176
     0
 62
   256
176
     0
 40
1.0
176
     0
 90
        2
176
     0
  1
strokes_ogs.tif
176
     0
290
     0
176
     0
 40
1.0
176
     0
 40
1.0
176
     0
1001
ACAD
1000
AcDbSavedByObjectVersion
1070
     0
  0
VISUALSTYLE
  5
11ED2
102
{ACAD_REACTORS
330
11EC4
102
}
330
11EC4
100
AcDbVisualStyle
  2
Linepattern
 70
    14
177
     3
291
     1
 70
    58
 90
        2
176
     1
 90
        2
176
     1
 90
        0
176
     1
 90
        0
176
     1
 40
0.6
176
     1
 40
30.0
176
     1
 62
     7
176
     1
 90
        1
176
     1
 90
        4
176
     1
 62
     7
176
     1
 62
   257
176
     1
 90
        7
176
     1
 90
        7
176
     1
 40
1.0
176
     1
 90
        8
176
     1
 62
     7
176
     1
 40
1.0
176
     1
 90
        1
176
     1
 90
        6
176
     1
 90
        2
176
     1
 62
     7
176
     1
 90
        5
176
     1
 90
        0
176
     1
 90
        0
176
     1
290
     0
176
     1
 90
        1
176
     1
 40
0.0
176
     1
 90
        0
176
     1
290
     0
176
     1
290
     1
176
     1
290
     1
176
     1
290
     0
176
     1
290
     0
176
     1
290
     0
176
     1
290
     0
176
     1
290
     0
176
     1
290
     0
176
     1
 90
       50
176
     1
 40
0.0
176
     1
 40
1.0
176
     1
 90
        0
176
     1
 62
    18
420
        0
176
     1
 90
       50
176
     1
 90
        3
176
     1
 62
     5
420
      255
176
     1
290
     0
176
     1
 90
       50
176
     1
 90
       50
176
     1
 90
       50
176
     1
290
     0
176
     1
 90
       50
176
     1
 62
   256
176
     0
 40
1.0
176
     0
 90
        2
176
     1
  1
strokes_ogs.tif
176
     1
290
     0
176
     1
 40
1.0
176
     1
 40
1.0
176
     1
1001
ACAD
1000
AcRTDxfName
1000
VISUALSTYLE
1000
AcRTDxfName
1000
VISUALSTYLE
1000
AcRTDxfName
1000
VISUALSTYLE
1000
AcDbSavedByObjectVersion
1070
     0
  0
VISUALSTYLE
  5
1315B
102
{ACAD_REACTORS
330
11EC4
102
}
330
11EC4
100
AcDbVisualStyle
  2
OverhangOff
 70
    21
177
     3
291
     1
 70
    58
 90
        2
176
     0
 90
        2
176
     0
 90
        0
176
     0
 90
        0
176
     0
 40
0.6
176
     0
 40
30.0
176
     0
 62
     7
420
 16777215
176
     0
 90
        1
176
     0
 90
        4
176
     0
 62
     7
176
     0
 62
   257
176
     0
 90
        1
176
     0
 90
        1
176
     0
 40
1.0
176
     0
 90
        9
176
     2
 62
     7
176
     0
 40
1.0
176
     0
 90
        1
176
     0
 90
        6
176
     0
 90
        2
176
     0
 62
     7
176
     0
 90
        5
176
     0
 90
        0
176
     0
 90
        0
176
     0
290
     0
176
     0
 90
        1
176
     0
 40
0.0
176
     0
 90
        0
176
     0
290
     0
176
     0
290
     1
176
     0
290
     1
176
     0
290
     0
176
     0
290
     0
176
     0
290
     0
176
     0
290
     0
176
     0
290
     0
176
     0
290
     0
176
     0
 90
       50
176
     0
 40
0.0
176
     0
 40
1.0
176
     0
 90
        0
176
     0
 62
    18
420
        0
176
     0
 90
       50
176
     0
 90
        3
176
     0
 62
     5
420
      255
176
     0
290
     0
176
     0
 90
       50
176
     0
 90
       50
176
     0
 90
       50
176
     0
290
     0
176
     0
 90
       50
176
     0
 62
   256
176
     0
 40
1.0
176
     0
 90
        2
176
     0
  1
strokes_ogs.tif
176
     0
290
     0
176
     0
 40
1.0
176
     0
 40
1.0
176
     0
1001
ACAD
1000
AcDbSavedByObjectVersion
1070
     0
  0
VISUALSTYLE
  5
11ECE
102
{ACAD_REACTORS
330
11EC4
102
}
330
11EC4
100
AcDbVisualStyle
  2
Realistic
 70
     8
177
     3
291
     0
 70
    58
 90
        2
176
     1
 90
        2
176
     1
 90
        0
176
     1
 90
        0
176
     1
 40
0.6
176
     1
 40
30.0
176
     1
 62
     7
176
     1
 90
        1
176
     1
 90
        0
176
     1
 62
     7
176
     1
 62
   257
176
     1
 90
        1
176
     1
 90
        1
176
     1
 40
1.0
176
     1
 90
        8
176
     1
 62
     8
176
     1
 40
1.0
176
     1
 90
        1
176
     1
 90
        6
176
     1
 90
        2
176
     1
 62
     7
176
     1
 90
        5
176
     1
 90
        0
176
     1
 90
        0
176
     1
290
     0
176
     1
 90
       13
176
     1
 40
0.0
176
     1
 90
        0
176
     1
290
     0
176
     1
290
     1
176
     1
290
     1
176
     1
290
     0
176
     1
290
     0
176
     1
290
     0
176
     1
290
     0
176
     1
290
     0
176
     1
290
     0
176
     1
 90
       50
176
     1
 40
0.0
176
     1
 40
1.0
176
     1
 90
        0
176
     1
 62
    18
420
        0
176
     1
 90
       50
176
     1
 90
        3
176
     1
 62
     5
420
      255
176
     1
290
     0
176
     1
 90
       50
176
     1
 90
       50
176
     1
 90
       50
176
     1
290
     0
176
     1
 90
       50
176
     1
 62
   256
176
     0
 40
1.0
176
     0
 90
        2
176
     1
  1
strokes_ogs.tif
176
     1
290
     0
176
     1
 40
1.0
176
     1
 40
1.0
176
     1
1001
ACAD
1000
AcRTDxfName
1000
VISUALSTYLE
1000
AcRTDxfName
1000
VISUALSTYLE
1000
AcRTDxfName
1000
VISUALSTYLE
1000
AcDbSavedByObjectVersion
1070
     0
  0
VISUALSTYLE
  5
13159
102
{ACAD_REACTORS
330
11EC4
102
}
330
11EC4
100
AcDbVisualStyle
  2
Shaded
 70
    27
177
     3
291
     0
 70
    58
 90
        2
176
     1
 90
        2
176
     1
 90
        1
176
     1
 90
        2
176
     1
 40
0.6
176
     1
 40
30.0
176
     1
 62
     7
420
 16777215
176
     1
 90
        0
176
     1
 90
        4
176
     1
 62
     7
176
     1
 62
   257
176
     1
 90
        1
176
     1
 90
        1
176
     1
 40
1.0
176
     1
 90
        8
176
     1
 62
   257
176
     1
 40
1.0
176
     1
 90
        1
176
     1
 90
        6
176
     1
 90
        2
176
     1
 62
     8
420
  7895160
176
     1
 90
        3
176
     1
 90
        0
176
     1
 90
        0
176
     1
290
     0
176
     1
 90
        5
176
     1
 40
0.0
176
     1
 90
        0
176
     1
290
     0
176
     1
290
     1
176
     1
290
     1
176
     1
290
     0
176
     1
290
     0
176
     1
290
     0
176
     1
290
     0
176
     1
290
     0
176
     1
290
     0
176
     1
 90
       50
176
     1
 40
0.0
176
     1
 40
1.0
176
     1
 90
        0
176
     1
 62
    18
420
        0
176
     1
 90
       50
176
     1
 90
        3
176
     1
 62
     5
420
      255
176
     1
290
     0
176
     1
 90
       50
176
     1
 90
       50
176
     1
 90
       50
176
     1
290
     0
176
     1
 90
       50
176
     1
 62
   256
176
     0
 40
1.0
176
     0
 90
        2
176
     1
  1
strokes_ogs.tif
176
     1
290
     0
176
     1
 40
1.0
176
     1
 40
1.0
176
     1
1001
ACAD
1000
AcDbSavedByObjectVersion
1070
     0
  0
VISUALSTYLE
  5
13158
102
{ACAD_REACTORS
330
11EC4
102
}
330
11EC4
100
AcDbVisualStyle
  2
Shaded with edges
 70
    26
177
     3
291
     0
 70
    58
 90
        2
176
     1
 90
        2
176
     1
 90
        1
176
     1
 90
        2
176
     1
 40
0.6
176
     1
 40
30.0
176
     1
 62
     7
420
 16777215
176
     1
 90
        1
176
     1
 90
        2
176
     1
 62
     7
176
     1
 62
   257
176
     1
 90
        2
176
     1
 90
        1
176
     1
 40
1.0
176
     1
 90
        8
176
     1
 62
   257
176
     1
 40
1.0
176
     1
 90
        1
176
     1
 90
        6
176
     1
 90
        2
176
     1
 62
     7
176
     1
 90
        3
176
     1
 90
        0
176
     1
 90
        0
176
     1
290
     0
176
     1
 90
        5
176
     1
 40
0.0
176
     1
 90
        0
176
     1
290
     0
176
     1
290
     1
176
     1
290
     1
176
     1
290
     0
176
     1
290
     0
176
     1
290
     0
176
     1
290
     0
176
     1
290
     0
176
     1
290
     0
176
     1
 90
       50
176
     1
 40
0.0
176
     1
 40
1.0
176
     1
 90
        0
176
     1
 62
    18
420
        0
176
     1
 90
       50
176
     1
 90
        3
176
     1
 62
     5
420
      255
176
     1
290
     0
176
     1
 90
       50
176
     1
 90
       50
176
     1
 90
       50
176
     1
290
     0
176
     1
 90
       50
176
     1
 62
   256
176
     0
 40
1.0
176
     0
 90
        2
176
     1
  1
strokes_ogs.tif
176
     1
290
     0
176
     1
 40
1.0
176
     1
 40
1.0
176
     1
1001
ACAD
1000
AcDbSavedByObjectVersion
1070
     0
  0
VISUALSTYLE
  5
13155
102
{ACAD_REACTORS
330
11EC4
102
}
330
11EC4
100
AcDbVisualStyle
  2
Shades of Gray
 70
    23
177
     3
291
     0
 70
    58
 90
        2
176
     1
 90
        2
176
     1
 90
        3
176
     1
 90
        0
176
     1
 40
0.6
176
     1
 40
30.0
176
     1
 62
     7
420
 16777215
176
     1
 90
        2
176
     1
 90
        2
176
     1
 62
     7
176
     1
 62
     7
176
     1
 90
        1
176
     1
 90
        1
176
     1
 40
40.0
176
     1
 90
        8
176
     1
 62
     7
176
     1
 40
1.0
176
     1
 90
        1
176
     1
 90
        6
176
     1
 90
        2
176
     1
 62
     7
176
     1
 90
        3
176
     1
 90
        0
176
     1
 90
        0
176
     1
290
     0
176
     1
 90
        1
176
     1
 40
0.0
176
     1
 90
        0
176
     1
290
     0
176
     1
290
     1
176
     1
290
     1
176
     1
290
     0
176
     1
290
     0
176
     1
290
     0
176
     1
290
     0
176
     1
290
     0
176
     1
290
     0
176
     1
 90
       50
176
     1
 40
0.0
176
     1
 40
1.0
176
     1
 90
        0
176
     1
 62
    18
420
        0
176
     1
 90
       50
176
     1
 90
        3
176
     1
 62
     5
420
      255
176
     1
290
     0
176
     1
 90
       50
176
     1
 90
       50
176
     1
 90
       50
176
     1
290
     0
176
     1
 90
       50
176
     1
 62
   256
176
     0
 40
1.0
176
     0
 90
        2
176
     1
  1
strokes_ogs.tif
176
     1
290
     0
176
     1
 40
1.0
176
     1
 40
1.0
176
     1
1001
ACAD
1000
AcDbSavedByObjectVersion
1070
     0
  0
VISUALSTYLE
  5
13156
102
{ACAD_REACTORS
330
11EC4
102
}
330
11EC4
100
AcDbVisualStyle
  2
Sketchy
 70
    24
177
     3
291
     0
 70
    58
 90
        1
176
     1
 90
        2
176
     1
 90
        2
176
     1
 90
        0
176
     1
 40
0.6
176
     1
 40
30.0
176
     1
 62
     7
420
 16777215
176
     1
 90
        2
176
     1
 90
        2
176
     1
 62
     7
176
     1
 62
     7
176
     1
 90
        1
176
     1
 90
        1
176
     1
 40
40.0
176
     1
 90
       11
176
     1
 62
     7
176
     1
 40
1.0
176
     1
 90
        1
176
     1
 90
        6
176
     1
 90
        2
176
     1
 62
     7
176
     1
 90
        6
176
     1
 90
        0
176
     1
 90
        0
176
     1
290
     0
176
     1
 90
        1
176
     1
 40
0.0
176
     1
 90
        0
176
     1
290
     0
176
     1
290
     1
176
     1
290
     1
176
     1
290
     0
176
     1
290
     0
176
     1
290
     0
176
     1
290
     0
176
     1
290
     0
176
     1
290
     0
176
     1
 90
       50
176
     1
 40
0.0
176
     1
 40
1.0
176
     1
 90
        0
176
     1
 62
    18
420
        0
176
     1
 90
       50
176
     1
 90
        3
176
     1
 62
     5
420
      255
176
     1
290
     0
176
     1
 90
       50
176
     1
 90
       50
176
     1
 90
       50
176
     1
290
     0
176
     1
 90
       50
176
     1
 62
   256
176
     0
 40
1.0
176
     0
 90
        2
176
     1
  1
strokes_ogs.tif
176
     1
290
     0
176
     1
 40
1.0
176
     1
 40
1.0
176
     1
1001
ACAD
1000
AcDbSavedByObjectVersion
1070
     0
  0
VISUALSTYLE
  5
11ED1
102
{ACAD_REACTORS
330
11EC4
102
}
330
11EC4
100
AcDbVisualStyle
  2
Thicken
 70
    13
177
     3
291
     1
 70
    58
 90
        2
176
     1
 90
        2
176
     1
 90
        0
176
     1
 90
        0
176
     1
 40
0.6
176
     1
 40
30.0
176
     1
 62
     7
176
     1
 90
        1
176
     1
 90
        4
176
     1
 62
     7
176
     1
 62
   257
176
     1
 90
        1
176
     1
 90
        1
176
     1
 40
1.0
176
     1
 90
       12
176
     1
 62
     7
176
     1
 40
1.0
176
     1
 90
        1
176
     1
 90
        6
176
     1
 90
        2
176
     1
 62
     7
176
     1
 90
        5
176
     1
 90
        0
176
     1
 90
        0
176
     1
290
     0
176
     1
 90
        1
176
     1
 40
0.0
176
     1
 90
        0
176
     1
290
     0
176
     1
290
     1
176
     1
290
     1
176
     1
290
     0
176
     1
290
     0
176
     1
290
     0
176
     1
290
     0
176
     1
290
     0
176
     1
290
     0
176
     1
 90
       50
176
     1
 40
0.0
176
     1
 40
1.0
176
     1
 90
        0
176
     1
 62
    18
420
        0
176
     1
 90
       50
176
     1
 90
        3
176
     1
 62
     5
420
      255
176
     1
290
     0
176
     1
 90
       50
176
     1
 90
       50
176
     1
 90
       50
176
     1
290
     0
176
     1
 90
       50
176
     1
 62
   256
176
     0
 40
1.0
176
     0
 90
        2
176
     1
  1
strokes_ogs.tif
176
     1
290
     0
176
     1
 40
1.0
176
     1
 40
1.0
176
     1
1001
ACAD
1000
AcRTDxfName
1000
VISUALSTYLE
1000
AcRTDxfName
1000
VISUALSTYLE
1000
AcRTDxfName
1000
VISUALSTYLE
1000
AcDbSavedByObjectVersion
1070
     0
  0
VISUALSTYLE
  5
13153
102
{ACAD_REACTORS
330
11EC4
102
}
330
11EC4
100
AcDbVisualStyle
  2
Wireframe
 70
     5
177
     3
291
     0
 70
    58
 90
        0
176
     1
 90
        2
176
     1
 90
        0
176
     1
 90
        0
176
     1
 40
0.6
176
     1
 40
30.0
176
     1
 62
     7
420
 16777215
176
     1
 90
        1
176
     1
 90
        4
176
     1
 62
     7
176
     1
 62
   257
176
     1
 90
        1
176
     1
 90
        1
176
     1
 40
1.0
176
     1
 90
        0
176
     1
 62
   257
176
     1
 40
1.0
176
     1
 90
        1
176
     1
 90
        6
176
     1
 90
        2
176
     1
 62
     7
176
     1
 90
        3
176
     1
 90
        0
176
     1
 90
        0
176
     1
290
     0
176
     1
 90
        1
176
     1
 40
0.0
176
     1
 90
        0
176
     1
290
     0
176
     1
290
     1
176
     1
290
     1
176
     1
290
     0
176
     1
290
     0
176
     1
290
     0
176
     1
290
     0
176
     1
290
     0
176
     1
290
     0
176
     1
 90
       50
176
     1
 40
0.0
176
     1
 40
1.0
176
     1
 90
        0
176
     1
 62
    18
420
        0
176
     1
 90
       50
176
     1
 90
        3
176
     1
 62
     5
420
      255
176
     1
290
     0
176
     1
 90
       50
176
     1
 90
       50
176
     1
 90
       50
176
     1
290
     0
176
     1
 90
       50
176
     1
 62
   256
176
     0
 40
1.0
176
     0
 90
        2
176
     1
  1
strokes_ogs.tif
176
     1
290
     0
176
     1
 40
1.0
176
     1
 40
1.0
176
     1
1001
ACAD
1000
AcDbSavedByObjectVersion
1070
     0
  0
VISUALSTYLE
  5
13157
102
{ACAD_REACTORS
330
11EC4
102
}
330
11EC4
100
AcDbVisualStyle
  2
X-Ray
 70
    25
177
     3
291
     0
 70
    58
 90
        2
176
     1
 90
        2
176
     1
 90
        1
176
     1
 90
        1
176
     1
 40
0.5
176
     1
 40
30.0
176
     1
 62
     7
420
 16777215
176
     1
 90
        1
176
     1
 90
        0
176
     1
 62
     7
176
     1
 62
   257
176
     1
 90
        1
176
     1
 90
        1
176
     1
 40
1.0
176
     1
 90
        8
176
     1
 62
     7
176
     1
 40
1.0
176
     1
 90
        1
176
     1
 90
        6
176
     1
 90
        2
176
     1
 62
     7
176
     1
 90
        3
176
     1
 90
        0
176
     1
 90
        0
176
     1
290
     0
176
     1
 90
       13
176
     1
 40
0.0
176
     1
 90
        0
176
     1
290
     0
176
     1
290
     1
176
     1
290
     1
176
     1
290
     0
176
     1
290
     0
176
     1
290
     0
176
     1
290
     0
176
     1
290
     0
176
     1
290
     0
176
     1
 90
       50
176
     1
 40
0.0
176
     1
 40
1.0
176
     1
 90
        0
176
     1
 62
    18
420
        0
176
     1
 90
       50
176
     1
 90
        3
176
     1
 62
     5
420
      255
176
     1
290
     0
176
     1
 90
       50
176
     1
 90
       50
176
     1
 90
       50
176
     1
290
     0
176
     1
 90
       50
176
     1
 62
   256
176
     0
 40
1.0
176
     0
 90
        2
176
     1
  1
strokes_ogs.tif
176
     1
290
     0
176
     1
 40
1.0
176
     1
 40
1.0
176
     1
1001
ACAD
1000
AcDbSavedByObjectVersion
1070
     0
  0
DICTIONARYVAR
  5
12013
102
{ACAD_REACTORS
330
5E
102
}
330
5E
100
DictionaryVariables
280
     0
  1
1:1
  0
DICTIONARYVAR
  5
12012
102
{ACAD_REACTORS
330
5E
102
}
330
5E
100
DictionaryVariables
280
     0
  1
STANDARD
  0
DICTIONARYVAR
  5
84
102
{ACAD_REACTORS
330
5E
102
}
330
5E
100
DictionaryVariables
280
     0
  1
STANDARD
  0
DICTIONARYVAR
  5
13F60
102
{ACAD_REACTORS
330
5E
102
}
330
5E
100
DictionaryVariables
280
     0
  1
Metric50
  0
DICTIONARYVAR
  5
13F61
102
{ACAD_REACTORS
330
5E
102
}
330
5E
100
DictionaryVariables
280
     0
  1
Metric50
  0
DICTIONARYVAR
  5
5F
102
{ACAD_REACTORS
330
5E
102
}
330
5E
100
DictionaryVariables
280
     0
  1
2
  0
DICTIONARYVAR
  5
63
102
{ACAD_REACTORS
330
5E
102
}
330
5E
100
DictionaryVariables
280
     0
  1
1
  0
DICTIONARYVAR
  5
12015
102
{ACAD_REACTORS
330
5E
102
}
330
5E
100
DictionaryVariables
280
     0
  1
0
  0
DICTIONARYVAR
  5
13F64
102
{ACAD_REACTORS
330
5E
102
}
330
5E
100
DictionaryVariables
280
     0
  1
1
  0
DICTIONARYVAR
  5
13F65
102
{ACAD_REACTORS
330
5E
102
}
330
5E
100
DictionaryVariables
280
     0
  1
15
  0
DICTIONARYVAR
  5
13F63
102
{ACAD_REACTORS
330
5E
102
}
330
5E
100
DictionaryVariables
280
     0
  1
0
  0
DICTIONARYVAR
  5
13F62
102
{ACAD_REACTORS
330
5E
102
}
330
5E
100
DictionaryVariables
280
     0
  1
0
  0
DICTIONARYVAR
  5
125BD
102
{ACAD_REACTORS
330
5E
102
}
330
5E
100
DictionaryVariables
280
     0
  1

  0
DICTIONARYVAR
  5
12014
102
{ACAD_REACTORS
330
5E
102
}
330
5E
100
DictionaryVariables
280
     0
  1
127
  0
DICTIONARY
  5
1422A
102
{ACAD_REACTORS
330
14228
102
}
330
14228
100
AcDbDictionary
281
     1
  0
DICTIONARY
  5
14229
102
{ACAD_REACTORS
330
14228
102
}
330
14228
100
AcDbDictionary
281
     1
  3
2505980011696
350
14223
  3
2505980011712
350
14224
  3
2505980011728
350
14225
  3
2505980011744
350
14226
  3
2505980011760
350
14227
  0
DICTIONARY
  5
1422D
330
13160
100
AcDbDictionary
280
     1
281
     1
  3
ACAD_XREC_ROUNDTRIP
360
1422E
  0
DICTIONARY
  5
79B
330
78E
100
AcDbDictionary
280
     1
281
     1
  0
DICTIONARY
  5
11EB5
330
11EB4
100
AcDbDictionary
280
     1
281
     1
  3
BUMPTILE
360
11EB7
  3
DIFFUSETILE
360
11EB6
  3
OPACITYTILE
360
11EBA
  3
REFLECTIONTILE
360
11EB9
  3
REFRACTIONTILE
360
11EBB
  3
SPECULARTILE
360
11EB8
  0
DICTIONARY
  5
11EAD
330
11EAC
100
AcDbDictionary
280
     1
281
     1
  3
BUMPTILE
360
11EAF
  3
DIFFUSETILE
360
11EAE
  3
OPACITYTILE
360
11EB2
  3
REFLECTIONTILE
360
11EB1
  3
REFRACTIONTILE
360
11EB3
  3
SPECULARTILE
360
11EB0
  0
DICTIONARY
  5
11EBD
330
11EBC
100
AcDbDictionary
280
     1
281
     1
  3
BUMPTILE
360
11EBF
  3
DIFFUSETILE
360
11EBE
  3
OPACITYTILE
360
11EC2
  3
REFLECTIONTILE
360
11EC1
  3
REFRACTIONTILE
360
11EC3
  3
SPECULARTILE
360
11EC0
  0
DICTIONARY
  5
1422B
330
1315E
100
AcDbDictionary
280
     1
281
     1
  3
ACAD_XREC_ROUNDTRIP
360
1422C
  0
DICTIONARY
  5
11FFF
330
7F
100
AcDbDictionary
280
     1
281
     1
  3
ACAD_ROUNDTRIP_2008_TABLESTYLE_CELLSTYLEMAP
360
14221
  0
XRECORD
  5
14223
102
{ACAD_REACTORS
330
14229
102
}
330
14229
100
AcDbXrecord
280
     1
  1
AcDb_Thumbnail_Schema
102
{ATTRRECORD
341
14224
  2
AcDbDs::TreatedAsObjectData
280
     1
291
     1
102
ATTRRECORD}
102
{ATTRRECORD
341
14225
  2
AcDbDs::Legacy
280
     1
291
     1
102
ATTRRECORD}
  2
AcDbDs::ID
280
    10
 91
        8
102
{ATTRRECORD
341
14226
  2
AcDs:Indexable
280
     1
291
     1
102
ATTRRECORD}
102
{ATTRRECORD
341
14227
  2
AcDbDs::HandleAttribute
280
     7
282
     1
102
ATTRRECORD}
  2
Thumbnail_Data
280
    15
 91
        0
  0
XRECORD
  5
14224
102
{ACAD_REACTORS
330
14229
102
}
330
14229
100
AcDbXrecord
280
     1
  1
AcDbDs::TreatedAsObjectDataSchema
  2
AcDbDs::TreatedAsObjectData
280
     1
 91
        0
  0
XRECORD
  5
14225
102
{ACAD_REACTORS
330
14229
102
}
330
14229
100
AcDbXrecord
280
     1
  1
AcDbDs::LegacySchema
  2
AcDbDs::Legacy
280
     1
 91
        0
  0
XRECORD
  5
14226
102
{ACAD_REACTORS
330
14229
102
}
330
14229
100
AcDbXrecord
280
     1
  1
AcDbDs::IndexedPropertySchema
  2
AcDs:Indexable
280
     1
 91
        0
  0
XRECORD
  5
14227
102
{ACAD_REACTORS
330
14229
102
}
330
14229
100
AcDbXrecord
280
     1
  1
AcDbDs::HandleAttributeSchema
  2
AcDbDs::HandleAttribute
280
     7
 91
        1
284
     1
  0
XRECORD
  5
1422E
102
{ACAD_REACTORS
330
1422D
102
}
330
1422D
100
AcDbXrecord
280
     1
102
DISPLAYNAME
  1
Metric50
102
FLAGS
 90
        0
  0
XRECORD
  5
11EB7
102
{ACAD_REACTORS
330
11EB5
102
}
330
11EB5
100
AcDbXrecord
280
     1
270
     1
271
     1
  0
XRECORD
  5
11EB6
102
{ACAD_REACTORS
330
11EB5
102
}
330
11EB5
100
AcDbXrecord
280
     1
270
     1
271
     1
  0
XRECORD
  5
11EBA
102
{ACAD_REACTORS
330
11EB5
102
}
330
11EB5
100
AcDbXrecord
280
     1
270
     1
271
     1
  0
XRECORD
  5
11EB9
102
{ACAD_REACTORS
330
11EB5
102
}
330
11EB5
100
AcDbXrecord
280
     1
270
     1
271
     1
  0
XRECORD
  5
11EBB
102
{ACAD_REACTORS
330
11EB5
102
}
330
11EB5
100
AcDbXrecord
280
     1
270
     1
271
     1
  0
XRECORD
  5
11EB8
102
{ACAD_REACTORS
330
11EB5
102
}
330
11EB5
100
AcDbXrecord
280
     1
270
     1
271
     1
  0
XRECORD
  5
11EAF
102
{ACAD_REACTORS
330
11EAD
102
}
330
11EAD
100
AcDbXrecord
280
     1
270
     1
271
     1
  0
XRECORD
  5
11EAE
102
{ACAD_REACTORS
330
11EAD
102
}
330
11EAD
100
AcDbXrecord
280
     1
270
     1
271
     1
  0
XRECORD
  5
11EB2
102
{ACAD_REACTORS
330
11EAD
102
}
330
11EAD
100
AcDbXrecord
280
     1
270
     1
271
     1
  0
XRECORD
  5
11EB1
102
{ACAD_REACTORS
330
11EAD
102
}
330
11EAD
100
AcDbXrecord
280
     1
270
     1
271
     1
  0
XRECORD
  5
11EB3
102
{ACAD_REACTORS
330
11EAD
102
}
330
11EAD
100
AcDbXrecord
280
     1
270
     1
271
     1
  0
XRECORD
  5
11EB0
102
{ACAD_REACTORS
330
11EAD
102
}
330
11EAD
100
AcDbXrecord
280
     1
270
     1
271
     1
  0
XRECORD
  5
11EBF
102
{ACAD_REACTORS
330
11EBD
102
}
330
11EBD
100
AcDbXrecord
280
     1
270
     1
271
     1
  0
XRECORD
  5
11EBE
102
{ACAD_REACTORS
330
11EBD
102
}
330
11EBD
100
AcDbXrecord
280
     1
270
     1
271
     1
  0
XRECORD
  5
11EC2
102
{ACAD_REACTORS
330
11EBD
102
}
330
11EBD
100
AcDbXrecord
280
     1
270
     1
271
     1
  0
XRECORD
  5
11EC1
102
{ACAD_REACTORS
330
11EBD
102
}
330
11EBD
100
AcDbXrecord
280
     1
270
     1
271
     1
  0
XRECORD
  5
11EC3
102
{ACAD_REACTORS
330
11EBD
102
}
330
11EBD
100
AcDbXrecord
280
     1
270
     1
271
     1
  0
XRECORD
  5
11EC0
102
{ACAD_REACTORS
330
11EBD
102
}
330
11EBD
100
AcDbXrecord
280
     1
270
     1
271
     1
  0
XRECORD
  5
1422C
102
{ACAD_REACTORS
330
1422B
102
}
330
1422B
100
AcDbXrecord
280
     1
102
DISPLAYNAME
  1
Metric50
102
FLAGS
 90
        0
  0
CELLSTYLEMAP
  5
14221
102
{ACAD_REACTORS
330
11FFF
102
}
330
11FFF
100
AcDbCellStyleMap
 90
        3
300
CELLSTYLE
  1
TABLEFORMAT_BEGIN
 90
        5
170
     1
 91
        0
 92
    32768
 62
   257
 93
        1
300
CONTENTFORMAT
  1
CONTENTFORMAT_BEGIN
 90
        0
 91
        0
 92
        4
 93
        0
300

 40
0.0
140
1.0
 94
        5
 62
     0
340
11
144
6.0
309
CONTENTFORMAT_END
171
     1
301
MARGIN
  1
CELLMARGIN_BEGIN
 40
1.5
 40
1.5
 40
1.5
 40
1.5
 40
0.18
 40
0.18
309
CELLMARGIN_END
 94
        6
 95
        1
302
GRIDFORMAT
  1
GRIDFORMAT_BEGIN
 90
        0
 91
        1
 62
     0
 92
       -2
340
0
 93
        0
 40
0.045
309
GRIDFORMAT_END
 95
        2
302
GRIDFORMAT
  1
GRIDFORMAT_BEGIN
 90
        0
 91
        1
 62
     0
 92
       -2
340
0
 93
        0
 40
0.045
309
GRIDFORMAT_END
 95
        4
302
GRIDFORMAT
  1
GRIDFORMAT_BEGIN
 90
        0
 91
        1
 62
     0
 92
       -2
340
0
 93
        0
 40
0.045
309
GRIDFORMAT_END
 95
        8
302
GRIDFORMAT
  1
GRIDFORMAT_BEGIN
 90
        0
 91
        1
 62
     0
 92
       -2
340
0
 93
        0
 40
0.045
309
GRIDFORMAT_END
 95
       16
302
GRIDFORMAT
  1
GRIDFORMAT_BEGIN
 90
        0
 91
        1
 62
     0
 92
       -2
340
0
 93
        0
 40
0.045
309
GRIDFORMAT_END
 95
       32
302
GRIDFORMAT
  1
GRIDFORMAT_BEGIN
 90
        0
 91
        1
 62
     0
 92
       -2
340
0
 93
        0
 40
0.045
309
GRIDFORMAT_END
309
TABLEFORMAT_END
  1
CELLSTYLE_BEGIN
 90
        1
 91
        1
300
_TITLE
309
CELLSTYLE_END
300
CELLSTYLE
  1
TABLEFORMAT_BEGIN
 90
        5
170
     1
 91
        0
 92
        0
 62
   257
 93
        1
300
CONTENTFORMAT
  1
CONTENTFORMAT_BEGIN
 90
        0
 91
        0
 92
        4
 93
        0
300

 40
0.0
140
1.0
 94
        5
 62
     0
340
11
144
4.5
309
CONTENTFORMAT_END
171
     1
301
MARGIN
  1
CELLMARGIN_BEGIN
 40
1.5
 40
1.5
 40
1.5
 40
1.5
 40
0.18
 40
0.18
309
CELLMARGIN_END
 94
        6
 95
        1
302
GRIDFORMAT
  1
GRIDFORMAT_BEGIN
 90
        0
 91
        1
 62
     0
 92
       -2
340
0
 93
        0
 40
0.045
309
GRIDFORMAT_END
 95
        2
302
GRIDFORMAT
  1
GRIDFORMAT_BEGIN
 90
        0
 91
        1
 62
     0
 92
       -2
340
0
 93
        0
 40
0.045
309
GRIDFORMAT_END
 95
        4
302
GRIDFORMAT
  1
GRIDFORMAT_BEGIN
 90
        0
 91
        1
 62
     0
 92
       -2
340
0
 93
        0
 40
0.045
309
GRIDFORMAT_END
 95
        8
302
GRIDFORMAT
  1
GRIDFORMAT_BEGIN
 90
        0
 91
        1
 62
     0
 92
       -2
340
0
 93
        0
 40
0.045
309
GRIDFORMAT_END
 95
       16
302
GRIDFORMAT
  1
GRIDFORMAT_BEGIN
 90
        0
 91
        1
 62
     0
 92
       -2
340
0
 93
        0
 40
0.045
309
GRIDFORMAT_END
 95
       32
302
GRIDFORMAT
  1
GRIDFORMAT_BEGIN
 90
        0
 91
        1
 62
     0
 92
       -2
340
0
 93
        0
 40
0.045
309
GRIDFORMAT_END
309
TABLEFORMAT_END
  1
CELLSTYLE_BEGIN
 90
        2
 91
        1
300
_HEADER
309
CELLSTYLE_END
300
CELLSTYLE
  1
TABLEFORMAT_BEGIN
 90
        5
170
     1
 91
        0
 92
        0
 62
   257
 93
        1
300
CONTENTFORMAT
  1
CONTENTFORMAT_BEGIN
 90
        0
 91
        0
 92
        4
 93
        0
300

 40
0.0
140
1.0
 94
        2
 62
     0
340
11
144
4.5
309
CONTENTFORMAT_END
171
     1
301
MARGIN
  1
CELLMARGIN_BEGIN
 40
1.5
 40
1.5
 40
1.5
 40
1.5
 40
0.18
 40
0.18
309
CELLMARGIN_END
 94
        6
 95
        1
302
GRIDFORMAT
  1
GRIDFORMAT_BEGIN
 90
        0
 91
        1
 62
     0
 92
       -2
340
0
 93
        0
 40
0.045
309
GRIDFORMAT_END
 95
        2
302
GRIDFORMAT
  1
GRIDFORMAT_BEGIN
 90
        0
 91
        1
 62
     0
 92
       -2
340
0
 93
        0
 40
0.045
309
GRIDFORMAT_END
 95
        4
302
GRIDFORMAT
  1
GRIDFORMAT_BEGIN
 90
        0
 91
        1
 62
     0
 92
       -2
340
0
 93
        0
 40
0.045
309
GRIDFORMAT_END
 95
        8
302
GRIDFORMAT
  1
GRIDFORMAT_BEGIN
 90
        0
 91
        1
 62
     0
 92
       -2
340
0
 93
        0
 40
0.045
309
GRIDFORMAT_END
 95
       16
302
GRIDFORMAT
  1
GRIDFORMAT_BEGIN
 90
        0
 91
        1
 62
     0
 92
       -2
340
0
 93
        0
 40
0.045
309
GRIDFORMAT_END
 95
       32
302
GRIDFORMAT
  1
GRIDFORMAT_BEGIN
 90
        0
 91
        1
 62
     0
 92
       -2
340
0
 93
        0
 40
0.045
309
GRIDFORMAT_END
309
TABLEFORMAT_END
  1
CELLSTYLE_BEGIN
 90
        3
 91
        2
300
_DATA
309
CELLSTYLE_END
  0
ENDSEC
  0
SECTION
  2
ACDSDATA
 70
     2
 71
     8
  0
ACDSSCHEMA
 90
        0
  1
AcDb_Thumbnail_Schema
  2
AcDbDs::ID
280
    10
 91
        8
  2
Thumbnail_Data
280
    15
 91
        0
101
ACDSRECORD
 95
        0
 90
        1
  2
AcDbDs::TreatedAsObjectData
280
     1
291
     1
101
ACDSRECORD
 95
        0
 90
        2
  2
AcDbDs::Legacy
280
     1
291
     1
101
ACDSRECORD
  1
AcDbDs::ID
 90
        3
  2
AcDs:Indexable
280
     1
291
     1
101
ACDSRECORD
  1
AcDbDs::ID
 90
        4
  2
AcDbDs::HandleAttribute
280
     7
282
     1
  0
ACDSSCHEMA
 90
        1
  1
AcDbDs::TreatedAsObjectDataSchema
  2
AcDbDs::TreatedAsObjectData
280
     1
 91
        0
  0
ACDSSCHEMA
 90
        2
  1
AcDbDs::LegacySchema
  2
AcDbDs::Legacy
280
     1
 91
        0
  0
ACDSSCHEMA
 90
        3
  1
AcDbDs::IndexedPropertySchema
  2
AcDs:Indexable
280
     1
 91
        0
  0
ACDSSCHEMA
 90
        4
  1
AcDbDs::HandleAttributeSchema
  2
AcDbDs::HandleAttribute
280
     7
 91
        1
284
     1
  0
ACDSRECORD
 90
        0
  2
AcDbDs::ID
280
    10
320
22
  2
Thumbnail_Data
280
    15
 94
     2441
310
89504E470D0A1A0A0000000D4948445200000100000000870803000000CE6E778000000300504C5445000000FFFFFF0000000000000000000000000000000000000000000000000000000000330000660000990000CC0000FF0033000033330033660033990033CC0033FF0066000066330066660066990066CC0066FF0099
310
000099330099660099990099CC0099FF00CC0000CC3300CC6600CC9900CCCC00CCFF00FF0000FF3300FF6600FF9900FFCC00FFFF3300003300333300663300993300CC3300FF3333003333333333663333993333CC3333FF3366003366333366663366993366CC3366FF3399003399333399663399993399CC3399FF33CC00
310
33CC3333CC6633CC9933CCCC33CCFF33FF0033FF3333FF6633FF9933FFCC33FFFF6600006600336600666600996600CC6600FF6633006633336633666633996633CC6633FF6666006666336666666666996666CC6666FF6699006699336699666699996699CC6699FF66CC0066CC3366CC6666CC9966CCCC66CCFF66FF0066
310
FF3366FF6666FF9966FFCC66FFFF9900009900339900669900999900CC9900FF9933009933339933669933999933CC9933FF9966009966339966669966999966CC9966FF9999009999339999669999999999CC9999FF99CC0099CC3399CC6699CC9999CCCC99CCFF99FF0099FF3399FF6699FF9999FFCC99FFFFCC0000CC00
310
33CC0066CC0099CC00CCCC00FFCC3300CC3333CC3366CC3399CC33CCCC33FFCC6600CC6633CC6666CC6699CC66CCCC66FFCC9900CC9933CC9966CC9999CC99CCCC99FFCCCC00CCCC33CCCC66CCCC99CCCCCCCCCCFFCCFF00CCFF33CCFF66CCFF99CCFFCCCCFFFFFF0000FF0033FF0066FF0099FF00CCFF00FFFF3300FF3333
310
FF3366FF3399FF33CCFF33FFFF6600FF6633FF6666FF6699FF66CCFF66FFFF9900FF9933FF9966FF9999FF99CCFF99FFFFCC00FFCC33FFCC66FFCC99FFCCCCFFCCFFFFFF00FFFF33FFFF66FFFF99FFFFCCFFFFFF0000000D0D0D1A1A1A2828283535354343435050505D5D5D6B6B6B787878868686939393A1A1A1AEAEAEBB
310
BBBBC9C9C9D6D6D6E4E4E4F1F1F1FFFFFF0000000000000000000000000000000000000000000000000000000000003AE5ACE90000062D4944415478DAED9D4BBAAB200C80D910FB9F31711BD906F323F230BCC1723428F4BBB7B4155A7E03090970185BA992E4D4690480A9EFDE0230A48E79E57F1480696FFF02B000D001
310
0000FB7FC7131CF977018016005EFAB942620086A79925A0F4EB4B4DC31FCD0CA070FF8A37D7FB687581492500DC280FC9BE11350D5ACA4D2101A124B06E00F85398B00BA4C7B90E75E7151B40E04E00D7FBF23F8E028F74816E83063AEB5B0022D9F92A807A57793700F87A17981540E4A7BD0800041D00473F949B14E661
310
9F74DA023F1D0F5E80C9BA723AB345FDDBBCA1AF8616CFF76D00F49DCD01105EDA3FF592E31300D0ED8A2D2AC95502CE04B7890A8064C9E883F0BAE375A2B0792B0660F27BBB39FA169A008E3765A90B1C128C8B420B00A1DAAFEEBCA00EC0343F2F01AAF532ECE55500B0B77C6FBF3022460380C88DCA5500B165A3EB1339
310
006AE85000A4BEE67100300A002B0280530254CB391766A07C1A80F9C1596DD4210138137601003C08CA4302680C82FF0900D9013E00C64EED47038040C37AA8F879DE0E503AC164919D0376E88C008853FBBB24DE2201BEF13B8F04B0F15D20A906C98E0123D4A071093B55505683C4B4C00000D800B09989EC809F2D41C9
310
C2F61F8361DE1294142DC11FE6027B6BE3C940712EC026990B34CE0621F505E5D920A7381BCCA5B23FA0BCC22FE70FE0B4FC01C680493B4464C523947388943D422811718B37D7F6635DAEB9A2EE1D7DE52229E8700FBF1A4026FCFC3C001BE6BF18DDAC064771349D2200603F8577EBD1E19E20F25312308CC09463000CE9
310
E183340E09002D710157704E00DA3ED94DB2206495B6837286903271005FF6BB00DD3E17E0FE4F30C66AD914D617992EEF4AF3ACC1E4291988B27E6CE1F6C990B4F31A33653952713A2C250200A8780B80DA2AC3BB01280B9EA97F47C6F30894E602AE657B0F50C585AE47D63585B5062C3DFFDDFB3D42D23CEC539F4FD095
310
93CADB67BC3DD725006E97003B951336D3070097D499B2B1A91FE1CA4AF026D0777B85B5B78A5BB755BF04E8E23251AA6C0BE6F4C0AD71815D6285F156D94C1F00A11587CD88AC9795A500C07376801D70F8A9C2024B871700043AE22CCC65EBFDCFDBCDF786C6782E954363F96273012849407378BC4D0292865092C0DDEB
310
03860E82FD6AF069AFB06F06FDA71AB4DF09D833F45C17186F08B19221447236884C616165A05F0D06969464D301D0236118AFAB87C65C2D76ECE0F277F7F933009C05242E4D8771F129018441AA54ECCA6FD819DEF287713E178064C4AA35340628223EF8F40F1A9BA75B97CB878A1C5E0A20FB39B08F03600BC07B009476
310
8E42A1AFC32BB7CF43AC310A00D6F6F969B7CF534C0B00B96374C64AF802B0004C0620506FF02D00F6A6A327F808802E755FE91F003DE4A800089A5034F92B2344DF00420600787B7F7C93F73FCF5423036003E601D8DA01D80BBD45D5E7B2A2B22CDC161A43EE2C11B9B4E40E20F0086DA93B5C6EE1F90B84F7CB0800D0DB
310
1C9D0BD86EE6E3326C58E5E05F69F71E8A1304C300CCA5E22449078070E17C17DC77A131751A44E01677AF015D7656214D31294E09106ECD89BD485002C0D42DF7EECF0509702D94969C3CBB087109606E036B1240660C5043078E21DA2A320084ADCE7DD3C70098D2C2ECB362C400046334BF0080F900580CC084DFAC3148
310
0300FC2B004F0DEAD1112F84246007C07509D84BD600008B011C6687313128003012C07D3B0003E0794348725932847C09305AC02E02A50440E401A89560593B401DA0E086BE14006407B87316505D444CE1CB5D80D5BB402001661181EB1230B5166800E06B816393A8F094C2B70000FB38006B07A0C3333E06C059820401
310
FCD364289A0EBB12F34C87E35562DE1183B9E9B03D5B688EE970C921C20B8610C7C7014DEA10312EB11000DA0C555841061270170801782EB170BE49660CD05210FD3CB4CF7D0B0E4ADCD0CA28A85461E349653E0400442D02DF959F768B437C5C1C43272A3196386CBFDDA5FE0080C4DF07083635452FC34F00671284A1E5
310
E884FB0164635E8D6B616A81B34BAB689EE80269A1602901365D20311C24DE683C4BE03100ACE630C87481317F488132807B9683D1968018488F18BF00C053F79F0E80DEE1F365001E4C0BC002B0002C000BC002B0002C000BC002B000FC5ACDD7FFFAFCBC69011851C7D489AD54497F6A75E57CB14EBF030000000049454E
310
44AE4260824F210000000049454E44AE4260820049454E44AE426082
  0
ACDSRECORD
 90
        0
  2
AcDbDs::ID
280
    10
320
78E
  2
Thumbnail_Data
280
    15
 94
     3147
310
89504E470D0A1A0A0000000D4948445200000100000000B5080300000087DCD12600000300504C54450D0D0DFFFFFF0D0D0D0000000000000000000000000000000000000000000000000000330000660000990000CC0000FF0033000033330033660033990033CC0033FF0066000066330066660066990066CC0066FF0099
310
000099330099660099990099CC0099FF00CC0000CC3300CC6600CC9900CCCC00CCFF00FF0000FF3300FF6600FF9900FFCC00FFFF3300003300333300663300993300CC3300FF3333003333333333663333993333CC3333FF3366003366333366663366993366CC3366FF3399003399333399663399993399CC3399FF33CC00
310
33CC3333CC6633CC9933CCCC33CCFF33FF0033FF3333FF6633FF9933FFCC33FFFF6600006600336600666600996600CC6600FF6633006633336633666633996633CC6633FF6666006666336666666666996666CC6666FF6699006699336699666699996699CC6699FF66CC0066CC3366CC6666CC9966CCCC66CCFF66FF0066
310
FF3366FF6666FF9966FFCC66FFFF9900009900339900669900999900CC9900FF9933009933339933669933999933CC9933FF9966009966339966669966999966CC9966FF9999009999339999669999999999CC9999FF99CC0099CC3399CC6699CC9999CCCC99CCFF99FF0099FF3399FF6699FF9999FFCC99FFFFCC0000CC00
310
33CC0066CC0099CC00CCCC00FFCC3300CC3333CC3366CC3399CC33CCCC33FFCC6600CC6633CC6666CC6699CC66CCCC66FFCC9900CC9933CC9966CC9999CC99CCCC99FFCCCC00CCCC33CCCC66CCCC99CCCCCCCCCCFFCCFF00CCFF33CCFF66CCFF99CCFFCCCCFFFFFF0000FF0033FF0066FF0099FF00CCFF00FFFF3300FF3333
310
FF3366FF3399FF33CCFF33FFFF6600FF6633FF6666FF6699FF66CCFF66FFFF9900FF9933FF9966FF9999FF99CCFF99FFFFCC00FFCC33FFCC66FFCC99FFCCCCFFCCFFFFFF00FFFF33FFFF66FFFF99FFFFCCFFFFFF0000000D0D0D1A1A1A2828283535354343435050505D5D5D6B6B6B787878868686939393A1A1A1AEAEAEBB
310
BBBBC9C9C9D6D6D6E4E4E4F1F1F1FFFFFF000000000000000000000000000000000000000000000000000000000000D3F30D92000008F24944415478DAED9D5DB6A3200C80B321F6FFC68BDBC8066601BCCFF50F0204090A8855CE4C4F6BB9543F43082144F8F7F2021F007871F900AC00CC4B0B01F0C6BBFF01F800C400F0
310
458507F09EFBDF13002EB2056341EE08C093BBF5F5E900CAAE61A9BDFEDF3114FEF188007A6AAB0101F495D5F10154BC4B71530F0020925399383375707C25189D3577A93C001434F529C191BB001DDDC9A9629259AEA9B8DE9812E0CBECF602970000B5969A28D8768650DC73CF0E728FD00155FBED6D5AE08A042C525A36
310
981F9C47AE25C4A175C055EB0DAF01FA00243BD44B25404EE0E725E09500F0ED3A607000ACF3BD2680326D71118006E69F2D9339058069B40000EAE600AC82998C36CC3F5B2676294E71476855A6D129714EF654EC1F63B8EED74202B6EF4D1E80520209504AE5009889D7EAFBE7BF1FDA0ABAB773690BC0A4BAC0D6D0A499
310
F27739CCC14D6E4DA20B98BD49E4BB8E858A0AE8559BD60012C5EC15982AEC21933961290004EFFA6F03B07D65E43A204B540240A303A0EF05B07E690CC82460A946BFD8BB3B16015886A51980DE8FB405F0D777E110410100BFB344A6ACFDA90300AB365901AC6F6F9580AD42810430CE632C938059E81600660809B80EA0
310
4C02B61BAF94BDFF8F9580D8AF2A548244027E05C0F67EAB81593BC02AC186C3A095CB560098F580B506E32CBE1380F60773D6E8DB3BE4B125F86708904F817D8F9B79ACD300E68ECF979C966A2E01A2B9C09F251F8E81BC8C304B88F19DEE600962731D900010AF8FDC03A0AB122C9B0B74D1010D01040670F15CA0F33058
310
DD100ACD9FDD1E941A428618424FB404F9EB5F3E8AE7029B048C301730A593211312205322F15CA0EB6CF0088031C512305FE6457F001905EE3585AD8343E61059E7C25BE0F2258F50F76170389F60670019AFB05162AFB0C97885530022AF70509AAE0BE401C87D82E6AC5B3C5C17F04BDBE5715E5A4FAD0C1979A3473249
310
D49FF04A6ED830D16463CE930034295878FC03F001A80C600B14859A217DE807E0A2104059806D25002D821A8BDA3C1D5C595102AA4775965C0DFF1DF693808EDDBAF6AF7C002A0028AA2F095BE937125D9D0BB0713999A9406E2EB0368CCC847918092053B0C3EA461E23146A2E0C6AC090000C2400B88519993FC0853821
310
E71856603200EC8E54BB2B0BB9ADBAF1C6D5CB1EA1BF8B443703D10100E96C300280B451057200096B2069235C7789A975CECDFA20CB5C62DEC5B8E6168A46DC05760D8ACE2644FB8DE76FAE23017A59B6A4AF17D605F6E6978634793DD30500C1F5055E462AAC0BE84515EA7D2DC6F8B3F1930048737BD3B925884C1748DB
310
C9572560F5C41BEFA42F0320CDED4D9FE90224C6C84A7F64525F0310CBBFDF0BCE00D091FCAFAF7900BCB6CBD86C57BBC0AEFB14AB07CF4B0090654E5897BACAE74E92695985750158D7A35430125ED301DBE867DF4BBA402801D06ACB8C8B10519EB1C20EF927C3E4C216557E143836035A00D0669AD4612988113A6E484D
310
C1005B3E0AD49D0CB9B94086803446285B048B5CE476C7835D9B2E60BA75816B7301A82C01BE21B469AAB64AB08221D466146046AC6AC3A022EF458690BBD9E88F0907DBEF7FC9103AE5A9AA60082DD38146A6B0DADF0B0CA17B1C22DE8CA5E164C88CEA111A653A7C1F804059D57088CCCDBBE654A143A43B004547BFCB2E
310
31B50D69A439A58706C047E15C778AFA2EE15101E482900A82A4FCC13CAE3014804C60D2992029DF6833392D31C8D2189EAA90DD3E9F5AE9FD1500F99AAF07001F800FC007E0890030B9A78BF5271DBBEB9F9153F40C009E403E3FEB9753F4D301E301F885F201E8985EDF063F8D925ABF2F807E7AED03F001F894E07800C8
310
FD266F0690814E00823DE1E4E08F03B864E8BA883F21DF33385B0380ECB31412D5204E2720E03C2000EE6CC515A5B9812F8C2B1D00C4B96F98EEDF2869EE1000A6A073CE1FC2631500E8FE0034F7E33A06C07481E9F8AAF4C18F3870D196736FD789B0439C0C925A966FB40DEE726B7BF379B89AF2BD34F417BD8BD1F49D7F
310
59267113F6E429D84A02F6587E0D3100D074116FD93213DEEDF957BC63182C231BE00080DEF26C78008C890118D3038026590BB780AEFD18B917F342F0C4AC0E7BC790A4D0085B31364A6C8996F025603BE801D88EF59000A5EDCAAF7BF777D0F8375B2001104416818B88A2608C0974C0AD12004A917353E4AD07A0E0D1B7
310
5407401A008CA2036400FECE44200106AE02A0101F066079EEE96900AE49ED2DBC7701001C0055030070002009604F3E04685E09C0A6D19A8D137C1C00B80AC0EC3D7FCBBAF638000075006C8F516E0F006F051058823E00F7D1481FCF560E002D0092BCD6DB25526A0A875965D3731C0E801DFCD03FDA0CC02A017E265F1F
310
807646EDBC67286B0A6F7985DD1F2501684DAFCB6B02D16F52FAA8B72B12704717405E02D6E7DD749200184E07AC32196179CD2880742EF0C26110E1E500684255EFD86B00B8B9003C712E5001C0F29C220DA6F76C70288788F17D439D9CA21C00287689C1235D6232A7686ACB0C937038E714750F9F18C829CA98C27E1750
310
A2B94090FF777CB7B878616476508896459EB530B2D7492C8DF94F4C47890EC0E0C13A89A531F47500867CC8BBA64B63711D9DF86205C0ACFE4FE153EA318543478711D8B3D4C9B3EB00009300985426FB92792A0F2A05C01D4E0000BC0F00A668B0897CB287D00BA3429E5274C531E5D60090BF81780C2099209DFB889880
310
11FD5228445D0064E39D4EED0790075355D95DD03642843B11FEEC6E8B976B0E00E150DE0FA93C1DC0187B62EE9480ED214992B3C01AD9ACCF6D456ADA05847AE1DC2FD28449C4BCA02985ECE8817B864912B8B7FDD90D00B01E00972A8800C01000F8C1A436BF16F65082ED14003A7B9BF6B5D05AC819B1BD25E06ACD47E9
310
80C60ADC0F104F1B564756C6EF006054E1CF0390F405689253743000BE48AC1915A35A24AD1CD27D3B3F06809991F162E2F26D0F094098149A99524552CF0F83A34B001ED8CCBE5BE9478741921E35326B6D8A509436F5C051801AF1C0264A059240DFA5CA47CF77880F066075B597291610BC0F1064D1F51F4E257A58CBC3
310
95A09300B402F01300A4FDC41BD5307251FB9A22314AFE901D90A9E59B42C7005E545800AF2A1F800F0001F0CE6201BCB77C0066002F2FAF07F01F6C35860DF4E243500000000049454E44AE4260824E44AE426082AE426082000049454E44AE426082
  0
ENDSEC
  0
EOF
