  0
SECTION
  2
HEADER
  9
$ACADVER
  1
AC1027
  9
$ACADMAINTVER
 70
   125
  9
$DWGCODEPAGE
  3
ANSI_932
  9
$LASTSAVEDBY
  1
D-mishima
  9
$REQUIREDVERSIONS
160
                 0
  9
$INSBASE
 10
0.0
 20
0.0
 30
0.0
  9
$EXTMIN
 10
0.0
 20
0.0
 30
0.0
  9
$EXTMAX
 10
4200.0
 20
2970.0
 30
0.0
  9
$LIMMIN
 10
0.0
 20
0.0
  9
$LIMMAX
 10
4200.0
 20
2970.0
  9
$ORTHOMODE
 70
     1
  9
$REGENMODE
 70
     1
  9
$FILLMODE
 70
     1
  9
$QTEXTMODE
 70
     0
  9
$MIRRTEXT
 70
     0
  9
$LTSCALE
 40
0.1
  9
$ATTMODE
 70
     1
  9
$TEXTSIZE
 40
25.0
  9
$TRACEWID
 40
1.0
  9
$TEXTSTYLE
  7
Standard
  9
$CLAYER
  8
実線
  9
$CELTYPE
  6
ByLayer
  9
$CECOLOR
 62
   256
  9
$CELTSCALE
 40
1.0
  9
$DISPSILH
 70
     0
  9
$DIMSCALE
 40
10.0
  9
$DIMASZ
 40
2.0
  9
$DIMEXO
 40
0.875
  9
$DIMDLI
 40
10.0
  9
$DIMRND
 40
0.0
  9
$DIMDLE
 40
0.0
  9
$DIMEXE
 40
1.0
  9
$DIMTP
 40
0.0
  9
$DIMTM
 40
0.0
  9
$DIMTXT
 40
2.5
  9
$DIMCEN
 40
0.0
  9
$DIMTSZ
 40
0.0
  9
$DIMTOL
 70
     0
  9
$DIMLIM
 70
     0
  9
$DIMTIH
 70
     0
  9
$DIMTOH
 70
     0
  9
$DIMSE1
 70
     0
  9
$DIMSE2
 70
     0
  9
$DIMTAD
 70
     1
  9
$DIMZIN
 70
     8
  9
$DIMBLK
  1

  9
$DIMASO
 70
     1
  9
$DIMSHO
 70
     1
  9
$DIMPOST
  1

  9
$DIMAPOST
  1

  9
$DIMALT
 70
     0
  9
$DIMALTD
 70
     2
  9
$DIMALTF
 40
25.4
  9
$DIMLFAC
 40
1.0
  9
$DIMTOFL
 70
     1
  9
$DIMTVP
 40
0.0
  9
$DIMTIX
 70
     0
  9
$DIMSOXD
 70
     0
  9
$DIMSAH
 70
     1
  9
$DIMBLK1
  1
OPEN
  9
$DIMBLK2
  1
OPEN
  9
$DIMSTYLE
  2
STANDARD
  9
$DIMCLRD
 70
     0
  9
$DIMCLRE
 70
     0
  9
$DIMCLRT
 70
     0
  9
$DIMTFAC
 40
1.0
  9
$DIMGAP
 40
0.875
  9
$DIMJUST
 70
     0
  9
$DIMSD1
 70
     0
  9
$DIMSD2
 70
     0
  9
$DIMTOLJ
 70
     1
  9
$DIMTZIN
 70
     0
  9
$DIMALTZ
 70
     0
  9
$DIMALTTZ
 70
     0
  9
$DIMUPT
 70
     0
  9
$DIMDEC
 70
     3
  9
$DIMTDEC
 70
     3
  9
$DIMALTU
 70
     2
  9
$DIMALTTD
 70
     2
  9
$DIMTXSTY
  7
Standard
  9
$DIMAUNIT
 70
     0
  9
$DIMADEC
 70
     0
  9
$DIMALTRND
 40
0.0
  9
$DIMAZIN
 70
     0
  9
$DIMDSEP
 70
    46
  9
$DIMATFIT
 70
     3
  9
$DIMFRAC
 70
     0
  9
$DIMLDRBLK
  1
OPEN
  9
$DIMLUNIT
 70
     2
  9
$DIMLWD
 70
    -2
  9
$DIMLWE
 70
    -2
  9
$DIMTMOVE
 70
     0
  9
$DIMFXL
 40
1.0
  9
$DIMFXLON
 70
     0
  9
$DIMJOGANG
 40
1.570796326794896
  9
$DIMTFILL
 70
     0
  9
$DIMTFILLCLR
 70
     0
  9
$DIMARCSYM
 70
     0
  9
$DIMLTYPE
  6

  9
$DIMLTEX1
  6

  9
$DIMLTEX2
  6

  9
$DIMTXTDIRECTION
 70
     0
  9
$LUNITS
 70
     2
  9
$LUPREC
 70
     4
  9
$SKETCHINC
 40
1.0
  9
$FILLETRAD
 40
0.0
  9
$AUNITS
 70
     0
  9
$AUPREC
 70
     0
  9
$MENU
  1
.
  9
$ELEVATION
 40
0.0
  9
$PELEVATION
 40
0.0
  9
$THICKNESS
 40
0.0
  9
$LIMCHECK
 70
     0
  9
$CHAMFERA
 40
0.0
  9
$CHAMFERB
 40
0.0
  9
$CHAMFERC
 40
0.0
  9
$CHAMFERD
 40
0.0
  9
$SKPOLY
 70
     0
  9
$TDCREATE
 40
2454064.449062500
  9
$TDUCREATE
 40
2454064.074062859
  9
$TDUPDATE
 40
2460315.474988426
  9
$TDUUPDATE
 40
2460315.099988426
  9
$TDINDWG
 40
3.8244863079
  9
$TDUSRTIMER
 40
3.8244644444
  9
$USRTIMER
 70
     1
  9
$ANGBASE
 50
0.0
  9
$ANGDIR
 70
     0
  9
$PDMODE
 70
     0
  9
$PDSIZE
 40
0.0
  9
$PLINEWID
 40
0.0
  9
$SPLFRAME
 70
     0
  9
$SPLINETYPE
 70
     6
  9
$SPLINESEGS
 70
     8
  9
$HANDSEED
  5
13C42
  9
$SURFTAB1
 70
     6
  9
$SURFTAB2
 70
     6
  9
$SURFTYPE
 70
     6
  9
$SURFU
 70
     6
  9
$SURFV
 70
     6
  9
$UCSBASE
  2

  9
$UCSNAME
  2

  9
$UCSORG
 10
0.0
 20
0.0
 30
0.0
  9
$UCSXDIR
 10
1.0
 20
0.0
 30
0.0
  9
$UCSYDIR
 10
0.0
 20
1.0
 30
0.0
  9
$UCSORTHOREF
  2

  9
$UCSORTHOVIEW
 70
     0
  9
$UCSORGTOP
 10
0.0
 20
0.0
 30
0.0
  9
$UCSORGBOTTOM
 10
0.0
 20
0.0
 30
0.0
  9
$UCSORGLEFT
 10
0.0
 20
0.0
 30
0.0
  9
$UCSORGRIGHT
 10
0.0
 20
0.0
 30
0.0
  9
$UCSORGFRONT
 10
0.0
 20
0.0
 30
0.0
  9
$UCSORGBACK
 10
0.0
 20
0.0
 30
0.0
  9
$PUCSBASE
  2

  9
$PUCSNAME
  2

  9
$PUCSORG
 10
0.0
 20
0.0
 30
0.0
  9
$PUCSXDIR
 10
1.0
 20
0.0
 30
0.0
  9
$PUCSYDIR
 10
0.0
 20
1.0
 30
0.0
  9
$PUCSORTHOREF
  2

  9
$PUCSORTHOVIEW
 70
     0
  9
$PUCSORGTOP
 10
0.0
 20
0.0
 30
0.0
  9
$PUCSORGBOTTOM
 10
0.0
 20
0.0
 30
0.0
  9
$PUCSORGLEFT
 10
0.0
 20
0.0
 30
0.0
  9
$PUCSORGRIGHT
 10
0.0
 20
0.0
 30
0.0
  9
$PUCSORGFRONT
 10
0.0
 20
0.0
 30
0.0
  9
$PUCSORGBACK
 10
0.0
 20
0.0
 30
0.0
  9
$USERI1
 70
     0
  9
$USERI2
 70
     0
  9
$USERI3
 70
     0
  9
$USERI4
 70
     0
  9
$USERI5
 70
     0
  9
$USERR1
 40
0.0
  9
$USERR2
 40
0.0
  9
$USERR3
 40
0.0
  9
$USERR4
 40
0.0
  9
$USERR5
 40
0.0
  9
$WORLDVIEW
 70
     1
  9
$SHADEDGE
 70
     3
  9
$SHADEDIF
 70
    70
  9
$TILEMODE
 70
     0
  9
$MAXACTVP
 70
    64
  9
$PINSBASE
 10
0.0
 20
0.0
 30
0.0
  9
$PLIMCHECK
 70
     0
  9
$PEXTMIN
 10
-0.0233557008396019
 20
-0.0155136928541424
 30
-0.0000000349181948
  9
$PEXTMAX
 10
408.2225153712125
 20
285.1940104826281
 30
0.0000000814935746
  9
$PLIMMIN
 10
-5.873748779296875
 20
-5.873749732971191
  9
$PLIMMAX
 10
414.0729064941406
 20
291.0522451400757
  9
$UNITMODE
 70
     0
  9
$VISRETAIN
 70
     1
  9
$PLINEGEN
 70
     0
  9
$PSLTSCALE
 70
     1
  9
$TREEDEPTH
 70
  3020
  9
$CMLSTYLE
  2
Standard
  9
$CMLJUST
 70
     0
  9
$CMLSCALE
 40
20.0
  9
$PROXYGRAPHICS
 70
     1
  9
$MEASUREMENT
 70
     1
  9
$CELWEIGHT
370
    -1
  9
$ENDCAPS
280
     0
  9
$JOINSTYLE
280
     0
  9
$LWDISPLAY
290
     0
  9
$INSUNITS
 70
     4
  9
$HYPERLINKBASE
  1

  9
$STYLESHEET
  1
SANKENTC.CTB
  9
$XEDIT
290
     1
  9
$CEPSNTYPE
380
     0
  9
$PSTYLEMODE
290
     1
  9
$FINGERPRINTGUID
  2
{072871F0-2771-4C56-B9BD-B27D0F751D9A}
  9
$VERSIONGUID
  2
{59CBFB35-C455-CB41-BA81-505A95FB25CC}
  9
$EXTNAMES
290
     1
  9
$PSVPSCALE
 40
0.0
  9
$OLESTARTUP
290
     0
  9
$SORTENTS
280
   127
  9
$INDEXCTL
280
     0
  9
$HIDETEXT
280
     1
  9
$XCLIPFRAME
280
     2
  9
$HALOGAP
280
     0
  9
$OBSCOLOR
 70
   257
  9
$OBSLTYPE
280
     0
  9
$INTERSECTIONDISPLAY
280
     0
  9
$INTERSECTIONCOLOR
 70
   257
  9
$DIMASSOC
280
     2
  9
$PROJECTNAME
  1

  9
$CAMERADISPLAY
290
     0
  9
$LENSLENGTH
 40
50.0
  9
$CAMERAHEIGHT
 40
0.0
  9
$STEPSPERSEC
 40
2.0
  9
$STEPSIZE
 40
6.0
  9
$3DDWFPREC
 40
2.0
  9
$PSOLWIDTH
 40
0.25
  9
$PSOLHEIGHT
 40
4.0
  9
$LOFTANG1
 40
1.570796326794896
  9
$LOFTANG2
 40
1.570796326794896
  9
$LOFTMAG1
 40
0.0
  9
$LOFTMAG2
 40
0.0
  9
$LOFTPARAM
 70
     7
  9
$LOFTNORMALS
280
     1
  9
$LATITUDE
 40
37.795
  9
$LONGITUDE
 40
-122.394
  9
$NORTHDIRECTION
 40
0.0
  9
$TIMEZONE
 70
 -8000
  9
$LIGHTGLYPHDISPLAY
280
     1
  9
$TILEMODELIGHTSYNCH
280
     1
  9
$CMATERIAL
347
119DA
  9
$SOLIDHIST
280
     0
  9
$SHOWHIST
280
     1
  9
$DWFFRAME
280
     2
  9
$DGNFRAME
280
     0
  9
$REALWORLDSCALE
290
     1
  9
$INTERFERECOLOR
 62
     1
  9
$INTERFEREOBJVS
345
119FC
  9
$INTERFEREVPVS
346
12C01
  9
$CSHADOW
280
     0
  9
$SHADOWPLANELOCATION
 40
0.0
  0
ENDSEC
  0
SECTION
  2
CLASSES
  0
CLASS
  1
ACDBDICTIONARYWDFLT
  2
AcDbDictionaryWithDefault
  3
ObjectDBX Classes
 90
        0
 91
        1
280
     0
281
     0
  0
CLASS
  1
DICTIONARYVAR
  2
AcDbDictionaryVar
  3
ObjectDBX Classes
 90
        0
 91
       18
280
     0
281
     0
  0
CLASS
  1
TABLESTYLE
  2
AcDbTableStyle
  3
ObjectDBX Classes
 90
     4095
 91
        1
280
     0
281
     0
  0
CLASS
  1
DIMASSOC
  2
AcDbDimAssoc
  3
"AcDbDimAssoc|Product Desc:     AcDim ARX App For Dimension|Company:          Autodesk, Inc.|WEB Address:      www.autodesk.com"
 90
        0
 91
        0
280
     0
281
     0
  0
CLASS
  1
SORTENTSTABLE
  2
AcDbSortentsTable
  3
ObjectDBX Classes
 90
        0
 91
        3
280
     0
281
     0
  0
CLASS
  1
MATERIAL
  2
AcDbMaterial
  3
ObjectDBX Classes
 90
     1153
 91
        3
280
     0
281
     0
  0
CLASS
  1
VISUALSTYLE
  2
AcDbVisualStyle
  3
ObjectDBX Classes
 90
     4095
 91
       26
280
     0
281
     0
  0
CLASS
  1
SCALE
  2
AcDbScale
  3
ObjectDBX Classes
 90
     1153
 91
       17
280
     0
281
     0
  0
CLASS
  1
MLEADERSTYLE
  2
AcDbMLeaderStyle
  3
ACDB_MLEADERSTYLE_CLASS
 90
     4095
 91
        1
280
     0
281
     0
  0
CLASS
  1
CELLSTYLEMAP
  2
AcDbCellStyleMap
  3
ObjectDBX Classes
 90
     1152
 91
        1
280
     0
281
     0
  0
CLASS
  1
AEC_REFEDIT_STATUS_TRACKER
  2
AecDbRefEditStatusTracker
  3
AecArchBase80|Product Desc: Autodesk Architectural Desktop 2007 |Company: Autodesk,Inc. |WEB Address: www.autodesk.com
 90
      129
 91
        0
280
     0
281
     0
  0
CLASS
  1
NPOCOLLECTION
  2
AcDbImpNonPersistentObjectsCollection
  3
ObjectDBX Classes
 90
     1153
 91
        0
280
     0
281
     0
  0
CLASS
  1
ACDBSECTIONVIEWSTYLE
  2
AcDbSectionViewStyle
  3
ObjectDBX Classes
 90
     1025
 91
        1
280
     0
281
     0
  0
CLASS
  1
ACDBDETAILVIEWSTYLE
  2
AcDbDetailViewStyle
  3
ObjectDBX Classes
 90
     1025
 91
        1
280
     0
281
     0
  0
ENDSEC
  0
SECTION
  2
TABLES
  0
TABLE
  2
VPORT
  5
8
102
{ACAD_XDICTIONARY
360
11B3D
102
}
330
0
100
AcDbSymbolTable
 70
     1
1001
ACAD
1000
DbSaveVer
1071
      278
  0
VPORT
  5
12235
330
8
100
AcDbSymbolTableRecord
100
AcDbViewportTableRecord
  2
*Active
 70
     0
 10
0.0
 20
0.0
 11
1.0
 21
1.0
 12
2100.000009778888
 22
1489.153765304864
 13
0.0
 23
0.0
 14
10.0
 24
10.0
 15
10.0
 25
10.0
 16
0.0
 26
0.0
 36
1.0
 17
0.0
 27
0.0
 37
0.0
 40
2994.864219898483
 41
1.897364771151178
 42
50.0
 43
0.0
 44
0.0
 50
0.0
 51
0.0
 71
     0
 72
  1000
 73
     1
 74
     3
 75
     0
 76
     0
 77
     0
 78
     0
281
     0
 65
     1
110
0.0
120
0.0
130
0.0
111
1.0
121
0.0
131
0.0
112
0.0
122
1.0
132
0.0
 79
     0
146
0.0
348
119F8
 60
     3
 61
     5
292
     1
282
     1
141
0.0
142
0.0
 63
   250
421
  3355443
1001
ACAD_NAV_VCDISPLAY
1070
     3
  0
ENDTAB
  0
TABLE
  2
LTYPE
  5
5
330
0
100
AcDbSymbolTable
 70
     4
  0
LTYPE
  5
14
330
5
100
AcDbSymbolTableRecord
100
AcDbLinetypeTableRecord
  2
ByBlock
 70
     0
  3

 72
    65
 73
     0
 40
0.0
  0
LTYPE
  5
15
330
5
100
AcDbSymbolTableRecord
100
AcDbLinetypeTableRecord
  2
ByLayer
 70
     0
  3

 72
    65
 73
     0
 40
0.0
  0
LTYPE
  5
16
330
5
100
AcDbSymbolTableRecord
100
AcDbLinetypeTableRecord
  2
Continuous
 70
     0
  3
Solid line
 72
    65
 73
     0
 40
0.0
  0
LTYPE
  5
1D4
330
5
100
AcDbSymbolTableRecord
100
AcDbLinetypeTableRecord
  2
PHANTOM
 70
     0
  3
Phantom ______  __  __  ______  __  __  ______
 72
    65
 73
     6
 40
63.5
 49
31.75
 74
     0
 49
-6.349999999999997
 74
     0
 49
6.349999999999997
 74
     0
 49
-6.349999999999997
 74
     0
 49
6.349999999999997
 74
     0
 49
-6.349999999999997
 74
     0
  0
LTYPE
  5
1D5
330
5
100
AcDbSymbolTableRecord
100
AcDbLinetypeTableRecord
  2
CENTER
 70
     0
  3
Center ____ _ ____ _ ____ _ ____ _ ____ _ ____
 72
    65
 73
     4
 40
50.8
 49
31.75
 74
     0
 49
-6.349999999999997
 74
     0
 49
6.349999999999997
 74
     0
 49
-6.349999999999997
 74
     0
  0
LTYPE
  5
1D7
330
5
100
AcDbSymbolTableRecord
100
AcDbLinetypeTableRecord
  2
DASHED
 70
     0
  3
Dashed __ __ __ __ __ __ __ __ __ __ __ __ __ _
 72
    65
 73
     2
 40
19.05
 49
12.7
 74
     0
 49
-6.349999999999997
 74
     0
  0
ENDTAB
  0
TABLE
  2
LAYER
  5
2
102
{ACAD_XDICTIONARY
360
11D
102
}
330
0
100
AcDbSymbolTable
 70
     9
  0
LAYER
  5
10
102
{ACAD_XDICTIONARY
360
11B03
102
}
330
2
100
AcDbSymbolTableRecord
100
AcDbLayerTableRecord
  2
0
 70
     0
 62
     7
  6
Continuous
370
    -3
390
F
347
119EA
348
0
  0
LAYER
  5
13F
330
2
100
AcDbSymbolTableRecord
100
AcDbLayerTableRecord
  2
Defpoints
 70
     0
 62
     7
  6
Continuous
290
     0
370
    -3
390
F
347
119EA
348
0
  0
LAYER
  5
1BF
102
{ACAD_XDICTIONARY
360
11B07
102
}
330
2
100
AcDbSymbolTableRecord
100
AcDbLayerTableRecord
  2
図面枠
 70
     0
 62
     2
  6
Continuous
370
    -3
390
F
347
119EA
348
0
1001
AcAecLayerStandard
1000

1000

  0
LAYER
  5
1C1
102
{ACAD_XDICTIONARY
360
11B0B
102
}
330
2
100
AcDbSymbolTableRecord
100
AcDbLayerTableRecord
  2
仮想線
 70
     0
 62
     6
  6
PHANTOM
370
    -3
390
F
347
119EA
348
0
1001
AcAecLayerStandard
1000

1000

  0
LAYER
  5
1C3
102
{ACAD_XDICTIONARY
360
11B0F
102
}
330
2
100
AcDbSymbolTableRecord
100
AcDbLayerTableRecord
  2
寸法線
 70
     0
 62
     2
  6
Continuous
370
    -3
390
F
347
119EA
348
0
1001
AcAecLayerStandard
1000

1000

  0
LAYER
  5
1C4
102
{ACAD_XDICTIONARY
360
11B11
102
}
330
2
100
AcDbSymbolTableRecord
100
AcDbLayerTableRecord
  2
中心線
 70
     0
 62
     1
  6
CENTER
370
    -3
390
F
347
119EA
348
0
1001
AcAecLayerStandard
1000

1000

  0
LAYER
  5
1C5
102
{ACAD_XDICTIONARY
360
11B13
102
}
330
2
100
AcDbSymbolTableRecord
100
AcDbLayerTableRecord
  2
破線
 70
     0
 62
     4
  6
DASHED
370
    -3
390
F
347
119EA
348
0
1001
AcAecLayerStandard
1000

1000

  0
LAYER
  5
82E
102
{ACAD_XDICTIONARY
360
11B15
102
}
330
2
100
AcDbSymbolTableRecord
100
AcDbLayerTableRecord
  2
実線
 70
     0
 62
     7
  6
Continuous
370
    -3
390
F
347
119EA
348
0
1001
AcAecLayerStandard
1000

1000

  0
LAYER
  5
13C12
102
{ACAD_XDICTIONARY
360
13C13
102
}
330
2
100
AcDbSymbolTableRecord
100
AcDbLayerTableRecord
  2
仮線
 70
     0
 62
     5
  6
Continuous
370
    -3
390
F
347
119EA
348
0
1001
AcAecLayerStandard
1000

1000

  0
ENDTAB
  0
TABLE
  2
STYLE
  5
3
330
0
100
AcDbSymbolTable
 70
     1
  0
STYLE
  5
11
330
3
100
AcDbSymbolTableRecord
100
AcDbTextStyleTableRecord
  2
Standard
 70
     0
 40
0.0
 41
1.0
 50
0.0
 71
     0
 42
25.0
  3
isocp.shx
  4
extfont2.shx
  0
ENDTAB
  0
TABLE
  2
VIEW
  5
6
330
0
100
AcDbSymbolTable
 70
     0
  0
ENDTAB
  0
TABLE
  2
UCS
  5
7
330
0
100
AcDbSymbolTable
 70
     0
  0
ENDTAB
  0
TABLE
  2
APPID
  5
9
330
0
100
AcDbSymbolTable
 70
    17
  0
APPID
  5
12
330
9
100
AcDbSymbolTableRecord
100
AcDbRegAppTableRecord
  2
ACAD
 70
     0
  0
APPID
  5
9E
330
9
100
AcDbSymbolTableRecord
100
AcDbRegAppTableRecord
  2
ACAD_PSEXT
 70
     0
  0
APPID
  5
1BE
330
9
100
AcDbSymbolTableRecord
100
AcDbRegAppTableRecord
  2
AcAecLayerStandard
 70
     0
  0
APPID
  5
1FF
330
9
100
AcDbSymbolTableRecord
100
AcDbRegAppTableRecord
  2
ACAD_EXEMPT_FROM_CAD_STANDARDS
 70
     0
  0
APPID
  5
1318
330
9
100
AcDbSymbolTableRecord
100
AcDbRegAppTableRecord
  2
ACAD_DSTYLE_DIMTEXT_FILL
 70
     0
  0
APPID
  5
1319
330
9
100
AcDbSymbolTableRecord
100
AcDbRegAppTableRecord
  2
ACAD_DSTYLE_DIMEXT_LENGTH
 70
     0
  0
APPID
  5
131A
330
9
100
AcDbSymbolTableRecord
100
AcDbRegAppTableRecord
  2
ACAD_DSTYLE_DIMEXT_ENABLED
 70
     0
  0
APPID
  5
131B
330
9
100
AcDbSymbolTableRecord
100
AcDbRegAppTableRecord
  2
ACAD_DSTYLE_DIM_LINETYPE
 70
     0
  0
APPID
  5
131C
330
9
100
AcDbSymbolTableRecord
100
AcDbRegAppTableRecord
  2
ACAD_DSTYLE_DIM_EXT1_LINETYPE
 70
     0
  0
APPID
  5
131D
330
9
100
AcDbSymbolTableRecord
100
AcDbRegAppTableRecord
  2
ACAD_DSTYLE_DIM_EXT2_LINETYPE
 70
     0
  0
APPID
  5
1439
330
9
100
AcDbSymbolTableRecord
100
AcDbRegAppTableRecord
  2
ACAD_DSTYLE_DIMJOGGED_JOGANGLE_SYMBOL
 70
     0
  0
APPID
  5
1CB2
330
9
100
AcDbSymbolTableRecord
100
AcDbRegAppTableRecord
  2
ACAD_DSTYLE_DIMARC_LENGTH_SYMBOL
 70
     0
  0
APPID
  5
356E
330
9
100
AcDbSymbolTableRecord
100
AcDbRegAppTableRecord
  2
ACAD_DIMASSOC_CALC_DIMLFAC
 70
     0
  0
APPID
  5
356F
330
9
100
AcDbSymbolTableRecord
100
AcDbRegAppTableRecord
  2
ACAD_DIMASSOC_DIMLFAC
 70
     0
  0
APPID
  5
3570
330
9
100
AcDbSymbolTableRecord
100
AcDbRegAppTableRecord
  2
ACAD_DIMASSOC_OVERRIDDEN_DIMLFAC
 70
     0
  0
APPID
  5
11A17
330
9
100
AcDbSymbolTableRecord
100
AcDbRegAppTableRecord
  2
ACAD_MLEADERVER
 70
     0
  0
APPID
  5
12E28
330
9
100
AcDbSymbolTableRecord
100
AcDbRegAppTableRecord
  2
ACAD_NAV_VCDISPLAY
 70
     0
  0
ENDTAB
  0
TABLE
  2
DIMSTYLE
  5
A
330
0
100
AcDbSymbolTable
 70
     1
100
AcDbDimStyleTable
 71
     1
340
C0F
  0
DIMSTYLE
105
C0F
102
{ACAD_REACTORS
330
132D3
330
132D4
330
132D5
330
1330C
330
1330D
330
13310
330
13315
330
13316
330
13317
330
13318
330
1325D
330
1325E
330
1325F
330
13292
330
13293
330
13294
330
13295
330
13296
330
132A2
330
132C4
330
132C6
330
132CB
330
132D1
330
131F6
330
131F7
330
13227
330
1322C
330
131C2
330
131C3
330
13102
330
13103
330
13104
330
130A7
330
130A8
330
130A9
330
130AA
330
130AB
330
130AC
330
130AD
330
130AF
330
130B0
102
}
330
A
100
AcDbSymbolTableRecord
100
AcDbDimStyleTableRecord
  2
STANDARD
 70
     0
 40
10.0
 41
2.0
 42
0.875
 43
10.0
 44
1.0
 50
89.99999999999998
 73
     0
 74
     0
 77
     1
 78
     8
140
2.5
141
0.0
147
0.875
172
     1
173
     1
271
     3
272
     3
340
11
341
C08
343
C08
344
C08
1001
ACAD_DSTYLE_DIMJOGGED_JOGANGLE_SYMBOL
1070
   384
1040
1.570796326794896
  0
ENDTAB
  0
TABLE
  2
BLOCK_RECORD
  5
1
330
0
100
AcDbSymbolTable
 70
    42
  0
BLOCK_RECORD
  5
1F
102
{ACAD_XDICTIONARY
360
5C91
102
}
330
1
100
AcDbSymbolTableRecord
100
AcDbBlockTableRecord
  2
*Model_Space
340
22
 70
     0
280
     1
281
     0
  0
BLOCK_RECORD
  5
78D
330
1
100
AcDbSymbolTableRecord
100
AcDbBlockTableRecord
  2
*Paper_Space
340
78E
 70
     0
280
     1
281
     0
  0
BLOCK_RECORD
  5
C08
102
{ACAD_XDICTIONARY
360
12008
102
}
330
1
100
AcDbSymbolTableRecord
100
AcDbBlockTableRecord
  2
_OPEN
340
0
102
{BLKREFS
331
13B7E
331
13B7F
331
13B89
331
13B8A
331
13B92
331
13B93
331
13B9C
331
13B9D
331
13BA5
331
13BA6
331
13A1C
331
13A1D
331
13A25
331
13A26
331
13A2E
331
13A2F
331
13A39
331
13A3A
331
13A42
331
13A43
331
13A4B
331
13A4C
331
13A54
331
13A55
331
13A5E
331
13A5F
331
13A68
331
13A69
331
13A73
331
13A74
331
13A7C
331
13A7D
331
13A85
331
13A86
331
131FA
331
13A90
331
13A91
331
13A9B
331
13A9C
331
13AA6
331
13AA7
331
13AAF
331
13AB0
331
13ABB
331
13ABC
331
13AC6
331
13AC7
331
13AD0
331
13AD1
331
13ADB
331
13ADC
331
13AE4
331
13AE5
331
13AEF
331
13AF0
331
13AF8
331
13AF9
331
13B01
331
13B02
331
13B0A
331
13B0B
331
13B13
331
13B14
331
13B1C
331
13B1D
331
13B27
331
13B28
331
13B32
331
13B33
331
13B3B
331
13B3C
331
13B46
331
13B47
331
13B51
331
13B52
331
13B5A
331
13B5B
331
13B63
331
13B64
331
13B6C
331
13B6D
331
13B75
331
13B76
102
}
 70
     0
280
     1
281
     0
  0
BLOCK_RECORD
  5
13319
330
1
100
AcDbSymbolTableRecord
100
AcDbBlockTableRecord
  2
*D1
340
0
 70
     0
280
     1
281
     0
  0
BLOCK_RECORD
  5
13325
330
1
100
AcDbSymbolTableRecord
100
AcDbBlockTableRecord
  2
*D2
340
0
 70
     0
280
     1
281
     0
  0
BLOCK_RECORD
  5
13333
330
1
100
AcDbSymbolTableRecord
100
AcDbBlockTableRecord
  2
*D3
340
0
 70
     0
280
     1
281
     0
  0
BLOCK_RECORD
  5
13341
330
1
100
AcDbSymbolTableRecord
100
AcDbBlockTableRecord
  2
*D4
340
0
 70
     0
280
     1
281
     0
  0
BLOCK_RECORD
  5
1334D
330
1
100
AcDbSymbolTableRecord
100
AcDbBlockTableRecord
  2
*D5
340
0
 70
     0
280
     1
281
     0
  0
BLOCK_RECORD
  5
13359
330
1
100
AcDbSymbolTableRecord
100
AcDbBlockTableRecord
  2
*D6
340
0
 70
     0
280
     1
281
     0
  0
BLOCK_RECORD
  5
13365
330
1
100
AcDbSymbolTableRecord
100
AcDbBlockTableRecord
  2
*D7
340
0
 70
     0
280
     1
281
     0
  0
BLOCK_RECORD
  5
13371
330
1
100
AcDbSymbolTableRecord
100
AcDbBlockTableRecord
  2
*D8
340
0
 70
     0
280
     1
281
     0
  0
BLOCK_RECORD
  5
1337D
330
1
100
AcDbSymbolTableRecord
100
AcDbBlockTableRecord
  2
*D9
340
0
 70
     0
280
     1
281
     0
  0
BLOCK_RECORD
  5
1338B
330
1
100
AcDbSymbolTableRecord
100
AcDbBlockTableRecord
  2
*D10
340
0
 70
     0
280
     1
281
     0
  0
BLOCK_RECORD
  5
13397
330
1
100
AcDbSymbolTableRecord
100
AcDbBlockTableRecord
  2
*D11
340
0
 70
     0
280
     1
281
     0
  0
BLOCK_RECORD
  5
133A5
330
1
100
AcDbSymbolTableRecord
100
AcDbBlockTableRecord
  2
*D12
340
0
 70
     0
280
     1
281
     0
  0
BLOCK_RECORD
  5
133B3
330
1
100
AcDbSymbolTableRecord
100
AcDbBlockTableRecord
  2
*D13
340
0
 70
     0
280
     1
281
     0
  0
BLOCK_RECORD
  5
133C0
330
1
100
AcDbSymbolTableRecord
100
AcDbBlockTableRecord
  2
*D14
340
0
 70
     0
280
     1
281
     0
  0
BLOCK_RECORD
  5
133CE
330
1
100
AcDbSymbolTableRecord
100
AcDbBlockTableRecord
  2
*D15
340
0
 70
     0
280
     1
281
     0
  0
BLOCK_RECORD
  5
133DA
330
1
100
AcDbSymbolTableRecord
100
AcDbBlockTableRecord
  2
*D16
340
0
 70
     0
280
     1
281
     0
  0
BLOCK_RECORD
  5
133E8
330
1
100
AcDbSymbolTableRecord
100
AcDbBlockTableRecord
  2
*D17
340
0
 70
     0
280
     1
281
     0
  0
BLOCK_RECORD
  5
133F4
330
1
100
AcDbSymbolTableRecord
100
AcDbBlockTableRecord
  2
*D18
340
0
 70
     0
280
     1
281
     0
  0
BLOCK_RECORD
  5
13400
330
1
100
AcDbSymbolTableRecord
100
AcDbBlockTableRecord
  2
*D19
340
0
 70
     0
280
     1
281
     0
  0
BLOCK_RECORD
  5
1340C
330
1
100
AcDbSymbolTableRecord
100
AcDbBlockTableRecord
  2
*D20
340
0
 70
     0
280
     1
281
     0
  0
BLOCK_RECORD
  5
13418
330
1
100
AcDbSymbolTableRecord
100
AcDbBlockTableRecord
  2
*D21
340
0
 70
     0
280
     1
281
     0
  0
BLOCK_RECORD
  5
13424
330
1
100
AcDbSymbolTableRecord
100
AcDbBlockTableRecord
  2
*D22
340
0
 70
     0
280
     1
281
     0
  0
BLOCK_RECORD
  5
13432
330
1
100
AcDbSymbolTableRecord
100
AcDbBlockTableRecord
  2
*D23
340
0
 70
     0
280
     1
281
     0
  0
BLOCK_RECORD
  5
13440
330
1
100
AcDbSymbolTableRecord
100
AcDbBlockTableRecord
  2
*D24
340
0
 70
     0
280
     1
281
     0
  0
BLOCK_RECORD
  5
1344C
330
1
100
AcDbSymbolTableRecord
100
AcDbBlockTableRecord
  2
*D25
340
0
 70
     0
280
     1
281
     0
  0
BLOCK_RECORD
  5
13458
330
1
100
AcDbSymbolTableRecord
100
AcDbBlockTableRecord
  2
*D26
340
0
 70
     0
280
     1
281
     0
  0
BLOCK_RECORD
  5
13466
330
1
100
AcDbSymbolTableRecord
100
AcDbBlockTableRecord
  2
*D27
340
0
 70
     0
280
     1
281
     0
  0
BLOCK_RECORD
  5
13473
330
1
100
AcDbSymbolTableRecord
100
AcDbBlockTableRecord
  2
*D28
340
0
 70
     0
280
     1
281
     0
  0
BLOCK_RECORD
  5
13481
330
1
100
AcDbSymbolTableRecord
100
AcDbBlockTableRecord
  2
*D29
340
0
 70
     0
280
     1
281
     0
  0
BLOCK_RECORD
  5
1348F
330
1
100
AcDbSymbolTableRecord
100
AcDbBlockTableRecord
  2
*D30
340
0
 70
     0
280
     1
281
     0
  0
BLOCK_RECORD
  5
1349D
330
1
100
AcDbSymbolTableRecord
100
AcDbBlockTableRecord
  2
*D31
340
0
 70
     0
280
     1
281
     0
  0
BLOCK_RECORD
  5
134A9
330
1
100
AcDbSymbolTableRecord
100
AcDbBlockTableRecord
  2
*D32
340
0
 70
     0
280
     1
281
     0
  0
BLOCK_RECORD
  5
134B5
330
1
100
AcDbSymbolTableRecord
100
AcDbBlockTableRecord
  2
*D33
340
0
 70
     0
280
     1
281
     0
  0
BLOCK_RECORD
  5
134C1
330
1
100
AcDbSymbolTableRecord
100
AcDbBlockTableRecord
  2
*D34
340
0
 70
     0
280
     1
281
     0
  0
BLOCK_RECORD
  5
134CD
330
1
100
AcDbSymbolTableRecord
100
AcDbBlockTableRecord
  2
*D35
340
0
 70
     0
280
     1
281
     0
  0
BLOCK_RECORD
  5
134D9
330
1
100
AcDbSymbolTableRecord
100
AcDbBlockTableRecord
  2
*D36
340
0
 70
     0
280
     1
281
     0
  0
BLOCK_RECORD
  5
134E7
330
1
100
AcDbSymbolTableRecord
100
AcDbBlockTableRecord
  2
*D37
340
0
 70
     0
280
     1
281
     0
  0
BLOCK_RECORD
  5
134F3
330
1
100
AcDbSymbolTableRecord
100
AcDbBlockTableRecord
  2
*D38
340
0
 70
     0
280
     1
281
     0
  0
BLOCK_RECORD
  5
134FF
330
1
100
AcDbSymbolTableRecord
100
AcDbBlockTableRecord
  2
*D39
340
0
 70
     0
280
     1
281
     0
  0
BLOCK_RECORD
  5
1350C
330
1
100
AcDbSymbolTableRecord
100
AcDbBlockTableRecord
  2
*D40
340
0
 70
     0
280
     1
281
     0
  0
BLOCK_RECORD
  5
13519
330
1
100
AcDbSymbolTableRecord
100
AcDbBlockTableRecord
  2
*D41
340
0
 70
     0
280
     1
281
     0
  0
ENDTAB
  0
ENDSEC
  0
SECTION
  2
BLOCKS
  0
BLOCK
  5
20
330
1F
100
AcDbEntity
  8
0
100
AcDbBlockBegin
  2
*Model_Space
 70
     0
 10
0.0
 20
0.0
 30
0.0
  3
*Model_Space
  1

  0
ENDBLK
  5
21
330
1F
100
AcDbEntity
  8
0
100
AcDbBlockEnd
  0
BLOCK
  5
78F
330
78D
100
AcDbEntity
 67
     1
  8
0
100
AcDbBlockBegin
  2
*Paper_Space
 70
     0
 10
0.0
 20
0.0
 30
0.0
  3
*Paper_Space
  1

  0
ENDBLK
  5
790
330
78D
100
AcDbEntity
 67
     1
  8
0
100
AcDbBlockEnd
  0
BLOCK
  5
C09
330
C08
100
AcDbEntity
  8
0
100
AcDbBlockBegin
  2
_OPEN
 70
     0
 10
0.0
 20
0.0
 30
0.0
  3
_OPEN
  1

  0
LINE
  5
C0A
330
C08
100
AcDbEntity
  8
0
  6
ByBlock
 62
     0
100
AcDbLine
 10
-1.0
 20
0.1666666666666666
 30
0.0
 11
0.0
 21
0.0
 31
0.0
  0
LINE
  5
C0B
330
C08
100
AcDbEntity
  8
0
  6
ByBlock
 62
     0
100
AcDbLine
 10
0.0
 20
0.0
 30
0.0
 11
-1.0
 21
-0.1666666666666666
 31
0.0
  0
LINE
  5
C0C
330
C08
100
AcDbEntity
  8
0
  6
ByBlock
 62
     0
100
AcDbLine
 10
0.0
 20
0.0
 30
0.0
 11
-1.0
 21
0.0
 31
0.0
  0
ENDBLK
  5
C0D
330
C08
100
AcDbEntity
  8
0
100
AcDbBlockEnd
  0
BLOCK
  5
1331A
330
13319
100
AcDbEntity
  8
0
100
AcDbBlockBegin
  2
*D1
 70
     1
 10
0.0
 20
0.0
 30
0.0
  3
*D1
  1

  0
LINE
  5
13B38
330
13319
100
AcDbEntity
  8
寸法線
 62
     0
440
 16777216
370
    -2
100
AcDbLine
 10
2733.750120199397
 20
630.0002290197055
 30
0.0
 11
2809.999896414979
 21
630.0002290197055
 31
0.0
  0
LINE
  5
13B39
330
13319
100
AcDbEntity
  8
寸法線
 62
     0
440
 16777216
370
    -2
100
AcDbLine
 10
2733.750120199397
 20
970.0002290197058
 30
0.0
 11
2809.999896414979
 21
970.0002290197058
 31
0.0
  0
LINE
  5
13B3A
330
13319
100
AcDbEntity
  8
寸法線
 62
     0
440
 16777216
370
    -2
100
AcDbLine
 10
2799.99989641498
 20
650.0002290197055
 30
0.0
 11
2799.99989641498
 21
950.0002290197057
 31
0.0
  0
INSERT
  5
13B3B
330
13319
100
AcDbEntity
  8
寸法線
 62
     0
440
 16777216
370
    -2
100
AcDbBlockReference
  2
_OPEN
 10
2799.99989641498
 20
630.0002290197055
 30
0.0
 41
20.0
 42
20.0
 43
20.0
 50
270.0
  0
INSERT
  5
13B3C
330
13319
100
AcDbEntity
  8
寸法線
 62
     0
440
 16777216
370
    -2
100
AcDbBlockReference
  2
_OPEN
 10
2799.99989641498
 20
970.0002290197058
 30
0.0
 41
20.0
 42
20.0
 43
20.0
 50
90.0
  0
MTEXT
  5
13B3D
330
13319
100
AcDbEntity
  8
寸法線
 62
     0
440
 16777216
100
AcDbMText
 10
2778.749896414979
 20
800.0002290197054
 30
0.0
 40
25.0
 41
0.0
 46
0.0
 71
     5
 72
     1
  1
\A1;340
 11
0.0000000000000001
 21
1.0
 31
0.0
 73
     1
 44
1.0
  0
POINT
  5
13B3E
330
13319
100
AcDbEntity
  8
Defpoints
 62
     0
440
 16777216
100
AcDbPoint
 10
2725.000120199397
 20
630.0002290197055
 30
0.0
  0
POINT
  5
13B3F
330
13319
100
AcDbEntity
  8
Defpoints
 62
     0
440
 16777216
100
AcDbPoint
 10
2725.000120199397
 20
970.0002290197058
 30
0.0
  0
POINT
  5
13B40
330
13319
100
AcDbEntity
  8
Defpoints
 62
     0
440
 16777216
100
AcDbPoint
 10
2799.99989641498
 20
970.0002290197058
 30
0.0
  0
ENDBLK
  5
1331B
330
13319
100
AcDbEntity
  8
0
100
AcDbBlockEnd
  0
BLOCK
  5
13326
330
13325
100
AcDbEntity
  8
0
100
AcDbBlockBegin
  2
*D2
 70
     1
 10
0.0
 20
0.0
 30
0.0
  3
*D2
  1

  0
LINE
  5
13B41
330
13325
100
AcDbEntity
  8
寸法線
 62
     0
440
 16777216
370
    -2
100
AcDbLine
 10
2718.74989641498
 20
590.0004634476547
 30
0.0
 11
2809.999896414979
 21
590.0004634476547
 31
0.0
  0
LINE
  5
13B42
330
13325
100
AcDbEntity
  8
寸法線
 62
     0
440
 16777216
370
    -2
100
AcDbLine
 10
2733.750120199397
 20
630.0002290197055
 30
0.0
 11
2809.999896414979
 21
630.0002290197055
 31
0.0
  0
LINE
  5
13B43
330
13325
100
AcDbEntity
  8
寸法線
 62
     0
440
 16777216
370
    -2
100
AcDbLine
 10
2799.99989641498
 20
570.0004634476547
 30
0.0
 11
2799.99989641498
 21
550.0004634476547
 31
0.0
  0
LINE
  5
13B44
330
13325
100
AcDbEntity
  8
寸法線
 62
     0
440
 16777216
370
    -2
100
AcDbLine
 10
2799.99989641498
 20
650.0002290197055
 30
0.0
 11
2799.99989641498
 21
670.0002290197055
 31
0.0
  0
LINE
  5
13B45
330
13325
100
AcDbEntity
  8
寸法線
 62
     0
440
 16777216
370
    -2
100
AcDbLine
 10
2799.99989641498
 20
590.0004634476547
 30
0.0
 11
2799.99989641498
 21
630.0002290197055
 31
0.0
  0
INSERT
  5
13B46
330
13325
100
AcDbEntity
  8
寸法線
 62
     0
440
 16777216
370
    -2
100
AcDbBlockReference
  2
_OPEN
 10
2799.99989641498
 20
590.0004634476547
 30
0.0
 41
20.0
 42
20.0
 43
20.0
 50
90.0
  0
INSERT
  5
13B47
330
13325
100
AcDbEntity
  8
寸法線
 62
     0
440
 16777216
370
    -2
100
AcDbBlockReference
  2
_OPEN
 10
2799.99989641498
 20
630.0002290197055
 30
0.0
 41
20.0
 42
20.0
 43
20.0
 50
270.0
  0
MTEXT
  5
13B48
330
13325
100
AcDbEntity
  8
寸法線
 62
     0
440
 16777216
100
AcDbMText
 10
2778.749896414979
 20
610.0003462336793
 30
0.0
 40
25.0
 41
0.0
 46
0.0
 71
     5
 72
     1
  1
\A1;40
 11
0.0000000000000001
 21
1.0
 31
0.0
 73
     1
 44
1.0
  0
POINT
  5
13B49
330
13325
100
AcDbEntity
  8
Defpoints
 62
     0
440
 16777216
100
AcDbPoint
 10
2709.99989641498
 20
590.0004634476547
 30
0.0
  0
POINT
  5
13B4A
330
13325
100
AcDbEntity
  8
Defpoints
 62
     0
440
 16777216
100
AcDbPoint
 10
2725.000120199397
 20
630.0002290197055
 30
0.0
  0
POINT
  5
13B4B
330
13325
100
AcDbEntity
  8
Defpoints
 62
     0
440
 16777216
100
AcDbPoint
 10
2799.99989641498
 20
630.0002290197055
 30
0.0
  0
ENDBLK
  5
13327
330
13325
100
AcDbEntity
  8
0
100
AcDbBlockEnd
  0
BLOCK
  5
13334
330
13333
100
AcDbEntity
  8
0
100
AcDbBlockBegin
  2
*D3
 70
     1
 10
0.0
 20
0.0
 30
0.0
  3
*D3
  1

  0
LINE
  5
13B4C
330
13333
100
AcDbEntity
  8
寸法線
 62
     0
440
 16777216
370
    -2
100
AcDbLine
 10
2670.000120199396
 20
566.2502290197052
 30
0.0
 11
2670.000120199396
 21
489.9999581025108
 31
0.0
  0
LINE
  5
13B4D
330
13333
100
AcDbEntity
  8
寸法線
 62
     0
440
 16777216
370
    -2
100
AcDbLine
 10
2709.999896414979
 20
581.2504634476545
 30
0.0
 11
2709.999896414979
 21
489.9999581025108
 31
0.0
  0
LINE
  5
13B4E
330
13333
100
AcDbEntity
  8
寸法線
 62
     0
440
 16777216
370
    -2
100
AcDbLine
 10
2650.000120199396
 20
499.9999581025108
 30
0.0
 11
2630.000120199396
 21
499.9999581025108
 31
0.0
  0
LINE
  5
13B4F
330
13333
100
AcDbEntity
  8
寸法線
 62
     0
440
 16777216
370
    -2
100
AcDbLine
 10
2729.999896414979
 20
499.9999581025108
 30
0.0
 11
2749.999896414979
 21
499.9999581025108
 31
0.0
  0
LINE
  5
13B50
330
13333
100
AcDbEntity
  8
寸法線
 62
     0
440
 16777216
370
    -2
100
AcDbLine
 10
2670.000120199396
 20
499.9999581025108
 30
0.0
 11
2709.999896414979
 21
499.9999581025108
 31
0.0
  0
INSERT
  5
13B51
330
13333
100
AcDbEntity
  8
寸法線
 62
     0
440
 16777216
370
    -2
100
AcDbBlockReference
  2
_OPEN
 10
2670.000120199396
 20
499.9999581025108
 30
0.0
 41
20.0
 42
20.0
 43
20.0
  0
INSERT
  5
13B52
330
13333
100
AcDbEntity
  8
寸法線
 62
     0
440
 16777216
370
    -2
100
AcDbBlockReference
  2
_OPEN
 10
2709.999896414979
 20
499.9999581025108
 30
0.0
 41
20.0
 42
20.0
 43
20.0
 50
180.0
  0
MTEXT
  5
13B53
330
13333
100
AcDbEntity
  8
寸法線
 62
     0
440
 16777216
100
AcDbMText
 10
2690.000008307187
 20
521.2499581025108
 30
0.0
 40
25.0
 41
0.0
 46
0.0
 71
     5
 72
     1
  1
\A1;40
 73
     1
 44
1.0
  0
POINT
  5
13B54
330
13333
100
AcDbEntity
  8
Defpoints
 62
     0
440
 16777216
100
AcDbPoint
 10
2670.000120199396
 20
575.0002290197053
 30
0.0
  0
POINT
  5
13B55
330
13333
100
AcDbEntity
  8
Defpoints
 62
     0
440
 16777216
100
AcDbPoint
 10
2709.999896414979
 20
590.0004634476545
 30
0.0
  0
POINT
  5
13B56
330
13333
100
AcDbEntity
  8
Defpoints
 62
     0
440
 16777216
100
AcDbPoint
 10
2709.999896414979
 20
499.9999581025108
 30
0.0
  0
ENDBLK
  5
13335
330
13333
100
AcDbEntity
  8
0
100
AcDbBlockEnd
  0
BLOCK
  5
13342
330
13341
100
AcDbEntity
  8
0
100
AcDbBlockBegin
  2
*D4
 70
     1
 10
0.0
 20
0.0
 30
0.0
  3
*D4
  1

  0
LINE
  5
13B57
330
13341
100
AcDbEntity
  8
寸法線
 62
     0
440
 16777216
370
    -2
100
AcDbLine
 10
3306.868466038583
 20
877.577881465007
 30
0.0
 11
3306.243466978216
 21
878.6604137632762
 31
0.0
  0
LINE
  5
13B58
330
13341
100
AcDbEntity
  8
寸法線
 62
     0
440
 16777216
370
    -2
100
AcDbLine
 10
3073.131218238309
 20
722.4226398823365
 30
0.0
 11
3073.756217299615
 21
721.34010758244
 31
0.0
  0
LINE
  5
13B59
330
13341
100
AcDbEntity
  8
寸法線
 62
     0
440
 16777216
370
    -2
100
AcDbLine
 10
3293.922942697732
 20
860.0001704247242
 30
0.0
 11
3086.076741580099
 21
740.0003509209922
 31
0.0
  0
INSERT
  5
13B5A
330
13341
100
AcDbEntity
  8
寸法線
 62
     0
440
 16777216
370
    -2
100
AcDbBlockReference
  2
_OPEN
 10
3311.24345945754
 20
870.0001553833718
 30
0.0
 41
20.0
 42
20.0
 43
20.0
 50
29.99995024362
  0
INSERT
  5
13B5B
330
13341
100
AcDbEntity
  8
寸法線
 62
     0
440
 16777216
370
    -2
100
AcDbBlockReference
  2
_OPEN
 10
3068.756224820291
 20
730.0003659623444
 30
0.0
 41
20.0
 42
20.0
 43
20.0
 50
209.99995024362
  0
MTEXT
  5
13B5C
330
13341
100
AcDbEntity
  8
寸法線
 62
     0
440
 16777216
100
AcDbMText
 10
3242.999509797762
 20
855.1397871225738
 30
0.0
 40
25.0
 41
0.0
 46
0.0
 71
     5
 72
     1
  1
\A1;φ280
 11
0.8660258379904393
 21
0.4999992479323918
 31
0.0
 73
     1
 44
1.0
  0
POINT
  5
13B5D
330
13341
100
AcDbEntity
  8
Defpoints
 62
     0
440
 16777216
100
AcDbPoint
 10
3311.243459457991
 20
870.0001553825908
 30
0.0
  0
POINT
  5
13B5E
330
13341
100
AcDbEntity
  8
Defpoints
 62
     0
440
 16777216
100
AcDbPoint
 10
3068.7562248189
 20
730.0003659647528
 30
0.0
  0
POINT
  5
13B5F
330
13341
100
AcDbEntity
  8
Defpoints
 62
     0
440
 16777216
100
AcDbPoint
 10
3068.756224820291
 20
730.0003659623444
 30
0.0
  0
ENDBLK
  5
13343
330
13341
100
AcDbEntity
  8
0
100
AcDbBlockEnd
  0
BLOCK
  5
1334E
330
1334D
100
AcDbEntity
  8
0
100
AcDbBlockBegin
  2
*D5
 70
     1
 10
0.0
 20
0.0
 30
0.0
  3
*D5
  1

  0
LINE
  5
13B60
330
1334D
100
AcDbEntity
  8
寸法線
 62
     0
440
 16777216
370
    -2
100
AcDbLine
 10
2959.999679308204
 20
561.2501666637881
 30
0.0
 11
2959.999679308204
 21
489.9999581025108
 31
0.0
  0
LINE
  5
13B61
330
1334D
100
AcDbEntity
  8
寸法線
 62
     0
440
 16777216
370
    -2
100
AcDbLine
 10
3419.999896414979
 20
561.2499945917853
 30
0.0
 11
3419.999896414979
 21
489.9999581025108
 31
0.0
  0
LINE
  5
13B62
330
1334D
100
AcDbEntity
  8
寸法線
 62
     0
440
 16777216
370
    -2
100
AcDbLine
 10
2979.999679308204
 20
499.9999581025108
 30
0.0
 11
3399.999896414979
 21
499.9999581025108
 31
0.0
  0
INSERT
  5
13B63
330
1334D
100
AcDbEntity
  8
寸法線
 62
     0
440
 16777216
370
    -2
100
AcDbBlockReference
  2
_OPEN
 10
2959.999679308204
 20
499.9999581025108
 30
0.0
 41
20.0
 42
20.0
 43
20.0
 50
180.0
  0
INSERT
  5
13B64
330
1334D
100
AcDbEntity
  8
寸法線
 62
     0
440
 16777216
370
    -2
100
AcDbBlockReference
  2
_OPEN
 10
3419.999896414979
 20
499.9999581025108
 30
0.0
 41
20.0
 42
20.0
 43
20.0
  0
MTEXT
  5
13B65
330
1334D
100
AcDbEntity
  8
寸法線
 62
     0
440
 16777216
100
AcDbMText
 10
3189.999787861591
 20
521.2499581025108
 30
0.0
 40
25.0
 41
0.0
 46
0.0
 71
     5
 72
     1
  1
\A1;460
 73
     1
 44
1.0
  0
POINT
  5
13B66
330
1334D
100
AcDbEntity
  8
Defpoints
 62
     0
440
 16777216
100
AcDbPoint
 10
2959.999679308204
 20
570.0001666637881
 30
0.0
  0
POINT
  5
13B67
330
1334D
100
AcDbEntity
  8
Defpoints
 62
     0
440
 16777216
100
AcDbPoint
 10
3419.999896414979
 20
569.9999945917852
 30
0.0
  0
POINT
  5
13B68
330
1334D
100
AcDbEntity
  8
Defpoints
 62
     0
440
 16777216
100
AcDbPoint
 10
3419.999896414979
 20
499.9999581025108
 30
0.0
  0
ENDBLK
  5
1334F
330
1334D
100
AcDbEntity
  8
0
100
AcDbBlockEnd
  0
BLOCK
  5
1335A
330
13359
100
AcDbEntity
  8
0
100
AcDbBlockBegin
  2
*D6
 70
     1
 10
0.0
 20
0.0
 30
0.0
  3
*D6
  1

  0
LINE
  5
13B69
330
13359
100
AcDbEntity
  8
寸法線
 62
     0
440
 16777216
370
    -2
100
AcDbLine
 10
3428.749896414981
 20
569.9999945917855
 30
0.0
 11
3499.99989641528
 21
569.9999945917855
 31
0.0
  0
LINE
  5
13B6A
330
13359
100
AcDbEntity
  8
寸法線
 62
     0
440
 16777216
370
    -2
100
AcDbLine
 10
3428.749896414981
 20
1029.999994591785
 30
0.0
 11
3499.99989641528
 21
1029.999994591785
 31
0.0
  0
LINE
  5
13B6B
330
13359
100
AcDbEntity
  8
寸法線
 62
     0
440
 16777216
370
    -2
100
AcDbLine
 10
3489.99989641528
 20
589.9999945917854
 30
0.0
 11
3489.99989641528
 21
1009.999994591786
 31
0.0
  0
INSERT
  5
13B6C
330
13359
100
AcDbEntity
  8
寸法線
 62
     0
440
 16777216
370
    -2
100
AcDbBlockReference
  2
_OPEN
 10
3489.99989641528
 20
569.9999945917855
 30
0.0
 41
20.0
 42
20.0
 43
20.0
 50
270.0
  0
INSERT
  5
13B6D
330
13359
100
AcDbEntity
  8
寸法線
 62
     0
440
 16777216
370
    -2
100
AcDbBlockReference
  2
_OPEN
 10
3489.999896415279
 20
1029.999994591785
 30
0.0
 41
20.0
 42
20.0
 43
20.0
 50
90.0
  0
MTEXT
  5
13B6E
330
13359
100
AcDbEntity
  8
寸法線
 62
     0
440
 16777216
100
AcDbMText
 10
3468.749896415279
 20
799.9999945917844
 30
0.0
 40
25.0
 41
0.0
 46
0.0
 71
     5
 72
     1
  1
\A1;460
 11
0.0000000000000001
 21
1.0
 31
0.0
 73
     1
 44
1.0
  0
POINT
  5
13B6F
330
13359
100
AcDbEntity
  8
Defpoints
 62
     0
440
 16777216
100
AcDbPoint
 10
3419.999896414981
 20
569.9999945917855
 30
0.0
  0
POINT
  5
13B70
330
13359
100
AcDbEntity
  8
Defpoints
 62
     0
440
 16777216
100
AcDbPoint
 10
3419.999896414981
 20
1029.999994591785
 30
0.0
  0
POINT
  5
13B71
330
13359
100
AcDbEntity
  8
Defpoints
 62
     0
440
 16777216
100
AcDbPoint
 10
3489.999896415279
 20
1029.999994591785
 30
0.0
  0
ENDBLK
  5
1335B
330
13359
100
AcDbEntity
  8
0
100
AcDbBlockEnd
  0
BLOCK
  5
13366
330
13365
100
AcDbEntity
  8
0
100
AcDbBlockBegin
  2
*D7
 70
     1
 10
0.0
 20
0.0
 30
0.0
  3
*D7
  1

  0
LINE
  5
13B72
330
13365
100
AcDbEntity
  8
寸法線
 62
     0
440
 16777216
370
    -2
100
AcDbLine
 10
1515.999896414979
 20
1018.749714552276
 30
0.0
 11
1515.999896414979
 21
1109.999484685529
 31
0.0
  0
LINE
  5
13B73
330
13365
100
AcDbEntity
  8
寸法線
 62
     0
440
 16777216
370
    -2
100
AcDbLine
 10
1791.999948207486
 20
1038.749714552277
 30
0.0
 11
1791.999948207486
 21
1109.999484685529
 31
0.0
  0
LINE
  5
13B74
330
13365
100
AcDbEntity
  8
寸法線
 62
     0
440
 16777216
370
    -2
100
AcDbLine
 10
1535.999896414979
 20
1099.999484685529
 30
0.0
 11
1771.999948207486
 21
1099.999484685529
 31
0.0
  0
INSERT
  5
13B75
330
13365
100
AcDbEntity
  8
寸法線
 62
     0
440
 16777216
370
    -2
100
AcDbBlockReference
  2
_OPEN
 10
1515.999896414979
 20
1099.999484685529
 30
0.0
 41
20.0
 42
20.0
 43
20.0
 50
180.0
  0
INSERT
  5
13B76
330
13365
100
AcDbEntity
  8
寸法線
 62
     0
440
 16777216
370
    -2
100
AcDbBlockReference
  2
_OPEN
 10
1791.999948207486
 20
1099.999484685529
 30
0.0
 41
20.0
 42
20.0
 43
20.0
  0
MTEXT
  5
13B77
330
13365
100
AcDbEntity
  8
寸法線
 62
     0
440
 16777216
100
AcDbMText
 10
1653.999922311233
 20
1121.25194531545
 30
0.0
 40
25.0
 41
0.0
 46
0.0
 71
     5
 72
     1
  1
\A1;276
 73
     1
 44
1.0
  0
POINT
  5
13B78
330
13365
100
AcDbEntity
  8
Defpoints
 62
     0
440
 16777216
100
AcDbPoint
 10
1515.999896414979
 20
1009.999714552276
 30
0.0
  0
POINT
  5
13B79
330
13365
100
AcDbEntity
  8
Defpoints
 62
     0
440
 16777216
100
AcDbPoint
 10
1791.999948207486
 20
1029.999714552277
 30
0.0
  0
POINT
  5
13B7A
330
13365
100
AcDbEntity
  8
Defpoints
 62
     0
440
 16777216
100
AcDbPoint
 10
1791.999948207486
 20
1099.999484685529
 30
0.0
  0
ENDBLK
  5
13367
330
13365
100
AcDbEntity
  8
0
100
AcDbBlockEnd
  0
BLOCK
  5
13372
330
13371
100
AcDbEntity
  8
0
100
AcDbBlockBegin
  2
*D8
 70
     1
 10
0.0
 20
0.0
 30
0.0
  3
*D8
  1

  0
LINE
  5
13B7B
330
13371
100
AcDbEntity
  8
寸法線
 62
     0
440
 16777216
370
    -2
100
AcDbLine
 10
1807.999948207486
 20
1038.749714552277
 30
0.0
 11
1807.999948207486
 21
1109.999484685529
 31
0.0
  0
LINE
  5
13B7C
330
13371
100
AcDbEntity
  8
寸法線
 62
     0
440
 16777216
370
    -2
100
AcDbLine
 10
2083.999896414979
 20
1018.749714552276
 30
0.0
 11
2083.999896414979
 21
1109.999484685529
 31
0.0
  0
LINE
  5
13B7D
330
13371
100
AcDbEntity
  8
寸法線
 62
     0
440
 16777216
370
    -2
100
AcDbLine
 10
1827.999948207486
 20
1099.999484685529
 30
0.0
 11
2063.999896414979
 21
1099.999484685529
 31
0.0
  0
INSERT
  5
13B7E
330
13371
100
AcDbEntity
  8
寸法線
 62
     0
440
 16777216
370
    -2
100
AcDbBlockReference
  2
_OPEN
 10
1807.999948207486
 20
1099.999484685529
 30
0.0
 41
20.0
 42
20.0
 43
20.0
 50
180.0
  0
INSERT
  5
13B7F
330
13371
100
AcDbEntity
  8
寸法線
 62
     0
440
 16777216
370
    -2
100
AcDbBlockReference
  2
_OPEN
 10
2083.999896414979
 20
1099.999484685529
 30
0.0
 41
20.0
 42
20.0
 43
20.0
  0
MTEXT
  5
13B80
330
13371
100
AcDbEntity
  8
寸法線
 62
     0
440
 16777216
100
AcDbMText
 10
1945.999922311233
 20
1121.25194531545
 30
0.0
 40
25.0
 41
0.0
 46
0.0
 71
     5
 72
     1
  1
\A1;276
 73
     1
 44
1.0
  0
POINT
  5
13B81
330
13371
100
AcDbEntity
  8
Defpoints
 62
     0
440
 16777216
100
AcDbPoint
 10
1807.999948207486
 20
1029.999714552277
 30
0.0
  0
POINT
  5
13B82
330
13371
100
AcDbEntity
  8
Defpoints
 62
     0
440
 16777216
100
AcDbPoint
 10
2083.999896414979
 20
1009.999714552276
 30
0.0
  0
POINT
  5
13B83
330
13371
100
AcDbEntity
  8
Defpoints
 62
     0
440
 16777216
100
AcDbPoint
 10
2083.999896414979
 20
1099.999484685529
 30
0.0
  0
ENDBLK
  5
13373
330
13371
100
AcDbEntity
  8
0
100
AcDbBlockEnd
  0
BLOCK
  5
1337E
330
1337D
100
AcDbEntity
  8
0
100
AcDbBlockBegin
  2
*D9
 70
     1
 10
0.0
 20
0.0
 30
0.0
  3
*D9
  1

  0
LINE
  5
13B84
330
1337D
100
AcDbEntity
  8
寸法線
 62
     0
440
 16777216
370
    -2
100
AcDbLine
 10
1791.999948207486
 20
1038.749714552277
 30
0.0
 11
1791.999948207486
 21
1109.999484685529
 31
0.0
  0
LINE
  5
13B85
330
1337D
100
AcDbEntity
  8
寸法線
 62
     0
440
 16777216
370
    -2
100
AcDbLine
 10
1807.999948207486
 20
1038.749714552277
 30
0.0
 11
1807.999948207486
 21
1109.999484685529
 31
0.0
  0
LINE
  5
13B86
330
1337D
100
AcDbEntity
  8
寸法線
 62
     0
440
 16777216
370
    -2
100
AcDbLine
 10
1771.999948207486
 20
1099.999484685529
 30
0.0
 11
1751.999948207486
 21
1099.999484685529
 31
0.0
  0
LINE
  5
13B87
330
1337D
100
AcDbEntity
  8
寸法線
 62
     0
440
 16777216
370
    -2
100
AcDbLine
 10
1827.999948207486
 20
1099.999484685529
 30
0.0
 11
1847.999948207486
 21
1099.999484685529
 31
0.0
  0
LINE
  5
13B88
330
1337D
100
AcDbEntity
  8
寸法線
 62
     0
440
 16777216
370
    -2
100
AcDbLine
 10
1791.999948207486
 20
1099.999484685529
 30
0.0
 11
1807.999948207486
 21
1099.999484685529
 31
0.0
  0
INSERT
  5
13B89
330
1337D
100
AcDbEntity
  8
寸法線
 62
     0
440
 16777216
370
    -2
100
AcDbBlockReference
  2
_OPEN
 10
1791.999948207486
 20
1099.999484685529
 30
0.0
 41
20.0
 42
20.0
 43
20.0
  0
INSERT
  5
13B8A
330
1337D
100
AcDbEntity
  8
寸法線
 62
     0
440
 16777216
370
    -2
100
AcDbBlockReference
  2
_OPEN
 10
1807.999948207486
 20
1099.999484685529
 30
0.0
 41
20.0
 42
20.0
 43
20.0
 50
180.0
  0
MTEXT
  5
13B8B
330
1337D
100
AcDbEntity
  8
寸法線
 62
     0
440
 16777216
100
AcDbMText
 10
1799.999948207486
 20
1121.249484685529
 30
0.0
 40
25.0
 41
0.0
 46
0.0
 71
     5
 72
     1
  1
\A1;16
 73
     1
 44
1.0
  0
POINT
  5
13B8C
330
1337D
100
AcDbEntity
  8
Defpoints
 62
     0
440
 16777216
100
AcDbPoint
 10
1791.999948207486
 20
1029.999714552277
 30
0.0
  0
POINT
  5
13B8D
330
1337D
100
AcDbEntity
  8
Defpoints
 62
     0
440
 16777216
100
AcDbPoint
 10
1807.999948207486
 20
1029.999714552277
 30
0.0
  0
POINT
  5
13B8E
330
1337D
100
AcDbEntity
  8
Defpoints
 62
     0
440
 16777216
100
AcDbPoint
 10
1807.999948207486
 20
1099.999484685529
 30
0.0
  0
ENDBLK
  5
1337F
330
1337D
100
AcDbEntity
  8
0
100
AcDbBlockEnd
  0
BLOCK
  5
1338C
330
1338B
100
AcDbEntity
  8
0
100
AcDbBlockBegin
  2
*D10
 70
     1
 10
0.0
 20
0.0
 30
0.0
  3
*D10
  1

  0
LINE
  5
13B8F
330
1338B
100
AcDbEntity
  8
寸法線
 62
     0
440
 16777216
370
    -2
100
AcDbLine
 10
2658.750226983164
 20
2436.00001811762
 30
0.0
 11
2780.000226983163
 21
2436.00001811762
 31
0.0
  0
LINE
  5
13B90
330
1338B
100
AcDbEntity
  8
寸法線
 62
     0
440
 16777216
370
    -2
100
AcDbLine
 10
2658.750226983164
 20
2054.000018117619
 30
0.0
 11
2780.000226983163
 21
2054.000018117619
 31
0.0
  0
LINE
  5
13B91
330
1338B
100
AcDbEntity
  8
寸法線
 62
     0
440
 16777216
370
    -2
100
AcDbLine
 10
2770.000226983163
 20
2416.00001811762
 30
0.0
 11
2770.000226983163
 21
2074.000018117619
 31
0.0
  0
INSERT
  5
13B92
330
1338B
100
AcDbEntity
  8
寸法線
 62
     0
440
 16777216
370
    -2
100
AcDbBlockReference
  2
_OPEN
 10
2770.000226983163
 20
2436.00001811762
 30
0.0
 41
20.0
 42
20.0
 43
20.0
 50
90.0
  0
INSERT
  5
13B93
330
1338B
100
AcDbEntity
  8
寸法線
 62
     0
440
 16777216
370
    -2
100
AcDbBlockReference
  2
_OPEN
 10
2770.000226983163
 20
2054.000018117619
 30
0.0
 41
20.0
 42
20.0
 43
20.0
 50
270.0
  0
MTEXT
  5
13B94
330
1338B
100
AcDbEntity
  8
寸法線
 62
     0
440
 16777216
100
AcDbMText
 10
2748.747766353242
 20
2244.999980897945
 30
0.0
 40
25.0
 41
0.0
 46
0.0
 71
     5
 72
     1
  1
\A1;382
 11
0.0000000000000001
 21
1.0
 31
0.0
 73
     1
 44
1.0
  0
POINT
  5
13B95
330
1338B
100
AcDbEntity
  8
Defpoints
 62
     0
440
 16777216
100
AcDbPoint
 10
2650.000226983164
 20
2436.00001811762
 30
0.0
  0
POINT
  5
13B96
330
1338B
100
AcDbEntity
  8
Defpoints
 62
     0
440
 16777216
100
AcDbPoint
 10
2650.000226983164
 20
2054.000018117619
 30
0.0
  0
POINT
  5
13B97
330
1338B
100
AcDbEntity
  8
Defpoints
 62
     0
440
 16777216
100
AcDbPoint
 10
2770.000226983163
 20
2054.000018117619
 30
0.0
  0
ENDBLK
  5
1338D
330
1338B
100
AcDbEntity
  8
0
100
AcDbBlockEnd
  0
BLOCK
  5
13398
330
13397
100
AcDbEntity
  8
0
100
AcDbBlockBegin
  2
*D11
 70
     1
 10
0.0
 20
0.0
 30
0.0
  3
*D11
  1

  0
LINE
  5
13AB6
330
13397
100
AcDbEntity
  8
寸法線
 62
     0
440
 16777216
370
    -2
100
AcDbLine
 10
2051.999999999994
 20
591.2497145522766
 30
0.0
 11
2051.999999999994
 21
489.9999581025108
 31
0.0
  0
LINE
  5
13AB7
330
13397
100
AcDbEntity
  8
寸法線
 62
     0
440
 16777216
370
    -2
100
AcDbLine
 10
2083.999896414979
 20
581.2497145522765
 30
0.0
 11
2083.999896414979
 21
489.9999581025108
 31
0.0
  0
LINE
  5
13AB8
330
13397
100
AcDbEntity
  8
寸法線
 62
     0
440
 16777216
370
    -2
100
AcDbLine
 10
2031.999999999994
 20
499.9999581025108
 30
0.0
 11
2011.999999999994
 21
499.9999581025108
 31
0.0
  0
LINE
  5
13AB9
330
13397
100
AcDbEntity
  8
寸法線
 62
     0
440
 16777216
370
    -2
100
AcDbLine
 10
2103.999896414979
 20
499.9999581025108
 30
0.0
 11
2123.999896414979
 21
499.9999581025108
 31
0.0
  0
LINE
  5
13ABA
330
13397
100
AcDbEntity
  8
寸法線
 62
     0
440
 16777216
370
    -2
100
AcDbLine
 10
2051.999999999994
 20
499.9999581025108
 30
0.0
 11
2083.999896414979
 21
499.9999581025108
 31
0.0
  0
INSERT
  5
13ABB
330
13397
100
AcDbEntity
  8
寸法線
 62
     0
440
 16777216
370
    -2
100
AcDbBlockReference
  2
_OPEN
 10
2051.999999999994
 20
499.9999581025108
 30
0.0
 41
20.0
 42
20.0
 43
20.0
  0
INSERT
  5
13ABC
330
13397
100
AcDbEntity
  8
寸法線
 62
     0
440
 16777216
370
    -2
100
AcDbBlockReference
  2
_OPEN
 10
2083.999896414979
 20
499.9999581025108
 30
0.0
 41
20.0
 42
20.0
 43
20.0
 50
180.0
  0
MTEXT
  5
13ABD
330
13397
100
AcDbEntity
  8
寸法線
 62
     0
440
 16777216
100
AcDbMText
 10
2067.999948207486
 20
521.2524187324321
 30
0.0
 40
25.0
 41
0.0
 46
0.0
 71
     5
 72
     1
  1
\A1;32
 73
     1
 44
1.0
  0
POINT
  5
13ABE
330
13397
100
AcDbEntity
  8
Defpoints
 62
     0
440
 16777216
100
AcDbPoint
 10
2051.999999999994
 20
599.9997145522765
 30
0.0
  0
POINT
  5
13ABF
330
13397
100
AcDbEntity
  8
Defpoints
 62
     0
440
 16777216
100
AcDbPoint
 10
2083.999896414979
 20
589.9997145522766
 30
0.0
  0
POINT
  5
13AC0
330
13397
100
AcDbEntity
  8
Defpoints
 62
     0
440
 16777216
100
AcDbPoint
 10
2083.999896414979
 20
499.9999581025108
 30
0.0
  0
ENDBLK
  5
13399
330
13397
100
AcDbEntity
  8
0
100
AcDbBlockEnd
  0
BLOCK
  5
133A6
330
133A5
100
AcDbEntity
  8
0
100
AcDbBlockBegin
  2
*D12
 70
     1
 10
0.0
 20
0.0
 30
0.0
  3
*D12
  1

  0
LINE
  5
13AC1
330
133A5
100
AcDbEntity
  8
寸法線
 62
     0
440
 16777216
370
    -2
100
AcDbLine
 10
2083.999896414979
 20
581.2497145522765
 30
0.0
 11
2083.999896414979
 21
429.9999581025108
 31
0.0
  0
LINE
  5
13AC2
330
133A5
100
AcDbEntity
  8
寸法線
 62
     0
440
 16777216
370
    -2
100
AcDbLine
 10
2099.999896414979
 20
581.2497145522765
 30
0.0
 11
2099.999896414979
 21
429.9999581025108
 31
0.0
  0
LINE
  5
13AC3
330
133A5
100
AcDbEntity
  8
寸法線
 62
     0
440
 16777216
370
    -2
100
AcDbLine
 10
2063.999896414979
 20
439.9999581025108
 30
0.0
 11
2043.999896414979
 21
439.9999581025108
 31
0.0
  0
LINE
  5
13AC4
330
133A5
100
AcDbEntity
  8
寸法線
 62
     0
440
 16777216
370
    -2
100
AcDbLine
 10
2119.999896414979
 20
439.9999581025108
 30
0.0
 11
2139.999896414979
 21
439.9999581025108
 31
0.0
  0
LINE
  5
13AC5
330
133A5
100
AcDbEntity
  8
寸法線
 62
     0
440
 16777216
370
    -2
100
AcDbLine
 10
2083.999896414979
 20
439.9999581025108
 30
0.0
 11
2099.999896414979
 21
439.9999581025108
 31
0.0
  0
INSERT
  5
13AC6
330
133A5
100
AcDbEntity
  8
寸法線
 62
     0
440
 16777216
370
    -2
100
AcDbBlockReference
  2
_OPEN
 10
2083.999896414979
 20
439.9999581025108
 30
0.0
 41
20.0
 42
20.0
 43
20.0
  0
INSERT
  5
13AC7
330
133A5
100
AcDbEntity
  8
寸法線
 62
     0
440
 16777216
370
    -2
100
AcDbBlockReference
  2
_OPEN
 10
2099.999896414979
 20
439.9999581025108
 30
0.0
 41
20.0
 42
20.0
 43
20.0
 50
180.0
  0
MTEXT
  5
13AC8
330
133A5
100
AcDbEntity
  8
寸法線
 62
     0
440
 16777216
100
AcDbMText
 10
2091.999896414979
 20
461.2499581025108
 30
0.0
 40
25.0
 41
0.0
 46
0.0
 71
     5
 72
     1
  1
\A1;16
 73
     1
 44
1.0
  0
POINT
  5
13AC9
330
133A5
100
AcDbEntity
  8
Defpoints
 62
     0
440
 16777216
100
AcDbPoint
 10
2083.999896414979
 20
589.9997145522766
 30
0.0
  0
POINT
  5
13ACA
330
133A5
100
AcDbEntity
  8
Defpoints
 62
     0
440
 16777216
100
AcDbPoint
 10
2099.999896414979
 20
589.9997145522766
 30
0.0
  0
POINT
  5
13ACB
330
133A5
100
AcDbEntity
  8
Defpoints
 62
     0
440
 16777216
100
AcDbPoint
 10
2099.999896414979
 20
439.9999581025108
 30
0.0
  0
ENDBLK
  5
133A7
330
133A5
100
AcDbEntity
  8
0
100
AcDbBlockEnd
  0
BLOCK
  5
133B4
330
133B3
100
AcDbEntity
  8
0
100
AcDbBlockBegin
  2
*D13
 70
     1
 10
0.0
 20
0.0
 30
0.0
  3
*D13
  1

  0
LINE
  5
13ACC
330
133B3
100
AcDbEntity
  8
寸法線
 62
     0
440
 16777216
370
    -2
100
AcDbLine
 10
2015.24989641498
 20
939.9997145522771
 30
0.0
 11
2013.999896414979
 21
939.9997145522771
 31
0.0
  0
LINE
  5
13ACD
330
133B3
100
AcDbEntity
  8
寸法線
 62
     0
440
 16777216
370
    -2
100
AcDbLine
 10
2015.24989641498
 20
999.9997145522771
 30
0.0
 11
2013.999896414979
 21
999.9997145522771
 31
0.0
  0
LINE
  5
13ACE
330
133B3
100
AcDbEntity
  8
寸法線
 62
     0
440
 16777216
370
    -2
100
AcDbLine
 10
2023.999896414979
 20
979.999714552277
 30
0.0
 11
2023.999896414979
 21
959.999714552277
 31
0.0
  0
LINE
  5
13ACF
330
133B3
100
AcDbEntity
  8
寸法線
 62
     0
440
 16777216
370
    -2
100
AcDbLine
 10
2023.999896414979
 20
939.9997145522771
 30
0.0
 11
2023.999896414979
 21
852.4800295128859
 31
0.0
  0
INSERT
  5
13AD0
330
133B3
100
AcDbEntity
  8
寸法線
 62
     0
440
 16777216
370
    -2
100
AcDbBlockReference
  2
_OPEN
 10
2023.999896414979
 20
999.9997145522771
 30
0.0
 41
20.0
 42
20.0
 43
20.0
 50
90.0
  0
INSERT
  5
13AD1
330
133B3
100
AcDbEntity
  8
寸法線
 62
     0
440
 16777216
370
    -2
100
AcDbBlockReference
  2
_OPEN
 10
2023.999896414979
 20
939.9997145522771
 30
0.0
 41
20.0
 42
20.0
 43
20.0
 50
270.0
  0
MTEXT
  5
13AD2
330
133B3
100
AcDbEntity
  8
寸法線
 62
     0
440
 16777216
100
AcDbMText
 10
2002.749896414979
 20
886.23987203257
 30
0.0
 40
25.0
 41
0.0
 46
0.0
 71
     5
 72
     1
  1
\A1;%%C60
 11
0.0000000000000001
 21
1.0
 31
0.0
 73
     1
 44
1.0
  0
POINT
  5
13AD3
330
133B3
100
AcDbEntity
  8
Defpoints
 62
     0
440
 16777216
100
AcDbPoint
 10
2023.99989641498
 20
939.9997145522771
 30
0.0
  0
POINT
  5
13AD4
330
133B3
100
AcDbEntity
  8
Defpoints
 62
     0
440
 16777216
100
AcDbPoint
 10
2023.99989641498
 20
999.9997145522771
 30
0.0
  0
POINT
  5
13AD5
330
133B3
100
AcDbEntity
  8
Defpoints
 62
     0
440
 16777216
100
AcDbPoint
 10
2023.999896414979
 20
999.9997145522771
 30
0.0
  0
ENDBLK
  5
133B5
330
133B3
100
AcDbEntity
  8
0
100
AcDbBlockEnd
  0
BLOCK
  5
133C1
330
133C0
100
AcDbEntity
  8
0
100
AcDbBlockBegin
  2
*D14
 70
     1
 10
0.0
 20
0.0
 30
0.0
  3
*D14
  1

  0
LINE
  5
13AD6
330
133C0
100
AcDbEntity
  8
寸法線
 62
     0
440
 16777216
370
    -2
100
AcDbLine
 10
1515.999896414979
 20
581.249728235748
 30
0.0
 11
1515.999896414979
 21
489.9999581025108
 31
0.0
  0
LINE
  5
13AD7
330
133C0
100
AcDbEntity
  8
寸法線
 62
     0
440
 16777216
370
    -2
100
AcDbLine
 10
1547.999896414979
 20
591.249728235748
 30
0.0
 11
1547.999896414979
 21
489.9999581025108
 31
0.0
  0
LINE
  5
13AD8
330
133C0
100
AcDbEntity
  8
寸法線
 62
     0
440
 16777216
370
    -2
100
AcDbLine
 10
1495.999896414979
 20
499.9999581025108
 30
0.0
 11
1475.999896414979
 21
499.9999581025108
 31
0.0
  0
LINE
  5
13AD9
330
133C0
100
AcDbEntity
  8
寸法線
 62
     0
440
 16777216
370
    -2
100
AcDbLine
 10
1567.999896414979
 20
499.9999581025108
 30
0.0
 11
1587.999896414979
 21
499.9999581025108
 31
0.0
  0
LINE
  5
13ADA
330
133C0
100
AcDbEntity
  8
寸法線
 62
     0
440
 16777216
370
    -2
100
AcDbLine
 10
1515.999896414979
 20
499.9999581025108
 30
0.0
 11
1547.999896414979
 21
499.9999581025108
 31
0.0
  0
INSERT
  5
13ADB
330
133C0
100
AcDbEntity
  8
寸法線
 62
     0
440
 16777216
370
    -2
100
AcDbBlockReference
  2
_OPEN
 10
1515.999896414979
 20
499.9999581025108
 30
0.0
 41
20.0
 42
20.0
 43
20.0
  0
INSERT
  5
13ADC
330
133C0
100
AcDbEntity
  8
寸法線
 62
     0
440
 16777216
370
    -2
100
AcDbBlockReference
  2
_OPEN
 10
1547.999896414979
 20
499.9999581025108
 30
0.0
 41
20.0
 42
20.0
 43
20.0
 50
180.0
  0
MTEXT
  5
13ADD
330
133C0
100
AcDbEntity
  8
寸法線
 62
     0
440
 16777216
100
AcDbMText
 10
1531.999896414979
 20
521.2524187324321
 30
0.0
 40
25.0
 41
0.0
 46
0.0
 71
     5
 72
     1
  1
\A1;32
 73
     1
 44
1.0
  0
POINT
  5
13ADE
330
133C0
100
AcDbEntity
  8
Defpoints
 62
     0
440
 16777216
100
AcDbPoint
 10
1515.999896414979
 20
589.9997282357481
 30
0.0
  0
POINT
  5
13ADF
330
133C0
100
AcDbEntity
  8
Defpoints
 62
     0
440
 16777216
100
AcDbPoint
 10
1547.999896414979
 20
599.999728235748
 30
0.0
  0
POINT
  5
13AE0
330
133C0
100
AcDbEntity
  8
Defpoints
 62
     0
440
 16777216
100
AcDbPoint
 10
1547.999896414979
 20
499.9999581025108
 30
0.0
  0
ENDBLK
  5
133C2
330
133C0
100
AcDbEntity
  8
0
100
AcDbBlockEnd
  0
BLOCK
  5
133CF
330
133CE
100
AcDbEntity
  8
0
100
AcDbBlockBegin
  2
*D15
 70
     1
 10
0.0
 20
0.0
 30
0.0
  3
*D15
  1

  0
LINE
  5
13AE1
330
133CE
100
AcDbEntity
  8
寸法線
 62
     0
440
 16777216
370
    -2
100
AcDbLine
 10
1547.999896414979
 20
591.249728235748
 30
0.0
 11
1547.999896414979
 21
489.9999581025108
 31
0.0
  0
LINE
  5
13AE2
330
133CE
100
AcDbEntity
  8
寸法線
 62
     0
440
 16777216
370
    -2
100
AcDbLine
 10
2051.999896414979
 20
591.2497145522766
 30
0.0
 11
2051.999896414979
 21
489.9999581025108
 31
0.0
  0
LINE
  5
13AE3
330
133CE
100
AcDbEntity
  8
寸法線
 62
     0
440
 16777216
370
    -2
100
AcDbLine
 10
1567.999896414979
 20
499.9999581025108
 30
0.0
 11
2031.999896414979
 21
499.9999581025108
 31
0.0
  0
INSERT
  5
13AE4
330
133CE
100
AcDbEntity
  8
寸法線
 62
     0
440
 16777216
370
    -2
100
AcDbBlockReference
  2
_OPEN
 10
1547.999896414979
 20
499.9999581025108
 30
0.0
 41
20.0
 42
20.0
 43
20.0
 50
180.0
  0
INSERT
  5
13AE5
330
133CE
100
AcDbEntity
  8
寸法線
 62
     0
440
 16777216
370
    -2
100
AcDbBlockReference
  2
_OPEN
 10
2051.999896414979
 20
499.9999581025108
 30
0.0
 41
20.0
 42
20.0
 43
20.0
  0
MTEXT
  5
13AE6
330
133CE
100
AcDbEntity
  8
寸法線
 62
     0
440
 16777216
100
AcDbMText
 10
1799.999896414979
 20
521.2499581025108
 30
0.0
 40
25.0
 41
0.0
 46
0.0
 71
     5
 72
     1
  1
\A1;504
 73
     1
 44
1.0
  0
POINT
  5
13AE7
330
133CE
100
AcDbEntity
  8
Defpoints
 62
     0
440
 16777216
100
AcDbPoint
 10
1547.999896414979
 20
599.999728235748
 30
0.0
  0
POINT
  5
13AE8
330
133CE
100
AcDbEntity
  8
Defpoints
 62
     0
440
 16777216
100
AcDbPoint
 10
2051.999896414979
 20
599.9997145522765
 30
0.0
  0
POINT
  5
13AE9
330
133CE
100
AcDbEntity
  8
Defpoints
 62
     0
440
 16777216
100
AcDbPoint
 10
2051.999896414979
 20
499.9999581025108
 30
0.0
  0
ENDBLK
  5
133D0
330
133CE
100
AcDbEntity
  8
0
100
AcDbBlockEnd
  0
BLOCK
  5
133DB
330
133DA
100
AcDbEntity
  8
0
100
AcDbBlockBegin
  2
*D16
 70
     1
 10
0.0
 20
0.0
 30
0.0
  3
*D16
  1

  0
LINE
  5
13AEA
330
133DA
100
AcDbEntity
  8
寸法線
 62
     0
440
 16777216
370
    -2
100
AcDbLine
 10
1499.999896414979
 20
581.249728235748
 30
0.0
 11
1499.999896414979
 21
429.9999581025108
 31
0.0
  0
LINE
  5
13AEB
330
133DA
100
AcDbEntity
  8
寸法線
 62
     0
440
 16777216
370
    -2
100
AcDbLine
 10
1515.999896414979
 20
581.249728235748
 30
0.0
 11
1515.999896414979
 21
429.9999581025108
 31
0.0
  0
LINE
  5
13AEC
330
133DA
100
AcDbEntity
  8
寸法線
 62
     0
440
 16777216
370
    -2
100
AcDbLine
 10
1479.999896414979
 20
439.9999581025108
 30
0.0
 11
1459.999896414979
 21
439.9999581025108
 31
0.0
  0
LINE
  5
13AED
330
133DA
100
AcDbEntity
  8
寸法線
 62
     0
440
 16777216
370
    -2
100
AcDbLine
 10
1535.999896414979
 20
439.9999581025108
 30
0.0
 11
1555.999896414979
 21
439.9999581025108
 31
0.0
  0
LINE
  5
13AEE
330
133DA
100
AcDbEntity
  8
寸法線
 62
     0
440
 16777216
370
    -2
100
AcDbLine
 10
1499.999896414979
 20
439.9999581025108
 30
0.0
 11
1515.999896414979
 21
439.9999581025108
 31
0.0
  0
INSERT
  5
13AEF
330
133DA
100
AcDbEntity
  8
寸法線
 62
     0
440
 16777216
370
    -2
100
AcDbBlockReference
  2
_OPEN
 10
1499.999896414979
 20
439.9999581025108
 30
0.0
 41
20.0
 42
20.0
 43
20.0
  0
INSERT
  5
13AF0
330
133DA
100
AcDbEntity
  8
寸法線
 62
     0
440
 16777216
370
    -2
100
AcDbBlockReference
  2
_OPEN
 10
1515.999896414979
 20
439.9999581025108
 30
0.0
 41
20.0
 42
20.0
 43
20.0
 50
180.0
  0
MTEXT
  5
13AF1
330
133DA
100
AcDbEntity
  8
寸法線
 62
     0
440
 16777216
100
AcDbMText
 10
1507.999896414979
 20
461.2499581025108
 30
0.0
 40
25.0
 41
0.0
 46
0.0
 71
     5
 72
     1
  1
\A1;16
 73
     1
 44
1.0
  0
POINT
  5
13AF2
330
133DA
100
AcDbEntity
  8
Defpoints
 62
     0
440
 16777216
100
AcDbPoint
 10
1499.999896414979
 20
589.9997282357481
 30
0.0
  0
POINT
  5
13AF3
330
133DA
100
AcDbEntity
  8
Defpoints
 62
     0
440
 16777216
100
AcDbPoint
 10
1515.999896414979
 20
589.9997282357481
 30
0.0
  0
POINT
  5
13AF4
330
133DA
100
AcDbEntity
  8
Defpoints
 62
     0
440
 16777216
100
AcDbPoint
 10
1515.999896414979
 20
439.9999581025108
 30
0.0
  0
ENDBLK
  5
133DC
330
133DA
100
AcDbEntity
  8
0
100
AcDbBlockEnd
  0
BLOCK
  5
133E9
330
133E8
100
AcDbEntity
  8
0
100
AcDbBlockBegin
  2
*D17
 70
     1
 10
0.0
 20
0.0
 30
0.0
  3
*D17
  1

  0
LINE
  5
13AF5
330
133E8
100
AcDbEntity
  8
寸法線
 62
     0
440
 16777216
370
    -2
100
AcDbLine
 10
1515.999896414979
 20
581.249728235748
 30
0.0
 11
1515.999896414979
 21
429.9999581025108
 31
0.0
  0
LINE
  5
13AF6
330
133E8
100
AcDbEntity
  8
寸法線
 62
     0
440
 16777216
370
    -2
100
AcDbLine
 10
2083.999896414979
 20
581.2497327968858
 30
0.0
 11
2083.999896414979
 21
429.9999581025108
 31
0.0
  0
LINE
  5
13AF7
330
133E8
100
AcDbEntity
  8
寸法線
 62
     0
440
 16777216
370
    -2
100
AcDbLine
 10
1535.999896414979
 20
439.9999581025108
 30
0.0
 11
2063.999896414979
 21
439.9999581025108
 31
0.0
  0
INSERT
  5
13AF8
330
133E8
100
AcDbEntity
  8
寸法線
 62
     0
440
 16777216
370
    -2
100
AcDbBlockReference
  2
_OPEN
 10
1515.999896414979
 20
439.9999581025108
 30
0.0
 41
20.0
 42
20.0
 43
20.0
 50
180.0
  0
INSERT
  5
13AF9
330
133E8
100
AcDbEntity
  8
寸法線
 62
     0
440
 16777216
370
    -2
100
AcDbBlockReference
  2
_OPEN
 10
2083.999896414979
 20
439.9999581025108
 30
0.0
 41
20.0
 42
20.0
 43
20.0
  0
MTEXT
  5
13AFA
330
133E8
100
AcDbEntity
  8
寸法線
 62
     0
440
 16777216
100
AcDbMText
 10
1799.999896414979
 20
461.2499581025108
 30
0.0
 40
25.0
 41
0.0
 46
0.0
 71
     5
 72
     1
  1
\A1;568
 73
     1
 44
1.0
  0
POINT
  5
13AFB
330
133E8
100
AcDbEntity
  8
Defpoints
 62
     0
440
 16777216
100
AcDbPoint
 10
1515.999896414979
 20
589.9997282357481
 30
0.0
  0
POINT
  5
13AFC
330
133E8
100
AcDbEntity
  8
Defpoints
 62
     0
440
 16777216
100
AcDbPoint
 10
2083.999896414979
 20
589.9997327968858
 30
0.0
  0
POINT
  5
13AFD
330
133E8
100
AcDbEntity
  8
Defpoints
 62
     0
440
 16777216
100
AcDbPoint
 10
2083.999896414979
 20
439.9999581025108
 30
0.0
  0
ENDBLK
  5
133EA
330
133E8
100
AcDbEntity
  8
0
100
AcDbBlockEnd
  0
BLOCK
  5
133F5
330
133F4
100
AcDbEntity
  8
0
100
AcDbBlockBegin
  2
*D18
 70
     1
 10
0.0
 20
0.0
 30
0.0
  3
*D18
  1

  0
LINE
  5
13AFE
330
133F4
100
AcDbEntity
  8
寸法線
 62
     0
440
 16777216
370
    -2
100
AcDbLine
 10
1499.999896414979
 20
581.2497464803572
 30
0.0
 11
1499.999896414979
 21
369.9999581025108
 31
0.0
  0
LINE
  5
13AFF
330
133F4
100
AcDbEntity
  8
寸法線
 62
     0
440
 16777216
370
    -2
100
AcDbLine
 10
2099.999896414979
 20
581.2497327968858
 30
0.0
 11
2099.999896414979
 21
369.9999581025108
 31
0.0
  0
LINE
  5
13B00
330
133F4
100
AcDbEntity
  8
寸法線
 62
     0
440
 16777216
370
    -2
100
AcDbLine
 10
1519.999896414979
 20
379.9999581025109
 30
0.0
 11
2079.999896414979
 21
379.9999581025109
 31
0.0
  0
INSERT
  5
13B01
330
133F4
100
AcDbEntity
  8
寸法線
 62
     0
440
 16777216
370
    -2
100
AcDbBlockReference
  2
_OPEN
 10
1499.999896414979
 20
379.9999581025109
 30
0.0
 41
20.0
 42
20.0
 43
20.0
 50
180.0
  0
INSERT
  5
13B02
330
133F4
100
AcDbEntity
  8
寸法線
 62
     0
440
 16777216
370
    -2
100
AcDbBlockReference
  2
_OPEN
 10
2099.999896414979
 20
379.9999581025109
 30
0.0
 41
20.0
 42
20.0
 43
20.0
  0
MTEXT
  5
13B03
330
133F4
100
AcDbEntity
  8
寸法線
 62
     0
440
 16777216
100
AcDbMText
 10
1799.999896414979
 20
401.2499581025108
 30
0.0
 40
25.0
 41
0.0
 46
0.0
 71
     5
 72
     1
  1
\A1;600
 73
     1
 44
1.0
  0
POINT
  5
13B04
330
133F4
100
AcDbEntity
  8
Defpoints
 62
     0
440
 16777216
100
AcDbPoint
 10
1499.999896414979
 20
589.9997464803573
 30
0.0
  0
POINT
  5
13B05
330
133F4
100
AcDbEntity
  8
Defpoints
 62
     0
440
 16777216
100
AcDbPoint
 10
2099.999896414979
 20
589.9997327968858
 30
0.0
  0
POINT
  5
13B06
330
133F4
100
AcDbEntity
  8
Defpoints
 62
     0
440
 16777216
100
AcDbPoint
 10
2099.999896414979
 20
379.9999581025109
 30
0.0
  0
ENDBLK
  5
133F6
330
133F4
100
AcDbEntity
  8
0
100
AcDbBlockEnd
  0
BLOCK
  5
13401
330
13400
100
AcDbEntity
  8
0
100
AcDbBlockBegin
  2
*D19
 70
     1
 10
0.0
 20
0.0
 30
0.0
  3
*D19
  1

  0
LINE
  5
13B07
330
13400
100
AcDbEntity
  8
寸法線
 62
     0
440
 16777216
370
    -2
100
AcDbLine
 10
889.9998964149791
 20
581.2496963076236
 30
0.0
 11
889.9998964149791
 21
489.9999581025108
 31
0.0
  0
LINE
  5
13B08
330
13400
100
AcDbEntity
  8
寸法線
 62
     0
440
 16777216
370
    -2
100
AcDbLine
 10
1309.999896414979
 20
581.2497327969004
 30
0.0
 11
1309.999896414979
 21
489.9999581025108
 31
0.0
  0
LINE
  5
13B09
330
13400
100
AcDbEntity
  8
寸法線
 62
     0
440
 16777216
370
    -2
100
AcDbLine
 10
909.999896414979
 20
499.9999581025108
 30
0.0
 11
1289.999896414979
 21
499.9999581025108
 31
0.0
  0
INSERT
  5
13B0A
330
13400
100
AcDbEntity
  8
寸法線
 62
     0
440
 16777216
370
    -2
100
AcDbBlockReference
  2
_OPEN
 10
889.9998964149791
 20
499.9999581025108
 30
0.0
 41
20.0
 42
20.0
 43
20.0
 50
180.0
  0
INSERT
  5
13B0B
330
13400
100
AcDbEntity
  8
寸法線
 62
     0
440
 16777216
370
    -2
100
AcDbBlockReference
  2
_OPEN
 10
1309.999896414979
 20
499.9999581025108
 30
0.0
 41
20.0
 42
20.0
 43
20.0
  0
MTEXT
  5
13B0C
330
13400
100
AcDbEntity
  8
寸法線
 62
     0
440
 16777216
100
AcDbMText
 10
1099.999896414979
 20
521.2524187324321
 30
0.0
 40
25.0
 41
0.0
 46
0.0
 71
     5
 72
     1
  1
\A1;420
 73
     1
 44
1.0
  0
POINT
  5
13B0D
330
13400
100
AcDbEntity
  8
Defpoints
 62
     0
440
 16777216
100
AcDbPoint
 10
889.9998964149791
 20
589.9996963076237
 30
0.0
  0
POINT
  5
13B0E
330
13400
100
AcDbEntity
  8
Defpoints
 62
     0
440
 16777216
100
AcDbPoint
 10
1309.999896414979
 20
589.9997327969003
 30
0.0
  0
POINT
  5
13B0F
330
13400
100
AcDbEntity
  8
Defpoints
 62
     0
440
 16777216
100
AcDbPoint
 10
1309.999896414979
 20
499.9999581025108
 30
0.0
  0
ENDBLK
  5
13402
330
13400
100
AcDbEntity
  8
0
100
AcDbBlockEnd
  0
BLOCK
  5
1340D
330
1340C
100
AcDbEntity
  8
0
100
AcDbBlockBegin
  2
*D20
 70
     1
 10
0.0
 20
0.0
 30
0.0
  3
*D20
  1

  0
LINE
  5
13B10
330
1340C
100
AcDbEntity
  8
寸法線
 62
     0
440
 16777216
370
    -2
100
AcDbLine
 10
881.2499439837933
 20
589.9997327969006
 30
0.0
 11
789.999943983793
 21
589.9997327969006
 31
0.0
  0
LINE
  5
13B11
330
1340C
100
AcDbEntity
  8
寸法線
 62
     0
440
 16777216
370
    -2
100
AcDbLine
 10
881.2499439837933
 20
1009.999732796901
 30
0.0
 11
789.9999439837929
 21
1009.999732796901
 31
0.0
  0
LINE
  5
13B12
330
1340C
100
AcDbEntity
  8
寸法線
 62
     0
440
 16777216
370
    -2
100
AcDbLine
 10
799.999943983793
 20
609.9997327969006
 30
0.0
 11
799.9999439837929
 21
989.9997327969009
 31
0.0
  0
INSERT
  5
13B13
330
1340C
100
AcDbEntity
  8
寸法線
 62
     0
440
 16777216
370
    -2
100
AcDbBlockReference
  2
_OPEN
 10
799.999943983793
 20
589.9997327969006
 30
0.0
 41
20.0
 42
20.0
 43
20.0
 50
270.0
  0
INSERT
  5
13B14
330
1340C
100
AcDbEntity
  8
寸法線
 62
     0
440
 16777216
370
    -2
100
AcDbBlockReference
  2
_OPEN
 10
799.9999439837929
 20
1009.999732796901
 30
0.0
 41
20.0
 42
20.0
 43
20.0
 50
90.0
  0
MTEXT
  5
13B15
330
1340C
100
AcDbEntity
  8
寸法線
 62
     0
440
 16777216
100
AcDbMText
 10
778.7474833538716
 20
799.9997327969004
 30
0.0
 40
25.0
 41
0.0
 46
0.0
 71
     5
 72
     1
  1
\A1;420
 11
0.0000000000000001
 21
1.0
 31
0.0
 73
     1
 44
1.0
  0
POINT
  5
13B16
330
1340C
100
AcDbEntity
  8
Defpoints
 62
     0
440
 16777216
100
AcDbPoint
 10
889.9999439837934
 20
589.9997327969006
 30
0.0
  0
POINT
  5
13B17
330
1340C
100
AcDbEntity
  8
Defpoints
 62
     0
440
 16777216
100
AcDbPoint
 10
889.9999439837934
 20
1009.999732796901
 30
0.0
  0
POINT
  5
13B18
330
1340C
100
AcDbEntity
  8
Defpoints
 62
     0
440
 16777216
100
AcDbPoint
 10
799.9999439837929
 20
1009.999732796901
 30
0.0
  0
ENDBLK
  5
1340E
330
1340C
100
AcDbEntity
  8
0
100
AcDbBlockEnd
  0
BLOCK
  5
13419
330
13418
100
AcDbEntity
  8
0
100
AcDbBlockBegin
  2
*D21
 70
     1
 10
0.0
 20
0.0
 30
0.0
  3
*D21
  1

  0
LINE
  5
13B19
330
13418
100
AcDbEntity
  8
寸法線
 62
     0
440
 16777216
370
    -2
100
AcDbLine
 10
2330.000120199395
 20
566.2502290197052
 30
0.0
 11
2330.000120199395
 21
489.9999581025108
 31
0.0
  0
LINE
  5
13B1A
330
13418
100
AcDbEntity
  8
寸法線
 62
     0
440
 16777216
370
    -2
100
AcDbLine
 10
2670.000120199396
 20
566.2502290197052
 30
0.0
 11
2670.000120199396
 21
489.9999581025108
 31
0.0
  0
LINE
  5
13B1B
330
13418
100
AcDbEntity
  8
寸法線
 62
     0
440
 16777216
370
    -2
100
AcDbLine
 10
2350.000120199396
 20
499.9999581025108
 30
0.0
 11
2650.000120199396
 21
499.9999581025108
 31
0.0
  0
INSERT
  5
13B1C
330
13418
100
AcDbEntity
  8
寸法線
 62
     0
440
 16777216
370
    -2
100
AcDbBlockReference
  2
_OPEN
 10
2330.000120199395
 20
499.9999581025108
 30
0.0
 41
20.0
 42
20.0
 43
20.0
 50
180.0
  0
INSERT
  5
13B1D
330
13418
100
AcDbEntity
  8
寸法線
 62
     0
440
 16777216
370
    -2
100
AcDbBlockReference
  2
_OPEN
 10
2670.000120199396
 20
499.9999581025108
 30
0.0
 41
20.0
 42
20.0
 43
20.0
  0
MTEXT
  5
13B1E
330
13418
100
AcDbEntity
  8
寸法線
 62
     0
440
 16777216
100
AcDbMText
 10
2500.000121120823
 20
521.2499581025108
 30
0.0
 40
25.0
 41
0.0
 46
0.0
 71
     5
 72
     1
  1
\A1;340
 73
     1
 44
1.0
  0
POINT
  5
13B1F
330
13418
100
AcDbEntity
  8
Defpoints
 62
     0
440
 16777216
100
AcDbPoint
 10
2330.000120199395
 20
575.0002290197053
 30
0.0
  0
POINT
  5
13B20
330
13418
100
AcDbEntity
  8
Defpoints
 62
     0
440
 16777216
100
AcDbPoint
 10
2670.000120199396
 20
575.0002290197053
 30
0.0
  0
POINT
  5
13B21
330
13418
100
AcDbEntity
  8
Defpoints
 62
     0
440
 16777216
100
AcDbPoint
 10
2670.000120199396
 20
499.9999581025108
 30
0.0
  0
ENDBLK
  5
1341A
330
13418
100
AcDbEntity
  8
0
100
AcDbBlockEnd
  0
BLOCK
  5
13425
330
13424
100
AcDbEntity
  8
0
100
AcDbBlockBegin
  2
*D22
 70
     1
 10
0.0
 20
0.0
 30
0.0
  3
*D22
  1

  0
LINE
  5
13B22
330
13424
100
AcDbEntity
  8
寸法線
 62
     0
440
 16777216
370
    -2
100
AcDbLine
 10
2289.999896414979
 20
581.2504634476545
 30
0.0
 11
2289.999896414979
 21
489.9999581025108
 31
0.0
  0
LINE
  5
13B23
330
13424
100
AcDbEntity
  8
寸法線
 62
     0
440
 16777216
370
    -2
100
AcDbLine
 10
2330.000120199395
 20
566.2502290197052
 30
0.0
 11
2330.000120199395
 21
489.9999581025108
 31
0.0
  0
LINE
  5
13B24
330
13424
100
AcDbEntity
  8
寸法線
 62
     0
440
 16777216
370
    -2
100
AcDbLine
 10
2269.999896414979
 20
499.9999581025108
 30
0.0
 11
2249.999896414979
 21
499.9999581025108
 31
0.0
  0
LINE
  5
13B25
330
13424
100
AcDbEntity
  8
寸法線
 62
     0
440
 16777216
370
    -2
100
AcDbLine
 10
2350.000120199396
 20
499.9999581025108
 30
0.0
 11
2370.000120199396
 21
499.9999581025108
 31
0.0
  0
LINE
  5
13B26
330
13424
100
AcDbEntity
  8
寸法線
 62
     0
440
 16777216
370
    -2
100
AcDbLine
 10
2289.999896414979
 20
499.9999581025108
 30
0.0
 11
2330.000120199395
 21
499.9999581025108
 31
0.0
  0
INSERT
  5
13B27
330
13424
100
AcDbEntity
  8
寸法線
 62
     0
440
 16777216
370
    -2
100
AcDbBlockReference
  2
_OPEN
 10
2289.999896414979
 20
499.9999581025108
 30
0.0
 41
20.0
 42
20.0
 43
20.0
  0
INSERT
  5
13B28
330
13424
100
AcDbEntity
  8
寸法線
 62
     0
440
 16777216
370
    -2
100
AcDbBlockReference
  2
_OPEN
 10
2330.000120199395
 20
499.9999581025108
 30
0.0
 41
20.0
 42
20.0
 43
20.0
 50
180.0
  0
MTEXT
  5
13B29
330
13424
100
AcDbEntity
  8
寸法線
 62
     0
440
 16777216
100
AcDbMText
 10
2310.000008307187
 20
521.2499581025108
 30
0.0
 40
25.0
 41
0.0
 46
0.0
 71
     5
 72
     1
  1
\A1;40
 73
     1
 44
1.0
  0
POINT
  5
13B2A
330
13424
100
AcDbEntity
  8
Defpoints
 62
     0
440
 16777216
100
AcDbPoint
 10
2289.999896414979
 20
590.0004634476545
 30
0.0
  0
POINT
  5
13B2B
330
13424
100
AcDbEntity
  8
Defpoints
 62
     0
440
 16777216
100
AcDbPoint
 10
2330.000120199395
 20
575.0002290197053
 30
0.0
  0
POINT
  5
13B2C
330
13424
100
AcDbEntity
  8
Defpoints
 62
     0
440
 16777216
100
AcDbPoint
 10
2330.000120199395
 20
499.9999581025108
 30
0.0
  0
ENDBLK
  5
13426
330
13424
100
AcDbEntity
  8
0
100
AcDbBlockEnd
  0
BLOCK
  5
13433
330
13432
100
AcDbEntity
  8
0
100
AcDbBlockBegin
  2
*D23
 70
     1
 10
0.0
 20
0.0
 30
0.0
  3
*D23
  1

  0
LINE
  5
13B2D
330
13432
100
AcDbEntity
  8
寸法線
 62
     0
440
 16777216
370
    -2
100
AcDbLine
 10
2733.750120199397
 20
970.0002290197058
 30
0.0
 11
2809.999896414981
 21
970.0002290197058
 31
0.0
  0
LINE
  5
13B2E
330
13432
100
AcDbEntity
  8
寸法線
 62
     0
440
 16777216
370
    -2
100
AcDbLine
 10
2718.74989641498
 20
1009.999994591785
 30
0.0
 11
2809.999896414981
 21
1009.999994591785
 31
0.0
  0
LINE
  5
13B2F
330
13432
100
AcDbEntity
  8
寸法線
 62
     0
440
 16777216
370
    -2
100
AcDbLine
 10
2799.999896414981
 20
950.0002290197057
 30
0.0
 11
2799.999896414981
 21
930.0002290197058
 31
0.0
  0
LINE
  5
13B30
330
13432
100
AcDbEntity
  8
寸法線
 62
     0
440
 16777216
370
    -2
100
AcDbLine
 10
2799.99989641498
 20
1029.999994591785
 30
0.0
 11
2799.99989641498
 21
1049.999994591785
 31
0.0
  0
LINE
  5
13B31
330
13432
100
AcDbEntity
  8
寸法線
 62
     0
440
 16777216
370
    -2
100
AcDbLine
 10
2799.999896414981
 20
970.0002290197058
 30
0.0
 11
2799.999896414981
 21
1009.999994591785
 31
0.0
  0
INSERT
  5
13B32
330
13432
100
AcDbEntity
  8
寸法線
 62
     0
440
 16777216
370
    -2
100
AcDbBlockReference
  2
_OPEN
 10
2799.999896414981
 20
970.0002290197058
 30
0.0
 41
20.0
 42
20.0
 43
20.0
 50
90.0
  0
INSERT
  5
13B33
330
13432
100
AcDbEntity
  8
寸法線
 62
     0
440
 16777216
370
    -2
100
AcDbBlockReference
  2
_OPEN
 10
2799.999896414981
 20
1009.999994591785
 30
0.0
 41
20.0
 42
20.0
 43
20.0
 50
270.0
  0
MTEXT
  5
13B34
330
13432
100
AcDbEntity
  8
寸法線
 62
     0
440
 16777216
100
AcDbMText
 10
2778.74989641498
 20
990.0001118057447
 30
0.0
 40
25.0
 41
0.0
 46
0.0
 71
     5
 72
     1
  1
\A1;40
 11
0.0000000000000001
 21
1.0
 31
0.0
 73
     1
 44
1.0
  0
POINT
  5
13B35
330
13432
100
AcDbEntity
  8
Defpoints
 62
     0
440
 16777216
100
AcDbPoint
 10
2725.000120199397
 20
970.0002290197058
 30
0.0
  0
POINT
  5
13B36
330
13432
100
AcDbEntity
  8
Defpoints
 62
     0
440
 16777216
100
AcDbPoint
 10
2709.99989641498
 20
1009.999994591785
 30
0.0
  0
POINT
  5
13B37
330
13432
100
AcDbEntity
  8
Defpoints
 62
     0
440
 16777216
100
AcDbPoint
 10
2799.999896414981
 20
1009.999994591785
 30
0.0
  0
ENDBLK
  5
13434
330
13432
100
AcDbEntity
  8
0
100
AcDbBlockEnd
  0
BLOCK
  5
13441
330
13440
100
AcDbEntity
  8
0
100
AcDbBlockBegin
  2
*D24
 70
     1
 10
0.0
 20
0.0
 30
0.0
  3
*D24
  1

  0
LINE
  5
13B99
330
13440
100
AcDbEntity
  8
寸法線
 62
     0
440
 16777216
370
    -2
100
AcDbLine
 10
3549.99999999997
 20
2036.249980186892
 30
0.0
 11
3549.99999999997
 21
1914.999980186891
 31
0.0
  0
LINE
  5
13B9A
330
13440
100
AcDbEntity
  8
寸法線
 62
     0
440
 16777216
370
    -2
100
AcDbLine
 10
3149.999999999969
 20
2036.249980186892
 30
0.0
 11
3149.999999999969
 21
1914.999980186891
 31
0.0
  0
LINE
  5
13B9B
330
13440
100
AcDbEntity
  8
寸法線
 62
     0
440
 16777216
370
    -2
100
AcDbLine
 10
3529.999999999969
 20
1924.999980186892
 30
0.0
 11
3169.999999999969
 21
1924.999980186892
 31
0.0
  0
INSERT
  5
13B9C
330
13440
100
AcDbEntity
  8
寸法線
 62
     0
440
 16777216
370
    -2
100
AcDbBlockReference
  2
_OPEN
 10
3549.99999999997
 20
1924.999980186892
 30
0.0
 41
20.0
 42
20.0
 43
20.0
  0
INSERT
  5
13B9D
330
13440
100
AcDbEntity
  8
寸法線
 62
     0
440
 16777216
370
    -2
100
AcDbBlockReference
  2
_OPEN
 10
3149.999999999969
 20
1924.999980186892
 30
0.0
 41
20.0
 42
20.0
 43
20.0
 50
180.0
  0
MTEXT
  5
13B9E
330
13440
100
AcDbEntity
  8
寸法線
 62
     0
440
 16777216
100
AcDbMText
 10
3349.999999999971
 20
1946.249980186891
 30
0.0
 40
25.0
 41
0.0
 46
0.0
 71
     5
 72
     1
  1
\A1;400
 73
     1
 44
1.0
  0
POINT
  5
13B9F
330
13440
100
AcDbEntity
  8
Defpoints
 62
     0
440
 16777216
100
AcDbPoint
 10
3549.99999999997
 20
2044.999980186892
 30
0.0
  0
POINT
  5
13BA0
330
13440
100
AcDbEntity
  8
Defpoints
 62
     0
440
 16777216
100
AcDbPoint
 10
3149.999999999969
 20
2044.999980186892
 30
0.0
  0
POINT
  5
13BA1
330
13440
100
AcDbEntity
  8
Defpoints
 62
     0
440
 16777216
100
AcDbPoint
 10
3149.999999999969
 20
1924.999980186892
 30
0.0
  0
ENDBLK
  5
13442
330
13440
100
AcDbEntity
  8
0
100
AcDbBlockEnd
  0
BLOCK
  5
1344D
330
1344C
100
AcDbEntity
  8
0
100
AcDbBlockBegin
  2
*D25
 70
     1
 10
0.0
 20
0.0
 30
0.0
  3
*D25
  1

  0
LINE
  5
13BA2
330
1344C
100
AcDbEntity
  8
寸法線
 62
     0
440
 16777216
370
    -2
100
AcDbLine
 10
3141.249999999969
 20
2445.00001981311
 30
0.0
 11
3019.999999999968
 21
2445.00001981311
 31
0.0
  0
LINE
  5
13BA3
330
1344C
100
AcDbEntity
  8
寸法線
 62
     0
440
 16777216
370
    -2
100
AcDbLine
 10
3141.249999999969
 20
2045.000019813109
 30
0.0
 11
3019.999999999968
 21
2045.000019813109
 31
0.0
  0
LINE
  5
13BA4
330
1344C
100
AcDbEntity
  8
寸法線
 62
     0
440
 16777216
370
    -2
100
AcDbLine
 10
3029.999999999967
 20
2425.00001981311
 30
0.0
 11
3029.999999999967
 21
2065.000019813109
 31
0.0
  0
INSERT
  5
13BA5
330
1344C
100
AcDbEntity
  8
寸法線
 62
     0
440
 16777216
370
    -2
100
AcDbBlockReference
  2
_OPEN
 10
3029.999999999967
 20
2445.00001981311
 30
0.0
 41
20.0
 42
20.0
 43
20.0
 50
90.0
  0
INSERT
  5
13BA6
330
1344C
100
AcDbEntity
  8
寸法線
 62
     0
440
 16777216
370
    -2
100
AcDbBlockReference
  2
_OPEN
 10
3029.999999999967
 20
2045.000019813109
 30
0.0
 41
20.0
 42
20.0
 43
20.0
 50
270.0
  0
MTEXT
  5
13BA7
330
1344C
100
AcDbEntity
  8
寸法線
 62
     0
440
 16777216
100
AcDbMText
 10
3008.749999999967
 20
2245.0
 30
0.0
 40
25.0
 41
0.0
 46
0.0
 71
     5
 72
     1
  1
\A1;400
 11
0.0000000000000001
 21
1.0
 31
0.0
 73
     1
 44
1.0
  0
POINT
  5
13BA8
330
1344C
100
AcDbEntity
  8
Defpoints
 62
     0
440
 16777216
100
AcDbPoint
 10
3149.999999999969
 20
2445.00001981311
 30
0.0
  0
POINT
  5
13BA9
330
1344C
100
AcDbEntity
  8
Defpoints
 62
     0
440
 16777216
100
AcDbPoint
 10
3149.999999999969
 20
2045.000019813109
 30
0.0
  0
POINT
  5
13BAA
330
1344C
100
AcDbEntity
  8
Defpoints
 62
     0
440
 16777216
100
AcDbPoint
 10
3029.999999999967
 20
2045.000019813109
 30
0.0
  0
ENDBLK
  5
1344E
330
1344C
100
AcDbEntity
  8
0
100
AcDbBlockEnd
  0
BLOCK
  5
13459
330
13458
100
AcDbEntity
  8
0
100
AcDbBlockBegin
  2
*D26
 70
     1
 10
0.0
 20
0.0
 30
0.0
  3
*D26
  1

  0
LINE
  5
13AA1
330
13458
100
AcDbEntity
  8
寸法線
 62
     0
440
 16777216
370
    -2
100
AcDbLine
 10
2422.24998018687
 20
2250.999977544711
 30
0.0
 11
2320.99999462186
 21
2250.999977544711
 31
0.0
  0
LINE
  5
13AA2
330
13458
100
AcDbEntity
  8
寸法線
 62
     0
440
 16777216
370
    -2
100
AcDbLine
 10
2422.24998018687
 20
2238.999977544711
 30
0.0
 11
2320.99999462186
 21
2238.999977544711
 31
0.0
  0
LINE
  5
13AA3
330
13458
100
AcDbEntity
  8
寸法線
 62
     0
440
 16777216
370
    -2
100
AcDbLine
 10
2330.99999462186
 20
2270.999977544711
 30
0.0
 11
2330.99999462186
 21
2290.999977544711
 31
0.0
  0
LINE
  5
13AA4
330
13458
100
AcDbEntity
  8
寸法線
 62
     0
440
 16777216
370
    -2
100
AcDbLine
 10
2330.99999462186
 20
2218.999977544711
 30
0.0
 11
2330.99999462186
 21
2198.999977544711
 31
0.0
  0
LINE
  5
13AA5
330
13458
100
AcDbEntity
  8
寸法線
 62
     0
440
 16777216
370
    -2
100
AcDbLine
 10
2330.99999462186
 20
2250.999977544711
 30
0.0
 11
2330.99999462186
 21
2238.999977544711
 31
0.0
  0
INSERT
  5
13AA6
330
13458
100
AcDbEntity
  8
寸法線
 62
     0
440
 16777216
370
    -2
100
AcDbBlockReference
  2
_OPEN
 10
2330.99999462186
 20
2250.999977544711
 30
0.0
 41
20.0
 42
20.0
 43
20.0
 50
270.0
  0
INSERT
  5
13AA7
330
13458
100
AcDbEntity
  8
寸法線
 62
     0
440
 16777216
370
    -2
100
AcDbBlockReference
  2
_OPEN
 10
2330.99999462186
 20
2238.999977544711
 30
0.0
 41
20.0
 42
20.0
 43
20.0
 50
90.0
  0
MTEXT
  5
13AA8
330
13458
100
AcDbEntity
  8
寸法線
 62
     0
440
 16777216
100
AcDbMText
 10
2309.747533991938
 20
2244.99997754471
 30
0.0
 40
25.0
 41
0.0
 46
0.0
 71
     5
 72
     1
  1
\A1;12
 11
0.0000000000000001
 21
1.0
 31
0.0
 73
     1
 44
1.0
  0
POINT
  5
13AA9
330
13458
100
AcDbEntity
  8
Defpoints
 62
     0
440
 16777216
100
AcDbPoint
 10
2430.99998018687
 20
2250.999977544711
 30
0.0
  0
POINT
  5
13AAA
330
13458
100
AcDbEntity
  8
Defpoints
 62
     0
440
 16777216
100
AcDbPoint
 10
2430.99998018687
 20
2238.999977544711
 30
0.0
  0
POINT
  5
13AAB
330
13458
100
AcDbEntity
  8
Defpoints
 62
     0
440
 16777216
100
AcDbPoint
 10
2330.99999462186
 20
2238.999977544711
 30
0.0
  0
ENDBLK
  5
1345A
330
13458
100
AcDbEntity
  8
0
100
AcDbBlockEnd
  0
BLOCK
  5
13467
330
13466
100
AcDbEntity
  8
0
100
AcDbBlockBegin
  2
*D27
 70
     1
 10
0.0
 20
0.0
 30
0.0
  3
*D27
  1

  0
LINE
  5
13AAC
330
13466
100
AcDbEntity
  8
寸法線
 62
     0
440
 16777216
370
    -2
100
AcDbLine
 10
2650.0
 20
2444.750018117618
 30
0.0
 11
2650.0
 21
2694.999980897945
 31
0.0
  0
LINE
  5
13AAD
330
13466
100
AcDbEntity
  8
寸法線
 62
     0
440
 16777216
370
    -2
100
AcDbLine
 10
2100.0
 20
2463.750018117619
 30
0.0
 11
2100.0
 21
2694.999980897945
 31
0.0
  0
LINE
  5
13AAE
330
13466
100
AcDbEntity
  8
寸法線
 62
     0
440
 16777216
370
    -2
100
AcDbLine
 10
2630.0
 20
2684.999980897945
 30
0.0
 11
2120.0
 21
2684.999980897945
 31
0.0
  0
INSERT
  5
13AAF
330
13466
100
AcDbEntity
  8
寸法線
 62
     0
440
 16777216
370
    -2
100
AcDbBlockReference
  2
_OPEN
 10
2650.0
 20
2684.999980897945
 30
0.0
 41
20.0
 42
20.0
 43
20.0
  0
INSERT
  5
13AB0
330
13466
100
AcDbEntity
  8
寸法線
 62
     0
440
 16777216
370
    -2
100
AcDbBlockReference
  2
_OPEN
 10
2100.0
 20
2684.999980897945
 30
0.0
 41
20.0
 42
20.0
 43
20.0
 50
180.0
  0
MTEXT
  5
13AB1
330
13466
100
AcDbEntity
  8
寸法線
 62
     0
440
 16777216
100
AcDbMText
 10
2375.0
 20
2706.249980897946
 30
0.0
 40
25.0
 41
0.0
 46
0.0
 71
     5
 72
     1
  1
\A1;550
 73
     1
 44
1.0
  0
MTEXT
  5
13AB2
330
13466
100
AcDbEntity
  8
寸法線
 62
     0
440
 16777216
100
AcDbMText
 10
2375.0
 20
2663.749980897945
 30
0.0
 40
25.0
 41
0.0
 46
0.0
 71
     5
 72
     1
  1
\A1;H型鋼（連結部）
 73
     1
 44
1.0
  0
POINT
  5
13AB3
330
13466
100
AcDbEntity
  8
Defpoints
 62
     0
440
 16777216
100
AcDbPoint
 10
2650.0
 20
2436.000018117618
 30
0.0
  0
POINT
  5
13AB4
330
13466
100
AcDbEntity
  8
Defpoints
 62
     0
440
 16777216
100
AcDbPoint
 10
2100.0
 20
2455.000018117619
 30
0.0
  0
POINT
  5
13AB5
330
13466
100
AcDbEntity
  8
Defpoints
 62
     0
440
 16777216
100
AcDbPoint
 10
2100.0
 20
2684.999980897945
 30
0.0
  0
ENDBLK
  5
13468
330
13466
100
AcDbEntity
  8
0
100
AcDbBlockEnd
  0
BLOCK
  5
13474
330
13473
100
AcDbEntity
  8
0
100
AcDbBlockBegin
  2
*D28
 70
     1
 10
0.0
 20
0.0
 30
0.0
  3
*D28
  1

  0
LINE
  5
13A8B
330
13473
100
AcDbEntity
  8
寸法線
 62
     0
440
 16777216
370
    -2
100
AcDbLine
 10
2228.749980186872
 20
1824.499952560707
 30
0.0
 11
2309.999980186869
 21
1824.499952560707
 31
0.0
  0
LINE
  5
13A8C
330
13473
100
AcDbEntity
  8
寸法線
 62
     0
440
 16777216
370
    -2
100
AcDbLine
 10
2228.749980186872
 20
1805.499952560707
 30
0.0
 11
2309.999980186869
 21
1805.499952560707
 31
0.0
  0
LINE
  5
13A8D
330
13473
100
AcDbEntity
  8
寸法線
 62
     0
440
 16777216
370
    -2
100
AcDbLine
 10
2299.999980186869
 20
1844.499952560707
 30
0.0
 11
2299.999980186869
 21
1864.499952560707
 31
0.0
  0
LINE
  5
13A8E
330
13473
100
AcDbEntity
  8
寸法線
 62
     0
440
 16777216
370
    -2
100
AcDbLine
 10
2299.999980186869
 20
1785.499952560706
 30
0.0
 11
2299.999980186869
 21
1765.499952560707
 31
0.0
  0
LINE
  5
13A8F
330
13473
100
AcDbEntity
  8
寸法線
 62
     0
440
 16777216
370
    -2
100
AcDbLine
 10
2299.999980186869
 20
1824.499952560707
 30
0.0
 11
2299.999980186869
 21
1805.499952560707
 31
0.0
  0
INSERT
  5
13A90
330
13473
100
AcDbEntity
  8
寸法線
 62
     0
440
 16777216
370
    -2
100
AcDbBlockReference
  2
_OPEN
 10
2299.999980186869
 20
1824.499952560707
 30
0.0
 41
20.0
 42
20.0
 43
20.0
 50
270.0
  0
INSERT
  5
13A91
330
13473
100
AcDbEntity
  8
寸法線
 62
     0
440
 16777216
370
    -2
100
AcDbBlockReference
  2
_OPEN
 10
2299.999980186869
 20
1805.499952560707
 30
0.0
 41
20.0
 42
20.0
 43
20.0
 50
90.0
  0
MTEXT
  5
13A92
330
13473
100
AcDbEntity
  8
寸法線
 62
     0
440
 16777216
100
AcDbMText
 10
2278.749980186869
 20
1814.999952560706
 30
0.0
 40
25.0
 41
0.0
 46
0.0
 71
     5
 72
     1
  1
\A1;19
 11
0.0000000000000001
 21
1.0
 31
0.0
 73
     1
 44
1.0
  0
POINT
  5
13A93
330
13473
100
AcDbEntity
  8
Defpoints
 62
     0
440
 16777216
100
AcDbPoint
 10
2219.999980186872
 20
1824.499952560707
 30
0.0
  0
POINT
  5
13A94
330
13473
100
AcDbEntity
  8
Defpoints
 62
     0
440
 16777216
100
AcDbPoint
 10
2219.999980186872
 20
1805.499952560707
 30
0.0
  0
POINT
  5
13A95
330
13473
100
AcDbEntity
  8
Defpoints
 62
     0
440
 16777216
100
AcDbPoint
 10
2299.999980186869
 20
1805.499952560707
 30
0.0
  0
ENDBLK
  5
13475
330
13473
100
AcDbEntity
  8
0
100
AcDbBlockEnd
  0
BLOCK
  5
13482
330
13481
100
AcDbEntity
  8
0
100
AcDbBlockBegin
  2
*D29
 70
     1
 10
0.0
 20
0.0
 30
0.0
  3
*D29
  1

  0
LINE
  5
13A96
330
13481
100
AcDbEntity
  8
寸法線
 62
     0
440
 16777216
370
    -2
100
AcDbLine
 10
2236.75000376647
 20
1475.00002067211
 30
0.0
 11
2309.999980186869
 21
1475.00002067211
 31
0.0
  0
LINE
  5
13A97
330
13481
100
AcDbEntity
  8
寸法線
 62
     0
440
 16777216
370
    -2
100
AcDbLine
 10
2108.750000000003
 20
1444.999952764055
 30
0.0
 11
2309.999980186869
 21
1444.999952764055
 31
0.0
  0
LINE
  5
13A98
330
13481
100
AcDbEntity
  8
寸法線
 62
     0
440
 16777216
370
    -2
100
AcDbLine
 10
2299.999980186869
 20
1495.000020672111
 30
0.0
 11
2299.999980186869
 21
1515.00002067211
 31
0.0
  0
LINE
  5
13A99
330
13481
100
AcDbEntity
  8
寸法線
 62
     0
440
 16777216
370
    -2
100
AcDbLine
 10
2299.999980186869
 20
1424.999952764055
 30
0.0
 11
2299.999980186869
 21
1404.999952764055
 31
0.0
  0
LINE
  5
13A9A
330
13481
100
AcDbEntity
  8
寸法線
 62
     0
440
 16777216
370
    -2
100
AcDbLine
 10
2299.999980186869
 20
1475.00002067211
 30
0.0
 11
2299.999980186869
 21
1444.999952764055
 31
0.0
  0
INSERT
  5
13A9B
330
13481
100
AcDbEntity
  8
寸法線
 62
     0
440
 16777216
370
    -2
100
AcDbBlockReference
  2
_OPEN
 10
2299.999980186869
 20
1475.00002067211
 30
0.0
 41
20.0
 42
20.0
 43
20.0
 50
270.0
  0
INSERT
  5
13A9C
330
13481
100
AcDbEntity
  8
寸法線
 62
     0
440
 16777216
370
    -2
100
AcDbBlockReference
  2
_OPEN
 10
2299.999980186869
 20
1444.999952764055
 30
0.0
 41
20.0
 42
20.0
 43
20.0
 50
90.0
  0
MTEXT
  5
13A9D
330
13481
100
AcDbEntity
  8
寸法線
 62
     0
440
 16777216
100
AcDbMText
 10
2278.749980186869
 20
1459.999986718082
 30
0.0
 40
25.0
 41
0.0
 46
0.0
 71
     5
 72
     1
  1
\A1;30
 11
0.0000000000000001
 21
1.0
 31
0.0
 73
     1
 44
1.0
  0
POINT
  5
13A9E
330
13481
100
AcDbEntity
  8
Defpoints
 62
     0
440
 16777216
100
AcDbPoint
 10
2228.00000376647
 20
1475.00002067211
 30
0.0
  0
POINT
  5
13A9F
330
13481
100
AcDbEntity
  8
Defpoints
 62
     0
440
 16777216
100
AcDbPoint
 10
2100.000000000003
 20
1444.999952764055
 30
0.0
  0
POINT
  5
13AA0
330
13481
100
AcDbEntity
  8
Defpoints
 62
     0
440
 16777216
100
AcDbPoint
 10
2299.999980186869
 20
1444.999952764055
 30
0.0
  0
ENDBLK
  5
13483
330
13481
100
AcDbEntity
  8
0
100
AcDbBlockEnd
  0
BLOCK
  5
13490
330
1348F
100
AcDbEntity
  8
0
100
AcDbBlockBegin
  2
*D30
 70
     1
 10
0.0
 20
0.0
 30
0.0
  3
*D30
  1

  0
LINE
  5
13A6E
330
1348F
100
AcDbEntity
  8
寸法線
 62
     0
440
 16777216
370
    -2
100
AcDbLine
 10
2650.000226983166
 20
2444.750018117618
 30
0.0
 11
2650.000226983166
 21
2614.999980897945
 31
0.0
  0
LINE
  5
13A6F
330
1348F
100
AcDbEntity
  8
寸法線
 62
     0
440
 16777216
370
    -2
100
AcDbLine
 10
2631.000226983166
 20
2453.749980897944
 30
0.0
 11
2631.000226983166
 21
2614.999980897945
 31
0.0
  0
LINE
  5
13A70
330
1348F
100
AcDbEntity
  8
寸法線
 62
     0
440
 16777216
370
    -2
100
AcDbLine
 10
2670.000226983166
 20
2604.999980897945
 30
0.0
 11
2690.000226983166
 21
2604.999980897945
 31
0.0
  0
LINE
  5
13A71
330
1348F
100
AcDbEntity
  8
寸法線
 62
     0
440
 16777216
370
    -2
100
AcDbLine
 10
2611.000226983166
 20
2604.999980897945
 30
0.0
 11
2591.000226983166
 21
2604.999980897945
 31
0.0
  0
LINE
  5
13A72
330
1348F
100
AcDbEntity
  8
寸法線
 62
     0
440
 16777216
370
    -2
100
AcDbLine
 10
2650.000226983166
 20
2604.999980897945
 30
0.0
 11
2631.000226983166
 21
2604.999980897945
 31
0.0
  0
INSERT
  5
13A73
330
1348F
100
AcDbEntity
  8
寸法線
 62
     0
440
 16777216
370
    -2
100
AcDbBlockReference
  2
_OPEN
 10
2650.000226983166
 20
2604.999980897945
 30
0.0
 41
20.0
 42
20.0
 43
20.0
 50
180.0
  0
INSERT
  5
13A74
330
1348F
100
AcDbEntity
  8
寸法線
 62
     0
440
 16777216
370
    -2
100
AcDbBlockReference
  2
_OPEN
 10
2631.000226983166
 20
2604.999980897945
 30
0.0
 41
20.0
 42
20.0
 43
20.0
  0
MTEXT
  5
13A75
330
1348F
100
AcDbEntity
  8
寸法線
 62
     0
440
 16777216
100
AcDbMText
 10
2640.500226983166
 20
2626.249980897946
 30
0.0
 40
25.0
 41
0.0
 46
0.0
 71
     5
 72
     1
  1
\A1;19
 73
     1
 44
1.0
  0
POINT
  5
13A76
330
1348F
100
AcDbEntity
  8
Defpoints
 62
     0
440
 16777216
100
AcDbPoint
 10
2650.000226983166
 20
2436.000018117618
 30
0.0
  0
POINT
  5
13A77
330
1348F
100
AcDbEntity
  8
Defpoints
 62
     0
440
 16777216
100
AcDbPoint
 10
2631.000226983166
 20
2444.999980897944
 30
0.0
  0
POINT
  5
13A78
330
1348F
100
AcDbEntity
  8
Defpoints
 62
     0
440
 16777216
100
AcDbPoint
 10
2631.000226983166
 20
2604.999980897945
 30
0.0
  0
ENDBLK
  5
13491
330
1348F
100
AcDbEntity
  8
0
100
AcDbBlockEnd
  0
BLOCK
  5
1349E
330
1349D
100
AcDbEntity
  8
0
100
AcDbBlockBegin
  2
*D31
 70
     1
 10
0.0
 20
0.0
 30
0.0
  3
*D31
  1

  0
LINE
  5
13A79
330
1349D
100
AcDbEntity
  8
寸法線
 62
     0
440
 16777216
370
    -2
100
AcDbLine
 10
2631.000226983166
 20
2453.749980897944
 30
0.0
 11
2631.000226983166
 21
2614.999980897945
 31
0.0
  0
LINE
  5
13A7A
330
1349D
100
AcDbEntity
  8
寸法線
 62
     0
440
 16777216
370
    -2
100
AcDbLine
 10
2100.000226983166
 20
2463.750018117619
 30
0.0
 11
2100.000226983166
 21
2614.999980897945
 31
0.0
  0
LINE
  5
13A7B
330
1349D
100
AcDbEntity
  8
寸法線
 62
     0
440
 16777216
370
    -2
100
AcDbLine
 10
2611.000226983166
 20
2604.999980897945
 30
0.0
 11
2120.000226983166
 21
2604.999980897945
 31
0.0
  0
INSERT
  5
13A7C
330
1349D
100
AcDbEntity
  8
寸法線
 62
     0
440
 16777216
370
    -2
100
AcDbBlockReference
  2
_OPEN
 10
2631.000226983166
 20
2604.999980897945
 30
0.0
 41
20.0
 42
20.0
 43
20.0
  0
INSERT
  5
13A7D
330
1349D
100
AcDbEntity
  8
寸法線
 62
     0
440
 16777216
370
    -2
100
AcDbBlockReference
  2
_OPEN
 10
2100.000226983166
 20
2604.999980897945
 30
0.0
 41
20.0
 42
20.0
 43
20.0
 50
180.0
  0
MTEXT
  5
13A7E
330
1349D
100
AcDbEntity
  8
寸法線
 62
     0
440
 16777216
100
AcDbMText
 10
2365.500226983166
 20
2626.249980897946
 30
0.0
 40
25.0
 41
0.0
 46
0.0
 71
     5
 72
     1
  1
\A1;531
 73
     1
 44
1.0
  0
POINT
  5
13A7F
330
1349D
100
AcDbEntity
  8
Defpoints
 62
     0
440
 16777216
100
AcDbPoint
 10
2631.000226983166
 20
2444.999980897944
 30
0.0
  0
POINT
  5
13A80
330
1349D
100
AcDbEntity
  8
Defpoints
 62
     0
440
 16777216
100
AcDbPoint
 10
2100.000226983166
 20
2455.000018117619
 30
0.0
  0
POINT
  5
13A81
330
1349D
100
AcDbEntity
  8
Defpoints
 62
     0
440
 16777216
100
AcDbPoint
 10
2100.000226983166
 20
2604.999980897945
 30
0.0
  0
ENDBLK
  5
1349F
330
1349D
100
AcDbEntity
  8
0
100
AcDbBlockEnd
  0
BLOCK
  5
134AA
330
134A9
100
AcDbEntity
  8
0
100
AcDbBlockBegin
  2
*D32
 70
     1
 10
0.0
 20
0.0
 30
0.0
  3
*D32
  1

  0
LINE
  5
13A82
330
134A9
100
AcDbEntity
  8
寸法線
 62
     0
440
 16777216
370
    -2
100
AcDbLine
 10
2650.000000000002
 20
1436.249998902688
 30
0.0
 11
2650.000000000002
 21
1274.999998902689
 31
0.0
  0
LINE
  5
13A83
330
134A9
100
AcDbEntity
  8
寸法線
 62
     0
440
 16777216
370
    -2
100
AcDbLine
 10
2100.000000000002
 20
1426.250036122362
 30
0.0
 11
2100.000000000002
 21
1274.999998902689
 31
0.0
  0
LINE
  5
13A84
330
134A9
100
AcDbEntity
  8
寸法線
 62
     0
440
 16777216
370
    -2
100
AcDbLine
 10
2630.000000000002
 20
1284.999998902689
 30
0.0
 11
2120.000000000002
 21
1284.999998902689
 31
0.0
  0
INSERT
  5
13A85
330
134A9
100
AcDbEntity
  8
寸法線
 62
     0
440
 16777216
370
    -2
100
AcDbBlockReference
  2
_OPEN
 10
2650.000000000002
 20
1284.999998902689
 30
0.0
 41
20.0
 42
20.0
 43
20.0
  0
INSERT
  5
13A86
330
134A9
100
AcDbEntity
  8
寸法線
 62
     0
440
 16777216
370
    -2
100
AcDbBlockReference
  2
_OPEN
 10
2100.000000000002
 20
1284.999998902689
 30
0.0
 41
20.0
 42
20.0
 43
20.0
 50
180.0
  0
MTEXT
  5
13A87
330
134A9
100
AcDbEntity
  8
寸法線
 62
     0
440
 16777216
100
AcDbMText
 10
2375.000000000002
 20
1306.249998902689
 30
0.0
 40
25.0
 41
0.0
 46
0.0
 71
     5
 72
     1
  1
\A1;550
 73
     1
 44
1.0
  0
POINT
  5
13A88
330
134A9
100
AcDbEntity
  8
Defpoints
 62
     0
440
 16777216
100
AcDbPoint
 10
2650.000000000002
 20
1444.999998902688
 30
0.0
  0
POINT
  5
13A89
330
134A9
100
AcDbEntity
  8
Defpoints
 62
     0
440
 16777216
100
AcDbPoint
 10
2100.000000000002
 20
1435.000036122362
 30
0.0
  0
POINT
  5
13A8A
330
134A9
100
AcDbEntity
  8
Defpoints
 62
     0
440
 16777216
100
AcDbPoint
 10
2100.000000000002
 20
1284.999998902689
 30
0.0
  0
ENDBLK
  5
134AB
330
134A9
100
AcDbEntity
  8
0
100
AcDbBlockEnd
  0
BLOCK
  5
134B6
330
134B5
100
AcDbEntity
  8
0
100
AcDbBlockBegin
  2
*D33
 70
     1
 10
0.0
 20
0.0
 30
0.0
  3
*D33
  1

  0
LINE
  5
13A19
330
134B5
100
AcDbEntity
  8
寸法線
 62
     0
440
 16777216
370
    -2
100
AcDbLine
 10
1500.000000000001
 20
1426.249989780372
 30
0.0
 11
1500.000000000001
 21
1274.999998902689
 31
0.0
  0
LINE
  5
13A1A
330
134B5
100
AcDbEntity
  8
寸法線
 62
     0
440
 16777216
370
    -2
100
AcDbLine
 10
2100.000000000002
 20
1426.249989780373
 30
0.0
 11
2100.000000000002
 21
1274.999998902689
 31
0.0
  0
LINE
  5
13A1B
330
134B5
100
AcDbEntity
  8
寸法線
 62
     0
440
 16777216
370
    -2
100
AcDbLine
 10
1520.000000000002
 20
1284.999998902689
 30
0.0
 11
2080.000000000002
 21
1284.999998902689
 31
0.0
  0
INSERT
  5
13A1C
330
134B5
100
AcDbEntity
  8
寸法線
 62
     0
440
 16777216
370
    -2
100
AcDbBlockReference
  2
_OPEN
 10
1500.000000000001
 20
1284.999998902689
 30
0.0
 41
20.0
 42
20.0
 43
20.0
 50
180.0
  0
INSERT
  5
13A1D
330
134B5
100
AcDbEntity
  8
寸法線
 62
     0
440
 16777216
370
    -2
100
AcDbBlockReference
  2
_OPEN
 10
2100.000000000002
 20
1284.999998902689
 30
0.0
 41
20.0
 42
20.0
 43
20.0
  0
MTEXT
  5
13A1E
330
134B5
100
AcDbEntity
  8
寸法線
 62
     0
440
 16777216
100
AcDbMText
 10
1800.000000000002
 20
1306.249998902689
 30
0.0
 40
25.0
 41
0.0
 46
0.0
 71
     5
 72
     1
  1
\A1;600
 73
     1
 44
1.0
  0
POINT
  5
13A1F
330
134B5
100
AcDbEntity
  8
Defpoints
 62
     0
440
 16777216
100
AcDbPoint
 10
1500.000000000001
 20
1434.999989780372
 30
0.0
  0
POINT
  5
13A20
330
134B5
100
AcDbEntity
  8
Defpoints
 62
     0
440
 16777216
100
AcDbPoint
 10
2100.000000000002
 20
1434.999989780372
 30
0.0
  0
POINT
  5
13A21
330
134B5
100
AcDbEntity
  8
Defpoints
 62
     0
440
 16777216
100
AcDbPoint
 10
2100.000000000002
 20
1284.999998902689
 30
0.0
  0
ENDBLK
  5
134B7
330
134B5
100
AcDbEntity
  8
0
100
AcDbBlockEnd
  0
BLOCK
  5
134C2
330
134C1
100
AcDbEntity
  8
0
100
AcDbBlockBegin
  2
*D34
 70
     1
 10
0.0
 20
0.0
 30
0.0
  3
*D34
  1

  0
LINE
  5
13A22
330
134C1
100
AcDbEntity
  8
寸法線
 62
     0
440
 16777216
370
    -2
100
AcDbLine
 10
949.9999801868925
 20
1436.249998902688
 30
0.0
 11
949.9999801868925
 21
1274.999998902689
 31
0.0
  0
LINE
  5
13A23
330
134C1
100
AcDbEntity
  8
寸法線
 62
     0
440
 16777216
370
    -2
100
AcDbLine
 10
1499.999980186892
 20
1426.250036122362
 30
0.0
 11
1499.999980186892
 21
1274.999998902689
 31
0.0
  0
LINE
  5
13A24
330
134C1
100
AcDbEntity
  8
寸法線
 62
     0
440
 16777216
370
    -2
100
AcDbLine
 10
969.9999801868925
 20
1284.999998902689
 30
0.0
 11
1479.999980186893
 21
1284.999998902689
 31
0.0
  0
INSERT
  5
13A25
330
134C1
100
AcDbEntity
  8
寸法線
 62
     0
440
 16777216
370
    -2
100
AcDbBlockReference
  2
_OPEN
 10
949.9999801868925
 20
1284.999998902689
 30
0.0
 41
20.0
 42
20.0
 43
20.0
 50
180.0
  0
INSERT
  5
13A26
330
134C1
100
AcDbEntity
  8
寸法線
 62
     0
440
 16777216
370
    -2
100
AcDbBlockReference
  2
_OPEN
 10
1499.999980186892
 20
1284.999998902689
 30
0.0
 41
20.0
 42
20.0
 43
20.0
  0
MTEXT
  5
13A27
330
134C1
100
AcDbEntity
  8
寸法線
 62
     0
440
 16777216
100
AcDbMText
 10
1224.999980186892
 20
1306.249998902689
 30
0.0
 40
25.0
 41
0.0
 46
0.0
 71
     5
 72
     1
  1
\A1;550
 73
     1
 44
1.0
  0
POINT
  5
13A28
330
134C1
100
AcDbEntity
  8
Defpoints
 62
     0
440
 16777216
100
AcDbPoint
 10
949.9999801868925
 20
1444.999998902688
 30
0.0
  0
POINT
  5
13A29
330
134C1
100
AcDbEntity
  8
Defpoints
 62
     0
440
 16777216
100
AcDbPoint
 10
1499.999980186892
 20
1435.000036122362
 30
0.0
  0
POINT
  5
13A2A
330
134C1
100
AcDbEntity
  8
Defpoints
 62
     0
440
 16777216
100
AcDbPoint
 10
1499.999980186892
 20
1284.999998902689
 30
0.0
  0
ENDBLK
  5
134C3
330
134C1
100
AcDbEntity
  8
0
100
AcDbBlockEnd
  0
BLOCK
  5
134CE
330
134CD
100
AcDbEntity
  8
0
100
AcDbBlockBegin
  2
*D35
 70
     1
 10
0.0
 20
0.0
 30
0.0
  3
*D35
  1

  0
LINE
  5
13A2B
330
134CD
100
AcDbEntity
  8
寸法線
 62
     0
440
 16777216
370
    -2
100
AcDbLine
 10
941.249980186893
 20
1844.999998902689
 30
0.0
 11
819.9999801868923
 21
1844.999998902689
 31
0.0
  0
LINE
  5
13A2C
330
134CD
100
AcDbEntity
  8
寸法線
 62
     0
440
 16777216
370
    -2
100
AcDbLine
 10
941.249980186893
 20
1444.999998902688
 30
0.0
 11
819.9999801868923
 21
1444.999998902688
 31
0.0
  0
LINE
  5
13A2D
330
134CD
100
AcDbEntity
  8
寸法線
 62
     0
440
 16777216
370
    -2
100
AcDbLine
 10
829.9999801868922
 20
1824.999998902689
 30
0.0
 11
829.9999801868922
 21
1464.999998902689
 31
0.0
  0
INSERT
  5
13A2E
330
134CD
100
AcDbEntity
  8
寸法線
 62
     0
440
 16777216
370
    -2
100
AcDbBlockReference
  2
_OPEN
 10
829.9999801868922
 20
1844.999998902689
 30
0.0
 41
20.0
 42
20.0
 43
20.0
 50
90.0
  0
INSERT
  5
13A2F
330
134CD
100
AcDbEntity
  8
寸法線
 62
     0
440
 16777216
370
    -2
100
AcDbBlockReference
  2
_OPEN
 10
829.9999801868922
 20
1444.999998902688
 30
0.0
 41
20.0
 42
20.0
 43
20.0
 50
270.0
  0
MTEXT
  5
13A30
330
134CD
100
AcDbEntity
  8
寸法線
 62
     0
440
 16777216
100
AcDbMText
 10
808.7499801868926
 20
1644.999998902688
 30
0.0
 40
25.0
 41
0.0
 46
0.0
 71
     5
 72
     1
  1
\A1;400
 11
0.0000000000000001
 21
1.0
 31
0.0
 73
     1
 44
1.0
  0
POINT
  5
13A31
330
134CD
100
AcDbEntity
  8
Defpoints
 62
     0
440
 16777216
100
AcDbPoint
 10
949.9999801868931
 20
1844.999998902689
 30
0.0
  0
POINT
  5
13A32
330
134CD
100
AcDbEntity
  8
Defpoints
 62
     0
440
 16777216
100
AcDbPoint
 10
949.9999801868931
 20
1444.999998902688
 30
0.0
  0
POINT
  5
13A33
330
134CD
100
AcDbEntity
  8
Defpoints
 62
     0
440
 16777216
100
AcDbPoint
 10
829.9999801868922
 20
1444.999998902688
 30
0.0
  0
ENDBLK
  5
134CF
330
134CD
100
AcDbEntity
  8
0
100
AcDbBlockEnd
  0
BLOCK
  5
134DA
330
134D9
100
AcDbEntity
  8
0
100
AcDbBlockBegin
  2
*D36
 70
     1
 10
0.0
 20
0.0
 30
0.0
  3
*D36
  1

  0
LINE
  5
13A34
330
134D9
100
AcDbEntity
  8
寸法線
 62
     0
440
 16777216
370
    -2
100
AcDbLine
 10
949.9999801868925
 20
2444.750018117618
 30
0.0
 11
949.9999801868925
 21
2614.999980897945
 31
0.0
  0
LINE
  5
13A35
330
134D9
100
AcDbEntity
  8
寸法線
 62
     0
440
 16777216
370
    -2
100
AcDbLine
 10
968.9999801868925
 20
2453.749980897944
 30
0.0
 11
968.9999801868925
 21
2614.999980897945
 31
0.0
  0
LINE
  5
13A36
330
134D9
100
AcDbEntity
  8
寸法線
 62
     0
440
 16777216
370
    -2
100
AcDbLine
 10
929.9999801868926
 20
2604.999980897945
 30
0.0
 11
909.9999801868925
 21
2604.999980897945
 31
0.0
  0
LINE
  5
13A37
330
134D9
100
AcDbEntity
  8
寸法線
 62
     0
440
 16777216
370
    -2
100
AcDbLine
 10
988.9999801868926
 20
2604.999980897945
 30
0.0
 11
1008.999980186892
 21
2604.999980897945
 31
0.0
  0
LINE
  5
13A38
330
134D9
100
AcDbEntity
  8
寸法線
 62
     0
440
 16777216
370
    -2
100
AcDbLine
 10
949.9999801868925
 20
2604.999980897945
 30
0.0
 11
968.9999801868925
 21
2604.999980897945
 31
0.0
  0
INSERT
  5
13A39
330
134D9
100
AcDbEntity
  8
寸法線
 62
     0
440
 16777216
370
    -2
100
AcDbBlockReference
  2
_OPEN
 10
949.9999801868925
 20
2604.999980897945
 30
0.0
 41
20.0
 42
20.0
 43
20.0
  0
INSERT
  5
13A3A
330
134D9
100
AcDbEntity
  8
寸法線
 62
     0
440
 16777216
370
    -2
100
AcDbBlockReference
  2
_OPEN
 10
968.9999801868925
 20
2604.999980897945
 30
0.0
 41
20.0
 42
20.0
 43
20.0
 50
180.0
  0
MTEXT
  5
13A3B
330
134D9
100
AcDbEntity
  8
寸法線
 62
     0
440
 16777216
100
AcDbMText
 10
959.4999801868926
 20
2626.249980897946
 30
0.0
 40
25.0
 41
0.0
 46
0.0
 71
     5
 72
     1
  1
\A1;19
 73
     1
 44
1.0
  0
POINT
  5
13A3C
330
134D9
100
AcDbEntity
  8
Defpoints
 62
     0
440
 16777216
100
AcDbPoint
 10
949.9999801868925
 20
2436.000018117618
 30
0.0
  0
POINT
  5
13A3D
330
134D9
100
AcDbEntity
  8
Defpoints
 62
     0
440
 16777216
100
AcDbPoint
 10
968.9999801868925
 20
2444.999980897944
 30
0.0
  0
POINT
  5
13A3E
330
134D9
100
AcDbEntity
  8
Defpoints
 62
     0
440
 16777216
100
AcDbPoint
 10
968.9999801868925
 20
2604.999980897945
 30
0.0
  0
ENDBLK
  5
134DB
330
134D9
100
AcDbEntity
  8
0
100
AcDbBlockEnd
  0
BLOCK
  5
134E8
330
134E7
100
AcDbEntity
  8
0
100
AcDbBlockBegin
  2
*D37
 70
     1
 10
0.0
 20
0.0
 30
0.0
  3
*D37
  1

  0
LINE
  5
13A3F
330
134E7
100
AcDbEntity
  8
寸法線
 62
     0
440
 16777216
370
    -2
100
AcDbLine
 10
968.9999801868925
 20
2453.749980897944
 30
0.0
 11
968.9999801868925
 21
2614.999980897945
 31
0.0
  0
LINE
  5
13A40
330
134E7
100
AcDbEntity
  8
寸法線
 62
     0
440
 16777216
370
    -2
100
AcDbLine
 10
1499.999980186892
 20
2463.750018117619
 30
0.0
 11
1499.999980186892
 21
2614.999980897945
 31
0.0
  0
LINE
  5
13A41
330
134E7
100
AcDbEntity
  8
寸法線
 62
     0
440
 16777216
370
    -2
100
AcDbLine
 10
988.9999801868926
 20
2604.999980897945
 30
0.0
 11
1479.999980186893
 21
2604.999980897945
 31
0.0
  0
INSERT
  5
13A42
330
134E7
100
AcDbEntity
  8
寸法線
 62
     0
440
 16777216
370
    -2
100
AcDbBlockReference
  2
_OPEN
 10
968.9999801868925
 20
2604.999980897945
 30
0.0
 41
20.0
 42
20.0
 43
20.0
 50
180.0
  0
INSERT
  5
13A43
330
134E7
100
AcDbEntity
  8
寸法線
 62
     0
440
 16777216
370
    -2
100
AcDbBlockReference
  2
_OPEN
 10
1499.999980186892
 20
2604.999980897945
 30
0.0
 41
20.0
 42
20.0
 43
20.0
  0
MTEXT
  5
13A44
330
134E7
100
AcDbEntity
  8
寸法線
 62
     0
440
 16777216
100
AcDbMText
 10
1234.499980186892
 20
2626.249980897946
 30
0.0
 40
25.0
 41
0.0
 46
0.0
 71
     5
 72
     1
  1
\A1;531
 73
     1
 44
1.0
  0
POINT
  5
13A45
330
134E7
100
AcDbEntity
  8
Defpoints
 62
     0
440
 16777216
100
AcDbPoint
 10
968.9999801868925
 20
2444.999980897944
 30
0.0
  0
POINT
  5
13A46
330
134E7
100
AcDbEntity
  8
Defpoints
 62
     0
440
 16777216
100
AcDbPoint
 10
1499.999980186892
 20
2455.000018117619
 30
0.0
  0
POINT
  5
13A47
330
134E7
100
AcDbEntity
  8
Defpoints
 62
     0
440
 16777216
100
AcDbPoint
 10
1499.999980186892
 20
2604.999980897945
 30
0.0
  0
ENDBLK
  5
134E9
330
134E7
100
AcDbEntity
  8
0
100
AcDbBlockEnd
  0
BLOCK
  5
134F4
330
134F3
100
AcDbEntity
  8
0
100
AcDbBlockBegin
  2
*D38
 70
     1
 10
0.0
 20
0.0
 30
0.0
  3
*D38
  1

  0
LINE
  5
13A48
330
134F3
100
AcDbEntity
  8
寸法線
 62
     0
440
 16777216
370
    -2
100
AcDbLine
 10
960.249980186893
 20
2444.999980897945
 30
0.0
 11
819.9999801868921
 21
2444.999980897945
 31
0.0
  0
LINE
  5
13A49
330
134F3
100
AcDbEntity
  8
寸法線
 62
     0
440
 16777216
370
    -2
100
AcDbLine
 10
960.249980186893
 20
2044.999980897944
 30
0.0
 11
819.9999801868923
 21
2044.999980897944
 31
0.0
  0
LINE
  5
13A4A
330
134F3
100
AcDbEntity
  8
寸法線
 62
     0
440
 16777216
370
    -2
100
AcDbLine
 10
829.9999801868921
 20
2424.999980897946
 30
0.0
 11
829.9999801868922
 21
2064.999980897944
 31
0.0
  0
INSERT
  5
13A4B
330
134F3
100
AcDbEntity
  8
寸法線
 62
     0
440
 16777216
370
    -2
100
AcDbBlockReference
  2
_OPEN
 10
829.9999801868921
 20
2444.999980897945
 30
0.0
 41
20.0
 42
20.0
 43
20.0
 50
90.0
  0
INSERT
  5
13A4C
330
134F3
100
AcDbEntity
  8
寸法線
 62
     0
440
 16777216
370
    -2
100
AcDbBlockReference
  2
_OPEN
 10
829.9999801868922
 20
2044.999980897944
 30
0.0
 41
20.0
 42
20.0
 43
20.0
 50
270.0
  0
MTEXT
  5
13A4D
330
134F3
100
AcDbEntity
  8
寸法線
 62
     0
440
 16777216
100
AcDbMText
 10
808.7499801868926
 20
2244.999980897944
 30
0.0
 40
25.0
 41
0.0
 46
0.0
 71
     5
 72
     1
  1
\A1;400
 11
0.0000000000000001
 21
1.0
 31
0.0
 73
     1
 44
1.0
  0
POINT
  5
13A4E
330
134F3
100
AcDbEntity
  8
Defpoints
 62
     0
440
 16777216
100
AcDbPoint
 10
968.999980186893
 20
2444.999980897945
 30
0.0
  0
POINT
  5
13A4F
330
134F3
100
AcDbEntity
  8
Defpoints
 62
     0
440
 16777216
100
AcDbPoint
 10
968.999980186893
 20
2044.999980897944
 30
0.0
  0
POINT
  5
13A50
330
134F3
100
AcDbEntity
  8
Defpoints
 62
     0
440
 16777216
100
AcDbPoint
 10
829.9999801868922
 20
2044.999980897944
 30
0.0
  0
ENDBLK
  5
134F5
330
134F3
100
AcDbEntity
  8
0
100
AcDbBlockEnd
  0
BLOCK
  5
13500
330
134FF
100
AcDbEntity
  8
0
100
AcDbBlockBegin
  2
*D39
 70
     1
 10
0.0
 20
0.0
 30
0.0
  3
*D39
  1

  0
LINE
  5
13A51
330
134FF
100
AcDbEntity
  8
寸法線
 62
     0
440
 16777216
370
    -2
100
AcDbLine
 10
949.9999801868925
 20
2444.750018117618
 30
0.0
 11
949.9999801868925
 21
2694.999980897945
 31
0.0
  0
LINE
  5
13A52
330
134FF
100
AcDbEntity
  8
寸法線
 62
     0
440
 16777216
370
    -2
100
AcDbLine
 10
1499.999980186892
 20
2463.750018117619
 30
0.0
 11
1499.999980186892
 21
2694.999980897945
 31
0.0
  0
LINE
  5
13A53
330
134FF
100
AcDbEntity
  8
寸法線
 62
     0
440
 16777216
370
    -2
100
AcDbLine
 10
969.9999801868925
 20
2684.999980897945
 30
0.0
 11
1479.999980186893
 21
2684.999980897945
 31
0.0
  0
INSERT
  5
13A54
330
134FF
100
AcDbEntity
  8
寸法線
 62
     0
440
 16777216
370
    -2
100
AcDbBlockReference
  2
_OPEN
 10
949.9999801868925
 20
2684.999980897945
 30
0.0
 41
20.0
 42
20.0
 43
20.0
 50
180.0
  0
INSERT
  5
13A55
330
134FF
100
AcDbEntity
  8
寸法線
 62
     0
440
 16777216
370
    -2
100
AcDbBlockReference
  2
_OPEN
 10
1499.999980186892
 20
2684.999980897945
 30
0.0
 41
20.0
 42
20.0
 43
20.0
  0
MTEXT
  5
13A56
330
134FF
100
AcDbEntity
  8
寸法線
 62
     0
440
 16777216
100
AcDbMText
 10
1224.999980186892
 20
2706.249980897946
 30
0.0
 40
25.0
 41
0.0
 46
0.0
 71
     5
 72
     1
  1
\A1;550
 73
     1
 44
1.0
  0
MTEXT
  5
13A57
330
134FF
100
AcDbEntity
  8
寸法線
 62
     0
440
 16777216
100
AcDbMText
 10
1224.999980186892
 20
2663.749980897945
 30
0.0
 40
25.0
 41
0.0
 46
0.0
 71
     5
 72
     1
  1
\A1;H型鋼（連結部）
 73
     1
 44
1.0
  0
POINT
  5
13A58
330
134FF
100
AcDbEntity
  8
Defpoints
 62
     0
440
 16777216
100
AcDbPoint
 10
949.9999801868925
 20
2436.000018117618
 30
0.0
  0
POINT
  5
13A59
330
134FF
100
AcDbEntity
  8
Defpoints
 62
     0
440
 16777216
100
AcDbPoint
 10
1499.999980186892
 20
2455.000018117619
 30
0.0
  0
POINT
  5
13A5A
330
134FF
100
AcDbEntity
  8
Defpoints
 62
     0
440
 16777216
100
AcDbPoint
 10
1499.999980186892
 20
2684.999980897945
 30
0.0
  0
ENDBLK
  5
13501
330
134FF
100
AcDbEntity
  8
0
100
AcDbBlockEnd
  0
BLOCK
  5
1350D
330
1350C
100
AcDbEntity
  8
0
100
AcDbBlockBegin
  2
*D40
 70
     1
 10
0.0
 20
0.0
 30
0.0
  3
*D40
  1

  0
LINE
  5
13A5B
330
1350C
100
AcDbEntity
  8
寸法線
 62
     0
440
 16777216
370
    -2
100
AcDbLine
 10
1500.000000000001
 20
2463.749994704275
 30
0.0
 11
1500.000000000001
 21
2694.999980897945
 31
0.0
  0
LINE
  5
13A5C
330
1350C
100
AcDbEntity
  8
寸法線
 62
     0
440
 16777216
370
    -2
100
AcDbLine
 10
2100.000000000002
 20
2463.749971775628
 30
0.0
 11
2100.000000000002
 21
2694.999980897945
 31
0.0
  0
LINE
  5
13A5D
330
1350C
100
AcDbEntity
  8
寸法線
 62
     0
440
 16777216
370
    -2
100
AcDbLine
 10
1520.000000000002
 20
2684.999980897945
 30
0.0
 11
2080.000000000002
 21
2684.999980897945
 31
0.0
  0
INSERT
  5
13A5E
330
1350C
100
AcDbEntity
  8
寸法線
 62
     0
440
 16777216
370
    -2
100
AcDbBlockReference
  2
_OPEN
 10
1500.000000000001
 20
2684.999980897945
 30
0.0
 41
20.0
 42
20.0
 43
20.0
 50
180.0
  0
INSERT
  5
13A5F
330
1350C
100
AcDbEntity
  8
寸法線
 62
     0
440
 16777216
370
    -2
100
AcDbBlockReference
  2
_OPEN
 10
2100.000000000002
 20
2684.999980897945
 30
0.0
 41
20.0
 42
20.0
 43
20.0
  0
MTEXT
  5
13A60
330
1350C
100
AcDbEntity
  8
寸法線
 62
     0
440
 16777216
100
AcDbMText
 10
1800.000000000002
 20
2706.249980897946
 30
0.0
 40
25.0
 41
0.0
 46
0.0
 71
     5
 72
     1
  1
\A1;W=600
 73
     1
 44
1.0
  0
MTEXT
  5
13A61
330
1350C
100
AcDbEntity
  8
寸法線
 62
     0
440
 16777216
100
AcDbMText
 10
1800.000000000002
 20
2663.749980897945
 30
0.0
 40
25.0
 41
0.0
 46
0.0
 71
     5
 72
     1
  1
\A1;空洞金具
 73
     1
 44
1.0
  0
POINT
  5
13A62
330
1350C
100
AcDbEntity
  8
Defpoints
 62
     0
440
 16777216
100
AcDbPoint
 10
1500.000000000001
 20
2454.999994704275
 30
0.0
  0
POINT
  5
13A63
330
1350C
100
AcDbEntity
  8
Defpoints
 62
     0
440
 16777216
100
AcDbPoint
 10
2100.000000000002
 20
2454.999971775628
 30
0.0
  0
POINT
  5
13A64
330
1350C
100
AcDbEntity
  8
Defpoints
 62
     0
440
 16777216
100
AcDbPoint
 10
2100.000000000002
 20
2684.999980897945
 30
0.0
  0
ENDBLK
  5
1350E
330
1350C
100
AcDbEntity
  8
0
100
AcDbBlockEnd
  0
BLOCK
  5
1351A
330
13519
100
AcDbEntity
  8
0
100
AcDbBlockBegin
  2
*D41
 70
     1
 10
0.0
 20
0.0
 30
0.0
  3
*D41
  1

  0
LINE
  5
13A65
330
13519
100
AcDbEntity
  8
寸法線
 62
     0
440
 16777216
370
    -2
100
AcDbLine
 10
950.0000000000309
 20
2444.749994704289
 30
0.0
 11
950.0000000000309
 21
2774.999980897945
 31
0.0
  0
LINE
  5
13A66
330
13519
100
AcDbEntity
  8
寸法線
 62
     0
440
 16777216
370
    -2
100
AcDbLine
 10
2649.999999999971
 20
2444.749980897959
 30
0.0
 11
2649.999999999971
 21
2774.999980897945
 31
0.0
  0
LINE
  5
13A67
330
13519
100
AcDbEntity
  8
寸法線
 62
     0
440
 16777216
370
    -2
100
AcDbLine
 10
970.000000000031
 20
2764.999980897945
 30
0.0
 11
2629.999999999971
 21
2764.999980897945
 31
0.0
  0
INSERT
  5
13A68
330
13519
100
AcDbEntity
  8
寸法線
 62
     0
440
 16777216
370
    -2
100
AcDbBlockReference
  2
_OPEN
 10
950.0000000000309
 20
2764.999980897945
 30
0.0
 41
20.0
 42
20.0
 43
20.0
 50
180.0
  0
INSERT
  5
13A69
330
13519
100
AcDbEntity
  8
寸法線
 62
     0
440
 16777216
370
    -2
100
AcDbBlockReference
  2
_OPEN
 10
2649.999999999971
 20
2764.999980897945
 30
0.0
 41
20.0
 42
20.0
 43
20.0
  0
MTEXT
  5
13A6A
330
13519
100
AcDbEntity
  8
寸法線
 62
     0
440
 16777216
100
AcDbMText
 10
1800.000000000001
 20
2786.249980897945
 30
0.0
 40
25.0
 41
0.0
 46
0.0
 71
     5
 72
     1
  1
\A1;スルーサーＢ L=1700
 73
     1
 44
1.0
  0
POINT
  5
13A6B
330
13519
100
AcDbEntity
  8
Defpoints
 62
     0
440
 16777216
100
AcDbPoint
 10
950.0000000000309
 20
2435.999994704289
 30
0.0
  0
POINT
  5
13A6C
330
13519
100
AcDbEntity
  8
Defpoints
 62
     0
440
 16777216
100
AcDbPoint
 10
2649.999999999971
 20
2435.999980897959
 30
0.0
  0
POINT
  5
13A6D
330
13519
100
AcDbEntity
  8
Defpoints
 62
     0
440
 16777216
100
AcDbPoint
 10
2649.999999999971
 20
2764.999980897945
 30
0.0
  0
ENDBLK
  5
1351B
330
13519
100
AcDbEntity
  8
0
100
AcDbBlockEnd
  0
ENDSEC
  0
SECTION
  2
ENTITIES
  0
LWPOLYLINE
  5
130A4
330
1F
100
AcDbEntity
  8
Defpoints
100
AcDbPolyline
 90
        4
 70
     1
 43
0.0
 10
0.0
 20
0.0
 10
4200.0
 20
0.0
 10
4200.0
 20
2970.0
 10
0.0
 20
2970.0
  0
LWPOLYLINE
  5
130A5
330
1F
100
AcDbEntity
  8
Defpoints
100
AcDbPolyline
 90
        4
 70
     1
 43
0.0
 10
69.0039999999999
 20
69.10750000000007
 10
4130.995999999998
 20
69.10750000000007
 10
4130.995999999998
 20
2900.8925
 10
69.0039999999999
 20
2900.8925
  0
LINE
  5
130A6
330
1F
100
AcDbEntity
  8
中心線
100
AcDbLine
 10
925.0000000000017
 20
1644.999999157078
 30
0.0
 11
2675.000000000002
 21
1644.999998898519
 31
0.0
  0
DIMENSION
  5
130A7
330
1F
100
AcDbEntity
  8
寸法線
100
AcDbDimension
280
     0
  2
*D33
 10
2100.000000000002
 20
1284.999998902689
 30
0.0
 11
1800.000000000002
 21
1306.249998902689
 31
0.0
 70
    32
 71
     5
 42
600.0
 73
     0
 74
     0
 75
     0
  3
STANDARD
100
AcDbAlignedDimension
 13
1500.000000000001
 23
1434.999989780372
 33
0.0
 14
2100.000000000002
 24
1434.999989780372
 34
0.0
100
AcDbRotatedDimension
  0
DIMENSION
  5
130A8
330
1F
100
AcDbEntity
  8
寸法線
100
AcDbDimension
280
     0
  2
*D34
 10
1499.999980186892
 20
1284.999998902689
 30
0.0
 11
1224.999980186892
 21
1284.999998902689
 31
0.0
 70
   160
 71
     5
 42
550.0
 73
     0
 74
     0
 75
     0
  3
STANDARD
100
AcDbAlignedDimension
 13
949.9999801868925
 23
1444.999998902688
 33
0.0
 14
1499.999980186892
 24
1435.000036122362
 34
0.0
100
AcDbRotatedDimension
  0
DIMENSION
  5
130A9
330
1F
100
AcDbEntity
  8
寸法線
100
AcDbDimension
280
     0
  2
*D35
 10
829.9999801868922
 20
1444.999998902688
 30
0.0
 11
829.9999801868926
 21
1644.999998902688
 31
0.0
 70
   160
 71
     5
 42
400.0000000000002
 73
     0
 74
     0
 75
     0
  3
STANDARD
100
AcDbAlignedDimension
 13
949.9999801868925
 23
1844.999998902688
 33
0.0
 14
949.9999801868925
 24
1444.999998902688
 34
0.0
 50
90.0
100
AcDbRotatedDimension
  0
DIMENSION
  5
130AA
330
1F
100
AcDbEntity
  8
寸法線
100
AcDbDimension
280
     0
  2
*D36
 10
968.9999801868925
 20
2604.999980897945
 30
0.0
 11
959.4999801868926
 21
2604.999980897945
 31
0.0
 70
   160
 71
     5
 42
19.0
 73
     0
 74
     0
 75
     0
  3
STANDARD
100
AcDbAlignedDimension
 13
949.9999801868925
 23
2436.000018117618
 33
0.0
 14
968.9999801868925
 24
2444.999980897944
 34
0.0
100
AcDbRotatedDimension
  0
DIMENSION
  5
130AB
330
1F
100
AcDbEntity
  8
寸法線
100
AcDbDimension
280
     0
  2
*D37
 10
1499.999980186892
 20
2604.999980897945
 30
0.0
 11
1234.499980186892
 21
2604.999980897945
 31
0.0
 70
   160
 71
     5
 42
531.0
 73
     0
 74
     0
 75
     0
  3
STANDARD
100
AcDbAlignedDimension
 13
968.9999801868925
 23
2444.999980897944
 33
0.0
 14
1499.999980186892
 24
2455.000018117619
 34
0.0
100
AcDbRotatedDimension
  0
DIMENSION
  5
130AC
330
1F
100
AcDbEntity
  8
寸法線
100
AcDbDimension
280
     0
  2
*D38
 10
829.9999801868922
 20
2044.999980897944
 30
0.0
 11
829.9999801868926
 21
2244.999980897944
 31
0.0
 70
   160
 71
     5
 42
400.0000000000011
 73
     0
 74
     0
 75
     0
  3
STANDARD
100
AcDbAlignedDimension
 13
968.9999801868925
 23
2444.999980897944
 33
0.0
 14
968.9999801868925
 24
2044.999980897943
 34
0.0
 50
90.0
100
AcDbRotatedDimension
  0
DIMENSION
  5
130AD
330
1F
100
AcDbEntity
  8
寸法線
100
AcDbDimension
280
     0
  2
*D39
 10
1499.999980186892
 20
2684.999980897945
 30
0.0
 11
1224.999980186892
 21
2684.999980897945
 31
0.0
 70
   160
  1
<>\XH型鋼（連結部）
 71
     5
 42
550.0
 73
     0
 74
     0
 75
     0
  3
STANDARD
100
AcDbAlignedDimension
 13
949.9999801868925
 23
2436.000018117618
 33
0.0
 14
1499.999980186892
 24
2455.000018117619
 34
0.0
100
AcDbRotatedDimension
  0
LINE
  5
130AE
330
1F
100
AcDbEntity
  8
中心線
100
AcDbLine
 10
925.0000000000017
 20
2244.999980533044
 30
0.0
 11
2675.000226983166
 21
2245.000018733756
 31
0.0
  0
DIMENSION
  5
130AF
330
1F
100
AcDbEntity
  8
寸法線
100
AcDbDimension
280
     0
  2
*D40
 10
2100.000000000002
 20
2684.999980897945
 30
0.0
 11
1800.000000000002
 21
2684.999980897945
 31
0.0
 70
    32
  1
W=<>\X空洞金具
 71
     5
 42
600.0
 73
     0
 74
     0
 75
     0
  3
STANDARD
100
AcDbAlignedDimension
 13
1500.000000000001
 23
2454.999994704275
 33
0.0
 14
2100.000000000002
 24
2454.999971775628
 34
0.0
100
AcDbRotatedDimension
  0
DIMENSION
  5
130B0
330
1F
100
AcDbEntity
  8
寸法線
100
AcDbDimension
280
     0
  2
*D41
 10
2649.999999999971
 20
2764.999980897945
 30
0.0
 11
1800.000000000001
 21
2786.249980897945
 31
0.0
 70
    32
  1
スルーサーＢ L=<>
 71
     5
 42
1699.99999999994
 73
     0
 74
     0
 75
     0
  3
STANDARD
100
AcDbAlignedDimension
 13
950.0000000000309
 23
2435.999994704289
 33
0.0
 14
2649.999999999971
 24
2435.999980897959
 34
0.0
100
AcDbRotatedDimension
  0
LINE
  5
130B1
330
1F
100
AcDbEntity
  8
実線
100
AcDbLine
 10
1500.000000000001
 20
1854.999989780372
 30
0.0
 11
1516.000000000001
 21
1854.999989780372
 31
0.0
  0
LINE
  5
130B2
330
1F
100
AcDbEntity
  8
実線
100
AcDbLine
 10
1548.000000000001
 20
1502.000008025004
 30
0.0
 11
1548.000000000001
 21
1788.000008025004
 31
0.0
  0
LINE
  5
130B3
330
1F
100
AcDbEntity
  8
実線
100
AcDbLine
 10
1808.000000000002
 20
1784.999989780373
 30
0.0
 11
2052.000103585028
 21
1784.999989780373
 31
0.0
  0
LINE
  5
130B4
330
1F
100
AcDbEntity
  8
実線
100
AcDbLine
 10
1808.000000000002
 20
1844.999989780373
 30
0.0
 11
2084.000103585028
 21
1844.999989780373
 31
0.0
  0
LINE
  5
130B5
330
1F
100
AcDbEntity
  8
破線
100
AcDbLine
 10
1516.000000000001
 20
1828.999989780372
 30
0.0
 11
1548.000000000001
 21
1828.999989780372
 31
0.0
  0
LINE
  5
130B6
330
1F
100
AcDbEntity
  8
破線
100
AcDbLine
 10
1548.000000000001
 20
1829.000008025004
 30
0.0
 11
1548.000000000001
 21
1844.999989780373
 31
0.0
  0
LINE
  5
130B7
330
1F
100
AcDbEntity
  8
破線
100
AcDbLine
 10
1525.000000000002
 20
1784.999989780373
 30
0.0
 11
1548.000000000001
 21
1784.999989780373
 31
0.0
  0
LINE
  5
130B8
330
1F
100
AcDbEntity
  8
実線
100
AcDbLine
 10
1528.000000000002
 20
1787.999989780373
 30
0.0
 11
1548.000000000001
 21
1787.999989780373
 31
0.0
  0
LINE
  5
130B9
330
1F
100
AcDbEntity
  8
実線
100
AcDbLine
 10
1516.000000000001
 20
1775.999989780373
 30
0.0
 11
1528.000000000002
 21
1787.999989780373
 31
0.0
  0
LINE
  5
130BA
330
1F
100
AcDbEntity
  8
実線
100
AcDbLine
 10
1516.000000000001
 20
1784.999989780373
 30
0.0
 11
1525.000000000002
 21
1784.999989780373
 31
0.0
  0
LINE
  5
130BB
330
1F
100
AcDbEntity
  8
破線
100
AcDbLine
 10
2052.000000000002
 20
1829.000008025004
 30
0.0
 11
2052.000000000002
 21
1844.999989780373
 31
0.0
  0
LINE
  5
130BC
330
1F
100
AcDbEntity
  8
破線
100
AcDbLine
 10
2084.000000000002
 20
1828.999989780372
 30
0.0
 11
2052.000000000002
 21
1828.999989780372
 31
0.0
  0
LINE
  5
130BD
330
1F
100
AcDbEntity
  8
破線
100
AcDbLine
 10
1516.000000000001
 20
1652.999989780372
 30
0.0
 11
1548.000000000001
 21
1652.999989780372
 31
0.0
  0
LINE
  5
130BE
330
1F
100
AcDbEntity
  8
破線
100
AcDbLine
 10
1516.000000000001
 20
1636.999989780372
 30
0.0
 11
1548.000000000001
 21
1636.999989780372
 31
0.0
  0
LINE
  5
130BF
330
1F
100
AcDbEntity
  8
破線
100
AcDbLine
 10
2052.000000000002
 20
1652.999989780372
 30
0.0
 11
2084.000000000002
 21
1652.999989780372
 31
0.0
  0
LINE
  5
130C0
330
1F
100
AcDbEntity
  8
破線
100
AcDbLine
 10
2052.000000000002
 20
1636.999989780372
 30
0.0
 11
2084.000000000002
 21
1636.999989780372
 31
0.0
  0
LINE
  5
130C1
330
1F
100
AcDbEntity
  8
実線
100
AcDbLine
 10
2084.000000000002
 20
1854.999989780372
 30
0.0
 11
2100.000000000002
 21
1854.999989780372
 31
0.0
  0
LINE
  5
130C2
330
1F
100
AcDbEntity
  8
実線
100
AcDbLine
 10
1516.000000000001
 20
1435.000008025004
 30
0.0
 11
1516.000000000001
 21
1854.999989780372
 31
0.0
  0
LINE
  5
130C3
330
1F
100
AcDbEntity
  8
実線
100
AcDbLine
 10
2084.000000000002
 20
1435.000008025004
 30
0.0
 11
2084.000000000002
 21
1854.999989780372
 31
0.0
  0
LINE
  5
130C4
330
1F
100
AcDbEntity
  8
実線
100
AcDbLine
 10
1500.000000000001
 20
1434.999989780372
 30
0.0
 11
1516.000000000001
 21
1434.999989780372
 31
0.0
  0
LINE
  5
130C5
330
1F
100
AcDbEntity
  8
実線
100
AcDbLine
 10
1808.000000000002
 20
1504.999989780373
 30
0.0
 11
2052.000103585028
 21
1504.999989780373
 31
0.0
  0
LINE
  5
130C6
330
1F
100
AcDbEntity
  8
実線
100
AcDbLine
 10
1808.000000000002
 20
1444.999989780373
 30
0.0
 11
2084.000103585028
 21
1444.999989780373
 31
0.0
  0
LINE
  5
130C7
330
1F
100
AcDbEntity
  8
破線
100
AcDbLine
 10
1516.000000000001
 20
1460.999989780373
 30
0.0
 11
1548.000000000001
 21
1460.999989780373
 31
0.0
  0
LINE
  5
130C8
330
1F
100
AcDbEntity
  8
破線
100
AcDbLine
 10
1548.000000000001
 20
1460.999971535741
 30
0.0
 11
1548.000000000001
 21
1444.999989780373
 31
0.0
  0
LINE
  5
130C9
330
1F
100
AcDbEntity
  8
破線
100
AcDbLine
 10
1525.000000000002
 20
1504.999989780373
 30
0.0
 11
1548.000000000001
 21
1504.999989780373
 31
0.0
  0
LINE
  5
130CA
330
1F
100
AcDbEntity
  8
実線
100
AcDbLine
 10
1528.000000000002
 20
1501.999989780373
 30
0.0
 11
1548.000000000001
 21
1501.999989780373
 31
0.0
  0
LINE
  5
130CB
330
1F
100
AcDbEntity
  8
実線
100
AcDbLine
 10
1516.000000000001
 20
1513.999989780373
 30
0.0
 11
1528.000000000002
 21
1501.999989780373
 31
0.0
  0
LINE
  5
130CC
330
1F
100
AcDbEntity
  8
実線
100
AcDbLine
 10
1516.000000000001
 20
1504.999989780373
 30
0.0
 11
1525.000000000002
 21
1504.999989780373
 31
0.0
  0
LINE
  5
130CD
330
1F
100
AcDbEntity
  8
破線
100
AcDbLine
 10
2052.000000000002
 20
1460.999971535741
 30
0.0
 11
2052.000000000002
 21
1444.999989780373
 31
0.0
  0
LINE
  5
130CE
330
1F
100
AcDbEntity
  8
破線
100
AcDbLine
 10
2084.000000000002
 20
1460.999989780373
 30
0.0
 11
2052.000000000002
 21
1460.999989780373
 31
0.0
  0
LINE
  5
130CF
330
1F
100
AcDbEntity
  8
実線
100
AcDbLine
 10
2084.000000000002
 20
1434.999989780372
 30
0.0
 11
2100.000000000002
 21
1434.999989780372
 31
0.0
  0
LINE
  5
130D0
330
1F
100
AcDbEntity
  8
実線
100
AcDbLine
 10
2052.000103585028
 20
1502.000008025004
 30
0.0
 11
2052.000103585028
 21
1788.000008025004
 31
0.0
  0
LINE
  5
130D1
330
1F
100
AcDbEntity
  8
破線
100
AcDbLine
 10
2075.000103585027
 20
1784.999989780373
 30
0.0
 11
2052.000103585028
 21
1784.999989780373
 31
0.0
  0
LINE
  5
130D2
330
1F
100
AcDbEntity
  8
実線
100
AcDbLine
 10
2072.000103585029
 20
1787.999989780373
 30
0.0
 11
2052.000103585028
 21
1787.999989780373
 31
0.0
  0
LINE
  5
130D3
330
1F
100
AcDbEntity
  8
実線
100
AcDbLine
 10
2084.000103585028
 20
1775.999989780373
 30
0.0
 11
2072.000103585029
 21
1787.999989780373
 31
0.0
  0
LINE
  5
130D4
330
1F
100
AcDbEntity
  8
実線
100
AcDbLine
 10
2084.000103585028
 20
1784.999989780373
 30
0.0
 11
2075.000103585027
 21
1784.999989780373
 31
0.0
  0
LINE
  5
130D5
330
1F
100
AcDbEntity
  8
破線
100
AcDbLine
 10
2075.000103585027
 20
1504.999989780373
 30
0.0
 11
2052.000103585028
 21
1504.999989780373
 31
0.0
  0
LINE
  5
130D6
330
1F
100
AcDbEntity
  8
実線
100
AcDbLine
 10
2072.000103585029
 20
1501.999989780373
 30
0.0
 11
2052.000103585028
 21
1501.999989780373
 31
0.0
  0
LINE
  5
130D7
330
1F
100
AcDbEntity
  8
実線
100
AcDbLine
 10
2084.000103585028
 20
1513.999989780373
 30
0.0
 11
2072.000103585029
 21
1501.999989780373
 31
0.0
  0
LINE
  5
130D8
330
1F
100
AcDbEntity
  8
実線
100
AcDbLine
 10
2084.000103585028
 20
1504.999989780373
 30
0.0
 11
2075.000103585027
 21
1504.999989780373
 31
0.0
  0
LINE
  5
130D9
330
1F
100
AcDbEntity
  8
実線
100
AcDbLine
 10
1500.000000000001
 20
2034.99999002026
 30
0.0
 11
1500.000000000001
 21
2454.999994704275
 31
0.0
  0
LINE
  5
130DA
330
1F
100
AcDbEntity
  8
実線
100
AcDbLine
 10
1500.000000000001
 20
2454.999971775629
 30
0.0
 11
1516.000000000001
 21
2454.999971775629
 31
0.0
  0
LINE
  5
130DB
330
1F
100
AcDbEntity
  8
実線
100
AcDbLine
 10
1548.000000000001
 20
2101.99999002026
 30
0.0
 11
1548.000000000001
 21
2387.99999002026
 31
0.0
  0
LINE
  5
130DC
330
1F
100
AcDbEntity
  8
実線
100
AcDbLine
 10
1808.000000000002
 20
2384.99997177563
 30
0.0
 11
2052.000103585028
 21
2384.999971775629
 31
0.0
  0
LINE
  5
130DD
330
1F
100
AcDbEntity
  8
実線
100
AcDbLine
 10
1808.000000000002
 20
2444.999971775629
 30
0.0
 11
2084.000103585028
 21
2444.999971775629
 31
0.0
  0
LINE
  5
130DE
330
1F
100
AcDbEntity
  8
破線
100
AcDbLine
 10
1516.000000000001
 20
2428.999971775629
 30
0.0
 11
1548.000000000001
 21
2428.999971775629
 31
0.0
  0
LINE
  5
130DF
330
1F
100
AcDbEntity
  8
破線
100
AcDbLine
 10
1548.000000000001
 20
2428.99999002026
 30
0.0
 11
1548.000000000001
 21
2444.999971775629
 31
0.0
  0
LINE
  5
130E0
330
1F
100
AcDbEntity
  8
破線
100
AcDbLine
 10
1525.000000000002
 20
2384.999971775629
 30
0.0
 11
1548.000000000001
 21
2384.999971775629
 31
0.0
  0
LINE
  5
130E1
330
1F
100
AcDbEntity
  8
実線
100
AcDbLine
 10
1528.000000000002
 20
2387.999971775629
 30
0.0
 11
1548.000000000001
 21
2387.999971775629
 31
0.0
  0
LINE
  5
130E2
330
1F
100
AcDbEntity
  8
実線
100
AcDbLine
 10
1516.000000000001
 20
2375.999971775629
 30
0.0
 11
1528.000000000002
 21
2387.999971775629
 31
0.0
  0
LINE
  5
130E3
330
1F
100
AcDbEntity
  8
実線
100
AcDbLine
 10
1516.000000000001
 20
2384.999971775629
 30
0.0
 11
1525.000000000002
 21
2384.999971775629
 31
0.0
  0
LINE
  5
130E4
330
1F
100
AcDbEntity
  8
破線
100
AcDbLine
 10
2052.000000000002
 20
2428.99999002026
 30
0.0
 11
2052.000000000002
 21
2444.999971775629
 31
0.0
  0
LINE
  5
130E5
330
1F
100
AcDbEntity
  8
破線
100
AcDbLine
 10
2084.000000000002
 20
2428.999971775629
 30
0.0
 11
2052.000000000002
 21
2428.999971775629
 31
0.0
  0
LINE
  5
130E6
330
1F
100
AcDbEntity
  8
破線
100
AcDbLine
 10
1516.000000000001
 20
2252.999971775629
 30
0.0
 11
1548.000000000001
 21
2252.999971775629
 31
0.0
  0
LINE
  5
130E7
330
1F
100
AcDbEntity
  8
破線
100
AcDbLine
 10
1516.000000000001
 20
2236.999971775629
 30
0.0
 11
1548.000000000001
 21
2236.999971775629
 31
0.0
  0
LINE
  5
130E8
330
1F
100
AcDbEntity
  8
破線
100
AcDbLine
 10
2052.000000000002
 20
2252.999971775629
 30
0.0
 11
2084.000000000002
 21
2252.999971775629
 31
0.0
  0
LINE
  5
130E9
330
1F
100
AcDbEntity
  8
破線
100
AcDbLine
 10
2052.000000000002
 20
2236.999971775629
 30
0.0
 11
2084.000000000002
 21
2236.999971775629
 31
0.0
  0
LINE
  5
130EA
330
1F
100
AcDbEntity
  8
実線
100
AcDbLine
 10
2084.000000000002
 20
2454.999971775629
 30
0.0
 11
2100.000000000002
 21
2454.999971775629
 31
0.0
  0
LINE
  5
130EB
330
1F
100
AcDbEntity
  8
実線
100
AcDbLine
 10
1516.000000000001
 20
2034.99999002026
 30
0.0
 11
1516.000000000001
 21
2454.999971775629
 31
0.0
  0
LINE
  5
130EC
330
1F
100
AcDbEntity
  8
実線
100
AcDbLine
 10
2084.000000000002
 20
2034.99999002026
 30
0.0
 11
2084.000000000002
 21
2454.999971775629
 31
0.0
  0
LINE
  5
130ED
330
1F
100
AcDbEntity
  8
実線
100
AcDbLine
 10
1500.000000000001
 20
2034.999971775629
 30
0.0
 11
1516.000000000001
 21
2034.999971775629
 31
0.0
  0
LINE
  5
130EE
330
1F
100
AcDbEntity
  8
実線
100
AcDbLine
 10
1808.000000000002
 20
2104.999971775629
 30
0.0
 11
2052.000103585028
 21
2104.999971775629
 31
0.0
  0
LINE
  5
130EF
330
1F
100
AcDbEntity
  8
実線
100
AcDbLine
 10
1808.000000000002
 20
2044.999971775629
 30
0.0
 11
2084.000103585028
 21
2044.999971775629
 31
0.0
  0
LINE
  5
130F0
330
1F
100
AcDbEntity
  8
破線
100
AcDbLine
 10
1516.000000000001
 20
2060.999971775629
 30
0.0
 11
1548.000000000001
 21
2060.999971775629
 31
0.0
  0
LINE
  5
130F1
330
1F
100
AcDbEntity
  8
破線
100
AcDbLine
 10
1548.000000000001
 20
2060.999953530998
 30
0.0
 11
1548.000000000001
 21
2044.999971775629
 31
0.0
  0
LINE
  5
130F2
330
1F
100
AcDbEntity
  8
破線
100
AcDbLine
 10
1525.000000000002
 20
2104.999971775629
 30
0.0
 11
1548.000000000001
 21
2104.999971775629
 31
0.0
  0
LINE
  5
130F3
330
1F
100
AcDbEntity
  8
実線
100
AcDbLine
 10
1528.000000000002
 20
2101.999971775629
 30
0.0
 11
1548.000000000001
 21
2101.999971775629
 31
0.0
  0
LINE
  5
130F4
330
1F
100
AcDbEntity
  8
実線
100
AcDbLine
 10
1516.000000000001
 20
2113.999971775629
 30
0.0
 11
1528.000000000002
 21
2101.999971775629
 31
0.0
  0
LINE
  5
130F5
330
1F
100
AcDbEntity
  8
実線
100
AcDbLine
 10
1516.000000000001
 20
2104.999971775629
 30
0.0
 11
1525.000000000002
 21
2104.999971775629
 31
0.0
  0
LINE
  5
130F6
330
1F
100
AcDbEntity
  8
破線
100
AcDbLine
 10
2052.000000000002
 20
2060.999953530998
 30
0.0
 11
2052.000000000002
 21
2044.999971775629
 31
0.0
  0
LINE
  5
130F7
330
1F
100
AcDbEntity
  8
破線
100
AcDbLine
 10
2084.000000000002
 20
2060.999971775629
 30
0.0
 11
2052.000000000002
 21
2060.999971775629
 31
0.0
  0
LINE
  5
130F8
330
1F
100
AcDbEntity
  8
実線
100
AcDbLine
 10
2084.000000000002
 20
2034.999971775629
 30
0.0
 11
2100.000000000002
 21
2034.999971775629
 31
0.0
  0
LINE
  5
130F9
330
1F
100
AcDbEntity
  8
実線
100
AcDbLine
 10
2052.000103585028
 20
2101.99999002026
 30
0.0
 11
2052.000103585028
 21
2387.99999002026
 31
0.0
  0
LINE
  5
130FA
330
1F
100
AcDbEntity
  8
破線
100
AcDbLine
 10
2075.000103585027
 20
2384.999971775629
 30
0.0
 11
2052.000103585028
 21
2384.999971775629
 31
0.0
  0
LINE
  5
130FB
330
1F
100
AcDbEntity
  8
実線
100
AcDbLine
 10
2072.000103585029
 20
2387.999971775629
 30
0.0
 11
2052.000103585028
 21
2387.999971775629
 31
0.0
  0
LINE
  5
130FC
330
1F
100
AcDbEntity
  8
実線
100
AcDbLine
 10
2084.000103585028
 20
2375.999971775629
 30
0.0
 11
2072.000103585029
 21
2387.999971775629
 31
0.0
  0
LINE
  5
130FD
330
1F
100
AcDbEntity
  8
実線
100
AcDbLine
 10
2084.000103585028
 20
2384.999971775629
 30
0.0
 11
2075.000103585027
 21
2384.999971775629
 31
0.0
  0
LINE
  5
130FE
330
1F
100
AcDbEntity
  8
破線
100
AcDbLine
 10
2075.000103585027
 20
2104.999971775629
 30
0.0
 11
2052.000103585028
 21
2104.999971775629
 31
0.0
  0
LINE
  5
130FF
330
1F
100
AcDbEntity
  8
実線
100
AcDbLine
 10
2072.000103585029
 20
2101.999971775629
 30
0.0
 11
2052.000103585028
 21
2101.999971775629
 31
0.0
  0
LINE
  5
13100
330
1F
100
AcDbEntity
  8
実線
100
AcDbLine
 10
2084.000103585028
 20
2113.999971775629
 30
0.0
 11
2072.000103585029
 21
2101.999971775629
 31
0.0
  0
LINE
  5
13101
330
1F
100
AcDbEntity
  8
実線
100
AcDbLine
 10
2084.000103585028
 20
2104.999971775629
 30
0.0
 11
2075.000103585027
 21
2104.999971775629
 31
0.0
  0
DIMENSION
  5
13102
330
1F
100
AcDbEntity
  8
寸法線
100
AcDbDimension
280
     0
  2
*D30
 10
2631.000226983166
 20
2604.999980897945
 30
0.0
 11
2640.500226983166
 21
2604.999980897945
 31
0.0
 70
   160
 71
     5
 42
19.0
 73
     0
 74
     0
 75
     0
  3
STANDARD
100
AcDbAlignedDimension
 13
2650.000226983166
 23
2436.000018117618
 33
0.0
 14
2631.000226983166
 24
2444.999980897944
 34
0.0
 50
180.0
100
AcDbRotatedDimension
  0
DIMENSION
  5
13103
330
1F
100
AcDbEntity
  8
寸法線
100
AcDbDimension
280
     0
  2
*D31
 10
2100.000226983166
 20
2604.999980897945
 30
0.0
 11
2365.500226983166
 21
2604.999980897945
 31
0.0
 70
   160
 71
     5
 42
531.0
 73
     0
 74
     0
 75
     0
  3
STANDARD
100
AcDbAlignedDimension
 13
2631.000226983166
 23
2444.999980897944
 33
0.0
 14
2100.000226983166
 24
2455.000018117619
 34
0.0
 50
180.0
100
AcDbRotatedDimension
  0
DIMENSION
  5
13104
330
1F
100
AcDbEntity
  8
寸法線
100
AcDbDimension
280
     0
  2
*D32
 10
2100.000000000002
 20
1284.999998902689
 30
0.0
 11
2375.000000000002
 21
1284.999998902689
 31
0.0
 70
   160
 71
     5
 42
550.0
 73
     0
 74
     0
 75
     0
  3
STANDARD
100
AcDbAlignedDimension
 13
2650.000000000002
 23
1444.999998902688
 33
0.0
 14
2100.000000000002
 24
1435.000036122362
 34
0.0
 50
180.0
100
AcDbRotatedDimension
  0
LINE
  5
13105
330
1F
100
AcDbEntity
  8
中心線
100
AcDbLine
 10
1372.000000000002
 20
1814.999998902688
 30
0.0
 11
2228.000003823188
 21
1814.99997727405
 31
0.0
  0
LINE
  5
13106
330
1F
100
AcDbEntity
  8
中心線
100
AcDbLine
 10
1490.000051792514
 20
2414.999990020257
 30
0.0
 11
2110.00015537754
 21
2414.999990020257
 31
0.0
  0
LINE
  5
13107
330
1F
100
AcDbEntity
  8
中心線
100
AcDbLine
 10
1490.000051792514
 20
2074.999990020264
 30
0.0
 11
2110.00015537754
 21
2074.999990020264
 31
0.0
  0
LINE
  5
13108
330
1F
100
AcDbEntity
  8
中心線
100
AcDbLine
 10
1371.99999994328
 20
1474.999999262339
 30
0.0
 11
2228.000003766469
 21
1475.00002067211
 31
0.0
  0
LINE
  5
13109
330
1F
100
AcDbEntity
  8
寸法線
100
AcDbLine
 10
1639.999948207486
 20
1169.999754707962
 30
0.0
 11
1959.999948207486
 21
1169.999754707962
 31
0.0
  0
TEXT
  5
1310A
330
1F
100
AcDbEntity
  8
寸法線
100
AcDbText
 10
1648.749948207486
 20
1178.749754707962
 30
0.0
 40
37.5
  1
空洞金具詳細図
 72
     1
 11
1799.999948207486
 21
1178.749754707962
 31
0.0
100
AcDbText
 73
     1
  0
LINE
  5
1310B
330
1F
100
AcDbEntity
  8
実線
100
AcDbLine
 10
950.0000000000309
 20
2435.999994704289
 30
0.0
 11
950.0000000000309
 21
2053.999994704289
 31
0.0
  0
LINE
  5
1310C
330
1F
100
AcDbEntity
  8
実線
100
AcDbLine
 10
969.0000000000308
 20
2444.999957484609
 30
0.0
 11
969.0000000000308
 21
2044.999957484609
 31
0.0
  0
LINE
  5
1310D
330
1F
100
AcDbEntity
  8
実線
100
AcDbLine
 10
969.0000000000308
 20
2444.999957484609
 30
0.0
 11
1500.000019813133
 21
2444.999957484609
 31
0.0
  0
LINE
  5
1310E
330
1F
100
AcDbEntity
  8
実線
100
AcDbLine
 10
969.0000000000308
 20
2423.999957484609
 30
0.0
 11
1500.000019813133
 21
2423.999957484609
 31
0.0
  0
LINE
  5
1310F
330
1F
100
AcDbEntity
  8
実線
100
AcDbLine
 10
1380.000000000031
 20
2423.999957484609
 30
0.0
 11
1380.000000000031
 21
2393.999994704289
 31
0.0
  0
LINE
  5
13110
330
1F
100
AcDbEntity
  8
実線
100
AcDbLine
 10
1460.000019813133
 20
2353.999957484608
 30
0.0
 11
1500.000019813133
 21
2353.999957484608
 31
0.0
  0
LINE
  5
13111
330
1F
100
AcDbEntity
  8
実線
100
AcDbLine
 10
1380.000000000031
 20
2393.999994704289
 30
0.0
 11
1460.000019813133
 21
2353.999957484608
 31
0.0
  0
LINE
  5
13112
330
1F
100
AcDbEntity
  8
実線
100
AcDbLine
 10
1488.00002377575
 20
2423.999957484609
 30
0.0
 11
1500.00002377575
 21
2411.999957484609
 31
0.0
  0
LINE
  5
13113
330
1F
100
AcDbEntity
  8
仮想線
100
AcDbLine
 10
1491.000019813133
 20
2423.999957484609
 30
0.0
 11
1500.000019813133
 21
2414.999957484609
 31
0.0
  0
LINE
  5
13114
330
1F
100
AcDbEntity
  8
実線
100
AcDbLine
 10
1380.000000000031
 20
2065.999957484608
 30
0.0
 11
1380.000000000031
 21
2095.999920264942
 31
0.0
  0
LINE
  5
13115
330
1F
100
AcDbEntity
  8
実線
100
AcDbLine
 10
1460.000019813133
 20
2135.999957484608
 30
0.0
 11
1500.000019813133
 21
2135.999957484608
 31
0.0
  0
LINE
  5
13116
330
1F
100
AcDbEntity
  8
実線
100
AcDbLine
 10
1380.000000000031
 20
2095.999920264942
 30
0.0
 11
1460.000019813133
 21
2135.999957484608
 31
0.0
  0
LINE
  5
13117
330
1F
100
AcDbEntity
  8
実線
100
AcDbLine
 10
1488.00002377575
 20
2065.999957484608
 30
0.0
 11
1500.00002377575
 21
2077.999957484609
 31
0.0
  0
LINE
  5
13118
330
1F
100
AcDbEntity
  8
仮想線
100
AcDbLine
 10
1491.000019813133
 20
2065.999957484608
 30
0.0
 11
1500.000019813133
 21
2074.999957484608
 31
0.0
  0
LINE
  5
13119
330
1F
100
AcDbEntity
  8
実線
100
AcDbLine
 10
950.0000000000309
 20
2435.999994704289
 30
0.0
 11
969.0000000000308
 21
2435.999994704289
 31
0.0
  0
LINE
  5
1311A
330
1F
100
AcDbEntity
  8
実線
100
AcDbLine
 10
950.0000000000309
 20
2054.000020264932
 30
0.0
 11
969.0000000000308
 21
2054.000020264932
 31
0.0
  0
LINE
  5
1311B
330
1F
100
AcDbEntity
  8
仮想線
100
AcDbLine
 10
969.0000000000308
 20
2444.999957484609
 30
0.0
 11
960.0000372196973
 21
2435.999994704289
 31
0.0
  0
LINE
  5
1311C
330
1F
100
AcDbEntity
  8
仮想線
100
AcDbLine
 10
969.0000000000308
 20
2044.999957484609
 30
0.0
 11
959.9999372197071
 21
2054.000020264932
 31
0.0
  0
LINE
  5
1311D
330
1F
100
AcDbEntity
  8
実線
100
AcDbLine
 10
969.0000000000308
 20
2250.999957484609
 30
0.0
 11
1169.000019813133
 21
2250.999957484609
 31
0.0
  0
LINE
  5
1311E
330
1F
100
AcDbEntity
  8
実線
100
AcDbLine
 10
969.0000000000308
 20
2238.999957484608
 30
0.0
 11
1169.000019813133
 21
2238.999957484608
 31
0.0
  0
LINE
  5
1311F
330
1F
100
AcDbEntity
  8
実線
100
AcDbLine
 10
1169.000019813133
 20
2250.999957484609
 30
0.0
 11
1169.000019813133
 21
2238.999957484608
 31
0.0
  0
LINE
  5
13120
330
1F
100
AcDbEntity
  8
仮想線
100
AcDbLine
 10
1500.000001981332
 20
2453.999990982317
 30
0.0
 11
1490.999968483624
 21
2444.999957484609
 31
0.0
  0
LINE
  5
13121
330
1F
100
AcDbEntity
  8
仮想線
100
AcDbLine
 10
1500.000001981332
 20
2035.999990982317
 30
0.0
 11
1491.000035479041
 21
2044.999957484609
 31
0.0
  0
LINE
  5
13122
330
1F
100
AcDbEntity
  8
実線
100
AcDbLine
 10
969.0000000000308
 20
2044.999957484609
 30
0.0
 11
1500.000083079491
 21
2045.000221723174
 31
0.0
  0
LINE
  5
13123
330
1F
100
AcDbEntity
  8
実線
100
AcDbLine
 10
969.0000000000308
 20
2066.000053750868
 30
0.0
 11
1500.000076436512
 21
2066.000221723175
 31
0.0
  0
LINE
  5
13124
330
1F
100
AcDbEntity
  8
中心線
100
AcDbLine
 10
1000.000000000031
 20
2454.999994701059
 30
0.0
 11
1000.000000000031
 21
2413.999994701059
 31
0.0
  0
LINE
  5
13125
330
1F
100
AcDbEntity
  8
中心線
100
AcDbLine
 10
1000.000000000031
 20
2034.999994707535
 30
0.0
 11
1000.000000000031
 21
2075.999994707534
 31
0.0
  0
LINE
  5
13126
330
1F
100
AcDbEntity
  8
中心線
100
AcDbLine
 10
940.0000044978824
 20
2344.999957379252
 30
0.0
 11
976.000024310988
 21
2344.999957379252
 31
0.0
  0
LINE
  5
13127
330
1F
100
AcDbEntity
  8
中心線
100
AcDbLine
 10
940.0000044978824
 20
2144.999957379253
 30
0.0
 11
976.000024310988
 21
2144.999957379253
 31
0.0
  0
LINE
  5
13128
330
1F
100
AcDbEntity
  8
中心線
100
AcDbLine
 10
940.0000044978824
 20
2169.999957379252
 30
0.0
 11
976.000024310988
 21
2169.999957379252
 31
0.0
  0
LINE
  5
13129
330
1F
100
AcDbEntity
  8
中心線
100
AcDbLine
 10
940.0000044978824
 20
2320.000032029327
 30
0.0
 11
976.000024310988
 21
2320.000032029327
 31
0.0
  0
LINE
  5
1312A
330
1F
100
AcDbEntity
  8
中心線
100
AcDbLine
 10
1050.000000000031
 20
2454.999994701059
 30
0.0
 11
1050.000000000031
 21
2413.999994701059
 31
0.0
  0
LINE
  5
1312B
330
1F
100
AcDbEntity
  8
中心線
100
AcDbLine
 10
1050.000000000031
 20
2034.999994707535
 30
0.0
 11
1050.000000000031
 21
2075.999994707534
 31
0.0
  0
LINE
  5
1312C
330
1F
100
AcDbEntity
  8
中心線
100
AcDbLine
 10
1100.000000000031
 20
2454.999994701059
 30
0.0
 11
1100.000000000031
 21
2413.999994701059
 31
0.0
  0
LINE
  5
1312D
330
1F
100
AcDbEntity
  8
中心線
100
AcDbLine
 10
1100.000000000031
 20
2034.999994707535
 30
0.0
 11
1100.000000000031
 21
2075.999994707534
 31
0.0
  0
LINE
  5
1312E
330
1F
100
AcDbEntity
  8
中心線
100
AcDbLine
 10
1150.000000000031
 20
2454.999994701059
 30
0.0
 11
1150.000000000031
 21
2413.999994701059
 31
0.0
  0
LINE
  5
1312F
330
1F
100
AcDbEntity
  8
中心線
100
AcDbLine
 10
1150.000000000031
 20
2034.999994707535
 30
0.0
 11
1150.000000000031
 21
2075.999994707534
 31
0.0
  0
LINE
  5
13130
330
1F
100
AcDbEntity
  8
中心線
100
AcDbLine
 10
1200.000000000031
 20
2454.999994701059
 30
0.0
 11
1200.000000000031
 21
2413.999994701059
 31
0.0
  0
LINE
  5
13131
330
1F
100
AcDbEntity
  8
中心線
100
AcDbLine
 10
1200.000000000031
 20
2034.999994707535
 30
0.0
 11
1200.000000000031
 21
2075.999994707534
 31
0.0
  0
LINE
  5
13132
330
1F
100
AcDbEntity
  8
中心線
100
AcDbLine
 10
1250.000000000031
 20
2454.999994701059
 30
0.0
 11
1250.000000000031
 21
2413.999994701059
 31
0.0
  0
LINE
  5
13133
330
1F
100
AcDbEntity
  8
中心線
100
AcDbLine
 10
1250.000000000031
 20
2034.999994707535
 30
0.0
 11
1250.000000000031
 21
2075.999994707534
 31
0.0
  0
LINE
  5
13134
330
1F
100
AcDbEntity
  8
中心線
100
AcDbLine
 10
1300.000000000031
 20
2454.999994701059
 30
0.0
 11
1300.000000000031
 21
2413.999994701059
 31
0.0
  0
LINE
  5
13135
330
1F
100
AcDbEntity
  8
中心線
100
AcDbLine
 10
1300.000000000031
 20
2034.999994707535
 30
0.0
 11
1300.000000000031
 21
2075.999994707534
 31
0.0
  0
LINE
  5
13136
330
1F
100
AcDbEntity
  8
実線
100
AcDbLine
 10
950.0000000000017
 20
1844.999952560706
 30
0.0
 11
1500.000019813133
 21
1844.999952560706
 31
0.0
  0
LINE
  5
13137
330
1F
100
AcDbEntity
  8
実線
100
AcDbLine
 10
969.0000000000019
 20
1844.999952560706
 30
0.0
 11
969.0000000000019
 21
1444.999952560706
 31
0.0
  0
LINE
  5
13138
330
1F
100
AcDbEntity
  8
実線
100
AcDbLine
 10
950.0000000000017
 20
1844.999952560706
 30
0.0
 11
950.0000000000017
 21
1444.999952560706
 31
0.0
  0
LINE
  5
13139
330
1F
100
AcDbEntity
  8
破線
100
AcDbLine
 10
969.0000000000019
 20
1651.499952560706
 30
0.0
 11
1500.000019813133
 21
1651.499952560706
 31
0.0
  0
LINE
  5
1313A
330
1F
100
AcDbEntity
  8
破線
100
AcDbLine
 10
979.0000000000018
 20
1651.499952560706
 30
0.0
 11
969.0000000000019
 21
1661.499952560706
 31
0.0
  0
LINE
  5
1313B
330
1F
100
AcDbEntity
  8
仮想線
100
AcDbLine
 10
976.0000000000017
 20
1651.499952560706
 30
0.0
 11
969.0000000000019
 21
1658.499952560706
 31
0.0
  0
LINE
  5
1313C
330
1F
100
AcDbEntity
  8
破線
100
AcDbLine
 10
979.0000000000018
 20
1638.499952560706
 30
0.0
 11
969.0000000000019
 21
1628.499952560706
 31
0.0
  0
LINE
  5
1313D
330
1F
100
AcDbEntity
  8
仮想線
100
AcDbLine
 10
976.0000000000017
 20
1638.499952560706
 30
0.0
 11
969.0000000000019
 21
1631.499952560706
 31
0.0
  0
LINE
  5
1313E
330
1F
100
AcDbEntity
  8
実線
100
AcDbLine
 10
1500.000000000001
 20
1854.999989780372
 30
0.0
 11
1500.000000000001
 21
1434.999989780372
 31
0.0
  0
LINE
  5
1313F
330
1F
100
AcDbEntity
  8
破線
100
AcDbLine
 10
1380.000019813133
 20
1824.499952560706
 30
0.0
 11
1500.000000000001
 21
1824.499952560706
 31
0.0
  0
LINE
  5
13140
330
1F
100
AcDbEntity
  8
破線
100
AcDbLine
 10
1380.000019813133
 20
1805.499952560706
 30
0.0
 11
1500.000000000001
 21
1805.499952560706
 31
0.0
  0
LINE
  5
13141
330
1F
100
AcDbEntity
  8
破線
100
AcDbLine
 10
1380.000019813133
 20
1824.499952560706
 30
0.0
 11
1380.000019813133
 21
1805.499952560706
 31
0.0
  0
LINE
  5
13142
330
1F
100
AcDbEntity
  8
破線
100
AcDbLine
 10
1380.000019813133
 20
1465.499952560706
 30
0.0
 11
1500.000000000001
 21
1465.499952560706
 31
0.0
  0
LINE
  5
13143
330
1F
100
AcDbEntity
  8
破線
100
AcDbLine
 10
1380.000019813133
 20
1484.499952560706
 30
0.0
 11
1500.000000000001
 21
1484.499952560706
 31
0.0
  0
LINE
  5
13144
330
1F
100
AcDbEntity
  8
破線
100
AcDbLine
 10
1380.000019813133
 20
1465.499952560706
 30
0.0
 11
1380.000019813133
 21
1484.499952560706
 31
0.0
  0
LINE
  5
13145
330
1F
100
AcDbEntity
  8
破線
100
AcDbLine
 10
969.0000000000019
 20
1841.499952560706
 30
0.0
 11
999.0000198131328
 21
1841.499952560706
 31
0.0
  0
LINE
  5
13146
330
1F
100
AcDbEntity
  8
破線
100
AcDbLine
 10
1169.000000000002
 20
1681.499989780372
 30
0.0
 11
1169.000000000002
 21
1651.499952560706
 31
0.0
  0
LINE
  5
13147
330
1F
100
AcDbEntity
  8
破線
100
AcDbLine
 10
999.0000198131328
 20
1841.499952560706
 30
0.0
 11
1169.000000000002
 21
1681.499989780372
 31
0.0
  0
LINE
  5
13148
330
1F
100
AcDbEntity
  8
破線
100
AcDbLine
 10
1169.000000000002
 20
1608.499915341039
 30
0.0
 11
1169.000000000002
 21
1638.499952560706
 31
0.0
  0
LINE
  5
13149
330
1F
100
AcDbEntity
  8
破線
100
AcDbLine
 10
999.0000198131328
 20
1448.499952560706
 30
0.0
 11
1169.000000000002
 21
1608.499915341039
 31
0.0
  0
LINE
  5
1314A
330
1F
100
AcDbEntity
  8
破線
100
AcDbLine
 10
969.0000000000019
 20
1448.499952560706
 30
0.0
 11
999.0000198131328
 21
1448.499952560706
 31
0.0
  0
LINE
  5
1314B
330
1F
100
AcDbEntity
  8
実線
100
AcDbLine
 10
950.0000000000017
 20
1444.999952560706
 30
0.0
 11
1500.000019813133
 21
1444.999952771446
 31
0.0
  0
LINE
  5
1314C
330
1F
100
AcDbEntity
  8
破線
100
AcDbLine
 10
969.0000000000019
 20
1638.499952771446
 30
0.0
 11
1500.000019813133
 21
1638.499952771446
 31
0.0
  0
LEADER
  5
1314D
330
1F
100
AcDbEntity
  8
寸法線
100
AcDbLeader
  3
STANDARD
 76
     3
 10
1056.123092980646
 20
1780.897573308205
 30
0.0
 10
1131.471927565886
 20
1914.999998902689
 30
0.0
 10
1399.132104500706
 20
1914.999998902689
 30
0.0
211
-1.0
221
0.0
231
0.0
1001
ACAD
1000
DSTYLE
1002
{
1070
   147
1040
0.875
1070
    77
1070
     0
1002
}
  0
TEXT
  5
1314E
330
1F
100
AcDbEntity
  8
寸法線
100
AcDbText
 10
1140.221927565881
 20
1923.749998902689
 30
0.0
 40
25.0
  1
ｶﾊﾞｰﾌﾟﾚｰﾄ連結用孔
 72
     2
 11
1388.555260899215
 21
1948.749998902689
 31
0.0
100
AcDbText
 73
     3
  0
LINE
  5
1314F
330
1F
100
AcDbEntity
  8
中心線
100
AcDbLine
 10
1000.000000000001
 20
1754.99995256072
 30
0.0
 11
1000.000000000001
 21
1684.999989780394
 31
0.0
  0
LINE
  5
13150
330
1F
100
AcDbEntity
  8
中心線
100
AcDbLine
 10
965.0000186098386
 20
1719.999971170561
 30
0.0
 11
1034.999981390165
 21
1719.999971170561
 31
0.0
  0
CIRCLE
  5
13151
330
1F
100
AcDbEntity
  8
実線
100
AcDbCircle
 10
1000.000000000001
 20
1719.999971170561
 30
0.0
 40
12.5
  0
LINE
  5
13152
330
1F
100
AcDbEntity
  8
中心線
100
AcDbLine
 10
1000.000000000001
 20
1535.000052560718
 30
0.0
 11
1000.000000000001
 21
1605.000015341044
 31
0.0
  0
LINE
  5
13153
330
1F
100
AcDbEntity
  8
中心線
100
AcDbLine
 10
965.0000186098386
 20
1570.000033950885
 30
0.0
 11
1034.999981390165
 21
1570.000033950885
 31
0.0
  0
CIRCLE
  5
13154
330
1F
100
AcDbEntity
  8
実線
100
AcDbCircle
 10
1000.000000000001
 20
1570.000033950885
 30
0.0
 40
12.5
  0
LINE
  5
13155
330
1F
100
AcDbEntity
  8
中心線
100
AcDbLine
 10
1100.000000000002
 20
1754.99995256072
 30
0.0
 11
1100.000000000002
 21
1684.999989780394
 31
0.0
  0
LINE
  5
13156
330
1F
100
AcDbEntity
  8
中心線
100
AcDbLine
 10
1065.000018609838
 20
1719.999971170561
 30
0.0
 11
1134.999981390165
 21
1719.999971170561
 31
0.0
  0
CIRCLE
  5
13157
330
1F
100
AcDbEntity
  8
実線
100
AcDbCircle
 10
1100.000000000002
 20
1719.999971170561
 30
0.0
 40
12.5
  0
LINE
  5
13158
330
1F
100
AcDbEntity
  8
中心線
100
AcDbLine
 10
1100.000000000002
 20
1535.000052560718
 30
0.0
 11
1100.000000000002
 21
1605.000015341044
 31
0.0
  0
LINE
  5
13159
330
1F
100
AcDbEntity
  8
中心線
100
AcDbLine
 10
1065.000018609838
 20
1570.000033950885
 30
0.0
 11
1134.999981390165
 21
1570.000033950885
 31
0.0
  0
CIRCLE
  5
1315A
330
1F
100
AcDbEntity
  8
実線
100
AcDbCircle
 10
1100.000000000002
 20
1570.000033950885
 30
0.0
 40
12.5
  0
LINE
  5
1315B
330
1F
100
AcDbEntity
  8
中心線
100
AcDbLine
 10
1200.000000000002
 20
1754.99995256072
 30
0.0
 11
1200.000000000002
 21
1684.999989780394
 31
0.0
  0
LINE
  5
1315C
330
1F
100
AcDbEntity
  8
中心線
100
AcDbLine
 10
1165.000018609839
 20
1719.999971170561
 30
0.0
 11
1234.999981390165
 21
1719.999971170561
 31
0.0
  0
CIRCLE
  5
1315D
330
1F
100
AcDbEntity
  8
実線
100
AcDbCircle
 10
1200.000000000002
 20
1719.999971170561
 30
0.0
 40
12.5
  0
LINE
  5
1315E
330
1F
100
AcDbEntity
  8
中心線
100
AcDbLine
 10
1200.000000000002
 20
1535.000052560718
 30
0.0
 11
1200.000000000002
 21
1605.000015341044
 31
0.0
  0
LINE
  5
1315F
330
1F
100
AcDbEntity
  8
中心線
100
AcDbLine
 10
1165.000018609839
 20
1570.000033950885
 30
0.0
 11
1234.999981390165
 21
1570.000033950885
 31
0.0
  0
CIRCLE
  5
13160
330
1F
100
AcDbEntity
  8
実線
100
AcDbCircle
 10
1200.000000000002
 20
1570.000033950885
 30
0.0
 40
12.5
  0
LINE
  5
13161
330
1F
100
AcDbEntity
  8
中心線
100
AcDbLine
 10
1050.000000000002
 20
1804.99995256072
 30
0.0
 11
1050.000000000002
 21
1734.999989780394
 31
0.0
  0
LINE
  5
13162
330
1F
100
AcDbEntity
  8
中心線
100
AcDbLine
 10
1015.000018609838
 20
1769.999971170561
 30
0.0
 11
1084.999981390165
 21
1769.999971170561
 31
0.0
  0
CIRCLE
  5
13163
330
1F
100
AcDbEntity
  8
実線
100
AcDbCircle
 10
1050.000000000002
 20
1769.999971170561
 30
0.0
 40
12.5
  0
LINE
  5
13164
330
1F
100
AcDbEntity
  8
中心線
100
AcDbLine
 10
1150.000000000002
 20
1804.99995256072
 30
0.0
 11
1150.000000000002
 21
1734.999989780394
 31
0.0
  0
LINE
  5
13165
330
1F
100
AcDbEntity
  8
中心線
100
AcDbLine
 10
1115.000018609838
 20
1769.999971170561
 30
0.0
 11
1184.999981390165
 21
1769.999971170561
 31
0.0
  0
CIRCLE
  5
13166
330
1F
100
AcDbEntity
  8
実線
100
AcDbCircle
 10
1150.000000000002
 20
1769.999971170561
 30
0.0
 40
12.5
  0
LINE
  5
13167
330
1F
100
AcDbEntity
  8
中心線
100
AcDbLine
 10
1050.000000000002
 20
1485.000052560718
 30
0.0
 11
1050.000000000002
 21
1555.000015341044
 31
0.0
  0
LINE
  5
13168
330
1F
100
AcDbEntity
  8
中心線
100
AcDbLine
 10
1015.000018609838
 20
1520.000033950885
 30
0.0
 11
1084.999981390165
 21
1520.000033950885
 31
0.0
  0
CIRCLE
  5
13169
330
1F
100
AcDbEntity
  8
実線
100
AcDbCircle
 10
1050.000000000002
 20
1520.000033950885
 30
0.0
 40
12.5
  0
LINE
  5
1316A
330
1F
100
AcDbEntity
  8
中心線
100
AcDbLine
 10
1150.000000000002
 20
1485.000052560718
 30
0.0
 11
1150.000000000002
 21
1555.000015341044
 31
0.0
  0
LINE
  5
1316B
330
1F
100
AcDbEntity
  8
中心線
100
AcDbLine
 10
1115.000018609838
 20
1520.000033950885
 30
0.0
 11
1184.999981390165
 21
1520.000033950885
 31
0.0
  0
CIRCLE
  5
1316C
330
1F
100
AcDbEntity
  8
実線
100
AcDbCircle
 10
1150.000000000002
 20
1520.000033950885
 30
0.0
 40
12.5
  0
LINE
  5
1316D
330
1F
100
AcDbEntity
  8
中心線
100
AcDbLine
 10
1300.000000000002
 20
1754.99995256072
 30
0.0
 11
1300.000000000002
 21
1684.999989780394
 31
0.0
  0
LINE
  5
1316E
330
1F
100
AcDbEntity
  8
中心線
100
AcDbLine
 10
1265.000018609838
 20
1719.999971170561
 30
0.0
 11
1334.999981390165
 21
1719.999971170561
 31
0.0
  0
CIRCLE
  5
1316F
330
1F
100
AcDbEntity
  8
実線
100
AcDbCircle
 10
1300.000000000002
 20
1719.999971170561
 30
0.0
 40
12.5
  0
LINE
  5
13170
330
1F
100
AcDbEntity
  8
中心線
100
AcDbLine
 10
1300.000000000002
 20
1535.000052560718
 30
0.0
 11
1300.000000000002
 21
1605.000015341044
 31
0.0
  0
LINE
  5
13171
330
1F
100
AcDbEntity
  8
中心線
100
AcDbLine
 10
1265.000018609838
 20
1570.000033950885
 30
0.0
 11
1334.999981390165
 21
1570.000033950885
 31
0.0
  0
CIRCLE
  5
13172
330
1F
100
AcDbEntity
  8
実線
100
AcDbCircle
 10
1300.000000000002
 20
1570.000033950885
 30
0.0
 40
12.5
  0
LINE
  5
13173
330
1F
100
AcDbEntity
  8
中心線
100
AcDbLine
 10
1250.000000000001
 20
1804.99995256072
 30
0.0
 11
1250.000000000001
 21
1734.999989780394
 31
0.0
  0
LINE
  5
13174
330
1F
100
AcDbEntity
  8
中心線
100
AcDbLine
 10
1215.000018609839
 20
1769.999971170561
 30
0.0
 11
1284.999981390165
 21
1769.999971170561
 31
0.0
  0
CIRCLE
  5
13175
330
1F
100
AcDbEntity
  8
実線
100
AcDbCircle
 10
1250.000000000001
 20
1769.999971170561
 30
0.0
 40
12.5
  0
LINE
  5
13176
330
1F
100
AcDbEntity
  8
中心線
100
AcDbLine
 10
1250.000000000001
 20
1485.000052560718
 30
0.0
 11
1250.000000000001
 21
1555.000015341044
 31
0.0
  0
LINE
  5
13177
330
1F
100
AcDbEntity
  8
中心線
100
AcDbLine
 10
1215.000018609839
 20
1520.000033950885
 30
0.0
 11
1284.999981390165
 21
1520.000033950885
 31
0.0
  0
CIRCLE
  5
13178
330
1F
100
AcDbEntity
  8
実線
100
AcDbCircle
 10
1250.000000000001
 20
1520.000033950885
 30
0.0
 40
12.5
  0
LINE
  5
13179
330
1F
100
AcDbEntity
  8
中心線
100
AcDbLine
 10
940.0000044978568
 20
1744.939052239192
 30
0.0
 11
976.0000243109661
 21
1744.939052239192
 31
0.0
  0
LINE
  5
1317A
330
1F
100
AcDbEntity
  8
中心線
100
AcDbLine
 10
940.0000044978568
 20
1544.939052239192
 30
0.0
 11
976.0000243109661
 21
1544.939052239192
 31
0.0
  0
LINE
  5
1317B
330
1F
100
AcDbEntity
  8
中心線
100
AcDbLine
 10
940.0000044978568
 20
1594.939052239192
 30
0.0
 11
976.0000243109661
 21
1594.939052239192
 31
0.0
  0
LINE
  5
1317C
330
1F
100
AcDbEntity
  8
中心線
100
AcDbLine
 10
940.0000044978568
 20
1694.939126889273
 30
0.0
 11
976.0000243109661
 21
1694.939126889273
 31
0.0
  0
LINE
  5
1317D
330
1F
100
AcDbEntity
  8
実線
100
AcDbLine
 10
2650.000000000002
 20
1844.999952560706
 30
0.0
 11
2099.999980186871
 21
1844.999952560706
 31
0.0
  0
LINE
  5
1317E
330
1F
100
AcDbEntity
  8
実線
100
AcDbLine
 10
2631.000000000002
 20
1844.999952560706
 30
0.0
 11
2630.999999999998
 21
1444.999952560706
 31
0.0
  0
LINE
  5
1317F
330
1F
100
AcDbEntity
  8
実線
100
AcDbLine
 10
2650.000000000002
 20
1844.999952560706
 30
0.0
 11
2649.999999999999
 21
1444.999952560706
 31
0.0
  0
LINE
  5
13180
330
1F
100
AcDbEntity
  8
破線
100
AcDbLine
 10
2631.000000000002
 20
1651.499952560706
 30
0.0
 11
2099.999980186871
 21
1651.499952560706
 31
0.0
  0
LINE
  5
13181
330
1F
100
AcDbEntity
  8
破線
100
AcDbLine
 10
2621.000000000002
 20
1651.499952560706
 30
0.0
 11
2631.000000000002
 21
1661.499952560706
 31
0.0
  0
LINE
  5
13182
330
1F
100
AcDbEntity
  8
仮想線
100
AcDbLine
 10
2624.000000000002
 20
1651.499952560706
 30
0.0
 11
2631.000000000002
 21
1658.499952560706
 31
0.0
  0
LINE
  5
13183
330
1F
100
AcDbEntity
  8
破線
100
AcDbLine
 10
2621.000000000002
 20
1638.499952560706
 30
0.0
 11
2631.000000000002
 21
1628.499952560706
 31
0.0
  0
LINE
  5
13184
330
1F
100
AcDbEntity
  8
仮想線
100
AcDbLine
 10
2624.000000000002
 20
1638.499952560706
 30
0.0
 11
2631.000000000002
 21
1631.499952560706
 31
0.0
  0
LINE
  5
13185
330
1F
100
AcDbEntity
  8
実線
100
AcDbLine
 10
2100.000000000002
 20
1854.999989780372
 30
0.0
 11
2099.999999999998
 21
1434.999989780372
 31
0.0
  0
LINE
  5
13186
330
1F
100
AcDbEntity
  8
破線
100
AcDbLine
 10
2219.999980186871
 20
1824.499952560706
 30
0.0
 11
2100.000000000002
 21
1824.499952560706
 31
0.0
  0
LINE
  5
13187
330
1F
100
AcDbEntity
  8
破線
100
AcDbLine
 10
2219.999980186871
 20
1805.499952560706
 30
0.0
 11
2100.000000000002
 21
1805.499952560706
 31
0.0
  0
LINE
  5
13188
330
1F
100
AcDbEntity
  8
破線
100
AcDbLine
 10
2219.999980186871
 20
1824.499952560706
 30
0.0
 11
2219.999980186871
 21
1805.499952560706
 31
0.0
  0
LINE
  5
13189
330
1F
100
AcDbEntity
  8
破線
100
AcDbLine
 10
2219.999980186867
 20
1465.499952560706
 30
0.0
 11
2099.999999999998
 21
1465.499952560706
 31
0.0
  0
LINE
  5
1318A
330
1F
100
AcDbEntity
  8
破線
100
AcDbLine
 10
2219.999980186867
 20
1484.499952560706
 30
0.0
 11
2099.999999999998
 21
1484.499952560706
 31
0.0
  0
LINE
  5
1318B
330
1F
100
AcDbEntity
  8
破線
100
AcDbLine
 10
2219.999980186867
 20
1465.499952560706
 30
0.0
 11
2219.999980186867
 21
1484.499952560706
 31
0.0
  0
LINE
  5
1318C
330
1F
100
AcDbEntity
  8
破線
100
AcDbLine
 10
2631.000000000002
 20
1841.499952560706
 30
0.0
 11
2600.999980186871
 21
1841.499952560706
 31
0.0
  0
LINE
  5
1318D
330
1F
100
AcDbEntity
  8
破線
100
AcDbLine
 10
2431.000000000002
 20
1681.499989780372
 30
0.0
 11
2431.000000000002
 21
1651.499952560706
 31
0.0
  0
LINE
  5
1318E
330
1F
100
AcDbEntity
  8
破線
100
AcDbLine
 10
2600.999980186871
 20
1841.499952560706
 30
0.0
 11
2431.000000000002
 21
1681.499989780372
 31
0.0
  0
LINE
  5
1318F
330
1F
100
AcDbEntity
  8
破線
100
AcDbLine
 10
2431.000000000002
 20
1608.499915341039
 30
0.0
 11
2431.000000000002
 21
1638.499952560706
 31
0.0
  0
LINE
  5
13190
330
1F
100
AcDbEntity
  8
破線
100
AcDbLine
 10
2600.999980186867
 20
1448.499952560706
 30
0.0
 11
2431.000000000002
 21
1608.499915341039
 31
0.0
  0
LINE
  5
13191
330
1F
100
AcDbEntity
  8
破線
100
AcDbLine
 10
2630.999999999998
 20
1448.499952560706
 30
0.0
 11
2600.999980186867
 21
1448.499952560706
 31
0.0
  0
LINE
  5
13192
330
1F
100
AcDbEntity
  8
実線
100
AcDbLine
 10
2649.999999999999
 20
1444.999952560706
 30
0.0
 11
2099.999980186867
 21
1444.999952771446
 31
0.0
  0
LINE
  5
13193
330
1F
100
AcDbEntity
  8
破線
100
AcDbLine
 10
2631.000000000002
 20
1638.499952771446
 30
0.0
 11
2099.999980186871
 21
1638.499952771446
 31
0.0
  0
LINE
  5
13194
330
1F
100
AcDbEntity
  8
中心線
100
AcDbLine
 10
2600.000000000002
 20
1754.99995256072
 30
0.0
 11
2600.000000000002
 21
1684.999989780394
 31
0.0
  0
LINE
  5
13195
330
1F
100
AcDbEntity
  8
中心線
100
AcDbLine
 10
2634.999981390163
 20
1719.999971170561
 30
0.0
 11
2565.000018609839
 21
1719.999971170561
 31
0.0
  0
CIRCLE
  5
13196
330
1F
100
AcDbEntity
  8
実線
100
AcDbCircle
 10
2600.000000000002
 20
1719.999971170561
 30
0.0
 40
12.5
  0
LINE
  5
13197
330
1F
100
AcDbEntity
  8
中心線
100
AcDbLine
 10
2600.000000000002
 20
1535.000052560718
 30
0.0
 11
2600.000000000002
 21
1605.000015341044
 31
0.0
  0
LINE
  5
13198
330
1F
100
AcDbEntity
  8
中心線
100
AcDbLine
 10
2634.999981390163
 20
1570.000033950885
 30
0.0
 11
2565.000018609839
 21
1570.000033950885
 31
0.0
  0
CIRCLE
  5
13199
330
1F
100
AcDbEntity
  8
実線
100
AcDbCircle
 10
2600.000000000002
 20
1570.000033950885
 30
0.0
 40
12.5
  0
LINE
  5
1319A
330
1F
100
AcDbEntity
  8
中心線
100
AcDbLine
 10
2500.000000000002
 20
1754.99995256072
 30
0.0
 11
2500.000000000002
 21
1684.999989780394
 31
0.0
  0
LINE
  5
1319B
330
1F
100
AcDbEntity
  8
中心線
100
AcDbLine
 10
2534.999981390165
 20
1719.999971170561
 30
0.0
 11
2465.000018609839
 21
1719.999971170561
 31
0.0
  0
CIRCLE
  5
1319C
330
1F
100
AcDbEntity
  8
実線
100
AcDbCircle
 10
2500.000000000002
 20
1719.999971170561
 30
0.0
 40
12.5
  0
LINE
  5
1319D
330
1F
100
AcDbEntity
  8
中心線
100
AcDbLine
 10
2500.000000000002
 20
1535.000052560718
 30
0.0
 11
2500.000000000002
 21
1605.000015341044
 31
0.0
  0
LINE
  5
1319E
330
1F
100
AcDbEntity
  8
中心線
100
AcDbLine
 10
2534.999981390165
 20
1570.000033950885
 30
0.0
 11
2465.000018609839
 21
1570.000033950885
 31
0.0
  0
CIRCLE
  5
1319F
330
1F
100
AcDbEntity
  8
実線
100
AcDbCircle
 10
2500.000000000002
 20
1570.000033950885
 30
0.0
 40
12.5
  0
LINE
  5
131A0
330
1F
100
AcDbEntity
  8
中心線
100
AcDbLine
 10
2400.000000000002
 20
1754.99995256072
 30
0.0
 11
2400.000000000002
 21
1684.999989780394
 31
0.0
  0
LINE
  5
131A1
330
1F
100
AcDbEntity
  8
中心線
100
AcDbLine
 10
2434.999981390165
 20
1719.999971170561
 30
0.0
 11
2365.000018609839
 21
1719.999971170561
 31
0.0
  0
CIRCLE
  5
131A2
330
1F
100
AcDbEntity
  8
実線
100
AcDbCircle
 10
2400.000000000002
 20
1719.999971170561
 30
0.0
 40
12.5
  0
LINE
  5
131A3
330
1F
100
AcDbEntity
  8
中心線
100
AcDbLine
 10
2400.000000000002
 20
1535.000052560718
 30
0.0
 11
2400.000000000002
 21
1605.000015341044
 31
0.0
  0
LINE
  5
131A4
330
1F
100
AcDbEntity
  8
中心線
100
AcDbLine
 10
2434.999981390165
 20
1570.000033950885
 30
0.0
 11
2365.000018609839
 21
1570.000033950885
 31
0.0
  0
CIRCLE
  5
131A5
330
1F
100
AcDbEntity
  8
実線
100
AcDbCircle
 10
2400.000000000002
 20
1570.000033950885
 30
0.0
 40
12.5
  0
LINE
  5
131A6
330
1F
100
AcDbEntity
  8
中心線
100
AcDbLine
 10
2550.000000000002
 20
1804.99995256072
 30
0.0
 11
2550.000000000002
 21
1734.999989780394
 31
0.0
  0
LINE
  5
131A7
330
1F
100
AcDbEntity
  8
中心線
100
AcDbLine
 10
2584.999981390165
 20
1769.999971170561
 30
0.0
 11
2515.000018609839
 21
1769.999971170561
 31
0.0
  0
CIRCLE
  5
131A8
330
1F
100
AcDbEntity
  8
実線
100
AcDbCircle
 10
2550.000000000002
 20
1769.999971170561
 30
0.0
 40
12.5
  0
LINE
  5
131A9
330
1F
100
AcDbEntity
  8
中心線
100
AcDbLine
 10
2450.000000000002
 20
1804.99995256072
 30
0.0
 11
2450.000000000002
 21
1734.999989780394
 31
0.0
  0
LINE
  5
131AA
330
1F
100
AcDbEntity
  8
中心線
100
AcDbLine
 10
2484.999981390165
 20
1769.999971170561
 30
0.0
 11
2415.000018609839
 21
1769.999971170561
 31
0.0
  0
CIRCLE
  5
131AB
330
1F
100
AcDbEntity
  8
実線
100
AcDbCircle
 10
2450.000000000002
 20
1769.999971170561
 30
0.0
 40
12.5
  0
LINE
  5
131AC
330
1F
100
AcDbEntity
  8
中心線
100
AcDbLine
 10
2549.999999999998
 20
1485.000052560718
 30
0.0
 11
2550.000000000002
 21
1555.000015341044
 31
0.0
  0
LINE
  5
131AD
330
1F
100
AcDbEntity
  8
中心線
100
AcDbLine
 10
2584.999981390162
 20
1520.000033950885
 30
0.0
 11
2515.000018609835
 21
1520.000033950885
 31
0.0
  0
CIRCLE
  5
131AE
330
1F
100
AcDbEntity
  8
実線
100
AcDbCircle
 10
2549.999999999998
 20
1520.000033950885
 30
0.0
 40
12.5
  0
LINE
  5
131AF
330
1F
100
AcDbEntity
  8
中心線
100
AcDbLine
 10
2449.999999999998
 20
1485.000052560718
 30
0.0
 11
2450.000000000002
 21
1555.000015341044
 31
0.0
  0
LINE
  5
131B0
330
1F
100
AcDbEntity
  8
中心線
100
AcDbLine
 10
2484.999981390162
 20
1520.000033950885
 30
0.0
 11
2415.000018609835
 21
1520.000033950885
 31
0.0
  0
CIRCLE
  5
131B1
330
1F
100
AcDbEntity
  8
実線
100
AcDbCircle
 10
2449.999999999998
 20
1520.000033950885
 30
0.0
 40
12.5
  0
LINE
  5
131B2
330
1F
100
AcDbEntity
  8
中心線
100
AcDbLine
 10
2300.000000000002
 20
1754.99995256072
 30
0.0
 11
2300.000000000002
 21
1684.999989780394
 31
0.0
  0
LINE
  5
131B3
330
1F
100
AcDbEntity
  8
中心線
100
AcDbLine
 10
2334.999981390165
 20
1719.999971170561
 30
0.0
 11
2265.000018609839
 21
1719.999971170561
 31
0.0
  0
CIRCLE
  5
131B4
330
1F
100
AcDbEntity
  8
実線
100
AcDbCircle
 10
2300.000000000002
 20
1719.999971170561
 30
0.0
 40
12.5
  0
LINE
  5
131B5
330
1F
100
AcDbEntity
  8
中心線
100
AcDbLine
 10
2300.000000000002
 20
1535.000052560718
 30
0.0
 11
2300.000000000002
 21
1605.000015341044
 31
0.0
  0
LINE
  5
131B6
330
1F
100
AcDbEntity
  8
中心線
100
AcDbLine
 10
2334.999981390165
 20
1570.000033950885
 30
0.0
 11
2265.000018609839
 21
1570.000033950885
 31
0.0
  0
CIRCLE
  5
131B7
330
1F
100
AcDbEntity
  8
実線
100
AcDbCircle
 10
2300.000000000002
 20
1570.000033950885
 30
0.0
 40
12.5
  0
LINE
  5
131B8
330
1F
100
AcDbEntity
  8
中心線
100
AcDbLine
 10
2350.000000000002
 20
1804.99995256072
 30
0.0
 11
2350.000000000002
 21
1734.999989780394
 31
0.0
  0
LINE
  5
131B9
330
1F
100
AcDbEntity
  8
中心線
100
AcDbLine
 10
2384.999981390165
 20
1769.999971170561
 30
0.0
 11
2315.000018609839
 21
1769.999971170561
 31
0.0
  0
CIRCLE
  5
131BA
330
1F
100
AcDbEntity
  8
実線
100
AcDbCircle
 10
2350.000000000002
 20
1769.999971170561
 30
0.0
 40
12.5
  0
LINE
  5
131BB
330
1F
100
AcDbEntity
  8
中心線
100
AcDbLine
 10
2349.999999999998
 20
1485.000052560718
 30
0.0
 11
2350.000000000002
 21
1555.000015341044
 31
0.0
  0
LINE
  5
131BC
330
1F
100
AcDbEntity
  8
中心線
100
AcDbLine
 10
2384.999981390162
 20
1520.000033950885
 30
0.0
 11
2315.000018609835
 21
1520.000033950885
 31
0.0
  0
CIRCLE
  5
131BD
330
1F
100
AcDbEntity
  8
実線
100
AcDbCircle
 10
2349.999999999998
 20
1520.000033950885
 30
0.0
 40
12.5
  0
LINE
  5
131BE
330
1F
100
AcDbEntity
  8
中心線
100
AcDbLine
 10
2659.999995502145
 20
1744.939052239192
 30
0.0
 11
2623.999975689037
 21
1744.939052239192
 31
0.0
  0
LINE
  5
131BF
330
1F
100
AcDbEntity
  8
中心線
100
AcDbLine
 10
2659.999995502145
 20
1544.939052239192
 30
0.0
 11
2623.999975689037
 21
1544.939052239192
 31
0.0
  0
LINE
  5
131C0
330
1F
100
AcDbEntity
  8
中心線
100
AcDbLine
 10
2659.999995502145
 20
1594.939052239192
 30
0.0
 11
2623.999975689037
 21
1594.939052239192
 31
0.0
  0
LINE
  5
131C1
330
1F
100
AcDbEntity
  8
中心線
100
AcDbLine
 10
2659.999995502145
 20
1694.939126889273
 30
0.0
 11
2623.999975689037
 21
1694.939126889273
 31
0.0
  0
DIMENSION
  5
131C2
330
1F
100
AcDbEntity
  8
寸法線
100
AcDbDimension
280
     0
  2
*D28
 10
2299.999980186869
 20
1805.499952560707
 30
0.0
 11
2299.999980186869
 21
1814.999952560706
 31
0.0
 70
   160
 71
     5
 42
19.0
 73
     0
 74
     0
 75
     0
  3
STANDARD
100
AcDbAlignedDimension
 13
2219.999980186871
 23
1824.499952560706
 33
0.0
 14
2219.999980186871
 24
1805.499952560706
 34
0.0
 50
270.0
100
AcDbRotatedDimension
1001
ACAD
1000
DSTYLE
1002
{
1070
   271
1070
     1
1002
}
  0
DIMENSION
  5
131C3
330
1F
100
AcDbEntity
  8
寸法線
100
AcDbDimension
280
     0
  2
*D29
 10
2299.999980186869
 20
1444.999952764055
 30
0.0
 11
2299.999980186869
 21
1459.999986718082
 31
0.0
 70
   160
 71
     5
 42
30.00006790805583
 73
     0
 74
     0
 75
     0
  3
STANDARD
100
AcDbAlignedDimension
 13
2228.000003766469
 23
1475.00002067211
 33
0.0
 14
2100.000000000002
 24
1444.999952764054
 34
0.0
 50
270.0
100
AcDbRotatedDimension
1001
ACAD
1000
DSTYLE
1002
{
1070
   271
1070
     1
1002
}
  0
LINE
  5
131C4
330
1F
100
AcDbEntity
  8
実線
100
AcDbLine
 10
3549.999999999971
 20
2445.000000000003
 30
0.0
 11
3549.999999999971
 21
2045.000000000002
 31
0.0
  0
LINE
  5
131C5
330
1F
100
AcDbEntity
  8
中心線
100
AcDbLine
 10
3349.999999999971
 20
2461.000000000003
 30
0.0
 11
3349.999999999971
 21
2028.999999999998
 31
0.0
  0
LINE
  5
131C6
330
1F
100
AcDbEntity
  8
中心線
100
AcDbLine
 10
3124.999999999969
 20
2245.000000000002
 30
0.0
 11
3574.999999999971
 21
2245.000000000002
 31
0.0
  0
LINE
  5
131C7
330
1F
100
AcDbEntity
  8
実線
100
AcDbLine
 10
3149.999999999971
 20
2053.999980186893
 30
0.0
 11
3549.999999999971
 21
2053.999980186893
 31
0.0
  0
LINE
  5
131C8
330
1F
100
AcDbEntity
  8
実線
100
AcDbLine
 10
3149.999999999971
 20
2435.999980186893
 30
0.0
 11
3549.999999999971
 21
2435.999980186893
 31
0.0
  0
LINE
  5
131C9
330
1F
100
AcDbEntity
  8
中心線
100
AcDbLine
 10
3299.999981390134
 20
2135.000018609839
 30
0.0
 11
3299.999981390134
 21
2204.999981390161
 31
0.0
  0
CIRCLE
  5
131CA
330
1F
100
AcDbEntity
  8
実線
100
AcDbCircle
 10
3299.999981390134
 20
2169.999999999999
 30
0.0
 40
12.5
  0
LINE
  5
131CB
330
1F
100
AcDbEntity
  8
中心線
100
AcDbLine
 10
3334.999962780297
 20
2169.999999999999
 30
0.0
 11
3264.999999999971
 21
2169.999999999999
 31
0.0
  0
LINE
  5
131CC
330
1F
100
AcDbEntity
  8
中心線
100
AcDbLine
 10
3249.999981390134
 20
2110.000018609839
 30
0.0
 11
3249.999981390134
 21
2179.999981390166
 31
0.0
  0
CIRCLE
  5
131CD
330
1F
100
AcDbEntity
  8
実線
100
AcDbCircle
 10
3249.999981390134
 20
2144.999999999999
 30
0.0
 40
12.5
  0
LINE
  5
131CE
330
1F
100
AcDbEntity
  8
中心線
100
AcDbLine
 10
3284.999962780297
 20
2144.999999999999
 30
0.0
 11
3214.999999999971
 21
2144.999999999999
 31
0.0
  0
LINE
  5
131CF
330
1F
100
AcDbEntity
  8
中心線
100
AcDbLine
 10
3299.999981390134
 20
2354.999981390164
 30
0.0
 11
3299.999981390134
 21
2285.000018609839
 31
0.0
  0
CIRCLE
  5
131D0
330
1F
100
AcDbEntity
  8
実線
100
AcDbCircle
 10
3299.999981390134
 20
2320.000000000003
 30
0.0
 40
12.5
  0
LINE
  5
131D1
330
1F
100
AcDbEntity
  8
中心線
100
AcDbLine
 10
3334.999962780297
 20
2320.000000000003
 30
0.0
 11
3264.999999999971
 21
2320.000000000003
 31
0.0
  0
LINE
  5
131D2
330
1F
100
AcDbEntity
  8
中心線
100
AcDbLine
 10
3249.999981390134
 20
2379.999981390165
 30
0.0
 11
3249.999981390134
 21
2310.000018609839
 31
0.0
  0
CIRCLE
  5
131D3
330
1F
100
AcDbEntity
  8
実線
100
AcDbCircle
 10
3249.999981390134
 20
2345.000000000002
 30
0.0
 40
12.5
  0
LINE
  5
131D4
330
1F
100
AcDbEntity
  8
中心線
100
AcDbLine
 10
3284.999962780297
 20
2345.000000000002
 30
0.0
 11
3214.999999999971
 21
2345.000000000002
 31
0.0
  0
LINE
  5
131D5
330
1F
100
AcDbEntity
  8
中心線
100
AcDbLine
 10
3400.000018609808
 20
2135.000018609839
 30
0.0
 11
3400.000018609808
 21
2204.999981390161
 31
0.0
  0
CIRCLE
  5
131D6
330
1F
100
AcDbEntity
  8
実線
100
AcDbCircle
 10
3400.000018609808
 20
2169.999999999999
 30
0.0
 40
12.5
  0
LINE
  5
131D7
330
1F
100
AcDbEntity
  8
中心線
100
AcDbLine
 10
3365.000037219644
 20
2169.999999999999
 30
0.0
 11
3434.999999999969
 21
2169.999999999999
 31
0.0
  0
LINE
  5
131D8
330
1F
100
AcDbEntity
  8
中心線
100
AcDbLine
 10
3450.000018609808
 20
2110.000018609839
 30
0.0
 11
3450.000018609808
 21
2179.999981390166
 31
0.0
  0
CIRCLE
  5
131D9
330
1F
100
AcDbEntity
  8
実線
100
AcDbCircle
 10
3450.000018609808
 20
2144.999999999999
 30
0.0
 40
12.5
  0
LINE
  5
131DA
330
1F
100
AcDbEntity
  8
中心線
100
AcDbLine
 10
3415.000037219643
 20
2144.999999999999
 30
0.0
 11
3484.999999999969
 21
2144.999999999999
 31
0.0
  0
LINE
  5
131DB
330
1F
100
AcDbEntity
  8
中心線
100
AcDbLine
 10
3400.000018609808
 20
2354.999981390164
 30
0.0
 11
3400.000018609808
 21
2285.000018609839
 31
0.0
  0
CIRCLE
  5
131DC
330
1F
100
AcDbEntity
  8
実線
100
AcDbCircle
 10
3400.000018609808
 20
2320.000000000003
 30
0.0
 40
12.5
  0
LINE
  5
131DD
330
1F
100
AcDbEntity
  8
中心線
100
AcDbLine
 10
3365.000037219644
 20
2320.000000000003
 30
0.0
 11
3434.999999999969
 21
2320.000000000003
 31
0.0
  0
LINE
  5
131DE
330
1F
100
AcDbEntity
  8
中心線
100
AcDbLine
 10
3450.000018609808
 20
2379.999981390165
 30
0.0
 11
3450.000018609808
 21
2310.000018609839
 31
0.0
  0
CIRCLE
  5
131DF
330
1F
100
AcDbEntity
  8
実線
100
AcDbCircle
 10
3450.000018609808
 20
2345.000000000002
 30
0.0
 40
12.5
  0
LINE
  5
131E0
330
1F
100
AcDbEntity
  8
中心線
100
AcDbLine
 10
3415.000037219643
 20
2345.000000000002
 30
0.0
 11
3484.999999999969
 21
2345.000000000002
 31
0.0
  0
LINE
  5
131E1
330
1F
100
AcDbEntity
  8
破線
100
AcDbLine
 10
3149.999999999971
 20
2065.999980186893
 30
0.0
 11
3321.499962780297
 21
2065.999980186893
 31
0.0
  0
LINE
  5
131E2
330
1F
100
AcDbEntity
  8
破線
100
AcDbLine
 10
3549.999999999971
 20
2065.999980186893
 30
0.0
 11
3378.500037219647
 21
2065.999980186893
 31
0.0
  0
LINE
  5
131E3
330
1F
100
AcDbEntity
  8
破線
100
AcDbLine
 10
3149.999999999971
 20
2423.999980186893
 30
0.0
 11
3321.499962780297
 21
2423.999980186893
 31
0.0
  0
LINE
  5
131E4
330
1F
100
AcDbEntity
  8
破線
100
AcDbLine
 10
3549.999999999971
 20
2423.999980186893
 30
0.0
 11
3378.500037219647
 21
2423.999980186893
 31
0.0
  0
LINE
  5
131E5
330
1F
100
AcDbEntity
  8
破線
100
AcDbLine
 10
3343.499999999969
 20
2402.000000000002
 30
0.0
 11
3343.499999999969
 21
2087.999999999999
 31
0.0
  0
LINE
  5
131E6
330
1F
100
AcDbEntity
  8
破線
100
AcDbLine
 10
3356.499999999971
 20
2402.000000000002
 30
0.0
 11
3356.499999999971
 21
2087.999999999999
 31
0.0
  0
ARC
  5
131E7
330
1F
100
AcDbEntity
  8
破線
100
AcDbCircle
 10
3321.499999999971
 20
2087.999999999999
 30
0.0
 40
22.0
100
AcDbArc
 50
269.9999030668841
 51
0.0
  0
ARC
  5
131E8
330
1F
100
AcDbEntity
  8
破線
100
AcDbCircle
 10
3378.499999999971
 20
2087.999999999999
 30
0.0
 40
22.0
100
AcDbArc
 50
180.0
 51
270.0000969331159
  0
ARC
  5
131E9
330
1F
100
AcDbEntity
  8
破線
100
AcDbCircle
 10
3321.499999999971
 20
2401.999999999999
 30
0.0
 40
22.0
100
AcDbArc
 50
0.0
 51
90.00009693311588
  0
ARC
  5
131EA
330
1F
100
AcDbEntity
  8
破線
100
AcDbCircle
 10
3378.499999999971
 20
2401.999999999999
 30
0.0
 40
22.0
100
AcDbArc
 50
89.99990306688411
 51
180.0
  0
LINE
  5
131EB
330
1F
100
AcDbEntity
  8
破線
100
AcDbLine
 10
3153.499962780297
 20
2239.000000000002
 30
0.0
 11
3343.499999999969
 21
2239.000000000002
 31
0.0
  0
LINE
  5
131EC
330
1F
100
AcDbEntity
  8
破線
100
AcDbLine
 10
3153.499962780297
 20
2251.000000000002
 30
0.0
 11
3343.499999999969
 21
2251.000000000002
 31
0.0
  0
LINE
  5
131ED
330
1F
100
AcDbEntity
  8
破線
100
AcDbLine
 10
3546.500037219643
 20
2239.000000000002
 30
0.0
 11
3356.499999999971
 21
2239.000000000002
 31
0.0
  0
LINE
  5
131EE
330
1F
100
AcDbEntity
  8
破線
100
AcDbLine
 10
3546.500037219643
 20
2251.000000000002
 30
0.0
 11
3356.499999999971
 21
2251.000000000002
 31
0.0
  0
LINE
  5
131EF
330
1F
100
AcDbEntity
  8
破線
 48
10.0
100
AcDbLine
 10
3546.500037219643
 20
2251.000000000002
 30
0.0
 11
3546.500037219643
 21
2239.000000000002
 31
0.0
  0
LINE
  5
131F0
330
1F
100
AcDbEntity
  8
実線
100
AcDbLine
 10
3149.999999999971
 20
2445.000000000003
 30
0.0
 11
3549.999999999971
 21
2445.000000000003
 31
0.0
  0
LINE
  5
131F1
330
1F
100
AcDbEntity
  8
実線
100
AcDbLine
 10
3149.999999999971
 20
2045.000000000002
 30
0.0
 11
3549.999999999971
 21
2045.000000000002
 31
0.0
  0
LINE
  5
131F2
330
1F
100
AcDbEntity
  8
実線
100
AcDbLine
 10
3149.999999999971
 20
2445.000000000003
 30
0.0
 11
3149.999999999971
 21
2045.000000000002
 31
0.0
  0
LEADER
  5
131F3
330
1F
100
AcDbEntity
  8
寸法線
100
AcDbLeader
  3
STANDARD
 76
     3
 10
3257.532916238339
 20
2354.975213911127
 30
0.0
 10
3385.929725329277
 20
2525.000000000002
 30
0.0
 10
3578.508016089541
 20
2525.000000000002
 30
0.0
211
1.0
221
0.0000000000000002
231
0.0
1001
ACAD
1000
DSTYLE
1002
{
1070
   147
1040
0.875
1070
    77
1070
     0
1002
}
  0
TEXT
  5
131F4
330
1F
100
AcDbEntity
  8
寸法線
100
AcDbText
 10
3394.679725329276
 20
2533.750000000003
 30
0.0
 40
25.0
  1
主材連結用孔
 72
     2
 11
3568.013058662609
 21
2558.750000000003
 31
0.0
100
AcDbText
 73
     3
  0
LINE
  5
131F5
330
1F
100
AcDbEntity
  8
破線
 48
10.0
100
AcDbLine
 10
3153.499962780297
 20
2251.000000000002
 30
0.0
 11
3153.499962780297
 21
2239.000000000002
 31
0.0
  0
DIMENSION
  5
131F6
330
1F
100
AcDbEntity
  8
寸法線
100
AcDbDimension
280
     0
  2
*D24
 10
3149.999999999969
 20
1924.999980186892
 30
0.0
 11
3349.999999999971
 21
1924.999980186892
 31
0.0
 70
   160
 71
     5
 42
400.0
 73
     0
 74
     0
 75
     0
  3
STANDARD
100
AcDbAlignedDimension
 13
3549.99999999997
 23
2044.999980186892
 33
0.0
 14
3149.999999999969
 24
2044.999980186892
 34
0.0
100
AcDbRotatedDimension
  0
DIMENSION
  5
131F7
330
1F
100
AcDbEntity
  8
寸法線
100
AcDbDimension
280
     0
  2
*D25
 10
3029.999999999967
 20
2045.000019813109
 30
0.0
 11
3029.999999999967
 21
2245.0
 31
0.0
 70
   160
 71
     5
 42
400.0000000000002
 73
     0
 74
     0
 75
     0
  3
STANDARD
100
AcDbAlignedDimension
 13
3149.999999999967
 23
2445.000019813109
 33
0.0
 14
3149.999999999967
 24
2045.000019813108
 34
0.0
 50
270.0
100
AcDbRotatedDimension
  0
TEXT
  5
131F8
330
1F
100
AcDbEntity
  8
寸法線
100
AcDbText
 10
2444.125310406613
 20
2137.429274515035
 30
0.0
 40
25.0
  1
ｴﾝﾄﾞﾌﾟﾚｰﾄ
 11
2444.125310406613
 21
2137.429274515035
 31
0.0
100
AcDbText
 73
     1
  0
LINE
  5
131F9
330
1F
100
AcDbEntity
  8
寸法線
100
AcDbLine
 10
2630.999990093414
 20
2131.49998032433
 30
0.0
 11
2436.83525081868
 21
2131.49998032433
 31
0.0
  0
INSERT
  5
131FA
330
1F
100
AcDbEntity
  8
寸法線
100
AcDbBlockReference
  2
_OPEN
 10
2630.999990093414
 20
2131.49998032433
 30
0.0
 41
20.0
 42
20.0
 43
20.0
  0
LINE
  5
131FB
330
1F
100
AcDbEntity
  8
実線
100
AcDbLine
 10
2649.999999999971
 20
2435.999980897959
 30
0.0
 11
2649.999999999971
 21
2053.999980897959
 31
0.0
  0
LINE
  5
131FC
330
1F
100
AcDbEntity
  8
実線
100
AcDbLine
 10
2630.999999999971
 20
2444.999943678278
 30
0.0
 11
2630.999999999971
 21
2044.999943678278
 31
0.0
  0
LINE
  5
131FD
330
1F
100
AcDbEntity
  8
実線
100
AcDbLine
 10
2630.999999999971
 20
2444.999943678278
 30
0.0
 11
2099.999980186869
 21
2444.999943678278
 31
0.0
  0
LINE
  5
131FE
330
1F
100
AcDbEntity
  8
実線
100
AcDbLine
 10
2630.999999999971
 20
2423.999943678278
 30
0.0
 11
2099.999980186869
 21
2423.999943678278
 31
0.0
  0
LINE
  5
131FF
330
1F
100
AcDbEntity
  8
実線
100
AcDbLine
 10
2219.999999999971
 20
2423.999943678278
 30
0.0
 11
2219.999999999971
 21
2393.999980897959
 31
0.0
  0
LINE
  5
13200
330
1F
100
AcDbEntity
  8
実線
100
AcDbLine
 10
2139.999980186869
 20
2353.999943678278
 30
0.0
 11
2099.999980186869
 21
2353.999943678278
 31
0.0
  0
LINE
  5
13201
330
1F
100
AcDbEntity
  8
実線
100
AcDbLine
 10
2219.999999999971
 20
2393.999980897959
 30
0.0
 11
2139.999980186869
 21
2353.999943678278
 31
0.0
  0
LINE
  5
13202
330
1F
100
AcDbEntity
  8
実線
100
AcDbLine
 10
2111.999976224252
 20
2423.999943678278
 30
0.0
 11
2099.999976224252
 21
2411.999943678278
 31
0.0
  0
LINE
  5
13203
330
1F
100
AcDbEntity
  8
仮想線
100
AcDbLine
 10
2108.999980186869
 20
2423.999943678278
 30
0.0
 11
2099.999980186869
 21
2414.999943678278
 31
0.0
  0
LINE
  5
13204
330
1F
100
AcDbEntity
  8
実線
100
AcDbLine
 10
2219.999999999971
 20
2065.999943678278
 30
0.0
 11
2219.999999999971
 21
2095.999906458612
 31
0.0
  0
LINE
  5
13205
330
1F
100
AcDbEntity
  8
実線
100
AcDbLine
 10
2139.999980186869
 20
2135.999943678278
 30
0.0
 11
2099.999980186869
 21
2135.999943678278
 31
0.0
  0
LINE
  5
13206
330
1F
100
AcDbEntity
  8
実線
100
AcDbLine
 10
2219.999999999971
 20
2095.999906458612
 30
0.0
 11
2139.999980186869
 21
2135.999943678278
 31
0.0
  0
LINE
  5
13207
330
1F
100
AcDbEntity
  8
実線
100
AcDbLine
 10
2111.999976224252
 20
2065.999943678278
 30
0.0
 11
2099.999976224252
 21
2077.999943678278
 31
0.0
  0
LINE
  5
13208
330
1F
100
AcDbEntity
  8
仮想線
100
AcDbLine
 10
2108.999980186869
 20
2065.999943678278
 30
0.0
 11
2099.999980186869
 21
2074.999943678278
 31
0.0
  0
LINE
  5
13209
330
1F
100
AcDbEntity
  8
実線
100
AcDbLine
 10
2649.999999999971
 20
2435.999980897959
 30
0.0
 11
2630.999999999971
 21
2435.999980897959
 31
0.0
  0
LINE
  5
1320A
330
1F
100
AcDbEntity
  8
実線
100
AcDbLine
 10
2649.999999999971
 20
2054.000006458602
 30
0.0
 11
2630.999999999971
 21
2054.000006458602
 31
0.0
  0
LINE
  5
1320B
330
1F
100
AcDbEntity
  8
仮想線
100
AcDbLine
 10
2630.999999999971
 20
2444.999943678278
 30
0.0
 11
2639.999962780305
 21
2435.999980897959
 31
0.0
  0
LINE
  5
1320C
330
1F
100
AcDbEntity
  8
仮想線
100
AcDbLine
 10
2630.999999999971
 20
2044.999943678278
 30
0.0
 11
2640.000062780295
 21
2054.000006458602
 31
0.0
  0
LINE
  5
1320D
330
1F
100
AcDbEntity
  8
実線
100
AcDbLine
 10
2630.999999999971
 20
2250.999943678278
 30
0.0
 11
2430.999980186869
 21
2250.999943678278
 31
0.0
  0
LINE
  5
1320E
330
1F
100
AcDbEntity
  8
実線
100
AcDbLine
 10
2630.999999999971
 20
2238.999943678278
 30
0.0
 11
2430.999980186869
 21
2238.999943678278
 31
0.0
  0
LINE
  5
1320F
330
1F
100
AcDbEntity
  8
実線
100
AcDbLine
 10
2430.999980186869
 20
2250.999943678278
 30
0.0
 11
2430.999980186869
 21
2238.999943678278
 31
0.0
  0
LINE
  5
13210
330
1F
100
AcDbEntity
  8
仮想線
100
AcDbLine
 10
2099.999998018669
 20
2453.999977175986
 30
0.0
 11
2109.000031516378
 21
2444.999943678278
 31
0.0
  0
LINE
  5
13211
330
1F
100
AcDbEntity
  8
仮想線
100
AcDbLine
 10
2099.999998018669
 20
2035.999977175986
 30
0.0
 11
2108.999964520961
 21
2044.999943678278
 31
0.0
  0
LINE
  5
13212
330
1F
100
AcDbEntity
  8
実線
100
AcDbLine
 10
2630.999999999971
 20
2044.999943678278
 30
0.0
 11
2099.999916920511
 21
2045.000207916844
 31
0.0
  0
LINE
  5
13213
330
1F
100
AcDbEntity
  8
実線
100
AcDbLine
 10
2630.999999999971
 20
2066.000039944538
 30
0.0
 11
2099.99992356349
 21
2066.000207916844
 31
0.0
  0
LINE
  5
13214
330
1F
100
AcDbEntity
  8
実線
100
AcDbLine
 10
2100.0
 20
2454.999980897945
 30
0.0
 11
2100.0
 21
2034.999980897945
 31
0.0
  0
LINE
  5
13215
330
1F
100
AcDbEntity
  8
中心線
100
AcDbLine
 10
2599.999999999971
 20
2454.999980894728
 30
0.0
 11
2599.999999999971
 21
2413.999980894729
 31
0.0
  0
LINE
  5
13216
330
1F
100
AcDbEntity
  8
中心線
100
AcDbLine
 10
2599.999999999971
 20
2034.999980901204
 30
0.0
 11
2599.999999999971
 21
2075.999980901204
 31
0.0
  0
LINE
  5
13217
330
1F
100
AcDbEntity
  8
中心線
100
AcDbLine
 10
2659.999995502119
 20
2344.999943572922
 30
0.0
 11
2623.999975689014
 21
2344.999943572922
 31
0.0
  0
LINE
  5
13218
330
1F
100
AcDbEntity
  8
中心線
100
AcDbLine
 10
2659.999995502119
 20
2144.999943572922
 30
0.0
 11
2623.999975689014
 21
2144.999943572922
 31
0.0
  0
LINE
  5
13219
330
1F
100
AcDbEntity
  8
中心線
100
AcDbLine
 10
2659.999995502119
 20
2169.999943572922
 30
0.0
 11
2623.999975689014
 21
2169.999943572922
 31
0.0
  0
LINE
  5
1321A
330
1F
100
AcDbEntity
  8
中心線
100
AcDbLine
 10
2659.999995502119
 20
2320.000018222996
 30
0.0
 11
2623.999975689014
 21
2320.000018222996
 31
0.0
  0
LINE
  5
1321B
330
1F
100
AcDbEntity
  8
中心線
100
AcDbLine
 10
2549.999999999971
 20
2454.999980894728
 30
0.0
 11
2549.999999999971
 21
2413.999980894729
 31
0.0
  0
LINE
  5
1321C
330
1F
100
AcDbEntity
  8
中心線
100
AcDbLine
 10
2549.999999999971
 20
2034.999980901204
 30
0.0
 11
2549.999999999971
 21
2075.999980901204
 31
0.0
  0
LINE
  5
1321D
330
1F
100
AcDbEntity
  8
中心線
100
AcDbLine
 10
2499.999999999971
 20
2454.999980894728
 30
0.0
 11
2499.999999999971
 21
2413.999980894729
 31
0.0
  0
LINE
  5
1321E
330
1F
100
AcDbEntity
  8
中心線
100
AcDbLine
 10
2499.999999999971
 20
2034.999980901204
 30
0.0
 11
2499.999999999971
 21
2075.999980901204
 31
0.0
  0
LINE
  5
1321F
330
1F
100
AcDbEntity
  8
中心線
100
AcDbLine
 10
2449.999999999971
 20
2454.999980894728
 30
0.0
 11
2449.999999999971
 21
2413.999980894729
 31
0.0
  0
LINE
  5
13220
330
1F
100
AcDbEntity
  8
中心線
100
AcDbLine
 10
2449.999999999971
 20
2034.999980901204
 30
0.0
 11
2449.999999999971
 21
2075.999980901204
 31
0.0
  0
LINE
  5
13221
330
1F
100
AcDbEntity
  8
中心線
100
AcDbLine
 10
2399.999999999971
 20
2454.999980894728
 30
0.0
 11
2399.999999999971
 21
2413.999980894729
 31
0.0
  0
LINE
  5
13222
330
1F
100
AcDbEntity
  8
中心線
100
AcDbLine
 10
2399.999999999971
 20
2034.999980901204
 30
0.0
 11
2399.999999999971
 21
2075.999980901204
 31
0.0
  0
LINE
  5
13223
330
1F
100
AcDbEntity
  8
中心線
100
AcDbLine
 10
2349.999999999971
 20
2454.999980894728
 30
0.0
 11
2349.999999999971
 21
2413.999980894729
 31
0.0
  0
LINE
  5
13224
330
1F
100
AcDbEntity
  8
中心線
100
AcDbLine
 10
2349.999999999971
 20
2034.999980901204
 30
0.0
 11
2349.999999999971
 21
2075.999980901204
 31
0.0
  0
LINE
  5
13225
330
1F
100
AcDbEntity
  8
中心線
100
AcDbLine
 10
2299.999999999971
 20
2454.999980894728
 30
0.0
 11
2299.999999999971
 21
2413.999980894729
 31
0.0
  0
LINE
  5
13226
330
1F
100
AcDbEntity
  8
中心線
100
AcDbLine
 10
2299.999999999971
 20
2034.999980901204
 30
0.0
 11
2299.999999999971
 21
2075.999980901204
 31
0.0
  0
DIMENSION
  5
13227
330
1F
100
AcDbEntity
  8
寸法線
100
AcDbDimension
280
     0
  2
*D26
 10
2330.99999462186
 20
2238.999977544711
 30
0.0
 11
2330.99999462186
 21
2244.99997754471
 31
0.0
 70
   160
 71
     5
 42
12.0
 73
     0
 74
     0
 75
     0
  3
STANDARD
100
AcDbAlignedDimension
 13
2430.999980186869
 23
2250.99997754471
 33
0.0
 14
2430.999980186869
 24
2238.99997754471
 34
0.0
 50
90.0
100
AcDbRotatedDimension
1001
ACAD
1000
DSTYLE
1002
{
1070
   140
1040
2.5
1002
}
  0
TEXT
  5
13228
330
1F
100
AcDbEntity
  8
寸法線
100
AcDbText
 10
2359.029106229262
 20
2328.74997754471
 30
0.0
 40
25.0
  1
ﾘﾌﾞﾌﾟﾚｰﾄ②
 72
     2
 11
2502.362439562596
 21
2328.74997754471
 31
0.0
100
AcDbText
 73
     1
  0
LEADER
  5
13229
330
1F
100
AcDbEntity
  8
寸法線
100
AcDbLeader
  3
STANDARD
 76
     3
 10
2537.253722114809
 20
2250.999943678271
 30
0.0
 10
2505.166366832157
 20
2319.99997754471
 30
0.0
 10
2353.025278840068
 20
2319.99997754471
 30
0.0
1001
ACAD
1000
DSTYLE
1002
{
1070
   147
1040
0.875
1070
    77
1070
     0
1002
}
  0
TEXT
  5
1322A
330
1F
100
AcDbEntity
  8
寸法線
100
AcDbText
 10
2194.018087443054
 20
2144.267163318519
 30
0.0
 40
25.0
  1
ﾘﾌﾞﾌﾟﾚｰﾄ①
 72
     2
 11
2337.351420776387
 21
2144.267163318519
 31
0.0
100
AcDbText
 73
     1
  0
LEADER
  5
1322B
330
1F
100
AcDbEntity
  8
寸法線
100
AcDbLeader
  3
STANDARD
 76
     3
 10
2156.294238475448
 20
2090.943853148884
 30
0.0
 10
2191.294238475448
 20
2138.443853148884
 30
0.0
 10
2344.384783010166
 20
2138.443853148884
 30
0.0
211
-1.0
221
0.0
231
0.0
1001
ACAD
1000
DSTYLE
1002
{
1070
   147
1040
0.875
1070
    77
1070
     0
1002
}
  0
DIMENSION
  5
1322C
330
1F
100
AcDbEntity
  8
寸法線
100
AcDbDimension
280
     0
  2
*D27
 10
2100.0
 20
2684.999980897945
 30
0.0
 11
2375.0
 21
2684.999980897945
 31
0.0
 70
   160
  1
<>\XH型鋼（連結部）
 71
     5
 42
550.0
 73
     0
 74
     0
 75
     0
  3
STANDARD
100
AcDbAlignedDimension
 13
2650.0
 23
2436.000018117618
 33
0.0
 14
2100.0
 24
2455.000018117619
 34
0.0
 50
180.0
100
AcDbRotatedDimension
  0
LEADER
  5
1322D
330
1F
100
AcDbEntity
  8
寸法線
100
AcDbLeader
  3
STANDARD
 76
     3
 10
2356.123092980646
 20
1780.897573308205
 30
0.0
 10
2431.471927565886
 20
1914.999998902689
 30
0.0
 10
2699.132104500706
 20
1914.999998902689
 30
0.0
211
-1.0
221
0.0
231
0.0
1001
ACAD
1000
DSTYLE
1002
{
1070
   147
1040
0.875
1070
    77
1070
     0
1002
}
  0
TEXT
  5
1322E
330
1F
100
AcDbEntity
  8
寸法線
100
AcDbText
 10
2440.221927565881
 20
1923.749998902689
 30
0.0
 40
25.0
  1
ｶﾊﾞｰﾌﾟﾚｰﾄ連結用孔
 72
     2
 11
2688.555260899215
 21
1948.749998902689
 31
0.0
100
AcDbText
 73
     3
  0
LINE
  5
1322F
330
1F
100
AcDbEntity
  8
実線
100
AcDbLine
 10
1792.000000000002
 20
2014.999970079767
 30
0.0
 11
1792.000000000002
 21
2474.999970079768
 31
0.0
  0
LINE
  5
13230
330
1F
100
AcDbEntity
  8
実線
100
AcDbLine
 10
1792.000000000002
 20
2474.999970079768
 30
0.0
 11
1808.000000000002
 21
2474.999970079768
 31
0.0
  0
LINE
  5
13231
330
1F
100
AcDbEntity
  8
実線
100
AcDbLine
 10
1808.000000000002
 20
2014.999970079767
 30
0.0
 11
1808.000000000002
 21
2474.999970079768
 31
0.0
  0
LINE
  5
13232
330
1F
100
AcDbEntity
  8
実線
100
AcDbLine
 10
1792.000000000002
 20
2014.999970079767
 30
0.0
 11
1808.000000000002
 21
2014.999970079767
 31
0.0
  0
LINE
  5
13233
330
1F
100
AcDbEntity
  8
破線
100
AcDbLine
 10
1792.000000000002
 20
2384.999970079767
 30
0.0
 11
1808.000000000002
 21
2384.999970079767
 31
0.0
  0
LINE
  5
13234
330
1F
100
AcDbEntity
  8
破線
100
AcDbLine
 10
1792.000000000002
 20
2104.999970079767
 30
0.0
 11
1808.000000000002
 21
2104.999970079767
 31
0.0
  0
LINE
  5
13235
330
1F
100
AcDbEntity
  8
破線
100
AcDbLine
 10
1792.000000000002
 20
2044.999970079767
 30
0.0
 11
1808.000000000002
 21
2044.999970079767
 31
0.0
  0
LINE
  5
13236
330
1F
100
AcDbEntity
  8
実線
100
AcDbLine
 10
1792.000000000002
 20
1414.999978962195
 30
0.0
 11
1792.000000000002
 21
1874.999978962195
 31
0.0
  0
LINE
  5
13237
330
1F
100
AcDbEntity
  8
実線
100
AcDbLine
 10
1792.000000000002
 20
1874.999978962195
 30
0.0
 11
1808.000000000002
 21
1874.999978962195
 31
0.0
  0
LINE
  5
13238
330
1F
100
AcDbEntity
  8
実線
100
AcDbLine
 10
1808.000000000002
 20
1414.999978962195
 30
0.0
 11
1808.000000000002
 21
1874.999978962195
 31
0.0
  0
LINE
  5
13239
330
1F
100
AcDbEntity
  8
実線
100
AcDbLine
 10
1792.000000000002
 20
1414.999978962195
 30
0.0
 11
1808.000000000002
 21
1414.999978962195
 31
0.0
  0
LINE
  5
1323A
330
1F
100
AcDbEntity
  8
破線
100
AcDbLine
 10
1792.000000000002
 20
1784.999978962195
 30
0.0
 11
1808.000000000002
 21
1784.999978962195
 31
0.0
  0
LINE
  5
1323B
330
1F
100
AcDbEntity
  8
破線
100
AcDbLine
 10
1792.000000000002
 20
1504.999978962195
 30
0.0
 11
1808.000000000002
 21
1504.999978962195
 31
0.0
  0
LINE
  5
1323C
330
1F
100
AcDbEntity
  8
破線
100
AcDbLine
 10
1792.000000000002
 20
1444.999978962195
 30
0.0
 11
1808.000000000002
 21
1444.999978962195
 31
0.0
  0
LINE
  5
1323D
330
1F
100
AcDbEntity
  8
破線
100
AcDbLine
 10
1792.000000000002
 20
2444.999970079767
 30
0.0
 11
1808.000000000002
 21
2444.999970079767
 31
0.0
  0
LINE
  5
1323E
330
1F
100
AcDbEntity
  8
実線
100
AcDbLine
 10
1792.000000000002
 20
1784.999989780373
 30
0.0
 11
1547.999896414976
 21
1784.999989780373
 31
0.0
  0
LINE
  5
1323F
330
1F
100
AcDbEntity
  8
実線
100
AcDbLine
 10
1792.000000000002
 20
1844.999989780373
 30
0.0
 11
1515.999896414976
 21
1844.999989780373
 31
0.0
  0
LINE
  5
13240
330
1F
100
AcDbEntity
  8
実線
100
AcDbLine
 10
1792.000000000002
 20
1504.999989780373
 30
0.0
 11
1547.999896414976
 21
1504.999989780373
 31
0.0
  0
LINE
  5
13241
330
1F
100
AcDbEntity
  8
実線
100
AcDbLine
 10
1792.000000000002
 20
1444.999989780373
 30
0.0
 11
1515.999896414976
 21
1444.999989780373
 31
0.0
  0
LINE
  5
13242
330
1F
100
AcDbEntity
  8
実線
100
AcDbLine
 10
1792.000000000002
 20
2384.999971775629
 30
0.0
 11
1547.999896414976
 21
2384.999971775629
 31
0.0
  0
LINE
  5
13243
330
1F
100
AcDbEntity
  8
実線
100
AcDbLine
 10
1792.000000000002
 20
2444.999971775628
 30
0.0
 11
1515.999896414976
 21
2444.999971775629
 31
0.0
  0
LINE
  5
13244
330
1F
100
AcDbEntity
  8
実線
100
AcDbLine
 10
1792.000000000002
 20
2104.999971775629
 30
0.0
 11
1547.999896414976
 21
2104.999971775629
 31
0.0
  0
LINE
  5
13245
330
1F
100
AcDbEntity
  8
実線
100
AcDbLine
 10
1792.000000000002
 20
2044.999971775629
 30
0.0
 11
1515.999896414976
 21
2044.999971775629
 31
0.0
  0
LINE
  5
13246
330
1F
100
AcDbEntity
  8
破線
100
AcDbLine
 10
1792.000000000002
 20
1844.999978962195
 30
0.0
 11
1808.000000000002
 21
1844.999978962195
 31
0.0
  0
TEXT
  5
13247
330
1F
100
AcDbEntity
  8
寸法線
100
AcDbText
 10
3152.960992024409
 20
1743.395834101175
 30
0.0
 40
25.0
  1
※　H型鋼（連結部）の長さは、切梁メーカー仕様または施工条件
 11
3152.960992024409
 21
1743.395834101175
 31
0.0
100
AcDbText
 73
     1
  0
TEXT
  5
13248
330
1F
100
AcDbEntity
  8
寸法線
100
AcDbText
 10
3152.960992024409
 20
1793.395834101175
 30
0.0
 40
25.0
  1
※　H型鋼（連結部）の穴開け位置は、切梁メーカー仕様による。
 11
3152.960992024409
 21
1793.395834101175
 31
0.0
100
AcDbText
 73
     1
  0
TEXT
  5
13249
330
1F
100
AcDbEntity
  8
寸法線
100
AcDbText
 10
3152.960992024409
 20
1693.395834101175
 30
0.0
 40
25.0
  1
　　により変更する場合がある。
 11
3152.960992024409
 21
1693.395834101175
 31
0.0
100
AcDbText
 73
     1
  0
TEXT
  5
1324A
330
1F
100
AcDbEntity
  8
寸法線
100
AcDbText
 10
3152.960992024409
 20
1643.395834101175
 30
0.0
 40
25.0
  1
※　空洞金具部は鉄筋防錆剤塗装仕上げ。
 11
3152.960992024409
 21
1643.395834101175
 31
0.0
100
AcDbText
 73
     1
  0
TEXT
  5
1324B
330
1F
100
AcDbEntity
  8
寸法線
100
AcDbText
 10
3152.960992024409
 20
1593.395834101175
 30
0.0
 40
25.0
  1
※　H型鋼（連結部）は赤さび塗装仕上げ。
 11
3152.960992024409
 21
1593.395834101175
 31
0.0
100
AcDbText
 73
     1
  0
LINE
  5
1324C
330
1F
100
AcDbEntity
  8
実線
100
AcDbLine
 10
1499.999896414979
 20
589.9997327968858
 30
0.0
 11
1499.999896414979
 21
1009.999714552276
 31
0.0
  0
LINE
  5
1324D
330
1F
100
AcDbEntity
  8
実線
100
AcDbLine
 10
1499.999896414979
 20
1009.999714552276
 30
0.0
 11
1515.999896414979
 21
1009.999714552276
 31
0.0
  0
LINE
  5
1324E
330
1F
100
AcDbEntity
  8
実線
100
AcDbLine
 10
1547.999896414979
 20
656.9997327968858
 30
0.0
 11
1547.999896414979
 21
942.9997327968859
 31
0.0
  0
LINE
  5
1324F
330
1F
100
AcDbEntity
  8
中心線
100
AcDbLine
 10
1474.999896414979
 20
799.9997145522784
 30
0.0
 11
2124.999896414975
 21
799.9997145522765
 31
0.0
  0
LINE
  5
13250
330
1F
100
AcDbEntity
  8
中心線
100
AcDbLine
 10
1489.999999999993
 20
969.9997145522766
 30
0.0
 11
2109.999999999994
 21
969.9997145522766
 31
0.0
  0
LINE
  5
13251
330
1F
100
AcDbEntity
  8
破線
100
AcDbLine
 10
1515.999896414979
 20
983.9997145522765
 30
0.0
 11
1547.999896414979
 21
983.9997145522765
 31
0.0
  0
LINE
  5
13252
330
1F
100
AcDbEntity
  8
破線
100
AcDbLine
 10
1547.999896414979
 20
983.9997327968857
 30
0.0
 11
1547.999896414979
 21
999.9997145522765
 31
0.0
  0
LINE
  5
13253
330
1F
100
AcDbEntity
  8
破線
100
AcDbLine
 10
1524.999896414979
 20
939.9997145522766
 30
0.0
 11
1547.999896414979
 21
939.9997145522766
 31
0.0
  0
LINE
  5
13254
330
1F
100
AcDbEntity
  8
実線
100
AcDbLine
 10
1527.999896414979
 20
942.9997145522765
 30
0.0
 11
1547.999896414979
 21
942.9997145522765
 31
0.0
  0
LINE
  5
13255
330
1F
100
AcDbEntity
  8
実線
100
AcDbLine
 10
1515.999896414979
 20
930.9997145522766
 30
0.0
 11
1527.999896414979
 21
942.9997145522765
 31
0.0
  0
LINE
  5
13256
330
1F
100
AcDbEntity
  8
実線
100
AcDbLine
 10
1515.999896414979
 20
939.9997145522766
 30
0.0
 11
1524.999896414979
 21
939.9997145522766
 31
0.0
  0
LINE
  5
13257
330
1F
100
AcDbEntity
  8
破線
100
AcDbLine
 10
2051.999896414979
 20
983.9997327968857
 30
0.0
 11
2051.999896414979
 21
999.9997145522765
 31
0.0
  0
LINE
  5
13258
330
1F
100
AcDbEntity
  8
破線
100
AcDbLine
 10
2083.999896414979
 20
983.9997145522765
 30
0.0
 11
2051.999896414979
 21
983.9997145522765
 31
0.0
  0
LINE
  5
13259
330
1F
100
AcDbEntity
  8
破線
100
AcDbLine
 10
1515.999896414979
 20
807.9997145522765
 30
0.0
 11
1547.999896414979
 21
807.9997145522765
 31
0.0
  0
LINE
  5
1325A
330
1F
100
AcDbEntity
  8
破線
100
AcDbLine
 10
1515.999896414979
 20
791.9997145522765
 30
0.0
 11
1547.999896414979
 21
791.9997145522765
 31
0.0
  0
LINE
  5
1325B
330
1F
100
AcDbEntity
  8
破線
100
AcDbLine
 10
2051.999896414979
 20
807.9997145522765
 30
0.0
 11
2083.999896414979
 21
807.9997145522765
 31
0.0
  0
LINE
  5
1325C
330
1F
100
AcDbEntity
  8
破線
100
AcDbLine
 10
2051.999896414979
 20
791.9997145522765
 30
0.0
 11
2083.999896414979
 21
791.9997145522765
 31
0.0
  0
DIMENSION
  5
1325D
330
1F
100
AcDbEntity
  8
寸法線
100
AcDbDimension
280
     0
  2
*D11
 10
2083.999896414979
 20
499.9999581025108
 30
0.0
 11
2067.999948207486
 21
499.9999581025108
 31
0.0
 70
   160
 71
     5
 42
31.99989641498542
 73
     0
 74
     0
 75
     0
  3
STANDARD
100
AcDbAlignedDimension
 13
2051.999999999994
 23
599.9997145522765
 33
0.0
 14
2083.999896414979
 24
589.9997145522766
 34
0.0
100
AcDbRotatedDimension
  0
DIMENSION
  5
1325E
330
1F
100
AcDbEntity
  8
寸法線
100
AcDbDimension
280
     0
  2
*D12
 10
2099.999896414979
 20
439.9999581025108
 30
0.0
 11
2091.999896414979
 21
439.9999581025108
 31
0.0
 70
   160
 71
     5
 42
16.0
 73
     0
 74
     0
 75
     0
  3
STANDARD
100
AcDbAlignedDimension
 13
2083.999896414979
 23
589.9997145522766
 33
0.0
 14
2099.999896414979
 24
589.9997145522766
 34
0.0
100
AcDbRotatedDimension
  0
DIMENSION
  5
1325F
330
1F
100
AcDbEntity
  8
寸法線
100
AcDbDimension
280
     0
  2
*D13
 10
2023.999896414979
 20
999.9997145522771
 30
0.0
 11
2023.999896414979
 21
886.23987203257
 31
0.0
 70
   160
  1
%%C<>
 71
     5
 42
60.0
 73
     0
 74
     0
 75
     0
  3
STANDARD
100
AcDbAlignedDimension
 13
2023.999896414979
 23
939.9997145522766
 33
0.0
 14
2023.999896414979
 24
999.9997145522765
 34
0.0
 50
90.0
100
AcDbRotatedDimension
  0
LINE
  5
13260
330
1F
100
AcDbEntity
  8
仮想線
100
AcDbLine
 10
1571.462948669149
 20
539.9997327968858
 30
0.0
 11
1571.462948669149
 21
1059.999732796886
 31
0.0
  0
TEXT
  5
13261
330
1F
100
AcDbEntity
  8
寸法線
100
AcDbText
 10
1621.118171036196
 20
1038.799714552276
 30
0.0
 40
21.0
  1
Ａ
 72
     4
 11
1630.918171036196
 21
1049.999714552276
 31
0.0
100
AcDbText
  0
TEXT
  5
13262
330
1F
100
AcDbEntity
  8
寸法線
100
AcDbText
 10
1621.118171036196
 20
538.7997145522765
 30
0.0
 40
21.0
  1
Ａ
 72
     4
 11
1630.918171036196
 21
549.9997145522765
 31
0.0
100
AcDbText
  0
LINE
  5
13263
330
1F
100
AcDbEntity
  8
実線
100
AcDbLine
 10
2083.999896414979
 20
1009.999714552276
 30
0.0
 11
2099.999896414979
 21
1009.999714552276
 31
0.0
  0
LINE
  5
13264
330
1F
100
AcDbEntity
  8
実線
100
AcDbLine
 10
1515.999896414979
 20
589.9997327968858
 30
0.0
 11
1515.999896414979
 21
1009.999714552276
 31
0.0
  0
LINE
  5
13265
330
1F
100
AcDbEntity
  8
実線
100
AcDbLine
 10
2083.999896414979
 20
589.9997327968858
 30
0.0
 11
2083.999896414979
 21
1009.999714552276
 31
0.0
  0
LINE
  5
13266
330
1F
100
AcDbEntity
  8
実線
100
AcDbLine
 10
2099.999896414979
 20
589.9997327968858
 30
0.0
 11
2099.999896414979
 21
1009.999714552276
 31
0.0
  0
LINE
  5
13267
330
1F
100
AcDbEntity
  8
実線
100
AcDbLine
 10
1499.999896414979
 20
589.9997145522766
 30
0.0
 11
1515.999896414979
 21
589.9997145522766
 31
0.0
  0
LINE
  5
13268
330
1F
100
AcDbEntity
  8
中心線
100
AcDbLine
 10
1489.999999999993
 20
629.9997145522766
 30
0.0
 11
2109.999999999994
 21
629.9997145522766
 31
0.0
  0
LINE
  5
13269
330
1F
100
AcDbEntity
  8
破線
100
AcDbLine
 10
1515.999896414979
 20
615.9997145522766
 30
0.0
 11
1547.999896414979
 21
615.9997145522766
 31
0.0
  0
LINE
  5
1326A
330
1F
100
AcDbEntity
  8
破線
100
AcDbLine
 10
1547.999896414979
 20
615.9996963076382
 30
0.0
 11
1547.999896414979
 21
599.9997145522765
 31
0.0
  0
LINE
  5
1326B
330
1F
100
AcDbEntity
  8
破線
100
AcDbLine
 10
1524.999896414979
 20
659.9997145522766
 30
0.0
 11
1547.999896414979
 21
659.9997145522766
 31
0.0
  0
LINE
  5
1326C
330
1F
100
AcDbEntity
  8
実線
100
AcDbLine
 10
1527.999896414979
 20
656.9997145522766
 30
0.0
 11
1547.999896414979
 21
656.9997145522766
 31
0.0
  0
LINE
  5
1326D
330
1F
100
AcDbEntity
  8
実線
100
AcDbLine
 10
1515.999896414979
 20
668.9997145522766
 30
0.0
 11
1527.999896414979
 21
656.9997145522766
 31
0.0
  0
LINE
  5
1326E
330
1F
100
AcDbEntity
  8
実線
100
AcDbLine
 10
1515.999896414979
 20
659.9997145522766
 30
0.0
 11
1524.999896414979
 21
659.9997145522766
 31
0.0
  0
LINE
  5
1326F
330
1F
100
AcDbEntity
  8
破線
100
AcDbLine
 10
2051.999896414979
 20
615.9996963076382
 30
0.0
 11
2051.999896414979
 21
599.9997145522765
 31
0.0
  0
LINE
  5
13270
330
1F
100
AcDbEntity
  8
破線
100
AcDbLine
 10
2083.999896414979
 20
615.9997145522766
 30
0.0
 11
2051.999896414979
 21
615.9997145522766
 31
0.0
  0
LINE
  5
13271
330
1F
100
AcDbEntity
  8
実線
100
AcDbLine
 10
2083.999896414979
 20
589.9997145522766
 30
0.0
 11
2099.999896414979
 21
589.9997145522766
 31
0.0
  0
LINE
  5
13272
330
1F
100
AcDbEntity
  8
実線
100
AcDbLine
 10
2051.999999999994
 20
656.9997327968858
 30
0.0
 11
2051.999999999994
 21
942.9997327968859
 31
0.0
  0
LINE
  5
13273
330
1F
100
AcDbEntity
  8
破線
100
AcDbLine
 10
2074.999999999993
 20
939.9997145522766
 30
0.0
 11
2051.999999999994
 21
939.9997145522766
 31
0.0
  0
LINE
  5
13274
330
1F
100
AcDbEntity
  8
実線
100
AcDbLine
 10
2071.999999999994
 20
942.9997145522765
 30
0.0
 11
2051.999999999994
 21
942.9997145522765
 31
0.0
  0
LINE
  5
13275
330
1F
100
AcDbEntity
  8
実線
100
AcDbLine
 10
2083.999999999994
 20
930.9997145522766
 30
0.0
 11
2071.999999999994
 21
942.9997145522765
 31
0.0
  0
LINE
  5
13276
330
1F
100
AcDbEntity
  8
実線
100
AcDbLine
 10
2083.999999999994
 20
939.9997145522766
 30
0.0
 11
2074.999999999993
 21
939.9997145522766
 31
0.0
  0
LINE
  5
13277
330
1F
100
AcDbEntity
  8
破線
100
AcDbLine
 10
2074.999999999993
 20
659.9997145522766
 30
0.0
 11
2051.999999999994
 21
659.9997145522766
 31
0.0
  0
LINE
  5
13278
330
1F
100
AcDbEntity
  8
実線
100
AcDbLine
 10
2071.999999999994
 20
656.9997145522766
 30
0.0
 11
2051.999999999994
 21
656.9997145522766
 31
0.0
  0
LINE
  5
13279
330
1F
100
AcDbEntity
  8
実線
100
AcDbLine
 10
2083.999999999994
 20
668.9997145522766
 30
0.0
 11
2071.999999999994
 21
656.9997145522766
 31
0.0
  0
LINE
  5
1327A
330
1F
100
AcDbEntity
  8
実線
100
AcDbLine
 10
2083.999999999994
 20
659.9997145522766
 30
0.0
 11
2074.999999999993
 21
659.9997145522766
 31
0.0
  0
LINE
  5
1327B
330
1F
100
AcDbEntity
  8
実線
100
AcDbLine
 10
1791.999948207486
 20
569.9997145522766
 30
0.0
 11
1791.999948207486
 21
1029.999714552277
 31
0.0
  0
LINE
  5
1327C
330
1F
100
AcDbEntity
  8
実線
100
AcDbLine
 10
1791.999948207486
 20
1029.999714552277
 30
0.0
 11
1807.999948207486
 21
1029.999714552277
 31
0.0
  0
LINE
  5
1327D
330
1F
100
AcDbEntity
  8
実線
100
AcDbLine
 10
1807.999948207486
 20
569.9997145522766
 30
0.0
 11
1807.999948207486
 21
1029.999714552277
 31
0.0
  0
LINE
  5
1327E
330
1F
100
AcDbEntity
  8
実線
100
AcDbLine
 10
1791.999948207486
 20
569.9997145522766
 30
0.0
 11
1807.999948207486
 21
569.9997145522766
 31
0.0
  0
LINE
  5
1327F
330
1F
100
AcDbEntity
  8
破線
100
AcDbLine
 10
1791.999948207486
 20
999.9997145522765
 30
0.0
 11
1807.999948207486
 21
999.9997145522765
 31
0.0
  0
LINE
  5
13280
330
1F
100
AcDbEntity
  8
破線
100
AcDbLine
 10
1791.999948207486
 20
939.9997145522766
 30
0.0
 11
1807.999948207486
 21
939.9997145522766
 31
0.0
  0
LINE
  5
13281
330
1F
100
AcDbEntity
  8
破線
100
AcDbLine
 10
1791.999948207486
 20
659.9997145522766
 30
0.0
 11
1807.999948207486
 21
659.9997145522766
 31
0.0
  0
LINE
  5
13282
330
1F
100
AcDbEntity
  8
破線
100
AcDbLine
 10
1791.999948207486
 20
599.9997145522765
 30
0.0
 11
1807.999948207486
 21
599.9997145522765
 31
0.0
  0
LINE
  5
13283
330
1F
100
AcDbEntity
  8
仮想線
100
AcDbLine
 10
1863.463000461685
 20
539.9997327968858
 30
0.0
 11
1863.463000461685
 21
1059.999732796886
 31
0.0
  0
TEXT
  5
13284
330
1F
100
AcDbEntity
  8
寸法線
100
AcDbText
 10
1912.418222828703
 20
1038.799714552276
 30
0.0
 40
21.0
  1
Ｂ
 72
     4
 11
1922.918222828704
 21
1049.999714552276
 31
0.0
100
AcDbText
  0
TEXT
  5
13285
330
1F
100
AcDbEntity
  8
寸法線
100
AcDbText
 10
1912.418222828703
 20
538.7997145522765
 30
0.0
 40
21.0
  1
Ｂ
 72
     4
 11
1922.918222828704
 21
549.9997145522765
 31
0.0
100
AcDbText
  0
LINE
  5
13286
330
1F
100
AcDbEntity
  8
実線
100
AcDbLine
 10
1807.999948207486
 20
939.9997145522748
 30
0.0
 11
2051.999999999994
 21
939.9997145522766
 31
0.0
  0
LINE
  5
13287
330
1F
100
AcDbEntity
  8
実線
100
AcDbLine
 10
1807.999948207486
 20
999.9997145522765
 30
0.0
 11
2083.999999999994
 21
999.9997145522765
 31
0.0
  0
LINE
  5
13288
330
1F
100
AcDbEntity
  8
実線
100
AcDbLine
 10
1807.999948207486
 20
659.9997145522766
 30
0.0
 11
2051.999999999994
 21
659.9997145522766
 31
0.0
  0
LINE
  5
13289
330
1F
100
AcDbEntity
  8
実線
100
AcDbLine
 10
1807.999948207486
 20
599.9997145522765
 30
0.0
 11
2083.999999999994
 21
599.9997145522765
 31
0.0
  0
LINE
  5
1328A
330
1F
100
AcDbEntity
  8
実線
100
AcDbLine
 10
1791.999948207486
 20
939.9997145522748
 30
0.0
 11
1547.999896414979
 21
939.9997145522766
 31
0.0
  0
LINE
  5
1328B
330
1F
100
AcDbEntity
  8
実線
100
AcDbLine
 10
1791.999948207486
 20
999.9997145522765
 30
0.0
 11
1515.999896414979
 21
999.9997145522765
 31
0.0
  0
LINE
  5
1328C
330
1F
100
AcDbEntity
  8
実線
100
AcDbLine
 10
1791.999948207486
 20
659.9997145522766
 30
0.0
 11
1547.999896414979
 21
659.9997145522766
 31
0.0
  0
LINE
  5
1328D
330
1F
100
AcDbEntity
  8
実線
100
AcDbLine
 10
1791.999948207486
 20
599.9997145522765
 30
0.0
 11
1515.999896414979
 21
599.9997145522765
 31
0.0
  0
LEADER
  5
1328E
330
1F
100
AcDbEntity
  8
寸法線
100
AcDbLeader
  3
STANDARD
 76
     2
 10
1571.462948669149
 20
1049.999714552276
 30
0.0
 10
1618.859683854994
 20
1049.999714552276
 30
0.0
1001
ACAD
1000
DSTYLE
1002
{
1070
   147
1040
0.875
1070
    77
1070
     0
1070
    49
1040
0.5
1002
}
  0
LEADER
  5
1328F
330
1F
100
AcDbEntity
  8
寸法線
100
AcDbLeader
  3
STANDARD
 76
     2
 10
1571.462948669149
 20
549.9997145522765
 30
0.0
 10
1618.859683854994
 20
549.9997145522765
 30
0.0
1001
ACAD
1000
DSTYLE
1002
{
1070
   147
1040
0.875
1070
    77
1070
     0
1070
    49
1040
0.5
1002
}
  0
LEADER
  5
13290
330
1F
100
AcDbEntity
  8
寸法線
100
AcDbLeader
  3
STANDARD
 76
     2
 10
1863.463000461685
 20
1049.999714552276
 30
0.0
 10
1910.859735647501
 20
1049.999714552276
 30
0.0
1001
ACAD
1000
DSTYLE
1002
{
1070
   147
1040
0.875
1070
    77
1070
     0
1070
    49
1040
0.5
1002
}
  0
LEADER
  5
13291
330
1F
100
AcDbEntity
  8
寸法線
100
AcDbLeader
  3
STANDARD
 76
     2
 10
1863.463000461685
 20
549.9997145522765
 30
0.0
 10
1910.859735647501
 20
549.9997145522765
 30
0.0
1001
ACAD
1000
DSTYLE
1002
{
1070
   147
1040
0.875
1070
    77
1070
     0
1070
    49
1040
0.5
1002
}
  0
DIMENSION
  5
13292
330
1F
100
AcDbEntity
  8
寸法線
100
AcDbDimension
280
     0
  2
*D14
 10
1547.999896414979
 20
499.9999581025108
 30
0.0
 11
1531.999896414979
 21
499.9999581025108
 31
0.0
 70
   160
 71
     5
 42
32.0
 73
     0
 74
     0
 75
     0
  3
STANDARD
100
AcDbAlignedDimension
 13
1515.999896414979
 23
589.9997282357481
 33
0.0
 14
1547.999896414979
 24
599.999728235748
 34
0.0
100
AcDbRotatedDimension
  0
DIMENSION
  5
13293
330
1F
100
AcDbEntity
  8
寸法線
100
AcDbDimension
280
     0
  2
*D15
 10
2051.999896414979
 20
499.9999581025108
 30
0.0
 11
1799.999896414979
 21
521.2499581025108
 31
0.0
 70
    32
 71
     5
 42
504.0
 73
     0
 74
     0
 75
     0
  3
STANDARD
100
AcDbAlignedDimension
 13
1547.999896414979
 23
599.999728235748
 33
0.0
 14
2051.999896414979
 24
599.9997145522765
 34
0.0
100
AcDbRotatedDimension
  0
DIMENSION
  5
13294
330
1F
100
AcDbEntity
  8
寸法線
100
AcDbDimension
280
     0
  2
*D16
 10
1515.999896414979
 20
439.9999581025108
 30
0.0
 11
1507.999896414979
 21
439.9999581025108
 31
0.0
 70
   160
 71
     5
 42
16.0
 73
     0
 74
     0
 75
     0
  3
STANDARD
100
AcDbAlignedDimension
 13
1499.999896414979
 23
589.9997282357481
 33
0.0
 14
1515.999896414979
 24
589.9997282357481
 34
0.0
100
AcDbRotatedDimension
  0
DIMENSION
  5
13295
330
1F
100
AcDbEntity
  8
寸法線
100
AcDbDimension
280
     0
  2
*D17
 10
2083.999896414979
 20
439.9999581025108
 30
0.0
 11
1799.999896414979
 21
461.2499581025108
 31
0.0
 70
    32
 71
     5
 42
568.0
 73
     0
 74
     0
 75
     0
  3
STANDARD
100
AcDbAlignedDimension
 13
1515.999896414979
 23
589.9997282357481
 33
0.0
 14
2083.999896414979
 24
589.9997327968858
 34
0.0
100
AcDbRotatedDimension
  0
DIMENSION
  5
13296
330
1F
100
AcDbEntity
  8
寸法線
100
AcDbDimension
280
     0
  2
*D18
 10
2099.999896414979
 20
379.9999581025109
 30
0.0
 11
1799.999896414979
 21
401.2499581025108
 31
0.0
 70
    32
 71
     5
 42
600.0
 73
     0
 74
     0
 75
     0
  3
STANDARD
100
AcDbAlignedDimension
 13
1499.999896414979
 23
589.9997464803573
 33
0.0
 14
2099.999896414979
 24
589.9997327968858
 34
0.0
100
AcDbRotatedDimension
  0
LINE
  5
13297
330
1F
100
AcDbEntity
  8
破線
100
AcDbLine
 10
916.4998964149789
 20
807.999714552262
 30
0.0
 11
1283.499896414979
 21
807.999714552262
 31
0.0
  0
LINE
  5
13298
330
1F
100
AcDbEntity
  8
中心線
100
AcDbLine
 10
864.999920199386
 20
799.9997145522621
 30
0.0
 11
1334.999920199386
 21
799.9997145522621
 31
0.0
  0
LINE
  5
13299
330
1F
100
AcDbEntity
  8
実線
100
AcDbLine
 10
889.9998964149791
 20
1009.9997327969
 30
0.0
 11
1309.999896414979
 21
1009.9997327969
 31
0.0
  0
LINE
  5
1329A
330
1F
100
AcDbEntity
  8
実線
100
AcDbLine
 10
889.9998964149791
 20
589.9997327969003
 30
0.0
 11
889.9998964149791
 21
1009.9997327969
 31
0.0
  0
LINE
  5
1329B
330
1F
100
AcDbEntity
  8
破線
100
AcDbLine
 10
916.4998964149789
 20
791.9997145522621
 30
0.0
 11
916.4998964149789
 21
807.999714552262
 31
0.0
  0
CIRCLE
  5
1329C
330
1F
100
AcDbEntity
  8
破線
100
AcDbCircle
 10
929.9997890223394
 20
969.9997145522621
 30
0.0
 40
30.0
  0
LINE
  5
1329D
330
1F
100
AcDbEntity
  8
破線
100
AcDbLine
 10
899.9997890223394
 20
942.9997327969003
 30
0.0
 11
915.9997890223394
 21
942.9997327969003
 31
0.0
  0
LINE
  5
1329E
330
1F
100
AcDbEntity
  8
破線
100
AcDbLine
 10
1091.999896414979
 20
983.4997145522621
 30
0.0
 11
1091.999896414979
 21
807.9997327969003
 31
0.0
  0
LINE
  5
1329F
330
1F
100
AcDbEntity
  8
破線
100
AcDbLine
 10
1107.999896414979
 20
983.4997145522621
 30
0.0
 11
1107.999896414979
 21
807.9997327969003
 31
0.0
  0
LINE
  5
132A0
330
1F
100
AcDbEntity
  8
破線
100
AcDbLine
 10
1283.499896414979
 20
807.999714552262
 30
0.0
 11
1283.499896414979
 21
791.9997145522621
 31
0.0
  0
LINE
  5
132A1
330
1F
100
AcDbEntity
  8
破線
100
AcDbLine
 10
1091.999896414979
 20
983.4997145522621
 30
0.0
 11
1107.999896414979
 21
983.4997145522621
 31
0.0
  0
DIMENSION
  5
132A2
330
1F
100
AcDbEntity
  8
寸法線
100
AcDbDimension
280
     0
  2
*D19
 10
1309.999896414979
 20
499.9999581025108
 30
0.0
 11
1099.999896414979
 21
499.9999581025108
 31
0.0
 70
   160
 71
     5
 42
420.0
 73
     0
 74
     0
 75
     0
  3
STANDARD
100
AcDbAlignedDimension
 13
889.9998964149791
 23
589.9996963076237
 33
0.0
 14
1309.999896414979
 24
589.9997327969003
 34
0.0
100
AcDbRotatedDimension
  0
LINE
  5
132A3
330
1F
100
AcDbEntity
  8
実線
100
AcDbLine
 10
1309.999896414979
 20
589.9997327969003
 30
0.0
 11
1309.999896414979
 21
1009.9997327969
 31
0.0
  0
CIRCLE
  5
132A4
330
1F
100
AcDbEntity
  8
破線
100
AcDbCircle
 10
1269.999789022339
 20
969.9997145522621
 30
0.0
 40
30.0
  0
LINE
  5
132A5
330
1F
100
AcDbEntity
  8
中心線
100
AcDbLine
 10
1214.999920199386
 20
969.9997145522621
 30
0.0
 11
1324.999920199386
 21
969.9997145522621
 31
0.0
  0
LINE
  5
132A6
330
1F
100
AcDbEntity
  8
破線
100
AcDbLine
 10
899.9997890223394
 20
656.9997327969003
 30
0.0
 11
899.9997890223394
 21
942.9997327969003
 31
0.0
  0
LINE
  5
132A7
330
1F
100
AcDbEntity
  8
破線
100
AcDbLine
 10
956.9998964149791
 20
615.999714552262
 30
0.0
 11
1242.999896414979
 21
615.999714552262
 31
0.0
  0
LINE
  5
132A8
330
1F
100
AcDbEntity
  8
破線
100
AcDbLine
 10
916.4998964149789
 20
791.9997145522621
 30
0.0
 11
1283.499896414979
 21
791.9997145522621
 31
0.0
  0
LINE
  5
132A9
330
1F
100
AcDbEntity
  8
実線
100
AcDbLine
 10
889.9998964149791
 20
589.9996963076237
 30
0.0
 11
1309.999896414979
 21
589.9996963076237
 31
0.0
  0
CIRCLE
  5
132AA
330
1F
100
AcDbEntity
  8
破線
100
AcDbCircle
 10
929.9997890223394
 20
629.999714552262
 30
0.0
 40
30.0
  0
LINE
  5
132AB
330
1F
100
AcDbEntity
  8
破線
100
AcDbLine
 10
899.9997890223394
 20
656.9997327969003
 30
0.0
 11
915.9997890223394
 21
656.9997327969003
 31
0.0
  0
LINE
  5
132AC
330
1F
100
AcDbEntity
  8
破線
100
AcDbLine
 10
956.9998964149791
 20
599.999714552262
 30
0.0
 11
956.9998964149791
 21
615.999714552262
 31
0.0
  0
LINE
  5
132AD
330
1F
100
AcDbEntity
  8
破線
100
AcDbLine
 10
1091.999896414979
 20
616.499714552262
 30
0.0
 11
1091.999896414979
 21
791.9996963076237
 31
0.0
  0
LINE
  5
132AE
330
1F
100
AcDbEntity
  8
破線
100
AcDbLine
 10
1107.999896414979
 20
616.499714552262
 30
0.0
 11
1107.999896414979
 21
791.9996963076237
 31
0.0
  0
LINE
  5
132AF
330
1F
100
AcDbEntity
  8
破線
100
AcDbLine
 10
1091.999896414979
 20
616.499714552262
 30
0.0
 11
1107.999896414979
 21
616.499714552262
 31
0.0
  0
LINE
  5
132B0
330
1F
100
AcDbEntity
  8
破線
100
AcDbLine
 10
1242.999896414979
 20
599.999714552262
 30
0.0
 11
1242.999896414979
 21
615.999714552262
 31
0.0
  0
CIRCLE
  5
132B1
330
1F
100
AcDbEntity
  8
破線
100
AcDbCircle
 10
1269.999789022339
 20
629.999714552262
 30
0.0
 40
30.0
  0
LINE
  5
132B2
330
1F
100
AcDbEntity
  8
破線
100
AcDbLine
 10
956.9998964149791
 20
599.999714552262
 30
0.0
 11
1242.999896414979
 21
599.999714552262
 31
0.0
  0
LINE
  5
132B3
330
1F
100
AcDbEntity
  8
破線
100
AcDbLine
 10
956.9998964149791
 20
999.999714552262
 30
0.0
 11
1242.999896414979
 21
999.999714552262
 31
0.0
  0
LINE
  5
132B4
330
1F
100
AcDbEntity
  8
破線
100
AcDbLine
 10
956.9998964149791
 20
983.999714552262
 30
0.0
 11
956.9998964149791
 21
999.999714552262
 31
0.0
  0
LINE
  5
132B5
330
1F
100
AcDbEntity
  8
破線
100
AcDbLine
 10
1242.999896414979
 20
983.999714552262
 30
0.0
 11
1242.999896414979
 21
999.999714552262
 31
0.0
  0
LINE
  5
132B6
330
1F
100
AcDbEntity
  8
破線
100
AcDbLine
 10
956.9998964149791
 20
983.999714552262
 30
0.0
 11
1242.999896414979
 21
983.999714552262
 31
0.0
  0
LINE
  5
132B7
330
1F
100
AcDbEntity
  8
破線
100
AcDbLine
 10
915.9997890223394
 20
656.9997327969003
 30
0.0
 11
915.9997890223394
 21
942.9997327969003
 31
0.0
  0
LINE
  5
132B8
330
1F
100
AcDbEntity
  8
破線
100
AcDbLine
 10
1283.999789022339
 20
942.9997327969003
 30
0.0
 11
1299.999789022339
 21
942.9997327969003
 31
0.0
  0
LINE
  5
132B9
330
1F
100
AcDbEntity
  8
破線
100
AcDbLine
 10
1283.999789022339
 20
656.9997327969003
 30
0.0
 11
1283.999789022339
 21
942.9997327969003
 31
0.0
  0
LINE
  5
132BA
330
1F
100
AcDbEntity
  8
破線
100
AcDbLine
 10
1283.999789022339
 20
656.9997327969003
 30
0.0
 11
1299.999789022339
 21
656.9997327969003
 31
0.0
  0
LINE
  5
132BB
330
1F
100
AcDbEntity
  8
破線
100
AcDbLine
 10
1299.999789022339
 20
656.9997327969003
 30
0.0
 11
1299.999789022339
 21
942.9997327969003
 31
0.0
  0
LINE
  5
132BC
330
1F
100
AcDbEntity
  8
中心線
100
AcDbLine
 10
1099.999920199386
 20
564.999714552262
 30
0.0
 11
1099.999920199386
 21
1034.999714552262
 31
0.0
  0
LINE
  5
132BD
330
1F
100
AcDbEntity
  8
中心線
100
AcDbLine
 10
1269.999920199386
 20
914.999714552262
 30
0.0
 11
1269.999920199386
 21
1024.999714552262
 31
0.0
  0
LINE
  5
132BE
330
1F
100
AcDbEntity
  8
中心線
100
AcDbLine
 10
1214.999920199386
 20
629.999714552262
 30
0.0
 11
1324.999920199386
 21
629.999714552262
 31
0.0
  0
LINE
  5
132BF
330
1F
100
AcDbEntity
  8
中心線
100
AcDbLine
 10
1269.999920199386
 20
574.999714552262
 30
0.0
 11
1269.999920199386
 21
684.999714552262
 31
0.0
  0
LINE
  5
132C0
330
1F
100
AcDbEntity
  8
中心線
100
AcDbLine
 10
874.999920199386
 20
969.9997145522621
 30
0.0
 11
984.999920199386
 21
969.9997145522621
 31
0.0
  0
LINE
  5
132C1
330
1F
100
AcDbEntity
  8
中心線
100
AcDbLine
 10
929.9999201993859
 20
914.999714552262
 30
0.0
 11
929.9999201993859
 21
1024.999714552262
 31
0.0
  0
LINE
  5
132C2
330
1F
100
AcDbEntity
  8
中心線
100
AcDbLine
 10
874.999920199386
 20
629.999714552262
 30
0.0
 11
984.999920199386
 21
629.999714552262
 31
0.0
  0
LINE
  5
132C3
330
1F
100
AcDbEntity
  8
中心線
100
AcDbLine
 10
929.9999201993859
 20
574.999714552262
 30
0.0
 11
929.9999201993859
 21
684.999714552262
 31
0.0
  0
DIMENSION
  5
132C4
330
1F
100
AcDbEntity
  8
寸法線
100
AcDbDimension
280
     0
  2
*D20
 10
799.9999439837929
 20
1009.999732796901
 30
0.0
 11
799.9999439837929
 21
799.9997327969004
 31
0.0
 70
   160
 71
     5
 42
420.0000000000001
 73
     0
 74
     0
 75
     0
  3
STANDARD
100
AcDbAlignedDimension
 13
889.9999439837928
 23
589.9997327969003
 33
0.0
 14
889.9999439837928
 24
1009.9997327969
 34
0.0
 50
90.0
100
AcDbRotatedDimension
  0
TEXT
  5
132C5
330
1F
100
AcDbEntity
  8
寸法線
100
AcDbText
 10
2429.999896414979
 20
1083.750463447654
 30
0.0
 40
25.0
  1
断面Ａ－Ａ
 72
     1
 11
2499.999896414979
 21
1083.750463447654
 31
0.0
100
AcDbText
 73
     1
  0
DIMENSION
  5
132C6
330
1F
100
AcDbEntity
  8
寸法線
100
AcDbDimension
280
     0
  2
*D21
 10
2670.000120199396
 20
499.9999581025108
 30
0.0
 11
2500.000121120823
 21
499.9999581025108
 31
0.0
 70
   160
 71
     5
 42
340.0
 73
     0
 74
     0
 75
     0
  3
STANDARD
100
AcDbAlignedDimension
 13
2330.000120199395
 23
575.0002290197053
 33
0.0
 14
2670.000120199396
 24
575.0002290197053
 34
0.0
100
AcDbRotatedDimension
  0
LINE
  5
132C7
330
1F
100
AcDbEntity
  8
実線
100
AcDbLine
 10
2289.999896414979
 20
1009.999994591785
 30
0.0
 11
2709.999896414979
 21
1009.999994591785
 31
0.0
  0
LINE
  5
132C8
330
1F
100
AcDbEntity
  8
中心線
100
AcDbLine
 10
2264.999920199386
 20
800.0002290197054
 30
0.0
 11
2734.999920199386
 21
800.0002290197054
 31
0.0
  0
LINE
  5
132C9
330
1F
100
AcDbEntity
  8
実線
100
AcDbLine
 10
2316.499896414979
 20
807.9999945917853
 30
0.0
 11
2683.499896414979
 21
807.9999945917853
 31
0.0
  0
LINE
  5
132CA
330
1F
100
AcDbEntity
  8
実線
100
AcDbLine
 10
2289.999896414979
 20
589.9999945917852
 30
0.0
 11
2289.999896414979
 21
1009.999994591785
 31
0.0
  0
DIMENSION
  5
132CB
330
1F
100
AcDbEntity
  8
寸法線
100
AcDbDimension
280
     0
  2
*D22
 10
2330.000120199395
 20
499.9999581025108
 30
0.0
 11
2310.000008307187
 21
499.9999581025108
 31
0.0
 70
   160
 71
     5
 42
40.00022378441644
 73
     0
 74
     0
 75
     0
  3
STANDARD
100
AcDbAlignedDimension
 13
2289.999896414979
 23
590.0004634476545
 33
0.0
 14
2330.000120199395
 24
575.0002290197053
 34
0.0
100
AcDbRotatedDimension
  0
LINE
  5
132CC
330
1F
100
AcDbEntity
  8
実線
100
AcDbLine
 10
2316.499896414979
 20
791.9999945917852
 30
0.0
 11
2316.499896414979
 21
807.9999945917853
 31
0.0
  0
LINE
  5
132CD
330
1F
100
AcDbEntity
  8
実線
100
AcDbLine
 10
2300.000121120823
 20
942.9999945917852
 30
0.0
 11
2316.000121120823
 21
942.9999945917852
 31
0.0
  0
LINE
  5
132CE
330
1F
100
AcDbEntity
  8
実線
100
AcDbLine
 10
2356.999896414979
 20
1000.000229019705
 30
0.0
 11
2356.999896414979
 21
984.0002290197054
 31
0.0
  0
LINE
  5
132CF
330
1F
100
AcDbEntity
  8
実線
100
AcDbLine
 10
2507.999896414979
 20
983.5002290197053
 30
0.0
 11
2507.999896414979
 21
808.0002290197054
 31
0.0
  0
LINE
  5
132D0
330
1F
100
AcDbEntity
  8
実線
100
AcDbLine
 10
2491.999896414979
 20
983.5002290197053
 30
0.0
 11
2491.999896414979
 21
808.0002290197054
 31
0.0
  0
DIMENSION
  5
132D1
330
1F
100
AcDbEntity
  8
寸法線
100
AcDbDimension
280
     0
  2
*D23
 10
2799.999896414981
 20
1009.999994591785
 30
0.0
 11
2799.99989641498
 21
990.0001118057447
 31
0.0
 70
   160
 71
     5
 42
39.99976557207992
 73
     0
 74
     0
 75
     0
  3
STANDARD
100
AcDbAlignedDimension
 13
2725.000120199396
 23
970.0002290197053
 33
0.0
 14
2709.999896414979
 24
1009.999994591785
 34
0.0
 50
90.0
100
AcDbRotatedDimension
  0
LINE
  5
132D2
330
1F
100
AcDbEntity
  8
実線
100
AcDbLine
 10
2709.999896414979
 20
589.9999945917852
 30
0.0
 11
2709.999896414979
 21
1009.999994591785
 31
0.0
  0
DIMENSION
  5
132D3
330
1F
100
AcDbEntity
  8
寸法線
100
AcDbDimension
280
     0
  2
*D1
 10
2799.99989641498
 20
970.0002290197058
 30
0.0
 11
2799.999896414979
 21
800.0002290197054
 31
0.0
 70
   160
 71
     5
 42
340.0000000000001
 73
     0
 74
     0
 75
     0
  3
STANDARD
100
AcDbAlignedDimension
 13
2725.000120199396
 23
630.0002290197053
 33
0.0
 14
2725.000120199396
 24
970.0002290197053
 34
0.0
 50
90.0
100
AcDbRotatedDimension
  0
DIMENSION
  5
132D4
330
1F
100
AcDbEntity
  8
寸法線
100
AcDbDimension
280
     0
  2
*D2
 10
2799.99989641498
 20
630.0002290197055
 30
0.0
 11
2799.999896414979
 21
610.0003462336792
 31
0.0
 70
   160
 71
     5
 42
39.99976557205082
 73
     0
 74
     0
 75
     0
  3
STANDARD
100
AcDbAlignedDimension
 13
2709.999896414979
 23
590.0004634476545
 33
0.0
 14
2725.000120199396
 24
630.0002290197053
 34
0.0
 50
90.0
100
AcDbRotatedDimension
  0
DIMENSION
  5
132D5
330
1F
100
AcDbEntity
  8
寸法線
100
AcDbDimension
280
     0
  2
*D3
 10
2709.999896414979
 20
499.9999581025108
 30
0.0
 11
2690.000008307187
 21
499.9999581025108
 31
0.0
 70
   160
 71
     5
 42
39.99977621558355
 73
     0
 74
     0
 75
     0
  3
STANDARD
100
AcDbAlignedDimension
 13
2670.000120199396
 23
575.0002290197053
 33
0.0
 14
2709.999896414979
 24
590.0004634476545
 34
0.0
100
AcDbRotatedDimension
  0
LINE
  5
132D6
330
1F
100
AcDbEntity
  8
実線
100
AcDbLine
 10
2683.499896414979
 20
807.9999945917853
 30
0.0
 11
2683.499896414979
 21
791.9999945917852
 31
0.0
  0
LINE
  5
132D7
330
1F
100
AcDbEntity
  8
実線
100
AcDbLine
 10
2491.999896414979
 20
983.5002290197053
 30
0.0
 11
2507.999896414979
 21
983.5002290197053
 31
0.0
  0
LINE
  5
132D8
330
1F
100
AcDbEntity
  8
実線
100
AcDbLine
 10
2642.999896414979
 20
1000.000229019705
 30
0.0
 11
2642.999896414979
 21
984.0002290197054
 31
0.0
  0
CIRCLE
  5
132D9
330
1F
100
AcDbEntity
  8
実線
100
AcDbCircle
 10
2330.000121120823
 20
970.0002290197053
 30
0.0
 40
30.0
  0
LINE
  5
132DA
330
1F
100
AcDbEntity
  8
実線
100
AcDbLine
 10
2316.000121120823
 20
656.9999945917852
 30
0.0
 11
2316.000121120823
 21
942.9999945917852
 31
0.0
  0
LINE
  5
132DB
330
1F
100
AcDbEntity
  8
中心線
100
AcDbLine
 10
2615.000120199395
 20
970.0002290197053
 30
0.0
 11
2725.000120199396
 21
970.0002290197053
 31
0.0
  0
CIRCLE
  5
132DC
330
1F
100
AcDbEntity
  8
実線
100
AcDbCircle
 10
2670.000121120823
 20
970.0002290197053
 30
0.0
 40
30.0
  0
LINE
  5
132DD
330
1F
100
AcDbEntity
  8
実線
100
AcDbLine
 10
2356.999896414979
 20
1000.000229019705
 30
0.0
 11
2642.999896414979
 21
1000.000229019705
 31
0.0
  0
LINE
  5
132DE
330
1F
100
AcDbEntity
  8
実線
100
AcDbLine
 10
2289.999896414979
 20
590.0004634476545
 30
0.0
 11
2709.999896414979
 21
590.0004634476545
 31
0.0
  0
LINE
  5
132DF
330
1F
100
AcDbEntity
  8
実線
100
AcDbLine
 10
2300.000121120823
 20
656.9999945917852
 30
0.0
 11
2316.000121120823
 21
656.9999945917852
 31
0.0
  0
LINE
  5
132E0
330
1F
100
AcDbEntity
  8
実線
100
AcDbLine
 10
2507.999896414979
 20
616.5002290197053
 30
0.0
 11
2507.999896414979
 21
792.0002290197053
 31
0.0
  0
LINE
  5
132E1
330
1F
100
AcDbEntity
  8
実線
100
AcDbLine
 10
2491.999896414979
 20
616.5002290197053
 30
0.0
 11
2491.999896414979
 21
792.0002290197053
 31
0.0
  0
LINE
  5
132E2
330
1F
100
AcDbEntity
  8
実線
100
AcDbLine
 10
2491.999896414979
 20
616.5002290197053
 30
0.0
 11
2507.999896414979
 21
616.5002290197053
 31
0.0
  0
CIRCLE
  5
132E3
330
1F
100
AcDbEntity
  8
実線
100
AcDbCircle
 10
2330.000121120823
 20
630.0002290197053
 30
0.0
 40
30.0
  0
CIRCLE
  5
132E4
330
1F
100
AcDbEntity
  8
実線
100
AcDbCircle
 10
2670.000121120823
 20
630.0002290197053
 30
0.0
 40
30.0
  0
LINE
  5
132E5
330
1F
100
AcDbEntity
  8
実線
100
AcDbLine
 10
2316.499896414979
 20
791.9999945917852
 30
0.0
 11
2683.499896414979
 21
791.9999945917852
 31
0.0
  0
LINE
  5
132E6
330
1F
100
AcDbEntity
  8
実線
100
AcDbLine
 10
2356.999896414979
 20
984.0002290197054
 30
0.0
 11
2642.999896414979
 21
984.0002290197054
 31
0.0
  0
LINE
  5
132E7
330
1F
100
AcDbEntity
  8
実線
100
AcDbLine
 10
2356.999896414979
 20
616.0002290197053
 30
0.0
 11
2356.999896414979
 21
600.0002290197053
 31
0.0
  0
LINE
  5
132E8
330
1F
100
AcDbEntity
  8
実線
100
AcDbLine
 10
2642.999896414979
 20
616.0002290197053
 30
0.0
 11
2642.999896414979
 21
600.0002290197053
 31
0.0
  0
LINE
  5
132E9
330
1F
100
AcDbEntity
  8
実線
100
AcDbLine
 10
2356.999896414979
 20
616.0002290197053
 30
0.0
 11
2642.999896414979
 21
616.0002290197053
 31
0.0
  0
LINE
  5
132EA
330
1F
100
AcDbEntity
  8
実線
100
AcDbLine
 10
2356.999896414979
 20
600.0002290197053
 30
0.0
 11
2642.999896414979
 21
600.0002290197053
 31
0.0
  0
LINE
  5
132EB
330
1F
100
AcDbEntity
  8
実線
100
AcDbLine
 10
2300.000121120823
 20
656.9999945917852
 30
0.0
 11
2300.000121120823
 21
942.9999945917852
 31
0.0
  0
LINE
  5
132EC
330
1F
100
AcDbEntity
  8
実線
100
AcDbLine
 10
2684.000121120823
 20
942.9999945917852
 30
0.0
 11
2700.000121120823
 21
942.9999945917852
 31
0.0
  0
LINE
  5
132ED
330
1F
100
AcDbEntity
  8
実線
100
AcDbLine
 10
2700.000121120823
 20
656.9999945917852
 30
0.0
 11
2700.000121120823
 21
942.9999945917852
 31
0.0
  0
LINE
  5
132EE
330
1F
100
AcDbEntity
  8
実線
100
AcDbLine
 10
2684.000121120823
 20
656.9999945917852
 30
0.0
 11
2700.000121120823
 21
656.9999945917852
 31
0.0
  0
LINE
  5
132EF
330
1F
100
AcDbEntity
  8
実線
100
AcDbLine
 10
2684.000121120823
 20
656.9999945917852
 30
0.0
 11
2684.000121120823
 21
942.9999945917852
 31
0.0
  0
LINE
  5
132F0
330
1F
100
AcDbEntity
  8
中心線
100
AcDbLine
 10
2670.000120199396
 20
915.0002290197052
 30
0.0
 11
2670.000120199396
 21
1025.000229019705
 31
0.0
  0
LINE
  5
132F1
330
1F
100
AcDbEntity
  8
中心線
100
AcDbLine
 10
2615.000120199395
 20
630.0002290197053
 30
0.0
 11
2725.000120199396
 21
630.0002290197053
 31
0.0
  0
LINE
  5
132F2
330
1F
100
AcDbEntity
  8
中心線
100
AcDbLine
 10
2670.000120199396
 20
575.0002290197053
 30
0.0
 11
2670.000120199396
 21
685.0002290197053
 31
0.0
  0
LINE
  5
132F3
330
1F
100
AcDbEntity
  8
中心線
100
AcDbLine
 10
2275.000120199396
 20
970.0002290197053
 30
0.0
 11
2385.000120199396
 21
970.0002290197053
 31
0.0
  0
LINE
  5
132F4
330
1F
100
AcDbEntity
  8
中心線
100
AcDbLine
 10
2330.000120199395
 20
915.0002290197052
 30
0.0
 11
2330.000120199395
 21
1025.000229019705
 31
0.0
  0
LINE
  5
132F5
330
1F
100
AcDbEntity
  8
中心線
100
AcDbLine
 10
2275.000120199396
 20
630.0002290197053
 30
0.0
 11
2385.000120199396
 21
630.0002290197053
 31
0.0
  0
LINE
  5
132F6
330
1F
100
AcDbEntity
  8
中心線
100
AcDbLine
 10
2330.000120199395
 20
575.0002290197053
 30
0.0
 11
2330.000120199395
 21
685.0002290197053
 31
0.0
  0
LINE
  5
132F7
330
1F
100
AcDbEntity
  8
寸法線
100
AcDbLine
 10
2421.249896414979
 20
1075.000463447654
 30
0.0
 11
2578.749896414979
 21
1075.000463447654
 31
0.0
  0
LINE
  5
132F8
330
1F
100
AcDbEntity
  8
中心線
100
AcDbLine
 10
2499.999920199386
 20
564.9999290197201
 30
0.0
 11
2499.999920199386
 21
1034.99992901972
 31
0.0
  0
LINE
  5
132F9
330
1F
100
AcDbEntity
  8
実線
100
AcDbLine
 10
2959.999896414979
 20
569.9999945917852
 30
0.0
 11
2959.999896414979
 21
1029.999994591785
 31
0.0
  0
LINE
  5
132FA
330
1F
100
AcDbEntity
  8
実線
100
AcDbLine
 10
3419.999896414979
 20
569.9999945917852
 30
0.0
 11
3419.999896414979
 21
1029.999994591785
 31
0.0
  0
LINE
  5
132FB
330
1F
100
AcDbEntity
  8
実線
100
AcDbLine
 10
2959.999679308204
 20
570.0001666637881
 30
0.0
 11
3419.999679308204
 21
570.0001666637881
 31
0.0
  0
LINE
  5
132FC
330
1F
100
AcDbEntity
  8
実線
100
AcDbLine
 10
2959.999679308204
 20
1030.000166663788
 30
0.0
 11
3419.999679308204
 21
1030.000166663788
 31
0.0
  0
LINE
  5
132FD
330
1F
100
AcDbEntity
  8
中心線
100
AcDbLine
 10
3189.999896414979
 20
1039.999994591785
 30
0.0
 11
3189.999896414979
 21
559.9999945917852
 31
0.0
  0
LINE
  5
132FE
330
1F
100
AcDbEntity
  8
中心線
100
AcDbLine
 10
2967.499679308204
 20
970.0001666637881
 30
0.0
 11
3072.499679308204
 21
970.0001666637881
 31
0.0
  0
CIRCLE
  5
132FF
330
1F
100
AcDbEntity
  8
実線
100
AcDbCircle
 10
3189.999896414979
 20
800.0001666637881
 30
0.0
 40
140.0
  0
CIRCLE
  5
13300
330
1F
100
AcDbEntity
  8
実線
100
AcDbCircle
 10
3019.999896414979
 20
970.0001666637881
 30
0.0
 40
30.25
  0
CIRCLE
  5
13301
330
1F
100
AcDbEntity
  8
実線
100
AcDbCircle
 10
3359.999896414979
 20
970.0001666637881
 30
0.0
 40
30.25
  0
CIRCLE
  5
13302
330
1F
100
AcDbEntity
  8
実線
100
AcDbCircle
 10
3019.999896414979
 20
630.0001666637881
 30
0.0
 40
30.25
  0
CIRCLE
  5
13303
330
1F
100
AcDbEntity
  8
実線
100
AcDbCircle
 10
3359.999896414979
 20
630.0001666637881
 30
0.0
 40
30.25
  0
LINE
  5
13304
330
1F
100
AcDbEntity
  8
中心線
100
AcDbLine
 10
2949.999679308204
 20
800.0001666637881
 30
0.0
 11
3429.999679308204
 21
800.0001666637881
 31
0.0
  0
LINE
  5
13305
330
1F
100
AcDbEntity
  8
中心線
100
AcDbLine
 10
3019.999896414979
 20
917.4999495569837
 30
0.0
 11
3019.999896414979
 21
1022.499949556983
 31
0.0
  0
LINE
  5
13306
330
1F
100
AcDbEntity
  8
中心線
100
AcDbLine
 10
2967.499679308204
 20
630.0001666637881
 30
0.0
 11
3072.499679308204
 21
630.0001666637881
 31
0.0
  0
LINE
  5
13307
330
1F
100
AcDbEntity
  8
中心線
100
AcDbLine
 10
3019.999896414979
 20
577.4999495569836
 30
0.0
 11
3019.999896414979
 21
682.4999495569836
 31
0.0
  0
LINE
  5
13308
330
1F
100
AcDbEntity
  8
中心線
100
AcDbLine
 10
3307.499679308204
 20
970.0001666637881
 30
0.0
 11
3412.499679308204
 21
970.0001666637881
 31
0.0
  0
LINE
  5
13309
330
1F
100
AcDbEntity
  8
中心線
100
AcDbLine
 10
3359.999896414979
 20
917.4999495569837
 30
0.0
 11
3359.999896414979
 21
1022.499949556983
 31
0.0
  0
LINE
  5
1330A
330
1F
100
AcDbEntity
  8
中心線
100
AcDbLine
 10
3307.499679308204
 20
630.0001666637881
 30
0.0
 11
3412.499679308204
 21
630.0001666637881
 31
0.0
  0
LINE
  5
1330B
330
1F
100
AcDbEntity
  8
中心線
100
AcDbLine
 10
3359.999896414979
 20
577.4999495569836
 30
0.0
 11
3359.999896414979
 21
682.4999495569836
 31
0.0
  0
DIMENSION
  5
1330C
330
1F
100
AcDbEntity
  8
寸法線
100
AcDbDimension
280
     0
  2
*D4
 10
3068.756224820291
 20
730.0003659623444
 30
0.0
 11
3253.625724129435
 21
836.7346070961874
 31
0.0
 70
   160
  1
φ280
 71
     5
 42
279.9999999999154
 73
     0
 74
     0
 75
     0
  3
STANDARD
100
AcDbAlignedDimension
 13
3311.243459457991
 23
870.0001553825904
 33
0.0
 14
3068.7562248189
 24
730.0003659647527
 34
0.0
 50
209.99995024362
100
AcDbRotatedDimension
  0
DIMENSION
  5
1330D
330
1F
100
AcDbEntity
  8
寸法線
100
AcDbDimension
280
     0
  2
*D5
 10
3419.999896414979
 20
499.9999581025108
 30
0.0
 11
3189.999787861591
 21
521.2499581025108
 31
0.0
 70
    32
 71
     5
 42
460.0002171067753
 73
     0
 74
     0
 75
     0
  3
STANDARD
100
AcDbAlignedDimension
 13
2959.999679308204
 23
570.0001666637881
 33
0.0
 14
3419.999896414979
 24
569.9999945917852
 34
0.0
100
AcDbRotatedDimension
  0
LINE
  5
1330E
330
1F
100
AcDbEntity
  8
寸法線
100
AcDbLine
 10
3109.732808044029
 20
1074.999958102511
 30
0.0
 11
3270.266767679154
 21
1074.999958102511
 31
0.0
  0
TEXT
  5
1330F
330
1F
100
AcDbEntity
  8
寸法線
100
AcDbText
 10
3121.135075283551
 20
1081.728782939848
 30
0.0
 40
24.0
  1
断面Ｂ－Ｂ
100
AcDbText
  0
DIMENSION
  5
13310
330
1F
100
AcDbEntity
  8
寸法線
100
AcDbDimension
280
     0
  2
*D6
 10
3489.999896415279
 20
1029.999994591785
 30
0.0
 11
3468.749896415279
 21
799.9999945917844
 31
0.0
 70
    32
 71
     5
 42
460.0000000000002
 73
     0
 74
     0
 75
     0
  3
STANDARD
100
AcDbAlignedDimension
 13
3419.999896414979
 23
569.9999945917852
 33
0.0
 14
3419.999896414979
 24
1029.999994591785
 34
0.0
 50
90.0
100
AcDbRotatedDimension
  0
CIRCLE
  5
13311
330
1F
100
AcDbEntity
  8
実線
100
AcDbCircle
 10
3359.999896414979
 20
969.9999495569837
 30
0.0
 40
31.5
  0
CIRCLE
  5
13312
330
1F
100
AcDbEntity
  8
実線
100
AcDbCircle
 10
3019.999896414979
 20
969.9999495569837
 30
0.0
 40
31.5
  0
CIRCLE
  5
13313
330
1F
100
AcDbEntity
  8
実線
100
AcDbCircle
 10
3020.000113521755
 20
629.9997324502083
 30
0.0
 40
31.5
  0
CIRCLE
  5
13314
330
1F
100
AcDbEntity
  8
実線
100
AcDbCircle
 10
3359.999896414979
 20
629.9999495569836
 30
0.0
 40
31.5
  0
DIMENSION
  5
13315
330
1F
100
AcDbEntity
  8
寸法線
100
AcDbDimension
280
     0
  2
*D7
 10
1791.999948207486
 20
1099.999484685529
 30
0.0
 11
1653.999922311233
 21
1121.25194531545
 31
0.0
 70
    32
 71
     5
 42
276.0000517925073
 73
     0
 74
     0
 75
     0
  3
STANDARD
100
AcDbAlignedDimension
 13
1515.999896414979
 23
1009.999714552276
 33
0.0
 14
1791.999948207486
 24
1029.999714552277
 34
0.0
100
AcDbRotatedDimension
1001
ACAD
1000
DSTYLE
1002
{
1070
   279
1070
     1
1002
}
  0
DIMENSION
  5
13316
330
1F
100
AcDbEntity
  8
寸法線
100
AcDbDimension
280
     0
  2
*D8
 10
2083.999896414979
 20
1099.999484685529
 30
0.0
 11
1945.999922311233
 21
1121.25194531545
 31
0.0
 70
    32
 71
     5
 42
275.9999482074927
 73
     0
 74
     0
 75
     0
  3
STANDARD
100
AcDbAlignedDimension
 13
1807.999948207486
 23
1029.999714552277
 33
0.0
 14
2083.999896414979
 24
1009.999714552276
 34
0.0
100
AcDbRotatedDimension
1001
ACAD
1000
DSTYLE
1002
{
1070
   279
1070
     1
1002
}
  0
DIMENSION
  5
13317
330
1F
100
AcDbEntity
  8
寸法線
100
AcDbDimension
280
     0
  2
*D9
 10
1807.999948207486
 20
1099.999484685529
 30
0.0
 11
1799.999948207486
 21
1099.999484685529
 31
0.0
 70
   160
 71
     5
 42
16.0
 73
     0
 74
     0
 75
     0
  3
STANDARD
100
AcDbAlignedDimension
 13
1791.999948207486
 23
1029.999714552277
 33
0.0
 14
1807.999948207486
 24
1029.999714552277
 34
0.0
100
AcDbRotatedDimension
  0
DIMENSION
  5
13318
330
1F
100
AcDbEntity
  8
寸法線
100
AcDbDimension
280
     0
  2
*D10
 10
2770.000226983163
 20
2054.000018117619
 30
0.0
 11
2770.000226983163
 21
2244.999980897945
 31
0.0
 70
   160
 71
     5
 42
382.0000000000009
 73
     0
 74
     0
 75
     0
  3
STANDARD
100
AcDbAlignedDimension
 13
2650.000226983163
 23
2436.000018117619
 33
0.0
 14
2650.000226983163
 24
2054.000018117618
 34
0.0
 50
90.0
100
AcDbRotatedDimension
  0
VIEWPORT
  5
794
330
78D
100
AcDbEntity
 67
     1
  8
0
100
AcDbViewport
 10
204.0995798351864
 20
142.5892483948869
 30
0.0
 40
568.7138760531154
 41
287.6682269700984
 68
     1
 69
     1
 12
204.0995798351864
 22
142.5892483948869
 13
0.0
 23
0.0
 14
10.0
 24
10.0
 15
10.0
 25
10.0
 16
0.0
 26
0.0
 36
1.0
 17
0.0
 27
0.0
 37
0.0
 42
50.0
 43
0.0
 44
0.0
 45
287.6682269700984
 50
0.0
 51
0.0
 72
  1000
 90
    32800
  1

281
     0
 71
     1
 74
     0
110
0.0
120
0.0
130
0.0
111
1.0
121
0.0
131
0.0
112
0.0
122
1.0
132
0.0
 79
     0
146
0.0
170
     0
 61
     5
348
119F8
292
     1
282
     1
141
0.0
142
0.0
 63
   250
421
  3355443
  0
VIEWPORT
  5
796
330
78D
100
AcDbEntity
 67
     1
  8
Defpoints
100
AcDbViewport
 10
204.099579334259
 20
142.5892481803894
 30
0.0
 40
408.1991586685178
 41
285.1784963607788
 68
     2
 69
     2
 12
2100.207206595808
 22
1486.804522350007
 13
0.0
 23
0.0
 14
10.0
 24
10.0
 15
10.0
 25
10.0
 16
0.0
 26
0.0
 36
1.0
 17
0.0
 27
0.0
 37
0.0
 42
50.0
 43
0.0
 44
0.0
 45
2851.784980677949
 50
0.0
 51
0.0
 72
  1000
 90
    49248
  1

281
     0
 71
     1
 74
     0
110
0.0
120
0.0
130
0.0
111
1.0
121
0.0
131
0.0
112
0.0
122
1.0
132
0.0
 79
     0
146
0.0
170
     0
 61
     5
348
119F8
292
     1
282
     1
141
0.0
142
0.0
 63
   250
421
  3355443
  0
LINE
  5
9A2
330
78D
100
AcDbEntity
 67
     1
  8
図面枠
100
AcDbLine
 10
14.0996
 20
6.589249999999998
 30
0.0
 11
14.0996
 21
278.58925
 31
0.0
  0
LINE
  5
9A3
330
78D
100
AcDbEntity
 67
     1
  8
図面枠
100
AcDbLine
 10
404.0995999999998
 20
6.589249999999998
 30
0.0
 11
404.0995999999998
 21
278.58925
 31
0.0
  0
LINE
  5
9A4
330
78D
100
AcDbEntity
 67
     1
  8
図面枠
100
AcDbLine
 10
14.0996
 20
278.58925
 30
0.0
 11
404.0995999999998
 21
278.58925
 31
0.0
  0
LINE
  5
9A5
330
78D
100
AcDbEntity
 67
     1
  8
図面枠
100
AcDbLine
 10
14.0996
 20
6.589249999999998
 30
0.0
 11
404.0995999999998
 21
6.589249999999991
 31
0.0
  0
LINE
  5
9BB
330
78D
100
AcDbEntity
 67
     1
  8
図面枠
100
AcDbLine
 10
289.0996
 20
36.58924999999999
 30
0.0
 11
404.0995999999998
 21
36.58924999999999
 31
0.0
  0
LINE
  5
9BC
330
78D
100
AcDbEntity
 67
     1
  8
図面枠
100
AcDbLine
 10
289.0996
 20
30.58924999999999
 30
0.0
 11
404.0995999999998
 21
30.58924999999999
 31
0.0
  0
LINE
  5
9BE
330
78D
100
AcDbEntity
 67
     1
  8
図面枠
100
AcDbLine
 10
289.0996
 20
36.5893
 30
0.0
 11
289.0996
 21
6.589249999999991
 31
0.0
  0
LINE
  5
9C4
330
78D
100
AcDbEntity
 67
     1
  8
図面枠
100
AcDbLine
 10
289.0996
 20
18.58924999999999
 30
0.0
 11
404.0995999999998
 21
18.58924999999999
 31
0.0
  0
LINE
  5
9CD
330
78D
100
AcDbEntity
 67
     1
  8
図面枠
100
AcDbLine
 10
352.0996
 20
36.5893
 30
0.0
 11
352.0996
 21
30.58924999999999
 31
0.0
  0
LINE
  5
9CF
330
78D
100
AcDbEntity
 67
     1
  8
図面枠
100
AcDbLine
 10
383.0996
 20
36.5893
 30
0.0
 11
383.0996
 21
30.58924999999999
 31
0.0
  0
LINE
  5
9D0
330
78D
100
AcDbEntity
 67
     1
  8
図面枠
100
AcDbLine
 10
352.0996
 20
30.58924999999999
 30
0.0
 11
352.0996
 21
6.589249999999991
 31
0.0
  0
LINE
  5
9D1
330
78D
100
AcDbEntity
 67
     1
  8
図面枠
100
AcDbLine
 10
312.0996
 20
36.58924999999999
 30
0.0
 11
312.0996
 21
30.58924999999999
 31
0.0
  0
LINE
  5
9D2
330
78D
100
AcDbEntity
 67
     1
  8
図面枠
100
AcDbLine
 10
304.0996
 20
24.58924999999999
 30
0.0
 11
349.0996
 21
24.58924999999999
 31
0.0
  0
TEXT
  5
9EB
330
78D
100
AcDbEntity
 67
     1
  8
図面枠
100
AcDbText
 10
289.9746
 20
32.33924999999999
 30
0.0
 40
2.5
  1
重量
 11
289.9746
 21
32.33924999999999
 31
0.0
100
AcDbText
 73
     1
  0
TEXT
  5
9ED
330
78D
100
AcDbEntity
 67
     1
  8
図面枠
100
AcDbText
 10
289.97465
 20
27.21424999999999
 30
0.0
 40
2.5
  1
名　称
 11
289.97465
 21
29.71424999999999
 31
0.0
100
AcDbText
 73
     3
  0
TEXT
  5
9EF
330
78D
100
AcDbEntity
 67
     1
  8
図面枠
100
AcDbText
 10
318.4746
 20
32.33929999999999
 30
0.0
 40
2.5
  1
表面仕上げ
 41
0.8
 11
318.4746
 21
32.33929999999999
 31
0.0
100
AcDbText
 73
     1
  0
TEXT
  5
A20
330
78D
100
AcDbEntity
 67
     1
  8
図面枠
100
AcDbText
 10
352.9746
 20
32.33924999999999
 30
0.0
 40
2.5
  1
日付
 11
352.9746
 21
32.33924999999999
 31
0.0
100
AcDbText
 73
     1
  0
TEXT
  5
A39
330
78D
100
AcDbEntity
 67
     1
  8
図面枠
100
AcDbText
 10
383.9746
 20
32.33924999999999
 30
0.0
 40
2.5
  1
尺度
 11
383.9746
 21
32.33924999999999
 31
0.0
100
AcDbText
 73
     1
  0
TEXT
  5
A59
330
78D
100
AcDbEntity
 67
     1
  8
図面枠
100
AcDbText
 10
313.5162666666667
 20
26.33924999999999
 30
0.0
 40
2.5
  1
スルーサーＢ構造図
 72
     1
 11
326.5996
 21
26.33924999999999
 31
0.0
100
AcDbText
 73
     1
  0
TEXT
  5
A5A
330
78D
100
AcDbEntity
 67
     1
  8
図面枠
100
AcDbText
 10
317.6611157480315
 20
20.33924999999999
 30
0.0
 40
2.5
  1
切り梁H-400
 72
     1
 11
326.5996
 21
22.83924999999999
 31
0.0
100
AcDbText
 73
     3
  0
TEXT
  5
A63
330
78D
100
AcDbEntity
 67
     1
  8
図面枠
100
AcDbText
 10
368.0162666666667
 20
8.33924999999999
 30
0.0
 40
2.5
  1
Ｈ４０－Ｗ６０
 72
     1
 11
378.0996
 21
8.33924999999999
 31
0.0
100
AcDbText
 73
     1
  0
TEXT
  5
9054
330
78D
100
AcDbEntity
 67
     1
  8
図面枠
100
AcDbText
 10
300.3079
 20
32.33924999999999
 30
0.0
 40
2.5
  1
374kg
 11
300.3079
 21
32.33924999999999
 31
0.0
100
AcDbText
 73
     1
  0
TEXT
  5
9055
330
78D
100
AcDbEntity
 67
     1
  8
図面枠
100
AcDbText
 10
333.8079
 20
32.33929999999999
 30
0.0
 40
2.5
  1
鉄筋防錆剤
 41
0.8
 11
333.8079
 21
32.33929999999999
 31
0.0
100
AcDbText
 73
     1
  0
TEXT
  5
9057
330
78D
100
AcDbEntity
 67
     1
  8
図面枠
100
AcDbText
 10
394.3079
 20
32.33924999999999
 30
0.0
 40
2.5
  1
1/10
 11
394.3079
 21
32.33924999999999
 31
0.0
100
AcDbText
 73
     1
  0
TEXT
  5
933A
330
78D
100
AcDbEntity
 67
     1
  8
図面枠
100
AcDbText
 10
300.0162781896648
 20
10.58922126233957
 30
0.0
 40
4.0
  1
三研テクノクリエイト
 11
300.0162781896648
 21
12.58922126233957
 31
0.0
100
AcDbText
 73
     2
  0
TEXT
  5
933B
330
78D
100
AcDbEntity
 67
     1
  8
図面枠
100
AcDbText
 10
294.2496115229981
 20
12.83922126233957
 30
0.0
 40
2.0
  1
株式
 72
     2
 11
298.5162781896648
 21
12.83922126233957
 31
0.0
100
AcDbText
 73
     1
  0
TEXT
  5
933C
330
78D
100
AcDbEntity
 67
     1
  8
図面枠
100
AcDbText
 10
294.2496115229981
 20
10.33922126233957
 30
0.0
 40
2.0
  1
会社
 72
     2
 11
298.5162781896648
 21
12.33922126233957
 31
0.0
100
AcDbText
 73
     3
  0
TEXT
  5
1200F
330
78D
100
AcDbEntity
 67
     1
  8
図面枠
100
AcDbText
 10
352.97465
 20
27.21425000000001
 30
0.0
 40
2.5
  1
摘　要
 11
352.97465
 21
29.71425000000001
 31
0.0
100
AcDbText
 73
     3
  0
TEXT
  5
12010
330
78D
100
AcDbEntity
 67
     1
  8
図面枠
100
AcDbText
 10
352.9746
 20
15.21425
 30
0.0
 40
2.5
  1
型　式
 11
352.9746
 21
17.71425
 31
0.0
100
AcDbText
 73
     3
  0
LINE
  5
12012
330
78D
100
AcDbEntity
 67
     1
  8
図面枠
100
AcDbLine
 10
227.3699773983349
 20
19.8671985172127
 30
0.0
 11
282.3699773983349
 21
19.8671985172127
 31
0.0
  0
LINE
  5
12013
330
78D
100
AcDbEntity
 67
     1
  8
図面枠
100
AcDbLine
 10
227.3699773983349
 20
19.8671985172127
 30
0.0
 11
227.3699773983349
 21
10.86719851721269
 31
0.0
  0
LINE
  5
12015
330
78D
100
AcDbEntity
 67
     1
  8
図面枠
100
AcDbLine
 10
282.3699773983349
 20
19.8671985172127
 30
0.0
 11
282.3699773983349
 21
10.86719851721269
 31
0.0
  0
LINE
  5
12016
330
78D
100
AcDbEntity
 67
     1
  8
図面枠
100
AcDbLine
 10
227.3699773983349
 20
10.86719851721269
 30
0.0
 11
282.3699773983349
 21
10.86719851721269
 31
0.0
  0
TEXT
  5
12295
330
78D
100
AcDbEntity
 67
     1
  8
図面枠
100
AcDbText
 10
364.7662666666667
 20
20.86235908820162
 30
0.0
 40
2.5
  1
Ｈ４０－Ｗシリーズ
 72
     1
 11
378.0996
 21
20.86235908820162
 31
0.0
100
AcDbText
 73
     1
  0
TEXT
  5
12B67
330
78D
100
AcDbEntity
 67
     1
  8
図面枠
100
AcDbText
 10
228.6019716746131
 20
13.16588865156562
 30
0.0
 40
4.0
  1
スクラップ重量　324kg
 72
     1
 11
254.7744590480284
 21
13.16588865156562
 31
0.0
100
AcDbText
  0
TEXT
  5
13C1B
330
78D
100
AcDbEntity
 67
     1
  8
図面枠
100
AcDbText
 10
363.3079
 20
32.33919999999999
 30
0.0
 40
2.5
  1
2024.01.01
 11
363.3079
 21
32.33919999999999
 31
0.0
100
AcDbText
 73
     1
  0
ENDSEC
  0
SECTION
  2
OBJECTS
  0
DICTIONARY
  5
C
330
0
100
AcDbDictionary
281
     1
  3
ACAD_CIP_PREVIOUS_PRODUCT_INFO
350
12C13
  3
ACAD_COLOR
350
6B
  3
ACAD_DETAILVIEWSTYLE
350
12C0D
  3
ACAD_GROUP
350
D
  3
ACAD_LAYOUT
350
1A
  3
ACAD_MATERIAL
350
6A
  3
ACAD_MLEADERSTYLE
350
11A15
  3
ACAD_MLINESTYLE
350
17
  3
ACAD_PLOTSETTINGS
350
19
  3
ACAD_PLOTSTYLENAME
350
E
  3
ACAD_SCALELIST
350
11A03
  3
ACAD_SECTIONVIEWSTYLE
350
12C0B
  3
ACAD_TABLESTYLE
350
7E
  3
ACAD_VISUALSTYLE
350
119F2
  3
AcadDim
350
89BC
  3
ACDB_RECOMPOSE_DATA
350
13C35
  3
ACDBHEADERROUNDTRIPXREC
350
12241
  3
AcDbVariableDictionary
350
5E
  3
AcDsDecomposeData
350
13C3B
  3
AEC_PROPERTY_SET_DEFS
350
11DAA
  0
DICTIONARY
  5
11B3D
330
8
100
AcDbDictionary
280
     1
281
     1
  0
DICTIONARY
  5
11D
330
2
100
AcDbDictionary
280
     1
281
     1
  3
ACAD_LAYERFILTERS
360
98AE
  3
ACAD_LAYERSTATES
360
11E
  3
ACLYDICTIONARY
360
98AD
  0
DICTIONARY
  5
11B03
330
10
100
AcDbDictionary
280
     1
281
     1
  3
ADSK_XREC_LAYER_RECONCILED
360
11B04
  0
DICTIONARY
  5
11B07
330
1BF
100
AcDbDictionary
280
     1
281
     1
  3
ADSK_XREC_LAYER_RECONCILED
360
11B08
  0
DICTIONARY
  5
11B0B
330
1C1
100
AcDbDictionary
280
     1
281
     1
  3
ADSK_XREC_LAYER_RECONCILED
360
11B0C
  0
DICTIONARY
  5
11B0F
330
1C3
100
AcDbDictionary
280
     1
281
     1
  3
ADSK_XREC_LAYER_RECONCILED
360
11B10
  0
DICTIONARY
  5
11B11
330
1C4
100
AcDbDictionary
280
     1
281
     1
  3
ADSK_XREC_LAYER_RECONCILED
360
11B12
  0
DICTIONARY
  5
11B13
330
1C5
100
AcDbDictionary
280
     1
281
     1
  3
ADSK_XREC_LAYER_RECONCILED
360
11B14
  0
DICTIONARY
  5
11B15
330
82E
100
AcDbDictionary
280
     1
281
     1
  3
ADSK_XREC_LAYER_RECONCILED
360
11B16
  0
DICTIONARY
  5
13C13
330
13C12
100
AcDbDictionary
280
     1
281
     1
  0
DICTIONARY
  5
5C91
330
1F
100
AcDbDictionary
280
     1
281
     1
  3
ACAD_SORTENTS
360
5C92
  0
DICTIONARY
  5
12008
330
C08
100
AcDbDictionary
280
     1
281
     1
  3
ACAD_SORTENTS
360
1222B
  0
XRECORD
  5
12C13
102
{ACAD_REACTORS
330
C
102
}
330
C
100
AcDbXrecord
280
     1
300
ACD
300
2023
300

  0
DICTIONARY
  5
6B
102
{ACAD_REACTORS
330
C
102
}
330
C
100
AcDbDictionary
281
     1
  0
DICTIONARY
  5
12C0D
102
{ACAD_REACTORS
330
C
102
}
330
C
100
AcDbDictionary
281
     1
  3
Metric50
350
12C0E
  0
DICTIONARY
  5
D
102
{ACAD_REACTORS
330
C
102
}
330
C
100
AcDbDictionary
281
     1
  0
DICTIONARY
  5
1A
102
{ACAD_REACTORS
330
C
102
}
330
C
100
AcDbDictionary
281
     1
  3
Model
350
22
  3
レイアウト1
350
78E
  0
DICTIONARY
  5
6A
102
{ACAD_REACTORS
330
C
102
}
330
C
100
AcDbDictionary
281
     1
  3
ByBlock
350
119E2
  3
ByLayer
350
119DA
  3
Global
350
119EA
  0
DICTIONARY
  5
11A15
102
{ACAD_REACTORS
330
C
102
}
330
C
100
AcDbDictionary
281
     1
  3
Standard
350
11A16
  0
DICTIONARY
  5
17
102
{ACAD_REACTORS
330
C
102
}
330
C
100
AcDbDictionary
281
     1
  3
Standard
350
18
  0
DICTIONARY
  5
19
102
{ACAD_REACTORS
330
C
102
}
330
C
100
AcDbDictionary
281
     1
  0
ACDBDICTIONARYWDFLT
  5
E
102
{ACAD_REACTORS
330
C
102
}
330
C
100
AcDbDictionary
281
     1
  3
Normal
350
F
100
AcDbDictionaryWithDefault
340
F
  0
DICTIONARY
  5
11A03
102
{ACAD_REACTORS
330
C
102
}
330
C
100
AcDbDictionary
281
     1
  3
A0
350
11A04
  3
A1
350
11A05
  3
A2
350
11A06
  3
A3
350
11A07
  3
A4
350
11A08
  3
A5
350
11A09
  3
A6
350
11A0A
  3
A7
350
11A0B
  3
A8
350
11A0C
  3
A9
350
11A0D
  3
B0
350
11A0E
  3
B1
350
11A0F
  3
B2
350
11A10
  3
B3
350
11A11
  3
B4
350
11A12
  3
B5
350
11A13
  3
B6
350
11A14
  0
DICTIONARY
  5
12C0B
102
{ACAD_REACTORS
330
C
102
}
330
C
100
AcDbDictionary
281
     1
  3
Metric50
350
12C0C
  0
DICTIONARY
  5
7E
102
{ACAD_REACTORS
330
C
102
}
330
C
100
AcDbDictionary
281
     1
  3
Standard
350
7F
  0
DICTIONARY
  5
119F2
102
{ACAD_REACTORS
330
C
102
}
330
C
100
AcDbDictionary
281
     1
  3
2dWireframe
350
119F8
  3
3D Hidden
350
119FA
  3
3dWireframe
350
119F9
  3
Basic
350
119F7
  3
Brighten
350
119FE
  3
ColorChange
350
11A02
  3
Conceptual
350
119FB
  3
Dim
350
119FD
  3
EdgeColorOff
350
12C0A
  3
Facepattern
350
11A01
  3
Flat
350
119F3
  3
FlatWithEdges
350
119F4
  3
Gouraud
350
119F5
  3
GouraudWithEdges
350
119F6
  3
Hidden
350
12C02
  3
JitterOff
350
12C08
  3
Linepattern
350
11A00
  3
OverhangOff
350
12C09
  3
Realistic
350
119FC
  3
Shaded
350
12C07
  3
Shaded with edges
350
12C06
  3
Shades of Gray
350
12C03
  3
Sketchy
350
12C04
  3
Thicken
350
119FF
  3
Wireframe
350
12C01
  3
X-Ray
350
12C05
  0
XRECORD
  5
89BC
102
{ACAD_REACTORS
330
C
102
}
330
C
100
AcDbXrecord
280
     1
 90
   990106
  3

 60
     0
 61
     0
 62
     1
 63
     3
 64
     0
 65
     0
 66
     0
 67
     3
 68
     1
 69
     0
 70
     0
 71
     0
 72
     0
 40
0.0
170
     0
  0
XRECORD
  5
13C35
102
{ACAD_REACTORS
330
C
102
}
330
C
100
AcDbXrecord
280
     1
 90
        1
330
7F
  0
DICTIONARY
  5
12241
102
{ACAD_REACTORS
330
C
102
}
330
C
100
AcDbDictionary
281
     1
  0
DICTIONARY
  5
5E
102
{ACAD_REACTORS
330
C
102
}
330
C
100
AcDbDictionary
281
     1
  3
CANNOSCALE
350
11B4B
  3
CMLEADERSTYLE
350
11B4A
  3
CTABLESTYLE
350
84
  3
CVIEWDETAILSTYLE
350
13A00
  3
CVIEWSECTIONSTYLE
350
13A01
  3
DIMASSOC
350
5F
  3
HIDETEXT
350
63
  3
INDEXCTL
350
11B4D
  3
LAYEREVAL
350
13A04
  3
LAYERNOTIFY
350
13A05
  3
LIGHTINGUNITS
350
13A03
  3
MSLTSCALE
350
13A02
  3
PROJECTNAME
350
12126
  3
SORTENTS
350
11B4C
  0
DICTIONARY
  5
13C3B
102
{ACAD_REACTORS
330
C
102
}
330
C
100
AcDbDictionary
281
     1
  3
AcDsRecords
350
13C3D
  3
AcDsSchemas
350
13C3C
1001
ACAD
1070
     2
  0
DICTIONARY
  5
11DAA
102
{ACAD_REACTORS
330
C
102
}
330
C
100
AcDbDictionary
281
     1
  0
DICTIONARY
  5
98AE
102
{ACAD_REACTORS
330
11D
102
}
330
11D
100
AcDbDictionary
281
     1
  0
DICTIONARY
  5
11E
102
{ACAD_REACTORS
330
11D
102
}
330
11D
100
AcDbDictionary
281
     1
  0
DICTIONARY
  5
98AD
102
{ACAD_REACTORS
330
11D
102
}
330
11D
100
AcDbDictionary
281
     1
1001
ACAD
1000
<All
  0
XRECORD
  5
11B04
102
{ACAD_REACTORS
330
11B03
102
}
330
11B03
100
AcDbXrecord
280
     1
290
     1
  0
XRECORD
  5
11B08
102
{ACAD_REACTORS
330
11B07
102
}
330
11B07
100
AcDbXrecord
280
     1
290
     1
  0
XRECORD
  5
11B0C
102
{ACAD_REACTORS
330
11B0B
102
}
330
11B0B
100
AcDbXrecord
280
     1
290
     1
  0
XRECORD
  5
11B10
102
{ACAD_REACTORS
330
11B0F
102
}
330
11B0F
100
AcDbXrecord
280
     1
290
     1
  0
XRECORD
  5
11B12
102
{ACAD_REACTORS
330
11B11
102
}
330
11B11
100
AcDbXrecord
280
     1
290
     1
  0
XRECORD
  5
11B14
102
{ACAD_REACTORS
330
11B13
102
}
330
11B13
100
AcDbXrecord
280
     1
290
     1
  0
XRECORD
  5
11B16
102
{ACAD_REACTORS
330
11B15
102
}
330
11B15
100
AcDbXrecord
280
     1
290
     1
  0
SORTENTSTABLE
  5
5C92
102
{ACAD_REACTORS
330
5C91
102
}
330
5C91
100
AcDbSortentsTable
330
1F
  0
SORTENTSTABLE
  5
1222B
102
{ACAD_REACTORS
330
12008
102
}
330
12008
100
AcDbSortentsTable
330
C08
  0
ACDBDETAILVIEWSTYLE
  5
12C0E
102
{ACAD_XDICTIONARY
360
13C40
102
}
102
{ACAD_REACTORS
330
12C0D
102
}
330
12C0D
100
AcDbModelDocViewStyle
 70
     0
  3
Metric50
290
     0
100
AcDbDetailViewStyle
 70
     0
 71
     0
 90
        3
 71
     1
340
11
 62
   256
 40
5.0
340
0
 62
   256
 40
5.0
300

 40
0.0
280
     1
 71
     2
340
16
 90
       25
 62
   256
 71
     3
340
11
 62
   256
 40
5.0
 90
        0
 40
15.0
 90
        1
300
%<\AcVar ViewDetailId>% (%<\AcVar ViewScale \f "%sn">%)
 71
     4
340
16
 90
       25
 62
   256
340
16
 90
       25
 62
   256
280
     0
  0
LAYOUT
  5
22
102
{ACAD_REACTORS
330
1A
102
}
330
1A
100
AcDbPlotSettings
  1

  2
none_device
  4
ISO_A4_(210.00_x_297.00_MM)
  6

 40
7.5
 41
20.0
 42
7.5
 43
20.0
 44
210.0
 45
297.0
 46
11.54999923706054
 47
-13.65000009536743
 48
0.0
 49
0.0
140
0.0
141
0.0
142
1.0
143
8.704084754739808
 70
 11952
 72
     1
 73
     0
 74
     0
  7

 75
     0
147
0.1148885871608098
 76
     0
 77
     2
 78
   300
148
0.0
149
0.0
100
AcDbLayout
  1
Model
 70
     1
 71
     0
 10
0.0
 20
0.0
 11
12.0
 21
9.0
 12
0.0
 22
0.0
 32
0.0
 14
0.0
 24
0.0
 34
0.0
 15
0.0
 25
0.0
 35
0.0
146
0.0
 13
0.0
 23
0.0
 33
0.0
 16
1.0
 26
0.0
 36
0.0
 17
0.0
 27
1.0
 37
0.0
 76
     0
330
1F
331
12235
1001
ACAD_PSEXT
1000
None
1000
None
1000
Not applicable
1000
The layout will not be plotted unless a new plotter configuration name is selected.
1070
     0
  0
LAYOUT
  5
78E
102
{ACAD_XDICTIONARY
360
79B
102
}
102
{ACAD_REACTORS
330
1A
102
}
330
1A
100
AcDbPlotSettings
  1

  2
RICOH MP C2503 JPN RPCS V2
  4
A3
  6

 40
5.873749732971191
 41
5.873748779296875
 42
5.873748779296875
 43
5.873748779296875
 44
296.9259948730469
 45
419.9466552734374
 46
0.0
 47
0.0
 48
0.0
 49
0.0
140
0.0
141
0.0
142
1.0
143
1.0
 70
   688
 72
     1
 73
     1
 74
     5
  7
monochrome.ctb
 75
    16
147
1.0
 76
     1
 77
     2
 78
   300
148
0.0
149
0.0
100
AcDbLayout
  1
レイアウト1
 70
     1
 71
     1
 10
-5.873748779296875
 20
-5.873749732971191
 11
414.0729064941406
 21
291.0522451400757
 12
0.0
 22
0.0
 32
0.0
 14
-0.0233557008396019
 24
-0.0155136928541424
 34
-0.0000000349181948
 15
408.2225153712125
 25
285.1940104826281
 35
0.0000000814935746
146
0.0
 13
0.0
 23
0.0
 33
0.0
 16
1.0
 26
0.0
 36
0.0
 17
0.0
 27
1.0
 37
0.0
 76
     0
330
78D
331
794
1001
ACAD_PSEXT
1000
RICOH MP C2503 JPN RPCS V2
1000
RICOH MP C2503 JPN RPCS V2
1000
IP_192.168.24.100
1000
RPCS Driver (For Windows)
1070
     0
  0
MATERIAL
  5
119E2
102
{ACAD_XDICTIONARY
360
119E3
102
}
102
{ACAD_REACTORS
330
6A
102
}
330
6A
100
AcDbMaterial
  1
ByBlock
 72
     0
 43
0.0008202099737533
 43
0.0
 43
0.0
 43
0.0
 43
0.0
 43
0.0008202099737533
 43
0.0
 43
0.0
 43
0.0
 43
0.0
 43
1.0
 43
0.0
 43
0.0
 43
0.0
 43
0.0
 43
1.0
 77
     0
 47
0.0008202099737533
 47
0.0
 47
0.0
 47
0.0
 47
0.0
 47
0.0008202099737533
 47
0.0
 47
0.0
 47
0.0
 47
0.0
 47
1.0
 47
0.0
 47
0.0
 47
0.0
 47
0.0
 47
1.0
171
     0
 49
0.0008202099737533
 49
0.0
 49
0.0
 49
0.0
 49
0.0
 49
0.0008202099737533
 49
0.0
 49
0.0
 49
0.0
 49
0.0
 49
1.0
 49
0.0
 49
0.0
 49
0.0
 49
0.0
 49
1.0
175
     0
142
0.0008202099737533
142
0.0
142
0.0
142
0.0
142
0.0
142
0.0008202099737533
142
0.0
142
0.0
142
0.0
142
0.0
142
1.0
142
0.0
142
0.0
142
0.0
142
0.0
142
1.0
179
     0
144
0.0008202099737533
144
0.0
144
0.0
144
0.0
144
0.0
144
0.0008202099737533
144
0.0
144
0.0
144
0.0
144
0.0
144
1.0
144
0.0
144
0.0
144
0.0
144
0.0
144
1.0
147
0.0008202099737533
147
0.0
147
0.0
147
0.0
147
0.0
147
0.0008202099737533
147
0.0
147
0.0
147
0.0
147
0.0
147
1.0
147
0.0
147
0.0
147
0.0
147
0.0
147
1.0
  0
MATERIAL
  5
119DA
102
{ACAD_XDICTIONARY
360
119DB
102
}
102
{ACAD_REACTORS
330
6A
102
}
330
6A
100
AcDbMaterial
  1
ByLayer
 72
     0
 43
0.0008202099737533
 43
0.0
 43
0.0
 43
0.0
 43
0.0
 43
0.0008202099737533
 43
0.0
 43
0.0
 43
0.0
 43
0.0
 43
1.0
 43
0.0
 43
0.0
 43
0.0
 43
0.0
 43
1.0
 77
     0
 47
0.0008202099737533
 47
0.0
 47
0.0
 47
0.0
 47
0.0
 47
0.0008202099737533
 47
0.0
 47
0.0
 47
0.0
 47
0.0
 47
1.0
 47
0.0
 47
0.0
 47
0.0
 47
0.0
 47
1.0
171
     0
 49
0.0008202099737533
 49
0.0
 49
0.0
 49
0.0
 49
0.0
 49
0.0008202099737533
 49
0.0
 49
0.0
 49
0.0
 49
0.0
 49
1.0
 49
0.0
 49
0.0
 49
0.0
 49
0.0
 49
1.0
175
     0
142
0.0008202099737533
142
0.0
142
0.0
142
0.0
142
0.0
142
0.0008202099737533
142
0.0
142
0.0
142
0.0
142
0.0
142
1.0
142
0.0
142
0.0
142
0.0
142
0.0
142
1.0
179
     0
144
0.0008202099737533
144
0.0
144
0.0
144
0.0
144
0.0
144
0.0008202099737533
144
0.0
144
0.0
144
0.0
144
0.0
144
1.0
144
0.0
144
0.0
144
0.0
144
0.0
144
1.0
147
0.0008202099737533
147
0.0
147
0.0
147
0.0
147
0.0
147
0.0008202099737533
147
0.0
147
0.0
147
0.0
147
0.0
147
1.0
147
0.0
147
0.0
147
0.0
147
0.0
147
1.0
  0
MATERIAL
  5
119EA
102
{ACAD_XDICTIONARY
360
119EB
102
}
102
{ACAD_REACTORS
330
6A
102
}
330
6A
100
AcDbMaterial
  1
Global
 72
     0
 43
0.0008202099737533
 43
0.0
 43
0.0
 43
0.0
 43
0.0
 43
0.0008202099737533
 43
0.0
 43
0.0
 43
0.0
 43
0.0
 43
1.0
 43
0.0
 43
0.0
 43
0.0
 43
0.0
 43
1.0
 77
     0
 47
0.0008202099737533
 47
0.0
 47
0.0
 47
0.0
 47
0.0
 47
0.0008202099737533
 47
0.0
 47
0.0
 47
0.0
 47
0.0
 47
1.0
 47
0.0
 47
0.0
 47
0.0
 47
0.0
 47
1.0
171
     0
 49
0.0008202099737533
 49
0.0
 49
0.0
 49
0.0
 49
0.0
 49
0.0008202099737533
 49
0.0
 49
0.0
 49
0.0
 49
0.0
 49
1.0
 49
0.0
 49
0.0
 49
0.0
 49
0.0
 49
1.0
175
     0
142
0.0008202099737533
142
0.0
142
0.0
142
0.0
142
0.0
142
0.0008202099737533
142
0.0
142
0.0
142
0.0
142
0.0
142
1.0
142
0.0
142
0.0
142
0.0
142
0.0
142
1.0
179
     0
144
0.0008202099737533
144
0.0
144
0.0
144
0.0
144
0.0
144
0.0008202099737533
144
0.0
144
0.0
144
0.0
144
0.0
144
1.0
144
0.0
144
0.0
144
0.0
144
0.0
144
1.0
147
0.0008202099737533
147
0.0
147
0.0
147
0.0
147
0.0
147
0.0008202099737533
147
0.0
147
0.0
147
0.0
147
0.0
147
1.0
147
0.0
147
0.0
147
0.0
147
0.0
147
1.0
  0
MLEADERSTYLE
  5
11A16
102
{ACAD_REACTORS
330
11A15
102
}
330
11A15
100
AcDbMLeaderStyle
179
     2
170
     2
171
     1
172
     0
 90
        2
 40
0.0
 41
0.0
173
     1
 91
-1056964608
340
14
 92
       -2
290
     1
 42
2.0
291
     1
 43
0.36
  3
Standard
 44
4.0
300

342
11
174
     1
178
     6
175
     1
176
     0
 93
-1056964608
 45
4.0
292
     0
297
     0
 46
4.0
 94
-1056964608
 47
1.0
 49
1.0
140
1.0
293
     1
141
0.0
294
     1
177
     0
142
1.0
295
     0
296
     0
143
0.125
271
     0
272
     9
273
     9
298
     0
1001
ACAD
1000
AcRTDxfName
1000
MLEADERSTYLE
1000
AcRTDxfName
1000
MLEADERSTYLE
1000
AcRTDxfName
1000
MLEADERSTYLE
  0
MLINESTYLE
  5
18
102
{ACAD_REACTORS
330
17
102
}
330
17
100
AcDbMlineStyle
  2
STANDARD
 70
     0
  3

 62
   256
 51
90.0
 52
90.0
 71
     2
 49
0.5
 62
   256
  6
BYLAYER
 49
-0.5
 62
   256
  6
BYLAYER
  0
ACDBPLACEHOLDER
  5
F
102
{ACAD_REACTORS
330
E
102
}
330
E
  0
SCALE
  5
11A04
102
{ACAD_REACTORS
330
11A03
102
}
330
11A03
100
AcDbScale
 70
     0
300
1:1
140
1.0
141
1.0
290
     1
1001
ACAD
1000
AcRTDxfName
1000
SCALE
1000
AcRTDxfName
1000
SCALE
1000
AcRTDxfName
1000
SCALE
  0
SCALE
  5
11A05
102
{ACAD_REACTORS
330
11A03
102
}
330
11A03
100
AcDbScale
 70
     0
300
1:2
140
1.0
141
2.0
290
     0
1001
ACAD
1000
AcRTDxfName
1000
SCALE
1000
AcRTDxfName
1000
SCALE
1000
AcRTDxfName
1000
SCALE
  0
SCALE
  5
11A06
102
{ACAD_REACTORS
330
11A03
102
}
330
11A03
100
AcDbScale
 70
     0
300
1:4
140
1.0
141
4.0
290
     0
1001
ACAD
1000
AcRTDxfName
1000
SCALE
1000
AcRTDxfName
1000
SCALE
1000
AcRTDxfName
1000
SCALE
  0
SCALE
  5
11A07
102
{ACAD_REACTORS
330
11A03
102
}
330
11A03
100
AcDbScale
 70
     0
300
1:5
140
1.0
141
5.0
290
     0
1001
ACAD
1000
AcRTDxfName
1000
SCALE
1000
AcRTDxfName
1000
SCALE
1000
AcRTDxfName
1000
SCALE
  0
SCALE
  5
11A08
102
{ACAD_REACTORS
330
11A03
102
}
330
11A03
100
AcDbScale
 70
     0
300
1:8
140
1.0
141
8.0
290
     0
1001
ACAD
1000
AcRTDxfName
1000
SCALE
1000
AcRTDxfName
1000
SCALE
1000
AcRTDxfName
1000
SCALE
  0
SCALE
  5
11A09
102
{ACAD_REACTORS
330
11A03
102
}
330
11A03
100
AcDbScale
 70
     0
300
1:10
140
1.0
141
10.0
290
     0
1001
ACAD
1000
AcRTDxfName
1000
SCALE
1000
AcRTDxfName
1000
SCALE
1000
AcRTDxfName
1000
SCALE
  0
SCALE
  5
11A0A
102
{ACAD_REACTORS
330
11A03
102
}
330
11A03
100
AcDbScale
 70
     0
300
1:16
140
1.0
141
16.0
290
     0
1001
ACAD
1000
AcRTDxfName
1000
SCALE
1000
AcRTDxfName
1000
SCALE
1000
AcRTDxfName
1000
SCALE
  0
SCALE
  5
11A0B
102
{ACAD_REACTORS
330
11A03
102
}
330
11A03
100
AcDbScale
 70
     0
300
1:20
140
1.0
141
20.0
290
     0
1001
ACAD
1000
AcRTDxfName
1000
SCALE
1000
AcRTDxfName
1000
SCALE
1000
AcRTDxfName
1000
SCALE
  0
SCALE
  5
11A0C
102
{ACAD_REACTORS
330
11A03
102
}
330
11A03
100
AcDbScale
 70
     0
300
1:30
140
1.0
141
30.0
290
     0
1001
ACAD
1000
AcRTDxfName
1000
SCALE
1000
AcRTDxfName
1000
SCALE
1000
AcRTDxfName
1000
SCALE
  0
SCALE
  5
11A0D
102
{ACAD_REACTORS
330
11A03
102
}
330
11A03
100
AcDbScale
 70
     0
300
1:40
140
1.0
141
40.0
290
     0
1001
ACAD
1000
AcRTDxfName
1000
SCALE
1000
AcRTDxfName
1000
SCALE
1000
AcRTDxfName
1000
SCALE
  0
SCALE
  5
11A0E
102
{ACAD_REACTORS
330
11A03
102
}
330
11A03
100
AcDbScale
 70
     0
300
1:50
140
1.0
141
50.0
290
     0
1001
ACAD
1000
AcRTDxfName
1000
SCALE
1000
AcRTDxfName
1000
SCALE
1000
AcRTDxfName
1000
SCALE
  0
SCALE
  5
11A0F
102
{ACAD_REACTORS
330
11A03
102
}
330
11A03
100
AcDbScale
 70
     0
300
1:100
140
1.0
141
100.0
290
     0
1001
ACAD
1000
AcRTDxfName
1000
SCALE
1000
AcRTDxfName
1000
SCALE
1000
AcRTDxfName
1000
SCALE
  0
SCALE
  5
11A10
102
{ACAD_REACTORS
330
11A03
102
}
330
11A03
100
AcDbScale
 70
     0
300
2:1
140
2.0
141
1.0
290
     0
1001
ACAD
1000
AcRTDxfName
1000
SCALE
1000
AcRTDxfName
1000
SCALE
1000
AcRTDxfName
1000
SCALE
  0
SCALE
  5
11A11
102
{ACAD_REACTORS
330
11A03
102
}
330
11A03
100
AcDbScale
 70
     0
300
4:1
140
4.0
141
1.0
290
     0
1001
ACAD
1000
AcRTDxfName
1000
SCALE
1000
AcRTDxfName
1000
SCALE
1000
AcRTDxfName
1000
SCALE
  0
SCALE
  5
11A12
102
{ACAD_REACTORS
330
11A03
102
}
330
11A03
100
AcDbScale
 70
     0
300
8:1
140
8.0
141
1.0
290
     0
1001
ACAD
1000
AcRTDxfName
1000
SCALE
1000
AcRTDxfName
1000
SCALE
1000
AcRTDxfName
1000
SCALE
  0
SCALE
  5
11A13
102
{ACAD_REACTORS
330
11A03
102
}
330
11A03
100
AcDbScale
 70
     0
300
10:1
140
10.0
141
1.0
290
     0
1001
ACAD
1000
AcRTDxfName
1000
SCALE
1000
AcRTDxfName
1000
SCALE
1000
AcRTDxfName
1000
SCALE
  0
SCALE
  5
11A14
102
{ACAD_REACTORS
330
11A03
102
}
330
11A03
100
AcDbScale
 70
     0
300
100:1
140
100.0
141
1.0
290
     0
1001
ACAD
1000
AcRTDxfName
1000
SCALE
1000
AcRTDxfName
1000
SCALE
1000
AcRTDxfName
1000
SCALE
  0
ACDBSECTIONVIEWSTYLE
  5
12C0C
102
{ACAD_XDICTIONARY
360
13C3E
102
}
102
{ACAD_REACTORS
330
12C0B
102
}
330
12C0B
100
AcDbModelDocViewStyle
 70
     0
  3
Metric50
290
     0
100
AcDbSectionViewStyle
 70
     0
 71
     0
 90
      102
 71
     1
340
11
 62
   256
 40
5.0
340
0
340
0
 62
   256
 40
5.0
300
I, O, Q, S, X, Z
 40
10.0
 90
        0
 40
2.5
 90
        0
 71
     2
340
16
 90
       25
 62
   256
340
16
 90
       50
 62
   256
 40
5.0
 40
2.5
 40
5.0
 71
     3
340
11
 62
   256
 40
5.0
 90
        0
 40
15.0
 90
        1
300
%<\AcVar ViewSectionStartId>%-%<\AcVar ViewSectionEndId>% (%<\AcVar ViewScale \f "%sn">%)
 71
     4
 62
   256
 62
   257
300
ANSI31
 40
1.0
 90
        0
290
     0
290
     0
 90
        6
 40
0.0
 40
1.570796326794896
 40
0.2617993877991494
 40
1.308996938995747
 40
-0.2617993877991494
 40
1.832595714594046
  0
TABLESTYLE
  5
7F
102
{ACAD_XDICTIONARY
360
11B37
102
}
102
{ACAD_REACTORS
330
7E
102
}
330
7E
100
AcDbTableStyle
280
     0
  3
Standard
 70
     0
 71
     0
 40
1.5
 41
1.5
280
     0
281
     0
  7
Standard
140
4.5
170
     2
 62
     0
 63
     7
283
     0
 90
        4
 91
        0
  1

274
    -2
284
     1
 64
     0
275
    -2
285
     1
 65
     0
276
    -2
286
     1
 66
     0
277
    -2
287
     1
 67
     0
278
    -2
288
     1
 68
     0
279
    -2
289
     1
 69
     0
  7
Standard
140
6.0
170
     5
 62
     0
 63
     7
283
     0
 90
        4
 91
        0
  1

274
    -2
284
     1
 64
     0
275
    -2
285
     1
 65
     0
276
    -2
286
     1
 66
     0
277
    -2
287
     1
 67
     0
278
    -2
288
     1
 68
     0
279
    -2
289
     1
 69
     0
  7
Standard
140
4.5
170
     5
 62
     0
 63
     7
283
     0
 90
        4
 91
        0
  1

274
    -2
284
     1
 64
     0
275
    -2
285
     1
 65
     0
276
    -2
286
     1
 66
     0
277
    -2
287
     1
 67
     0
278
    -2
288
     1
 68
     0
279
    -2
289
     1
 69
     0
  0
VISUALSTYLE
  5
119F8
102
{ACAD_REACTORS
330
119F2
102
}
330
119F2
100
AcDbVisualStyle
  2
2dWireframe
 70
     4
177
     3
291
     0
 70
    58
 90
        0
176
     1
 90
        2
176
     1
 90
        0
176
     1
 90
        0
176
     1
 40
0.6
176
     1
 40
30.0
176
     1
 62
     7
176
     1
 90
        1
176
     1
 90
        4
176
     1
 62
     7
176
     1
 62
   257
176
     1
 90
        1
176
     1
 90
        1
176
     1
 40
1.0
176
     1
 90
        0
176
     1
 62
   257
176
     1
 40
1.0
176
     1
 90
        1
176
     1
 90
        6
176
     1
 90
        2
176
     1
 62
     7
176
     1
 90
        5
176
     1
 90
        0
176
     1
 90
        0
176
     1
290
     0
176
     1
 90
        1
176
     1
 40
0.0
176
     1
 90
        0
176
     1
290
     1
176
     1
290
     1
176
     1
290
     0
176
     1
290
     0
176
     1
290
     0
176
     1
290
     0
176
     1
290
     0
176
     1
290
     0
176
     1
290
     0
176
     1
 90
       50
176
     1
 40
0.0
176
     1
 40
1.0
176
     1
 90
        0
176
     1
 62
    18
420
        0
176
     1
 90
       50
176
     1
 90
        3
176
     1
 62
     5
420
      255
176
     1
290
     0
176
     1
 90
       50
176
     1
 90
       50
176
     1
 90
       50
176
     1
290
     0
176
     1
 90
       50
176
     1
 62
   256
176
     0
 40
1.0
176
     0
 90
        2
176
     1
  1
strokes_ogs.tif
176
     1
290
     0
176
     1
 40
1.0
176
     1
 40
1.0
176
     1
1001
ACAD
1000
AcRTDxfName
1000
VISUALSTYLE
1000
AcRTDxfName
1000
VISUALSTYLE
1000
AcRTDxfName
1000
VISUALSTYLE
1000
AcDbSavedByObjectVersion
1070
     0
  0
VISUALSTYLE
  5
119FA
102
{ACAD_REACTORS
330
119F2
102
}
330
119F2
100
AcDbVisualStyle
  2
3D Hidden
 70
     6
177
     3
291
     0
 70
    58
 90
        1
176
     1
 90
        2
176
     1
 90
        2
176
     1
 90
        0
176
     1
 40
0.6
176
     1
 40
30.0
176
     1
 62
     7
176
     1
 90
        2
176
     1
 90
        2
176
     1
 62
     7
176
     1
 62
   257
176
     1
 90
        2
176
     1
 90
        1
176
     1
 40
40.0
176
     1
 90
        0
176
     1
 62
   257
176
     1
 40
1.0
176
     1
 90
        1
176
     1
 90
        6
176
     1
 90
        2
176
     1
 62
     7
176
     1
 90
        3
176
     1
 90
        0
176
     1
 90
        0
176
     1
290
     0
176
     1
 90
        1
176
     1
 40
0.0
176
     1
 90
        0
176
     1
290
     0
176
     1
290
     1
176
     1
290
     1
176
     1
290
     0
176
     1
290
     0
176
     1
290
     0
176
     1
290
     0
176
     1
290
     0
176
     1
290
     0
176
     1
 90
       50
176
     1
 40
0.0
176
     1
 40
1.0
176
     1
 90
        0
176
     1
 62
    18
420
        0
176
     1
 90
       50
176
     1
 90
        3
176
     1
 62
     5
420
      255
176
     1
290
     0
176
     1
 90
       50
176
     1
 90
       50
176
     1
 90
       50
176
     1
290
     0
176
     1
 90
       50
176
     1
 62
   256
176
     0
 40
1.0
176
     0
 90
        2
176
     1
  1
strokes_ogs.tif
176
     1
290
     0
176
     1
 40
1.0
176
     1
 40
1.0
176
     1
1001
ACAD
1000
AcRTDxfName
1000
VISUALSTYLE
1000
AcRTDxfName
1000
VISUALSTYLE
1000
AcRTDxfName
1000
VISUALSTYLE
1000
AcDbSavedByObjectVersion
1070
     0
  0
VISUALSTYLE
  5
119F9
102
{ACAD_REACTORS
330
119F2
102
}
330
119F2
100
AcDbVisualStyle
  2
3dWireframe
 70
     5
177
     3
291
     0
 70
    58
 90
        0
176
     1
 90
        2
176
     1
 90
        0
176
     1
 90
        0
176
     1
 40
0.6
176
     1
 40
30.0
176
     1
 62
     7
176
     1
 90
        1
176
     1
 90
        4
176
     1
 62
     7
176
     1
 62
   257
176
     1
 90
        1
176
     1
 90
        1
176
     1
 40
1.0
176
     1
 90
        0
176
     1
 62
   257
176
     1
 40
1.0
176
     1
 90
        1
176
     1
 90
        6
176
     1
 90
        2
176
     1
 62
     7
176
     1
 90
        5
176
     1
 90
        0
176
     1
 90
        0
176
     1
290
     0
176
     1
 90
        1
176
     1
 40
0.0
176
     1
 90
        0
176
     1
290
     0
176
     1
290
     1
176
     1
290
     1
176
     1
290
     0
176
     1
290
     0
176
     1
290
     0
176
     1
290
     0
176
     1
290
     0
176
     1
290
     0
176
     1
 90
       50
176
     1
 40
0.0
176
     1
 40
1.0
176
     1
 90
        0
176
     1
 62
    18
420
        0
176
     1
 90
       50
176
     1
 90
        3
176
     1
 62
     5
420
      255
176
     1
290
     0
176
     1
 90
       50
176
     1
 90
       50
176
     1
 90
       50
176
     1
290
     0
176
     1
 90
       50
176
     1
 62
   256
176
     0
 40
1.0
176
     0
 90
        2
176
     1
  1
strokes_ogs.tif
176
     1
290
     0
176
     1
 40
1.0
176
     1
 40
1.0
176
     1
1001
ACAD
1000
AcRTDxfName
1000
VISUALSTYLE
1000
AcRTDxfName
1000
VISUALSTYLE
1000
AcRTDxfName
1000
VISUALSTYLE
1000
AcDbSavedByObjectVersion
1070
     0
  0
VISUALSTYLE
  5
119F7
102
{ACAD_REACTORS
330
119F2
102
}
330
119F2
100
AcDbVisualStyle
  2
Basic
 70
     7
177
     3
291
     1
 70
    58
 90
        1
176
     1
 90
        0
176
     1
 90
        1
176
     1
 90
        0
176
     1
 40
0.6
176
     1
 40
30.0
176
     1
 62
     7
176
     1
 90
        0
176
     1
 90
        4
176
     1
 62
     7
176
     1
 62
   257
176
     1
 90
        1
176
     1
 90
        1
176
     1
 40
1.0
176
     1
 90
        8
176
     1
 62
     7
176
     1
 40
1.0
176
     1
 90
        1
176
     1
 90
        6
176
     1
 90
        2
176
     1
 62
     7
176
     1
 90
        5
176
     1
 90
        0
176
     1
 90
        0
176
     1
290
     0
176
     1
 90
        1
176
     1
 40
0.0
176
     1
 90
        0
176
     1
290
     0
176
     1
290
     1
176
     1
290
     1
176
     1
290
     0
176
     1
290
     0
176
     1
290
     0
176
     1
290
     0
176
     1
290
     0
176
     1
290
     0
176
     1
 90
       50
176
     1
 40
0.0
176
     1
 40
1.0
176
     1
 90
        0
176
     1
 62
    18
420
        0
176
     1
 90
       50
176
     1
 90
        3
176
     1
 62
     5
420
      255
176
     1
290
     0
176
     1
 90
       50
176
     1
 90
       50
176
     1
 90
       50
176
     1
290
     0
176
     1
 90
       50
176
     1
 62
   256
176
     0
 40
1.0
176
     0
 90
        2
176
     1
  1
strokes_ogs.tif
176
     1
290
     0
176
     1
 40
1.0
176
     1
 40
1.0
176
     1
1001
ACAD
1000
AcRTDxfName
1000
VISUALSTYLE
1000
AcRTDxfName
1000
VISUALSTYLE
1000
AcRTDxfName
1000
VISUALSTYLE
1000
AcDbSavedByObjectVersion
1070
     0
  0
VISUALSTYLE
  5
119FE
102
{ACAD_REACTORS
330
119F2
102
}
330
119F2
100
AcDbVisualStyle
  2
Brighten
 70
    12
177
     3
291
     1
 70
    58
 90
        2
176
     1
 90
        2
176
     1
 90
        0
176
     1
 90
        0
176
     1
 40
0.6
176
     1
 40
30.0
176
     1
 62
     7
176
     1
 90
        1
176
     1
 90
        4
176
     1
 62
     7
176
     1
 62
   257
176
     1
 90
        1
176
     1
 90
        1
176
     1
 40
1.0
176
     1
 90
        8
176
     1
 62
     7
176
     1
 40
1.0
176
     1
 90
        1
176
     1
 90
        6
176
     1
 90
        2
176
     1
 62
     7
176
     1
 90
        5
176
     1
 90
        0
176
     1
 90
        0
176
     1
290
     0
176
     1
 90
        1
176
     1
 40
50.0
176
     1
 90
        0
176
     1
290
     0
176
     1
290
     1
176
     1
290
     1
176
     1
290
     0
176
     1
290
     0
176
     1
290
     0
176
     1
290
     0
176
     1
290
     0
176
     1
290
     0
176
     1
 90
       50
176
     1
 40
0.0
176
     1
 40
1.0
176
     1
 90
        0
176
     1
 62
    18
420
        0
176
     1
 90
       50
176
     1
 90
        3
176
     1
 62
     5
420
      255
176
     1
290
     0
176
     1
 90
       50
176
     1
 90
       50
176
     1
 90
       50
176
     1
290
     0
176
     1
 90
       50
176
     1
 62
   256
176
     0
 40
1.0
176
     0
 90
        2
176
     1
  1
strokes_ogs.tif
176
     1
290
     0
176
     1
 40
1.0
176
     1
 40
1.0
176
     1
1001
ACAD
1000
AcRTDxfName
1000
VISUALSTYLE
1000
AcRTDxfName
1000
VISUALSTYLE
1000
AcRTDxfName
1000
VISUALSTYLE
1000
AcDbSavedByObjectVersion
1070
     0
  0
VISUALSTYLE
  5
11A02
102
{ACAD_REACTORS
330
119F2
102
}
330
119F2
100
AcDbVisualStyle
  2
ColorChange
 70
    16
177
     3
291
     1
 70
    58
 90
        2
176
     1
 90
        2
176
     1
 90
        3
176
     1
 90
        0
176
     1
 40
0.6
176
     1
 40
30.0
176
     1
 62
     8
176
     1
 90
        1
176
     1
 90
        4
176
     1
 62
     7
176
     1
 62
   257
176
     1
 90
        1
176
     1
 90
        1
176
     1
 40
1.0
176
     1
 90
        8
176
     1
 62
     8
176
     1
 40
1.0
176
     1
 90
        1
176
     1
 90
        6
176
     1
 90
        2
176
     1
 62
     7
176
     1
 90
        5
176
     1
 90
        0
176
     1
 90
        0
176
     1
290
     0
176
     1
 90
        1
176
     1
 40
0.0
176
     1
 90
        0
176
     1
290
     0
176
     1
290
     1
176
     1
290
     1
176
     1
290
     0
176
     1
290
     0
176
     1
290
     0
176
     1
290
     0
176
     1
290
     0
176
     1
290
     0
176
     1
 90
       50
176
     1
 40
0.0
176
     1
 40
1.0
176
     1
 90
        0
176
     1
 62
    18
420
        0
176
     1
 90
       50
176
     1
 90
        3
176
     1
 62
     5
420
      255
176
     1
290
     0
176
     1
 90
       50
176
     1
 90
       50
176
     1
 90
       50
176
     1
290
     0
176
     1
 90
       50
176
     1
 62
   256
176
     0
 40
1.0
176
     0
 90
        2
176
     1
  1
strokes_ogs.tif
176
     1
290
     0
176
     1
 40
1.0
176
     1
 40
1.0
176
     1
1001
ACAD
1000
AcRTDxfName
1000
VISUALSTYLE
1000
AcRTDxfName
1000
VISUALSTYLE
1000
AcRTDxfName
1000
VISUALSTYLE
1000
AcDbSavedByObjectVersion
1070
     0
  0
VISUALSTYLE
  5
119FB
102
{ACAD_REACTORS
330
119F2
102
}
330
119F2
100
AcDbVisualStyle
  2
Conceptual
 70
     9
177
     3
291
     0
 70
    58
 90
        3
176
     1
 90
        2
176
     1
 90
        0
176
     1
 90
        0
176
     1
 40
0.6
176
     1
 40
30.0
176
     1
 62
     7
176
     1
 90
        2
176
     1
 90
        2
176
     1
 62
     7
176
     1
 62
   257
176
     1
 90
        1
176
     1
 90
        1
176
     1
 40
40.0
176
     1
 90
        8
176
     1
 62
     7
176
     1
 40
1.0
176
     1
 90
        1
176
     1
 90
        6
176
     1
 90
        2
176
     1
 62
     7
176
     1
 90
        3
176
     1
 90
        0
176
     1
 90
        0
176
     1
290
     0
176
     1
 90
        1
176
     1
 40
0.0
176
     1
 90
        0
176
     1
290
     0
176
     1
290
     1
176
     1
290
     1
176
     1
290
     0
176
     1
290
     0
176
     1
290
     0
176
     1
290
     0
176
     1
290
     0
176
     1
290
     0
176
     1
 90
       50
176
     1
 40
0.0
176
     1
 40
1.0
176
     1
 90
        0
176
     1
 62
    18
420
        0
176
     1
 90
       50
176
     1
 90
        3
176
     1
 62
     5
420
      255
176
     1
290
     0
176
     1
 90
       50
176
     1
 90
       50
176
     1
 90
       50
176
     1
290
     0
176
     1
 90
       50
176
     1
 62
   256
176
     0
 40
1.0
176
     0
 90
        2
176
     1
  1
strokes_ogs.tif
176
     1
290
     0
176
     1
 40
1.0
176
     1
 40
1.0
176
     1
1001
ACAD
1000
AcRTDxfName
1000
VISUALSTYLE
1000
AcRTDxfName
1000
VISUALSTYLE
1000
AcRTDxfName
1000
VISUALSTYLE
1000
AcDbSavedByObjectVersion
1070
     0
  0
VISUALSTYLE
  5
119FD
102
{ACAD_REACTORS
330
119F2
102
}
330
119F2
100
AcDbVisualStyle
  2
Dim
 70
    11
177
     3
291
     1
 70
    58
 90
        2
176
     1
 90
        2
176
     1
 90
        0
176
     1
 90
        0
176
     1
 40
0.6
176
     1
 40
30.0
176
     1
 62
     7
176
     1
 90
        1
176
     1
 90
        4
176
     1
 62
     7
176
     1
 62
   257
176
     1
 90
        1
176
     1
 90
        1
176
     1
 40
1.0
176
     1
 90
        8
176
     1
 62
     7
176
     1
 40
1.0
176
     1
 90
        1
176
     1
 90
        6
176
     1
 90
        2
176
     1
 62
     7
176
     1
 90
        5
176
     1
 90
        0
176
     1
 90
        0
176
     1
290
     0
176
     1
 90
        1
176
     1
 40
-50.0
176
     1
 90
        0
176
     1
290
     0
176
     1
290
     1
176
     1
290
     1
176
     1
290
     0
176
     1
290
     0
176
     1
290
     0
176
     1
290
     0
176
     1
290
     0
176
     1
290
     0
176
     1
 90
       50
176
     1
 40
0.0
176
     1
 40
1.0
176
     1
 90
        0
176
     1
 62
    18
420
        0
176
     1
 90
       50
176
     1
 90
        3
176
     1
 62
     5
420
      255
176
     1
290
     0
176
     1
 90
       50
176
     1
 90
       50
176
     1
 90
       50
176
     1
290
     0
176
     1
 90
       50
176
     1
 62
   256
176
     0
 40
1.0
176
     0
 90
        2
176
     1
  1
strokes_ogs.tif
176
     1
290
     0
176
     1
 40
1.0
176
     1
 40
1.0
176
     1
1001
ACAD
1000
AcRTDxfName
1000
VISUALSTYLE
1000
AcRTDxfName
1000
VISUALSTYLE
1000
AcRTDxfName
1000
VISUALSTYLE
1000
AcDbSavedByObjectVersion
1070
     0
  0
VISUALSTYLE
  5
12C0A
102
{ACAD_REACTORS
330
119F2
102
}
330
119F2
100
AcDbVisualStyle
  2
EdgeColorOff
 70
    22
177
     3
291
     1
 70
    58
 90
        2
176
     0
 90
        2
176
     0
 90
        0
176
     0
 90
        0
176
     0
 40
0.6
176
     0
 40
30.0
176
     0
 62
     7
420
 16777215
176
     0
 90
        1
176
     0
 90
        4
176
     0
 62
     7
176
     0
 62
   257
176
     0
 90
        1
176
     0
 90
        1
176
     0
 40
1.0
176
     0
 90
        8
176
     2
 62
     7
176
     0
 40
1.0
176
     0
 90
        1
176
     0
 90
        6
176
     0
 90
        2
176
     0
 62
     7
176
     0
 90
        5
176
     0
 90
        0
176
     0
 90
        0
176
     0
290
     0
176
     0
 90
        1
176
     0
 40
0.0
176
     0
 90
        0
176
     0
290
     0
176
     0
290
     1
176
     0
290
     1
176
     0
290
     0
176
     0
290
     0
176
     0
290
     0
176
     0
290
     0
176
     0
290
     0
176
     0
290
     0
176
     0
 90
       50
176
     0
 40
0.0
176
     0
 40
1.0
176
     0
 90
        0
176
     0
 62
    18
420
        0
176
     0
 90
       50
176
     0
 90
        3
176
     0
 62
     5
420
      255
176
     0
290
     0
176
     0
 90
       50
176
     0
 90
       50
176
     0
 90
       50
176
     0
290
     0
176
     0
 90
       50
176
     0
 62
   256
176
     0
 40
1.0
176
     0
 90
        2
176
     0
  1
strokes_ogs.tif
176
     0
290
     0
176
     0
 40
1.0
176
     0
 40
1.0
176
     0
1001
ACAD
1000
AcDbSavedByObjectVersion
1070
     0
  0
VISUALSTYLE
  5
11A01
102
{ACAD_REACTORS
330
119F2
102
}
330
119F2
100
AcDbVisualStyle
  2
Facepattern
 70
    15
177
     3
291
     1
 70
    58
 90
        2
176
     1
 90
        2
176
     1
 90
        0
176
     1
 90
        0
176
     1
 40
0.6
176
     1
 40
30.0
176
     1
 62
     7
176
     1
 90
        1
176
     1
 90
        4
176
     1
 62
     7
176
     1
 62
   257
176
     1
 90
        1
176
     1
 90
        1
176
     1
 40
1.0
176
     1
 90
        8
176
     1
 62
     7
176
     1
 40
1.0
176
     1
 90
        1
176
     1
 90
        6
176
     1
 90
        2
176
     1
 62
     7
176
     1
 90
        5
176
     1
 90
        0
176
     1
 90
        0
176
     1
290
     0
176
     1
 90
        1
176
     1
 40
0.0
176
     1
 90
        0
176
     1
290
     0
176
     1
290
     1
176
     1
290
     1
176
     1
290
     0
176
     1
290
     0
176
     1
290
     0
176
     1
290
     0
176
     1
290
     0
176
     1
290
     0
176
     1
 90
       50
176
     1
 40
0.0
176
     1
 40
1.0
176
     1
 90
        0
176
     1
 62
    18
420
        0
176
     1
 90
       50
176
     1
 90
        3
176
     1
 62
     5
420
      255
176
     1
290
     0
176
     1
 90
       50
176
     1
 90
       50
176
     1
 90
       50
176
     1
290
     0
176
     1
 90
       50
176
     1
 62
   256
176
     0
 40
1.0
176
     0
 90
        2
176
     1
  1
strokes_ogs.tif
176
     1
290
     0
176
     1
 40
1.0
176
     1
 40
1.0
176
     1
1001
ACAD
1000
AcRTDxfName
1000
VISUALSTYLE
1000
AcRTDxfName
1000
VISUALSTYLE
1000
AcRTDxfName
1000
VISUALSTYLE
1000
AcDbSavedByObjectVersion
1070
     0
  0
VISUALSTYLE
  5
119F3
102
{ACAD_REACTORS
330
119F2
102
}
330
119F2
100
AcDbVisualStyle
  2
Flat
 70
     0
177
     3
291
     1
 70
    58
 90
        2
176
     1
 90
        1
176
     1
 90
        1
176
     1
 90
        2
176
     1
 40
0.6
176
     1
 40
30.0
176
     1
 62
     7
176
     1
 90
        0
176
     1
 90
        4
176
     1
 62
     7
176
     1
 62
   257
176
     1
 90
        1
176
     1
 90
        1
176
     1
 40
1.0
176
     1
 90
        8
176
     1
 62
     7
176
     1
 40
1.0
176
     1
 90
        1
176
     1
 90
        6
176
     1
 90
        2
176
     1
 62
     7
176
     1
 90
        5
176
     1
 90
        0
176
     1
 90
        0
176
     1
290
     0
176
     1
 90
       13
176
     1
 40
0.0
176
     1
 90
        0
176
     1
290
     0
176
     1
290
     1
176
     1
290
     1
176
     1
290
     0
176
     1
290
     0
176
     1
290
     0
176
     1
290
     0
176
     1
290
     0
176
     1
290
     0
176
     1
 90
       50
176
     1
 40
0.0
176
     1
 40
1.0
176
     1
 90
        0
176
     1
 62
    18
420
        0
176
     1
 90
       50
176
     1
 90
        3
176
     1
 62
     5
420
      255
176
     1
290
     0
176
     1
 90
       50
176
     1
 90
       50
176
     1
 90
       50
176
     1
290
     0
176
     1
 90
       50
176
     1
 62
   256
176
     0
 40
1.0
176
     0
 90
        2
176
     1
  1
strokes_ogs.tif
176
     1
290
     0
176
     1
 40
1.0
176
     1
 40
1.0
176
     1
1001
ACAD
1000
AcRTDxfName
1000
VISUALSTYLE
1000
AcRTDxfName
1000
VISUALSTYLE
1000
AcRTDxfName
1000
VISUALSTYLE
1000
AcDbSavedByObjectVersion
1070
     0
  0
VISUALSTYLE
  5
119F4
102
{ACAD_REACTORS
330
119F2
102
}
330
119F2
100
AcDbVisualStyle
  2
FlatWithEdges
 70
     1
177
     3
291
     1
 70
    58
 90
        2
176
     1
 90
        1
176
     1
 90
        1
176
     1
 90
        2
176
     1
 40
0.6
176
     1
 40
30.0
176
     1
 62
     7
176
     1
 90
        1
176
     1
 90
        4
176
     1
 62
     7
176
     1
 62
   257
176
     1
 90
        1
176
     1
 90
        1
176
     1
 40
1.0
176
     1
 90
        0
176
     1
 62
   257
176
     1
 40
1.0
176
     1
 90
        1
176
     1
 90
        6
176
     1
 90
        2
176
     1
 62
     7
176
     1
 90
        5
176
     1
 90
        0
176
     1
 90
        0
176
     1
290
     0
176
     1
 90
       13
176
     1
 40
0.0
176
     1
 90
        0
176
     1
290
     0
176
     1
290
     1
176
     1
290
     1
176
     1
290
     0
176
     1
290
     0
176
     1
290
     0
176
     1
290
     0
176
     1
290
     0
176
     1
290
     0
176
     1
 90
       50
176
     1
 40
0.0
176
     1
 40
1.0
176
     1
 90
        0
176
     1
 62
    18
420
        0
176
     1
 90
       50
176
     1
 90
        3
176
     1
 62
     5
420
      255
176
     1
290
     0
176
     1
 90
       50
176
     1
 90
       50
176
     1
 90
       50
176
     1
290
     0
176
     1
 90
       50
176
     1
 62
   256
176
     0
 40
1.0
176
     0
 90
        2
176
     1
  1
strokes_ogs.tif
176
     1
290
     0
176
     1
 40
1.0
176
     1
 40
1.0
176
     1
1001
ACAD
1000
AcRTDxfName
1000
VISUALSTYLE
1000
AcRTDxfName
1000
VISUALSTYLE
1000
AcRTDxfName
1000
VISUALSTYLE
1000
AcDbSavedByObjectVersion
1070
     0
  0
VISUALSTYLE
  5
119F5
102
{ACAD_REACTORS
330
119F2
102
}
330
119F2
100
AcDbVisualStyle
  2
Gouraud
 70
     2
177
     3
291
     1
 70
    58
 90
        2
176
     1
 90
        2
176
     1
 90
        1
176
     1
 90
        2
176
     1
 40
0.6
176
     1
 40
30.0
176
     1
 62
     7
176
     1
 90
        0
176
     1
 90
        4
176
     1
 62
     7
176
     1
 62
   257
176
     1
 90
        1
176
     1
 90
        1
176
     1
 40
1.0
176
     1
 90
        0
176
     1
 62
     7
176
     1
 40
1.0
176
     1
 90
        1
176
     1
 90
        6
176
     1
 90
        2
176
     1
 62
     7
176
     1
 90
        5
176
     1
 90
        0
176
     1
 90
        0
176
     1
290
     0
176
     1
 90
       13
176
     1
 40
0.0
176
     1
 90
        0
176
     1
290
     0
176
     1
290
     1
176
     1
290
     1
176
     1
290
     0
176
     1
290
     0
176
     1
290
     0
176
     1
290
     0
176
     1
290
     0
176
     1
290
     0
176
     1
 90
       50
176
     1
 40
0.0
176
     1
 40
1.0
176
     1
 90
        0
176
     1
 62
    18
420
        0
176
     1
 90
       50
176
     1
 90
        3
176
     1
 62
     5
420
      255
176
     1
290
     0
176
     1
 90
       50
176
     1
 90
       50
176
     1
 90
       50
176
     1
290
     0
176
     1
 90
       50
176
     1
 62
   256
176
     0
 40
1.0
176
     0
 90
        2
176
     1
  1
strokes_ogs.tif
176
     1
290
     0
176
     1
 40
1.0
176
     1
 40
1.0
176
     1
1001
ACAD
1000
AcRTDxfName
1000
VISUALSTYLE
1000
AcRTDxfName
1000
VISUALSTYLE
1000
AcRTDxfName
1000
VISUALSTYLE
1000
AcDbSavedByObjectVersion
1070
     0
  0
VISUALSTYLE
  5
119F6
102
{ACAD_REACTORS
330
119F2
102
}
330
119F2
100
AcDbVisualStyle
  2
GouraudWithEdges
 70
     3
177
     3
291
     1
 70
    58
 90
        2
176
     1
 90
        2
176
     1
 90
        1
176
     1
 90
        2
176
     1
 40
0.6
176
     1
 40
30.0
176
     1
 62
     7
176
     1
 90
        1
176
     1
 90
        4
176
     1
 62
     7
176
     1
 62
   257
176
     1
 90
        1
176
     1
 90
        1
176
     1
 40
1.0
176
     1
 90
        0
176
     1
 62
   257
176
     1
 40
1.0
176
     1
 90
        1
176
     1
 90
        6
176
     1
 90
        2
176
     1
 62
     7
176
     1
 90
        5
176
     1
 90
        0
176
     1
 90
        0
176
     1
290
     0
176
     1
 90
       13
176
     1
 40
0.0
176
     1
 90
        0
176
     1
290
     0
176
     1
290
     1
176
     1
290
     1
176
     1
290
     0
176
     1
290
     0
176
     1
290
     0
176
     1
290
     0
176
     1
290
     0
176
     1
290
     0
176
     1
 90
       50
176
     1
 40
0.0
176
     1
 40
1.0
176
     1
 90
        0
176
     1
 62
    18
420
        0
176
     1
 90
       50
176
     1
 90
        3
176
     1
 62
     5
420
      255
176
     1
290
     0
176
     1
 90
       50
176
     1
 90
       50
176
     1
 90
       50
176
     1
290
     0
176
     1
 90
       50
176
     1
 62
   256
176
     0
 40
1.0
176
     0
 90
        2
176
     1
  1
strokes_ogs.tif
176
     1
290
     0
176
     1
 40
1.0
176
     1
 40
1.0
176
     1
1001
ACAD
1000
AcRTDxfName
1000
VISUALSTYLE
1000
AcRTDxfName
1000
VISUALSTYLE
1000
AcRTDxfName
1000
VISUALSTYLE
1000
AcDbSavedByObjectVersion
1070
     0
  0
VISUALSTYLE
  5
12C02
102
{ACAD_REACTORS
330
119F2
102
}
330
119F2
100
AcDbVisualStyle
  2
Hidden
 70
     6
177
     3
291
     0
 70
    58
 90
        1
176
     1
 90
        2
176
     1
 90
        2
176
     1
 90
        0
176
     1
 40
0.6
176
     1
 40
30.0
176
     1
 62
     7
420
 16777215
176
     1
 90
        2
176
     1
 90
        2
176
     1
 62
     7
176
     1
 62
   257
176
     1
 90
        2
176
     1
 90
        1
176
     1
 40
40.0
176
     1
 90
        0
176
     1
 62
   257
176
     1
 40
1.0
176
     1
 90
        1
176
     1
 90
        6
176
     1
 90
        2
176
     1
 62
     7
176
     1
 90
        3
176
     1
 90
        0
176
     1
 90
        0
176
     1
290
     0
176
     1
 90
        1
176
     1
 40
0.0
176
     1
 90
        0
176
     1
290
     0
176
     1
290
     1
176
     1
290
     1
176
     1
290
     0
176
     1
290
     0
176
     1
290
     0
176
     1
290
     0
176
     1
290
     0
176
     1
290
     0
176
     1
 90
       50
176
     1
 40
0.0
176
     1
 40
1.0
176
     1
 90
        0
176
     1
 62
    18
420
        0
176
     1
 90
       50
176
     1
 90
        3
176
     1
 62
     5
420
      255
176
     1
290
     0
176
     1
 90
       50
176
     1
 90
       50
176
     1
 90
       50
176
     1
290
     0
176
     1
 90
       50
176
     1
 62
   256
176
     0
 40
1.0
176
     0
 90
        2
176
     1
  1
strokes_ogs.tif
176
     1
290
     0
176
     1
 40
1.0
176
     1
 40
1.0
176
     1
1001
ACAD
1000
AcDbSavedByObjectVersion
1070
     0
  0
VISUALSTYLE
  5
12C08
102
{ACAD_REACTORS
330
119F2
102
}
330
119F2
100
AcDbVisualStyle
  2
JitterOff
 70
    20
177
     3
291
     1
 70
    58
 90
        2
176
     0
 90
        2
176
     0
 90
        0
176
     0
 90
        0
176
     0
 40
0.6
176
     0
 40
30.0
176
     0
 62
     7
420
 16777215
176
     0
 90
        1
176
     0
 90
        4
176
     0
 62
     7
176
     0
 62
   257
176
     0
 90
        1
176
     0
 90
        1
176
     0
 40
1.0
176
     0
 90
       10
176
     2
 62
     7
176
     0
 40
1.0
176
     0
 90
        1
176
     0
 90
        6
176
     0
 90
        2
176
     0
 62
     7
176
     0
 90
        5
176
     0
 90
        0
176
     0
 90
        0
176
     0
290
     0
176
     0
 90
        1
176
     0
 40
0.0
176
     0
 90
        0
176
     0
290
     0
176
     0
290
     1
176
     0
290
     1
176
     0
290
     0
176
     0
290
     0
176
     0
290
     0
176
     0
290
     0
176
     0
290
     0
176
     0
290
     0
176
     0
 90
       50
176
     0
 40
0.0
176
     0
 40
1.0
176
     0
 90
        0
176
     0
 62
    18
420
        0
176
     0
 90
       50
176
     0
 90
        3
176
     0
 62
     5
420
      255
176
     0
290
     0
176
     0
 90
       50
176
     0
 90
       50
176
     0
 90
       50
176
     0
290
     0
176
     0
 90
       50
176
     0
 62
   256
176
     0
 40
1.0
176
     0
 90
        2
176
     0
  1
strokes_ogs.tif
176
     0
290
     0
176
     0
 40
1.0
176
     0
 40
1.0
176
     0
1001
ACAD
1000
AcDbSavedByObjectVersion
1070
     0
  0
VISUALSTYLE
  5
11A00
102
{ACAD_REACTORS
330
119F2
102
}
330
119F2
100
AcDbVisualStyle
  2
Linepattern
 70
    14
177
     3
291
     1
 70
    58
 90
        2
176
     1
 90
        2
176
     1
 90
        0
176
     1
 90
        0
176
     1
 40
0.6
176
     1
 40
30.0
176
     1
 62
     7
176
     1
 90
        1
176
     1
 90
        4
176
     1
 62
     7
176
     1
 62
   257
176
     1
 90
        7
176
     1
 90
        7
176
     1
 40
1.0
176
     1
 90
        8
176
     1
 62
     7
176
     1
 40
1.0
176
     1
 90
        1
176
     1
 90
        6
176
     1
 90
        2
176
     1
 62
     7
176
     1
 90
        5
176
     1
 90
        0
176
     1
 90
        0
176
     1
290
     0
176
     1
 90
        1
176
     1
 40
0.0
176
     1
 90
        0
176
     1
290
     0
176
     1
290
     1
176
     1
290
     1
176
     1
290
     0
176
     1
290
     0
176
     1
290
     0
176
     1
290
     0
176
     1
290
     0
176
     1
290
     0
176
     1
 90
       50
176
     1
 40
0.0
176
     1
 40
1.0
176
     1
 90
        0
176
     1
 62
    18
420
        0
176
     1
 90
       50
176
     1
 90
        3
176
     1
 62
     5
420
      255
176
     1
290
     0
176
     1
 90
       50
176
     1
 90
       50
176
     1
 90
       50
176
     1
290
     0
176
     1
 90
       50
176
     1
 62
   256
176
     0
 40
1.0
176
     0
 90
        2
176
     1
  1
strokes_ogs.tif
176
     1
290
     0
176
     1
 40
1.0
176
     1
 40
1.0
176
     1
1001
ACAD
1000
AcRTDxfName
1000
VISUALSTYLE
1000
AcRTDxfName
1000
VISUALSTYLE
1000
AcRTDxfName
1000
VISUALSTYLE
1000
AcDbSavedByObjectVersion
1070
     0
  0
VISUALSTYLE
  5
12C09
102
{ACAD_REACTORS
330
119F2
102
}
330
119F2
100
AcDbVisualStyle
  2
OverhangOff
 70
    21
177
     3
291
     1
 70
    58
 90
        2
176
     0
 90
        2
176
     0
 90
        0
176
     0
 90
        0
176
     0
 40
0.6
176
     0
 40
30.0
176
     0
 62
     7
420
 16777215
176
     0
 90
        1
176
     0
 90
        4
176
     0
 62
     7
176
     0
 62
   257
176
     0
 90
        1
176
     0
 90
        1
176
     0
 40
1.0
176
     0
 90
        9
176
     2
 62
     7
176
     0
 40
1.0
176
     0
 90
        1
176
     0
 90
        6
176
     0
 90
        2
176
     0
 62
     7
176
     0
 90
        5
176
     0
 90
        0
176
     0
 90
        0
176
     0
290
     0
176
     0
 90
        1
176
     0
 40
0.0
176
     0
 90
        0
176
     0
290
     0
176
     0
290
     1
176
     0
290
     1
176
     0
290
     0
176
     0
290
     0
176
     0
290
     0
176
     0
290
     0
176
     0
290
     0
176
     0
290
     0
176
     0
 90
       50
176
     0
 40
0.0
176
     0
 40
1.0
176
     0
 90
        0
176
     0
 62
    18
420
        0
176
     0
 90
       50
176
     0
 90
        3
176
     0
 62
     5
420
      255
176
     0
290
     0
176
     0
 90
       50
176
     0
 90
       50
176
     0
 90
       50
176
     0
290
     0
176
     0
 90
       50
176
     0
 62
   256
176
     0
 40
1.0
176
     0
 90
        2
176
     0
  1
strokes_ogs.tif
176
     0
290
     0
176
     0
 40
1.0
176
     0
 40
1.0
176
     0
1001
ACAD
1000
AcDbSavedByObjectVersion
1070
     0
  0
VISUALSTYLE
  5
119FC
102
{ACAD_REACTORS
330
119F2
102
}
330
119F2
100
AcDbVisualStyle
  2
Realistic
 70
     8
177
     3
291
     0
 70
    58
 90
        2
176
     1
 90
        2
176
     1
 90
        0
176
     1
 90
        0
176
     1
 40
0.6
176
     1
 40
30.0
176
     1
 62
     7
176
     1
 90
        1
176
     1
 90
        0
176
     1
 62
     7
176
     1
 62
   257
176
     1
 90
        1
176
     1
 90
        1
176
     1
 40
1.0
176
     1
 90
        8
176
     1
 62
     8
176
     1
 40
1.0
176
     1
 90
        1
176
     1
 90
        6
176
     1
 90
        2
176
     1
 62
     7
176
     1
 90
        5
176
     1
 90
        0
176
     1
 90
        0
176
     1
290
     0
176
     1
 90
       13
176
     1
 40
0.0
176
     1
 90
        0
176
     1
290
     0
176
     1
290
     1
176
     1
290
     1
176
     1
290
     0
176
     1
290
     0
176
     1
290
     0
176
     1
290
     0
176
     1
290
     0
176
     1
290
     0
176
     1
 90
       50
176
     1
 40
0.0
176
     1
 40
1.0
176
     1
 90
        0
176
     1
 62
    18
420
        0
176
     1
 90
       50
176
     1
 90
        3
176
     1
 62
     5
420
      255
176
     1
290
     0
176
     1
 90
       50
176
     1
 90
       50
176
     1
 90
       50
176
     1
290
     0
176
     1
 90
       50
176
     1
 62
   256
176
     0
 40
1.0
176
     0
 90
        2
176
     1
  1
strokes_ogs.tif
176
     1
290
     0
176
     1
 40
1.0
176
     1
 40
1.0
176
     1
1001
ACAD
1000
AcRTDxfName
1000
VISUALSTYLE
1000
AcRTDxfName
1000
VISUALSTYLE
1000
AcRTDxfName
1000
VISUALSTYLE
1000
AcDbSavedByObjectVersion
1070
     0
  0
VISUALSTYLE
  5
12C07
102
{ACAD_REACTORS
330
119F2
102
}
330
119F2
100
AcDbVisualStyle
  2
Shaded
 70
    27
177
     3
291
     0
 70
    58
 90
        2
176
     1
 90
        2
176
     1
 90
        1
176
     1
 90
        2
176
     1
 40
0.6
176
     1
 40
30.0
176
     1
 62
     7
420
 16777215
176
     1
 90
        0
176
     1
 90
        4
176
     1
 62
     7
176
     1
 62
   257
176
     1
 90
        1
176
     1
 90
        1
176
     1
 40
1.0
176
     1
 90
        8
176
     1
 62
   257
176
     1
 40
1.0
176
     1
 90
        1
176
     1
 90
        6
176
     1
 90
        2
176
     1
 62
     8
420
  7895160
176
     1
 90
        3
176
     1
 90
        0
176
     1
 90
        0
176
     1
290
     0
176
     1
 90
        5
176
     1
 40
0.0
176
     1
 90
        0
176
     1
290
     0
176
     1
290
     1
176
     1
290
     1
176
     1
290
     0
176
     1
290
     0
176
     1
290
     0
176
     1
290
     0
176
     1
290
     0
176
     1
290
     0
176
     1
 90
       50
176
     1
 40
0.0
176
     1
 40
1.0
176
     1
 90
        0
176
     1
 62
    18
420
        0
176
     1
 90
       50
176
     1
 90
        3
176
     1
 62
     5
420
      255
176
     1
290
     0
176
     1
 90
       50
176
     1
 90
       50
176
     1
 90
       50
176
     1
290
     0
176
     1
 90
       50
176
     1
 62
   256
176
     0
 40
1.0
176
     0
 90
        2
176
     1
  1
strokes_ogs.tif
176
     1
290
     0
176
     1
 40
1.0
176
     1
 40
1.0
176
     1
1001
ACAD
1000
AcDbSavedByObjectVersion
1070
     0
  0
VISUALSTYLE
  5
12C06
102
{ACAD_REACTORS
330
119F2
102
}
330
119F2
100
AcDbVisualStyle
  2
Shaded with edges
 70
    26
177
     3
291
     0
 70
    58
 90
        2
176
     1
 90
        2
176
     1
 90
        1
176
     1
 90
        2
176
     1
 40
0.6
176
     1
 40
30.0
176
     1
 62
     7
420
 16777215
176
     1
 90
        1
176
     1
 90
        2
176
     1
 62
     7
176
     1
 62
   257
176
     1
 90
        2
176
     1
 90
        1
176
     1
 40
1.0
176
     1
 90
        8
176
     1
 62
   257
176
     1
 40
1.0
176
     1
 90
        1
176
     1
 90
        6
176
     1
 90
        2
176
     1
 62
     7
176
     1
 90
        3
176
     1
 90
        0
176
     1
 90
        0
176
     1
290
     0
176
     1
 90
        5
176
     1
 40
0.0
176
     1
 90
        0
176
     1
290
     0
176
     1
290
     1
176
     1
290
     1
176
     1
290
     0
176
     1
290
     0
176
     1
290
     0
176
     1
290
     0
176
     1
290
     0
176
     1
290
     0
176
     1
 90
       50
176
     1
 40
0.0
176
     1
 40
1.0
176
     1
 90
        0
176
     1
 62
    18
420
        0
176
     1
 90
       50
176
     1
 90
        3
176
     1
 62
     5
420
      255
176
     1
290
     0
176
     1
 90
       50
176
     1
 90
       50
176
     1
 90
       50
176
     1
290
     0
176
     1
 90
       50
176
     1
 62
   256
176
     0
 40
1.0
176
     0
 90
        2
176
     1
  1
strokes_ogs.tif
176
     1
290
     0
176
     1
 40
1.0
176
     1
 40
1.0
176
     1
1001
ACAD
1000
AcDbSavedByObjectVersion
1070
     0
  0
VISUALSTYLE
  5
12C03
102
{ACAD_REACTORS
330
119F2
102
}
330
119F2
100
AcDbVisualStyle
  2
Shades of Gray
 70
    23
177
     3
291
     0
 70
    58
 90
        2
176
     1
 90
        2
176
     1
 90
        3
176
     1
 90
        0
176
     1
 40
0.6
176
     1
 40
30.0
176
     1
 62
     7
420
 16777215
176
     1
 90
        2
176
     1
 90
        2
176
     1
 62
     7
176
     1
 62
     7
176
     1
 90
        1
176
     1
 90
        1
176
     1
 40
40.0
176
     1
 90
        8
176
     1
 62
     7
176
     1
 40
1.0
176
     1
 90
        1
176
     1
 90
        6
176
     1
 90
        2
176
     1
 62
     7
176
     1
 90
        3
176
     1
 90
        0
176
     1
 90
        0
176
     1
290
     0
176
     1
 90
        1
176
     1
 40
0.0
176
     1
 90
        0
176
     1
290
     0
176
     1
290
     1
176
     1
290
     1
176
     1
290
     0
176
     1
290
     0
176
     1
290
     0
176
     1
290
     0
176
     1
290
     0
176
     1
290
     0
176
     1
 90
       50
176
     1
 40
0.0
176
     1
 40
1.0
176
     1
 90
        0
176
     1
 62
    18
420
        0
176
     1
 90
       50
176
     1
 90
        3
176
     1
 62
     5
420
      255
176
     1
290
     0
176
     1
 90
       50
176
     1
 90
       50
176
     1
 90
       50
176
     1
290
     0
176
     1
 90
       50
176
     1
 62
   256
176
     0
 40
1.0
176
     0
 90
        2
176
     1
  1
strokes_ogs.tif
176
     1
290
     0
176
     1
 40
1.0
176
     1
 40
1.0
176
     1
1001
ACAD
1000
AcDbSavedByObjectVersion
1070
     0
  0
VISUALSTYLE
  5
12C04
102
{ACAD_REACTORS
330
119F2
102
}
330
119F2
100
AcDbVisualStyle
  2
Sketchy
 70
    24
177
     3
291
     0
 70
    58
 90
        1
176
     1
 90
        2
176
     1
 90
        2
176
     1
 90
        0
176
     1
 40
0.6
176
     1
 40
30.0
176
     1
 62
     7
420
 16777215
176
     1
 90
        2
176
     1
 90
        2
176
     1
 62
     7
176
     1
 62
     7
176
     1
 90
        1
176
     1
 90
        1
176
     1
 40
40.0
176
     1
 90
       11
176
     1
 62
     7
176
     1
 40
1.0
176
     1
 90
        1
176
     1
 90
        6
176
     1
 90
        2
176
     1
 62
     7
176
     1
 90
        6
176
     1
 90
        0
176
     1
 90
        0
176
     1
290
     0
176
     1
 90
        1
176
     1
 40
0.0
176
     1
 90
        0
176
     1
290
     0
176
     1
290
     1
176
     1
290
     1
176
     1
290
     0
176
     1
290
     0
176
     1
290
     0
176
     1
290
     0
176
     1
290
     0
176
     1
290
     0
176
     1
 90
       50
176
     1
 40
0.0
176
     1
 40
1.0
176
     1
 90
        0
176
     1
 62
    18
420
        0
176
     1
 90
       50
176
     1
 90
        3
176
     1
 62
     5
420
      255
176
     1
290
     0
176
     1
 90
       50
176
     1
 90
       50
176
     1
 90
       50
176
     1
290
     0
176
     1
 90
       50
176
     1
 62
   256
176
     0
 40
1.0
176
     0
 90
        2
176
     1
  1
strokes_ogs.tif
176
     1
290
     0
176
     1
 40
1.0
176
     1
 40
1.0
176
     1
1001
ACAD
1000
AcDbSavedByObjectVersion
1070
     0
  0
VISUALSTYLE
  5
119FF
102
{ACAD_REACTORS
330
119F2
102
}
330
119F2
100
AcDbVisualStyle
  2
Thicken
 70
    13
177
     3
291
     1
 70
    58
 90
        2
176
     1
 90
        2
176
     1
 90
        0
176
     1
 90
        0
176
     1
 40
0.6
176
     1
 40
30.0
176
     1
 62
     7
176
     1
 90
        1
176
     1
 90
        4
176
     1
 62
     7
176
     1
 62
   257
176
     1
 90
        1
176
     1
 90
        1
176
     1
 40
1.0
176
     1
 90
       12
176
     1
 62
     7
176
     1
 40
1.0
176
     1
 90
        1
176
     1
 90
        6
176
     1
 90
        2
176
     1
 62
     7
176
     1
 90
        5
176
     1
 90
        0
176
     1
 90
        0
176
     1
290
     0
176
     1
 90
        1
176
     1
 40
0.0
176
     1
 90
        0
176
     1
290
     0
176
     1
290
     1
176
     1
290
     1
176
     1
290
     0
176
     1
290
     0
176
     1
290
     0
176
     1
290
     0
176
     1
290
     0
176
     1
290
     0
176
     1
 90
       50
176
     1
 40
0.0
176
     1
 40
1.0
176
     1
 90
        0
176
     1
 62
    18
420
        0
176
     1
 90
       50
176
     1
 90
        3
176
     1
 62
     5
420
      255
176
     1
290
     0
176
     1
 90
       50
176
     1
 90
       50
176
     1
 90
       50
176
     1
290
     0
176
     1
 90
       50
176
     1
 62
   256
176
     0
 40
1.0
176
     0
 90
        2
176
     1
  1
strokes_ogs.tif
176
     1
290
     0
176
     1
 40
1.0
176
     1
 40
1.0
176
     1
1001
ACAD
1000
AcRTDxfName
1000
VISUALSTYLE
1000
AcRTDxfName
1000
VISUALSTYLE
1000
AcRTDxfName
1000
VISUALSTYLE
1000
AcDbSavedByObjectVersion
1070
     0
  0
VISUALSTYLE
  5
12C01
102
{ACAD_REACTORS
330
119F2
102
}
330
119F2
100
AcDbVisualStyle
  2
Wireframe
 70
     5
177
     3
291
     0
 70
    58
 90
        0
176
     1
 90
        2
176
     1
 90
        0
176
     1
 90
        0
176
     1
 40
0.6
176
     1
 40
30.0
176
     1
 62
     7
420
 16777215
176
     1
 90
        1
176
     1
 90
        4
176
     1
 62
     7
176
     1
 62
   257
176
     1
 90
        1
176
     1
 90
        1
176
     1
 40
1.0
176
     1
 90
        0
176
     1
 62
   257
176
     1
 40
1.0
176
     1
 90
        1
176
     1
 90
        6
176
     1
 90
        2
176
     1
 62
     7
176
     1
 90
        3
176
     1
 90
        0
176
     1
 90
        0
176
     1
290
     0
176
     1
 90
        1
176
     1
 40
0.0
176
     1
 90
        0
176
     1
290
     0
176
     1
290
     1
176
     1
290
     1
176
     1
290
     0
176
     1
290
     0
176
     1
290
     0
176
     1
290
     0
176
     1
290
     0
176
     1
290
     0
176
     1
 90
       50
176
     1
 40
0.0
176
     1
 40
1.0
176
     1
 90
        0
176
     1
 62
    18
420
        0
176
     1
 90
       50
176
     1
 90
        3
176
     1
 62
     5
420
      255
176
     1
290
     0
176
     1
 90
       50
176
     1
 90
       50
176
     1
 90
       50
176
     1
290
     0
176
     1
 90
       50
176
     1
 62
   256
176
     0
 40
1.0
176
     0
 90
        2
176
     1
  1
strokes_ogs.tif
176
     1
290
     0
176
     1
 40
1.0
176
     1
 40
1.0
176
     1
1001
ACAD
1000
AcDbSavedByObjectVersion
1070
     0
  0
VISUALSTYLE
  5
12C05
102
{ACAD_REACTORS
330
119F2
102
}
330
119F2
100
AcDbVisualStyle
  2
X-Ray
 70
    25
177
     3
291
     0
 70
    58
 90
        2
176
     1
 90
        2
176
     1
 90
        1
176
     1
 90
        1
176
     1
 40
0.5
176
     1
 40
30.0
176
     1
 62
     7
420
 16777215
176
     1
 90
        1
176
     1
 90
        0
176
     1
 62
     7
176
     1
 62
   257
176
     1
 90
        1
176
     1
 90
        1
176
     1
 40
1.0
176
     1
 90
        8
176
     1
 62
     7
176
     1
 40
1.0
176
     1
 90
        1
176
     1
 90
        6
176
     1
 90
        2
176
     1
 62
     7
176
     1
 90
        3
176
     1
 90
        0
176
     1
 90
        0
176
     1
290
     0
176
     1
 90
       13
176
     1
 40
0.0
176
     1
 90
        0
176
     1
290
     0
176
     1
290
     1
176
     1
290
     1
176
     1
290
     0
176
     1
290
     0
176
     1
290
     0
176
     1
290
     0
176
     1
290
     0
176
     1
290
     0
176
     1
 90
       50
176
     1
 40
0.0
176
     1
 40
1.0
176
     1
 90
        0
176
     1
 62
    18
420
        0
176
     1
 90
       50
176
     1
 90
        3
176
     1
 62
     5
420
      255
176
     1
290
     0
176
     1
 90
       50
176
     1
 90
       50
176
     1
 90
       50
176
     1
290
     0
176
     1
 90
       50
176
     1
 62
   256
176
     0
 40
1.0
176
     0
 90
        2
176
     1
  1
strokes_ogs.tif
176
     1
290
     0
176
     1
 40
1.0
176
     1
 40
1.0
176
     1
1001
ACAD
1000
AcDbSavedByObjectVersion
1070
     0
  0
DICTIONARYVAR
  5
11B4B
102
{ACAD_REACTORS
330
5E
102
}
330
5E
100
DictionaryVariables
280
     0
  1
1:1
  0
DICTIONARYVAR
  5
11B4A
102
{ACAD_REACTORS
330
5E
102
}
330
5E
100
DictionaryVariables
280
     0
  1
STANDARD
  0
DICTIONARYVAR
  5
84
102
{ACAD_REACTORS
330
5E
102
}
330
5E
100
DictionaryVariables
280
     0
  1
STANDARD
  0
DICTIONARYVAR
  5
13A00
102
{ACAD_REACTORS
330
5E
102
}
330
5E
100
DictionaryVariables
280
     0
  1
Metric50
  0
DICTIONARYVAR
  5
13A01
102
{ACAD_REACTORS
330
5E
102
}
330
5E
100
DictionaryVariables
280
     0
  1
Metric50
  0
DICTIONARYVAR
  5
5F
102
{ACAD_REACTORS
330
5E
102
}
330
5E
100
DictionaryVariables
280
     0
  1
2
  0
DICTIONARYVAR
  5
63
102
{ACAD_REACTORS
330
5E
102
}
330
5E
100
DictionaryVariables
280
     0
  1
1
  0
DICTIONARYVAR
  5
11B4D
102
{ACAD_REACTORS
330
5E
102
}
330
5E
100
DictionaryVariables
280
     0
  1
0
  0
DICTIONARYVAR
  5
13A04
102
{ACAD_REACTORS
330
5E
102
}
330
5E
100
DictionaryVariables
280
     0
  1
1
  0
DICTIONARYVAR
  5
13A05
102
{ACAD_REACTORS
330
5E
102
}
330
5E
100
DictionaryVariables
280
     0
  1
15
  0
DICTIONARYVAR
  5
13A03
102
{ACAD_REACTORS
330
5E
102
}
330
5E
100
DictionaryVariables
280
     0
  1
0
  0
DICTIONARYVAR
  5
13A02
102
{ACAD_REACTORS
330
5E
102
}
330
5E
100
DictionaryVariables
280
     0
  1
0
  0
DICTIONARYVAR
  5
12126
102
{ACAD_REACTORS
330
5E
102
}
330
5E
100
DictionaryVariables
280
     0
  1

  0
DICTIONARYVAR
  5
11B4C
102
{ACAD_REACTORS
330
5E
102
}
330
5E
100
DictionaryVariables
280
     0
  1
127
  0
DICTIONARY
  5
13C3D
102
{ACAD_REACTORS
330
13C3B
102
}
330
13C3B
100
AcDbDictionary
281
     1
  0
DICTIONARY
  5
13C3C
102
{ACAD_REACTORS
330
13C3B
102
}
330
13C3B
100
AcDbDictionary
281
     1
  3
2505073073888
350
13C36
  3
2505073073904
350
13C37
  3
2505073073920
350
13C38
  3
2505073073936
350
13C39
  3
2505073073952
350
13C3A
  0
DICTIONARY
  5
13C40
330
12C0E
100
AcDbDictionary
280
     1
281
     1
  3
ACAD_XREC_ROUNDTRIP
360
13C41
  0
DICTIONARY
  5
79B
330
78E
100
AcDbDictionary
280
     1
281
     1
  0
DICTIONARY
  5
119E3
330
119E2
100
AcDbDictionary
280
     1
281
     1
  3
BUMPTILE
360
119E5
  3
DIFFUSETILE
360
119E4
  3
OPACITYTILE
360
119E8
  3
REFLECTIONTILE
360
119E7
  3
REFRACTIONTILE
360
119E9
  3
SPECULARTILE
360
119E6
  0
DICTIONARY
  5
119DB
330
119DA
100
AcDbDictionary
280
     1
281
     1
  3
BUMPTILE
360
119DD
  3
DIFFUSETILE
360
119DC
  3
OPACITYTILE
360
119E0
  3
REFLECTIONTILE
360
119DF
  3
REFRACTIONTILE
360
119E1
  3
SPECULARTILE
360
119DE
  0
DICTIONARY
  5
119EB
330
119EA
100
AcDbDictionary
280
     1
281
     1
  3
BUMPTILE
360
119ED
  3
DIFFUSETILE
360
119EC
  3
OPACITYTILE
360
119F0
  3
REFLECTIONTILE
360
119EF
  3
REFRACTIONTILE
360
119F1
  3
SPECULARTILE
360
119EE
  0
DICTIONARY
  5
13C3E
330
12C0C
100
AcDbDictionary
280
     1
281
     1
  3
ACAD_XREC_ROUNDTRIP
360
13C3F
  0
DICTIONARY
  5
11B37
330
7F
100
AcDbDictionary
280
     1
281
     1
  3
ACAD_ROUNDTRIP_2008_TABLESTYLE_CELLSTYLEMAP
360
13C34
  0
XRECORD
  5
13C36
102
{ACAD_REACTORS
330
13C3C
102
}
330
13C3C
100
AcDbXrecord
280
     1
  1
AcDb_Thumbnail_Schema
102
{ATTRRECORD
341
13C37
  2
AcDbDs::TreatedAsObjectData
280
     1
291
     1
102
ATTRRECORD}
102
{ATTRRECORD
341
13C38
  2
AcDbDs::Legacy
280
     1
291
     1
102
ATTRRECORD}
  2
AcDbDs::ID
280
    10
 91
        8
102
{ATTRRECORD
341
13C39
  2
AcDs:Indexable
280
     1
291
     1
102
ATTRRECORD}
102
{ATTRRECORD
341
13C3A
  2
AcDbDs::HandleAttribute
280
     7
282
     1
102
ATTRRECORD}
  2
Thumbnail_Data
280
    15
 91
        0
  0
XRECORD
  5
13C37
102
{ACAD_REACTORS
330
13C3C
102
}
330
13C3C
100
AcDbXrecord
280
     1
  1
AcDbDs::TreatedAsObjectDataSchema
  2
AcDbDs::TreatedAsObjectData
280
     1
 91
        0
  0
XRECORD
  5
13C38
102
{ACAD_REACTORS
330
13C3C
102
}
330
13C3C
100
AcDbXrecord
280
     1
  1
AcDbDs::LegacySchema
  2
AcDbDs::Legacy
280
     1
 91
        0
  0
XRECORD
  5
13C39
102
{ACAD_REACTORS
330
13C3C
102
}
330
13C3C
100
AcDbXrecord
280
     1
  1
AcDbDs::IndexedPropertySchema
  2
AcDs:Indexable
280
     1
 91
        0
  0
XRECORD
  5
13C3A
102
{ACAD_REACTORS
330
13C3C
102
}
330
13C3C
100
AcDbXrecord
280
     1
  1
AcDbDs::HandleAttributeSchema
  2
AcDbDs::HandleAttribute
280
     7
 91
        1
284
     1
  0
XRECORD
  5
13C41
102
{ACAD_REACTORS
330
13C40
102
}
330
13C40
100
AcDbXrecord
280
     1
102
DISPLAYNAME
  1
Metric50
102
FLAGS
 90
        0
  0
XRECORD
  5
119E5
102
{ACAD_REACTORS
330
119E3
102
}
330
119E3
100
AcDbXrecord
280
     1
270
     1
271
     1
  0
XRECORD
  5
119E4
102
{ACAD_REACTORS
330
119E3
102
}
330
119E3
100
AcDbXrecord
280
     1
270
     1
271
     1
  0
XRECORD
  5
119E8
102
{ACAD_REACTORS
330
119E3
102
}
330
119E3
100
AcDbXrecord
280
     1
270
     1
271
     1
  0
XRECORD
  5
119E7
102
{ACAD_REACTORS
330
119E3
102
}
330
119E3
100
AcDbXrecord
280
     1
270
     1
271
     1
  0
XRECORD
  5
119E9
102
{ACAD_REACTORS
330
119E3
102
}
330
119E3
100
AcDbXrecord
280
     1
270
     1
271
     1
  0
XRECORD
  5
119E6
102
{ACAD_REACTORS
330
119E3
102
}
330
119E3
100
AcDbXrecord
280
     1
270
     1
271
     1
  0
XRECORD
  5
119DD
102
{ACAD_REACTORS
330
119DB
102
}
330
119DB
100
AcDbXrecord
280
     1
270
     1
271
     1
  0
XRECORD
  5
119DC
102
{ACAD_REACTORS
330
119DB
102
}
330
119DB
100
AcDbXrecord
280
     1
270
     1
271
     1
  0
XRECORD
  5
119E0
102
{ACAD_REACTORS
330
119DB
102
}
330
119DB
100
AcDbXrecord
280
     1
270
     1
271
     1
  0
XRECORD
  5
119DF
102
{ACAD_REACTORS
330
119DB
102
}
330
119DB
100
AcDbXrecord
280
     1
270
     1
271
     1
  0
XRECORD
  5
119E1
102
{ACAD_REACTORS
330
119DB
102
}
330
119DB
100
AcDbXrecord
280
     1
270
     1
271
     1
  0
XRECORD
  5
119DE
102
{ACAD_REACTORS
330
119DB
102
}
330
119DB
100
AcDbXrecord
280
     1
270
     1
271
     1
  0
XRECORD
  5
119ED
102
{ACAD_REACTORS
330
119EB
102
}
330
119EB
100
AcDbXrecord
280
     1
270
     1
271
     1
  0
XRECORD
  5
119EC
102
{ACAD_REACTORS
330
119EB
102
}
330
119EB
100
AcDbXrecord
280
     1
270
     1
271
     1
  0
XRECORD
  5
119F0
102
{ACAD_REACTORS
330
119EB
102
}
330
119EB
100
AcDbXrecord
280
     1
270
     1
271
     1
  0
XRECORD
  5
119EF
102
{ACAD_REACTORS
330
119EB
102
}
330
119EB
100
AcDbXrecord
280
     1
270
     1
271
     1
  0
XRECORD
  5
119F1
102
{ACAD_REACTORS
330
119EB
102
}
330
119EB
100
AcDbXrecord
280
     1
270
     1
271
     1
  0
XRECORD
  5
119EE
102
{ACAD_REACTORS
330
119EB
102
}
330
119EB
100
AcDbXrecord
280
     1
270
     1
271
     1
  0
XRECORD
  5
13C3F
102
{ACAD_REACTORS
330
13C3E
102
}
330
13C3E
100
AcDbXrecord
280
     1
102
DISPLAYNAME
  1
Metric50
102
FLAGS
 90
        0
  0
CELLSTYLEMAP
  5
13C34
102
{ACAD_REACTORS
330
11B37
102
}
330
11B37
100
AcDbCellStyleMap
 90
        3
300
CELLSTYLE
  1
TABLEFORMAT_BEGIN
 90
        5
170
     1
 91
        0
 92
    32768
 62
   257
 93
        1
300
CONTENTFORMAT
  1
CONTENTFORMAT_BEGIN
 90
        0
 91
        0
 92
        4
 93
        0
300

 40
0.0
140
1.0
 94
        5
 62
     0
340
11
144
6.0
309
CONTENTFORMAT_END
171
     1
301
MARGIN
  1
CELLMARGIN_BEGIN
 40
1.5
 40
1.5
 40
1.5
 40
1.5
 40
0.18
 40
0.18
309
CELLMARGIN_END
 94
        6
 95
        1
302
GRIDFORMAT
  1
GRIDFORMAT_BEGIN
 90
        0
 91
        1
 62
     0
 92
       -2
340
0
 93
        0
 40
0.045
309
GRIDFORMAT_END
 95
        2
302
GRIDFORMAT
  1
GRIDFORMAT_BEGIN
 90
        0
 91
        1
 62
     0
 92
       -2
340
0
 93
        0
 40
0.045
309
GRIDFORMAT_END
 95
        4
302
GRIDFORMAT
  1
GRIDFORMAT_BEGIN
 90
        0
 91
        1
 62
     0
 92
       -2
340
0
 93
        0
 40
0.045
309
GRIDFORMAT_END
 95
        8
302
GRIDFORMAT
  1
GRIDFORMAT_BEGIN
 90
        0
 91
        1
 62
     0
 92
       -2
340
0
 93
        0
 40
0.045
309
GRIDFORMAT_END
 95
       16
302
GRIDFORMAT
  1
GRIDFORMAT_BEGIN
 90
        0
 91
        1
 62
     0
 92
       -2
340
0
 93
        0
 40
0.045
309
GRIDFORMAT_END
 95
       32
302
GRIDFORMAT
  1
GRIDFORMAT_BEGIN
 90
        0
 91
        1
 62
     0
 92
       -2
340
0
 93
        0
 40
0.045
309
GRIDFORMAT_END
309
TABLEFORMAT_END
  1
CELLSTYLE_BEGIN
 90
        1
 91
        1
300
_TITLE
309
CELLSTYLE_END
300
CELLSTYLE
  1
TABLEFORMAT_BEGIN
 90
        5
170
     1
 91
        0
 92
        0
 62
   257
 93
        1
300
CONTENTFORMAT
  1
CONTENTFORMAT_BEGIN
 90
        0
 91
        0
 92
        4
 93
        0
300

 40
0.0
140
1.0
 94
        5
 62
     0
340
11
144
4.5
309
CONTENTFORMAT_END
171
     1
301
MARGIN
  1
CELLMARGIN_BEGIN
 40
1.5
 40
1.5
 40
1.5
 40
1.5
 40
0.18
 40
0.18
309
CELLMARGIN_END
 94
        6
 95
        1
302
GRIDFORMAT
  1
GRIDFORMAT_BEGIN
 90
        0
 91
        1
 62
     0
 92
       -2
340
0
 93
        0
 40
0.045
309
GRIDFORMAT_END
 95
        2
302
GRIDFORMAT
  1
GRIDFORMAT_BEGIN
 90
        0
 91
        1
 62
     0
 92
       -2
340
0
 93
        0
 40
0.045
309
GRIDFORMAT_END
 95
        4
302
GRIDFORMAT
  1
GRIDFORMAT_BEGIN
 90
        0
 91
        1
 62
     0
 92
       -2
340
0
 93
        0
 40
0.045
309
GRIDFORMAT_END
 95
        8
302
GRIDFORMAT
  1
GRIDFORMAT_BEGIN
 90
        0
 91
        1
 62
     0
 92
       -2
340
0
 93
        0
 40
0.045
309
GRIDFORMAT_END
 95
       16
302
GRIDFORMAT
  1
GRIDFORMAT_BEGIN
 90
        0
 91
        1
 62
     0
 92
       -2
340
0
 93
        0
 40
0.045
309
GRIDFORMAT_END
 95
       32
302
GRIDFORMAT
  1
GRIDFORMAT_BEGIN
 90
        0
 91
        1
 62
     0
 92
       -2
340
0
 93
        0
 40
0.045
309
GRIDFORMAT_END
309
TABLEFORMAT_END
  1
CELLSTYLE_BEGIN
 90
        2
 91
        1
300
_HEADER
309
CELLSTYLE_END
300
CELLSTYLE
  1
TABLEFORMAT_BEGIN
 90
        5
170
     1
 91
        0
 92
        0
 62
   257
 93
        1
300
CONTENTFORMAT
  1
CONTENTFORMAT_BEGIN
 90
        0
 91
        0
 92
        4
 93
        0
300

 40
0.0
140
1.0
 94
        2
 62
     0
340
11
144
4.5
309
CONTENTFORMAT_END
171
     1
301
MARGIN
  1
CELLMARGIN_BEGIN
 40
1.5
 40
1.5
 40
1.5
 40
1.5
 40
0.18
 40
0.18
309
CELLMARGIN_END
 94
        6
 95
        1
302
GRIDFORMAT
  1
GRIDFORMAT_BEGIN
 90
        0
 91
        1
 62
     0
 92
       -2
340
0
 93
        0
 40
0.045
309
GRIDFORMAT_END
 95
        2
302
GRIDFORMAT
  1
GRIDFORMAT_BEGIN
 90
        0
 91
        1
 62
     0
 92
       -2
340
0
 93
        0
 40
0.045
309
GRIDFORMAT_END
 95
        4
302
GRIDFORMAT
  1
GRIDFORMAT_BEGIN
 90
        0
 91
        1
 62
     0
 92
       -2
340
0
 93
        0
 40
0.045
309
GRIDFORMAT_END
 95
        8
302
GRIDFORMAT
  1
GRIDFORMAT_BEGIN
 90
        0
 91
        1
 62
     0
 92
       -2
340
0
 93
        0
 40
0.045
309
GRIDFORMAT_END
 95
       16
302
GRIDFORMAT
  1
GRIDFORMAT_BEGIN
 90
        0
 91
        1
 62
     0
 92
       -2
340
0
 93
        0
 40
0.045
309
GRIDFORMAT_END
 95
       32
302
GRIDFORMAT
  1
GRIDFORMAT_BEGIN
 90
        0
 91
        1
 62
     0
 92
       -2
340
0
 93
        0
 40
0.045
309
GRIDFORMAT_END
309
TABLEFORMAT_END
  1
CELLSTYLE_BEGIN
 90
        3
 91
        2
300
_DATA
309
CELLSTYLE_END
  0
ENDSEC
  0
SECTION
  2
ACDSDATA
 70
     2
 71
     8
  0
ACDSSCHEMA
 90
        0
  1
AcDb_Thumbnail_Schema
  2
AcDbDs::ID
280
    10
 91
        8
  2
Thumbnail_Data
280
    15
 91
        0
101
ACDSRECORD
 95
        0
 90
        1
  2
AcDbDs::TreatedAsObjectData
280
     1
291
     1
101
ACDSRECORD
 95
        0
 90
        2
  2
AcDbDs::Legacy
280
     1
291
     1
101
ACDSRECORD
  1
AcDbDs::ID
 90
        3
  2
AcDs:Indexable
280
     1
291
     1
101
ACDSRECORD
  1
AcDbDs::ID
 90
        4
  2
AcDbDs::HandleAttribute
280
     7
282
     1
  0
ACDSSCHEMA
 90
        1
  1
AcDbDs::TreatedAsObjectDataSchema
  2
AcDbDs::TreatedAsObjectData
280
     1
 91
        0
  0
ACDSSCHEMA
 90
        2
  1
AcDbDs::LegacySchema
  2
AcDbDs::Legacy
280
     1
 91
        0
  0
ACDSSCHEMA
 90
        3
  1
AcDbDs::IndexedPropertySchema
  2
AcDs:Indexable
280
     1
 91
        0
  0
ACDSSCHEMA
 90
        4
  1
AcDbDs::HandleAttributeSchema
  2
AcDbDs::HandleAttribute
280
     7
 91
        1
284
     1
  0
ACDSRECORD
 90
        0
  2
AcDbDs::ID
280
    10
320
22
  2
Thumbnail_Data
280
    15
 94
     2485
310
89504E470D0A1A0A0000000D4948445200000100000000870803000000CE6E778000000300504C5445000000FFFFFF0000000000000000000000000000000000000000000000000000000000330000660000990000CC0000FF0033000033330033660033990033CC0033FF0066000066330066660066990066CC0066FF0099
310
000099330099660099990099CC0099FF00CC0000CC3300CC6600CC9900CCCC00CCFF00FF0000FF3300FF6600FF9900FFCC00FFFF3300003300333300663300993300CC3300FF3333003333333333663333993333CC3333FF3366003366333366663366993366CC3366FF3399003399333399663399993399CC3399FF33CC00
310
33CC3333CC6633CC9933CCCC33CCFF33FF0033FF3333FF6633FF9933FFCC33FFFF6600006600336600666600996600CC6600FF6633006633336633666633996633CC6633FF6666006666336666666666996666CC6666FF6699006699336699666699996699CC6699FF66CC0066CC3366CC6666CC9966CCCC66CCFF66FF0066
310
FF3366FF6666FF9966FFCC66FFFF9900009900339900669900999900CC9900FF9933009933339933669933999933CC9933FF9966009966339966669966999966CC9966FF9999009999339999669999999999CC9999FF99CC0099CC3399CC6699CC9999CCCC99CCFF99FF0099FF3399FF6699FF9999FFCC99FFFFCC0000CC00
310
33CC0066CC0099CC00CCCC00FFCC3300CC3333CC3366CC3399CC33CCCC33FFCC6600CC6633CC6666CC6699CC66CCCC66FFCC9900CC9933CC9966CC9999CC99CCCC99FFCCCC00CCCC33CCCC66CCCC99CCCCCCCCCCFFCCFF00CCFF33CCFF66CCFF99CCFFCCCCFFFFFF0000FF0033FF0066FF0099FF00CCFF00FFFF3300FF3333
310
FF3366FF3399FF33CCFF33FFFF6600FF6633FF6666FF6699FF66CCFF66FFFF9900FF9933FF9966FF9999FF99CCFF99FFFFCC00FFCC33FFCC66FFCC99FFCCCCFFCCFFFFFF00FFFF33FFFF66FFFF99FFFFCCFFFFFF0000000D0D0D1A1A1A2828283535354343435050505D5D5D6B6B6B787878868686939393A1A1A1AEAEAEBB
310
BBBBC9C9C9D6D6D6E4E4E4F1F1F1FFFFFF0000000000000000000000000000000000000000000000000000000000003AE5ACE9000006704944415478DAED9C4962EB200C407521EEBFD3C6D7D035D8D74C46CC76E2D42281FEDF7A28A43C4B420861805506454F5DEE0030F5D35B006E69635EF9BF0BC0B48F7F0158004401
310
20DAFFDB1F44E6F8EB00D0104052DE6A4B26803BCB374AC02575991C40F319761E6F727DA9C09C00720EC975762FAFE224C67DCBABCCA7024767A894E70240213C13AB40AAC3E7149A4A012AAB4F02E02585FEA41578CC065C19D35A55A63682FF046028280BC0770318DB8AEF0640F3DA00FD8D00BC306EA8516BF45FE69F
310
2D5B3B6C47E120AD871B353E22AFD7897CFF2F00F37DD32D004A552540A9034E0120D76F77B8B764CADE7F158A0C15B07FDEFEA70302A0FF32FFB407C34A7A123E23AD87EEC15600F8E3BDDFAAA2518F03286BDB6BFDA51B5DAD574CB08FEE22917BF2380100DF7BDE4472C895D84FA2860088D04800BA96040108025D6BA3
310
09A032B0836D0B5B008CE61800DAFDCEF7008093006CCF95426F27248D02FA3D09E007850A103782DA4A802023489F01C0432A0900338056FDAA67012033EE9814AD74751864D7999F436178280018D1CF0B4E2101AA2101EC7AEAFC4E2601F7DA0018DA007900E02D00CEF4C790F2C00F106804DF1B06B903100E661B067B
310
00C69E60DEFFBD4CE9085555A03B1750E6EE6EFA4B43D053016D4C8031027A021BA0D994A822011640ED03FA3640899B0D8651A055DAD3E16E865F331EB04F8564C5037C40A81110D11D156844847419104922422CA6242826085004446CD9B6664C50C79A494064180AC47170F02B93A4E842747401780C0039D73DAEF65F
310
AA7954EF0138B38EFE1880D7D778C735AF2C223F28012F2F729F00904980440074A3860BB05EB703D0ED4AF302F04E8A52E9AAD5C8FBE1FE0CF19A4AE9D900385758E58FD179AB6D57D8AF74516AF75533B410D2AF582256187188DD7C6E32A4AC6BAAE3B4C50168AA00074014277867008CF28B1E01B07BF1605C797B9084
310
0406BB9A7615205B0B5D753DFC38FFC4A3FF0051081E930034D335B366857EC1F3744CD03E7D5BD304BBF08204404B049E880869B722EC10C47A2700585EA6FBEEC04784BABE429225E38DC1532A108C2057008C5A300610641F8F8373DE62E630D143A34058B608614A6FF62E4A80097784833312C063A90F0F83C5C288BA
310
1215E6834216123B331768FACD0F2C8DA946692F8D35CB8C00406FB749C076DA11120100321B001FB3016D47484658DC1B7FF5C151803942C1016A58C1270064CFF1B204805FF23BBDF19DA44C87BD0AE0E1D05CF5048303A5DC41671894190F607301F5DA5C20D43A3517900B20CAFE95D9A0B2E348A8A53AB341E9F1807C
310
FCBB160F6083E17C00AACB56E3A531368EDDFEF60F415B673BE9F279B8F7C6F8A85400F53B043F0E0016802F0340D0D8394AED3DA5F3EF1E4FE787D4B851DB3B5CA059DBE7970D981080B0220E4016C7F95500B400FC2C802321FC3633379D0484385E3CF91100A7877BA26E6AD9E0B66400A98F08CD4970DF3E5CB31E9200
310
709D27DEF39700D08C00D86B95B293B3A2E30A8AB40169480BCB902FC006AD13FF31656D1D39E9FEEDE701D8DF0B29FC1832FA75D1BB76585C876D87187B1A2520C689F16812F44080FE19408CF1861FC7DA865905DE7854D89F500C98C7DD131100C6478CC73A1BFA16511C00BD77DC9E84BD9CA9046CBCC1CD2B0E9780A3
310
873A509B4C0274E87804A0AEA840580E4D00400480A1A5C318CE04001A1200D700D8242CB3CF4E26004801C0000065002005001900FF1DA3172D07007D0C007100DA893E4B8313320CD26B1200042300042500EB72B88B62FC002F012AF103F8963EAD6A0092EDF3354F279580300AD001440A00B7DBB90DC0648361CD0FB0
310
B93487C9AB00607E407CD1426C489A045C550118AB402101844C2584B9C21F00908E02B6C3980C0ABF05C0E5E2FD3080E007B07747FC1880C313140AA0980C5D9C0B9C990C1D35644E87190064A97ED94B85908D89C9AF3000C7BB85269A0E770222FB695505B8AF347740C4FAA72900C5F6FD5063332169E22A900320EE07
310
601A1394351B74528069DC12790614552580F8AF143D24163CEEF31102A008E57200C75FEBB7C7530E20D62276A1081E233513CBA400A8C4BCD3978251EB7A72BF913073E10DFCFF0DA0B9EE75221766B470F65216CD632A50118A9A8200DBEF9065951517E8E4273E0960345FAE9EC027F304C400F8783A987809389B28F9
310
13003A8992DF0CE001055879820BC002B0002C000BC002B0002C000BC002B0002C00EF363369B90DC0BC6501B8A38DA9CBB07B7FD574458BA26F12490000000049454E44AE426082
  0
ACDSRECORD
 90
        0
  2
AcDbDs::ID
280
    10
320
78E
  2
Thumbnail_Data
280
    15
 94
     3151
310
89504E470D0A1A0A0000000D4948445200000100000000B5080300000087DCD12600000300504C54450D0D0DFFFFFF0D0D0D0000000000000000000000000000000000000000000000000000330000660000990000CC0000FF0033000033330033660033990033CC0033FF0066000066330066660066990066CC0066FF0099
310
000099330099660099990099CC0099FF00CC0000CC3300CC6600CC9900CCCC00CCFF00FF0000FF3300FF6600FF9900FFCC00FFFF3300003300333300663300993300CC3300FF3333003333333333663333993333CC3333FF3366003366333366663366993366CC3366FF3399003399333399663399993399CC3399FF33CC00
310
33CC3333CC6633CC9933CCCC33CCFF33FF0033FF3333FF6633FF9933FFCC33FFFF6600006600336600666600996600CC6600FF6633006633336633666633996633CC6633FF6666006666336666666666996666CC6666FF6699006699336699666699996699CC6699FF66CC0066CC3366CC6666CC9966CCCC66CCFF66FF0066
310
FF3366FF6666FF9966FFCC66FFFF9900009900339900669900999900CC9900FF9933009933339933669933999933CC9933FF9966009966339966669966999966CC9966FF9999009999339999669999999999CC9999FF99CC0099CC3399CC6699CC9999CCCC99CCFF99FF0099FF3399FF6699FF9999FFCC99FFFFCC0000CC00
310
33CC0066CC0099CC00CCCC00FFCC3300CC3333CC3366CC3399CC33CCCC33FFCC6600CC6633CC6666CC6699CC66CCCC66FFCC9900CC9933CC9966CC9999CC99CCCC99FFCCCC00CCCC33CCCC66CCCC99CCCCCCCCCCFFCCFF00CCFF33CCFF66CCFF99CCFFCCCCFFFFFF0000FF0033FF0066FF0099FF00CCFF00FFFF3300FF3333
310
FF3366FF3399FF33CCFF33FFFF6600FF6633FF6666FF6699FF66CCFF66FFFF9900FF9933FF9966FF9999FF99CCFF99FFFFCC00FFCC33FFCC66FFCC99FFCCCCFFCCFFFFFF00FFFF33FFFF66FFFF99FFFFCCFFFFFF0000000D0D0D1A1A1A2828283535354343435050505D5D5D6B6B6B787878868686939393A1A1A1AEAEAEBB
310
BBBBC9C9C9D6D6D6E4E4E4F1F1F1FFFFFF000000000000000000000000000000000000000000000000000000000000D3F30D92000008E94944415478DAED9D4D96A4200C807321EEBF63E33572813900FB691521C1F0A78858CA9BE967D934A59F21841022FC7B79810F00BCB87C005600E6A5850078E3D3FF007C00F600F0
310
454506F09EE7DF19002EE2F55E004CF4D69F3F00A0E23696AAEBFF0D43FB2FB903401F6D352C805EB2FA140025CF0AF362F5580079692D9068A1023E4509EEAE5D3C91A92355F894E0F85D800EF0E4825106966C645F696409E0926B7FC04100404DA53AD53A882194BAB9C39A74DC2ED0A8F7DEA605CE4BC022AB7543BA78
310
1DB9362E1281B63AE0B80D87E7007D00A21DEAA512504EE0E725E09500F0ED3A607C007BFF7B4B0095867C0B001A847FAE4CA61280D05C0500D49D00383533196D847FAE4CFBD538B5FB482B09CD4D916B7217E1FE18C375BFEB24C0D63279004AA52540A91C0033C95A7DFBFCF715B6A03F9C4B0F0026D6056C73930ECBDF
310
1D8567ACDC9A4817305B6328771D471415D0BB367D00448AD92A8455F69F4DE6824B0120B0FBBF1980FD9529D10159962500347A007A0400EB2F8D819C042C15E8D9ADBB63158065409A01E8ED4C0F007F3D1892088A00F06EB23365DD97C401586DB202580F0790005BA1480204CF31D649C02C6E0B003390049C01502501
310
601FBC52EEF93F5602F61ED5E261D04900FC08007B6C6B6016805382970370D2D91E80B01EB0D6109CC5F703D07C48D75AB0FBB66E19B304FF0C01F229B0EFD19AC73A0E60EEF872C9E9A74E12909B0BFC010814A06C08094B88FB27DDCD12C40B754004C07E7DE44E009D9460E528D04F075C02203080ABE7026418EC6707
310
34348442F367B3074B0D21430CA1275A82F2FD2F1F8BE7025602C6990B98F2C9900909902951F15CE086D9600A8031151230DFE6497F00190546980B383747CE21B2CE856DE0F2298FD04DC3E0403EC15B0064BCC2461578854DC62B1C03B0F30A07A5C3BA401E40894FD01C758B87EB02BCF4581E9765B67265C894379792
310
46A2FE0AEFE49E0D13EDF7E63C0C40FB8295E73F001F804B00D840516813D8873CF4160B01D405D83605D036B4B1AAB5C3C195CD25A0616C67CDDDC8BFC3DE12D0A55BB7561E1F806600CAFF2A630861C791A8CD5C408CCE494D05927381B5491426CC834900998825FFC894C408859A0B830A3030000311007E7926E70FF0
310
214E28398695B07EBC1F05A8D5108C21E04E86BB561B7984FE6E12FD3C440700F2B3C11D00A4CD29280710B106A236422B97985A67DEA227B2D425C66EC637B4F033C55D60D3A0E86D4274BF61FEE69612A0679F0DF9A90FB9C5B7E92C2E4D68F2F348170004DF17641969B62EA01755A8B71519C3E7E4D54B63A4A1ADD1DC
310
E243A60BC4EDE43612B0FAE30DBBF4130048435BA347BA00893172D2BF33A95B0008E53FEC05550098E4D39F7900B2B6CB586B6DBAC0A6FB94A8078F4800F0681F935D7F8BF7804EEB02B0AE4AA960243CAA03ECE8E78E4BBA40280170ED96191F21A298C9225AFED56172615B2A3F0AA4CD80EB0068334D2A598A6284D24D
310
A829185AEB47812B26437E2E9021908F11CA9682452EF2B8F783DD955DC074E802E7E60270890488011257016860085D390AF8714B351C0615392E3284FCC3463E2624B6DFB73584D4AD86D0211F55534348415B43C8FB414A0CA13B1D226CDE72C964C88CED114AC87FA7E9F0DD00E2F27FC0213237EC1B52950E919B0028
310
3A0538E112537648230D29FD0000722CCE19A72877098F0D20178A541424C507F33DC9010164C293EA82A4B8D116497F3CE8D218D657486F9F8FADF4FE10804C9DD703800FC007E003F06000D19D5DCC8359DBC89393AAA26440D436025F4ED14F078C0AE0D9E503D037BDBE8B7F1A22B57E7700FD54DB07E003F029C14125
310
80BB3C0610819E00D8AE68DF255E00E0A0A1EB23FECABEE050F2E93E00209B7E1D93DC8A090F0B603F1F2EB0F4CB73039F1854BA01E0AF5CC070527C51D2DC81004CB48BCE47EC440300FA7E003A0920EC0253D963D5F1EEB3DB72CE769D94BED8E04C90D4B288A35D88975FE19BAFC6D72CD94B43BF91DD8CA647FCB60CE3
310
C38F4CE9633C01C05E84863D00D074296FD932C31EF8FC451369892F201B900080B67936180063F6008CE90780A42EDC625BB7D496E489CC6BC153B83AEC4F2049A111FEBD3DBF454B7009B02719007BAE9F0428ED567EFDD1DF49C39F775A02829822F01151148C31810E184002402972858A1C320045AFBEA53A00E20060
310
2C1D5006E0EF7A921260E02C000AF1610096F79E1E06E0DBD36CD5BD23009000A8730040020051005BF22140F34A002E8DD66C96E0E300C0590066EBF936EBDAE30000B401605FA3DC0B00DE0420B0043900FFD194BE9EED28007400480A5BB64BA4DC140EB3CAC6E738120037F8213F7B31805502783EDF0880794B904A99
310
C236AFB0AF1E05A035BD2F166A89C8432F4BDF50785E02FA76019425607DD34D5709808174C02A8D3B2CAF190590CE055E380C22BC1C004DA8CACEBD06809F0BC013E7020D002CEF29D260EE990D0EE21031DC37D4D5292A01800A97183CD82556E61415B7CC84D986734E51FFF289E19CA28229CCBB80CACD0554900CF919
310
6EF1E28591D94D91591679E2C2C85653BA84D93BC1E64D9896000C5EACA341BC2FE43A00433EE4A8C3D2D8BEA68EFC620510C600D0C5D110004A8D6EA711C4ABD4D1EBEA0600A300A48426F44498DA07E5E693000AB61D5D0C8087A8A07CAB9E48FC330343D7D493771C42EC050041BC404C00103FA3F4319092D86BA60421
310
EA08201BF554B91FA03C98AAC9EE821E1122524EFC8424F52D9D0044D55FA4CA2F01B87B4FCCFD1280984DF08C752F57AF469BC4DEA10B081DBEC59E309A30C9C7E2B12C4AAEC3E196619284ECD93FEB0F001B6D8A63E95229000C01000F2675F9B5B09F12BC4201F86C91C00DA61C5AECAB031A6D9B7BB00EB84C81F300F1
310
B86195B2327E0780A00A7F1E40495F800B738A0E03808B04F26136984C5926C415F15B0084B9982C267E0C191240615268C9C20AA55E1E064797004CD8CC6CF0FFD56190A447DD99B52E45289636F5C051801AF120264A059240DFA7CA47E63BC4070370BA9A658A0504F601822CBAFCE554452F6B79B812F412804E007E02
310
40693F61A31A723DB9F5A4DC28F9437640A616552439002F2A228057950FC007800078677100DE5B3E0033809797D703F80FB93BDFAA451F272C0000000049454E44AE4260828D0000000049454E44AE426082671E35040A8E5F540000000049454E44AE426082
  0
ENDSEC
  0
EOF
