  0
SECTION
  2
HEADER
  9
$ACADVER
  1
AC1027
  9
$ACADMAINTVER
 70
   125
  9
$DWGCODEPAGE
  3
ANSI_932
  9
$LASTSAVEDBY
  1
D-mishima
  9
$REQUIREDVERSIONS
160
                 0
  9
$INSBASE
 10
0.0
 20
0.0
 30
0.0
  9
$EXTMIN
 10
0.0
 20
0.0
 30
0.0
  9
$EXTMAX
 10
4200.0
 20
2970.0
 30
0.0
  9
$LIMMIN
 10
0.0
 20
0.0
  9
$LIMMAX
 10
4200.0
 20
2970.0
  9
$ORTHOMODE
 70
     1
  9
$REGENMODE
 70
     1
  9
$FILLMODE
 70
     1
  9
$QTEXTMODE
 70
     0
  9
$MIRRTEXT
 70
     0
  9
$LTSCALE
 40
0.1
  9
$ATTMODE
 70
     1
  9
$TEXTSIZE
 40
25.0
  9
$TRACEWID
 40
1.0
  9
$TEXTSTYLE
  7
Standard
  9
$CLAYER
  8
実線
  9
$CELTYPE
  6
ByLayer
  9
$CECOLOR
 62
   256
  9
$CELTSCALE
 40
1.0
  9
$DISPSILH
 70
     0
  9
$DIMSCALE
 40
10.0
  9
$DIMASZ
 40
2.0
  9
$DIMEXO
 40
0.875
  9
$DIMDLI
 40
10.0
  9
$DIMRND
 40
0.0
  9
$DIMDLE
 40
0.0
  9
$DIMEXE
 40
1.0
  9
$DIMTP
 40
0.0
  9
$DIMTM
 40
0.0
  9
$DIMTXT
 40
2.5
  9
$DIMCEN
 40
0.0
  9
$DIMTSZ
 40
0.0
  9
$DIMTOL
 70
     0
  9
$DIMLIM
 70
     0
  9
$DIMTIH
 70
     0
  9
$DIMTOH
 70
     0
  9
$DIMSE1
 70
     0
  9
$DIMSE2
 70
     0
  9
$DIMTAD
 70
     1
  9
$DIMZIN
 70
     8
  9
$DIMBLK
  1

  9
$DIMASO
 70
     1
  9
$DIMSHO
 70
     1
  9
$DIMPOST
  1

  9
$DIMAPOST
  1

  9
$DIMALT
 70
     0
  9
$DIMALTD
 70
     2
  9
$DIMALTF
 40
25.4
  9
$DIMLFAC
 40
1.0
  9
$DIMTOFL
 70
     1
  9
$DIMTVP
 40
0.0
  9
$DIMTIX
 70
     0
  9
$DIMSOXD
 70
     0
  9
$DIMSAH
 70
     1
  9
$DIMBLK1
  1
OPEN
  9
$DIMBLK2
  1
OPEN
  9
$DIMSTYLE
  2
STANDARD
  9
$DIMCLRD
 70
     0
  9
$DIMCLRE
 70
     0
  9
$DIMCLRT
 70
     0
  9
$DIMTFAC
 40
1.0
  9
$DIMGAP
 40
0.875
  9
$DIMJUST
 70
     0
  9
$DIMSD1
 70
     0
  9
$DIMSD2
 70
     0
  9
$DIMTOLJ
 70
     1
  9
$DIMTZIN
 70
     0
  9
$DIMALTZ
 70
     0
  9
$DIMALTTZ
 70
     0
  9
$DIMUPT
 70
     0
  9
$DIMDEC
 70
     3
  9
$DIMTDEC
 70
     3
  9
$DIMALTU
 70
     2
  9
$DIMALTTD
 70
     2
  9
$DIMTXSTY
  7
Standard
  9
$DIMAUNIT
 70
     0
  9
$DIMADEC
 70
     0
  9
$DIMALTRND
 40
0.0
  9
$DIMAZIN
 70
     0
  9
$DIMDSEP
 70
    46
  9
$DIMATFIT
 70
     3
  9
$DIMFRAC
 70
     0
  9
$DIMLDRBLK
  1
OPEN
  9
$DIMLUNIT
 70
     2
  9
$DIMLWD
 70
    -2
  9
$DIMLWE
 70
    -2
  9
$DIMTMOVE
 70
     0
  9
$DIMFXL
 40
1.0
  9
$DIMFXLON
 70
     0
  9
$DIMJOGANG
 40
1.570796326794896
  9
$DIMTFILL
 70
     0
  9
$DIMTFILLCLR
 70
     0
  9
$DIMARCSYM
 70
     0
  9
$DIMLTYPE
  6

  9
$DIMLTEX1
  6

  9
$DIMLTEX2
  6

  9
$DIMTXTDIRECTION
 70
     0
  9
$LUNITS
 70
     2
  9
$LUPREC
 70
     4
  9
$SKETCHINC
 40
1.0
  9
$FILLETRAD
 40
0.0
  9
$AUNITS
 70
     0
  9
$AUPREC
 70
     0
  9
$MENU
  1
.
  9
$ELEVATION
 40
0.0
  9
$PELEVATION
 40
0.0
  9
$THICKNESS
 40
0.0
  9
$LIMCHECK
 70
     0
  9
$CHAMFERA
 40
0.0
  9
$CHAMFERB
 40
0.0
  9
$CHAMFERC
 40
0.0
  9
$CHAMFERD
 40
0.0
  9
$SKPOLY
 70
     0
  9
$TDCREATE
 40
2454064.449062500
  9
$TDUCREATE
 40
2454064.074062859
  9
$TDUPDATE
 40
2460315.474432871
  9
$TDUUPDATE
 40
2460315.099432870
  9
$TDINDWG
 40
3.8195204282
  9
$TDUSRTIMER
 40
3.8194983796
  9
$USRTIMER
 70
     1
  9
$ANGBASE
 50
0.0
  9
$ANGDIR
 70
     0
  9
$PDMODE
 70
     0
  9
$PDSIZE
 40
0.0
  9
$PLINEWID
 40
0.0
  9
$SPLFRAME
 70
     0
  9
$SPLINETYPE
 70
     6
  9
$SPLINESEGS
 70
     8
  9
$HANDSEED
  5
14765
  9
$SURFTAB1
 70
     6
  9
$SURFTAB2
 70
     6
  9
$SURFTYPE
 70
     6
  9
$SURFU
 70
     6
  9
$SURFV
 70
     6
  9
$UCSBASE
  2

  9
$UCSNAME
  2

  9
$UCSORG
 10
0.0
 20
0.0
 30
0.0
  9
$UCSXDIR
 10
1.0
 20
0.0
 30
0.0
  9
$UCSYDIR
 10
0.0
 20
1.0
 30
0.0
  9
$UCSORTHOREF
  2

  9
$UCSORTHOVIEW
 70
     0
  9
$UCSORGTOP
 10
0.0
 20
0.0
 30
0.0
  9
$UCSORGBOTTOM
 10
0.0
 20
0.0
 30
0.0
  9
$UCSORGLEFT
 10
0.0
 20
0.0
 30
0.0
  9
$UCSORGRIGHT
 10
0.0
 20
0.0
 30
0.0
  9
$UCSORGFRONT
 10
0.0
 20
0.0
 30
0.0
  9
$UCSORGBACK
 10
0.0
 20
0.0
 30
0.0
  9
$PUCSBASE
  2

  9
$PUCSNAME
  2

  9
$PUCSORG
 10
0.0
 20
0.0
 30
0.0
  9
$PUCSXDIR
 10
1.0
 20
0.0
 30
0.0
  9
$PUCSYDIR
 10
0.0
 20
1.0
 30
0.0
  9
$PUCSORTHOREF
  2

  9
$PUCSORTHOVIEW
 70
     0
  9
$PUCSORGTOP
 10
0.0
 20
0.0
 30
0.0
  9
$PUCSORGBOTTOM
 10
0.0
 20
0.0
 30
0.0
  9
$PUCSORGLEFT
 10
0.0
 20
0.0
 30
0.0
  9
$PUCSORGRIGHT
 10
0.0
 20
0.0
 30
0.0
  9
$PUCSORGFRONT
 10
0.0
 20
0.0
 30
0.0
  9
$PUCSORGBACK
 10
0.0
 20
0.0
 30
0.0
  9
$USERI1
 70
     0
  9
$USERI2
 70
     0
  9
$USERI3
 70
     0
  9
$USERI4
 70
     0
  9
$USERI5
 70
     0
  9
$USERR1
 40
0.0
  9
$USERR2
 40
0.0
  9
$USERR3
 40
0.0
  9
$USERR4
 40
0.0
  9
$USERR5
 40
0.0
  9
$WORLDVIEW
 70
     1
  9
$SHADEDGE
 70
     3
  9
$SHADEDIF
 70
    70
  9
$TILEMODE
 70
     0
  9
$MAXACTVP
 70
    64
  9
$PINSBASE
 10
0.0
 20
0.0
 30
0.0
  9
$PLIMCHECK
 70
     0
  9
$PEXTMIN
 10
0.0000000000000853
 20
0.0
 30
0.0
  9
$PEXTMAX
 10
408.1991586685179
 20
285.1784963607788
 30
0.0
  9
$PLIMMIN
 10
-5.873748779296875
 20
-5.873749732971191
  9
$PLIMMAX
 10
414.0729064941406
 20
291.0522451400757
  9
$UNITMODE
 70
     0
  9
$VISRETAIN
 70
     1
  9
$PLINEGEN
 70
     0
  9
$PSLTSCALE
 70
     1
  9
$TREEDEPTH
 70
  3020
  9
$CMLSTYLE
  2
Standard
  9
$CMLJUST
 70
     0
  9
$CMLSCALE
 40
20.0
  9
$PROXYGRAPHICS
 70
     1
  9
$MEASUREMENT
 70
     1
  9
$CELWEIGHT
370
    -1
  9
$ENDCAPS
280
     0
  9
$JOINSTYLE
280
     0
  9
$LWDISPLAY
290
     0
  9
$INSUNITS
 70
     4
  9
$HYPERLINKBASE
  1

  9
$STYLESHEET
  1
SANKENTC.CTB
  9
$XEDIT
290
     1
  9
$CEPSNTYPE
380
     0
  9
$PSTYLEMODE
290
     1
  9
$FINGERPRINTGUID
  2
{072871F0-2771-4C56-B9BD-B27D0F751D9A}
  9
$VERSIONGUID
  2
{507691F4-6F2E-0748-AEFB-6DA5F712E6EC}
  9
$EXTNAMES
290
     1
  9
$PSVPSCALE
 40
0.0
  9
$OLESTARTUP
290
     0
  9
$SORTENTS
280
   127
  9
$INDEXCTL
280
     0
  9
$HIDETEXT
280
     1
  9
$XCLIPFRAME
280
     2
  9
$HALOGAP
280
     0
  9
$OBSCOLOR
 70
   257
  9
$OBSLTYPE
280
     0
  9
$INTERSECTIONDISPLAY
280
     0
  9
$INTERSECTIONCOLOR
 70
   257
  9
$DIMASSOC
280
     2
  9
$PROJECTNAME
  1

  9
$CAMERADISPLAY
290
     0
  9
$LENSLENGTH
 40
50.0
  9
$CAMERAHEIGHT
 40
0.0
  9
$STEPSPERSEC
 40
2.0
  9
$STEPSIZE
 40
6.0
  9
$3DDWFPREC
 40
2.0
  9
$PSOLWIDTH
 40
0.25
  9
$PSOLHEIGHT
 40
4.0
  9
$LOFTANG1
 40
1.570796326794896
  9
$LOFTANG2
 40
1.570796326794896
  9
$LOFTMAG1
 40
0.0
  9
$LOFTMAG2
 40
0.0
  9
$LOFTPARAM
 70
     7
  9
$LOFTNORMALS
280
     1
  9
$LATITUDE
 40
37.795
  9
$LONGITUDE
 40
-122.394
  9
$NORTHDIRECTION
 40
0.0
  9
$TIMEZONE
 70
 -8000
  9
$LIGHTGLYPHDISPLAY
280
     1
  9
$TILEMODELIGHTSYNCH
280
     1
  9
$CMATERIAL
347
11723
  9
$SOLIDHIST
280
     0
  9
$SHOWHIST
280
     1
  9
$DWFFRAME
280
     2
  9
$DGNFRAME
280
     0
  9
$REALWORLDSCALE
290
     1
  9
$INTERFERECOLOR
 62
     1
  9
$INTERFEREOBJVS
345
11745
  9
$INTERFEREVPVS
346
12C53
  9
$CSHADOW
280
     0
  9
$SHADOWPLANELOCATION
 40
0.0
  0
ENDSEC
  0
SECTION
  2
CLASSES
  0
CLASS
  1
ACDBDICTIONARYWDFLT
  2
AcDbDictionaryWithDefault
  3
ObjectDBX Classes
 90
        0
 91
        1
280
     0
281
     0
  0
CLASS
  1
DICTIONARYVAR
  2
AcDbDictionaryVar
  3
ObjectDBX Classes
 90
        0
 91
       16
280
     0
281
     0
  0
CLASS
  1
TABLESTYLE
  2
AcDbTableStyle
  3
ObjectDBX Classes
 90
     4095
 91
        1
280
     0
281
     0
  0
CLASS
  1
DIMASSOC
  2
AcDbDimAssoc
  3
"AcDbDimAssoc|Product Desc:     AcDim ARX App For Dimension|Company:          Autodesk, Inc.|WEB Address:      www.autodesk.com"
 90
        0
 91
        0
280
     0
281
     0
  0
CLASS
  1
SORTENTSTABLE
  2
AcDbSortentsTable
  3
ObjectDBX Classes
 90
        0
 91
        3
280
     0
281
     0
  0
CLASS
  1
MATERIAL
  2
AcDbMaterial
  3
ObjectDBX Classes
 90
     1153
 91
        3
280
     0
281
     0
  0
CLASS
  1
VISUALSTYLE
  2
AcDbVisualStyle
  3
ObjectDBX Classes
 90
     4095
 91
       26
280
     0
281
     0
  0
CLASS
  1
SCALE
  2
AcDbScale
  3
ObjectDBX Classes
 90
     1153
 91
       17
280
     0
281
     0
  0
CLASS
  1
MLEADERSTYLE
  2
AcDbMLeaderStyle
  3
ACDB_MLEADERSTYLE_CLASS
 90
     4095
 91
        1
280
     0
281
     0
  0
CLASS
  1
CELLSTYLEMAP
  2
AcDbCellStyleMap
  3
ObjectDBX Classes
 90
     1152
 91
        1
280
     0
281
     0
  0
CLASS
  1
AEC_REFEDIT_STATUS_TRACKER
  2
AecDbRefEditStatusTracker
  3
AecArchBase80|Product Desc: Autodesk Architectural Desktop 2007 |Company: Autodesk,Inc. |WEB Address: www.autodesk.com
 90
      129
 91
        0
280
     0
281
     0
  0
CLASS
  1
NPOCOLLECTION
  2
AcDbImpNonPersistentObjectsCollection
  3
ObjectDBX Classes
 90
     1153
 91
        0
280
     0
281
     0
  0
CLASS
  1
ACDBSECTIONVIEWSTYLE
  2
AcDbSectionViewStyle
  3
ObjectDBX Classes
 90
     1025
 91
        1
280
     0
281
     0
  0
CLASS
  1
ACDBDETAILVIEWSTYLE
  2
AcDbDetailViewStyle
  3
ObjectDBX Classes
 90
     1025
 91
        1
280
     0
281
     0
  0
ENDSEC
  0
SECTION
  2
TABLES
  0
TABLE
  2
VPORT
  5
8
102
{ACAD_XDICTIONARY
360
11871
102
}
330
0
100
AcDbSymbolTable
 70
     1
1001
ACAD
1000
DbSaveVer
1071
      278
  0
VPORT
  5
1208B
330
8
100
AcDbSymbolTableRecord
100
AcDbViewportTableRecord
  2
*Active
 70
     0
 10
0.0
 20
0.0
 11
1.0
 21
1.0
 12
2100.000009778887
 22
1485.000006915069
 13
0.0
 23
0.0
 14
10.0
 24
10.0
 15
10.0
 25
10.0
 16
0.0
 26
0.0
 36
1.0
 17
0.0
 27
0.0
 37
0.0
 40
2995.36050039935
 41
1.897364771151178
 42
50.0
 43
0.0
 44
0.0
 50
0.0
 51
0.0
 71
     0
 72
  1000
 73
     1
 74
     3
 75
     0
 76
     0
 77
     0
 78
     0
281
     0
 65
     1
110
0.0
120
0.0
130
0.0
111
1.0
121
0.0
131
0.0
112
0.0
122
1.0
132
0.0
 79
     0
146
0.0
348
11741
 60
     3
 61
     5
292
     1
282
     1
141
0.0
142
0.0
 63
   250
421
  3355443
1001
ACAD_NAV_VCDISPLAY
1070
     3
  0
ENDTAB
  0
TABLE
  2
LTYPE
  5
5
330
0
100
AcDbSymbolTable
 70
     4
  0
LTYPE
  5
14
330
5
100
AcDbSymbolTableRecord
100
AcDbLinetypeTableRecord
  2
ByBlock
 70
     0
  3

 72
    65
 73
     0
 40
0.0
  0
LTYPE
  5
15
330
5
100
AcDbSymbolTableRecord
100
AcDbLinetypeTableRecord
  2
ByLayer
 70
     0
  3

 72
    65
 73
     0
 40
0.0
  0
LTYPE
  5
16
330
5
100
AcDbSymbolTableRecord
100
AcDbLinetypeTableRecord
  2
Continuous
 70
     0
  3
Solid line
 72
    65
 73
     0
 40
0.0
  0
LTYPE
  5
1D4
330
5
100
AcDbSymbolTableRecord
100
AcDbLinetypeTableRecord
  2
PHANTOM
 70
     0
  3
Phantom ______  __  __  ______  __  __  ______
 72
    65
 73
     6
 40
63.5
 49
31.75
 74
     0
 49
-6.349999999999997
 74
     0
 49
6.349999999999997
 74
     0
 49
-6.349999999999997
 74
     0
 49
6.349999999999997
 74
     0
 49
-6.349999999999997
 74
     0
  0
LTYPE
  5
1D5
330
5
100
AcDbSymbolTableRecord
100
AcDbLinetypeTableRecord
  2
CENTER
 70
     0
  3
Center ____ _ ____ _ ____ _ ____ _ ____ _ ____
 72
    65
 73
     4
 40
50.8
 49
31.75
 74
     0
 49
-6.349999999999997
 74
     0
 49
6.349999999999997
 74
     0
 49
-6.349999999999997
 74
     0
  0
LTYPE
  5
1D7
330
5
100
AcDbSymbolTableRecord
100
AcDbLinetypeTableRecord
  2
DASHED
 70
     0
  3
Dashed __ __ __ __ __ __ __ __ __ __ __ __ __ _
 72
    65
 73
     2
 40
19.05
 49
12.7
 74
     0
 49
-6.349999999999997
 74
     0
  0
ENDTAB
  0
TABLE
  2
LAYER
  5
2
102
{ACAD_XDICTIONARY
360
11D
102
}
330
0
100
AcDbSymbolTable
 70
     9
  0
LAYER
  5
10
102
{ACAD_XDICTIONARY
360
11820
102
}
330
2
100
AcDbSymbolTableRecord
100
AcDbLayerTableRecord
  2
0
 70
     0
 62
     7
  6
Continuous
370
    -3
390
F
347
11733
348
0
  0
LAYER
  5
13F
330
2
100
AcDbSymbolTableRecord
100
AcDbLayerTableRecord
  2
Defpoints
 70
     0
 62
     7
  6
Continuous
290
     0
370
    -3
390
F
347
11733
348
0
  0
LAYER
  5
1BF
102
{ACAD_XDICTIONARY
360
11824
102
}
330
2
100
AcDbSymbolTableRecord
100
AcDbLayerTableRecord
  2
図面枠
 70
     0
 62
     2
  6
Continuous
370
    -3
390
F
347
11733
348
0
1001
AcAecLayerStandard
1000

1000

  0
LAYER
  5
1C1
102
{ACAD_XDICTIONARY
360
11828
102
}
330
2
100
AcDbSymbolTableRecord
100
AcDbLayerTableRecord
  2
仮想線
 70
     0
 62
     6
  6
PHANTOM
370
    -3
390
F
347
11733
348
0
1001
AcAecLayerStandard
1000

1000

  0
LAYER
  5
1C3
102
{ACAD_XDICTIONARY
360
1182C
102
}
330
2
100
AcDbSymbolTableRecord
100
AcDbLayerTableRecord
  2
寸法線
 70
     0
 62
     2
  6
Continuous
370
    -3
390
F
347
11733
348
0
1001
AcAecLayerStandard
1000

1000

  0
LAYER
  5
1C4
102
{ACAD_XDICTIONARY
360
1182E
102
}
330
2
100
AcDbSymbolTableRecord
100
AcDbLayerTableRecord
  2
中心線
 70
     0
 62
     1
  6
CENTER
370
    -3
390
F
347
11733
348
0
1001
AcAecLayerStandard
1000

1000

  0
LAYER
  5
1C5
102
{ACAD_XDICTIONARY
360
11830
102
}
330
2
100
AcDbSymbolTableRecord
100
AcDbLayerTableRecord
  2
破線
 70
     0
 62
     4
  6
DASHED
370
    -3
390
F
347
11733
348
0
1001
AcAecLayerStandard
1000

1000

  0
LAYER
  5
82E
102
{ACAD_XDICTIONARY
360
11832
102
}
330
2
100
AcDbSymbolTableRecord
100
AcDbLayerTableRecord
  2
実線
 70
     0
 62
     7
  6
Continuous
370
    -3
390
F
347
11733
348
0
1001
AcAecLayerStandard
1000

1000

  0
LAYER
  5
1473D
102
{ACAD_XDICTIONARY
360
1473E
102
}
330
2
100
AcDbSymbolTableRecord
100
AcDbLayerTableRecord
  2
仮線
 70
     0
 62
     5
  6
Continuous
370
    -3
390
F
347
11733
348
0
1001
AcAecLayerStandard
1000

1000

  0
ENDTAB
  0
TABLE
  2
STYLE
  5
3
330
0
100
AcDbSymbolTable
 70
     1
  0
STYLE
  5
11
330
3
100
AcDbSymbolTableRecord
100
AcDbTextStyleTableRecord
  2
Standard
 70
     0
 40
0.0
 41
1.0
 50
0.0
 71
     0
 42
25.0
  3
isocp.shx
  4
extfont2.shx
  0
ENDTAB
  0
TABLE
  2
VIEW
  5
6
330
0
100
AcDbSymbolTable
 70
     0
  0
ENDTAB
  0
TABLE
  2
UCS
  5
7
330
0
100
AcDbSymbolTable
 70
     0
  0
ENDTAB
  0
TABLE
  2
APPID
  5
9
330
0
100
AcDbSymbolTable
 70
    17
  0
APPID
  5
12
330
9
100
AcDbSymbolTableRecord
100
AcDbRegAppTableRecord
  2
ACAD
 70
     0
  0
APPID
  5
9E
330
9
100
AcDbSymbolTableRecord
100
AcDbRegAppTableRecord
  2
ACAD_PSEXT
 70
     0
  0
APPID
  5
1BE
330
9
100
AcDbSymbolTableRecord
100
AcDbRegAppTableRecord
  2
AcAecLayerStandard
 70
     0
  0
APPID
  5
1FF
330
9
100
AcDbSymbolTableRecord
100
AcDbRegAppTableRecord
  2
ACAD_EXEMPT_FROM_CAD_STANDARDS
 70
     0
  0
APPID
  5
1318
330
9
100
AcDbSymbolTableRecord
100
AcDbRegAppTableRecord
  2
ACAD_DSTYLE_DIMTEXT_FILL
 70
     0
  0
APPID
  5
1319
330
9
100
AcDbSymbolTableRecord
100
AcDbRegAppTableRecord
  2
ACAD_DSTYLE_DIMEXT_LENGTH
 70
     0
  0
APPID
  5
131A
330
9
100
AcDbSymbolTableRecord
100
AcDbRegAppTableRecord
  2
ACAD_DSTYLE_DIMEXT_ENABLED
 70
     0
  0
APPID
  5
131B
330
9
100
AcDbSymbolTableRecord
100
AcDbRegAppTableRecord
  2
ACAD_DSTYLE_DIM_LINETYPE
 70
     0
  0
APPID
  5
131C
330
9
100
AcDbSymbolTableRecord
100
AcDbRegAppTableRecord
  2
ACAD_DSTYLE_DIM_EXT1_LINETYPE
 70
     0
  0
APPID
  5
131D
330
9
100
AcDbSymbolTableRecord
100
AcDbRegAppTableRecord
  2
ACAD_DSTYLE_DIM_EXT2_LINETYPE
 70
     0
  0
APPID
  5
1439
330
9
100
AcDbSymbolTableRecord
100
AcDbRegAppTableRecord
  2
ACAD_DSTYLE_DIMJOGGED_JOGANGLE_SYMBOL
 70
     0
  0
APPID
  5
1CB2
330
9
100
AcDbSymbolTableRecord
100
AcDbRegAppTableRecord
  2
ACAD_DSTYLE_DIMARC_LENGTH_SYMBOL
 70
     0
  0
APPID
  5
356E
330
9
100
AcDbSymbolTableRecord
100
AcDbRegAppTableRecord
  2
ACAD_DIMASSOC_CALC_DIMLFAC
 70
     0
  0
APPID
  5
356F
330
9
100
AcDbSymbolTableRecord
100
AcDbRegAppTableRecord
  2
ACAD_DIMASSOC_DIMLFAC
 70
     0
  0
APPID
  5
3570
330
9
100
AcDbSymbolTableRecord
100
AcDbRegAppTableRecord
  2
ACAD_DIMASSOC_OVERRIDDEN_DIMLFAC
 70
     0
  0
APPID
  5
11760
330
9
100
AcDbSymbolTableRecord
100
AcDbRegAppTableRecord
  2
ACAD_MLEADERVER
 70
     0
  0
APPID
  5
13914
330
9
100
AcDbSymbolTableRecord
100
AcDbRegAppTableRecord
  2
ACAD_NAV_VCDISPLAY
 70
     0
  0
ENDTAB
  0
TABLE
  2
DIMSTYLE
  5
A
330
0
100
AcDbSymbolTable
 70
     1
100
AcDbDimStyleTable
 71
     1
340
C0F
  0
DIMSTYLE
105
C0F
102
{ACAD_REACTORS
330
13DB0
330
13DB2
330
13DB7
330
13DBD
330
13DBF
330
13DC0
330
13DC1
330
13E04
330
13D49
330
13D4A
330
13D4B
330
13D7E
330
13D7F
330
13D80
330
13D81
330
13D82
330
13D8E
330
13CAE
330
13CAF
330
13D13
330
13D18
330
13BEE
330
13BEF
330
13BF0
330
13B93
330
13B94
330
13B95
330
13B96
330
13B97
330
13B98
330
13B99
330
13B9B
330
13B9C
330
146FA
330
146FB
102
}
330
A
100
AcDbSymbolTableRecord
100
AcDbDimStyleTableRecord
  2
STANDARD
 70
     0
 40
10.0
 41
2.0
 42
0.875
 43
10.0
 44
1.0
 50
89.99999999999998
 73
     0
 74
     0
 77
     1
 78
     8
140
2.5
141
0.0
147
0.875
172
     1
173
     1
271
     3
272
     3
340
11
341
C08
343
C08
344
C08
1001
ACAD_DSTYLE_DIMJOGGED_JOGANGLE_SYMBOL
1070
   384
1040
1.570796326794896
  0
ENDTAB
  0
TABLE
  2
BLOCK_RECORD
  5
1
330
0
100
AcDbSymbolTable
 70
    36
  0
BLOCK_RECORD
  5
1F
102
{ACAD_XDICTIONARY
360
5C91
102
}
330
1
100
AcDbSymbolTableRecord
100
AcDbBlockTableRecord
  2
*Model_Space
340
22
 70
     0
280
     1
281
     0
  0
BLOCK_RECORD
  5
78D
330
1
100
AcDbSymbolTableRecord
100
AcDbBlockTableRecord
  2
*Paper_Space
340
78E
 70
     0
280
     1
281
     0
  0
BLOCK_RECORD
  5
C08
102
{ACAD_XDICTIONARY
360
11E70
102
}
330
1
100
AcDbSymbolTableRecord
100
AcDbBlockTableRecord
  2
_OPEN
340
0
102
{BLKREFS
331
13CE6
331
144FE
331
144FF
331
14507
331
14508
331
14510
331
14511
331
1451B
331
1451C
331
14524
331
14525
331
1452D
331
1452E
331
14536
331
14537
331
14540
331
14541
331
1454A
331
1454B
331
14555
331
14556
331
1455E
331
1455F
331
14567
331
145E3
331
145E4
331
145EC
331
145ED
331
145F5
331
145F6
331
145FE
331
145FF
331
14609
331
1460A
331
14614
331
14615
331
1461D
331
1461E
331
14628
331
14629
331
14633
331
14634
331
1463C
331
1463D
331
14568
331
14572
331
14573
331
1457D
331
1457E
331
14588
331
14589
331
14591
331
14592
331
1459D
331
1459E
331
145A8
331
145A9
331
145B2
331
145B3
331
145BD
331
145BE
331
145C6
331
145C7
331
145D1
331
145D2
331
145DA
331
145DB
331
14717
331
14718
331
14720
331
14721
102
}
 70
     0
280
     1
281
     0
  0
BLOCK_RECORD
  5
13E05
330
1
100
AcDbSymbolTableRecord
100
AcDbBlockTableRecord
  2
*D1
340
0
 70
     0
280
     1
281
     0
  0
BLOCK_RECORD
  5
13E11
330
1
100
AcDbSymbolTableRecord
100
AcDbBlockTableRecord
  2
*D2
340
0
 70
     0
280
     1
281
     0
  0
BLOCK_RECORD
  5
13E1D
330
1
100
AcDbSymbolTableRecord
100
AcDbBlockTableRecord
  2
*D3
340
0
 70
     0
280
     1
281
     0
  0
BLOCK_RECORD
  5
13E2B
330
1
100
AcDbSymbolTableRecord
100
AcDbBlockTableRecord
  2
*D4
340
0
 70
     0
280
     1
281
     0
  0
BLOCK_RECORD
  5
13E39
330
1
100
AcDbSymbolTableRecord
100
AcDbBlockTableRecord
  2
*D5
340
0
 70
     0
280
     1
281
     0
  0
BLOCK_RECORD
  5
13E45
330
1
100
AcDbSymbolTableRecord
100
AcDbBlockTableRecord
  2
*D6
340
0
 70
     0
280
     1
281
     0
  0
BLOCK_RECORD
  5
13E53
330
1
100
AcDbSymbolTableRecord
100
AcDbBlockTableRecord
  2
*D7
340
0
 70
     0
280
     1
281
     0
  0
BLOCK_RECORD
  5
13EAB
330
1
100
AcDbSymbolTableRecord
100
AcDbBlockTableRecord
  2
*D8
340
0
 70
     0
280
     1
281
     0
  0
BLOCK_RECORD
  5
13EB7
330
1
100
AcDbSymbolTableRecord
100
AcDbBlockTableRecord
  2
*D9
340
0
 70
     0
280
     1
281
     0
  0
BLOCK_RECORD
  5
13EC5
330
1
100
AcDbSymbolTableRecord
100
AcDbBlockTableRecord
  2
*D10
340
0
 70
     0
280
     1
281
     0
  0
BLOCK_RECORD
  5
13ED3
330
1
100
AcDbSymbolTableRecord
100
AcDbBlockTableRecord
  2
*D11
340
0
 70
     0
280
     1
281
     0
  0
BLOCK_RECORD
  5
13EE0
330
1
100
AcDbSymbolTableRecord
100
AcDbBlockTableRecord
  2
*D12
340
0
 70
     0
280
     1
281
     0
  0
BLOCK_RECORD
  5
13EEE
330
1
100
AcDbSymbolTableRecord
100
AcDbBlockTableRecord
  2
*D13
340
0
 70
     0
280
     1
281
     0
  0
BLOCK_RECORD
  5
13EFA
330
1
100
AcDbSymbolTableRecord
100
AcDbBlockTableRecord
  2
*D14
340
0
 70
     0
280
     1
281
     0
  0
BLOCK_RECORD
  5
13F08
330
1
100
AcDbSymbolTableRecord
100
AcDbBlockTableRecord
  2
*D15
340
0
 70
     0
280
     1
281
     0
  0
BLOCK_RECORD
  5
13F14
330
1
100
AcDbSymbolTableRecord
100
AcDbBlockTableRecord
  2
*D16
340
0
 70
     0
280
     1
281
     0
  0
BLOCK_RECORD
  5
13F20
330
1
100
AcDbSymbolTableRecord
100
AcDbBlockTableRecord
  2
*D17
340
0
 70
     0
280
     1
281
     0
  0
BLOCK_RECORD
  5
13F2C
330
1
100
AcDbSymbolTableRecord
100
AcDbBlockTableRecord
  2
*D18
340
0
 70
     0
280
     1
281
     0
  0
BLOCK_RECORD
  5
13F3A
330
1
100
AcDbSymbolTableRecord
100
AcDbBlockTableRecord
  2
*D19
340
0
 70
     0
280
     1
281
     0
  0
BLOCK_RECORD
  5
13F60
330
1
100
AcDbSymbolTableRecord
100
AcDbBlockTableRecord
  2
*D20
340
0
 70
     0
280
     1
281
     0
  0
BLOCK_RECORD
  5
13F6E
330
1
100
AcDbSymbolTableRecord
100
AcDbBlockTableRecord
  2
*D21
340
0
 70
     0
280
     1
281
     0
  0
BLOCK_RECORD
  5
13F7B
330
1
100
AcDbSymbolTableRecord
100
AcDbBlockTableRecord
  2
*D22
340
0
 70
     0
280
     1
281
     0
  0
BLOCK_RECORD
  5
13F89
330
1
100
AcDbSymbolTableRecord
100
AcDbBlockTableRecord
  2
*D23
340
0
 70
     0
280
     1
281
     0
  0
BLOCK_RECORD
  5
13F95
330
1
100
AcDbSymbolTableRecord
100
AcDbBlockTableRecord
  2
*D24
340
0
 70
     0
280
     1
281
     0
  0
BLOCK_RECORD
  5
13FA1
330
1
100
AcDbSymbolTableRecord
100
AcDbBlockTableRecord
  2
*D25
340
0
 70
     0
280
     1
281
     0
  0
BLOCK_RECORD
  5
13FAD
330
1
100
AcDbSymbolTableRecord
100
AcDbBlockTableRecord
  2
*D26
340
0
 70
     0
280
     1
281
     0
  0
BLOCK_RECORD
  5
13FB9
330
1
100
AcDbSymbolTableRecord
100
AcDbBlockTableRecord
  2
*D27
340
0
 70
     0
280
     1
281
     0
  0
BLOCK_RECORD
  5
13FC5
330
1
100
AcDbSymbolTableRecord
100
AcDbBlockTableRecord
  2
*D28
340
0
 70
     0
280
     1
281
     0
  0
BLOCK_RECORD
  5
13FD3
330
1
100
AcDbSymbolTableRecord
100
AcDbBlockTableRecord
  2
*D29
340
0
 70
     0
280
     1
281
     0
  0
BLOCK_RECORD
  5
13FDF
330
1
100
AcDbSymbolTableRecord
100
AcDbBlockTableRecord
  2
*D30
340
0
 70
     0
280
     1
281
     0
  0
BLOCK_RECORD
  5
13FEB
330
1
100
AcDbSymbolTableRecord
100
AcDbBlockTableRecord
  2
*D31
340
0
 70
     0
280
     1
281
     0
  0
BLOCK_RECORD
  5
13FF8
330
1
100
AcDbSymbolTableRecord
100
AcDbBlockTableRecord
  2
*D32
340
0
 70
     0
280
     1
281
     0
  0
BLOCK_RECORD
  5
14005
330
1
100
AcDbSymbolTableRecord
100
AcDbBlockTableRecord
  2
*D33
340
0
 70
     0
280
     1
281
     0
  0
BLOCK_RECORD
  5
146FC
330
1
100
AcDbSymbolTableRecord
100
AcDbBlockTableRecord
  2
*D34
340
0
 70
     0
280
     1
281
     0
  0
BLOCK_RECORD
  5
14708
330
1
100
AcDbSymbolTableRecord
100
AcDbBlockTableRecord
  2
*D35
340
0
 70
     0
280
     1
281
     0
  0
ENDTAB
  0
ENDSEC
  0
SECTION
  2
BLOCKS
  0
BLOCK
  5
20
330
1F
100
AcDbEntity
  8
0
100
AcDbBlockBegin
  2
*Model_Space
 70
     0
 10
0.0
 20
0.0
 30
0.0
  3
*Model_Space
  1

  0
ENDBLK
  5
21
330
1F
100
AcDbEntity
  8
0
100
AcDbBlockEnd
  0
BLOCK
  5
78F
330
78D
100
AcDbEntity
 67
     1
  8
0
100
AcDbBlockBegin
  2
*Paper_Space
 70
     0
 10
0.0
 20
0.0
 30
0.0
  3
*Paper_Space
  1

  0
ENDBLK
  5
790
330
78D
100
AcDbEntity
 67
     1
  8
0
100
AcDbBlockEnd
  0
BLOCK
  5
C09
330
C08
100
AcDbEntity
  8
0
100
AcDbBlockBegin
  2
_OPEN
 70
     0
 10
0.0
 20
0.0
 30
0.0
  3
_OPEN
  1

  0
LINE
  5
C0A
330
C08
100
AcDbEntity
  8
0
  6
ByBlock
 62
     0
100
AcDbLine
 10
-1.0
 20
0.1666666666666666
 30
0.0
 11
0.0
 21
0.0
 31
0.0
  0
LINE
  5
C0B
330
C08
100
AcDbEntity
  8
0
  6
ByBlock
 62
     0
100
AcDbLine
 10
0.0
 20
0.0
 30
0.0
 11
-1.0
 21
-0.1666666666666666
 31
0.0
  0
LINE
  5
C0C
330
C08
100
AcDbEntity
  8
0
  6
ByBlock
 62
     0
100
AcDbLine
 10
0.0
 20
0.0
 30
0.0
 11
-1.0
 21
0.0
 31
0.0
  0
ENDBLK
  5
C0D
330
C08
100
AcDbEntity
  8
0
100
AcDbBlockEnd
  0
BLOCK
  5
13E06
330
13E05
100
AcDbEntity
  8
0
100
AcDbBlockBegin
  2
*D1
 70
     1
 10
0.0
 20
0.0
 30
0.0
  3
*D1
  1

  0
LINE
  5
145F2
330
13E05
100
AcDbEntity
  8
寸法線
 62
     0
440
 16777216
370
    -2
100
AcDbLine
 10
981.249943983793
 20
589.9997584265982
 30
0.0
 11
889.9999439837925
 21
589.9997584265982
 31
0.0
  0
LINE
  5
145F3
330
13E05
100
AcDbEntity
  8
寸法線
 62
     0
440
 16777216
370
    -2
100
AcDbLine
 10
981.249943983793
 20
1009.999758426598
 30
0.0
 11
889.9999439837925
 21
1009.999758426598
 31
0.0
  0
LINE
  5
145F4
330
13E05
100
AcDbEntity
  8
寸法線
 62
     0
440
 16777216
370
    -2
100
AcDbLine
 10
899.9999439837926
 20
609.9997584265982
 30
0.0
 11
899.9999439837925
 21
989.9997584265983
 31
0.0
  0
INSERT
  5
145F5
330
13E05
100
AcDbEntity
  8
寸法線
 62
     0
440
 16777216
370
    -2
100
AcDbBlockReference
  2
_OPEN
 10
899.9999439837926
 20
589.9997584265982
 30
0.0
 41
20.0
 42
20.0
 43
20.0
 50
270.0
  0
INSERT
  5
145F6
330
13E05
100
AcDbEntity
  8
寸法線
 62
     0
440
 16777216
370
    -2
100
AcDbBlockReference
  2
_OPEN
 10
899.9999439837925
 20
1009.999758426598
 30
0.0
 41
20.0
 42
20.0
 43
20.0
 50
90.0
  0
MTEXT
  5
145F7
330
13E05
100
AcDbEntity
  8
寸法線
 62
     0
440
 16777216
100
AcDbMText
 10
878.7474833538711
 20
799.999758426598
 30
0.0
 40
25.0
 41
0.0
 46
0.0
 71
     5
 72
     1
  1
\A1;420
 11
0.0000000000000001
 21
1.0
 31
0.0
 73
     1
 44
1.0
  0
POINT
  5
145F8
330
13E05
100
AcDbEntity
  8
Defpoints
 62
     0
440
 16777216
100
AcDbPoint
 10
989.9999439837928
 20
589.9997584265982
 30
0.0
  0
POINT
  5
145F9
330
13E05
100
AcDbEntity
  8
Defpoints
 62
     0
440
 16777216
100
AcDbPoint
 10
989.9999439837928
 20
1009.999758426598
 30
0.0
  0
POINT
  5
145FA
330
13E05
100
AcDbEntity
  8
Defpoints
 62
     0
440
 16777216
100
AcDbPoint
 10
899.9999439837925
 20
1009.999758426598
 30
0.0
  0
ENDBLK
  5
13E07
330
13E05
100
AcDbEntity
  8
0
100
AcDbBlockEnd
  0
BLOCK
  5
13E12
330
13E11
100
AcDbEntity
  8
0
100
AcDbBlockBegin
  2
*D2
 70
     1
 10
0.0
 20
0.0
 30
0.0
  3
*D2
  1

  0
LINE
  5
145FB
330
13E11
100
AcDbEntity
  8
寸法線
 62
     0
440
 16777216
370
    -2
100
AcDbLine
 10
2330.000120199395
 20
566.2502546494029
 30
0.0
 11
2330.000120199395
 21
489.9999837322083
 31
0.0
  0
LINE
  5
145FC
330
13E11
100
AcDbEntity
  8
寸法線
 62
     0
440
 16777216
370
    -2
100
AcDbLine
 10
2670.000120199395
 20
566.2502546494029
 30
0.0
 11
2670.000120199395
 21
489.9999837322083
 31
0.0
  0
LINE
  5
145FD
330
13E11
100
AcDbEntity
  8
寸法線
 62
     0
440
 16777216
370
    -2
100
AcDbLine
 10
2350.000120199395
 20
499.9999837322084
 30
0.0
 11
2650.000120199395
 21
499.9999837322084
 31
0.0
  0
INSERT
  5
145FE
330
13E11
100
AcDbEntity
  8
寸法線
 62
     0
440
 16777216
370
    -2
100
AcDbBlockReference
  2
_OPEN
 10
2330.000120199395
 20
499.9999837322084
 30
0.0
 41
20.0
 42
20.0
 43
20.0
 50
180.0
  0
INSERT
  5
145FF
330
13E11
100
AcDbEntity
  8
寸法線
 62
     0
440
 16777216
370
    -2
100
AcDbBlockReference
  2
_OPEN
 10
2670.000120199395
 20
499.9999837322084
 30
0.0
 41
20.0
 42
20.0
 43
20.0
  0
MTEXT
  5
14600
330
13E11
100
AcDbEntity
  8
寸法線
 62
     0
440
 16777216
100
AcDbMText
 10
2500.000121120823
 20
521.2499837322083
 30
0.0
 40
25.0
 41
0.0
 46
0.0
 71
     5
 72
     1
  1
\A1;340
 73
     1
 44
1.0
  0
POINT
  5
14601
330
13E11
100
AcDbEntity
  8
Defpoints
 62
     0
440
 16777216
100
AcDbPoint
 10
2330.000120199395
 20
575.0002546494028
 30
0.0
  0
POINT
  5
14602
330
13E11
100
AcDbEntity
  8
Defpoints
 62
     0
440
 16777216
100
AcDbPoint
 10
2670.000120199395
 20
575.0002546494028
 30
0.0
  0
POINT
  5
14603
330
13E11
100
AcDbEntity
  8
Defpoints
 62
     0
440
 16777216
100
AcDbPoint
 10
2670.000120199395
 20
499.9999837322084
 30
0.0
  0
ENDBLK
  5
13E13
330
13E11
100
AcDbEntity
  8
0
100
AcDbBlockEnd
  0
BLOCK
  5
13E1E
330
13E1D
100
AcDbEntity
  8
0
100
AcDbBlockBegin
  2
*D3
 70
     1
 10
0.0
 20
0.0
 30
0.0
  3
*D3
  1

  0
LINE
  5
14604
330
13E1D
100
AcDbEntity
  8
寸法線
 62
     0
440
 16777216
370
    -2
100
AcDbLine
 10
2289.999896414979
 20
581.2504890773521
 30
0.0
 11
2289.999896414979
 21
489.9999837322083
 31
0.0
  0
LINE
  5
14605
330
13E1D
100
AcDbEntity
  8
寸法線
 62
     0
440
 16777216
370
    -2
100
AcDbLine
 10
2330.000120199395
 20
566.2502546494029
 30
0.0
 11
2330.000120199395
 21
489.9999837322083
 31
0.0
  0
LINE
  5
14606
330
13E1D
100
AcDbEntity
  8
寸法線
 62
     0
440
 16777216
370
    -2
100
AcDbLine
 10
2269.999896414979
 20
499.9999837322084
 30
0.0
 11
2249.999896414978
 21
499.9999837322084
 31
0.0
  0
LINE
  5
14607
330
13E1D
100
AcDbEntity
  8
寸法線
 62
     0
440
 16777216
370
    -2
100
AcDbLine
 10
2350.000120199395
 20
499.9999837322084
 30
0.0
 11
2370.000120199395
 21
499.9999837322084
 31
0.0
  0
LINE
  5
14608
330
13E1D
100
AcDbEntity
  8
寸法線
 62
     0
440
 16777216
370
    -2
100
AcDbLine
 10
2289.999896414979
 20
499.9999837322084
 30
0.0
 11
2330.000120199395
 21
499.9999837322084
 31
0.0
  0
INSERT
  5
14609
330
13E1D
100
AcDbEntity
  8
寸法線
 62
     0
440
 16777216
370
    -2
100
AcDbBlockReference
  2
_OPEN
 10
2289.999896414979
 20
499.9999837322084
 30
0.0
 41
20.0
 42
20.0
 43
20.0
  0
INSERT
  5
1460A
330
13E1D
100
AcDbEntity
  8
寸法線
 62
     0
440
 16777216
370
    -2
100
AcDbBlockReference
  2
_OPEN
 10
2330.000120199395
 20
499.9999837322084
 30
0.0
 41
20.0
 42
20.0
 43
20.0
 50
180.0
  0
MTEXT
  5
1460B
330
13E1D
100
AcDbEntity
  8
寸法線
 62
     0
440
 16777216
100
AcDbMText
 10
2310.000008307187
 20
521.2499837322083
 30
0.0
 40
25.0
 41
0.0
 46
0.0
 71
     5
 72
     1
  1
\A1;40
 73
     1
 44
1.0
  0
POINT
  5
1460C
330
13E1D
100
AcDbEntity
  8
Defpoints
 62
     0
440
 16777216
100
AcDbPoint
 10
2289.999896414979
 20
590.000489077352
 30
0.0
  0
POINT
  5
1460D
330
13E1D
100
AcDbEntity
  8
Defpoints
 62
     0
440
 16777216
100
AcDbPoint
 10
2330.000120199395
 20
575.0002546494028
 30
0.0
  0
POINT
  5
1460E
330
13E1D
100
AcDbEntity
  8
Defpoints
 62
     0
440
 16777216
100
AcDbPoint
 10
2330.000120199395
 20
499.9999837322084
 30
0.0
  0
ENDBLK
  5
13E1F
330
13E1D
100
AcDbEntity
  8
0
100
AcDbBlockEnd
  0
BLOCK
  5
13E2C
330
13E2B
100
AcDbEntity
  8
0
100
AcDbBlockBegin
  2
*D4
 70
     1
 10
0.0
 20
0.0
 30
0.0
  3
*D4
  1

  0
LINE
  5
1460F
330
13E2B
100
AcDbEntity
  8
寸法線
 62
     0
440
 16777216
370
    -2
100
AcDbLine
 10
2733.750120199396
 20
970.0002546494033
 30
0.0
 11
2809.99989641498
 21
970.0002546494033
 31
0.0
  0
LINE
  5
14610
330
13E2B
100
AcDbEntity
  8
寸法線
 62
     0
440
 16777216
370
    -2
100
AcDbLine
 10
2718.74989641498
 20
1010.000020221483
 30
0.0
 11
2809.99989641498
 21
1010.000020221483
 31
0.0
  0
LINE
  5
14611
330
13E2B
100
AcDbEntity
  8
寸法線
 62
     0
440
 16777216
370
    -2
100
AcDbLine
 10
2799.99989641498
 20
950.0002546494034
 30
0.0
 11
2799.99989641498
 21
930.0002546494033
 31
0.0
  0
LINE
  5
14612
330
13E2B
100
AcDbEntity
  8
寸法線
 62
     0
440
 16777216
370
    -2
100
AcDbLine
 10
2799.99989641498
 20
1030.000020221483
 30
0.0
 11
2799.99989641498
 21
1050.000020221483
 31
0.0
  0
LINE
  5
14613
330
13E2B
100
AcDbEntity
  8
寸法線
 62
     0
440
 16777216
370
    -2
100
AcDbLine
 10
2799.99989641498
 20
970.0002546494033
 30
0.0
 11
2799.99989641498
 21
1010.000020221483
 31
0.0
  0
INSERT
  5
14614
330
13E2B
100
AcDbEntity
  8
寸法線
 62
     0
440
 16777216
370
    -2
100
AcDbBlockReference
  2
_OPEN
 10
2799.99989641498
 20
970.0002546494033
 30
0.0
 41
20.0
 42
20.0
 43
20.0
 50
90.0
  0
INSERT
  5
14615
330
13E2B
100
AcDbEntity
  8
寸法線
 62
     0
440
 16777216
370
    -2
100
AcDbBlockReference
  2
_OPEN
 10
2799.99989641498
 20
1010.000020221483
 30
0.0
 41
20.0
 42
20.0
 43
20.0
 50
270.0
  0
MTEXT
  5
14616
330
13E2B
100
AcDbEntity
  8
寸法線
 62
     0
440
 16777216
100
AcDbMText
 10
2778.749896414979
 20
990.0001374354424
 30
0.0
 40
25.0
 41
0.0
 46
0.0
 71
     5
 72
     1
  1
\A1;40
 11
0.0000000000000001
 21
1.0
 31
0.0
 73
     1
 44
1.0
  0
POINT
  5
14617
330
13E2B
100
AcDbEntity
  8
Defpoints
 62
     0
440
 16777216
100
AcDbPoint
 10
2725.000120199396
 20
970.0002546494033
 30
0.0
  0
POINT
  5
14618
330
13E2B
100
AcDbEntity
  8
Defpoints
 62
     0
440
 16777216
100
AcDbPoint
 10
2709.999896414979
 20
1010.000020221483
 30
0.0
  0
POINT
  5
14619
330
13E2B
100
AcDbEntity
  8
Defpoints
 62
     0
440
 16777216
100
AcDbPoint
 10
2799.99989641498
 20
1010.000020221483
 30
0.0
  0
ENDBLK
  5
13E2D
330
13E2B
100
AcDbEntity
  8
0
100
AcDbBlockEnd
  0
BLOCK
  5
13E3A
330
13E39
100
AcDbEntity
  8
0
100
AcDbBlockBegin
  2
*D5
 70
     1
 10
0.0
 20
0.0
 30
0.0
  3
*D5
  1

  0
LINE
  5
1461A
330
13E39
100
AcDbEntity
  8
寸法線
 62
     0
440
 16777216
370
    -2
100
AcDbLine
 10
2733.750120199396
 20
630.0002546494031
 30
0.0
 11
2809.999896414979
 21
630.0002546494031
 31
0.0
  0
LINE
  5
1461B
330
13E39
100
AcDbEntity
  8
寸法線
 62
     0
440
 16777216
370
    -2
100
AcDbLine
 10
2733.750120199396
 20
970.0002546494033
 30
0.0
 11
2809.999896414979
 21
970.0002546494033
 31
0.0
  0
LINE
  5
1461C
330
13E39
100
AcDbEntity
  8
寸法線
 62
     0
440
 16777216
370
    -2
100
AcDbLine
 10
2799.999896414979
 20
650.0002546494031
 30
0.0
 11
2799.999896414979
 21
950.0002546494034
 31
0.0
  0
INSERT
  5
1461D
330
13E39
100
AcDbEntity
  8
寸法線
 62
     0
440
 16777216
370
    -2
100
AcDbBlockReference
  2
_OPEN
 10
2799.999896414979
 20
630.0002546494031
 30
0.0
 41
20.0
 42
20.0
 43
20.0
 50
270.0
  0
INSERT
  5
1461E
330
13E39
100
AcDbEntity
  8
寸法線
 62
     0
440
 16777216
370
    -2
100
AcDbBlockReference
  2
_OPEN
 10
2799.999896414979
 20
970.0002546494033
 30
0.0
 41
20.0
 42
20.0
 43
20.0
 50
90.0
  0
MTEXT
  5
1461F
330
13E39
100
AcDbEntity
  8
寸法線
 62
     0
440
 16777216
100
AcDbMText
 10
2778.749896414979
 20
800.000254649403
 30
0.0
 40
25.0
 41
0.0
 46
0.0
 71
     5
 72
     1
  1
\A1;340
 11
0.0000000000000001
 21
1.0
 31
0.0
 73
     1
 44
1.0
  0
POINT
  5
14620
330
13E39
100
AcDbEntity
  8
Defpoints
 62
     0
440
 16777216
100
AcDbPoint
 10
2725.000120199396
 20
630.0002546494031
 30
0.0
  0
POINT
  5
14621
330
13E39
100
AcDbEntity
  8
Defpoints
 62
     0
440
 16777216
100
AcDbPoint
 10
2725.000120199396
 20
970.0002546494033
 30
0.0
  0
POINT
  5
14622
330
13E39
100
AcDbEntity
  8
Defpoints
 62
     0
440
 16777216
100
AcDbPoint
 10
2799.999896414979
 20
970.0002546494033
 30
0.0
  0
ENDBLK
  5
13E3B
330
13E39
100
AcDbEntity
  8
0
100
AcDbBlockEnd
  0
BLOCK
  5
13E46
330
13E45
100
AcDbEntity
  8
0
100
AcDbBlockBegin
  2
*D6
 70
     1
 10
0.0
 20
0.0
 30
0.0
  3
*D6
  1

  0
LINE
  5
14623
330
13E45
100
AcDbEntity
  8
寸法線
 62
     0
440
 16777216
370
    -2
100
AcDbLine
 10
2718.74989641498
 20
590.0004890773523
 30
0.0
 11
2809.999896414979
 21
590.0004890773523
 31
0.0
  0
LINE
  5
14624
330
13E45
100
AcDbEntity
  8
寸法線
 62
     0
440
 16777216
370
    -2
100
AcDbLine
 10
2733.750120199396
 20
630.0002546494031
 30
0.0
 11
2809.999896414979
 21
630.0002546494031
 31
0.0
  0
LINE
  5
14625
330
13E45
100
AcDbEntity
  8
寸法線
 62
     0
440
 16777216
370
    -2
100
AcDbLine
 10
2799.999896414979
 20
570.0004890773523
 30
0.0
 11
2799.999896414979
 21
550.0004890773523
 31
0.0
  0
LINE
  5
14626
330
13E45
100
AcDbEntity
  8
寸法線
 62
     0
440
 16777216
370
    -2
100
AcDbLine
 10
2799.999896414979
 20
650.0002546494031
 30
0.0
 11
2799.999896414979
 21
670.0002546494031
 31
0.0
  0
LINE
  5
14627
330
13E45
100
AcDbEntity
  8
寸法線
 62
     0
440
 16777216
370
    -2
100
AcDbLine
 10
2799.999896414979
 20
590.0004890773523
 30
0.0
 11
2799.999896414979
 21
630.0002546494031
 31
0.0
  0
INSERT
  5
14628
330
13E45
100
AcDbEntity
  8
寸法線
 62
     0
440
 16777216
370
    -2
100
AcDbBlockReference
  2
_OPEN
 10
2799.999896414979
 20
590.0004890773523
 30
0.0
 41
20.0
 42
20.0
 43
20.0
 50
90.0
  0
INSERT
  5
14629
330
13E45
100
AcDbEntity
  8
寸法線
 62
     0
440
 16777216
370
    -2
100
AcDbBlockReference
  2
_OPEN
 10
2799.999896414979
 20
630.0002546494031
 30
0.0
 41
20.0
 42
20.0
 43
20.0
 50
270.0
  0
MTEXT
  5
1462A
330
13E45
100
AcDbEntity
  8
寸法線
 62
     0
440
 16777216
100
AcDbMText
 10
2778.749896414979
 20
610.0003718633769
 30
0.0
 40
25.0
 41
0.0
 46
0.0
 71
     5
 72
     1
  1
\A1;40
 11
0.0000000000000001
 21
1.0
 31
0.0
 73
     1
 44
1.0
  0
POINT
  5
1462B
330
13E45
100
AcDbEntity
  8
Defpoints
 62
     0
440
 16777216
100
AcDbPoint
 10
2709.999896414979
 20
590.0004890773523
 30
0.0
  0
POINT
  5
1462C
330
13E45
100
AcDbEntity
  8
Defpoints
 62
     0
440
 16777216
100
AcDbPoint
 10
2725.000120199396
 20
630.0002546494031
 30
0.0
  0
POINT
  5
1462D
330
13E45
100
AcDbEntity
  8
Defpoints
 62
     0
440
 16777216
100
AcDbPoint
 10
2799.999896414979
 20
630.0002546494031
 30
0.0
  0
ENDBLK
  5
13E47
330
13E45
100
AcDbEntity
  8
0
100
AcDbBlockEnd
  0
BLOCK
  5
13E54
330
13E53
100
AcDbEntity
  8
0
100
AcDbBlockBegin
  2
*D7
 70
     1
 10
0.0
 20
0.0
 30
0.0
  3
*D7
  1

  0
LINE
  5
1462E
330
13E53
100
AcDbEntity
  8
寸法線
 62
     0
440
 16777216
370
    -2
100
AcDbLine
 10
2670.000120199395
 20
566.2502546494029
 30
0.0
 11
2670.000120199395
 21
489.9999837322083
 31
0.0
  0
LINE
  5
1462F
330
13E53
100
AcDbEntity
  8
寸法線
 62
     0
440
 16777216
370
    -2
100
AcDbLine
 10
2709.999896414979
 20
581.2504890773521
 30
0.0
 11
2709.999896414979
 21
489.9999837322083
 31
0.0
  0
LINE
  5
14630
330
13E53
100
AcDbEntity
  8
寸法線
 62
     0
440
 16777216
370
    -2
100
AcDbLine
 10
2650.000120199395
 20
499.9999837322084
 30
0.0
 11
2630.000120199395
 21
499.9999837322084
 31
0.0
  0
LINE
  5
14631
330
13E53
100
AcDbEntity
  8
寸法線
 62
     0
440
 16777216
370
    -2
100
AcDbLine
 10
2729.999896414979
 20
499.9999837322084
 30
0.0
 11
2749.999896414978
 21
499.9999837322084
 31
0.0
  0
LINE
  5
14632
330
13E53
100
AcDbEntity
  8
寸法線
 62
     0
440
 16777216
370
    -2
100
AcDbLine
 10
2670.000120199395
 20
499.9999837322084
 30
0.0
 11
2709.999896414979
 21
499.9999837322084
 31
0.0
  0
INSERT
  5
14633
330
13E53
100
AcDbEntity
  8
寸法線
 62
     0
440
 16777216
370
    -2
100
AcDbBlockReference
  2
_OPEN
 10
2670.000120199395
 20
499.9999837322084
 30
0.0
 41
20.0
 42
20.0
 43
20.0
  0
INSERT
  5
14634
330
13E53
100
AcDbEntity
  8
寸法線
 62
     0
440
 16777216
370
    -2
100
AcDbBlockReference
  2
_OPEN
 10
2709.999896414979
 20
499.9999837322084
 30
0.0
 41
20.0
 42
20.0
 43
20.0
 50
180.0
  0
MTEXT
  5
14635
330
13E53
100
AcDbEntity
  8
寸法線
 62
     0
440
 16777216
100
AcDbMText
 10
2690.000008307187
 20
521.2499837322083
 30
0.0
 40
25.0
 41
0.0
 46
0.0
 71
     5
 72
     1
  1
\A1;40
 73
     1
 44
1.0
  0
POINT
  5
14636
330
13E53
100
AcDbEntity
  8
Defpoints
 62
     0
440
 16777216
100
AcDbPoint
 10
2670.000120199395
 20
575.0002546494028
 30
0.0
  0
POINT
  5
14637
330
13E53
100
AcDbEntity
  8
Defpoints
 62
     0
440
 16777216
100
AcDbPoint
 10
2709.999896414979
 20
590.000489077352
 30
0.0
  0
POINT
  5
14638
330
13E53
100
AcDbEntity
  8
Defpoints
 62
     0
440
 16777216
100
AcDbPoint
 10
2709.999896414979
 20
499.9999837322084
 30
0.0
  0
ENDBLK
  5
13E55
330
13E53
100
AcDbEntity
  8
0
100
AcDbBlockEnd
  0
BLOCK
  5
13EAC
330
13EAB
100
AcDbEntity
  8
0
100
AcDbBlockBegin
  2
*D8
 70
     1
 10
0.0
 20
0.0
 30
0.0
  3
*D8
  1

  0
LINE
  5
14639
330
13EAB
100
AcDbEntity
  8
寸法線
 62
     0
440
 16777216
370
    -2
100
AcDbLine
 10
2658.750226983164
 20
2436.000043747317
 30
0.0
 11
2780.000226983163
 21
2436.000043747317
 31
0.0
  0
LINE
  5
1463A
330
13EAB
100
AcDbEntity
  8
寸法線
 62
     0
440
 16777216
370
    -2
100
AcDbLine
 10
2658.750226983164
 20
2054.000043747317
 30
0.0
 11
2780.000226983163
 21
2054.000043747317
 31
0.0
  0
LINE
  5
1463B
330
13EAB
100
AcDbEntity
  8
寸法線
 62
     0
440
 16777216
370
    -2
100
AcDbLine
 10
2770.000226983162
 20
2416.000043747317
 30
0.0
 11
2770.000226983162
 21
2074.000043747316
 31
0.0
  0
INSERT
  5
1463C
330
13EAB
100
AcDbEntity
  8
寸法線
 62
     0
440
 16777216
370
    -2
100
AcDbBlockReference
  2
_OPEN
 10
2770.000226983162
 20
2436.000043747317
 30
0.0
 41
20.0
 42
20.0
 43
20.0
 50
90.0
  0
INSERT
  5
1463D
330
13EAB
100
AcDbEntity
  8
寸法線
 62
     0
440
 16777216
370
    -2
100
AcDbBlockReference
  2
_OPEN
 10
2770.000226983162
 20
2054.000043747317
 30
0.0
 41
20.0
 42
20.0
 43
20.0
 50
270.0
  0
MTEXT
  5
1463E
330
13EAB
100
AcDbEntity
  8
寸法線
 62
     0
440
 16777216
100
AcDbMText
 10
2748.747766353242
 20
2245.000006527642
 30
0.0
 40
25.0
 41
0.0
 46
0.0
 71
     5
 72
     1
  1
\A1;382
 11
0.0000000000000001
 21
1.0
 31
0.0
 73
     1
 44
1.0
  0
POINT
  5
1463F
330
13EAB
100
AcDbEntity
  8
Defpoints
 62
     0
440
 16777216
100
AcDbPoint
 10
2650.000226983164
 20
2436.000043747317
 30
0.0
  0
POINT
  5
14640
330
13EAB
100
AcDbEntity
  8
Defpoints
 62
     0
440
 16777216
100
AcDbPoint
 10
2650.000226983164
 20
2054.000043747317
 30
0.0
  0
POINT
  5
14641
330
13EAB
100
AcDbEntity
  8
Defpoints
 62
     0
440
 16777216
100
AcDbPoint
 10
2770.000226983162
 20
2054.000043747317
 30
0.0
  0
ENDBLK
  5
13EAD
330
13EAB
100
AcDbEntity
  8
0
100
AcDbBlockEnd
  0
BLOCK
  5
13EB8
330
13EB7
100
AcDbEntity
  8
0
100
AcDbBlockBegin
  2
*D9
 70
     1
 10
0.0
 20
0.0
 30
0.0
  3
*D9
  1

  0
LINE
  5
14598
330
13EB7
100
AcDbEntity
  8
寸法線
 62
     0
440
 16777216
370
    -2
100
AcDbLine
 10
2051.999999999993
 20
591.2497401819742
 30
0.0
 11
2051.999999999993
 21
489.9999837322083
 31
0.0
  0
LINE
  5
14599
330
13EB7
100
AcDbEntity
  8
寸法線
 62
     0
440
 16777216
370
    -2
100
AcDbLine
 10
2083.999896414979
 20
581.2497401819741
 30
0.0
 11
2083.999896414979
 21
489.9999837322083
 31
0.0
  0
LINE
  5
1459A
330
13EB7
100
AcDbEntity
  8
寸法線
 62
     0
440
 16777216
370
    -2
100
AcDbLine
 10
2031.999999999993
 20
499.9999837322084
 30
0.0
 11
2011.999999999993
 21
499.9999837322084
 31
0.0
  0
LINE
  5
1459B
330
13EB7
100
AcDbEntity
  8
寸法線
 62
     0
440
 16777216
370
    -2
100
AcDbLine
 10
2103.999896414979
 20
499.9999837322084
 30
0.0
 11
2123.999896414979
 21
499.9999837322084
 31
0.0
  0
LINE
  5
1459C
330
13EB7
100
AcDbEntity
  8
寸法線
 62
     0
440
 16777216
370
    -2
100
AcDbLine
 10
2051.999999999993
 20
499.9999837322084
 30
0.0
 11
2083.999896414979
 21
499.9999837322084
 31
0.0
  0
INSERT
  5
1459D
330
13EB7
100
AcDbEntity
  8
寸法線
 62
     0
440
 16777216
370
    -2
100
AcDbBlockReference
  2
_OPEN
 10
2051.999999999993
 20
499.9999837322084
 30
0.0
 41
20.0
 42
20.0
 43
20.0
  0
INSERT
  5
1459E
330
13EB7
100
AcDbEntity
  8
寸法線
 62
     0
440
 16777216
370
    -2
100
AcDbBlockReference
  2
_OPEN
 10
2083.999896414979
 20
499.9999837322084
 30
0.0
 41
20.0
 42
20.0
 43
20.0
 50
180.0
  0
MTEXT
  5
1459F
330
13EB7
100
AcDbEntity
  8
寸法線
 62
     0
440
 16777216
100
AcDbMText
 10
2067.999948207486
 20
521.2524443621297
 30
0.0
 40
25.0
 41
0.0
 46
0.0
 71
     5
 72
     1
  1
\A1;32
 73
     1
 44
1.0
  0
POINT
  5
145A0
330
13EB7
100
AcDbEntity
  8
Defpoints
 62
     0
440
 16777216
100
AcDbPoint
 10
2051.999999999993
 20
599.9997401819741
 30
0.0
  0
POINT
  5
145A1
330
13EB7
100
AcDbEntity
  8
Defpoints
 62
     0
440
 16777216
100
AcDbPoint
 10
2083.999896414979
 20
589.9997401819741
 30
0.0
  0
POINT
  5
145A2
330
13EB7
100
AcDbEntity
  8
Defpoints
 62
     0
440
 16777216
100
AcDbPoint
 10
2083.999896414979
 20
499.9999837322084
 30
0.0
  0
ENDBLK
  5
13EB9
330
13EB7
100
AcDbEntity
  8
0
100
AcDbBlockEnd
  0
BLOCK
  5
13EC6
330
13EC5
100
AcDbEntity
  8
0
100
AcDbBlockBegin
  2
*D10
 70
     1
 10
0.0
 20
0.0
 30
0.0
  3
*D10
  1

  0
LINE
  5
145A3
330
13EC5
100
AcDbEntity
  8
寸法線
 62
     0
440
 16777216
370
    -2
100
AcDbLine
 10
2083.999896414979
 20
581.2497401819741
 30
0.0
 11
2083.999896414979
 21
429.9999837322084
 31
0.0
  0
LINE
  5
145A4
330
13EC5
100
AcDbEntity
  8
寸法線
 62
     0
440
 16777216
370
    -2
100
AcDbLine
 10
2099.999896414979
 20
581.2497401819741
 30
0.0
 11
2099.999896414979
 21
429.9999837322084
 31
0.0
  0
LINE
  5
145A5
330
13EC5
100
AcDbEntity
  8
寸法線
 62
     0
440
 16777216
370
    -2
100
AcDbLine
 10
2063.999896414979
 20
439.9999837322083
 30
0.0
 11
2043.999896414979
 21
439.9999837322083
 31
0.0
  0
LINE
  5
145A6
330
13EC5
100
AcDbEntity
  8
寸法線
 62
     0
440
 16777216
370
    -2
100
AcDbLine
 10
2119.999896414979
 20
439.9999837322083
 30
0.0
 11
2139.999896414979
 21
439.9999837322083
 31
0.0
  0
LINE
  5
145A7
330
13EC5
100
AcDbEntity
  8
寸法線
 62
     0
440
 16777216
370
    -2
100
AcDbLine
 10
2083.999896414979
 20
439.9999837322083
 30
0.0
 11
2099.999896414979
 21
439.9999837322083
 31
0.0
  0
INSERT
  5
145A8
330
13EC5
100
AcDbEntity
  8
寸法線
 62
     0
440
 16777216
370
    -2
100
AcDbBlockReference
  2
_OPEN
 10
2083.999896414979
 20
439.9999837322083
 30
0.0
 41
20.0
 42
20.0
 43
20.0
  0
INSERT
  5
145A9
330
13EC5
100
AcDbEntity
  8
寸法線
 62
     0
440
 16777216
370
    -2
100
AcDbBlockReference
  2
_OPEN
 10
2099.999896414979
 20
439.9999837322083
 30
0.0
 41
20.0
 42
20.0
 43
20.0
 50
180.0
  0
MTEXT
  5
145AA
330
13EC5
100
AcDbEntity
  8
寸法線
 62
     0
440
 16777216
100
AcDbMText
 10
2091.999896414979
 20
461.2499837322084
 30
0.0
 40
25.0
 41
0.0
 46
0.0
 71
     5
 72
     1
  1
\A1;16
 73
     1
 44
1.0
  0
POINT
  5
145AB
330
13EC5
100
AcDbEntity
  8
Defpoints
 62
     0
440
 16777216
100
AcDbPoint
 10
2083.999896414979
 20
589.9997401819741
 30
0.0
  0
POINT
  5
145AC
330
13EC5
100
AcDbEntity
  8
Defpoints
 62
     0
440
 16777216
100
AcDbPoint
 10
2099.999896414979
 20
589.9997401819741
 30
0.0
  0
POINT
  5
145AD
330
13EC5
100
AcDbEntity
  8
Defpoints
 62
     0
440
 16777216
100
AcDbPoint
 10
2099.999896414979
 20
439.9999837322083
 30
0.0
  0
ENDBLK
  5
13EC7
330
13EC5
100
AcDbEntity
  8
0
100
AcDbBlockEnd
  0
BLOCK
  5
13ED4
330
13ED3
100
AcDbEntity
  8
0
100
AcDbBlockBegin
  2
*D11
 70
     1
 10
0.0
 20
0.0
 30
0.0
  3
*D11
  1

  0
LINE
  5
145AE
330
13ED3
100
AcDbEntity
  8
寸法線
 62
     0
440
 16777216
370
    -2
100
AcDbLine
 10
2015.24989641498
 20
939.9997401819746
 30
0.0
 11
2013.999896414979
 21
939.9997401819746
 31
0.0
  0
LINE
  5
145AF
330
13ED3
100
AcDbEntity
  8
寸法線
 62
     0
440
 16777216
370
    -2
100
AcDbLine
 10
2015.24989641498
 20
999.9997401819745
 30
0.0
 11
2013.999896414979
 21
999.9997401819745
 31
0.0
  0
LINE
  5
145B0
330
13ED3
100
AcDbEntity
  8
寸法線
 62
     0
440
 16777216
370
    -2
100
AcDbLine
 10
2023.999896414979
 20
979.9997401819746
 30
0.0
 11
2023.999896414979
 21
959.9997401819747
 31
0.0
  0
LINE
  5
145B1
330
13ED3
100
AcDbEntity
  8
寸法線
 62
     0
440
 16777216
370
    -2
100
AcDbLine
 10
2023.999896414979
 20
939.9997401819746
 30
0.0
 11
2023.999896414979
 21
852.4800551425833
 31
0.0
  0
INSERT
  5
145B2
330
13ED3
100
AcDbEntity
  8
寸法線
 62
     0
440
 16777216
370
    -2
100
AcDbBlockReference
  2
_OPEN
 10
2023.999896414979
 20
999.9997401819745
 30
0.0
 41
20.0
 42
20.0
 43
20.0
 50
90.0
  0
INSERT
  5
145B3
330
13ED3
100
AcDbEntity
  8
寸法線
 62
     0
440
 16777216
370
    -2
100
AcDbBlockReference
  2
_OPEN
 10
2023.999896414979
 20
939.9997401819746
 30
0.0
 41
20.0
 42
20.0
 43
20.0
 50
270.0
  0
MTEXT
  5
145B4
330
13ED3
100
AcDbEntity
  8
寸法線
 62
     0
440
 16777216
100
AcDbMText
 10
2002.749896414979
 20
886.2398976622676
 30
0.0
 40
25.0
 41
0.0
 46
0.0
 71
     5
 72
     1
  1
\A1;%%C60
 11
0.0000000000000001
 21
1.0
 31
0.0
 73
     1
 44
1.0
  0
POINT
  5
145B5
330
13ED3
100
AcDbEntity
  8
Defpoints
 62
     0
440
 16777216
100
AcDbPoint
 10
2023.999896414979
 20
939.9997401819746
 30
0.0
  0
POINT
  5
145B6
330
13ED3
100
AcDbEntity
  8
Defpoints
 62
     0
440
 16777216
100
AcDbPoint
 10
2023.999896414979
 20
999.9997401819745
 30
0.0
  0
POINT
  5
145B7
330
13ED3
100
AcDbEntity
  8
Defpoints
 62
     0
440
 16777216
100
AcDbPoint
 10
2023.999896414979
 20
999.9997401819745
 30
0.0
  0
ENDBLK
  5
13ED5
330
13ED3
100
AcDbEntity
  8
0
100
AcDbBlockEnd
  0
BLOCK
  5
13EE1
330
13EE0
100
AcDbEntity
  8
0
100
AcDbBlockBegin
  2
*D12
 70
     1
 10
0.0
 20
0.0
 30
0.0
  3
*D12
  1

  0
LINE
  5
145B8
330
13EE0
100
AcDbEntity
  8
寸法線
 62
     0
440
 16777216
370
    -2
100
AcDbLine
 10
1615.999896414978
 20
581.2497538654456
 30
0.0
 11
1615.999896414978
 21
489.9999837322083
 31
0.0
  0
LINE
  5
145B9
330
13EE0
100
AcDbEntity
  8
寸法線
 62
     0
440
 16777216
370
    -2
100
AcDbLine
 10
1647.999896414978
 20
591.2497538654456
 30
0.0
 11
1647.999896414978
 21
489.9999837322083
 31
0.0
  0
LINE
  5
145BA
330
13EE0
100
AcDbEntity
  8
寸法線
 62
     0
440
 16777216
370
    -2
100
AcDbLine
 10
1595.999896414978
 20
499.9999837322084
 30
0.0
 11
1575.999896414979
 21
499.9999837322084
 31
0.0
  0
LINE
  5
145BB
330
13EE0
100
AcDbEntity
  8
寸法線
 62
     0
440
 16777216
370
    -2
100
AcDbLine
 10
1667.999896414978
 20
499.9999837322084
 30
0.0
 11
1687.999896414978
 21
499.9999837322084
 31
0.0
  0
LINE
  5
145BC
330
13EE0
100
AcDbEntity
  8
寸法線
 62
     0
440
 16777216
370
    -2
100
AcDbLine
 10
1615.999896414978
 20
499.9999837322084
 30
0.0
 11
1647.999896414978
 21
499.9999837322084
 31
0.0
  0
INSERT
  5
145BD
330
13EE0
100
AcDbEntity
  8
寸法線
 62
     0
440
 16777216
370
    -2
100
AcDbBlockReference
  2
_OPEN
 10
1615.999896414978
 20
499.9999837322084
 30
0.0
 41
20.0
 42
20.0
 43
20.0
  0
INSERT
  5
145BE
330
13EE0
100
AcDbEntity
  8
寸法線
 62
     0
440
 16777216
370
    -2
100
AcDbBlockReference
  2
_OPEN
 10
1647.999896414978
 20
499.9999837322084
 30
0.0
 41
20.0
 42
20.0
 43
20.0
 50
180.0
  0
MTEXT
  5
145BF
330
13EE0
100
AcDbEntity
  8
寸法線
 62
     0
440
 16777216
100
AcDbMText
 10
1631.999896414978
 20
521.2524443621297
 30
0.0
 40
25.0
 41
0.0
 46
0.0
 71
     5
 72
     1
  1
\A1;32
 73
     1
 44
1.0
  0
POINT
  5
145C0
330
13EE0
100
AcDbEntity
  8
Defpoints
 62
     0
440
 16777216
100
AcDbPoint
 10
1615.999896414978
 20
589.9997538654456
 30
0.0
  0
POINT
  5
145C1
330
13EE0
100
AcDbEntity
  8
Defpoints
 62
     0
440
 16777216
100
AcDbPoint
 10
1647.999896414978
 20
599.9997538654456
 30
0.0
  0
POINT
  5
145C2
330
13EE0
100
AcDbEntity
  8
Defpoints
 62
     0
440
 16777216
100
AcDbPoint
 10
1647.999896414978
 20
499.9999837322084
 30
0.0
  0
ENDBLK
  5
13EE2
330
13EE0
100
AcDbEntity
  8
0
100
AcDbBlockEnd
  0
BLOCK
  5
13EEF
330
13EEE
100
AcDbEntity
  8
0
100
AcDbBlockBegin
  2
*D13
 70
     1
 10
0.0
 20
0.0
 30
0.0
  3
*D13
  1

  0
LINE
  5
145C3
330
13EEE
100
AcDbEntity
  8
寸法線
 62
     0
440
 16777216
370
    -2
100
AcDbLine
 10
1647.999896414978
 20
591.2497538654456
 30
0.0
 11
1647.999896414978
 21
489.9999837322083
 31
0.0
  0
LINE
  5
145C4
330
13EEE
100
AcDbEntity
  8
寸法線
 62
     0
440
 16777216
370
    -2
100
AcDbLine
 10
2051.999896414979
 20
591.2497401819742
 30
0.0
 11
2051.999896414979
 21
489.9999837322083
 31
0.0
  0
LINE
  5
145C5
330
13EEE
100
AcDbEntity
  8
寸法線
 62
     0
440
 16777216
370
    -2
100
AcDbLine
 10
1667.999896414978
 20
499.9999837322084
 30
0.0
 11
2031.999896414979
 21
499.9999837322084
 31
0.0
  0
INSERT
  5
145C6
330
13EEE
100
AcDbEntity
  8
寸法線
 62
     0
440
 16777216
370
    -2
100
AcDbBlockReference
  2
_OPEN
 10
1647.999896414978
 20
499.9999837322084
 30
0.0
 41
20.0
 42
20.0
 43
20.0
 50
180.0
  0
INSERT
  5
145C7
330
13EEE
100
AcDbEntity
  8
寸法線
 62
     0
440
 16777216
370
    -2
100
AcDbBlockReference
  2
_OPEN
 10
2051.999896414979
 20
499.9999837322084
 30
0.0
 41
20.0
 42
20.0
 43
20.0
  0
MTEXT
  5
145C8
330
13EEE
100
AcDbEntity
  8
寸法線
 62
     0
440
 16777216
100
AcDbMText
 10
1849.999896414978
 20
521.2499837322083
 30
0.0
 40
25.0
 41
0.0
 46
0.0
 71
     5
 72
     1
  1
\A1;404
 73
     1
 44
1.0
  0
POINT
  5
145C9
330
13EEE
100
AcDbEntity
  8
Defpoints
 62
     0
440
 16777216
100
AcDbPoint
 10
1647.999896414978
 20
599.9997538654456
 30
0.0
  0
POINT
  5
145CA
330
13EEE
100
AcDbEntity
  8
Defpoints
 62
     0
440
 16777216
100
AcDbPoint
 10
2051.999896414979
 20
599.9997401819741
 30
0.0
  0
POINT
  5
145CB
330
13EEE
100
AcDbEntity
  8
Defpoints
 62
     0
440
 16777216
100
AcDbPoint
 10
2051.999896414979
 20
499.9999837322084
 30
0.0
  0
ENDBLK
  5
13EF0
330
13EEE
100
AcDbEntity
  8
0
100
AcDbBlockEnd
  0
BLOCK
  5
13EFB
330
13EFA
100
AcDbEntity
  8
0
100
AcDbBlockBegin
  2
*D14
 70
     1
 10
0.0
 20
0.0
 30
0.0
  3
*D14
  1

  0
LINE
  5
145CC
330
13EFA
100
AcDbEntity
  8
寸法線
 62
     0
440
 16777216
370
    -2
100
AcDbLine
 10
1599.999896414978
 20
581.2497538654456
 30
0.0
 11
1599.999896414978
 21
429.9999837322084
 31
0.0
  0
LINE
  5
145CD
330
13EFA
100
AcDbEntity
  8
寸法線
 62
     0
440
 16777216
370
    -2
100
AcDbLine
 10
1615.999896414978
 20
581.2497538654456
 30
0.0
 11
1615.999896414978
 21
429.9999837322084
 31
0.0
  0
LINE
  5
145CE
330
13EFA
100
AcDbEntity
  8
寸法線
 62
     0
440
 16777216
370
    -2
100
AcDbLine
 10
1579.999896414978
 20
439.9999837322083
 30
0.0
 11
1559.999896414979
 21
439.9999837322083
 31
0.0
  0
LINE
  5
145CF
330
13EFA
100
AcDbEntity
  8
寸法線
 62
     0
440
 16777216
370
    -2
100
AcDbLine
 10
1635.999896414978
 20
439.9999837322083
 30
0.0
 11
1655.999896414979
 21
439.9999837322083
 31
0.0
  0
LINE
  5
145D0
330
13EFA
100
AcDbEntity
  8
寸法線
 62
     0
440
 16777216
370
    -2
100
AcDbLine
 10
1599.999896414978
 20
439.9999837322083
 30
0.0
 11
1615.999896414978
 21
439.9999837322083
 31
0.0
  0
INSERT
  5
145D1
330
13EFA
100
AcDbEntity
  8
寸法線
 62
     0
440
 16777216
370
    -2
100
AcDbBlockReference
  2
_OPEN
 10
1599.999896414978
 20
439.9999837322083
 30
0.0
 41
20.0
 42
20.0
 43
20.0
  0
INSERT
  5
145D2
330
13EFA
100
AcDbEntity
  8
寸法線
 62
     0
440
 16777216
370
    -2
100
AcDbBlockReference
  2
_OPEN
 10
1615.999896414978
 20
439.9999837322083
 30
0.0
 41
20.0
 42
20.0
 43
20.0
 50
180.0
  0
MTEXT
  5
145D3
330
13EFA
100
AcDbEntity
  8
寸法線
 62
     0
440
 16777216
100
AcDbMText
 10
1607.999896414979
 20
461.2499837322084
 30
0.0
 40
25.0
 41
0.0
 46
0.0
 71
     5
 72
     1
  1
\A1;16
 73
     1
 44
1.0
  0
POINT
  5
145D4
330
13EFA
100
AcDbEntity
  8
Defpoints
 62
     0
440
 16777216
100
AcDbPoint
 10
1599.999896414978
 20
589.9997538654456
 30
0.0
  0
POINT
  5
145D5
330
13EFA
100
AcDbEntity
  8
Defpoints
 62
     0
440
 16777216
100
AcDbPoint
 10
1615.999896414978
 20
589.9997538654456
 30
0.0
  0
POINT
  5
145D6
330
13EFA
100
AcDbEntity
  8
Defpoints
 62
     0
440
 16777216
100
AcDbPoint
 10
1615.999896414978
 20
439.9999837322083
 30
0.0
  0
ENDBLK
  5
13EFC
330
13EFA
100
AcDbEntity
  8
0
100
AcDbBlockEnd
  0
BLOCK
  5
13F09
330
13F08
100
AcDbEntity
  8
0
100
AcDbBlockBegin
  2
*D15
 70
     1
 10
0.0
 20
0.0
 30
0.0
  3
*D15
  1

  0
LINE
  5
145D7
330
13F08
100
AcDbEntity
  8
寸法線
 62
     0
440
 16777216
370
    -2
100
AcDbLine
 10
1615.999896414978
 20
581.2497538654456
 30
0.0
 11
1615.999896414978
 21
429.9999837322084
 31
0.0
  0
LINE
  5
145D8
330
13F08
100
AcDbEntity
  8
寸法線
 62
     0
440
 16777216
370
    -2
100
AcDbLine
 10
2083.999896414979
 20
581.2497584265834
 30
0.0
 11
2083.999896414979
 21
429.9999837322084
 31
0.0
  0
LINE
  5
145D9
330
13F08
100
AcDbEntity
  8
寸法線
 62
     0
440
 16777216
370
    -2
100
AcDbLine
 10
1635.999896414978
 20
439.9999837322083
 30
0.0
 11
2063.999896414979
 21
439.9999837322083
 31
0.0
  0
INSERT
  5
145DA
330
13F08
100
AcDbEntity
  8
寸法線
 62
     0
440
 16777216
370
    -2
100
AcDbBlockReference
  2
_OPEN
 10
1615.999896414978
 20
439.9999837322083
 30
0.0
 41
20.0
 42
20.0
 43
20.0
 50
180.0
  0
INSERT
  5
145DB
330
13F08
100
AcDbEntity
  8
寸法線
 62
     0
440
 16777216
370
    -2
100
AcDbBlockReference
  2
_OPEN
 10
2083.999896414979
 20
439.9999837322083
 30
0.0
 41
20.0
 42
20.0
 43
20.0
  0
MTEXT
  5
145DC
330
13F08
100
AcDbEntity
  8
寸法線
 62
     0
440
 16777216
100
AcDbMText
 10
1849.999896414978
 20
461.2499837322084
 30
0.0
 40
25.0
 41
0.0
 46
0.0
 71
     5
 72
     1
  1
\A1;468
 73
     1
 44
1.0
  0
POINT
  5
145DD
330
13F08
100
AcDbEntity
  8
Defpoints
 62
     0
440
 16777216
100
AcDbPoint
 10
1615.999896414978
 20
589.9997538654456
 30
0.0
  0
POINT
  5
145DE
330
13F08
100
AcDbEntity
  8
Defpoints
 62
     0
440
 16777216
100
AcDbPoint
 10
2083.999896414979
 20
589.9997584265833
 30
0.0
  0
POINT
  5
145DF
330
13F08
100
AcDbEntity
  8
Defpoints
 62
     0
440
 16777216
100
AcDbPoint
 10
2083.999896414979
 20
439.9999837322083
 30
0.0
  0
ENDBLK
  5
13F0A
330
13F08
100
AcDbEntity
  8
0
100
AcDbBlockEnd
  0
BLOCK
  5
13F15
330
13F14
100
AcDbEntity
  8
0
100
AcDbBlockBegin
  2
*D16
 70
     1
 10
0.0
 20
0.0
 30
0.0
  3
*D16
  1

  0
LINE
  5
145E0
330
13F14
100
AcDbEntity
  8
寸法線
 62
     0
440
 16777216
370
    -2
100
AcDbLine
 10
1599.999896414978
 20
581.2497721100548
 30
0.0
 11
1599.999896414978
 21
369.9999837322084
 31
0.0
  0
LINE
  5
145E1
330
13F14
100
AcDbEntity
  8
寸法線
 62
     0
440
 16777216
370
    -2
100
AcDbLine
 10
2099.999896414979
 20
581.2497584265834
 30
0.0
 11
2099.999896414979
 21
369.9999837322084
 31
0.0
  0
LINE
  5
145E2
330
13F14
100
AcDbEntity
  8
寸法線
 62
     0
440
 16777216
370
    -2
100
AcDbLine
 10
1619.999896414978
 20
379.9999837322084
 30
0.0
 11
2079.999896414979
 21
379.9999837322084
 31
0.0
  0
INSERT
  5
145E3
330
13F14
100
AcDbEntity
  8
寸法線
 62
     0
440
 16777216
370
    -2
100
AcDbBlockReference
  2
_OPEN
 10
1599.999896414978
 20
379.9999837322084
 30
0.0
 41
20.0
 42
20.0
 43
20.0
 50
180.0
  0
INSERT
  5
145E4
330
13F14
100
AcDbEntity
  8
寸法線
 62
     0
440
 16777216
370
    -2
100
AcDbBlockReference
  2
_OPEN
 10
2099.999896414979
 20
379.9999837322084
 30
0.0
 41
20.0
 42
20.0
 43
20.0
  0
MTEXT
  5
145E5
330
13F14
100
AcDbEntity
  8
寸法線
 62
     0
440
 16777216
100
AcDbMText
 10
1849.999896414978
 20
401.2499837322084
 30
0.0
 40
25.0
 41
0.0
 46
0.0
 71
     5
 72
     1
  1
\A1;500
 73
     1
 44
1.0
  0
POINT
  5
145E6
330
13F14
100
AcDbEntity
  8
Defpoints
 62
     0
440
 16777216
100
AcDbPoint
 10
1599.999896414978
 20
589.9997721100548
 30
0.0
  0
POINT
  5
145E7
330
13F14
100
AcDbEntity
  8
Defpoints
 62
     0
440
 16777216
100
AcDbPoint
 10
2099.999896414979
 20
589.9997584265833
 30
0.0
  0
POINT
  5
145E8
330
13F14
100
AcDbEntity
  8
Defpoints
 62
     0
440
 16777216
100
AcDbPoint
 10
2099.999896414979
 20
379.9999837322084
 30
0.0
  0
ENDBLK
  5
13F16
330
13F14
100
AcDbEntity
  8
0
100
AcDbBlockEnd
  0
BLOCK
  5
13F21
330
13F20
100
AcDbEntity
  8
0
100
AcDbBlockBegin
  2
*D17
 70
     1
 10
0.0
 20
0.0
 30
0.0
  3
*D17
  1

  0
LINE
  5
145E9
330
13F20
100
AcDbEntity
  8
寸法線
 62
     0
440
 16777216
370
    -2
100
AcDbLine
 10
989.9998964149785
 20
581.2497219373212
 30
0.0
 11
989.9998964149785
 21
489.9999837322083
 31
0.0
  0
LINE
  5
145EA
330
13F20
100
AcDbEntity
  8
寸法線
 62
     0
440
 16777216
370
    -2
100
AcDbLine
 10
1409.999896414978
 20
581.249758426598
 30
0.0
 11
1409.999896414978
 21
489.9999837322083
 31
0.0
  0
LINE
  5
145EB
330
13F20
100
AcDbEntity
  8
寸法線
 62
     0
440
 16777216
370
    -2
100
AcDbLine
 10
1009.999896414979
 20
499.9999837322084
 30
0.0
 11
1389.999896414978
 21
499.9999837322084
 31
0.0
  0
INSERT
  5
145EC
330
13F20
100
AcDbEntity
  8
寸法線
 62
     0
440
 16777216
370
    -2
100
AcDbBlockReference
  2
_OPEN
 10
989.9998964149785
 20
499.9999837322084
 30
0.0
 41
20.0
 42
20.0
 43
20.0
 50
180.0
  0
INSERT
  5
145ED
330
13F20
100
AcDbEntity
  8
寸法線
 62
     0
440
 16777216
370
    -2
100
AcDbBlockReference
  2
_OPEN
 10
1409.999896414978
 20
499.9999837322084
 30
0.0
 41
20.0
 42
20.0
 43
20.0
  0
MTEXT
  5
145EE
330
13F20
100
AcDbEntity
  8
寸法線
 62
     0
440
 16777216
100
AcDbMText
 10
1199.999896414978
 20
521.2524443621297
 30
0.0
 40
25.0
 41
0.0
 46
0.0
 71
     5
 72
     1
  1
\A1;420
 73
     1
 44
1.0
  0
POINT
  5
145EF
330
13F20
100
AcDbEntity
  8
Defpoints
 62
     0
440
 16777216
100
AcDbPoint
 10
989.9998964149785
 20
589.9997219373212
 30
0.0
  0
POINT
  5
145F0
330
13F20
100
AcDbEntity
  8
Defpoints
 62
     0
440
 16777216
100
AcDbPoint
 10
1409.999896414978
 20
589.9997584265979
 30
0.0
  0
POINT
  5
145F1
330
13F20
100
AcDbEntity
  8
Defpoints
 62
     0
440
 16777216
100
AcDbPoint
 10
1409.999896414978
 20
499.9999837322084
 30
0.0
  0
ENDBLK
  5
13F22
330
13F20
100
AcDbEntity
  8
0
100
AcDbBlockEnd
  0
BLOCK
  5
13F2D
330
13F2C
100
AcDbEntity
  8
0
100
AcDbBlockBegin
  2
*D18
 70
     1
 10
0.0
 20
0.0
 30
0.0
  3
*D18
  1

  0
LINE
  5
1456D
330
13F2C
100
AcDbEntity
  8
寸法線
 62
     0
440
 16777216
370
    -2
100
AcDbLine
 10
2228.749980186871
 20
1824.499978190404
 30
0.0
 11
2309.999980186868
 21
1824.499978190404
 31
0.0
  0
LINE
  5
1456E
330
13F2C
100
AcDbEntity
  8
寸法線
 62
     0
440
 16777216
370
    -2
100
AcDbLine
 10
2228.749980186871
 20
1805.499978190404
 30
0.0
 11
2309.999980186868
 21
1805.499978190404
 31
0.0
  0
LINE
  5
1456F
330
13F2C
100
AcDbEntity
  8
寸法線
 62
     0
440
 16777216
370
    -2
100
AcDbLine
 10
2299.999980186869
 20
1844.499978190404
 30
0.0
 11
2299.999980186869
 21
1864.499978190404
 31
0.0
  0
LINE
  5
14570
330
13F2C
100
AcDbEntity
  8
寸法線
 62
     0
440
 16777216
370
    -2
100
AcDbLine
 10
2299.999980186869
 20
1785.499978190404
 30
0.0
 11
2299.999980186869
 21
1765.499978190404
 31
0.0
  0
LINE
  5
14571
330
13F2C
100
AcDbEntity
  8
寸法線
 62
     0
440
 16777216
370
    -2
100
AcDbLine
 10
2299.999980186869
 20
1824.499978190404
 30
0.0
 11
2299.999980186869
 21
1805.499978190404
 31
0.0
  0
INSERT
  5
14572
330
13F2C
100
AcDbEntity
  8
寸法線
 62
     0
440
 16777216
370
    -2
100
AcDbBlockReference
  2
_OPEN
 10
2299.999980186869
 20
1824.499978190404
 30
0.0
 41
20.0
 42
20.0
 43
20.0
 50
270.0
  0
INSERT
  5
14573
330
13F2C
100
AcDbEntity
  8
寸法線
 62
     0
440
 16777216
370
    -2
100
AcDbBlockReference
  2
_OPEN
 10
2299.999980186869
 20
1805.499978190404
 30
0.0
 41
20.0
 42
20.0
 43
20.0
 50
90.0
  0
MTEXT
  5
14574
330
13F2C
100
AcDbEntity
  8
寸法線
 62
     0
440
 16777216
100
AcDbMText
 10
2278.749980186868
 20
1814.999978190403
 30
0.0
 40
25.0
 41
0.0
 46
0.0
 71
     5
 72
     1
  1
\A1;19
 11
0.0000000000000001
 21
1.0
 31
0.0
 73
     1
 44
1.0
  0
POINT
  5
14575
330
13F2C
100
AcDbEntity
  8
Defpoints
 62
     0
440
 16777216
100
AcDbPoint
 10
2219.999980186871
 20
1824.499978190404
 30
0.0
  0
POINT
  5
14576
330
13F2C
100
AcDbEntity
  8
Defpoints
 62
     0
440
 16777216
100
AcDbPoint
 10
2219.999980186871
 20
1805.499978190404
 30
0.0
  0
POINT
  5
14577
330
13F2C
100
AcDbEntity
  8
Defpoints
 62
     0
440
 16777216
100
AcDbPoint
 10
2299.999980186869
 20
1805.499978190404
 30
0.0
  0
ENDBLK
  5
13F2E
330
13F2C
100
AcDbEntity
  8
0
100
AcDbBlockEnd
  0
BLOCK
  5
13F3B
330
13F3A
100
AcDbEntity
  8
0
100
AcDbBlockBegin
  2
*D19
 70
     1
 10
0.0
 20
0.0
 30
0.0
  3
*D19
  1

  0
LINE
  5
14578
330
13F3A
100
AcDbEntity
  8
寸法線
 62
     0
440
 16777216
370
    -2
100
AcDbLine
 10
2236.750003766469
 20
1475.000046301808
 30
0.0
 11
2309.999980186868
 21
1475.000046301808
 31
0.0
  0
LINE
  5
14579
330
13F3A
100
AcDbEntity
  8
寸法線
 62
     0
440
 16777216
370
    -2
100
AcDbLine
 10
2108.750000000002
 20
1444.999978393752
 30
0.0
 11
2309.999980186868
 21
1444.999978393752
 31
0.0
  0
LINE
  5
1457A
330
13F3A
100
AcDbEntity
  8
寸法線
 62
     0
440
 16777216
370
    -2
100
AcDbLine
 10
2299.999980186869
 20
1495.000046301808
 30
0.0
 11
2299.999980186869
 21
1515.000046301808
 31
0.0
  0
LINE
  5
1457B
330
13F3A
100
AcDbEntity
  8
寸法線
 62
     0
440
 16777216
370
    -2
100
AcDbLine
 10
2299.999980186869
 20
1424.999978393752
 30
0.0
 11
2299.999980186869
 21
1404.999978393752
 31
0.0
  0
LINE
  5
1457C
330
13F3A
100
AcDbEntity
  8
寸法線
 62
     0
440
 16777216
370
    -2
100
AcDbLine
 10
2299.999980186869
 20
1475.000046301808
 30
0.0
 11
2299.999980186869
 21
1444.999978393752
 31
0.0
  0
INSERT
  5
1457D
330
13F3A
100
AcDbEntity
  8
寸法線
 62
     0
440
 16777216
370
    -2
100
AcDbBlockReference
  2
_OPEN
 10
2299.999980186869
 20
1475.000046301808
 30
0.0
 41
20.0
 42
20.0
 43
20.0
 50
270.0
  0
INSERT
  5
1457E
330
13F3A
100
AcDbEntity
  8
寸法線
 62
     0
440
 16777216
370
    -2
100
AcDbBlockReference
  2
_OPEN
 10
2299.999980186869
 20
1444.999978393752
 30
0.0
 41
20.0
 42
20.0
 43
20.0
 50
90.0
  0
MTEXT
  5
1457F
330
13F3A
100
AcDbEntity
  8
寸法線
 62
     0
440
 16777216
100
AcDbMText
 10
2278.749980186868
 20
1460.000012347779
 30
0.0
 40
25.0
 41
0.0
 46
0.0
 71
     5
 72
     1
  1
\A1;30
 11
0.0000000000000001
 21
1.0
 31
0.0
 73
     1
 44
1.0
  0
POINT
  5
14580
330
13F3A
100
AcDbEntity
  8
Defpoints
 62
     0
440
 16777216
100
AcDbPoint
 10
2228.000003766469
 20
1475.000046301808
 30
0.0
  0
POINT
  5
14581
330
13F3A
100
AcDbEntity
  8
Defpoints
 62
     0
440
 16777216
100
AcDbPoint
 10
2100.000000000003
 20
1444.999978393752
 30
0.0
  0
POINT
  5
14582
330
13F3A
100
AcDbEntity
  8
Defpoints
 62
     0
440
 16777216
100
AcDbPoint
 10
2299.999980186869
 20
1444.999978393752
 30
0.0
  0
ENDBLK
  5
13F3C
330
13F3A
100
AcDbEntity
  8
0
100
AcDbBlockEnd
  0
BLOCK
  5
13F61
330
13F60
100
AcDbEntity
  8
0
100
AcDbBlockBegin
  2
*D20
 70
     1
 10
0.0
 20
0.0
 30
0.0
  3
*D20
  1

  0
LINE
  5
14583
330
13F60
100
AcDbEntity
  8
寸法線
 62
     0
440
 16777216
370
    -2
100
AcDbLine
 10
2422.249980186869
 20
2251.000003174409
 30
0.0
 11
2320.999994621859
 21
2251.000003174409
 31
0.0
  0
LINE
  5
14584
330
13F60
100
AcDbEntity
  8
寸法線
 62
     0
440
 16777216
370
    -2
100
AcDbLine
 10
2422.249980186869
 20
2239.000003174409
 30
0.0
 11
2320.999994621859
 21
2239.000003174409
 31
0.0
  0
LINE
  5
14585
330
13F60
100
AcDbEntity
  8
寸法線
 62
     0
440
 16777216
370
    -2
100
AcDbLine
 10
2330.999994621859
 20
2271.000003174409
 30
0.0
 11
2330.999994621859
 21
2291.000003174409
 31
0.0
  0
LINE
  5
14586
330
13F60
100
AcDbEntity
  8
寸法線
 62
     0
440
 16777216
370
    -2
100
AcDbLine
 10
2330.999994621859
 20
2219.000003174409
 30
0.0
 11
2330.999994621859
 21
2199.000003174409
 31
0.0
  0
LINE
  5
14587
330
13F60
100
AcDbEntity
  8
寸法線
 62
     0
440
 16777216
370
    -2
100
AcDbLine
 10
2330.999994621859
 20
2251.000003174409
 30
0.0
 11
2330.999994621859
 21
2239.000003174409
 31
0.0
  0
INSERT
  5
14588
330
13F60
100
AcDbEntity
  8
寸法線
 62
     0
440
 16777216
370
    -2
100
AcDbBlockReference
  2
_OPEN
 10
2330.999994621859
 20
2251.000003174409
 30
0.0
 41
20.0
 42
20.0
 43
20.0
 50
270.0
  0
INSERT
  5
14589
330
13F60
100
AcDbEntity
  8
寸法線
 62
     0
440
 16777216
370
    -2
100
AcDbBlockReference
  2
_OPEN
 10
2330.999994621859
 20
2239.000003174409
 30
0.0
 41
20.0
 42
20.0
 43
20.0
 50
90.0
  0
MTEXT
  5
1458A
330
13F60
100
AcDbEntity
  8
寸法線
 62
     0
440
 16777216
100
AcDbMText
 10
2309.747533991938
 20
2245.000003174407
 30
0.0
 40
25.0
 41
0.0
 46
0.0
 71
     5
 72
     1
  1
\A1;12
 11
0.0000000000000001
 21
1.0
 31
0.0
 73
     1
 44
1.0
  0
POINT
  5
1458B
330
13F60
100
AcDbEntity
  8
Defpoints
 62
     0
440
 16777216
100
AcDbPoint
 10
2430.99998018687
 20
2251.000003174409
 30
0.0
  0
POINT
  5
1458C
330
13F60
100
AcDbEntity
  8
Defpoints
 62
     0
440
 16777216
100
AcDbPoint
 10
2430.99998018687
 20
2239.000003174409
 30
0.0
  0
POINT
  5
1458D
330
13F60
100
AcDbEntity
  8
Defpoints
 62
     0
440
 16777216
100
AcDbPoint
 10
2330.999994621859
 20
2239.000003174409
 30
0.0
  0
ENDBLK
  5
13F62
330
13F60
100
AcDbEntity
  8
0
100
AcDbBlockEnd
  0
BLOCK
  5
13F6F
330
13F6E
100
AcDbEntity
  8
0
100
AcDbBlockBegin
  2
*D21
 70
     1
 10
0.0
 20
0.0
 30
0.0
  3
*D21
  1

  0
LINE
  5
1458E
330
13F6E
100
AcDbEntity
  8
寸法線
 62
     0
440
 16777216
370
    -2
100
AcDbLine
 10
2650.0
 20
2444.750043747316
 30
0.0
 11
2650.0
 21
2695.000006527643
 31
0.0
  0
LINE
  5
1458F
330
13F6E
100
AcDbEntity
  8
寸法線
 62
     0
440
 16777216
370
    -2
100
AcDbLine
 10
2100.0
 20
2463.750043747316
 30
0.0
 11
2100.0
 21
2695.000006527643
 31
0.0
  0
LINE
  5
14590
330
13F6E
100
AcDbEntity
  8
寸法線
 62
     0
440
 16777216
370
    -2
100
AcDbLine
 10
2630.0
 20
2685.000006527643
 30
0.0
 11
2120.0
 21
2685.000006527643
 31
0.0
  0
INSERT
  5
14591
330
13F6E
100
AcDbEntity
  8
寸法線
 62
     0
440
 16777216
370
    -2
100
AcDbBlockReference
  2
_OPEN
 10
2650.0
 20
2685.000006527643
 30
0.0
 41
20.0
 42
20.0
 43
20.0
  0
INSERT
  5
14592
330
13F6E
100
AcDbEntity
  8
寸法線
 62
     0
440
 16777216
370
    -2
100
AcDbBlockReference
  2
_OPEN
 10
2100.0
 20
2685.000006527643
 30
0.0
 41
20.0
 42
20.0
 43
20.0
 50
180.0
  0
MTEXT
  5
14593
330
13F6E
100
AcDbEntity
  8
寸法線
 62
     0
440
 16777216
100
AcDbMText
 10
2375.0
 20
2706.250006527643
 30
0.0
 40
25.0
 41
0.0
 46
0.0
 71
     5
 72
     1
  1
\A1;550
 73
     1
 44
1.0
  0
MTEXT
  5
14594
330
13F6E
100
AcDbEntity
  8
寸法線
 62
     0
440
 16777216
100
AcDbMText
 10
2375.0
 20
2663.750006527643
 30
0.0
 40
25.0
 41
0.0
 46
0.0
 71
     5
 72
     1
  1
\A1;H型鋼（連結部）
 73
     1
 44
1.0
  0
POINT
  5
14595
330
13F6E
100
AcDbEntity
  8
Defpoints
 62
     0
440
 16777216
100
AcDbPoint
 10
2650.0
 20
2436.000043747316
 30
0.0
  0
POINT
  5
14596
330
13F6E
100
AcDbEntity
  8
Defpoints
 62
     0
440
 16777216
100
AcDbPoint
 10
2100.0
 20
2455.000043747316
 30
0.0
  0
POINT
  5
14597
330
13F6E
100
AcDbEntity
  8
Defpoints
 62
     0
440
 16777216
100
AcDbPoint
 10
2100.0
 20
2685.000006527643
 30
0.0
  0
ENDBLK
  5
13F70
330
13F6E
100
AcDbEntity
  8
0
100
AcDbBlockEnd
  0
BLOCK
  5
13F7C
330
13F7B
100
AcDbEntity
  8
0
100
AcDbBlockBegin
  2
*D22
 70
     1
 10
0.0
 20
0.0
 30
0.0
  3
*D22
  1

  0
LINE
  5
14550
330
13F7B
100
AcDbEntity
  8
寸法線
 62
     0
440
 16777216
370
    -2
100
AcDbLine
 10
2650.000226983165
 20
2444.750043747316
 30
0.0
 11
2650.000226983165
 21
2615.000006527643
 31
0.0
  0
LINE
  5
14551
330
13F7B
100
AcDbEntity
  8
寸法線
 62
     0
440
 16777216
370
    -2
100
AcDbLine
 10
2631.000226983165
 20
2453.750006527642
 30
0.0
 11
2631.000226983165
 21
2615.000006527643
 31
0.0
  0
LINE
  5
14552
330
13F7B
100
AcDbEntity
  8
寸法線
 62
     0
440
 16777216
370
    -2
100
AcDbLine
 10
2670.000226983165
 20
2605.000006527643
 30
0.0
 11
2690.000226983165
 21
2605.000006527643
 31
0.0
  0
LINE
  5
14553
330
13F7B
100
AcDbEntity
  8
寸法線
 62
     0
440
 16777216
370
    -2
100
AcDbLine
 10
2611.000226983165
 20
2605.000006527643
 30
0.0
 11
2591.000226983166
 21
2605.000006527643
 31
0.0
  0
LINE
  5
14554
330
13F7B
100
AcDbEntity
  8
寸法線
 62
     0
440
 16777216
370
    -2
100
AcDbLine
 10
2650.000226983165
 20
2605.000006527643
 30
0.0
 11
2631.000226983165
 21
2605.000006527643
 31
0.0
  0
INSERT
  5
14555
330
13F7B
100
AcDbEntity
  8
寸法線
 62
     0
440
 16777216
370
    -2
100
AcDbBlockReference
  2
_OPEN
 10
2650.000226983165
 20
2605.000006527643
 30
0.0
 41
20.0
 42
20.0
 43
20.0
 50
180.0
  0
INSERT
  5
14556
330
13F7B
100
AcDbEntity
  8
寸法線
 62
     0
440
 16777216
370
    -2
100
AcDbBlockReference
  2
_OPEN
 10
2631.000226983165
 20
2605.000006527643
 30
0.0
 41
20.0
 42
20.0
 43
20.0
  0
MTEXT
  5
14557
330
13F7B
100
AcDbEntity
  8
寸法線
 62
     0
440
 16777216
100
AcDbMText
 10
2640.500226983165
 20
2626.250006527643
 30
0.0
 40
25.0
 41
0.0
 46
0.0
 71
     5
 72
     1
  1
\A1;19
 73
     1
 44
1.0
  0
POINT
  5
14558
330
13F7B
100
AcDbEntity
  8
Defpoints
 62
     0
440
 16777216
100
AcDbPoint
 10
2650.000226983165
 20
2436.000043747316
 30
0.0
  0
POINT
  5
14559
330
13F7B
100
AcDbEntity
  8
Defpoints
 62
     0
440
 16777216
100
AcDbPoint
 10
2631.000226983165
 20
2445.000006527642
 30
0.0
  0
POINT
  5
1455A
330
13F7B
100
AcDbEntity
  8
Defpoints
 62
     0
440
 16777216
100
AcDbPoint
 10
2631.000226983165
 20
2605.000006527643
 30
0.0
  0
ENDBLK
  5
13F7D
330
13F7B
100
AcDbEntity
  8
0
100
AcDbBlockEnd
  0
BLOCK
  5
13F8A
330
13F89
100
AcDbEntity
  8
0
100
AcDbBlockBegin
  2
*D23
 70
     1
 10
0.0
 20
0.0
 30
0.0
  3
*D23
  1

  0
LINE
  5
1455B
330
13F89
100
AcDbEntity
  8
寸法線
 62
     0
440
 16777216
370
    -2
100
AcDbLine
 10
2631.000226983165
 20
2453.750006527642
 30
0.0
 11
2631.000226983165
 21
2615.000006527643
 31
0.0
  0
LINE
  5
1455C
330
13F89
100
AcDbEntity
  8
寸法線
 62
     0
440
 16777216
370
    -2
100
AcDbLine
 10
2100.000226983166
 20
2463.750043747316
 30
0.0
 11
2100.000226983166
 21
2615.000006527643
 31
0.0
  0
LINE
  5
1455D
330
13F89
100
AcDbEntity
  8
寸法線
 62
     0
440
 16777216
370
    -2
100
AcDbLine
 10
2611.000226983165
 20
2605.000006527643
 30
0.0
 11
2120.000226983165
 21
2605.000006527643
 31
0.0
  0
INSERT
  5
1455E
330
13F89
100
AcDbEntity
  8
寸法線
 62
     0
440
 16777216
370
    -2
100
AcDbBlockReference
  2
_OPEN
 10
2631.000226983165
 20
2605.000006527643
 30
0.0
 41
20.0
 42
20.0
 43
20.0
  0
INSERT
  5
1455F
330
13F89
100
AcDbEntity
  8
寸法線
 62
     0
440
 16777216
370
    -2
100
AcDbBlockReference
  2
_OPEN
 10
2100.000226983166
 20
2605.000006527643
 30
0.0
 41
20.0
 42
20.0
 43
20.0
 50
180.0
  0
MTEXT
  5
14560
330
13F89
100
AcDbEntity
  8
寸法線
 62
     0
440
 16777216
100
AcDbMText
 10
2365.500226983165
 20
2626.250006527643
 30
0.0
 40
25.0
 41
0.0
 46
0.0
 71
     5
 72
     1
  1
\A1;531
 73
     1
 44
1.0
  0
POINT
  5
14561
330
13F89
100
AcDbEntity
  8
Defpoints
 62
     0
440
 16777216
100
AcDbPoint
 10
2631.000226983165
 20
2445.000006527642
 30
0.0
  0
POINT
  5
14562
330
13F89
100
AcDbEntity
  8
Defpoints
 62
     0
440
 16777216
100
AcDbPoint
 10
2100.000226983166
 20
2455.000043747316
 30
0.0
  0
POINT
  5
14563
330
13F89
100
AcDbEntity
  8
Defpoints
 62
     0
440
 16777216
100
AcDbPoint
 10
2100.000226983166
 20
2605.000006527643
 30
0.0
  0
ENDBLK
  5
13F8B
330
13F89
100
AcDbEntity
  8
0
100
AcDbBlockEnd
  0
BLOCK
  5
13F96
330
13F95
100
AcDbEntity
  8
0
100
AcDbBlockBegin
  2
*D24
 70
     1
 10
0.0
 20
0.0
 30
0.0
  3
*D24
  1

  0
LINE
  5
14564
330
13F95
100
AcDbEntity
  8
寸法線
 62
     0
440
 16777216
370
    -2
100
AcDbLine
 10
2650.000000000002
 20
1436.250024532386
 30
0.0
 11
2650.000000000002
 21
1275.000024532386
 31
0.0
  0
LINE
  5
14565
330
13F95
100
AcDbEntity
  8
寸法線
 62
     0
440
 16777216
370
    -2
100
AcDbLine
 10
2100.000000000001
 20
1426.25006175206
 30
0.0
 11
2100.000000000001
 21
1275.000024532386
 31
0.0
  0
LINE
  5
14566
330
13F95
100
AcDbEntity
  8
寸法線
 62
     0
440
 16777216
370
    -2
100
AcDbLine
 10
2630.000000000002
 20
1285.000024532386
 30
0.0
 11
2120.000000000001
 21
1285.000024532386
 31
0.0
  0
INSERT
  5
14567
330
13F95
100
AcDbEntity
  8
寸法線
 62
     0
440
 16777216
370
    -2
100
AcDbBlockReference
  2
_OPEN
 10
2650.000000000002
 20
1285.000024532386
 30
0.0
 41
20.0
 42
20.0
 43
20.0
  0
INSERT
  5
14568
330
13F95
100
AcDbEntity
  8
寸法線
 62
     0
440
 16777216
370
    -2
100
AcDbBlockReference
  2
_OPEN
 10
2100.000000000001
 20
1285.000024532386
 30
0.0
 41
20.0
 42
20.0
 43
20.0
 50
180.0
  0
MTEXT
  5
14569
330
13F95
100
AcDbEntity
  8
寸法線
 62
     0
440
 16777216
100
AcDbMText
 10
2375.000000000001
 20
1306.250024532386
 30
0.0
 40
25.0
 41
0.0
 46
0.0
 71
     5
 72
     1
  1
\A1;550
 73
     1
 44
1.0
  0
POINT
  5
1456A
330
13F95
100
AcDbEntity
  8
Defpoints
 62
     0
440
 16777216
100
AcDbPoint
 10
2650.000000000002
 20
1445.000024532386
 30
0.0
  0
POINT
  5
1456B
330
13F95
100
AcDbEntity
  8
Defpoints
 62
     0
440
 16777216
100
AcDbPoint
 10
2100.000000000001
 20
1435.00006175206
 30
0.0
  0
POINT
  5
1456C
330
13F95
100
AcDbEntity
  8
Defpoints
 62
     0
440
 16777216
100
AcDbPoint
 10
2100.000000000001
 20
1285.000024532386
 30
0.0
  0
ENDBLK
  5
13F97
330
13F95
100
AcDbEntity
  8
0
100
AcDbBlockEnd
  0
BLOCK
  5
13FA2
330
13FA1
100
AcDbEntity
  8
0
100
AcDbBlockBegin
  2
*D25
 70
     1
 10
0.0
 20
0.0
 30
0.0
  3
*D25
  1

  0
LINE
  5
144FB
330
13FA1
100
AcDbEntity
  8
寸法線
 62
     0
440
 16777216
370
    -2
100
AcDbLine
 10
1600.000000000001
 20
1426.25001541007
 30
0.0
 11
1600.000000000001
 21
1275.000024532386
 31
0.0
  0
LINE
  5
144FC
330
13FA1
100
AcDbEntity
  8
寸法線
 62
     0
440
 16777216
370
    -2
100
AcDbLine
 10
2100.000000000001
 20
1426.25001541007
 30
0.0
 11
2100.000000000001
 21
1275.000024532386
 31
0.0
  0
LINE
  5
144FD
330
13FA1
100
AcDbEntity
  8
寸法線
 62
     0
440
 16777216
370
    -2
100
AcDbLine
 10
1620.000000000001
 20
1285.000024532386
 30
0.0
 11
2080.000000000001
 21
1285.000024532386
 31
0.0
  0
INSERT
  5
144FE
330
13FA1
100
AcDbEntity
  8
寸法線
 62
     0
440
 16777216
370
    -2
100
AcDbBlockReference
  2
_OPEN
 10
1600.000000000001
 20
1285.000024532386
 30
0.0
 41
20.0
 42
20.0
 43
20.0
 50
180.0
  0
INSERT
  5
144FF
330
13FA1
100
AcDbEntity
  8
寸法線
 62
     0
440
 16777216
370
    -2
100
AcDbBlockReference
  2
_OPEN
 10
2100.000000000001
 20
1285.000024532386
 30
0.0
 41
20.0
 42
20.0
 43
20.0
  0
MTEXT
  5
14500
330
13FA1
100
AcDbEntity
  8
寸法線
 62
     0
440
 16777216
100
AcDbMText
 10
1850.000000000001
 20
1306.250024532386
 30
0.0
 40
25.0
 41
0.0
 46
0.0
 71
     5
 72
     1
  1
\A1;500
 73
     1
 44
1.0
  0
POINT
  5
14501
330
13FA1
100
AcDbEntity
  8
Defpoints
 62
     0
440
 16777216
100
AcDbPoint
 10
1600.000000000001
 20
1435.00001541007
 30
0.0
  0
POINT
  5
14502
330
13FA1
100
AcDbEntity
  8
Defpoints
 62
     0
440
 16777216
100
AcDbPoint
 10
2100.000000000001
 20
1435.00001541007
 30
0.0
  0
POINT
  5
14503
330
13FA1
100
AcDbEntity
  8
Defpoints
 62
     0
440
 16777216
100
AcDbPoint
 10
2100.000000000001
 20
1285.000024532386
 30
0.0
  0
ENDBLK
  5
13FA3
330
13FA1
100
AcDbEntity
  8
0
100
AcDbBlockEnd
  0
BLOCK
  5
13FAE
330
13FAD
100
AcDbEntity
  8
0
100
AcDbBlockBegin
  2
*D26
 70
     1
 10
0.0
 20
0.0
 30
0.0
  3
*D26
  1

  0
LINE
  5
14504
330
13FAD
100
AcDbEntity
  8
寸法線
 62
     0
440
 16777216
370
    -2
100
AcDbLine
 10
1049.999980186892
 20
1436.250024532386
 30
0.0
 11
1049.999980186892
 21
1275.000024532386
 31
0.0
  0
LINE
  5
14505
330
13FAD
100
AcDbEntity
  8
寸法線
 62
     0
440
 16777216
370
    -2
100
AcDbLine
 10
1599.999980186892
 20
1426.25006175206
 30
0.0
 11
1599.999980186892
 21
1275.000024532386
 31
0.0
  0
LINE
  5
14506
330
13FAD
100
AcDbEntity
  8
寸法線
 62
     0
440
 16777216
370
    -2
100
AcDbLine
 10
1069.999980186892
 20
1285.000024532386
 30
0.0
 11
1579.999980186892
 21
1285.000024532386
 31
0.0
  0
INSERT
  5
14507
330
13FAD
100
AcDbEntity
  8
寸法線
 62
     0
440
 16777216
370
    -2
100
AcDbBlockReference
  2
_OPEN
 10
1049.999980186892
 20
1285.000024532386
 30
0.0
 41
20.0
 42
20.0
 43
20.0
 50
180.0
  0
INSERT
  5
14508
330
13FAD
100
AcDbEntity
  8
寸法線
 62
     0
440
 16777216
370
    -2
100
AcDbBlockReference
  2
_OPEN
 10
1599.999980186892
 20
1285.000024532386
 30
0.0
 41
20.0
 42
20.0
 43
20.0
  0
MTEXT
  5
14509
330
13FAD
100
AcDbEntity
  8
寸法線
 62
     0
440
 16777216
100
AcDbMText
 10
1324.999980186892
 20
1306.250024532386
 30
0.0
 40
25.0
 41
0.0
 46
0.0
 71
     5
 72
     1
  1
\A1;550
 73
     1
 44
1.0
  0
POINT
  5
1450A
330
13FAD
100
AcDbEntity
  8
Defpoints
 62
     0
440
 16777216
100
AcDbPoint
 10
1049.999980186892
 20
1445.000024532386
 30
0.0
  0
POINT
  5
1450B
330
13FAD
100
AcDbEntity
  8
Defpoints
 62
     0
440
 16777216
100
AcDbPoint
 10
1599.999980186892
 20
1435.00006175206
 30
0.0
  0
POINT
  5
1450C
330
13FAD
100
AcDbEntity
  8
Defpoints
 62
     0
440
 16777216
100
AcDbPoint
 10
1599.999980186892
 20
1285.000024532386
 30
0.0
  0
ENDBLK
  5
13FAF
330
13FAD
100
AcDbEntity
  8
0
100
AcDbBlockEnd
  0
BLOCK
  5
13FBA
330
13FB9
100
AcDbEntity
  8
0
100
AcDbBlockBegin
  2
*D27
 70
     1
 10
0.0
 20
0.0
 30
0.0
  3
*D27
  1

  0
LINE
  5
1450D
330
13FB9
100
AcDbEntity
  8
寸法線
 62
     0
440
 16777216
370
    -2
100
AcDbLine
 10
1041.249980186892
 20
1845.000024532387
 30
0.0
 11
919.9999801868917
 21
1845.000024532387
 31
0.0
  0
LINE
  5
1450E
330
13FB9
100
AcDbEntity
  8
寸法線
 62
     0
440
 16777216
370
    -2
100
AcDbLine
 10
1041.249980186892
 20
1445.000024532386
 30
0.0
 11
919.9999801868919
 21
1445.000024532386
 31
0.0
  0
LINE
  5
1450F
330
13FB9
100
AcDbEntity
  8
寸法線
 62
     0
440
 16777216
370
    -2
100
AcDbLine
 10
929.9999801868917
 20
1825.000024532387
 30
0.0
 11
929.9999801868919
 21
1465.000024532386
 31
0.0
  0
INSERT
  5
14510
330
13FB9
100
AcDbEntity
  8
寸法線
 62
     0
440
 16777216
370
    -2
100
AcDbBlockReference
  2
_OPEN
 10
929.9999801868917
 20
1845.000024532387
 30
0.0
 41
20.0
 42
20.0
 43
20.0
 50
90.0
  0
INSERT
  5
14511
330
13FB9
100
AcDbEntity
  8
寸法線
 62
     0
440
 16777216
370
    -2
100
AcDbBlockReference
  2
_OPEN
 10
929.9999801868919
 20
1445.000024532386
 30
0.0
 41
20.0
 42
20.0
 43
20.0
 50
270.0
  0
MTEXT
  5
14512
330
13FB9
100
AcDbEntity
  8
寸法線
 62
     0
440
 16777216
100
AcDbMText
 10
908.749980186892
 20
1645.000024532386
 30
0.0
 40
25.0
 41
0.0
 46
0.0
 71
     5
 72
     1
  1
\A1;400
 11
0.0000000000000001
 21
1.0
 31
0.0
 73
     1
 44
1.0
  0
POINT
  5
14513
330
13FB9
100
AcDbEntity
  8
Defpoints
 62
     0
440
 16777216
100
AcDbPoint
 10
1049.999980186892
 20
1845.000024532387
 30
0.0
  0
POINT
  5
14514
330
13FB9
100
AcDbEntity
  8
Defpoints
 62
     0
440
 16777216
100
AcDbPoint
 10
1049.999980186892
 20
1445.000024532386
 30
0.0
  0
POINT
  5
14515
330
13FB9
100
AcDbEntity
  8
Defpoints
 62
     0
440
 16777216
100
AcDbPoint
 10
929.9999801868919
 20
1445.000024532386
 30
0.0
  0
ENDBLK
  5
13FBB
330
13FB9
100
AcDbEntity
  8
0
100
AcDbBlockEnd
  0
BLOCK
  5
13FC6
330
13FC5
100
AcDbEntity
  8
0
100
AcDbBlockBegin
  2
*D28
 70
     1
 10
0.0
 20
0.0
 30
0.0
  3
*D28
  1

  0
LINE
  5
14516
330
13FC5
100
AcDbEntity
  8
寸法線
 62
     0
440
 16777216
370
    -2
100
AcDbLine
 10
1049.999980186892
 20
2444.750043747316
 30
0.0
 11
1049.999980186892
 21
2615.000006527643
 31
0.0
  0
LINE
  5
14517
330
13FC5
100
AcDbEntity
  8
寸法線
 62
     0
440
 16777216
370
    -2
100
AcDbLine
 10
1068.999980186892
 20
2453.750006527642
 30
0.0
 11
1068.999980186892
 21
2615.000006527643
 31
0.0
  0
LINE
  5
14518
330
13FC5
100
AcDbEntity
  8
寸法線
 62
     0
440
 16777216
370
    -2
100
AcDbLine
 10
1029.999980186892
 20
2605.000006527643
 30
0.0
 11
1009.999980186892
 21
2605.000006527643
 31
0.0
  0
LINE
  5
14519
330
13FC5
100
AcDbEntity
  8
寸法線
 62
     0
440
 16777216
370
    -2
100
AcDbLine
 10
1088.999980186892
 20
2605.000006527643
 30
0.0
 11
1108.999980186892
 21
2605.000006527643
 31
0.0
  0
LINE
  5
1451A
330
13FC5
100
AcDbEntity
  8
寸法線
 62
     0
440
 16777216
370
    -2
100
AcDbLine
 10
1049.999980186892
 20
2605.000006527643
 30
0.0
 11
1068.999980186892
 21
2605.000006527643
 31
0.0
  0
INSERT
  5
1451B
330
13FC5
100
AcDbEntity
  8
寸法線
 62
     0
440
 16777216
370
    -2
100
AcDbBlockReference
  2
_OPEN
 10
1049.999980186892
 20
2605.000006527643
 30
0.0
 41
20.0
 42
20.0
 43
20.0
  0
INSERT
  5
1451C
330
13FC5
100
AcDbEntity
  8
寸法線
 62
     0
440
 16777216
370
    -2
100
AcDbBlockReference
  2
_OPEN
 10
1068.999980186892
 20
2605.000006527643
 30
0.0
 41
20.0
 42
20.0
 43
20.0
 50
180.0
  0
MTEXT
  5
1451D
330
13FC5
100
AcDbEntity
  8
寸法線
 62
     0
440
 16777216
100
AcDbMText
 10
1059.499980186892
 20
2626.250006527643
 30
0.0
 40
25.0
 41
0.0
 46
0.0
 71
     5
 72
     1
  1
\A1;19
 73
     1
 44
1.0
  0
POINT
  5
1451E
330
13FC5
100
AcDbEntity
  8
Defpoints
 62
     0
440
 16777216
100
AcDbPoint
 10
1049.999980186892
 20
2436.000043747316
 30
0.0
  0
POINT
  5
1451F
330
13FC5
100
AcDbEntity
  8
Defpoints
 62
     0
440
 16777216
100
AcDbPoint
 10
1068.999980186892
 20
2445.000006527642
 30
0.0
  0
POINT
  5
14520
330
13FC5
100
AcDbEntity
  8
Defpoints
 62
     0
440
 16777216
100
AcDbPoint
 10
1068.999980186892
 20
2605.000006527643
 30
0.0
  0
ENDBLK
  5
13FC7
330
13FC5
100
AcDbEntity
  8
0
100
AcDbBlockEnd
  0
BLOCK
  5
13FD4
330
13FD3
100
AcDbEntity
  8
0
100
AcDbBlockBegin
  2
*D29
 70
     1
 10
0.0
 20
0.0
 30
0.0
  3
*D29
  1

  0
LINE
  5
14521
330
13FD3
100
AcDbEntity
  8
寸法線
 62
     0
440
 16777216
370
    -2
100
AcDbLine
 10
1068.999980186892
 20
2453.750006527642
 30
0.0
 11
1068.999980186892
 21
2615.000006527643
 31
0.0
  0
LINE
  5
14522
330
13FD3
100
AcDbEntity
  8
寸法線
 62
     0
440
 16777216
370
    -2
100
AcDbLine
 10
1599.999980186892
 20
2463.750043747316
 30
0.0
 11
1599.999980186892
 21
2615.000006527643
 31
0.0
  0
LINE
  5
14523
330
13FD3
100
AcDbEntity
  8
寸法線
 62
     0
440
 16777216
370
    -2
100
AcDbLine
 10
1088.999980186892
 20
2605.000006527643
 30
0.0
 11
1579.999980186892
 21
2605.000006527643
 31
0.0
  0
INSERT
  5
14524
330
13FD3
100
AcDbEntity
  8
寸法線
 62
     0
440
 16777216
370
    -2
100
AcDbBlockReference
  2
_OPEN
 10
1068.999980186892
 20
2605.000006527643
 30
0.0
 41
20.0
 42
20.0
 43
20.0
 50
180.0
  0
INSERT
  5
14525
330
13FD3
100
AcDbEntity
  8
寸法線
 62
     0
440
 16777216
370
    -2
100
AcDbBlockReference
  2
_OPEN
 10
1599.999980186892
 20
2605.000006527643
 30
0.0
 41
20.0
 42
20.0
 43
20.0
  0
MTEXT
  5
14526
330
13FD3
100
AcDbEntity
  8
寸法線
 62
     0
440
 16777216
100
AcDbMText
 10
1334.499980186892
 20
2626.250006527643
 30
0.0
 40
25.0
 41
0.0
 46
0.0
 71
     5
 72
     1
  1
\A1;531
 73
     1
 44
1.0
  0
POINT
  5
14527
330
13FD3
100
AcDbEntity
  8
Defpoints
 62
     0
440
 16777216
100
AcDbPoint
 10
1068.999980186892
 20
2445.000006527642
 30
0.0
  0
POINT
  5
14528
330
13FD3
100
AcDbEntity
  8
Defpoints
 62
     0
440
 16777216
100
AcDbPoint
 10
1599.999980186892
 20
2455.000043747316
 30
0.0
  0
POINT
  5
14529
330
13FD3
100
AcDbEntity
  8
Defpoints
 62
     0
440
 16777216
100
AcDbPoint
 10
1599.999980186892
 20
2605.000006527643
 30
0.0
  0
ENDBLK
  5
13FD5
330
13FD3
100
AcDbEntity
  8
0
100
AcDbBlockEnd
  0
BLOCK
  5
13FE0
330
13FDF
100
AcDbEntity
  8
0
100
AcDbBlockBegin
  2
*D30
 70
     1
 10
0.0
 20
0.0
 30
0.0
  3
*D30
  1

  0
LINE
  5
1452A
330
13FDF
100
AcDbEntity
  8
寸法線
 62
     0
440
 16777216
370
    -2
100
AcDbLine
 10
1060.249980186892
 20
2445.000006527643
 30
0.0
 11
919.9999801868916
 21
2445.000006527643
 31
0.0
  0
LINE
  5
1452B
330
13FDF
100
AcDbEntity
  8
寸法線
 62
     0
440
 16777216
370
    -2
100
AcDbLine
 10
1060.249980186892
 20
2045.000006527642
 30
0.0
 11
919.9999801868917
 21
2045.000006527642
 31
0.0
  0
LINE
  5
1452C
330
13FDF
100
AcDbEntity
  8
寸法線
 62
     0
440
 16777216
370
    -2
100
AcDbLine
 10
929.9999801868917
 20
2425.000006527643
 30
0.0
 11
929.9999801868917
 21
2065.000006527641
 31
0.0
  0
INSERT
  5
1452D
330
13FDF
100
AcDbEntity
  8
寸法線
 62
     0
440
 16777216
370
    -2
100
AcDbBlockReference
  2
_OPEN
 10
929.9999801868917
 20
2445.000006527643
 30
0.0
 41
20.0
 42
20.0
 43
20.0
 50
90.0
  0
INSERT
  5
1452E
330
13FDF
100
AcDbEntity
  8
寸法線
 62
     0
440
 16777216
370
    -2
100
AcDbBlockReference
  2
_OPEN
 10
929.9999801868917
 20
2045.000006527642
 30
0.0
 41
20.0
 42
20.0
 43
20.0
 50
270.0
  0
MTEXT
  5
1452F
330
13FDF
100
AcDbEntity
  8
寸法線
 62
     0
440
 16777216
100
AcDbMText
 10
908.749980186892
 20
2245.000006527642
 30
0.0
 40
25.0
 41
0.0
 46
0.0
 71
     5
 72
     1
  1
\A1;400
 11
0.0000000000000001
 21
1.0
 31
0.0
 73
     1
 44
1.0
  0
POINT
  5
14530
330
13FDF
100
AcDbEntity
  8
Defpoints
 62
     0
440
 16777216
100
AcDbPoint
 10
1068.999980186892
 20
2445.000006527643
 30
0.0
  0
POINT
  5
14531
330
13FDF
100
AcDbEntity
  8
Defpoints
 62
     0
440
 16777216
100
AcDbPoint
 10
1068.999980186892
 20
2045.000006527642
 30
0.0
  0
POINT
  5
14532
330
13FDF
100
AcDbEntity
  8
Defpoints
 62
     0
440
 16777216
100
AcDbPoint
 10
929.9999801868917
 20
2045.000006527642
 30
0.0
  0
ENDBLK
  5
13FE1
330
13FDF
100
AcDbEntity
  8
0
100
AcDbBlockEnd
  0
BLOCK
  5
13FEC
330
13FEB
100
AcDbEntity
  8
0
100
AcDbBlockBegin
  2
*D31
 70
     1
 10
0.0
 20
0.0
 30
0.0
  3
*D31
  1

  0
LINE
  5
14533
330
13FEB
100
AcDbEntity
  8
寸法線
 62
     0
440
 16777216
370
    -2
100
AcDbLine
 10
1049.999980186892
 20
2444.750043747316
 30
0.0
 11
1049.999980186892
 21
2695.000006527643
 31
0.0
  0
LINE
  5
14534
330
13FEB
100
AcDbEntity
  8
寸法線
 62
     0
440
 16777216
370
    -2
100
AcDbLine
 10
1599.999980186892
 20
2463.750043747316
 30
0.0
 11
1599.999980186892
 21
2695.000006527643
 31
0.0
  0
LINE
  5
14535
330
13FEB
100
AcDbEntity
  8
寸法線
 62
     0
440
 16777216
370
    -2
100
AcDbLine
 10
1069.999980186892
 20
2685.000006527643
 30
0.0
 11
1579.999980186892
 21
2685.000006527643
 31
0.0
  0
INSERT
  5
14536
330
13FEB
100
AcDbEntity
  8
寸法線
 62
     0
440
 16777216
370
    -2
100
AcDbBlockReference
  2
_OPEN
 10
1049.999980186892
 20
2685.000006527643
 30
0.0
 41
20.0
 42
20.0
 43
20.0
 50
180.0
  0
INSERT
  5
14537
330
13FEB
100
AcDbEntity
  8
寸法線
 62
     0
440
 16777216
370
    -2
100
AcDbBlockReference
  2
_OPEN
 10
1599.999980186892
 20
2685.000006527643
 30
0.0
 41
20.0
 42
20.0
 43
20.0
  0
MTEXT
  5
14538
330
13FEB
100
AcDbEntity
  8
寸法線
 62
     0
440
 16777216
100
AcDbMText
 10
1324.999980186892
 20
2706.250006527643
 30
0.0
 40
25.0
 41
0.0
 46
0.0
 71
     5
 72
     1
  1
\A1;550
 73
     1
 44
1.0
  0
MTEXT
  5
14539
330
13FEB
100
AcDbEntity
  8
寸法線
 62
     0
440
 16777216
100
AcDbMText
 10
1324.999980186892
 20
2663.750006527643
 30
0.0
 40
25.0
 41
0.0
 46
0.0
 71
     5
 72
     1
  1
\A1;H型鋼（連結部）
 73
     1
 44
1.0
  0
POINT
  5
1453A
330
13FEB
100
AcDbEntity
  8
Defpoints
 62
     0
440
 16777216
100
AcDbPoint
 10
1049.999980186892
 20
2436.000043747316
 30
0.0
  0
POINT
  5
1453B
330
13FEB
100
AcDbEntity
  8
Defpoints
 62
     0
440
 16777216
100
AcDbPoint
 10
1599.999980186892
 20
2455.000043747316
 30
0.0
  0
POINT
  5
1453C
330
13FEB
100
AcDbEntity
  8
Defpoints
 62
     0
440
 16777216
100
AcDbPoint
 10
1599.999980186892
 20
2685.000006527643
 30
0.0
  0
ENDBLK
  5
13FED
330
13FEB
100
AcDbEntity
  8
0
100
AcDbBlockEnd
  0
BLOCK
  5
13FF9
330
13FF8
100
AcDbEntity
  8
0
100
AcDbBlockBegin
  2
*D32
 70
     1
 10
0.0
 20
0.0
 30
0.0
  3
*D32
  1

  0
LINE
  5
1453D
330
13FF8
100
AcDbEntity
  8
寸法線
 62
     0
440
 16777216
370
    -2
100
AcDbLine
 10
1600.000000000001
 20
2463.750020333972
 30
0.0
 11
1600.000000000001
 21
2695.000006527643
 31
0.0
  0
LINE
  5
1453E
330
13FF8
100
AcDbEntity
  8
寸法線
 62
     0
440
 16777216
370
    -2
100
AcDbLine
 10
2100.000000000001
 20
2463.749997405326
 30
0.0
 11
2100.000000000001
 21
2695.000006527643
 31
0.0
  0
LINE
  5
1453F
330
13FF8
100
AcDbEntity
  8
寸法線
 62
     0
440
 16777216
370
    -2
100
AcDbLine
 10
1620.000000000001
 20
2685.000006527643
 30
0.0
 11
2080.000000000001
 21
2685.000006527643
 31
0.0
  0
INSERT
  5
14540
330
13FF8
100
AcDbEntity
  8
寸法線
 62
     0
440
 16777216
370
    -2
100
AcDbBlockReference
  2
_OPEN
 10
1600.000000000001
 20
2685.000006527643
 30
0.0
 41
20.0
 42
20.0
 43
20.0
 50
180.0
  0
INSERT
  5
14541
330
13FF8
100
AcDbEntity
  8
寸法線
 62
     0
440
 16777216
370
    -2
100
AcDbBlockReference
  2
_OPEN
 10
2100.000000000001
 20
2685.000006527643
 30
0.0
 41
20.0
 42
20.0
 43
20.0
  0
MTEXT
  5
14542
330
13FF8
100
AcDbEntity
  8
寸法線
 62
     0
440
 16777216
100
AcDbMText
 10
1850.000000000001
 20
2706.250006527643
 30
0.0
 40
25.0
 41
0.0
 46
0.0
 71
     5
 72
     1
  1
\A1;W=500
 73
     1
 44
1.0
  0
MTEXT
  5
14543
330
13FF8
100
AcDbEntity
  8
寸法線
 62
     0
440
 16777216
100
AcDbMText
 10
1850.000000000001
 20
2663.750006527643
 30
0.0
 40
25.0
 41
0.0
 46
0.0
 71
     5
 72
     1
  1
\A1;空洞金具
 73
     1
 44
1.0
  0
POINT
  5
14544
330
13FF8
100
AcDbEntity
  8
Defpoints
 62
     0
440
 16777216
100
AcDbPoint
 10
1600.000000000001
 20
2455.000020333973
 30
0.0
  0
POINT
  5
14545
330
13FF8
100
AcDbEntity
  8
Defpoints
 62
     0
440
 16777216
100
AcDbPoint
 10
2100.000000000001
 20
2454.999997405326
 30
0.0
  0
POINT
  5
14546
330
13FF8
100
AcDbEntity
  8
Defpoints
 62
     0
440
 16777216
100
AcDbPoint
 10
2100.000000000001
 20
2685.000006527643
 30
0.0
  0
ENDBLK
  5
13FFA
330
13FF8
100
AcDbEntity
  8
0
100
AcDbBlockEnd
  0
BLOCK
  5
14006
330
14005
100
AcDbEntity
  8
0
100
AcDbBlockBegin
  2
*D33
 70
     1
 10
0.0
 20
0.0
 30
0.0
  3
*D33
  1

  0
LINE
  5
14547
330
14005
100
AcDbEntity
  8
寸法線
 62
     0
440
 16777216
370
    -2
100
AcDbLine
 10
1050.00000000003
 20
2444.750020333987
 30
0.0
 11
1050.00000000003
 21
2775.000006527643
 31
0.0
  0
LINE
  5
14548
330
14005
100
AcDbEntity
  8
寸法線
 62
     0
440
 16777216
370
    -2
100
AcDbLine
 10
2649.999999999971
 20
2444.750006527657
 30
0.0
 11
2649.999999999971
 21
2775.000006527643
 31
0.0
  0
LINE
  5
14549
330
14005
100
AcDbEntity
  8
寸法線
 62
     0
440
 16777216
370
    -2
100
AcDbLine
 10
1070.00000000003
 20
2765.000006527643
 30
0.0
 11
2629.999999999971
 21
2765.000006527643
 31
0.0
  0
INSERT
  5
1454A
330
14005
100
AcDbEntity
  8
寸法線
 62
     0
440
 16777216
370
    -2
100
AcDbBlockReference
  2
_OPEN
 10
1050.00000000003
 20
2765.000006527643
 30
0.0
 41
20.0
 42
20.0
 43
20.0
 50
180.0
  0
INSERT
  5
1454B
330
14005
100
AcDbEntity
  8
寸法線
 62
     0
440
 16777216
370
    -2
100
AcDbBlockReference
  2
_OPEN
 10
2649.999999999971
 20
2765.000006527643
 30
0.0
 41
20.0
 42
20.0
 43
20.0
  0
MTEXT
  5
1454C
330
14005
100
AcDbEntity
  8
寸法線
 62
     0
440
 16777216
100
AcDbMText
 10
1850.0
 20
2786.250006527643
 30
0.0
 40
25.0
 41
0.0
 46
0.0
 71
     5
 72
     1
  1
\A1;スルーサーＢ L=1600
 73
     1
 44
1.0
  0
POINT
  5
1454D
330
14005
100
AcDbEntity
  8
Defpoints
 62
     0
440
 16777216
100
AcDbPoint
 10
1050.00000000003
 20
2436.000020333987
 30
0.0
  0
POINT
  5
1454E
330
14005
100
AcDbEntity
  8
Defpoints
 62
     0
440
 16777216
100
AcDbPoint
 10
2649.999999999971
 20
2436.000006527657
 30
0.0
  0
POINT
  5
1454F
330
14005
100
AcDbEntity
  8
Defpoints
 62
     0
440
 16777216
100
AcDbPoint
 10
2649.999999999971
 20
2765.000006527643
 30
0.0
  0
ENDBLK
  5
14007
330
14005
100
AcDbEntity
  8
0
100
AcDbBlockEnd
  0
BLOCK
  5
146FD
330
146FC
100
AcDbEntity
  8
0
100
AcDbBlockBegin
  2
*D34
 70
     1
 10
0.0
 20
0.0
 30
0.0
  3
*D34
  1

  0
LINE
  5
14714
330
146FC
100
AcDbEntity
  8
寸法線
 62
     0
440
 16777216
370
    -2
100
AcDbLine
 10
3549.999999999969
 20
2036.250005816589
 30
0.0
 11
3549.999999999969
 21
1915.000005816589
 31
0.0
  0
LINE
  5
14715
330
146FC
100
AcDbEntity
  8
寸法線
 62
     0
440
 16777216
370
    -2
100
AcDbLine
 10
3149.999999999969
 20
2036.250005816589
 30
0.0
 11
3149.999999999969
 21
1915.000005816589
 31
0.0
  0
LINE
  5
14716
330
146FC
100
AcDbEntity
  8
寸法線
 62
     0
440
 16777216
370
    -2
100
AcDbLine
 10
3529.999999999969
 20
1925.000005816589
 30
0.0
 11
3169.999999999969
 21
1925.000005816589
 31
0.0
  0
INSERT
  5
14717
330
146FC
100
AcDbEntity
  8
寸法線
 62
     0
440
 16777216
370
    -2
100
AcDbBlockReference
  2
_OPEN
 10
3549.999999999969
 20
1925.000005816589
 30
0.0
 41
20.0
 42
20.0
 43
20.0
  0
INSERT
  5
14718
330
146FC
100
AcDbEntity
  8
寸法線
 62
     0
440
 16777216
370
    -2
100
AcDbBlockReference
  2
_OPEN
 10
3149.999999999969
 20
1925.000005816589
 30
0.0
 41
20.0
 42
20.0
 43
20.0
 50
180.0
  0
MTEXT
  5
14719
330
146FC
100
AcDbEntity
  8
寸法線
 62
     0
440
 16777216
100
AcDbMText
 10
3349.99999999997
 20
1946.250005816589
 30
0.0
 40
25.0
 41
0.0
 46
0.0
 71
     5
 72
     1
  1
\A1;400
 73
     1
 44
1.0
  0
POINT
  5
1471A
330
146FC
100
AcDbEntity
  8
Defpoints
 62
     0
440
 16777216
100
AcDbPoint
 10
3549.999999999969
 20
2045.000005816589
 30
0.0
  0
POINT
  5
1471B
330
146FC
100
AcDbEntity
  8
Defpoints
 62
     0
440
 16777216
100
AcDbPoint
 10
3149.999999999969
 20
2045.000005816589
 30
0.0
  0
POINT
  5
1471C
330
146FC
100
AcDbEntity
  8
Defpoints
 62
     0
440
 16777216
100
AcDbPoint
 10
3149.999999999969
 20
1925.000005816589
 30
0.0
  0
ENDBLK
  5
146FE
330
146FC
100
AcDbEntity
  8
0
100
AcDbBlockEnd
  0
BLOCK
  5
14709
330
14708
100
AcDbEntity
  8
0
100
AcDbBlockBegin
  2
*D35
 70
     1
 10
0.0
 20
0.0
 30
0.0
  3
*D35
  1

  0
LINE
  5
1471D
330
14708
100
AcDbEntity
  8
寸法線
 62
     0
440
 16777216
370
    -2
100
AcDbLine
 10
3141.249999999969
 20
2445.000045442808
 30
0.0
 11
3019.999999999967
 21
2445.000045442807
 31
0.0
  0
LINE
  5
1471E
330
14708
100
AcDbEntity
  8
寸法線
 62
     0
440
 16777216
370
    -2
100
AcDbLine
 10
3141.249999999969
 20
2045.000045442807
 30
0.0
 11
3019.999999999967
 21
2045.000045442807
 31
0.0
  0
LINE
  5
1471F
330
14708
100
AcDbEntity
  8
寸法線
 62
     0
440
 16777216
370
    -2
100
AcDbLine
 10
3029.999999999967
 20
2425.000045442807
 30
0.0
 11
3029.999999999967
 21
2065.000045442806
 31
0.0
  0
INSERT
  5
14720
330
14708
100
AcDbEntity
  8
寸法線
 62
     0
440
 16777216
370
    -2
100
AcDbBlockReference
  2
_OPEN
 10
3029.999999999967
 20
2445.000045442807
 30
0.0
 41
20.0
 42
20.0
 43
20.0
 50
90.0
  0
INSERT
  5
14721
330
14708
100
AcDbEntity
  8
寸法線
 62
     0
440
 16777216
370
    -2
100
AcDbBlockReference
  2
_OPEN
 10
3029.999999999967
 20
2045.000045442807
 30
0.0
 41
20.0
 42
20.0
 43
20.0
 50
270.0
  0
MTEXT
  5
14722
330
14708
100
AcDbEntity
  8
寸法線
 62
     0
440
 16777216
100
AcDbMText
 10
3008.749999999967
 20
2245.000025629698
 30
0.0
 40
25.0
 41
0.0
 46
0.0
 71
     5
 72
     1
  1
\A1;400
 11
0.0000000000000001
 21
1.0
 31
0.0
 73
     1
 44
1.0
  0
POINT
  5
14723
330
14708
100
AcDbEntity
  8
Defpoints
 62
     0
440
 16777216
100
AcDbPoint
 10
3149.999999999969
 20
2445.000045442808
 30
0.0
  0
POINT
  5
14724
330
14708
100
AcDbEntity
  8
Defpoints
 62
     0
440
 16777216
100
AcDbPoint
 10
3149.999999999969
 20
2045.000045442807
 30
0.0
  0
POINT
  5
14725
330
14708
100
AcDbEntity
  8
Defpoints
 62
     0
440
 16777216
100
AcDbPoint
 10
3029.999999999967
 20
2045.000045442807
 30
0.0
  0
ENDBLK
  5
1470A
330
14708
100
AcDbEntity
  8
0
100
AcDbBlockEnd
  0
ENDSEC
  0
SECTION
  2
ENTITIES
  0
LWPOLYLINE
  5
13B90
330
1F
100
AcDbEntity
  8
Defpoints
100
AcDbPolyline
 90
        4
 70
     1
 43
0.0
 10
0.0
 20
0.0
 10
4200.0
 20
0.0
 10
4200.0
 20
2970.0
 10
0.0
 20
2970.0
  0
LWPOLYLINE
  5
13B91
330
1F
100
AcDbEntity
  8
Defpoints
100
AcDbPolyline
 90
        4
 70
     1
 43
0.0
 10
69.0039999999999
 20
69.10750000000007
 10
4130.995999999998
 20
69.10750000000007
 10
4130.995999999998
 20
2900.8925
 10
69.0039999999999
 20
2900.8925
  0
LINE
  5
13B92
330
1F
100
AcDbEntity
  8
中心線
100
AcDbLine
 10
1025.000000000001
 20
1645.000024786776
 30
0.0
 11
2675.000000000002
 21
1645.000024528217
 31
0.0
  0
DIMENSION
  5
13B93
330
1F
100
AcDbEntity
  8
寸法線
100
AcDbDimension
280
     0
  2
*D25
 10
2100.000000000001
 20
1285.000024532386
 30
0.0
 11
1850.000000000001
 21
1306.250024532386
 31
0.0
 70
    32
 71
     5
 42
500.0
 73
     0
 74
     0
 75
     0
  3
STANDARD
100
AcDbAlignedDimension
 13
1600.000000000001
 23
1435.00001541007
 33
0.0
 14
2100.000000000001
 24
1435.00001541007
 34
0.0
100
AcDbRotatedDimension
  0
DIMENSION
  5
13B94
330
1F
100
AcDbEntity
  8
寸法線
100
AcDbDimension
280
     0
  2
*D26
 10
1599.999980186892
 20
1285.000024532386
 30
0.0
 11
1324.999980186892
 21
1285.000024532386
 31
0.0
 70
   160
 71
     5
 42
550.0
 73
     0
 74
     0
 75
     0
  3
STANDARD
100
AcDbAlignedDimension
 13
1049.999980186892
 23
1445.000024532386
 33
0.0
 14
1599.999980186892
 24
1435.00006175206
 34
0.0
100
AcDbRotatedDimension
  0
DIMENSION
  5
13B95
330
1F
100
AcDbEntity
  8
寸法線
100
AcDbDimension
280
     0
  2
*D27
 10
929.9999801868919
 20
1445.000024532386
 30
0.0
 11
929.9999801868921
 21
1645.000024532386
 31
0.0
 70
   160
 71
     5
 42
400.0000000000002
 73
     0
 74
     0
 75
     0
  3
STANDARD
100
AcDbAlignedDimension
 13
1049.999980186892
 23
1845.000024532386
 33
0.0
 14
1049.999980186892
 24
1445.000024532386
 34
0.0
 50
90.0
100
AcDbRotatedDimension
  0
DIMENSION
  5
13B96
330
1F
100
AcDbEntity
  8
寸法線
100
AcDbDimension
280
     0
  2
*D28
 10
1068.999980186892
 20
2605.000006527643
 30
0.0
 11
1059.499980186892
 21
2605.000006527643
 31
0.0
 70
   160
 71
     5
 42
19.0
 73
     0
 74
     0
 75
     0
  3
STANDARD
100
AcDbAlignedDimension
 13
1049.999980186892
 23
2436.000043747316
 33
0.0
 14
1068.999980186892
 24
2445.000006527642
 34
0.0
100
AcDbRotatedDimension
  0
DIMENSION
  5
13B97
330
1F
100
AcDbEntity
  8
寸法線
100
AcDbDimension
280
     0
  2
*D29
 10
1599.999980186892
 20
2605.000006527643
 30
0.0
 11
1334.499980186892
 21
2605.000006527643
 31
0.0
 70
   160
 71
     5
 42
531.0
 73
     0
 74
     0
 75
     0
  3
STANDARD
100
AcDbAlignedDimension
 13
1068.999980186892
 23
2445.000006527642
 33
0.0
 14
1599.999980186892
 24
2455.000043747316
 34
0.0
100
AcDbRotatedDimension
  0
DIMENSION
  5
13B98
330
1F
100
AcDbEntity
  8
寸法線
100
AcDbDimension
280
     0
  2
*D30
 10
929.9999801868917
 20
2045.000006527642
 30
0.0
 11
929.9999801868921
 21
2245.000006527642
 31
0.0
 70
   160
 71
     5
 42
400.0000000000007
 73
     0
 74
     0
 75
     0
  3
STANDARD
100
AcDbAlignedDimension
 13
1068.999980186892
 23
2445.000006527642
 33
0.0
 14
1068.999980186892
 24
2045.000006527641
 34
0.0
 50
90.0
100
AcDbRotatedDimension
  0
DIMENSION
  5
13B99
330
1F
100
AcDbEntity
  8
寸法線
100
AcDbDimension
280
     0
  2
*D31
 10
1599.999980186892
 20
2685.000006527643
 30
0.0
 11
1324.999980186892
 21
2685.000006527643
 31
0.0
 70
   160
  1
<>\XH型鋼（連結部）
 71
     5
 42
550.0
 73
     0
 74
     0
 75
     0
  3
STANDARD
100
AcDbAlignedDimension
 13
1049.999980186892
 23
2436.000043747316
 33
0.0
 14
1599.999980186892
 24
2455.000043747316
 34
0.0
100
AcDbRotatedDimension
  0
LINE
  5
13B9A
330
1F
100
AcDbEntity
  8
中心線
100
AcDbLine
 10
1025.000000000001
 20
2245.000006162742
 30
0.0
 11
2675.000226983165
 21
2245.000044363454
 31
0.0
  0
DIMENSION
  5
13B9B
330
1F
100
AcDbEntity
  8
寸法線
100
AcDbDimension
280
     0
  2
*D32
 10
2100.000000000001
 20
2685.000006527643
 30
0.0
 11
1850.000000000001
 21
2685.000006527643
 31
0.0
 70
    32
  1
W=<>\X空洞金具
 71
     5
 42
500.0
 73
     0
 74
     0
 75
     0
  3
STANDARD
100
AcDbAlignedDimension
 13
1600.000000000001
 23
2455.000020333973
 33
0.0
 14
2100.000000000001
 24
2454.999997405326
 34
0.0
100
AcDbRotatedDimension
  0
DIMENSION
  5
13B9C
330
1F
100
AcDbEntity
  8
寸法線
100
AcDbDimension
280
     0
  2
*D33
 10
2649.999999999971
 20
2765.000006527643
 30
0.0
 11
1850.0
 21
2786.250006527643
 31
0.0
 70
    32
  1
スルーサーＢ L=<>
 71
     5
 42
1599.99999999994
 73
     0
 74
     0
 75
     0
  3
STANDARD
100
AcDbAlignedDimension
 13
1050.00000000003
 23
2436.000020333987
 33
0.0
 14
2649.999999999971
 24
2436.000006527657
 34
0.0
100
AcDbRotatedDimension
  0
LINE
  5
13B9D
330
1F
100
AcDbEntity
  8
実線
100
AcDbLine
 10
1600.000000000001
 20
1855.00001541007
 30
0.0
 11
1616.000000000001
 21
1855.00001541007
 31
0.0
  0
LINE
  5
13B9E
330
1F
100
AcDbEntity
  8
実線
100
AcDbLine
 10
1648.000000000001
 20
1502.000033654701
 30
0.0
 11
1648.000000000001
 21
1788.000033654701
 31
0.0
  0
LINE
  5
13B9F
330
1F
100
AcDbEntity
  8
実線
100
AcDbLine
 10
1648.000000000001
 20
1785.000015410071
 30
0.0
 11
2052.000103585027
 21
1785.00001541007
 31
0.0
  0
LINE
  5
13BA0
330
1F
100
AcDbEntity
  8
実線
100
AcDbLine
 10
1616.000000000001
 20
1845.00001541007
 30
0.0
 11
2084.000103585027
 21
1845.00001541007
 31
0.0
  0
LINE
  5
13BA1
330
1F
100
AcDbEntity
  8
破線
100
AcDbLine
 10
1616.000000000001
 20
1829.00001541007
 30
0.0
 11
1648.000000000001
 21
1829.00001541007
 31
0.0
  0
LINE
  5
13BA2
330
1F
100
AcDbEntity
  8
破線
100
AcDbLine
 10
1648.000000000001
 20
1829.000033654701
 30
0.0
 11
1648.000000000001
 21
1845.00001541007
 31
0.0
  0
LINE
  5
13BA3
330
1F
100
AcDbEntity
  8
破線
100
AcDbLine
 10
1625.000000000001
 20
1785.00001541007
 30
0.0
 11
1648.000000000001
 21
1785.00001541007
 31
0.0
  0
LINE
  5
13BA4
330
1F
100
AcDbEntity
  8
実線
100
AcDbLine
 10
1628.000000000001
 20
1788.00001541007
 30
0.0
 11
1648.000000000001
 21
1788.00001541007
 31
0.0
  0
LINE
  5
13BA5
330
1F
100
AcDbEntity
  8
実線
100
AcDbLine
 10
1616.000000000001
 20
1776.00001541007
 30
0.0
 11
1628.000000000001
 21
1788.00001541007
 31
0.0
  0
LINE
  5
13BA6
330
1F
100
AcDbEntity
  8
実線
100
AcDbLine
 10
1616.000000000001
 20
1785.00001541007
 30
0.0
 11
1625.000000000001
 21
1785.00001541007
 31
0.0
  0
LINE
  5
13BA7
330
1F
100
AcDbEntity
  8
破線
100
AcDbLine
 10
2052.000000000001
 20
1829.000033654701
 30
0.0
 11
2052.000000000001
 21
1845.00001541007
 31
0.0
  0
LINE
  5
13BA8
330
1F
100
AcDbEntity
  8
破線
100
AcDbLine
 10
2084.000000000001
 20
1829.00001541007
 30
0.0
 11
2052.000000000001
 21
1829.00001541007
 31
0.0
  0
LINE
  5
13BA9
330
1F
100
AcDbEntity
  8
破線
100
AcDbLine
 10
1616.000000000001
 20
1653.00001541007
 30
0.0
 11
1648.000000000001
 21
1653.00001541007
 31
0.0
  0
LINE
  5
13BAA
330
1F
100
AcDbEntity
  8
破線
100
AcDbLine
 10
1616.000000000001
 20
1637.00001541007
 30
0.0
 11
1648.000000000001
 21
1637.00001541007
 31
0.0
  0
LINE
  5
13BAB
330
1F
100
AcDbEntity
  8
破線
100
AcDbLine
 10
2052.000000000001
 20
1653.00001541007
 30
0.0
 11
2084.000000000001
 21
1653.00001541007
 31
0.0
  0
LINE
  5
13BAC
330
1F
100
AcDbEntity
  8
破線
100
AcDbLine
 10
2052.000000000001
 20
1637.00001541007
 30
0.0
 11
2084.000000000001
 21
1637.00001541007
 31
0.0
  0
LINE
  5
13BAD
330
1F
100
AcDbEntity
  8
実線
100
AcDbLine
 10
2084.000000000001
 20
1855.00001541007
 30
0.0
 11
2100.000000000001
 21
1855.00001541007
 31
0.0
  0
LINE
  5
13BAE
330
1F
100
AcDbEntity
  8
実線
100
AcDbLine
 10
1616.000000000001
 20
1435.000033654701
 30
0.0
 11
1616.000000000001
 21
1855.00001541007
 31
0.0
  0
LINE
  5
13BAF
330
1F
100
AcDbEntity
  8
実線
100
AcDbLine
 10
2084.000000000001
 20
1435.000033654701
 30
0.0
 11
2084.000000000001
 21
1855.00001541007
 31
0.0
  0
LINE
  5
13BB0
330
1F
100
AcDbEntity
  8
実線
100
AcDbLine
 10
1600.000000000001
 20
1435.00001541007
 30
0.0
 11
1616.000000000001
 21
1435.00001541007
 31
0.0
  0
LINE
  5
13BB1
330
1F
100
AcDbEntity
  8
実線
100
AcDbLine
 10
1648.000000000001
 20
1505.000015410071
 30
0.0
 11
2052.000103585027
 21
1505.00001541007
 31
0.0
  0
LINE
  5
13BB2
330
1F
100
AcDbEntity
  8
実線
100
AcDbLine
 10
1616.000000000001
 20
1445.000015410071
 30
0.0
 11
2084.000103585027
 21
1445.00001541007
 31
0.0
  0
LINE
  5
13BB3
330
1F
100
AcDbEntity
  8
破線
100
AcDbLine
 10
1616.000000000001
 20
1461.00001541007
 30
0.0
 11
1648.000000000001
 21
1461.00001541007
 31
0.0
  0
LINE
  5
13BB4
330
1F
100
AcDbEntity
  8
破線
100
AcDbLine
 10
1648.000000000001
 20
1460.999997165439
 30
0.0
 11
1648.000000000001
 21
1445.00001541007
 31
0.0
  0
LINE
  5
13BB5
330
1F
100
AcDbEntity
  8
破線
100
AcDbLine
 10
1625.000000000001
 20
1505.00001541007
 30
0.0
 11
1648.000000000001
 21
1505.00001541007
 31
0.0
  0
LINE
  5
13BB6
330
1F
100
AcDbEntity
  8
実線
100
AcDbLine
 10
1628.000000000001
 20
1502.00001541007
 30
0.0
 11
1648.000000000001
 21
1502.00001541007
 31
0.0
  0
LINE
  5
13BB7
330
1F
100
AcDbEntity
  8
実線
100
AcDbLine
 10
1616.000000000001
 20
1514.00001541007
 30
0.0
 11
1628.000000000001
 21
1502.00001541007
 31
0.0
  0
LINE
  5
13BB8
330
1F
100
AcDbEntity
  8
実線
100
AcDbLine
 10
1616.000000000001
 20
1505.00001541007
 30
0.0
 11
1625.000000000001
 21
1505.00001541007
 31
0.0
  0
LINE
  5
13BB9
330
1F
100
AcDbEntity
  8
破線
100
AcDbLine
 10
2052.000000000001
 20
1460.999997165439
 30
0.0
 11
2052.000000000001
 21
1445.00001541007
 31
0.0
  0
LINE
  5
13BBA
330
1F
100
AcDbEntity
  8
破線
100
AcDbLine
 10
2084.000000000001
 20
1461.00001541007
 30
0.0
 11
2052.000000000001
 21
1461.00001541007
 31
0.0
  0
LINE
  5
13BBB
330
1F
100
AcDbEntity
  8
実線
100
AcDbLine
 10
2084.000000000001
 20
1435.00001541007
 30
0.0
 11
2100.000000000001
 21
1435.00001541007
 31
0.0
  0
LINE
  5
13BBC
330
1F
100
AcDbEntity
  8
実線
100
AcDbLine
 10
2052.000103585027
 20
1502.000033654701
 30
0.0
 11
2052.000103585027
 21
1788.000033654701
 31
0.0
  0
LINE
  5
13BBD
330
1F
100
AcDbEntity
  8
破線
100
AcDbLine
 10
2075.000103585027
 20
1785.00001541007
 30
0.0
 11
2052.000103585027
 21
1785.00001541007
 31
0.0
  0
LINE
  5
13BBE
330
1F
100
AcDbEntity
  8
実線
100
AcDbLine
 10
2072.000103585029
 20
1788.00001541007
 30
0.0
 11
2052.000103585027
 21
1788.00001541007
 31
0.0
  0
LINE
  5
13BBF
330
1F
100
AcDbEntity
  8
実線
100
AcDbLine
 10
2084.000103585027
 20
1776.00001541007
 30
0.0
 11
2072.000103585029
 21
1788.00001541007
 31
0.0
  0
LINE
  5
13BC0
330
1F
100
AcDbEntity
  8
実線
100
AcDbLine
 10
2084.000103585027
 20
1785.00001541007
 30
0.0
 11
2075.000103585027
 21
1785.00001541007
 31
0.0
  0
LINE
  5
13BC1
330
1F
100
AcDbEntity
  8
破線
100
AcDbLine
 10
2075.000103585027
 20
1505.00001541007
 30
0.0
 11
2052.000103585027
 21
1505.00001541007
 31
0.0
  0
LINE
  5
13BC2
330
1F
100
AcDbEntity
  8
実線
100
AcDbLine
 10
2072.000103585029
 20
1502.00001541007
 30
0.0
 11
2052.000103585027
 21
1502.00001541007
 31
0.0
  0
LINE
  5
13BC3
330
1F
100
AcDbEntity
  8
実線
100
AcDbLine
 10
2084.000103585027
 20
1514.00001541007
 30
0.0
 11
2072.000103585029
 21
1502.00001541007
 31
0.0
  0
LINE
  5
13BC4
330
1F
100
AcDbEntity
  8
実線
100
AcDbLine
 10
2084.000103585027
 20
1505.00001541007
 30
0.0
 11
2075.000103585027
 21
1505.00001541007
 31
0.0
  0
LINE
  5
13BC5
330
1F
100
AcDbEntity
  8
実線
100
AcDbLine
 10
1600.000000000001
 20
2035.000015649957
 30
0.0
 11
1600.000000000001
 21
2455.000020333973
 31
0.0
  0
LINE
  5
13BC6
330
1F
100
AcDbEntity
  8
実線
100
AcDbLine
 10
1600.000000000001
 20
2454.999997405327
 30
0.0
 11
1616.000000000001
 21
2454.999997405327
 31
0.0
  0
LINE
  5
13BC7
330
1F
100
AcDbEntity
  8
実線
100
AcDbLine
 10
1648.000000000001
 20
2102.000015649958
 30
0.0
 11
1648.000000000001
 21
2388.000015649957
 31
0.0
  0
LINE
  5
13BC8
330
1F
100
AcDbEntity
  8
実線
100
AcDbLine
 10
1648.000000000001
 20
2384.999997405328
 30
0.0
 11
2052.000103585027
 21
2384.999997405326
 31
0.0
  0
LINE
  5
13BC9
330
1F
100
AcDbEntity
  8
実線
100
AcDbLine
 10
1616.000000000001
 20
2444.999997405327
 30
0.0
 11
2084.000103585027
 21
2444.999997405326
 31
0.0
  0
LINE
  5
13BCA
330
1F
100
AcDbEntity
  8
破線
100
AcDbLine
 10
1616.000000000001
 20
2428.999997405326
 30
0.0
 11
1648.000000000001
 21
2428.999997405326
 31
0.0
  0
LINE
  5
13BCB
330
1F
100
AcDbEntity
  8
破線
100
AcDbLine
 10
1648.000000000001
 20
2429.000015649958
 30
0.0
 11
1648.000000000001
 21
2444.999997405326
 31
0.0
  0
LINE
  5
13BCC
330
1F
100
AcDbEntity
  8
破線
100
AcDbLine
 10
1625.000000000001
 20
2384.999997405326
 30
0.0
 11
1648.000000000001
 21
2384.999997405326
 31
0.0
  0
LINE
  5
13BCD
330
1F
100
AcDbEntity
  8
実線
100
AcDbLine
 10
1628.000000000001
 20
2387.999997405326
 30
0.0
 11
1648.000000000001
 21
2387.999997405326
 31
0.0
  0
LINE
  5
13BCE
330
1F
100
AcDbEntity
  8
実線
100
AcDbLine
 10
1616.000000000001
 20
2375.999997405326
 30
0.0
 11
1628.000000000001
 21
2387.999997405326
 31
0.0
  0
LINE
  5
13BCF
330
1F
100
AcDbEntity
  8
実線
100
AcDbLine
 10
1616.000000000001
 20
2384.999997405326
 30
0.0
 11
1625.000000000001
 21
2384.999997405326
 31
0.0
  0
LINE
  5
13BD0
330
1F
100
AcDbEntity
  8
破線
100
AcDbLine
 10
2052.000000000001
 20
2429.000015649958
 30
0.0
 11
2052.000000000001
 21
2444.999997405326
 31
0.0
  0
LINE
  5
13BD1
330
1F
100
AcDbEntity
  8
破線
100
AcDbLine
 10
2084.000000000001
 20
2428.999997405326
 30
0.0
 11
2052.000000000001
 21
2428.999997405326
 31
0.0
  0
LINE
  5
13BD2
330
1F
100
AcDbEntity
  8
破線
100
AcDbLine
 10
1616.000000000001
 20
2252.999997405326
 30
0.0
 11
1648.000000000001
 21
2252.999997405326
 31
0.0
  0
LINE
  5
13BD3
330
1F
100
AcDbEntity
  8
破線
100
AcDbLine
 10
1616.000000000001
 20
2236.999997405326
 30
0.0
 11
1648.000000000001
 21
2236.999997405326
 31
0.0
  0
LINE
  5
13BD4
330
1F
100
AcDbEntity
  8
破線
100
AcDbLine
 10
2052.000000000001
 20
2252.999997405326
 30
0.0
 11
2084.000000000001
 21
2252.999997405326
 31
0.0
  0
LINE
  5
13BD5
330
1F
100
AcDbEntity
  8
破線
100
AcDbLine
 10
2052.000000000001
 20
2236.999997405326
 30
0.0
 11
2084.000000000001
 21
2236.999997405326
 31
0.0
  0
LINE
  5
13BD6
330
1F
100
AcDbEntity
  8
実線
100
AcDbLine
 10
2084.000000000001
 20
2454.999997405327
 30
0.0
 11
2100.000000000001
 21
2454.999997405327
 31
0.0
  0
LINE
  5
13BD7
330
1F
100
AcDbEntity
  8
実線
100
AcDbLine
 10
1616.000000000001
 20
2035.000015649957
 30
0.0
 11
1616.000000000001
 21
2454.999997405327
 31
0.0
  0
LINE
  5
13BD8
330
1F
100
AcDbEntity
  8
実線
100
AcDbLine
 10
2084.000000000001
 20
2035.000015649957
 30
0.0
 11
2084.000000000001
 21
2454.999997405327
 31
0.0
  0
LINE
  5
13BD9
330
1F
100
AcDbEntity
  8
実線
100
AcDbLine
 10
1600.000000000001
 20
2034.999997405326
 30
0.0
 11
1616.000000000001
 21
2034.999997405326
 31
0.0
  0
LINE
  5
13BDA
330
1F
100
AcDbEntity
  8
実線
100
AcDbLine
 10
1648.000000000001
 20
2104.999997405327
 30
0.0
 11
2052.000103585027
 21
2104.999997405326
 31
0.0
  0
LINE
  5
13BDB
330
1F
100
AcDbEntity
  8
実線
100
AcDbLine
 10
1616.000000000001
 20
2044.999997405327
 30
0.0
 11
2084.000103585027
 21
2044.999997405327
 31
0.0
  0
LINE
  5
13BDC
330
1F
100
AcDbEntity
  8
破線
100
AcDbLine
 10
1616.000000000001
 20
2060.999997405327
 30
0.0
 11
1648.000000000001
 21
2060.999997405327
 31
0.0
  0
LINE
  5
13BDD
330
1F
100
AcDbEntity
  8
破線
100
AcDbLine
 10
1648.000000000001
 20
2060.999979160695
 30
0.0
 11
1648.000000000001
 21
2044.999997405327
 31
0.0
  0
LINE
  5
13BDE
330
1F
100
AcDbEntity
  8
破線
100
AcDbLine
 10
1625.000000000001
 20
2104.999997405326
 30
0.0
 11
1648.000000000001
 21
2104.999997405326
 31
0.0
  0
LINE
  5
13BDF
330
1F
100
AcDbEntity
  8
実線
100
AcDbLine
 10
1628.000000000001
 20
2101.999997405326
 30
0.0
 11
1648.000000000001
 21
2101.999997405326
 31
0.0
  0
LINE
  5
13BE0
330
1F
100
AcDbEntity
  8
実線
100
AcDbLine
 10
1616.000000000001
 20
2113.999997405326
 30
0.0
 11
1628.000000000001
 21
2101.999997405326
 31
0.0
  0
LINE
  5
13BE1
330
1F
100
AcDbEntity
  8
実線
100
AcDbLine
 10
1616.000000000001
 20
2104.999997405326
 30
0.0
 11
1625.000000000001
 21
2104.999997405326
 31
0.0
  0
LINE
  5
13BE2
330
1F
100
AcDbEntity
  8
破線
100
AcDbLine
 10
2052.000000000001
 20
2060.999979160695
 30
0.0
 11
2052.000000000001
 21
2044.999997405327
 31
0.0
  0
LINE
  5
13BE3
330
1F
100
AcDbEntity
  8
破線
100
AcDbLine
 10
2084.000000000001
 20
2060.999997405327
 30
0.0
 11
2052.000000000001
 21
2060.999997405327
 31
0.0
  0
LINE
  5
13BE4
330
1F
100
AcDbEntity
  8
実線
100
AcDbLine
 10
2084.000000000001
 20
2034.999997405326
 30
0.0
 11
2100.000000000001
 21
2034.999997405326
 31
0.0
  0
LINE
  5
13BE5
330
1F
100
AcDbEntity
  8
実線
100
AcDbLine
 10
2052.000103585027
 20
2102.000015649958
 30
0.0
 11
2052.000103585027
 21
2388.000015649957
 31
0.0
  0
LINE
  5
13BE6
330
1F
100
AcDbEntity
  8
破線
100
AcDbLine
 10
2075.000103585027
 20
2384.999997405326
 30
0.0
 11
2052.000103585027
 21
2384.999997405326
 31
0.0
  0
LINE
  5
13BE7
330
1F
100
AcDbEntity
  8
実線
100
AcDbLine
 10
2072.000103585029
 20
2387.999997405326
 30
0.0
 11
2052.000103585027
 21
2387.999997405326
 31
0.0
  0
LINE
  5
13BE8
330
1F
100
AcDbEntity
  8
実線
100
AcDbLine
 10
2084.000103585027
 20
2375.999997405326
 30
0.0
 11
2072.000103585029
 21
2387.999997405326
 31
0.0
  0
LINE
  5
13BE9
330
1F
100
AcDbEntity
  8
実線
100
AcDbLine
 10
2084.000103585027
 20
2384.999997405326
 30
0.0
 11
2075.000103585027
 21
2384.999997405326
 31
0.0
  0
LINE
  5
13BEA
330
1F
100
AcDbEntity
  8
破線
100
AcDbLine
 10
2075.000103585027
 20
2104.999997405326
 30
0.0
 11
2052.000103585027
 21
2104.999997405326
 31
0.0
  0
LINE
  5
13BEB
330
1F
100
AcDbEntity
  8
実線
100
AcDbLine
 10
2072.000103585029
 20
2101.999997405326
 30
0.0
 11
2052.000103585027
 21
2101.999997405326
 31
0.0
  0
LINE
  5
13BEC
330
1F
100
AcDbEntity
  8
実線
100
AcDbLine
 10
2084.000103585027
 20
2113.999997405326
 30
0.0
 11
2072.000103585029
 21
2101.999997405326
 31
0.0
  0
LINE
  5
13BED
330
1F
100
AcDbEntity
  8
実線
100
AcDbLine
 10
2084.000103585027
 20
2104.999997405326
 30
0.0
 11
2075.000103585027
 21
2104.999997405326
 31
0.0
  0
DIMENSION
  5
13BEE
330
1F
100
AcDbEntity
  8
寸法線
100
AcDbDimension
280
     0
  2
*D22
 10
2631.000226983165
 20
2605.000006527643
 30
0.0
 11
2640.500226983165
 21
2605.000006527643
 31
0.0
 70
   160
 71
     5
 42
19.0
 73
     0
 74
     0
 75
     0
  3
STANDARD
100
AcDbAlignedDimension
 13
2650.000226983165
 23
2436.000043747316
 33
0.0
 14
2631.000226983165
 24
2445.000006527642
 34
0.0
 50
180.0
100
AcDbRotatedDimension
  0
DIMENSION
  5
13BEF
330
1F
100
AcDbEntity
  8
寸法線
100
AcDbDimension
280
     0
  2
*D23
 10
2100.000226983166
 20
2605.000006527643
 30
0.0
 11
2365.500226983165
 21
2605.000006527643
 31
0.0
 70
   160
 71
     5
 42
531.0
 73
     0
 74
     0
 75
     0
  3
STANDARD
100
AcDbAlignedDimension
 13
2631.000226983165
 23
2445.000006527642
 33
0.0
 14
2100.000226983166
 24
2455.000043747316
 34
0.0
 50
180.0
100
AcDbRotatedDimension
  0
DIMENSION
  5
13BF0
330
1F
100
AcDbEntity
  8
寸法線
100
AcDbDimension
280
     0
  2
*D24
 10
2100.000000000001
 20
1285.000024532386
 30
0.0
 11
2375.000000000001
 21
1285.000024532386
 31
0.0
 70
   160
 71
     5
 42
550.0
 73
     0
 74
     0
 75
     0
  3
STANDARD
100
AcDbAlignedDimension
 13
2650.000000000002
 23
1445.000024532386
 33
0.0
 14
2100.000000000001
 24
1435.00006175206
 34
0.0
 50
180.0
100
AcDbRotatedDimension
  0
LINE
  5
13BF1
330
1F
100
AcDbEntity
  8
中心線
100
AcDbLine
 10
1472.000000000001
 20
1815.000024532386
 30
0.0
 11
2228.000003823188
 21
1815.000002903748
 31
0.0
  0
LINE
  5
13BF2
330
1F
100
AcDbEntity
  8
中心線
100
AcDbLine
 10
1590.000051792514
 20
2415.000015649954
 30
0.0
 11
2110.00015537754
 21
2415.000015649954
 31
0.0
  0
LINE
  5
13BF3
330
1F
100
AcDbEntity
  8
中心線
100
AcDbLine
 10
1590.000051792514
 20
2075.000015649961
 30
0.0
 11
2110.00015537754
 21
2075.000015649961
 31
0.0
  0
LINE
  5
13BF4
330
1F
100
AcDbEntity
  8
中心線
100
AcDbLine
 10
1471.99999994328
 20
1475.000024892037
 30
0.0
 11
2228.000003766468
 21
1475.000046301808
 31
0.0
  0
LINE
  5
13BF5
330
1F
100
AcDbEntity
  8
寸法線
100
AcDbLine
 10
1689.999948207486
 20
1119.999780337659
 30
0.0
 11
2009.999948207486
 21
1119.999780337659
 31
0.0
  0
TEXT
  5
13BF6
330
1F
100
AcDbEntity
  8
寸法線
100
AcDbText
 10
1698.749948207486
 20
1128.749780337659
 30
0.0
 40
37.5
  1
空洞金具詳細図
 72
     1
 11
1849.999948207486
 21
1128.749780337659
 31
0.0
100
AcDbText
 73
     1
  0
LINE
  5
13BF7
330
1F
100
AcDbEntity
  8
実線
100
AcDbLine
 10
1050.00000000003
 20
2436.000020333987
 30
0.0
 11
1050.00000000003
 21
2054.000020333987
 31
0.0
  0
LINE
  5
13BF8
330
1F
100
AcDbEntity
  8
実線
100
AcDbLine
 10
1069.00000000003
 20
2444.999983114306
 30
0.0
 11
1069.00000000003
 21
2044.999983114306
 31
0.0
  0
LINE
  5
13BF9
330
1F
100
AcDbEntity
  8
実線
100
AcDbLine
 10
1069.00000000003
 20
2444.999983114306
 30
0.0
 11
1600.000019813132
 21
2444.999983114306
 31
0.0
  0
LINE
  5
13BFA
330
1F
100
AcDbEntity
  8
実線
100
AcDbLine
 10
1069.00000000003
 20
2423.999983114306
 30
0.0
 11
1600.000019813132
 21
2423.999983114306
 31
0.0
  0
LINE
  5
13BFB
330
1F
100
AcDbEntity
  8
実線
100
AcDbLine
 10
1480.00000000003
 20
2423.999983114306
 30
0.0
 11
1480.00000000003
 21
2394.000020333987
 31
0.0
  0
LINE
  5
13BFC
330
1F
100
AcDbEntity
  8
実線
100
AcDbLine
 10
1560.000019813132
 20
2353.999983114306
 30
0.0
 11
1600.000019813132
 21
2353.999983114306
 31
0.0
  0
LINE
  5
13BFD
330
1F
100
AcDbEntity
  8
実線
100
AcDbLine
 10
1480.00000000003
 20
2394.000020333987
 30
0.0
 11
1560.000019813132
 21
2353.999983114306
 31
0.0
  0
LINE
  5
13BFE
330
1F
100
AcDbEntity
  8
実線
100
AcDbLine
 10
1588.00002377575
 20
2423.999983114306
 30
0.0
 11
1600.00002377575
 21
2411.999983114306
 31
0.0
  0
LINE
  5
13BFF
330
1F
100
AcDbEntity
  8
仮想線
100
AcDbLine
 10
1591.000019813132
 20
2423.999983114306
 30
0.0
 11
1600.000019813132
 21
2414.999983114306
 31
0.0
  0
LINE
  5
13C00
330
1F
100
AcDbEntity
  8
実線
100
AcDbLine
 10
1480.00000000003
 20
2065.999983114306
 30
0.0
 11
1480.00000000003
 21
2095.999945894639
 31
0.0
  0
LINE
  5
13C01
330
1F
100
AcDbEntity
  8
実線
100
AcDbLine
 10
1560.000019813132
 20
2135.999983114306
 30
0.0
 11
1600.000019813132
 21
2135.999983114306
 31
0.0
  0
LINE
  5
13C02
330
1F
100
AcDbEntity
  8
実線
100
AcDbLine
 10
1480.00000000003
 20
2095.999945894639
 30
0.0
 11
1560.000019813132
 21
2135.999983114306
 31
0.0
  0
LINE
  5
13C03
330
1F
100
AcDbEntity
  8
実線
100
AcDbLine
 10
1588.00002377575
 20
2065.999983114306
 30
0.0
 11
1600.00002377575
 21
2077.999983114306
 31
0.0
  0
LINE
  5
13C04
330
1F
100
AcDbEntity
  8
仮想線
100
AcDbLine
 10
1591.000019813132
 20
2065.999983114306
 30
0.0
 11
1600.000019813132
 21
2074.999983114306
 31
0.0
  0
LINE
  5
13C05
330
1F
100
AcDbEntity
  8
実線
100
AcDbLine
 10
1050.00000000003
 20
2436.000020333987
 30
0.0
 11
1069.00000000003
 21
2436.000020333987
 31
0.0
  0
LINE
  5
13C06
330
1F
100
AcDbEntity
  8
実線
100
AcDbLine
 10
1050.00000000003
 20
2054.00004589463
 30
0.0
 11
1069.00000000003
 21
2054.00004589463
 31
0.0
  0
LINE
  5
13C07
330
1F
100
AcDbEntity
  8
仮想線
100
AcDbLine
 10
1069.00000000003
 20
2444.999983114306
 30
0.0
 11
1060.000037219697
 21
2436.000020333987
 31
0.0
  0
LINE
  5
13C08
330
1F
100
AcDbEntity
  8
仮想線
100
AcDbLine
 10
1069.00000000003
 20
2044.999983114306
 30
0.0
 11
1059.999937219706
 21
2054.00004589463
 31
0.0
  0
LINE
  5
13C09
330
1F
100
AcDbEntity
  8
実線
100
AcDbLine
 10
1069.00000000003
 20
2250.999983114306
 30
0.0
 11
1269.000019813132
 21
2250.999983114306
 31
0.0
  0
LINE
  5
13C0A
330
1F
100
AcDbEntity
  8
実線
100
AcDbLine
 10
1069.00000000003
 20
2238.999983114306
 30
0.0
 11
1269.000019813132
 21
2238.999983114306
 31
0.0
  0
LINE
  5
13C0B
330
1F
100
AcDbEntity
  8
実線
100
AcDbLine
 10
1269.000019813132
 20
2250.999983114306
 30
0.0
 11
1269.000019813132
 21
2238.999983114306
 31
0.0
  0
LINE
  5
13C0C
330
1F
100
AcDbEntity
  8
仮想線
100
AcDbLine
 10
1600.000001981332
 20
2454.000016612015
 30
0.0
 11
1590.999968483623
 21
2444.999983114306
 31
0.0
  0
LINE
  5
13C0D
330
1F
100
AcDbEntity
  8
仮想線
100
AcDbLine
 10
1600.000001981332
 20
2036.000016612014
 30
0.0
 11
1591.00003547904
 21
2044.999983114306
 31
0.0
  0
LINE
  5
13C0E
330
1F
100
AcDbEntity
  8
実線
100
AcDbLine
 10
1069.00000000003
 20
2044.999983114306
 30
0.0
 11
1600.00008307949
 21
2045.000247352872
 31
0.0
  0
LINE
  5
13C0F
330
1F
100
AcDbEntity
  8
実線
100
AcDbLine
 10
1069.00000000003
 20
2066.000079380566
 30
0.0
 11
1600.000076436512
 21
2066.000247352872
 31
0.0
  0
LINE
  5
13C10
330
1F
100
AcDbEntity
  8
中心線
100
AcDbLine
 10
1100.00000000003
 20
2455.000020330757
 30
0.0
 11
1100.00000000003
 21
2414.000020330757
 31
0.0
  0
LINE
  5
13C11
330
1F
100
AcDbEntity
  8
中心線
100
AcDbLine
 10
1100.00000000003
 20
2035.000020337232
 30
0.0
 11
1100.00000000003
 21
2076.000020337232
 31
0.0
  0
LINE
  5
13C12
330
1F
100
AcDbEntity
  8
中心線
100
AcDbLine
 10
1040.000004497882
 20
2344.99998300895
 30
0.0
 11
1076.000024310987
 21
2344.99998300895
 31
0.0
  0
LINE
  5
13C13
330
1F
100
AcDbEntity
  8
中心線
100
AcDbLine
 10
1040.000004497882
 20
2144.99998300895
 30
0.0
 11
1076.000024310987
 21
2144.99998300895
 31
0.0
  0
LINE
  5
13C14
330
1F
100
AcDbEntity
  8
中心線
100
AcDbLine
 10
1040.000004497882
 20
2169.99998300895
 30
0.0
 11
1076.000024310987
 21
2169.99998300895
 31
0.0
  0
LINE
  5
13C15
330
1F
100
AcDbEntity
  8
中心線
100
AcDbLine
 10
1040.000004497882
 20
2320.000057659024
 30
0.0
 11
1076.000024310987
 21
2320.000057659024
 31
0.0
  0
LINE
  5
13C16
330
1F
100
AcDbEntity
  8
中心線
100
AcDbLine
 10
1150.00000000003
 20
2455.000020330757
 30
0.0
 11
1150.00000000003
 21
2414.000020330757
 31
0.0
  0
LINE
  5
13C17
330
1F
100
AcDbEntity
  8
中心線
100
AcDbLine
 10
1150.00000000003
 20
2035.000020337232
 30
0.0
 11
1150.00000000003
 21
2076.000020337232
 31
0.0
  0
LINE
  5
13C18
330
1F
100
AcDbEntity
  8
中心線
100
AcDbLine
 10
1200.00000000003
 20
2455.000020330757
 30
0.0
 11
1200.00000000003
 21
2414.000020330757
 31
0.0
  0
LINE
  5
13C19
330
1F
100
AcDbEntity
  8
中心線
100
AcDbLine
 10
1200.00000000003
 20
2035.000020337232
 30
0.0
 11
1200.00000000003
 21
2076.000020337232
 31
0.0
  0
LINE
  5
13C1A
330
1F
100
AcDbEntity
  8
中心線
100
AcDbLine
 10
1250.00000000003
 20
2455.000020330757
 30
0.0
 11
1250.00000000003
 21
2414.000020330757
 31
0.0
  0
LINE
  5
13C1B
330
1F
100
AcDbEntity
  8
中心線
100
AcDbLine
 10
1250.00000000003
 20
2035.000020337232
 30
0.0
 11
1250.00000000003
 21
2076.000020337232
 31
0.0
  0
LINE
  5
13C1C
330
1F
100
AcDbEntity
  8
中心線
100
AcDbLine
 10
1300.00000000003
 20
2455.000020330757
 30
0.0
 11
1300.00000000003
 21
2414.000020330757
 31
0.0
  0
LINE
  5
13C1D
330
1F
100
AcDbEntity
  8
中心線
100
AcDbLine
 10
1300.00000000003
 20
2035.000020337232
 30
0.0
 11
1300.00000000003
 21
2076.000020337232
 31
0.0
  0
LINE
  5
13C1E
330
1F
100
AcDbEntity
  8
中心線
100
AcDbLine
 10
1350.00000000003
 20
2455.000020330757
 30
0.0
 11
1350.00000000003
 21
2414.000020330757
 31
0.0
  0
LINE
  5
13C1F
330
1F
100
AcDbEntity
  8
中心線
100
AcDbLine
 10
1350.00000000003
 20
2035.000020337232
 30
0.0
 11
1350.00000000003
 21
2076.000020337232
 31
0.0
  0
LINE
  5
13C20
330
1F
100
AcDbEntity
  8
中心線
100
AcDbLine
 10
1400.00000000003
 20
2455.000020330757
 30
0.0
 11
1400.00000000003
 21
2414.000020330757
 31
0.0
  0
LINE
  5
13C21
330
1F
100
AcDbEntity
  8
中心線
100
AcDbLine
 10
1400.00000000003
 20
2035.000020337232
 30
0.0
 11
1400.00000000003
 21
2076.000020337232
 31
0.0
  0
LINE
  5
13C22
330
1F
100
AcDbEntity
  8
実線
100
AcDbLine
 10
1050.000000000001
 20
1844.999978190404
 30
0.0
 11
1600.000019813132
 21
1844.999978190404
 31
0.0
  0
LINE
  5
13C23
330
1F
100
AcDbEntity
  8
実線
100
AcDbLine
 10
1069.000000000001
 20
1844.999978190404
 30
0.0
 11
1069.000000000001
 21
1444.999978190403
 31
0.0
  0
LINE
  5
13C24
330
1F
100
AcDbEntity
  8
実線
100
AcDbLine
 10
1050.000000000001
 20
1844.999978190404
 30
0.0
 11
1050.000000000001
 21
1444.999978190403
 31
0.0
  0
LINE
  5
13C25
330
1F
100
AcDbEntity
  8
破線
100
AcDbLine
 10
1069.000000000001
 20
1651.499978190403
 30
0.0
 11
1600.000019813132
 21
1651.499978190403
 31
0.0
  0
LINE
  5
13C26
330
1F
100
AcDbEntity
  8
破線
100
AcDbLine
 10
1079.000000000001
 20
1651.499978190403
 30
0.0
 11
1069.000000000001
 21
1661.499978190403
 31
0.0
  0
LINE
  5
13C27
330
1F
100
AcDbEntity
  8
仮想線
100
AcDbLine
 10
1076.000000000001
 20
1651.499978190403
 30
0.0
 11
1069.000000000001
 21
1658.499978190403
 31
0.0
  0
LINE
  5
13C28
330
1F
100
AcDbEntity
  8
破線
100
AcDbLine
 10
1079.000000000001
 20
1638.499978190403
 30
0.0
 11
1069.000000000001
 21
1628.499978190403
 31
0.0
  0
LINE
  5
13C29
330
1F
100
AcDbEntity
  8
仮想線
100
AcDbLine
 10
1076.000000000001
 20
1638.499978190403
 30
0.0
 11
1069.000000000001
 21
1631.499978190403
 31
0.0
  0
LINE
  5
13C2A
330
1F
100
AcDbEntity
  8
実線
100
AcDbLine
 10
1600.000000000001
 20
1855.00001541007
 30
0.0
 11
1600.000000000001
 21
1435.00001541007
 31
0.0
  0
LINE
  5
13C2B
330
1F
100
AcDbEntity
  8
破線
100
AcDbLine
 10
1480.000019813132
 20
1824.499978190403
 30
0.0
 11
1600.000000000001
 21
1824.499978190403
 31
0.0
  0
LINE
  5
13C2C
330
1F
100
AcDbEntity
  8
破線
100
AcDbLine
 10
1480.000019813132
 20
1805.499978190403
 30
0.0
 11
1600.000000000001
 21
1805.499978190403
 31
0.0
  0
LINE
  5
13C2D
330
1F
100
AcDbEntity
  8
破線
100
AcDbLine
 10
1480.000019813132
 20
1824.499978190403
 30
0.0
 11
1480.000019813132
 21
1805.499978190403
 31
0.0
  0
LINE
  5
13C2E
330
1F
100
AcDbEntity
  8
破線
100
AcDbLine
 10
1480.000019813132
 20
1465.499978190403
 30
0.0
 11
1600.000000000001
 21
1465.499978190403
 31
0.0
  0
LINE
  5
13C2F
330
1F
100
AcDbEntity
  8
破線
100
AcDbLine
 10
1480.000019813132
 20
1484.499978190403
 30
0.0
 11
1600.000000000001
 21
1484.499978190403
 31
0.0
  0
LINE
  5
13C30
330
1F
100
AcDbEntity
  8
破線
100
AcDbLine
 10
1480.000019813132
 20
1465.499978190403
 30
0.0
 11
1480.000019813132
 21
1484.499978190403
 31
0.0
  0
LINE
  5
13C31
330
1F
100
AcDbEntity
  8
破線
100
AcDbLine
 10
1069.000000000001
 20
1841.499978190404
 30
0.0
 11
1099.000019813132
 21
1841.499978190404
 31
0.0
  0
LINE
  5
13C32
330
1F
100
AcDbEntity
  8
破線
100
AcDbLine
 10
1269.000000000001
 20
1681.50001541007
 30
0.0
 11
1269.000000000001
 21
1651.499978190403
 31
0.0
  0
LINE
  5
13C33
330
1F
100
AcDbEntity
  8
破線
100
AcDbLine
 10
1099.000019813132
 20
1841.499978190404
 30
0.0
 11
1269.000000000001
 21
1681.50001541007
 31
0.0
  0
LINE
  5
13C34
330
1F
100
AcDbEntity
  8
破線
100
AcDbLine
 10
1269.000000000001
 20
1608.499940970737
 30
0.0
 11
1269.000000000001
 21
1638.499978190403
 31
0.0
  0
LINE
  5
13C35
330
1F
100
AcDbEntity
  8
破線
100
AcDbLine
 10
1099.000019813132
 20
1448.499978190403
 30
0.0
 11
1269.000000000001
 21
1608.499940970737
 31
0.0
  0
LINE
  5
13C36
330
1F
100
AcDbEntity
  8
破線
100
AcDbLine
 10
1069.000000000001
 20
1448.499978190403
 30
0.0
 11
1099.000019813132
 21
1448.499978190403
 31
0.0
  0
LINE
  5
13C37
330
1F
100
AcDbEntity
  8
実線
100
AcDbLine
 10
1050.000000000001
 20
1444.999978190403
 30
0.0
 11
1600.000019813132
 21
1444.999978401144
 31
0.0
  0
LINE
  5
13C38
330
1F
100
AcDbEntity
  8
破線
100
AcDbLine
 10
1069.000000000001
 20
1638.499978401144
 30
0.0
 11
1600.000019813132
 21
1638.499978401144
 31
0.0
  0
LEADER
  5
13C39
330
1F
100
AcDbEntity
  8
寸法線
100
AcDbLeader
  3
STANDARD
 76
     3
 10
1156.123092980645
 20
1780.897598937902
 30
0.0
 10
1231.471927565886
 20
1915.000024532387
 30
0.0
 10
1499.132104500706
 20
1915.000024532387
 30
0.0
211
-1.0
221
0.0
231
0.0
1001
ACAD
1000
DSTYLE
1002
{
1070
   147
1040
0.875
1070
    77
1070
     0
1002
}
  0
TEXT
  5
13C3A
330
1F
100
AcDbEntity
  8
寸法線
100
AcDbText
 10
1240.221927565881
 20
1923.750024532387
 30
0.0
 40
25.0
  1
ｶﾊﾞｰﾌﾟﾚｰﾄ連結用孔
 72
     2
 11
1488.555260899214
 21
1948.750024532387
 31
0.0
100
AcDbText
 73
     3
  0
LINE
  5
13C3B
330
1F
100
AcDbEntity
  8
中心線
100
AcDbLine
 10
1100.000000000001
 20
1754.999978190418
 30
0.0
 11
1100.000000000001
 21
1685.000015410092
 31
0.0
  0
LINE
  5
13C3C
330
1F
100
AcDbEntity
  8
中心線
100
AcDbLine
 10
1065.000018609838
 20
1719.999996800259
 30
0.0
 11
1134.999981390164
 21
1719.999996800259
 31
0.0
  0
CIRCLE
  5
13C3D
330
1F
100
AcDbEntity
  8
実線
100
AcDbCircle
 10
1100.000000000001
 20
1719.999996800259
 30
0.0
 40
12.5
  0
LINE
  5
13C3E
330
1F
100
AcDbEntity
  8
中心線
100
AcDbLine
 10
1100.000000000001
 20
1535.000078190415
 30
0.0
 11
1100.000000000001
 21
1605.000040970742
 31
0.0
  0
LINE
  5
13C3F
330
1F
100
AcDbEntity
  8
中心線
100
AcDbLine
 10
1065.000018609838
 20
1570.000059580582
 30
0.0
 11
1134.999981390164
 21
1570.000059580582
 31
0.0
  0
CIRCLE
  5
13C40
330
1F
100
AcDbEntity
  8
実線
100
AcDbCircle
 10
1100.000000000001
 20
1570.000059580582
 30
0.0
 40
12.5
  0
LINE
  5
13C41
330
1F
100
AcDbEntity
  8
中心線
100
AcDbLine
 10
1200.000000000001
 20
1754.999978190418
 30
0.0
 11
1200.000000000001
 21
1685.000015410092
 31
0.0
  0
LINE
  5
13C42
330
1F
100
AcDbEntity
  8
中心線
100
AcDbLine
 10
1165.000018609838
 20
1719.999996800259
 30
0.0
 11
1234.999981390164
 21
1719.999996800259
 31
0.0
  0
CIRCLE
  5
13C43
330
1F
100
AcDbEntity
  8
実線
100
AcDbCircle
 10
1200.000000000001
 20
1719.999996800259
 30
0.0
 40
12.5
  0
LINE
  5
13C44
330
1F
100
AcDbEntity
  8
中心線
100
AcDbLine
 10
1200.000000000001
 20
1535.000078190415
 30
0.0
 11
1200.000000000001
 21
1605.000040970742
 31
0.0
  0
LINE
  5
13C45
330
1F
100
AcDbEntity
  8
中心線
100
AcDbLine
 10
1165.000018609838
 20
1570.000059580582
 30
0.0
 11
1234.999981390164
 21
1570.000059580582
 31
0.0
  0
CIRCLE
  5
13C46
330
1F
100
AcDbEntity
  8
実線
100
AcDbCircle
 10
1200.000000000001
 20
1570.000059580582
 30
0.0
 40
12.5
  0
LINE
  5
13C47
330
1F
100
AcDbEntity
  8
中心線
100
AcDbLine
 10
1300.000000000001
 20
1754.999978190418
 30
0.0
 11
1300.000000000001
 21
1685.000015410092
 31
0.0
  0
LINE
  5
13C48
330
1F
100
AcDbEntity
  8
中心線
100
AcDbLine
 10
1265.000018609838
 20
1719.999996800259
 30
0.0
 11
1334.999981390164
 21
1719.999996800259
 31
0.0
  0
CIRCLE
  5
13C49
330
1F
100
AcDbEntity
  8
実線
100
AcDbCircle
 10
1300.000000000001
 20
1719.999996800259
 30
0.0
 40
12.5
  0
LINE
  5
13C4A
330
1F
100
AcDbEntity
  8
中心線
100
AcDbLine
 10
1300.000000000001
 20
1535.000078190415
 30
0.0
 11
1300.000000000001
 21
1605.000040970742
 31
0.0
  0
LINE
  5
13C4B
330
1F
100
AcDbEntity
  8
中心線
100
AcDbLine
 10
1265.000018609838
 20
1570.000059580582
 30
0.0
 11
1334.999981390164
 21
1570.000059580582
 31
0.0
  0
CIRCLE
  5
13C4C
330
1F
100
AcDbEntity
  8
実線
100
AcDbCircle
 10
1300.000000000001
 20
1570.000059580582
 30
0.0
 40
12.5
  0
LINE
  5
13C4D
330
1F
100
AcDbEntity
  8
中心線
100
AcDbLine
 10
1150.000000000001
 20
1804.999978190418
 30
0.0
 11
1150.000000000001
 21
1735.000015410092
 31
0.0
  0
LINE
  5
13C4E
330
1F
100
AcDbEntity
  8
中心線
100
AcDbLine
 10
1115.000018609838
 20
1769.999996800258
 30
0.0
 11
1184.999981390164
 21
1769.999996800258
 31
0.0
  0
CIRCLE
  5
13C4F
330
1F
100
AcDbEntity
  8
実線
100
AcDbCircle
 10
1150.000000000001
 20
1769.999996800258
 30
0.0
 40
12.5
  0
LINE
  5
13C50
330
1F
100
AcDbEntity
  8
中心線
100
AcDbLine
 10
1250.000000000001
 20
1804.999978190418
 30
0.0
 11
1250.000000000001
 21
1735.000015410092
 31
0.0
  0
LINE
  5
13C51
330
1F
100
AcDbEntity
  8
中心線
100
AcDbLine
 10
1215.000018609838
 20
1769.999996800258
 30
0.0
 11
1284.999981390164
 21
1769.999996800258
 31
0.0
  0
CIRCLE
  5
13C52
330
1F
100
AcDbEntity
  8
実線
100
AcDbCircle
 10
1250.000000000001
 20
1769.999996800258
 30
0.0
 40
12.5
  0
LINE
  5
13C53
330
1F
100
AcDbEntity
  8
中心線
100
AcDbLine
 10
1150.000000000001
 20
1485.000078190415
 30
0.0
 11
1150.000000000001
 21
1555.000040970742
 31
0.0
  0
LINE
  5
13C54
330
1F
100
AcDbEntity
  8
中心線
100
AcDbLine
 10
1115.000018609838
 20
1520.000059580582
 30
0.0
 11
1184.999981390164
 21
1520.000059580582
 31
0.0
  0
CIRCLE
  5
13C55
330
1F
100
AcDbEntity
  8
実線
100
AcDbCircle
 10
1150.000000000001
 20
1520.000059580582
 30
0.0
 40
12.5
  0
LINE
  5
13C56
330
1F
100
AcDbEntity
  8
中心線
100
AcDbLine
 10
1250.000000000001
 20
1485.000078190415
 30
0.0
 11
1250.000000000001
 21
1555.000040970742
 31
0.0
  0
LINE
  5
13C57
330
1F
100
AcDbEntity
  8
中心線
100
AcDbLine
 10
1215.000018609838
 20
1520.000059580582
 30
0.0
 11
1284.999981390164
 21
1520.000059580582
 31
0.0
  0
CIRCLE
  5
13C58
330
1F
100
AcDbEntity
  8
実線
100
AcDbCircle
 10
1250.000000000001
 20
1520.000059580582
 30
0.0
 40
12.5
  0
LINE
  5
13C59
330
1F
100
AcDbEntity
  8
中心線
100
AcDbLine
 10
1400.000000000001
 20
1754.999978190418
 30
0.0
 11
1400.000000000001
 21
1685.000015410092
 31
0.0
  0
LINE
  5
13C5A
330
1F
100
AcDbEntity
  8
中心線
100
AcDbLine
 10
1365.000018609838
 20
1719.999996800259
 30
0.0
 11
1434.999981390164
 21
1719.999996800259
 31
0.0
  0
CIRCLE
  5
13C5B
330
1F
100
AcDbEntity
  8
実線
100
AcDbCircle
 10
1400.000000000001
 20
1719.999996800259
 30
0.0
 40
12.5
  0
LINE
  5
13C5C
330
1F
100
AcDbEntity
  8
中心線
100
AcDbLine
 10
1400.000000000001
 20
1535.000078190415
 30
0.0
 11
1400.000000000001
 21
1605.000040970742
 31
0.0
  0
LINE
  5
13C5D
330
1F
100
AcDbEntity
  8
中心線
100
AcDbLine
 10
1365.000018609838
 20
1570.000059580582
 30
0.0
 11
1434.999981390164
 21
1570.000059580582
 31
0.0
  0
CIRCLE
  5
13C5E
330
1F
100
AcDbEntity
  8
実線
100
AcDbCircle
 10
1400.000000000001
 20
1570.000059580582
 30
0.0
 40
12.5
  0
LINE
  5
13C5F
330
1F
100
AcDbEntity
  8
中心線
100
AcDbLine
 10
1350.000000000001
 20
1804.999978190418
 30
0.0
 11
1350.000000000001
 21
1735.000015410092
 31
0.0
  0
LINE
  5
13C60
330
1F
100
AcDbEntity
  8
中心線
100
AcDbLine
 10
1315.000018609838
 20
1769.999996800258
 30
0.0
 11
1384.999981390164
 21
1769.999996800258
 31
0.0
  0
CIRCLE
  5
13C61
330
1F
100
AcDbEntity
  8
実線
100
AcDbCircle
 10
1350.000000000001
 20
1769.999996800258
 30
0.0
 40
12.5
  0
LINE
  5
13C62
330
1F
100
AcDbEntity
  8
中心線
100
AcDbLine
 10
1350.000000000001
 20
1485.000078190415
 30
0.0
 11
1350.000000000001
 21
1555.000040970742
 31
0.0
  0
LINE
  5
13C63
330
1F
100
AcDbEntity
  8
中心線
100
AcDbLine
 10
1315.000018609838
 20
1520.000059580582
 30
0.0
 11
1384.999981390164
 21
1520.000059580582
 31
0.0
  0
CIRCLE
  5
13C64
330
1F
100
AcDbEntity
  8
実線
100
AcDbCircle
 10
1350.000000000001
 20
1520.000059580582
 30
0.0
 40
12.5
  0
LINE
  5
13C65
330
1F
100
AcDbEntity
  8
中心線
100
AcDbLine
 10
1040.000004497856
 20
1744.939077868889
 30
0.0
 11
1076.000024310965
 21
1744.939077868889
 31
0.0
  0
LINE
  5
13C66
330
1F
100
AcDbEntity
  8
中心線
100
AcDbLine
 10
1040.000004497856
 20
1544.939077868889
 30
0.0
 11
1076.000024310965
 21
1544.939077868889
 31
0.0
  0
LINE
  5
13C67
330
1F
100
AcDbEntity
  8
中心線
100
AcDbLine
 10
1040.000004497856
 20
1594.939077868889
 30
0.0
 11
1076.000024310965
 21
1594.939077868889
 31
0.0
  0
LINE
  5
13C68
330
1F
100
AcDbEntity
  8
中心線
100
AcDbLine
 10
1040.000004497856
 20
1694.93915251897
 30
0.0
 11
1076.000024310965
 21
1694.93915251897
 31
0.0
  0
LINE
  5
13C69
330
1F
100
AcDbEntity
  8
実線
100
AcDbLine
 10
2650.000000000002
 20
1844.999978190404
 30
0.0
 11
2099.99998018687
 21
1844.999978190404
 31
0.0
  0
LINE
  5
13C6A
330
1F
100
AcDbEntity
  8
実線
100
AcDbLine
 10
2631.000000000002
 20
1844.999978190404
 30
0.0
 11
2630.999999999998
 21
1444.999978190403
 31
0.0
  0
LINE
  5
13C6B
330
1F
100
AcDbEntity
  8
実線
100
AcDbLine
 10
2650.000000000002
 20
1844.999978190404
 30
0.0
 11
2649.999999999998
 21
1444.999978190403
 31
0.0
  0
LINE
  5
13C6C
330
1F
100
AcDbEntity
  8
破線
100
AcDbLine
 10
2631.000000000002
 20
1651.499978190403
 30
0.0
 11
2099.99998018687
 21
1651.499978190403
 31
0.0
  0
LINE
  5
13C6D
330
1F
100
AcDbEntity
  8
破線
100
AcDbLine
 10
2621.000000000002
 20
1651.499978190403
 30
0.0
 11
2631.000000000002
 21
1661.499978190403
 31
0.0
  0
LINE
  5
13C6E
330
1F
100
AcDbEntity
  8
仮想線
100
AcDbLine
 10
2624.000000000001
 20
1651.499978190403
 30
0.0
 11
2631.000000000002
 21
1658.499978190403
 31
0.0
  0
LINE
  5
13C6F
330
1F
100
AcDbEntity
  8
破線
100
AcDbLine
 10
2621.000000000002
 20
1638.499978190403
 30
0.0
 11
2631.000000000002
 21
1628.499978190403
 31
0.0
  0
LINE
  5
13C70
330
1F
100
AcDbEntity
  8
仮想線
100
AcDbLine
 10
2624.000000000001
 20
1638.499978190403
 30
0.0
 11
2631.000000000002
 21
1631.499978190403
 31
0.0
  0
LINE
  5
13C71
330
1F
100
AcDbEntity
  8
実線
100
AcDbLine
 10
2100.000000000001
 20
1855.00001541007
 30
0.0
 11
2099.999999999998
 21
1435.00001541007
 31
0.0
  0
LINE
  5
13C72
330
1F
100
AcDbEntity
  8
破線
100
AcDbLine
 10
2219.99998018687
 20
1824.499978190403
 30
0.0
 11
2100.000000000001
 21
1824.499978190403
 31
0.0
  0
LINE
  5
13C73
330
1F
100
AcDbEntity
  8
破線
100
AcDbLine
 10
2219.99998018687
 20
1805.499978190403
 30
0.0
 11
2100.000000000001
 21
1805.499978190403
 31
0.0
  0
LINE
  5
13C74
330
1F
100
AcDbEntity
  8
破線
100
AcDbLine
 10
2219.99998018687
 20
1824.499978190403
 30
0.0
 11
2219.99998018687
 21
1805.499978190403
 31
0.0
  0
LINE
  5
13C75
330
1F
100
AcDbEntity
  8
破線
100
AcDbLine
 10
2219.999980186867
 20
1465.499978190403
 30
0.0
 11
2099.999999999998
 21
1465.499978190403
 31
0.0
  0
LINE
  5
13C76
330
1F
100
AcDbEntity
  8
破線
100
AcDbLine
 10
2219.999980186867
 20
1484.499978190403
 30
0.0
 11
2099.999999999998
 21
1484.499978190403
 31
0.0
  0
LINE
  5
13C77
330
1F
100
AcDbEntity
  8
破線
100
AcDbLine
 10
2219.999980186867
 20
1465.499978190403
 30
0.0
 11
2219.999980186867
 21
1484.499978190403
 31
0.0
  0
LINE
  5
13C78
330
1F
100
AcDbEntity
  8
破線
100
AcDbLine
 10
2631.000000000002
 20
1841.499978190404
 30
0.0
 11
2600.99998018687
 21
1841.499978190404
 31
0.0
  0
LINE
  5
13C79
330
1F
100
AcDbEntity
  8
破線
100
AcDbLine
 10
2431.000000000001
 20
1681.50001541007
 30
0.0
 11
2431.000000000001
 21
1651.499978190403
 31
0.0
  0
LINE
  5
13C7A
330
1F
100
AcDbEntity
  8
破線
100
AcDbLine
 10
2600.99998018687
 20
1841.499978190404
 30
0.0
 11
2431.000000000001
 21
1681.50001541007
 31
0.0
  0
LINE
  5
13C7B
330
1F
100
AcDbEntity
  8
破線
100
AcDbLine
 10
2431.000000000001
 20
1608.499940970737
 30
0.0
 11
2431.000000000001
 21
1638.499978190403
 31
0.0
  0
LINE
  5
13C7C
330
1F
100
AcDbEntity
  8
破線
100
AcDbLine
 10
2600.999980186867
 20
1448.499978190403
 30
0.0
 11
2431.000000000001
 21
1608.499940970737
 31
0.0
  0
LINE
  5
13C7D
330
1F
100
AcDbEntity
  8
破線
100
AcDbLine
 10
2630.999999999998
 20
1448.499978190403
 30
0.0
 11
2600.999980186867
 21
1448.499978190403
 31
0.0
  0
LINE
  5
13C7E
330
1F
100
AcDbEntity
  8
実線
100
AcDbLine
 10
2649.999999999998
 20
1444.999978190403
 30
0.0
 11
2099.999980186867
 21
1444.999978401144
 31
0.0
  0
LINE
  5
13C7F
330
1F
100
AcDbEntity
  8
破線
100
AcDbLine
 10
2631.000000000002
 20
1638.499978401144
 30
0.0
 11
2099.99998018687
 21
1638.499978401144
 31
0.0
  0
LINE
  5
13C80
330
1F
100
AcDbEntity
  8
中心線
100
AcDbLine
 10
2600.000000000001
 20
1754.999978190418
 30
0.0
 11
2600.000000000001
 21
1685.000015410092
 31
0.0
  0
LINE
  5
13C81
330
1F
100
AcDbEntity
  8
中心線
100
AcDbLine
 10
2634.999981390163
 20
1719.999996800259
 30
0.0
 11
2565.000018609838
 21
1719.999996800259
 31
0.0
  0
CIRCLE
  5
13C82
330
1F
100
AcDbEntity
  8
実線
100
AcDbCircle
 10
2600.000000000001
 20
1719.999996800259
 30
0.0
 40
12.5
  0
LINE
  5
13C83
330
1F
100
AcDbEntity
  8
中心線
100
AcDbLine
 10
2600.000000000001
 20
1535.000078190415
 30
0.0
 11
2600.000000000001
 21
1605.000040970742
 31
0.0
  0
LINE
  5
13C84
330
1F
100
AcDbEntity
  8
中心線
100
AcDbLine
 10
2634.999981390163
 20
1570.000059580582
 30
0.0
 11
2565.000018609838
 21
1570.000059580582
 31
0.0
  0
CIRCLE
  5
13C85
330
1F
100
AcDbEntity
  8
実線
100
AcDbCircle
 10
2600.000000000001
 20
1570.000059580582
 30
0.0
 40
12.5
  0
LINE
  5
13C86
330
1F
100
AcDbEntity
  8
中心線
100
AcDbLine
 10
2500.000000000002
 20
1754.999978190418
 30
0.0
 11
2500.000000000002
 21
1685.000015410092
 31
0.0
  0
LINE
  5
13C87
330
1F
100
AcDbEntity
  8
中心線
100
AcDbLine
 10
2534.999981390165
 20
1719.999996800259
 30
0.0
 11
2465.000018609838
 21
1719.999996800259
 31
0.0
  0
CIRCLE
  5
13C88
330
1F
100
AcDbEntity
  8
実線
100
AcDbCircle
 10
2500.000000000002
 20
1719.999996800259
 30
0.0
 40
12.5
  0
LINE
  5
13C89
330
1F
100
AcDbEntity
  8
中心線
100
AcDbLine
 10
2500.000000000002
 20
1535.000078190415
 30
0.0
 11
2500.000000000002
 21
1605.000040970742
 31
0.0
  0
LINE
  5
13C8A
330
1F
100
AcDbEntity
  8
中心線
100
AcDbLine
 10
2534.999981390165
 20
1570.000059580582
 30
0.0
 11
2465.000018609838
 21
1570.000059580582
 31
0.0
  0
CIRCLE
  5
13C8B
330
1F
100
AcDbEntity
  8
実線
100
AcDbCircle
 10
2500.000000000002
 20
1570.000059580582
 30
0.0
 40
12.5
  0
LINE
  5
13C8C
330
1F
100
AcDbEntity
  8
中心線
100
AcDbLine
 10
2400.000000000002
 20
1754.999978190418
 30
0.0
 11
2400.000000000002
 21
1685.000015410092
 31
0.0
  0
LINE
  5
13C8D
330
1F
100
AcDbEntity
  8
中心線
100
AcDbLine
 10
2434.999981390165
 20
1719.999996800259
 30
0.0
 11
2365.000018609838
 21
1719.999996800259
 31
0.0
  0
CIRCLE
  5
13C8E
330
1F
100
AcDbEntity
  8
実線
100
AcDbCircle
 10
2400.000000000002
 20
1719.999996800259
 30
0.0
 40
12.5
  0
LINE
  5
13C8F
330
1F
100
AcDbEntity
  8
中心線
100
AcDbLine
 10
2400.000000000002
 20
1535.000078190415
 30
0.0
 11
2400.000000000002
 21
1605.000040970742
 31
0.0
  0
LINE
  5
13C90
330
1F
100
AcDbEntity
  8
中心線
100
AcDbLine
 10
2434.999981390165
 20
1570.000059580582
 30
0.0
 11
2365.000018609838
 21
1570.000059580582
 31
0.0
  0
CIRCLE
  5
13C91
330
1F
100
AcDbEntity
  8
実線
100
AcDbCircle
 10
2400.000000000002
 20
1570.000059580582
 30
0.0
 40
12.5
  0
LINE
  5
13C92
330
1F
100
AcDbEntity
  8
中心線
100
AcDbLine
 10
2550.000000000002
 20
1804.999978190418
 30
0.0
 11
2550.000000000002
 21
1735.000015410092
 31
0.0
  0
LINE
  5
13C93
330
1F
100
AcDbEntity
  8
中心線
100
AcDbLine
 10
2584.999981390165
 20
1769.999996800258
 30
0.0
 11
2515.000018609838
 21
1769.999996800258
 31
0.0
  0
CIRCLE
  5
13C94
330
1F
100
AcDbEntity
  8
実線
100
AcDbCircle
 10
2550.000000000002
 20
1769.999996800258
 30
0.0
 40
12.5
  0
LINE
  5
13C95
330
1F
100
AcDbEntity
  8
中心線
100
AcDbLine
 10
2450.000000000001
 20
1804.999978190418
 30
0.0
 11
2450.000000000001
 21
1735.000015410092
 31
0.0
  0
LINE
  5
13C96
330
1F
100
AcDbEntity
  8
中心線
100
AcDbLine
 10
2484.999981390165
 20
1769.999996800258
 30
0.0
 11
2415.000018609838
 21
1769.999996800258
 31
0.0
  0
CIRCLE
  5
13C97
330
1F
100
AcDbEntity
  8
実線
100
AcDbCircle
 10
2450.000000000001
 20
1769.999996800258
 30
0.0
 40
12.5
  0
LINE
  5
13C98
330
1F
100
AcDbEntity
  8
中心線
100
AcDbLine
 10
2549.999999999998
 20
1485.000078190415
 30
0.0
 11
2550.000000000002
 21
1555.000040970742
 31
0.0
  0
LINE
  5
13C99
330
1F
100
AcDbEntity
  8
中心線
100
AcDbLine
 10
2584.999981390161
 20
1520.000059580582
 30
0.0
 11
2515.000018609835
 21
1520.000059580582
 31
0.0
  0
CIRCLE
  5
13C9A
330
1F
100
AcDbEntity
  8
実線
100
AcDbCircle
 10
2549.999999999998
 20
1520.000059580582
 30
0.0
 40
12.5
  0
LINE
  5
13C9B
330
1F
100
AcDbEntity
  8
中心線
100
AcDbLine
 10
2449.999999999998
 20
1485.000078190415
 30
0.0
 11
2450.000000000001
 21
1555.000040970742
 31
0.0
  0
LINE
  5
13C9C
330
1F
100
AcDbEntity
  8
中心線
100
AcDbLine
 10
2484.999981390161
 20
1520.000059580582
 30
0.0
 11
2415.000018609835
 21
1520.000059580582
 31
0.0
  0
CIRCLE
  5
13C9D
330
1F
100
AcDbEntity
  8
実線
100
AcDbCircle
 10
2449.999999999998
 20
1520.000059580582
 30
0.0
 40
12.5
  0
LINE
  5
13C9E
330
1F
100
AcDbEntity
  8
中心線
100
AcDbLine
 10
2300.000000000002
 20
1754.999978190418
 30
0.0
 11
2300.000000000002
 21
1685.000015410092
 31
0.0
  0
LINE
  5
13C9F
330
1F
100
AcDbEntity
  8
中心線
100
AcDbLine
 10
2334.999981390165
 20
1719.999996800259
 30
0.0
 11
2265.000018609838
 21
1719.999996800259
 31
0.0
  0
CIRCLE
  5
13CA0
330
1F
100
AcDbEntity
  8
実線
100
AcDbCircle
 10
2300.000000000002
 20
1719.999996800259
 30
0.0
 40
12.5
  0
LINE
  5
13CA1
330
1F
100
AcDbEntity
  8
中心線
100
AcDbLine
 10
2300.000000000002
 20
1535.000078190415
 30
0.0
 11
2300.000000000002
 21
1605.000040970742
 31
0.0
  0
LINE
  5
13CA2
330
1F
100
AcDbEntity
  8
中心線
100
AcDbLine
 10
2334.999981390165
 20
1570.000059580582
 30
0.0
 11
2265.000018609838
 21
1570.000059580582
 31
0.0
  0
CIRCLE
  5
13CA3
330
1F
100
AcDbEntity
  8
実線
100
AcDbCircle
 10
2300.000000000002
 20
1570.000059580582
 30
0.0
 40
12.5
  0
LINE
  5
13CA4
330
1F
100
AcDbEntity
  8
中心線
100
AcDbLine
 10
2350.000000000001
 20
1804.999978190418
 30
0.0
 11
2350.000000000001
 21
1735.000015410092
 31
0.0
  0
LINE
  5
13CA5
330
1F
100
AcDbEntity
  8
中心線
100
AcDbLine
 10
2384.999981390165
 20
1769.999996800258
 30
0.0
 11
2315.000018609838
 21
1769.999996800258
 31
0.0
  0
CIRCLE
  5
13CA6
330
1F
100
AcDbEntity
  8
実線
100
AcDbCircle
 10
2350.000000000001
 20
1769.999996800258
 30
0.0
 40
12.5
  0
LINE
  5
13CA7
330
1F
100
AcDbEntity
  8
中心線
100
AcDbLine
 10
2349.999999999998
 20
1485.000078190415
 30
0.0
 11
2350.000000000001
 21
1555.000040970742
 31
0.0
  0
LINE
  5
13CA8
330
1F
100
AcDbEntity
  8
中心線
100
AcDbLine
 10
2384.999981390161
 20
1520.000059580582
 30
0.0
 11
2315.000018609834
 21
1520.000059580582
 31
0.0
  0
CIRCLE
  5
13CA9
330
1F
100
AcDbEntity
  8
実線
100
AcDbCircle
 10
2349.999999999998
 20
1520.000059580582
 30
0.0
 40
12.5
  0
LINE
  5
13CAA
330
1F
100
AcDbEntity
  8
中心線
100
AcDbLine
 10
2659.999995502145
 20
1744.939077868889
 30
0.0
 11
2623.999975689037
 21
1744.939077868889
 31
0.0
  0
LINE
  5
13CAB
330
1F
100
AcDbEntity
  8
中心線
100
AcDbLine
 10
2659.999995502145
 20
1544.939077868889
 30
0.0
 11
2623.999975689037
 21
1544.939077868889
 31
0.0
  0
LINE
  5
13CAC
330
1F
100
AcDbEntity
  8
中心線
100
AcDbLine
 10
2659.999995502145
 20
1594.939077868889
 30
0.0
 11
2623.999975689037
 21
1594.939077868889
 31
0.0
  0
LINE
  5
13CAD
330
1F
100
AcDbEntity
  8
中心線
100
AcDbLine
 10
2659.999995502145
 20
1694.93915251897
 30
0.0
 11
2623.999975689037
 21
1694.93915251897
 31
0.0
  0
DIMENSION
  5
13CAE
330
1F
100
AcDbEntity
  8
寸法線
100
AcDbDimension
280
     0
  2
*D18
 10
2299.999980186869
 20
1805.499978190404
 30
0.0
 11
2299.999980186869
 21
1814.999978190403
 31
0.0
 70
   160
 71
     5
 42
19.0
 73
     0
 74
     0
 75
     0
  3
STANDARD
100
AcDbAlignedDimension
 13
2219.99998018687
 23
1824.499978190403
 33
0.0
 14
2219.99998018687
 24
1805.499978190403
 34
0.0
 50
270.0
100
AcDbRotatedDimension
1001
ACAD
1000
DSTYLE
1002
{
1070
   271
1070
     1
1002
}
  0
DIMENSION
  5
13CAF
330
1F
100
AcDbEntity
  8
寸法線
100
AcDbDimension
280
     0
  2
*D19
 10
2299.999980186869
 20
1444.999978393752
 30
0.0
 11
2299.999980186869
 21
1460.000012347779
 31
0.0
 70
   160
 71
     5
 42
30.00006790805583
 73
     0
 74
     0
 75
     0
  3
STANDARD
100
AcDbAlignedDimension
 13
2228.000003766468
 23
1475.000046301808
 33
0.0
 14
2100.000000000001
 24
1444.999978393752
 34
0.0
 50
270.0
100
AcDbRotatedDimension
1001
ACAD
1000
DSTYLE
1002
{
1070
   271
1070
     1
1002
}
  0
TEXT
  5
13CE4
330
1F
100
AcDbEntity
  8
寸法線
100
AcDbText
 10
2444.125310406612
 20
2137.429300144733
 30
0.0
 40
25.0
  1
ｴﾝﾄﾞﾌﾟﾚｰﾄ
 11
2444.125310406612
 21
2137.429300144733
 31
0.0
100
AcDbText
 73
     1
  0
LINE
  5
13CE5
330
1F
100
AcDbEntity
  8
寸法線
100
AcDbLine
 10
2630.999990093414
 20
2131.500005954028
 30
0.0
 11
2436.83525081868
 21
2131.500005954028
 31
0.0
  0
INSERT
  5
13CE6
330
1F
100
AcDbEntity
  8
寸法線
100
AcDbBlockReference
  2
_OPEN
 10
2630.999990093414
 20
2131.500005954028
 30
0.0
 41
20.0
 42
20.0
 43
20.0
  0
LINE
  5
13CE7
330
1F
100
AcDbEntity
  8
実線
100
AcDbLine
 10
2649.999999999971
 20
2436.000006527657
 30
0.0
 11
2649.999999999971
 21
2054.000006527656
 31
0.0
  0
LINE
  5
13CE8
330
1F
100
AcDbEntity
  8
実線
100
AcDbLine
 10
2630.99999999997
 20
2444.999969307975
 30
0.0
 11
2630.99999999997
 21
2044.999969307975
 31
0.0
  0
LINE
  5
13CE9
330
1F
100
AcDbEntity
  8
実線
100
AcDbLine
 10
2630.99999999997
 20
2444.999969307975
 30
0.0
 11
2099.999980186868
 21
2444.999969307975
 31
0.0
  0
LINE
  5
13CEA
330
1F
100
AcDbEntity
  8
実線
100
AcDbLine
 10
2630.99999999997
 20
2423.999969307975
 30
0.0
 11
2099.999980186868
 21
2423.999969307975
 31
0.0
  0
LINE
  5
13CEB
330
1F
100
AcDbEntity
  8
実線
100
AcDbLine
 10
2219.99999999997
 20
2423.999969307975
 30
0.0
 11
2219.99999999997
 21
2394.000006527656
 31
0.0
  0
LINE
  5
13CEC
330
1F
100
AcDbEntity
  8
実線
100
AcDbLine
 10
2139.999980186868
 20
2353.999969307976
 30
0.0
 11
2099.999980186868
 21
2353.999969307976
 31
0.0
  0
LINE
  5
13CED
330
1F
100
AcDbEntity
  8
実線
100
AcDbLine
 10
2219.99999999997
 20
2394.000006527656
 30
0.0
 11
2139.999980186868
 21
2353.999969307976
 31
0.0
  0
LINE
  5
13CEE
330
1F
100
AcDbEntity
  8
実線
100
AcDbLine
 10
2111.999976224251
 20
2423.999969307975
 30
0.0
 11
2099.999976224251
 21
2411.999969307976
 31
0.0
  0
LINE
  5
13CEF
330
1F
100
AcDbEntity
  8
仮想線
100
AcDbLine
 10
2108.999980186869
 20
2423.999969307975
 30
0.0
 11
2099.999980186868
 21
2414.999969307976
 31
0.0
  0
LINE
  5
13CF0
330
1F
100
AcDbEntity
  8
実線
100
AcDbLine
 10
2219.99999999997
 20
2065.999969307975
 30
0.0
 11
2219.99999999997
 21
2095.999932088309
 31
0.0
  0
LINE
  5
13CF1
330
1F
100
AcDbEntity
  8
実線
100
AcDbLine
 10
2139.999980186868
 20
2135.999969307976
 30
0.0
 11
2099.999980186868
 21
2135.999969307976
 31
0.0
  0
LINE
  5
13CF2
330
1F
100
AcDbEntity
  8
実線
100
AcDbLine
 10
2219.99999999997
 20
2095.999932088309
 30
0.0
 11
2139.999980186868
 21
2135.999969307976
 31
0.0
  0
LINE
  5
13CF3
330
1F
100
AcDbEntity
  8
実線
100
AcDbLine
 10
2111.999976224251
 20
2065.999969307975
 30
0.0
 11
2099.999976224251
 21
2077.999969307976
 31
0.0
  0
LINE
  5
13CF4
330
1F
100
AcDbEntity
  8
仮想線
100
AcDbLine
 10
2108.999980186869
 20
2065.999969307975
 30
0.0
 11
2099.999980186868
 21
2074.999969307976
 31
0.0
  0
LINE
  5
13CF5
330
1F
100
AcDbEntity
  8
実線
100
AcDbLine
 10
2649.999999999971
 20
2436.000006527657
 30
0.0
 11
2630.99999999997
 21
2436.000006527657
 31
0.0
  0
LINE
  5
13CF6
330
1F
100
AcDbEntity
  8
実線
100
AcDbLine
 10
2649.999999999971
 20
2054.000032088299
 30
0.0
 11
2630.99999999997
 21
2054.000032088299
 31
0.0
  0
LINE
  5
13CF7
330
1F
100
AcDbEntity
  8
仮想線
100
AcDbLine
 10
2630.99999999997
 20
2444.999969307975
 30
0.0
 11
2639.999962780304
 21
2436.000006527657
 31
0.0
  0
LINE
  5
13CF8
330
1F
100
AcDbEntity
  8
仮想線
100
AcDbLine
 10
2630.99999999997
 20
2044.999969307975
 30
0.0
 11
2640.000062780294
 21
2054.000032088299
 31
0.0
  0
LINE
  5
13CF9
330
1F
100
AcDbEntity
  8
実線
100
AcDbLine
 10
2630.99999999997
 20
2250.999969307975
 30
0.0
 11
2430.999980186868
 21
2250.999969307975
 31
0.0
  0
LINE
  5
13CFA
330
1F
100
AcDbEntity
  8
実線
100
AcDbLine
 10
2630.99999999997
 20
2238.999969307975
 30
0.0
 11
2430.999980186868
 21
2238.999969307975
 31
0.0
  0
LINE
  5
13CFB
330
1F
100
AcDbEntity
  8
実線
100
AcDbLine
 10
2430.999980186868
 20
2250.999969307975
 30
0.0
 11
2430.999980186868
 21
2238.999969307975
 31
0.0
  0
LINE
  5
13CFC
330
1F
100
AcDbEntity
  8
仮想線
100
AcDbLine
 10
2099.999998018669
 20
2454.000002805684
 30
0.0
 11
2109.000031516377
 21
2444.999969307975
 31
0.0
  0
LINE
  5
13CFD
330
1F
100
AcDbEntity
  8
仮想線
100
AcDbLine
 10
2099.999998018669
 20
2036.000002805684
 30
0.0
 11
2108.999964520961
 21
2044.999969307975
 31
0.0
  0
LINE
  5
13CFE
330
1F
100
AcDbEntity
  8
実線
100
AcDbLine
 10
2630.99999999997
 20
2044.999969307975
 30
0.0
 11
2099.999916920511
 21
2045.000233546542
 31
0.0
  0
LINE
  5
13CFF
330
1F
100
AcDbEntity
  8
実線
100
AcDbLine
 10
2630.99999999997
 20
2066.000065574235
 30
0.0
 11
2099.999923563489
 21
2066.000233546541
 31
0.0
  0
LINE
  5
13D00
330
1F
100
AcDbEntity
  8
実線
100
AcDbLine
 10
2100.0
 20
2455.000006527642
 30
0.0
 11
2100.0
 21
2035.000006527642
 31
0.0
  0
LINE
  5
13D01
330
1F
100
AcDbEntity
  8
中心線
100
AcDbLine
 10
2599.999999999971
 20
2455.000006524426
 30
0.0
 11
2599.999999999971
 21
2414.000006524426
 31
0.0
  0
LINE
  5
13D02
330
1F
100
AcDbEntity
  8
中心線
100
AcDbLine
 10
2599.999999999971
 20
2035.000006530902
 30
0.0
 11
2599.999999999971
 21
2076.000006530902
 31
0.0
  0
LINE
  5
13D03
330
1F
100
AcDbEntity
  8
中心線
100
AcDbLine
 10
2659.999995502119
 20
2344.999969202619
 30
0.0
 11
2623.999975689013
 21
2344.999969202619
 31
0.0
  0
LINE
  5
13D04
330
1F
100
AcDbEntity
  8
中心線
100
AcDbLine
 10
2659.999995502119
 20
2144.99996920262
 30
0.0
 11
2623.999975689013
 21
2144.99996920262
 31
0.0
  0
LINE
  5
13D05
330
1F
100
AcDbEntity
  8
中心線
100
AcDbLine
 10
2659.999995502119
 20
2169.99996920262
 30
0.0
 11
2623.999975689013
 21
2169.99996920262
 31
0.0
  0
LINE
  5
13D06
330
1F
100
AcDbEntity
  8
中心線
100
AcDbLine
 10
2659.999995502119
 20
2320.000043852693
 30
0.0
 11
2623.999975689013
 21
2320.000043852693
 31
0.0
  0
LINE
  5
13D07
330
1F
100
AcDbEntity
  8
中心線
100
AcDbLine
 10
2549.99999999997
 20
2455.000006524426
 30
0.0
 11
2549.99999999997
 21
2414.000006524426
 31
0.0
  0
LINE
  5
13D08
330
1F
100
AcDbEntity
  8
中心線
100
AcDbLine
 10
2549.99999999997
 20
2035.000006530902
 30
0.0
 11
2549.99999999997
 21
2076.000006530902
 31
0.0
  0
LINE
  5
13D09
330
1F
100
AcDbEntity
  8
中心線
100
AcDbLine
 10
2499.999999999971
 20
2455.000006524426
 30
0.0
 11
2499.999999999971
 21
2414.000006524426
 31
0.0
  0
LINE
  5
13D0A
330
1F
100
AcDbEntity
  8
中心線
100
AcDbLine
 10
2499.999999999971
 20
2035.000006530902
 30
0.0
 11
2499.999999999971
 21
2076.000006530902
 31
0.0
  0
LINE
  5
13D0B
330
1F
100
AcDbEntity
  8
中心線
100
AcDbLine
 10
2449.999999999971
 20
2455.000006524426
 30
0.0
 11
2449.999999999971
 21
2414.000006524426
 31
0.0
  0
LINE
  5
13D0C
330
1F
100
AcDbEntity
  8
中心線
100
AcDbLine
 10
2449.999999999971
 20
2035.000006530902
 30
0.0
 11
2449.999999999971
 21
2076.000006530902
 31
0.0
  0
LINE
  5
13D0D
330
1F
100
AcDbEntity
  8
中心線
100
AcDbLine
 10
2399.999999999971
 20
2455.000006524426
 30
0.0
 11
2399.999999999971
 21
2414.000006524426
 31
0.0
  0
LINE
  5
13D0E
330
1F
100
AcDbEntity
  8
中心線
100
AcDbLine
 10
2399.999999999971
 20
2035.000006530902
 30
0.0
 11
2399.999999999971
 21
2076.000006530902
 31
0.0
  0
LINE
  5
13D0F
330
1F
100
AcDbEntity
  8
中心線
100
AcDbLine
 10
2349.999999999971
 20
2455.000006524426
 30
0.0
 11
2349.999999999971
 21
2414.000006524426
 31
0.0
  0
LINE
  5
13D10
330
1F
100
AcDbEntity
  8
中心線
100
AcDbLine
 10
2349.999999999971
 20
2035.000006530902
 30
0.0
 11
2349.999999999971
 21
2076.000006530902
 31
0.0
  0
LINE
  5
13D11
330
1F
100
AcDbEntity
  8
中心線
100
AcDbLine
 10
2299.99999999997
 20
2455.000006524426
 30
0.0
 11
2299.99999999997
 21
2414.000006524426
 31
0.0
  0
LINE
  5
13D12
330
1F
100
AcDbEntity
  8
中心線
100
AcDbLine
 10
2299.99999999997
 20
2035.000006530902
 30
0.0
 11
2299.99999999997
 21
2076.000006530902
 31
0.0
  0
DIMENSION
  5
13D13
330
1F
100
AcDbEntity
  8
寸法線
100
AcDbDimension
280
     0
  2
*D20
 10
2330.999994621859
 20
2239.000003174409
 30
0.0
 11
2330.999994621859
 21
2245.000003174407
 31
0.0
 70
   160
 71
     5
 42
12.0
 73
     0
 74
     0
 75
     0
  3
STANDARD
100
AcDbAlignedDimension
 13
2430.999980186868
 23
2251.000003174408
 33
0.0
 14
2430.999980186868
 24
2239.000003174408
 34
0.0
 50
90.0
100
AcDbRotatedDimension
1001
ACAD
1000
DSTYLE
1002
{
1070
   140
1040
2.5
1002
}
  0
TEXT
  5
13D14
330
1F
100
AcDbEntity
  8
寸法線
100
AcDbText
 10
2359.029106229262
 20
2328.750003174408
 30
0.0
 40
25.0
  1
ﾘﾌﾞﾌﾟﾚｰﾄ②
 72
     2
 11
2502.362439562595
 21
2328.750003174408
 31
0.0
100
AcDbText
 73
     1
  0
LEADER
  5
13D15
330
1F
100
AcDbEntity
  8
寸法線
100
AcDbLeader
  3
STANDARD
 76
     3
 10
2537.253722114809
 20
2250.999969307968
 30
0.0
 10
2505.166366832156
 20
2320.000003174408
 30
0.0
 10
2353.025278840068
 20
2320.000003174408
 30
0.0
1001
ACAD
1000
DSTYLE
1002
{
1070
   147
1040
0.875
1070
    77
1070
     0
1002
}
  0
TEXT
  5
13D16
330
1F
100
AcDbEntity
  8
寸法線
100
AcDbText
 10
2194.018087443053
 20
2144.267188948217
 30
0.0
 40
25.0
  1
ﾘﾌﾞﾌﾟﾚｰﾄ①
 72
     2
 11
2337.351420776387
 21
2144.267188948217
 31
0.0
100
AcDbText
 73
     1
  0
LEADER
  5
13D17
330
1F
100
AcDbEntity
  8
寸法線
100
AcDbLeader
  3
STANDARD
 76
     3
 10
2156.294238475448
 20
2090.943878778582
 30
0.0
 10
2191.294238475447
 20
2138.443878778582
 30
0.0
 10
2344.384783010165
 20
2138.443878778582
 30
0.0
211
-1.0
221
0.0
231
0.0
1001
ACAD
1000
DSTYLE
1002
{
1070
   147
1040
0.875
1070
    77
1070
     0
1002
}
  0
DIMENSION
  5
13D18
330
1F
100
AcDbEntity
  8
寸法線
100
AcDbDimension
280
     0
  2
*D21
 10
2100.0
 20
2685.000006527643
 30
0.0
 11
2375.0
 21
2685.000006527643
 31
0.0
 70
   160
  1
<>\XH型鋼（連結部）
 71
     5
 42
550.0
 73
     0
 74
     0
 75
     0
  3
STANDARD
100
AcDbAlignedDimension
 13
2650.0
 23
2436.000043747316
 33
0.0
 14
2100.0
 24
2455.000043747316
 34
0.0
 50
180.0
100
AcDbRotatedDimension
  0
LEADER
  5
13D19
330
1F
100
AcDbEntity
  8
寸法線
100
AcDbLeader
  3
STANDARD
 76
     3
 10
2356.123092980646
 20
1780.897598937902
 30
0.0
 10
2431.471927565886
 20
1915.000024532387
 30
0.0
 10
2699.132104500706
 20
1915.000024532387
 30
0.0
211
-1.0
221
0.0
231
0.0
1001
ACAD
1000
DSTYLE
1002
{
1070
   147
1040
0.875
1070
    77
1070
     0
1002
}
  0
TEXT
  5
13D1A
330
1F
100
AcDbEntity
  8
寸法線
100
AcDbText
 10
2440.221927565881
 20
1923.750024532387
 30
0.0
 40
25.0
  1
ｶﾊﾞｰﾌﾟﾚｰﾄ連結用孔
 72
     2
 11
2688.555260899214
 21
1948.750024532387
 31
0.0
100
AcDbText
 73
     3
  0
LINE
  5
13D38
330
1F
100
AcDbEntity
  8
実線
100
AcDbLine
 10
1599.999896414978
 20
589.9997584265833
 30
0.0
 11
1599.999896414978
 21
1009.999740181974
 31
0.0
  0
LINE
  5
13D39
330
1F
100
AcDbEntity
  8
実線
100
AcDbLine
 10
1599.999896414978
 20
1009.999740181974
 30
0.0
 11
1615.999896414978
 21
1009.999740181974
 31
0.0
  0
LINE
  5
13D3A
330
1F
100
AcDbEntity
  8
実線
100
AcDbLine
 10
1647.999896414978
 20
656.9997584265834
 30
0.0
 11
1647.999896414978
 21
942.9997584265834
 31
0.0
  0
LINE
  5
13D3B
330
1F
100
AcDbEntity
  8
中心線
100
AcDbLine
 10
1574.999896414978
 20
799.999740181976
 30
0.0
 11
2124.999896414975
 21
799.9997401819741
 31
0.0
  0
LINE
  5
13D3C
330
1F
100
AcDbEntity
  8
中心線
100
AcDbLine
 10
1589.999999999993
 20
969.9997401819741
 30
0.0
 11
2109.999999999994
 21
969.9997401819741
 31
0.0
  0
LINE
  5
13D3D
330
1F
100
AcDbEntity
  8
破線
100
AcDbLine
 10
1615.999896414978
 20
983.9997401819742
 30
0.0
 11
1647.999896414978
 21
983.9997401819742
 31
0.0
  0
LINE
  5
13D3E
330
1F
100
AcDbEntity
  8
破線
100
AcDbLine
 10
1647.999896414978
 20
983.9997584265834
 30
0.0
 11
1647.999896414978
 21
999.9997401819742
 31
0.0
  0
LINE
  5
13D3F
330
1F
100
AcDbEntity
  8
破線
100
AcDbLine
 10
1624.999896414978
 20
939.9997401819742
 30
0.0
 11
1647.999896414978
 21
939.9997401819742
 31
0.0
  0
LINE
  5
13D40
330
1F
100
AcDbEntity
  8
実線
100
AcDbLine
 10
1627.999896414978
 20
942.9997401819742
 30
0.0
 11
1647.999896414978
 21
942.9997401819742
 31
0.0
  0
LINE
  5
13D41
330
1F
100
AcDbEntity
  8
実線
100
AcDbLine
 10
1615.999896414978
 20
930.9997401819741
 30
0.0
 11
1627.999896414978
 21
942.9997401819742
 31
0.0
  0
LINE
  5
13D42
330
1F
100
AcDbEntity
  8
実線
100
AcDbLine
 10
1615.999896414978
 20
939.9997401819742
 30
0.0
 11
1624.999896414978
 21
939.9997401819742
 31
0.0
  0
LINE
  5
13D43
330
1F
100
AcDbEntity
  8
破線
100
AcDbLine
 10
2051.999896414979
 20
983.9997584265834
 30
0.0
 11
2051.999896414979
 21
999.9997401819742
 31
0.0
  0
LINE
  5
13D44
330
1F
100
AcDbEntity
  8
破線
100
AcDbLine
 10
2083.999896414979
 20
983.9997401819742
 30
0.0
 11
2051.999896414979
 21
983.9997401819742
 31
0.0
  0
LINE
  5
13D45
330
1F
100
AcDbEntity
  8
破線
100
AcDbLine
 10
1615.999896414978
 20
807.9997401819742
 30
0.0
 11
1647.999896414978
 21
807.9997401819742
 31
0.0
  0
LINE
  5
13D46
330
1F
100
AcDbEntity
  8
破線
100
AcDbLine
 10
1615.999896414978
 20
791.9997401819742
 30
0.0
 11
1647.999896414978
 21
791.9997401819742
 31
0.0
  0
LINE
  5
13D47
330
1F
100
AcDbEntity
  8
破線
100
AcDbLine
 10
2051.999896414979
 20
807.9997401819742
 30
0.0
 11
2083.999896414979
 21
807.9997401819742
 31
0.0
  0
LINE
  5
13D48
330
1F
100
AcDbEntity
  8
破線
100
AcDbLine
 10
2051.999896414979
 20
791.9997401819742
 30
0.0
 11
2083.999896414979
 21
791.9997401819742
 31
0.0
  0
DIMENSION
  5
13D49
330
1F
100
AcDbEntity
  8
寸法線
100
AcDbDimension
280
     0
  2
*D9
 10
2083.999896414979
 20
499.9999837322084
 30
0.0
 11
2067.999948207486
 21
499.9999837322084
 31
0.0
 70
   160
 71
     5
 42
31.99989641498542
 73
     0
 74
     0
 75
     0
  3
STANDARD
100
AcDbAlignedDimension
 13
2051.999999999993
 23
599.9997401819741
 33
0.0
 14
2083.999896414979
 24
589.9997401819741
 34
0.0
100
AcDbRotatedDimension
  0
DIMENSION
  5
13D4A
330
1F
100
AcDbEntity
  8
寸法線
100
AcDbDimension
280
     0
  2
*D10
 10
2099.999896414979
 20
439.9999837322083
 30
0.0
 11
2091.999896414979
 21
439.9999837322083
 31
0.0
 70
   160
 71
     5
 42
16.0
 73
     0
 74
     0
 75
     0
  3
STANDARD
100
AcDbAlignedDimension
 13
2083.999896414979
 23
589.9997401819741
 33
0.0
 14
2099.999896414979
 24
589.9997401819741
 34
0.0
100
AcDbRotatedDimension
  0
DIMENSION
  5
13D4B
330
1F
100
AcDbEntity
  8
寸法線
100
AcDbDimension
280
     0
  2
*D11
 10
2023.999896414979
 20
999.9997401819745
 30
0.0
 11
2023.999896414979
 21
886.2398976622676
 31
0.0
 70
   160
  1
%%C<>
 71
     5
 42
60.0
 73
     0
 74
     0
 75
     0
  3
STANDARD
100
AcDbAlignedDimension
 13
2023.999896414979
 23
939.9997401819742
 33
0.0
 14
2023.999896414979
 24
999.9997401819742
 34
0.0
 50
90.0
100
AcDbRotatedDimension
  0
LINE
  5
13D4C
330
1F
100
AcDbEntity
  8
仮想線
100
AcDbLine
 10
1671.462948669149
 20
539.9997584265833
 30
0.0
 11
1671.462948669149
 21
1059.999758426583
 31
0.0
  0
TEXT
  5
13D4D
330
1F
100
AcDbEntity
  8
寸法線
100
AcDbText
 10
1721.118171036196
 20
1038.799740181974
 30
0.0
 40
21.0
  1
Ａ
 72
     4
 11
1730.918171036196
 21
1049.999740181974
 31
0.0
100
AcDbText
  0
TEXT
  5
13D4E
330
1F
100
AcDbEntity
  8
寸法線
100
AcDbText
 10
1721.118171036196
 20
538.7997401819741
 30
0.0
 40
21.0
  1
Ａ
 72
     4
 11
1730.918171036196
 21
549.9997401819741
 31
0.0
100
AcDbText
  0
LINE
  5
13D4F
330
1F
100
AcDbEntity
  8
実線
100
AcDbLine
 10
2083.999896414979
 20
1009.999740181974
 30
0.0
 11
2099.999896414979
 21
1009.999740181974
 31
0.0
  0
LINE
  5
13D50
330
1F
100
AcDbEntity
  8
実線
100
AcDbLine
 10
1615.999896414978
 20
589.9997584265833
 30
0.0
 11
1615.999896414978
 21
1009.999740181974
 31
0.0
  0
LINE
  5
13D51
330
1F
100
AcDbEntity
  8
実線
100
AcDbLine
 10
2083.999896414979
 20
589.9997584265833
 30
0.0
 11
2083.999896414979
 21
1009.999740181974
 31
0.0
  0
LINE
  5
13D52
330
1F
100
AcDbEntity
  8
実線
100
AcDbLine
 10
2099.999896414979
 20
589.9997584265833
 30
0.0
 11
2099.999896414979
 21
1009.999740181974
 31
0.0
  0
LINE
  5
13D53
330
1F
100
AcDbEntity
  8
実線
100
AcDbLine
 10
1599.999896414978
 20
589.9997401819741
 30
0.0
 11
1615.999896414978
 21
589.9997401819741
 31
0.0
  0
LINE
  5
13D54
330
1F
100
AcDbEntity
  8
中心線
100
AcDbLine
 10
1589.999999999993
 20
629.9997401819742
 30
0.0
 11
2109.999999999994
 21
629.9997401819742
 31
0.0
  0
LINE
  5
13D55
330
1F
100
AcDbEntity
  8
破線
100
AcDbLine
 10
1615.999896414978
 20
615.9997401819741
 30
0.0
 11
1647.999896414978
 21
615.9997401819741
 31
0.0
  0
LINE
  5
13D56
330
1F
100
AcDbEntity
  8
破線
100
AcDbLine
 10
1647.999896414978
 20
615.9997219373358
 30
0.0
 11
1647.999896414978
 21
599.9997401819741
 31
0.0
  0
LINE
  5
13D57
330
1F
100
AcDbEntity
  8
破線
100
AcDbLine
 10
1624.999896414978
 20
659.9997401819742
 30
0.0
 11
1647.999896414978
 21
659.9997401819742
 31
0.0
  0
LINE
  5
13D58
330
1F
100
AcDbEntity
  8
実線
100
AcDbLine
 10
1627.999896414978
 20
656.9997401819741
 30
0.0
 11
1647.999896414978
 21
656.9997401819741
 31
0.0
  0
LINE
  5
13D59
330
1F
100
AcDbEntity
  8
実線
100
AcDbLine
 10
1615.999896414978
 20
668.9997401819741
 30
0.0
 11
1627.999896414978
 21
656.9997401819741
 31
0.0
  0
LINE
  5
13D5A
330
1F
100
AcDbEntity
  8
実線
100
AcDbLine
 10
1615.999896414978
 20
659.9997401819742
 30
0.0
 11
1624.999896414978
 21
659.9997401819742
 31
0.0
  0
LINE
  5
13D5B
330
1F
100
AcDbEntity
  8
破線
100
AcDbLine
 10
2051.999896414979
 20
615.9997219373358
 30
0.0
 11
2051.999896414979
 21
599.9997401819741
 31
0.0
  0
LINE
  5
13D5C
330
1F
100
AcDbEntity
  8
破線
100
AcDbLine
 10
2083.999896414979
 20
615.9997401819741
 30
0.0
 11
2051.999896414979
 21
615.9997401819741
 31
0.0
  0
LINE
  5
13D5D
330
1F
100
AcDbEntity
  8
実線
100
AcDbLine
 10
2083.999896414979
 20
589.9997401819741
 30
0.0
 11
2099.999896414979
 21
589.9997401819741
 31
0.0
  0
LINE
  5
13D5E
330
1F
100
AcDbEntity
  8
実線
100
AcDbLine
 10
2051.999999999993
 20
656.9997584265834
 30
0.0
 11
2051.999999999993
 21
942.9997584265834
 31
0.0
  0
LINE
  5
13D5F
330
1F
100
AcDbEntity
  8
破線
100
AcDbLine
 10
2074.999999999993
 20
939.9997401819742
 30
0.0
 11
2051.999999999993
 21
939.9997401819742
 31
0.0
  0
LINE
  5
13D60
330
1F
100
AcDbEntity
  8
実線
100
AcDbLine
 10
2071.999999999993
 20
942.9997401819742
 30
0.0
 11
2051.999999999993
 21
942.9997401819742
 31
0.0
  0
LINE
  5
13D61
330
1F
100
AcDbEntity
  8
実線
100
AcDbLine
 10
2083.999999999993
 20
930.9997401819741
 30
0.0
 11
2071.999999999993
 21
942.9997401819742
 31
0.0
  0
LINE
  5
13D62
330
1F
100
AcDbEntity
  8
実線
100
AcDbLine
 10
2083.999999999993
 20
939.9997401819742
 30
0.0
 11
2074.999999999993
 21
939.9997401819742
 31
0.0
  0
LINE
  5
13D63
330
1F
100
AcDbEntity
  8
破線
100
AcDbLine
 10
2074.999999999993
 20
659.9997401819742
 30
0.0
 11
2051.999999999993
 21
659.9997401819742
 31
0.0
  0
LINE
  5
13D64
330
1F
100
AcDbEntity
  8
実線
100
AcDbLine
 10
2071.999999999993
 20
656.9997401819741
 30
0.0
 11
2051.999999999993
 21
656.9997401819741
 31
0.0
  0
LINE
  5
13D65
330
1F
100
AcDbEntity
  8
実線
100
AcDbLine
 10
2083.999999999993
 20
668.9997401819741
 30
0.0
 11
2071.999999999993
 21
656.9997401819741
 31
0.0
  0
LINE
  5
13D66
330
1F
100
AcDbEntity
  8
実線
100
AcDbLine
 10
2083.999999999993
 20
659.9997401819742
 30
0.0
 11
2074.999999999993
 21
659.9997401819742
 31
0.0
  0
LINE
  5
13D72
330
1F
100
AcDbEntity
  8
実線
100
AcDbLine
 10
1647.99989641498
 20
939.9997401819712
 30
0.0
 11
2051.999999999993
 21
939.9997401819742
 31
0.0
  0
LINE
  5
13D73
330
1F
100
AcDbEntity
  8
実線
100
AcDbLine
 10
1615.999896414978
 20
999.9997401819742
 30
0.0
 11
2083.999999999993
 21
999.9997401819742
 31
0.0
  0
LINE
  5
13D74
330
1F
100
AcDbEntity
  8
実線
100
AcDbLine
 10
1647.99989641498
 20
659.9997401819741
 30
0.0
 11
2051.999999999993
 21
659.9997401819742
 31
0.0
  0
LINE
  5
13D75
330
1F
100
AcDbEntity
  8
実線
100
AcDbLine
 10
1615.999896414978
 20
599.9997401819743
 30
0.0
 11
2083.999999999993
 21
599.9997401819741
 31
0.0
  0
LEADER
  5
13D7A
330
1F
100
AcDbEntity
  8
寸法線
100
AcDbLeader
  3
STANDARD
 76
     2
 10
1671.462948669149
 20
1049.999740181974
 30
0.0
 10
1718.859683854993
 20
1049.999740181974
 30
0.0
1001
ACAD
1000
DSTYLE
1002
{
1070
   147
1040
0.875
1070
    77
1070
     0
1070
    49
1040
0.5
1002
}
  0
LEADER
  5
13D7B
330
1F
100
AcDbEntity
  8
寸法線
100
AcDbLeader
  3
STANDARD
 76
     2
 10
1671.462948669149
 20
549.9997401819741
 30
0.0
 10
1718.859683854993
 20
549.9997401819741
 30
0.0
1001
ACAD
1000
DSTYLE
1002
{
1070
   147
1040
0.875
1070
    77
1070
     0
1070
    49
1040
0.5
1002
}
  0
DIMENSION
  5
13D7E
330
1F
100
AcDbEntity
  8
寸法線
100
AcDbDimension
280
     0
  2
*D12
 10
1647.999896414978
 20
499.9999837322084
 30
0.0
 11
1631.999896414978
 21
499.9999837322084
 31
0.0
 70
   160
 71
     5
 42
32.0
 73
     0
 74
     0
 75
     0
  3
STANDARD
100
AcDbAlignedDimension
 13
1615.999896414978
 23
589.9997538654456
 33
0.0
 14
1647.999896414978
 24
599.9997538654456
 34
0.0
100
AcDbRotatedDimension
  0
DIMENSION
  5
13D7F
330
1F
100
AcDbEntity
  8
寸法線
100
AcDbDimension
280
     0
  2
*D13
 10
2051.999896414979
 20
499.9999837322084
 30
0.0
 11
1849.999896414978
 21
521.2499837322083
 31
0.0
 70
    32
 71
     5
 42
404.0
 73
     0
 74
     0
 75
     0
  3
STANDARD
100
AcDbAlignedDimension
 13
1647.999896414978
 23
599.9997538654456
 33
0.0
 14
2051.999896414979
 24
599.9997401819741
 34
0.0
100
AcDbRotatedDimension
  0
DIMENSION
  5
13D80
330
1F
100
AcDbEntity
  8
寸法線
100
AcDbDimension
280
     0
  2
*D14
 10
1615.999896414978
 20
439.9999837322083
 30
0.0
 11
1607.999896414979
 21
439.9999837322083
 31
0.0
 70
   160
 71
     5
 42
16.0
 73
     0
 74
     0
 75
     0
  3
STANDARD
100
AcDbAlignedDimension
 13
1599.999896414978
 23
589.9997538654456
 33
0.0
 14
1615.999896414978
 24
589.9997538654456
 34
0.0
100
AcDbRotatedDimension
  0
DIMENSION
  5
13D81
330
1F
100
AcDbEntity
  8
寸法線
100
AcDbDimension
280
     0
  2
*D15
 10
2083.999896414979
 20
439.9999837322083
 30
0.0
 11
1849.999896414978
 21
461.2499837322084
 31
0.0
 70
    32
 71
     5
 42
468.0
 73
     0
 74
     0
 75
     0
  3
STANDARD
100
AcDbAlignedDimension
 13
1615.999896414978
 23
589.9997538654456
 33
0.0
 14
2083.999896414979
 24
589.9997584265833
 34
0.0
100
AcDbRotatedDimension
  0
DIMENSION
  5
13D82
330
1F
100
AcDbEntity
  8
寸法線
100
AcDbDimension
280
     0
  2
*D16
 10
2099.999896414979
 20
379.9999837322084
 30
0.0
 11
1849.999896414978
 21
401.2499837322084
 31
0.0
 70
    32
 71
     5
 42
500.0
 73
     0
 74
     0
 75
     0
  3
STANDARD
100
AcDbAlignedDimension
 13
1599.999896414978
 23
589.9997721100548
 33
0.0
 14
2099.999896414979
 24
589.9997584265833
 34
0.0
100
AcDbRotatedDimension
  0
LINE
  5
13D83
330
1F
100
AcDbEntity
  8
破線
100
AcDbLine
 10
1016.499896414978
 20
807.9997401819596
 30
0.0
 11
1383.499896414978
 21
807.9997401819596
 31
0.0
  0
LINE
  5
13D84
330
1F
100
AcDbEntity
  8
中心線
100
AcDbLine
 10
964.9999201993855
 20
799.9997401819596
 30
0.0
 11
1434.999920199385
 21
799.9997401819596
 31
0.0
  0
LINE
  5
13D85
330
1F
100
AcDbEntity
  8
実線
100
AcDbLine
 10
989.9998964149785
 20
1009.999758426598
 30
0.0
 11
1409.999896414978
 21
1009.999758426598
 31
0.0
  0
LINE
  5
13D86
330
1F
100
AcDbEntity
  8
実線
100
AcDbLine
 10
989.9998964149785
 20
589.9997584265979
 30
0.0
 11
989.9998964149785
 21
1009.999758426598
 31
0.0
  0
LINE
  5
13D87
330
1F
100
AcDbEntity
  8
破線
100
AcDbLine
 10
1016.499896414978
 20
791.9997401819596
 30
0.0
 11
1016.499896414978
 21
807.9997401819596
 31
0.0
  0
CIRCLE
  5
13D88
330
1F
100
AcDbEntity
  8
破線
100
AcDbCircle
 10
1029.999789022339
 20
969.9997401819596
 30
0.0
 40
30.0
  0
LINE
  5
13D89
330
1F
100
AcDbEntity
  8
破線
100
AcDbLine
 10
999.999789022339
 20
942.9997584265979
 30
0.0
 11
1015.999789022339
 21
942.9997584265979
 31
0.0
  0
LINE
  5
13D8A
330
1F
100
AcDbEntity
  8
破線
100
AcDbLine
 10
1191.999896414978
 20
983.4997401819595
 30
0.0
 11
1191.999896414978
 21
807.999758426598
 31
0.0
  0
LINE
  5
13D8B
330
1F
100
AcDbEntity
  8
破線
100
AcDbLine
 10
1207.999896414978
 20
983.4997401819595
 30
0.0
 11
1207.999896414978
 21
807.999758426598
 31
0.0
  0
LINE
  5
13D8C
330
1F
100
AcDbEntity
  8
破線
100
AcDbLine
 10
1383.499896414978
 20
807.9997401819596
 30
0.0
 11
1383.499896414978
 21
791.9997401819596
 31
0.0
  0
LINE
  5
13D8D
330
1F
100
AcDbEntity
  8
破線
100
AcDbLine
 10
1191.999896414978
 20
983.4997401819595
 30
0.0
 11
1207.999896414978
 21
983.4997401819595
 31
0.0
  0
DIMENSION
  5
13D8E
330
1F
100
AcDbEntity
  8
寸法線
100
AcDbDimension
280
     0
  2
*D17
 10
1409.999896414978
 20
499.9999837322084
 30
0.0
 11
1199.999896414978
 21
499.9999837322084
 31
0.0
 70
   160
 71
     5
 42
420.0
 73
     0
 74
     0
 75
     0
  3
STANDARD
100
AcDbAlignedDimension
 13
989.9998964149785
 23
589.9997219373212
 33
0.0
 14
1409.999896414978
 24
589.9997584265979
 34
0.0
100
AcDbRotatedDimension
  0
LINE
  5
13D8F
330
1F
100
AcDbEntity
  8
実線
100
AcDbLine
 10
1409.999896414978
 20
589.9997584265979
 30
0.0
 11
1409.999896414978
 21
1009.999758426598
 31
0.0
  0
CIRCLE
  5
13D90
330
1F
100
AcDbEntity
  8
破線
100
AcDbCircle
 10
1369.999789022339
 20
969.9997401819596
 30
0.0
 40
30.0
  0
LINE
  5
13D91
330
1F
100
AcDbEntity
  8
中心線
100
AcDbLine
 10
1314.999920199385
 20
969.9997401819596
 30
0.0
 11
1424.999920199385
 21
969.9997401819596
 31
0.0
  0
LINE
  5
13D92
330
1F
100
AcDbEntity
  8
破線
100
AcDbLine
 10
999.999789022339
 20
656.9997584265979
 30
0.0
 11
999.999789022339
 21
942.9997584265979
 31
0.0
  0
LINE
  5
13D93
330
1F
100
AcDbEntity
  8
破線
100
AcDbLine
 10
1056.999896414978
 20
615.9997401819595
 30
0.0
 11
1342.999896414978
 21
615.9997401819595
 31
0.0
  0
LINE
  5
13D94
330
1F
100
AcDbEntity
  8
破線
100
AcDbLine
 10
1016.499896414978
 20
791.9997401819596
 30
0.0
 11
1383.499896414978
 21
791.9997401819596
 31
0.0
  0
LINE
  5
13D95
330
1F
100
AcDbEntity
  8
実線
100
AcDbLine
 10
989.9998964149785
 20
589.9997219373212
 30
0.0
 11
1409.999896414978
 21
589.9997219373212
 31
0.0
  0
CIRCLE
  5
13D96
330
1F
100
AcDbEntity
  8
破線
100
AcDbCircle
 10
1029.999789022339
 20
629.9997401819596
 30
0.0
 40
30.0
  0
LINE
  5
13D97
330
1F
100
AcDbEntity
  8
破線
100
AcDbLine
 10
999.999789022339
 20
656.9997584265979
 30
0.0
 11
1015.999789022339
 21
656.9997584265979
 31
0.0
  0
LINE
  5
13D98
330
1F
100
AcDbEntity
  8
破線
100
AcDbLine
 10
1056.999896414978
 20
599.9997401819596
 30
0.0
 11
1056.999896414978
 21
615.9997401819595
 31
0.0
  0
LINE
  5
13D99
330
1F
100
AcDbEntity
  8
破線
100
AcDbLine
 10
1191.999896414978
 20
616.4997401819596
 30
0.0
 11
1191.999896414978
 21
791.9997219373213
 31
0.0
  0
LINE
  5
13D9A
330
1F
100
AcDbEntity
  8
破線
100
AcDbLine
 10
1207.999896414978
 20
616.4997401819596
 30
0.0
 11
1207.999896414978
 21
791.9997219373213
 31
0.0
  0
LINE
  5
13D9B
330
1F
100
AcDbEntity
  8
破線
100
AcDbLine
 10
1191.999896414978
 20
616.4997401819596
 30
0.0
 11
1207.999896414978
 21
616.4997401819596
 31
0.0
  0
LINE
  5
13D9C
330
1F
100
AcDbEntity
  8
破線
100
AcDbLine
 10
1342.999896414978
 20
599.9997401819596
 30
0.0
 11
1342.999896414978
 21
615.9997401819595
 31
0.0
  0
CIRCLE
  5
13D9D
330
1F
100
AcDbEntity
  8
破線
100
AcDbCircle
 10
1369.999789022339
 20
629.9997401819596
 30
0.0
 40
30.0
  0
LINE
  5
13D9E
330
1F
100
AcDbEntity
  8
破線
100
AcDbLine
 10
1056.999896414978
 20
599.9997401819596
 30
0.0
 11
1342.999896414978
 21
599.9997401819596
 31
0.0
  0
LINE
  5
13D9F
330
1F
100
AcDbEntity
  8
破線
100
AcDbLine
 10
1056.999896414978
 20
999.9997401819596
 30
0.0
 11
1342.999896414978
 21
999.9997401819596
 31
0.0
  0
LINE
  5
13DA0
330
1F
100
AcDbEntity
  8
破線
100
AcDbLine
 10
1056.999896414978
 20
983.9997401819596
 30
0.0
 11
1056.999896414978
 21
999.9997401819596
 31
0.0
  0
LINE
  5
13DA1
330
1F
100
AcDbEntity
  8
破線
100
AcDbLine
 10
1342.999896414978
 20
983.9997401819596
 30
0.0
 11
1342.999896414978
 21
999.9997401819596
 31
0.0
  0
LINE
  5
13DA2
330
1F
100
AcDbEntity
  8
破線
100
AcDbLine
 10
1056.999896414978
 20
983.9997401819596
 30
0.0
 11
1342.999896414978
 21
983.9997401819596
 31
0.0
  0
LINE
  5
13DA3
330
1F
100
AcDbEntity
  8
破線
100
AcDbLine
 10
1015.999789022339
 20
656.9997584265979
 30
0.0
 11
1015.999789022339
 21
942.9997584265979
 31
0.0
  0
LINE
  5
13DA4
330
1F
100
AcDbEntity
  8
破線
100
AcDbLine
 10
1383.999789022339
 20
942.9997584265979
 30
0.0
 11
1399.999789022339
 21
942.9997584265979
 31
0.0
  0
LINE
  5
13DA5
330
1F
100
AcDbEntity
  8
破線
100
AcDbLine
 10
1383.999789022339
 20
656.9997584265979
 30
0.0
 11
1383.999789022339
 21
942.9997584265979
 31
0.0
  0
LINE
  5
13DA6
330
1F
100
AcDbEntity
  8
破線
100
AcDbLine
 10
1383.999789022339
 20
656.9997584265979
 30
0.0
 11
1399.999789022339
 21
656.9997584265979
 31
0.0
  0
LINE
  5
13DA7
330
1F
100
AcDbEntity
  8
破線
100
AcDbLine
 10
1399.999789022339
 20
656.9997584265979
 30
0.0
 11
1399.999789022339
 21
942.9997584265979
 31
0.0
  0
LINE
  5
13DA8
330
1F
100
AcDbEntity
  8
中心線
100
AcDbLine
 10
1199.999920199385
 20
564.9997401819596
 30
0.0
 11
1199.999920199385
 21
1034.999740181959
 31
0.0
  0
LINE
  5
13DA9
330
1F
100
AcDbEntity
  8
中心線
100
AcDbLine
 10
1369.999920199385
 20
914.9997401819597
 30
0.0
 11
1369.999920199385
 21
1024.999740181959
 31
0.0
  0
LINE
  5
13DAA
330
1F
100
AcDbEntity
  8
中心線
100
AcDbLine
 10
1314.999920199385
 20
629.9997401819596
 30
0.0
 11
1424.999920199385
 21
629.9997401819596
 31
0.0
  0
LINE
  5
13DAB
330
1F
100
AcDbEntity
  8
中心線
100
AcDbLine
 10
1369.999920199385
 20
574.9997401819596
 30
0.0
 11
1369.999920199385
 21
684.9997401819596
 31
0.0
  0
LINE
  5
13DAC
330
1F
100
AcDbEntity
  8
中心線
100
AcDbLine
 10
974.9999201993855
 20
969.9997401819596
 30
0.0
 11
1084.999920199385
 21
969.9997401819596
 31
0.0
  0
LINE
  5
13DAD
330
1F
100
AcDbEntity
  8
中心線
100
AcDbLine
 10
1029.999920199385
 20
914.9997401819597
 30
0.0
 11
1029.999920199385
 21
1024.999740181959
 31
0.0
  0
LINE
  5
13DAE
330
1F
100
AcDbEntity
  8
中心線
100
AcDbLine
 10
974.9999201993855
 20
629.9997401819596
 30
0.0
 11
1084.999920199385
 21
629.9997401819596
 31
0.0
  0
LINE
  5
13DAF
330
1F
100
AcDbEntity
  8
中心線
100
AcDbLine
 10
1029.999920199385
 20
574.9997401819596
 30
0.0
 11
1029.999920199385
 21
684.9997401819596
 31
0.0
  0
DIMENSION
  5
13DB0
330
1F
100
AcDbEntity
  8
寸法線
100
AcDbDimension
280
     0
  2
*D1
 10
899.9999439837925
 20
1009.999758426598
 30
0.0
 11
899.9999439837925
 21
799.999758426598
 31
0.0
 70
   160
 71
     5
 42
420.0000000000001
 73
     0
 74
     0
 75
     0
  3
STANDARD
100
AcDbAlignedDimension
 13
989.9999439837925
 23
589.9997584265979
 33
0.0
 14
989.9999439837925
 24
1009.999758426598
 34
0.0
 50
90.0
100
AcDbRotatedDimension
  0
DIMENSION
  5
13DB2
330
1F
100
AcDbEntity
  8
寸法線
100
AcDbDimension
280
     0
  2
*D2
 10
2670.000120199395
 20
499.9999837322084
 30
0.0
 11
2500.000121120823
 21
499.9999837322084
 31
0.0
 70
   160
 71
     5
 42
340.0
 73
     0
 74
     0
 75
     0
  3
STANDARD
100
AcDbAlignedDimension
 13
2330.000120199395
 23
575.0002546494028
 33
0.0
 14
2670.000120199395
 24
575.0002546494028
 34
0.0
100
AcDbRotatedDimension
  0
LINE
  5
13DB3
330
1F
100
AcDbEntity
  8
実線
100
AcDbLine
 10
2289.999896414979
 20
1010.000020221482
 30
0.0
 11
2709.999896414979
 21
1010.000020221482
 31
0.0
  0
LINE
  5
13DB4
330
1F
100
AcDbEntity
  8
中心線
100
AcDbLine
 10
2264.999920199386
 20
800.0002546494028
 30
0.0
 11
2734.999920199386
 21
800.0002546494028
 31
0.0
  0
LINE
  5
13DB5
330
1F
100
AcDbEntity
  8
実線
100
AcDbLine
 10
2316.499896414978
 20
808.0000202214828
 30
0.0
 11
2683.499896414979
 21
808.0000202214828
 31
0.0
  0
LINE
  5
13DB6
330
1F
100
AcDbEntity
  8
実線
100
AcDbLine
 10
2289.999896414979
 20
590.0000202214828
 30
0.0
 11
2289.999896414979
 21
1010.000020221482
 31
0.0
  0
DIMENSION
  5
13DB7
330
1F
100
AcDbEntity
  8
寸法線
100
AcDbDimension
280
     0
  2
*D3
 10
2330.000120199395
 20
499.9999837322084
 30
0.0
 11
2310.000008307187
 21
499.9999837322084
 31
0.0
 70
   160
 71
     5
 42
40.00022378441644
 73
     0
 74
     0
 75
     0
  3
STANDARD
100
AcDbAlignedDimension
 13
2289.999896414979
 23
590.000489077352
 33
0.0
 14
2330.000120199395
 24
575.0002546494028
 34
0.0
100
AcDbRotatedDimension
  0
LINE
  5
13DB8
330
1F
100
AcDbEntity
  8
実線
100
AcDbLine
 10
2316.499896414978
 20
792.0000202214828
 30
0.0
 11
2316.499896414978
 21
808.0000202214828
 31
0.0
  0
LINE
  5
13DB9
330
1F
100
AcDbEntity
  8
実線
100
AcDbLine
 10
2300.000121120822
 20
943.0000202214827
 30
0.0
 11
2316.000121120822
 21
943.0000202214827
 31
0.0
  0
LINE
  5
13DBA
330
1F
100
AcDbEntity
  8
実線
100
AcDbLine
 10
2356.999896414979
 20
1000.000254649403
 30
0.0
 11
2356.999896414979
 21
984.0002546494028
 31
0.0
  0
LINE
  5
13DBB
330
1F
100
AcDbEntity
  8
実線
100
AcDbLine
 10
2507.999896414979
 20
983.5002546494029
 30
0.0
 11
2507.999896414979
 21
808.0002546494029
 31
0.0
  0
LINE
  5
13DBC
330
1F
100
AcDbEntity
  8
実線
100
AcDbLine
 10
2491.999896414979
 20
983.5002546494029
 30
0.0
 11
2491.999896414979
 21
808.0002546494029
 31
0.0
  0
DIMENSION
  5
13DBD
330
1F
100
AcDbEntity
  8
寸法線
100
AcDbDimension
280
     0
  2
*D4
 10
2799.99989641498
 20
1010.000020221483
 30
0.0
 11
2799.99989641498
 21
990.0001374354422
 31
0.0
 70
   160
 71
     5
 42
39.99976557207992
 73
     0
 74
     0
 75
     0
  3
STANDARD
100
AcDbAlignedDimension
 13
2725.000120199395
 23
970.000254649403
 33
0.0
 14
2709.999896414979
 24
1010.000020221482
 34
0.0
 50
90.0
100
AcDbRotatedDimension
  0
LINE
  5
13DBE
330
1F
100
AcDbEntity
  8
実線
100
AcDbLine
 10
2709.999896414979
 20
590.0000202214828
 30
0.0
 11
2709.999896414979
 21
1010.000020221482
 31
0.0
  0
DIMENSION
  5
13DBF
330
1F
100
AcDbEntity
  8
寸法線
100
AcDbDimension
280
     0
  2
*D5
 10
2799.999896414979
 20
970.0002546494033
 30
0.0
 11
2799.999896414979
 21
800.0002546494028
 31
0.0
 70
   160
 71
     5
 42
340.0000000000001
 73
     0
 74
     0
 75
     0
  3
STANDARD
100
AcDbAlignedDimension
 13
2725.000120199395
 23
630.0002546494028
 33
0.0
 14
2725.000120199395
 24
970.000254649403
 34
0.0
 50
90.0
100
AcDbRotatedDimension
  0
DIMENSION
  5
13DC0
330
1F
100
AcDbEntity
  8
寸法線
100
AcDbDimension
280
     0
  2
*D6
 10
2799.999896414979
 20
630.0002546494031
 30
0.0
 11
2799.999896414979
 21
610.0003718633768
 31
0.0
 70
   160
 71
     5
 42
39.99976557205082
 73
     0
 74
     0
 75
     0
  3
STANDARD
100
AcDbAlignedDimension
 13
2709.999896414979
 23
590.000489077352
 33
0.0
 14
2725.000120199395
 24
630.0002546494028
 34
0.0
 50
90.0
100
AcDbRotatedDimension
  0
DIMENSION
  5
13DC1
330
1F
100
AcDbEntity
  8
寸法線
100
AcDbDimension
280
     0
  2
*D7
 10
2709.999896414979
 20
499.9999837322084
 30
0.0
 11
2690.000008307187
 21
499.9999837322084
 31
0.0
 70
   160
 71
     5
 42
39.99977621558355
 73
     0
 74
     0
 75
     0
  3
STANDARD
100
AcDbAlignedDimension
 13
2670.000120199395
 23
575.0002546494028
 33
0.0
 14
2709.999896414979
 24
590.000489077352
 34
0.0
100
AcDbRotatedDimension
  0
LINE
  5
13DC2
330
1F
100
AcDbEntity
  8
実線
100
AcDbLine
 10
2683.499896414979
 20
808.0000202214828
 30
0.0
 11
2683.499896414979
 21
792.0000202214828
 31
0.0
  0
LINE
  5
13DC3
330
1F
100
AcDbEntity
  8
実線
100
AcDbLine
 10
2491.999896414979
 20
983.5002546494029
 30
0.0
 11
2507.999896414979
 21
983.5002546494029
 31
0.0
  0
LINE
  5
13DC4
330
1F
100
AcDbEntity
  8
実線
100
AcDbLine
 10
2642.999896414979
 20
1000.000254649403
 30
0.0
 11
2642.999896414979
 21
984.0002546494028
 31
0.0
  0
CIRCLE
  5
13DC5
330
1F
100
AcDbEntity
  8
実線
100
AcDbCircle
 10
2330.000121120822
 20
970.000254649403
 30
0.0
 40
30.0
  0
LINE
  5
13DC6
330
1F
100
AcDbEntity
  8
実線
100
AcDbLine
 10
2316.000121120822
 20
657.0000202214828
 30
0.0
 11
2316.000121120822
 21
943.0000202214827
 31
0.0
  0
LINE
  5
13DC7
330
1F
100
AcDbEntity
  8
中心線
100
AcDbLine
 10
2615.000120199395
 20
970.000254649403
 30
0.0
 11
2725.000120199395
 21
970.000254649403
 31
0.0
  0
CIRCLE
  5
13DC8
330
1F
100
AcDbEntity
  8
実線
100
AcDbCircle
 10
2670.000121120823
 20
970.000254649403
 30
0.0
 40
30.0
  0
LINE
  5
13DC9
330
1F
100
AcDbEntity
  8
実線
100
AcDbLine
 10
2356.999896414979
 20
1000.000254649403
 30
0.0
 11
2642.999896414979
 21
1000.000254649403
 31
0.0
  0
LINE
  5
13DCA
330
1F
100
AcDbEntity
  8
実線
100
AcDbLine
 10
2289.999896414979
 20
590.000489077352
 30
0.0
 11
2709.999896414979
 21
590.000489077352
 31
0.0
  0
LINE
  5
13DCB
330
1F
100
AcDbEntity
  8
実線
100
AcDbLine
 10
2300.000121120822
 20
657.0000202214828
 30
0.0
 11
2316.000121120822
 21
657.0000202214828
 31
0.0
  0
LINE
  5
13DCC
330
1F
100
AcDbEntity
  8
実線
100
AcDbLine
 10
2507.999896414979
 20
616.5002546494029
 30
0.0
 11
2507.999896414979
 21
792.0002546494028
 31
0.0
  0
LINE
  5
13DCD
330
1F
100
AcDbEntity
  8
実線
100
AcDbLine
 10
2491.999896414979
 20
616.5002546494029
 30
0.0
 11
2491.999896414979
 21
792.0002546494028
 31
0.0
  0
LINE
  5
13DCE
330
1F
100
AcDbEntity
  8
実線
100
AcDbLine
 10
2491.999896414979
 20
616.5002546494029
 30
0.0
 11
2507.999896414979
 21
616.5002546494029
 31
0.0
  0
CIRCLE
  5
13DCF
330
1F
100
AcDbEntity
  8
実線
100
AcDbCircle
 10
2330.000121120822
 20
630.0002546494028
 30
0.0
 40
30.0
  0
CIRCLE
  5
13DD0
330
1F
100
AcDbEntity
  8
実線
100
AcDbCircle
 10
2670.000121120823
 20
630.0002546494028
 30
0.0
 40
30.0
  0
LINE
  5
13DD1
330
1F
100
AcDbEntity
  8
実線
100
AcDbLine
 10
2316.499896414978
 20
792.0000202214828
 30
0.0
 11
2683.499896414979
 21
792.0000202214828
 31
0.0
  0
LINE
  5
13DD2
330
1F
100
AcDbEntity
  8
実線
100
AcDbLine
 10
2356.999896414979
 20
984.0002546494028
 30
0.0
 11
2642.999896414979
 21
984.0002546494028
 31
0.0
  0
LINE
  5
13DD3
330
1F
100
AcDbEntity
  8
実線
100
AcDbLine
 10
2356.999896414979
 20
616.0002546494029
 30
0.0
 11
2356.999896414979
 21
600.0002546494028
 31
0.0
  0
LINE
  5
13DD4
330
1F
100
AcDbEntity
  8
実線
100
AcDbLine
 10
2642.999896414979
 20
616.0002546494029
 30
0.0
 11
2642.999896414979
 21
600.0002546494028
 31
0.0
  0
LINE
  5
13DD5
330
1F
100
AcDbEntity
  8
実線
100
AcDbLine
 10
2356.999896414979
 20
616.0002546494029
 30
0.0
 11
2642.999896414979
 21
616.0002546494029
 31
0.0
  0
LINE
  5
13DD6
330
1F
100
AcDbEntity
  8
実線
100
AcDbLine
 10
2356.999896414979
 20
600.0002546494028
 30
0.0
 11
2642.999896414979
 21
600.0002546494028
 31
0.0
  0
LINE
  5
13DD7
330
1F
100
AcDbEntity
  8
実線
100
AcDbLine
 10
2300.000121120822
 20
657.0000202214828
 30
0.0
 11
2300.000121120822
 21
943.0000202214827
 31
0.0
  0
LINE
  5
13DD8
330
1F
100
AcDbEntity
  8
実線
100
AcDbLine
 10
2684.000121120823
 20
943.0000202214827
 30
0.0
 11
2700.000121120823
 21
943.0000202214827
 31
0.0
  0
LINE
  5
13DD9
330
1F
100
AcDbEntity
  8
実線
100
AcDbLine
 10
2700.000121120823
 20
657.0000202214828
 30
0.0
 11
2700.000121120823
 21
943.0000202214827
 31
0.0
  0
LINE
  5
13DDA
330
1F
100
AcDbEntity
  8
実線
100
AcDbLine
 10
2684.000121120823
 20
657.0000202214828
 30
0.0
 11
2700.000121120823
 21
657.0000202214828
 31
0.0
  0
LINE
  5
13DDB
330
1F
100
AcDbEntity
  8
実線
100
AcDbLine
 10
2684.000121120823
 20
657.0000202214828
 30
0.0
 11
2684.000121120823
 21
943.0000202214827
 31
0.0
  0
LINE
  5
13DDC
330
1F
100
AcDbEntity
  8
中心線
100
AcDbLine
 10
2670.000120199395
 20
915.0002546494029
 30
0.0
 11
2670.000120199395
 21
1025.000254649403
 31
0.0
  0
LINE
  5
13DDD
330
1F
100
AcDbEntity
  8
中心線
100
AcDbLine
 10
2615.000120199395
 20
630.0002546494028
 30
0.0
 11
2725.000120199395
 21
630.0002546494028
 31
0.0
  0
LINE
  5
13DDE
330
1F
100
AcDbEntity
  8
中心線
100
AcDbLine
 10
2670.000120199395
 20
575.0002546494028
 30
0.0
 11
2670.000120199395
 21
685.0002546494029
 31
0.0
  0
LINE
  5
13DDF
330
1F
100
AcDbEntity
  8
中心線
100
AcDbLine
 10
2275.000120199395
 20
970.000254649403
 30
0.0
 11
2385.000120199395
 21
970.000254649403
 31
0.0
  0
LINE
  5
13DE0
330
1F
100
AcDbEntity
  8
中心線
100
AcDbLine
 10
2330.000120199395
 20
915.0002546494029
 30
0.0
 11
2330.000120199395
 21
1025.000254649403
 31
0.0
  0
LINE
  5
13DE1
330
1F
100
AcDbEntity
  8
中心線
100
AcDbLine
 10
2275.000120199395
 20
630.0002546494028
 30
0.0
 11
2385.000120199395
 21
630.0002546494028
 31
0.0
  0
LINE
  5
13DE2
330
1F
100
AcDbEntity
  8
中心線
100
AcDbLine
 10
2330.000120199395
 20
575.0002546494028
 30
0.0
 11
2330.000120199395
 21
685.0002546494029
 31
0.0
  0
LINE
  5
13DE4
330
1F
100
AcDbEntity
  8
中心線
100
AcDbLine
 10
2499.999920199386
 20
564.9999546494178
 30
0.0
 11
2499.999920199386
 21
1034.999954649418
 31
0.0
  0
DIMENSION
  5
13E04
330
1F
100
AcDbEntity
  8
寸法線
100
AcDbDimension
280
     0
  2
*D8
 10
2770.000226983162
 20
2054.000043747317
 30
0.0
 11
2770.000226983162
 21
2245.000006527642
 31
0.0
 70
   160
 71
     5
 42
382.0000000000009
 73
     0
 74
     0
 75
     0
  3
STANDARD
100
AcDbAlignedDimension
 13
2650.000226983163
 23
2436.000043747317
 33
0.0
 14
2650.000226983163
 24
2054.000043747315
 34
0.0
 50
90.0
100
AcDbRotatedDimension
  0
TEXT
  5
141B0
330
1F
100
AcDbEntity
  8
寸法線
100
AcDbText
 10
2961.457537936397
 20
606.7561391440015
 30
0.0
 40
25.0
  1
※　H型鋼（連結部）の長さは、切梁メーカー仕様または施工条件により
 11
2961.457537936397
 21
606.7561391440015
 31
0.0
100
AcDbText
 73
     1
  0
TEXT
  5
141B1
330
1F
100
AcDbEntity
  8
寸法線
100
AcDbText
 10
2961.457537936397
 20
656.7561391440015
 30
0.0
 40
25.0
  1
※　H型鋼（連結部）の穴開け位置は、切梁メーカー仕様による。
 11
2961.457537936397
 21
656.7561391440015
 31
0.0
100
AcDbText
 73
     1
  0
TEXT
  5
141B2
330
1F
100
AcDbEntity
  8
寸法線
100
AcDbText
 10
2961.457537936397
 20
556.7561391440015
 30
0.0
 40
25.0
  1
　　変更する場合がある。
 11
2961.457537936397
 21
556.7561391440015
 31
0.0
100
AcDbText
 73
     1
  0
TEXT
  5
141B3
330
1F
100
AcDbEntity
  8
寸法線
100
AcDbText
 10
2961.457537936397
 20
506.7561391440015
 30
0.0
 40
25.0
  1
※　空洞金具部は鉄筋防錆剤塗装仕上げ。
 11
2961.457537936397
 21
506.7561391440015
 31
0.0
100
AcDbText
 73
     1
  0
TEXT
  5
141B4
330
1F
100
AcDbEntity
  8
寸法線
100
AcDbText
 10
2961.457537936397
 20
456.7561391440015
 30
0.0
 40
25.0
  1
※　H型鋼（連結部）は赤さび塗装仕上げ。
 11
2961.457537936397
 21
456.7561391440015
 31
0.0
100
AcDbText
 73
     1
  0
TEXT
  5
14299
330
1F
100
AcDbEntity
  8
寸法線
100
AcDbText
 10
2431.135284138063
 20
436.7285741416178
 30
0.0
 40
24.0
  1
断面Ａ－Ａ
100
AcDbText
  0
LINE
  5
1429A
330
1F
100
AcDbEntity
  8
寸法線
100
AcDbLine
 10
2419.733016898531
 20
429.9997493042734
 30
0.0
 11
2580.266976533663
 21
429.9997493042734
 31
0.0
  0
LINE
  5
146C8
330
1F
100
AcDbEntity
  8
実線
100
AcDbLine
 10
3549.999999999971
 20
2445.0000256297
 30
0.0
 11
3549.999999999971
 21
2045.0000256297
 31
0.0
  0
LINE
  5
146C9
330
1F
100
AcDbEntity
  8
中心線
100
AcDbLine
 10
3349.99999999997
 20
2461.0000256297
 30
0.0
 11
3349.99999999997
 21
2029.000025629695
 31
0.0
  0
LINE
  5
146CA
330
1F
100
AcDbEntity
  8
中心線
100
AcDbLine
 10
3124.999999999969
 20
2245.0000256297
 30
0.0
 11
3574.999999999971
 21
2245.0000256297
 31
0.0
  0
LINE
  5
146CB
330
1F
100
AcDbEntity
  8
実線
100
AcDbLine
 10
3149.999999999971
 20
2054.00000581659
 30
0.0
 11
3549.999999999971
 21
2054.00000581659
 31
0.0
  0
LINE
  5
146CC
330
1F
100
AcDbEntity
  8
実線
100
AcDbLine
 10
3149.999999999971
 20
2436.00000581659
 30
0.0
 11
3549.999999999971
 21
2436.00000581659
 31
0.0
  0
LINE
  5
146CD
330
1F
100
AcDbEntity
  8
中心線
100
AcDbLine
 10
3299.999981390134
 20
2135.000044239536
 30
0.0
 11
3299.999981390134
 21
2205.000007019859
 31
0.0
  0
CIRCLE
  5
146CE
330
1F
100
AcDbEntity
  8
実線
100
AcDbCircle
 10
3299.999981390134
 20
2170.000025629697
 30
0.0
 40
12.5
  0
LINE
  5
146CF
330
1F
100
AcDbEntity
  8
中心線
100
AcDbLine
 10
3334.999962780297
 20
2170.000025629697
 30
0.0
 11
3264.999999999971
 21
2170.000025629697
 31
0.0
  0
LINE
  5
146D0
330
1F
100
AcDbEntity
  8
中心線
100
AcDbLine
 10
3249.999981390134
 20
2110.000044239536
 30
0.0
 11
3249.999981390134
 21
2180.000007019863
 31
0.0
  0
CIRCLE
  5
146D1
330
1F
100
AcDbEntity
  8
実線
100
AcDbCircle
 10
3249.999981390134
 20
2145.000025629697
 30
0.0
 40
12.5
  0
LINE
  5
146D2
330
1F
100
AcDbEntity
  8
中心線
100
AcDbLine
 10
3284.999962780297
 20
2145.000025629697
 30
0.0
 11
3214.999999999971
 21
2145.000025629697
 31
0.0
  0
LINE
  5
146D3
330
1F
100
AcDbEntity
  8
中心線
100
AcDbLine
 10
3299.999981390134
 20
2355.000007019862
 30
0.0
 11
3299.999981390134
 21
2285.000044239536
 31
0.0
  0
CIRCLE
  5
146D4
330
1F
100
AcDbEntity
  8
実線
100
AcDbCircle
 10
3299.999981390134
 20
2320.0000256297
 30
0.0
 40
12.5
  0
LINE
  5
146D5
330
1F
100
AcDbEntity
  8
中心線
100
AcDbLine
 10
3334.999962780297
 20
2320.0000256297
 30
0.0
 11
3264.999999999971
 21
2320.0000256297
 31
0.0
  0
LINE
  5
146D6
330
1F
100
AcDbEntity
  8
中心線
100
AcDbLine
 10
3249.999981390134
 20
2380.000007019862
 30
0.0
 11
3249.999981390134
 21
2310.000044239536
 31
0.0
  0
CIRCLE
  5
146D7
330
1F
100
AcDbEntity
  8
実線
100
AcDbCircle
 10
3249.999981390134
 20
2345.000025629699
 30
0.0
 40
12.5
  0
LINE
  5
146D8
330
1F
100
AcDbEntity
  8
中心線
100
AcDbLine
 10
3284.999962780297
 20
2345.000025629699
 30
0.0
 11
3214.999999999971
 21
2345.000025629699
 31
0.0
  0
LINE
  5
146D9
330
1F
100
AcDbEntity
  8
中心線
100
AcDbLine
 10
3400.000018609807
 20
2135.000044239536
 30
0.0
 11
3400.000018609807
 21
2205.000007019859
 31
0.0
  0
CIRCLE
  5
146DA
330
1F
100
AcDbEntity
  8
実線
100
AcDbCircle
 10
3400.000018609807
 20
2170.000025629697
 30
0.0
 40
12.5
  0
LINE
  5
146DB
330
1F
100
AcDbEntity
  8
中心線
100
AcDbLine
 10
3365.000037219644
 20
2170.000025629697
 30
0.0
 11
3434.999999999969
 21
2170.000025629697
 31
0.0
  0
LINE
  5
146DC
330
1F
100
AcDbEntity
  8
中心線
100
AcDbLine
 10
3450.000018609807
 20
2110.000044239536
 30
0.0
 11
3450.000018609807
 21
2180.000007019863
 31
0.0
  0
CIRCLE
  5
146DD
330
1F
100
AcDbEntity
  8
実線
100
AcDbCircle
 10
3450.000018609807
 20
2145.000025629697
 30
0.0
 40
12.5
  0
LINE
  5
146DE
330
1F
100
AcDbEntity
  8
中心線
100
AcDbLine
 10
3415.000037219642
 20
2145.000025629697
 30
0.0
 11
3484.999999999969
 21
2145.000025629697
 31
0.0
  0
LINE
  5
146DF
330
1F
100
AcDbEntity
  8
中心線
100
AcDbLine
 10
3400.000018609807
 20
2355.000007019862
 30
0.0
 11
3400.000018609807
 21
2285.000044239536
 31
0.0
  0
CIRCLE
  5
146E0
330
1F
100
AcDbEntity
  8
実線
100
AcDbCircle
 10
3400.000018609807
 20
2320.0000256297
 30
0.0
 40
12.5
  0
LINE
  5
146E1
330
1F
100
AcDbEntity
  8
中心線
100
AcDbLine
 10
3365.000037219644
 20
2320.0000256297
 30
0.0
 11
3434.999999999969
 21
2320.0000256297
 31
0.0
  0
LINE
  5
146E2
330
1F
100
AcDbEntity
  8
中心線
100
AcDbLine
 10
3450.000018609807
 20
2380.000007019862
 30
0.0
 11
3450.000018609807
 21
2310.000044239536
 31
0.0
  0
CIRCLE
  5
146E3
330
1F
100
AcDbEntity
  8
実線
100
AcDbCircle
 10
3450.000018609807
 20
2345.000025629699
 30
0.0
 40
12.5
  0
LINE
  5
146E4
330
1F
100
AcDbEntity
  8
中心線
100
AcDbLine
 10
3415.000037219642
 20
2345.000025629699
 30
0.0
 11
3484.999999999969
 21
2345.000025629699
 31
0.0
  0
LINE
  5
146E5
330
1F
100
AcDbEntity
  8
破線
100
AcDbLine
 10
3149.999999999971
 20
2066.00000581659
 30
0.0
 11
3321.499962780297
 21
2066.00000581659
 31
0.0
  0
LINE
  5
146E6
330
1F
100
AcDbEntity
  8
破線
100
AcDbLine
 10
3549.999999999971
 20
2066.00000581659
 30
0.0
 11
3378.500037219646
 21
2066.00000581659
 31
0.0
  0
LINE
  5
146E7
330
1F
100
AcDbEntity
  8
破線
100
AcDbLine
 10
3149.999999999971
 20
2424.00000581659
 30
0.0
 11
3321.499962780297
 21
2424.00000581659
 31
0.0
  0
LINE
  5
146E8
330
1F
100
AcDbEntity
  8
破線
100
AcDbLine
 10
3549.999999999971
 20
2424.00000581659
 30
0.0
 11
3378.500037219646
 21
2424.00000581659
 31
0.0
  0
LINE
  5
146E9
330
1F
100
AcDbEntity
  8
破線
100
AcDbLine
 10
3343.499999999969
 20
2402.0000256297
 30
0.0
 11
3343.499999999969
 21
2088.000025629696
 31
0.0
  0
LINE
  5
146EA
330
1F
100
AcDbEntity
  8
破線
100
AcDbLine
 10
3356.499999999971
 20
2402.0000256297
 30
0.0
 11
3356.499999999971
 21
2088.000025629696
 31
0.0
  0
ARC
  5
146EB
330
1F
100
AcDbEntity
  8
破線
100
AcDbCircle
 10
3321.499999999971
 20
2088.000025629696
 30
0.0
 40
22.0
100
AcDbArc
 50
269.9999030668841
 51
0.0
  0
ARC
  5
146EC
330
1F
100
AcDbEntity
  8
破線
100
AcDbCircle
 10
3378.49999999997
 20
2088.000025629696
 30
0.0
 40
22.0
100
AcDbArc
 50
180.0
 51
270.0000969331159
  0
ARC
  5
146ED
330
1F
100
AcDbEntity
  8
破線
100
AcDbCircle
 10
3321.499999999971
 20
2402.000025629697
 30
0.0
 40
22.0
100
AcDbArc
 50
0.0
 51
90.00009693311588
  0
ARC
  5
146EE
330
1F
100
AcDbEntity
  8
破線
100
AcDbCircle
 10
3378.49999999997
 20
2402.000025629697
 30
0.0
 40
22.0
100
AcDbArc
 50
89.99990306688411
 51
180.0
  0
LINE
  5
146EF
330
1F
100
AcDbEntity
  8
破線
100
AcDbLine
 10
3153.499962780297
 20
2239.0000256297
 30
0.0
 11
3343.499999999969
 21
2239.0000256297
 31
0.0
  0
LINE
  5
146F0
330
1F
100
AcDbEntity
  8
破線
100
AcDbLine
 10
3153.499962780297
 20
2251.0000256297
 30
0.0
 11
3343.499999999969
 21
2251.0000256297
 31
0.0
  0
LINE
  5
146F1
330
1F
100
AcDbEntity
  8
破線
100
AcDbLine
 10
3546.500037219642
 20
2239.0000256297
 30
0.0
 11
3356.499999999971
 21
2239.0000256297
 31
0.0
  0
LINE
  5
146F2
330
1F
100
AcDbEntity
  8
破線
100
AcDbLine
 10
3546.500037219642
 20
2251.0000256297
 30
0.0
 11
3356.499999999971
 21
2251.0000256297
 31
0.0
  0
LINE
  5
146F3
330
1F
100
AcDbEntity
  8
破線
 48
10.0
100
AcDbLine
 10
3546.500037219642
 20
2251.0000256297
 30
0.0
 11
3546.500037219642
 21
2239.0000256297
 31
0.0
  0
LINE
  5
146F4
330
1F
100
AcDbEntity
  8
実線
100
AcDbLine
 10
3149.999999999971
 20
2445.0000256297
 30
0.0
 11
3549.999999999971
 21
2445.0000256297
 31
0.0
  0
LINE
  5
146F5
330
1F
100
AcDbEntity
  8
実線
100
AcDbLine
 10
3149.999999999971
 20
2045.0000256297
 30
0.0
 11
3549.999999999971
 21
2045.0000256297
 31
0.0
  0
LINE
  5
146F6
330
1F
100
AcDbEntity
  8
実線
100
AcDbLine
 10
3149.999999999971
 20
2445.0000256297
 30
0.0
 11
3149.999999999971
 21
2045.0000256297
 31
0.0
  0
LEADER
  5
146F7
330
1F
100
AcDbEntity
  8
寸法線
100
AcDbLeader
  3
STANDARD
 76
     3
 10
3257.532916238338
 20
2354.975239540825
 30
0.0
 10
3385.929725329277
 20
2525.0000256297
 30
0.0
 10
3578.508016089541
 20
2525.0000256297
 30
0.0
211
1.0
221
0.0000000000000002
231
0.0
1001
ACAD
1000
DSTYLE
1002
{
1070
   147
1040
0.875
1070
    77
1070
     0
1002
}
  0
TEXT
  5
146F8
330
1F
100
AcDbEntity
  8
寸法線
100
AcDbText
 10
3394.679725329275
 20
2533.7500256297
 30
0.0
 40
25.0
  1
主材連結用孔
 72
     2
 11
3568.013058662609
 21
2558.750025629701
 31
0.0
100
AcDbText
 73
     3
  0
LINE
  5
146F9
330
1F
100
AcDbEntity
  8
破線
 48
10.0
100
AcDbLine
 10
3153.499962780297
 20
2251.0000256297
 30
0.0
 11
3153.499962780297
 21
2239.0000256297
 31
0.0
  0
DIMENSION
  5
146FA
330
1F
100
AcDbEntity
  8
寸法線
100
AcDbDimension
280
     0
  2
*D34
 10
3149.999999999969
 20
1925.000005816589
 30
0.0
 11
3349.99999999997
 21
1925.000005816589
 31
0.0
 70
   160
 71
     5
 42
400.0
 73
     0
 74
     0
 75
     0
  3
STANDARD
100
AcDbAlignedDimension
 13
3549.999999999969
 23
2045.000005816589
 33
0.0
 14
3149.999999999969
 24
2045.000005816589
 34
0.0
100
AcDbRotatedDimension
  0
DIMENSION
  5
146FB
330
1F
100
AcDbEntity
  8
寸法線
100
AcDbDimension
280
     0
  2
*D35
 10
3029.999999999967
 20
2045.000045442807
 30
0.0
 11
3029.999999999967
 21
2245.000025629698
 31
0.0
 70
   160
 71
     5
 42
400.0000000000002
 73
     0
 74
     0
 75
     0
  3
STANDARD
100
AcDbAlignedDimension
 13
3149.999999999967
 23
2445.000045442807
 33
0.0
 14
3149.999999999967
 24
2045.000045442806
 34
0.0
 50
270.0
100
AcDbRotatedDimension
  0
VIEWPORT
  5
794
330
78D
100
AcDbEntity
 67
     1
  8
0
100
AcDbViewport
 10
215.5472135276886
 20
142.589248394887
 30
0.0
 40
568.5388333088702
 41
287.5796864262481
 68
     1
 69
     1
 12
215.5472135276886
 22
142.589248394887
 13
0.0
 23
0.0
 14
10.0
 24
10.0
 15
10.0
 25
10.0
 16
0.0
 26
0.0
 36
1.0
 17
0.0
 27
0.0
 37
0.0
 42
50.0
 43
0.0
 44
0.0
 45
287.5796864262481
 50
0.0
 51
0.0
 72
  1000
 90
    32800
  1

281
     0
 71
     1
 74
     0
110
0.0
120
0.0
130
0.0
111
1.0
121
0.0
131
0.0
112
0.0
122
1.0
132
0.0
 79
     0
146
0.0
170
     0
 61
     5
348
11741
292
     1
282
     1
141
0.0
142
0.0
 63
   250
421
  3355443
  0
VIEWPORT
  5
796
330
78D
100
AcDbEntity
 67
     1
  8
Defpoints
100
AcDbViewport
 10
204.099579334259
 20
142.5892481803894
 30
0.0
 40
408.1991586685178
 41
285.1784963607788
 68
     2
 69
     2
 12
2100.207206595808
 22
1486.804522350007
 13
0.0
 23
0.0
 14
10.0
 24
10.0
 15
10.0
 25
10.0
 16
0.0
 26
0.0
 36
1.0
 17
0.0
 27
0.0
 37
0.0
 42
50.0
 43
0.0
 44
0.0
 45
2851.784980677949
 50
0.0
 51
0.0
 72
  1000
 90
    32864
  1

281
     0
 71
     1
 74
     0
110
0.0
120
0.0
130
0.0
111
1.0
121
0.0
131
0.0
112
0.0
122
1.0
132
0.0
 79
     0
146
0.0
170
     0
 61
     5
348
11741
292
     1
282
     1
141
0.0
142
0.0
 63
   250
421
  3355443
  0
LINE
  5
9A2
330
78D
100
AcDbEntity
 67
     1
  8
図面枠
100
AcDbLine
 10
14.0996
 20
6.589249999999998
 30
0.0
 11
14.0996
 21
278.58925
 31
0.0
  0
LINE
  5
9A3
330
78D
100
AcDbEntity
 67
     1
  8
図面枠
100
AcDbLine
 10
404.0995999999998
 20
6.589249999999998
 30
0.0
 11
404.0995999999998
 21
278.58925
 31
0.0
  0
LINE
  5
9A4
330
78D
100
AcDbEntity
 67
     1
  8
図面枠
100
AcDbLine
 10
14.0996
 20
278.58925
 30
0.0
 11
404.0995999999998
 21
278.58925
 31
0.0
  0
LINE
  5
9A5
330
78D
100
AcDbEntity
 67
     1
  8
図面枠
100
AcDbLine
 10
14.0996
 20
6.589249999999998
 30
0.0
 11
404.0995999999998
 21
6.589249999999991
 31
0.0
  0
LINE
  5
9BB
330
78D
100
AcDbEntity
 67
     1
  8
図面枠
100
AcDbLine
 10
289.0996
 20
36.58924999999999
 30
0.0
 11
404.0995999999998
 21
36.58924999999999
 31
0.0
  0
LINE
  5
9BC
330
78D
100
AcDbEntity
 67
     1
  8
図面枠
100
AcDbLine
 10
289.0996
 20
30.58924999999999
 30
0.0
 11
404.0995999999998
 21
30.58924999999999
 31
0.0
  0
LINE
  5
9BE
330
78D
100
AcDbEntity
 67
     1
  8
図面枠
100
AcDbLine
 10
289.0996
 20
36.5893
 30
0.0
 11
289.0996
 21
6.589249999999991
 31
0.0
  0
LINE
  5
9C4
330
78D
100
AcDbEntity
 67
     1
  8
図面枠
100
AcDbLine
 10
289.0996
 20
18.58924999999999
 30
0.0
 11
404.0995999999998
 21
18.58924999999999
 31
0.0
  0
LINE
  5
9CD
330
78D
100
AcDbEntity
 67
     1
  8
図面枠
100
AcDbLine
 10
352.0996
 20
36.5893
 30
0.0
 11
352.0996
 21
30.58924999999999
 31
0.0
  0
LINE
  5
9CF
330
78D
100
AcDbEntity
 67
     1
  8
図面枠
100
AcDbLine
 10
383.0996
 20
36.5893
 30
0.0
 11
383.0996
 21
30.58924999999999
 31
0.0
  0
LINE
  5
9D0
330
78D
100
AcDbEntity
 67
     1
  8
図面枠
100
AcDbLine
 10
352.0996
 20
30.58924999999999
 30
0.0
 11
352.0996
 21
6.589249999999991
 31
0.0
  0
LINE
  5
9D1
330
78D
100
AcDbEntity
 67
     1
  8
図面枠
100
AcDbLine
 10
312.0996
 20
36.58924999999999
 30
0.0
 11
312.0996
 21
30.58924999999999
 31
0.0
  0
LINE
  5
9D2
330
78D
100
AcDbEntity
 67
     1
  8
図面枠
100
AcDbLine
 10
304.0996
 20
24.58924999999999
 30
0.0
 11
349.0996
 21
24.58924999999999
 31
0.0
  0
TEXT
  5
9EB
330
78D
100
AcDbEntity
 67
     1
  8
図面枠
100
AcDbText
 10
289.9746
 20
32.33924999999999
 30
0.0
 40
2.5
  1
重量
 11
289.9746
 21
32.33924999999999
 31
0.0
100
AcDbText
 73
     1
  0
TEXT
  5
9ED
330
78D
100
AcDbEntity
 67
     1
  8
図面枠
100
AcDbText
 10
289.97465
 20
27.21424999999999
 30
0.0
 40
2.5
  1
名　称
 11
289.97465
 21
29.71424999999999
 31
0.0
100
AcDbText
 73
     3
  0
TEXT
  5
9EF
330
78D
100
AcDbEntity
 67
     1
  8
図面枠
100
AcDbText
 10
318.4746
 20
32.33929999999999
 30
0.0
 40
2.5
  1
表面仕上げ
 41
0.8
 11
318.4746
 21
32.33929999999999
 31
0.0
100
AcDbText
 73
     1
  0
TEXT
  5
A20
330
78D
100
AcDbEntity
 67
     1
  8
図面枠
100
AcDbText
 10
352.9746
 20
32.33924999999999
 30
0.0
 40
2.5
  1
日付
 11
352.9746
 21
32.33924999999999
 31
0.0
100
AcDbText
 73
     1
  0
TEXT
  5
A39
330
78D
100
AcDbEntity
 67
     1
  8
図面枠
100
AcDbText
 10
383.9746
 20
32.33924999999999
 30
0.0
 40
2.5
  1
尺度
 11
383.9746
 21
32.33924999999999
 31
0.0
100
AcDbText
 73
     1
  0
TEXT
  5
A59
330
78D
100
AcDbEntity
 67
     1
  8
図面枠
100
AcDbText
 10
313.5162666666667
 20
26.33924999999999
 30
0.0
 40
2.5
  1
スルーサーＢ構造図
 72
     1
 11
326.5996
 21
26.33924999999999
 31
0.0
100
AcDbText
 73
     1
  0
TEXT
  5
A5A
330
78D
100
AcDbEntity
 67
     1
  8
図面枠
100
AcDbText
 10
317.6611157480315
 20
20.33924999999999
 30
0.0
 40
2.5
  1
切り梁H-400
 72
     1
 11
326.5996
 21
22.83924999999999
 31
0.0
100
AcDbText
 73
     3
  0
TEXT
  5
A63
330
78D
100
AcDbEntity
 67
     1
  8
図面枠
100
AcDbText
 10
368.0162666666667
 20
8.33924999999999
 30
0.0
 40
2.5
  1
Ｈ４０－Ｗ５０
 72
     1
 11
378.0996
 21
8.33924999999999
 31
0.0
100
AcDbText
 73
     1
  0
TEXT
  5
9054
330
78D
100
AcDbEntity
 67
     1
  8
図面枠
100
AcDbText
 10
300.3079
 20
32.33924999999999
 30
0.0
 40
2.5
  1
347kg
 11
300.3079
 21
32.33924999999999
 31
0.0
100
AcDbText
 73
     1
  0
TEXT
  5
9055
330
78D
100
AcDbEntity
 67
     1
  8
図面枠
100
AcDbText
 10
333.8079
 20
32.33929999999999
 30
0.0
 40
2.5
  1
鉄筋防錆剤
 41
0.8
 11
333.8079
 21
32.33929999999999
 31
0.0
100
AcDbText
 73
     1
  0
TEXT
  5
9057
330
78D
100
AcDbEntity
 67
     1
  8
図面枠
100
AcDbText
 10
394.3079
 20
32.33924999999999
 30
0.0
 40
2.5
  1
1/10
 11
394.3079
 21
32.33924999999999
 31
0.0
100
AcDbText
 73
     1
  0
TEXT
  5
933A
330
78D
100
AcDbEntity
 67
     1
  8
図面枠
100
AcDbText
 10
300.0162781896648
 20
10.58922126233957
 30
0.0
 40
4.0
  1
三研テクノクリエイト
 11
300.0162781896648
 21
12.58922126233957
 31
0.0
100
AcDbText
 73
     2
  0
TEXT
  5
933B
330
78D
100
AcDbEntity
 67
     1
  8
図面枠
100
AcDbText
 10
294.2496115229981
 20
12.83922126233957
 30
0.0
 40
2.0
  1
株式
 72
     2
 11
298.5162781896648
 21
12.83922126233957
 31
0.0
100
AcDbText
 73
     1
  0
TEXT
  5
933C
330
78D
100
AcDbEntity
 67
     1
  8
図面枠
100
AcDbText
 10
294.2496115229981
 20
10.33922126233957
 30
0.0
 40
2.0
  1
会社
 72
     2
 11
298.5162781896648
 21
12.33922126233957
 31
0.0
100
AcDbText
 73
     3
  0
TEXT
  5
11E77
330
78D
100
AcDbEntity
 67
     1
  8
図面枠
100
AcDbText
 10
352.97465
 20
27.21425000000001
 30
0.0
 40
2.5
  1
摘　要
 11
352.97465
 21
29.71425000000001
 31
0.0
100
AcDbText
 73
     3
  0
TEXT
  5
11E78
330
78D
100
AcDbEntity
 67
     1
  8
図面枠
100
AcDbText
 10
352.9746
 20
15.21425
 30
0.0
 40
2.5
  1
型　式
 11
352.9746
 21
17.71425
 31
0.0
100
AcDbText
 73
     3
  0
LINE
  5
11E7A
330
78D
100
AcDbEntity
 67
     1
  8
図面枠
100
AcDbLine
 10
227.3699773983349
 20
19.8671985172127
 30
0.0
 11
282.3699773983349
 21
19.8671985172127
 31
0.0
  0
LINE
  5
11E7B
330
78D
100
AcDbEntity
 67
     1
  8
図面枠
100
AcDbLine
 10
227.3699773983349
 20
19.8671985172127
 30
0.0
 11
227.3699773983349
 21
10.86719851721269
 31
0.0
  0
TEXT
  5
11E7C
330
78D
100
AcDbEntity
 67
     1
  8
図面枠
100
AcDbText
 10
228.6019716746131
 20
13.16588865156561
 30
0.0
 40
4.0
  1
スクラップ重量　324kg
 72
     1
 11
254.7744590480284
 21
13.16588865156561
 31
0.0
100
AcDbText
  0
LINE
  5
11E7D
330
78D
100
AcDbEntity
 67
     1
  8
図面枠
100
AcDbLine
 10
282.3699773983349
 20
19.8671985172127
 30
0.0
 11
282.3699773983349
 21
10.86719851721269
 31
0.0
  0
LINE
  5
11E7E
330
78D
100
AcDbEntity
 67
     1
  8
図面枠
100
AcDbLine
 10
227.3699773983349
 20
10.86719851721269
 30
0.0
 11
282.3699773983349
 21
10.86719851721269
 31
0.0
  0
TEXT
  5
120EB
330
78D
100
AcDbEntity
 67
     1
  8
図面枠
100
AcDbText
 10
364.7662666666667
 20
20.86235908820162
 30
0.0
 40
2.5
  1
Ｈ４０－Ｗシリーズ
 72
     1
 11
378.0996
 21
20.86235908820162
 31
0.0
100
AcDbText
 73
     1
  0
TEXT
  5
14746
330
78D
100
AcDbEntity
 67
     1
  8
図面枠
100
AcDbText
 10
363.3079
 20
32.33919999999999
 30
0.0
 40
2.5
  1
2024.01.01
 11
363.3079
 21
32.33919999999999
 31
0.0
100
AcDbText
 73
     1
  0
ENDSEC
  0
SECTION
  2
OBJECTS
  0
DICTIONARY
  5
C
330
0
100
AcDbDictionary
281
     1
  3
ACAD_CIP_PREVIOUS_PRODUCT_INFO
350
12C65
  3
ACAD_COLOR
350
6B
  3
ACAD_DETAILVIEWSTYLE
350
12C5F
  3
ACAD_GROUP
350
D
  3
ACAD_LAYOUT
350
1A
  3
ACAD_MATERIAL
350
6A
  3
ACAD_MLEADERSTYLE
350
1175E
  3
ACAD_MLINESTYLE
350
17
  3
ACAD_PLOTSETTINGS
350
19
  3
ACAD_PLOTSTYLENAME
350
E
  3
ACAD_SCALELIST
350
1174C
  3
ACAD_SECTIONVIEWSTYLE
350
12C5D
  3
ACAD_TABLESTYLE
350
7E
  3
ACAD_VISUALSTYLE
350
1173B
  3
AcadDim
350
89BC
  3
ACDB_RECOMPOSE_DATA
350
14758
  3
ACDBHEADERROUNDTRIPXREC
350
12097
  3
AcDbVariableDictionary
350
5E
  3
AcDsDecomposeData
350
1475E
  3
AEC_PROPERTY_SET_DEFS
350
11B12
  0
DICTIONARY
  5
11871
330
8
100
AcDbDictionary
280
     1
281
     1
  0
DICTIONARY
  5
11D
330
2
100
AcDbDictionary
280
     1
281
     1
  3
ACAD_LAYERFILTERS
360
98AE
  3
ACAD_LAYERSTATES
360
11E
  3
ACLYDICTIONARY
360
98AD
  0
DICTIONARY
  5
11820
330
10
100
AcDbDictionary
280
     1
281
     1
  3
ADSK_XREC_LAYER_RECONCILED
360
11821
  0
DICTIONARY
  5
11824
330
1BF
100
AcDbDictionary
280
     1
281
     1
  3
ADSK_XREC_LAYER_RECONCILED
360
11825
  0
DICTIONARY
  5
11828
330
1C1
100
AcDbDictionary
280
     1
281
     1
  3
ADSK_XREC_LAYER_RECONCILED
360
11829
  0
DICTIONARY
  5
1182C
330
1C3
100
AcDbDictionary
280
     1
281
     1
  3
ADSK_XREC_LAYER_RECONCILED
360
1182D
  0
DICTIONARY
  5
1182E
330
1C4
100
AcDbDictionary
280
     1
281
     1
  3
ADSK_XREC_LAYER_RECONCILED
360
1182F
  0
DICTIONARY
  5
11830
330
1C5
100
AcDbDictionary
280
     1
281
     1
  3
ADSK_XREC_LAYER_RECONCILED
360
11831
  0
DICTIONARY
  5
11832
330
82E
100
AcDbDictionary
280
     1
281
     1
  3
ADSK_XREC_LAYER_RECONCILED
360
11833
  0
DICTIONARY
  5
1473E
330
1473D
100
AcDbDictionary
280
     1
281
     1
  0
DICTIONARY
  5
5C91
330
1F
100
AcDbDictionary
280
     1
281
     1
  3
ACAD_SORTENTS
360
5C92
  0
DICTIONARY
  5
11E70
330
C08
100
AcDbDictionary
280
     1
281
     1
  3
ACAD_SORTENTS
360
11FAB
  0
XRECORD
  5
12C65
102
{ACAD_REACTORS
330
C
102
}
330
C
100
AcDbXrecord
280
     1
300
ACD
300
2023
300

  0
DICTIONARY
  5
6B
102
{ACAD_REACTORS
330
C
102
}
330
C
100
AcDbDictionary
281
     1
  0
DICTIONARY
  5
12C5F
102
{ACAD_REACTORS
330
C
102
}
330
C
100
AcDbDictionary
281
     1
  3
Metric50
350
12C60
  0
DICTIONARY
  5
D
102
{ACAD_REACTORS
330
C
102
}
330
C
100
AcDbDictionary
281
     1
  0
DICTIONARY
  5
1A
102
{ACAD_REACTORS
330
C
102
}
330
C
100
AcDbDictionary
281
     1
  3
Model
350
22
  3
レイアウト1
350
78E
  0
DICTIONARY
  5
6A
102
{ACAD_REACTORS
330
C
102
}
330
C
100
AcDbDictionary
281
     1
  3
ByBlock
350
1172B
  3
ByLayer
350
11723
  3
Global
350
11733
  0
DICTIONARY
  5
1175E
102
{ACAD_REACTORS
330
C
102
}
330
C
100
AcDbDictionary
281
     1
  3
Standard
350
1175F
  0
DICTIONARY
  5
17
102
{ACAD_REACTORS
330
C
102
}
330
C
100
AcDbDictionary
281
     1
  3
Standard
350
18
  0
DICTIONARY
  5
19
102
{ACAD_REACTORS
330
C
102
}
330
C
100
AcDbDictionary
281
     1
  0
ACDBDICTIONARYWDFLT
  5
E
102
{ACAD_REACTORS
330
C
102
}
330
C
100
AcDbDictionary
281
     1
  3
Normal
350
F
100
AcDbDictionaryWithDefault
340
F
  0
DICTIONARY
  5
1174C
102
{ACAD_REACTORS
330
C
102
}
330
C
100
AcDbDictionary
281
     1
  3
A0
350
1174D
  3
A1
350
1174E
  3
A2
350
1174F
  3
A3
350
11750
  3
A4
350
11751
  3
A5
350
11752
  3
A6
350
11753
  3
A7
350
11754
  3
A8
350
11755
  3
A9
350
11756
  3
B0
350
11757
  3
B1
350
11758
  3
B2
350
11759
  3
B3
350
1175A
  3
B4
350
1175B
  3
B5
350
1175C
  3
B6
350
1175D
  0
DICTIONARY
  5
12C5D
102
{ACAD_REACTORS
330
C
102
}
330
C
100
AcDbDictionary
281
     1
  3
Metric50
350
12C5E
  0
DICTIONARY
  5
7E
102
{ACAD_REACTORS
330
C
102
}
330
C
100
AcDbDictionary
281
     1
  3
Standard
350
7F
  0
DICTIONARY
  5
1173B
102
{ACAD_REACTORS
330
C
102
}
330
C
100
AcDbDictionary
281
     1
  3
2dWireframe
350
11741
  3
3D Hidden
350
11743
  3
3dWireframe
350
11742
  3
Basic
350
11740
  3
Brighten
350
11747
  3
ColorChange
350
1174B
  3
Conceptual
350
11744
  3
Dim
350
11746
  3
EdgeColorOff
350
12C5C
  3
Facepattern
350
1174A
  3
Flat
350
1173C
  3
FlatWithEdges
350
1173D
  3
Gouraud
350
1173E
  3
GouraudWithEdges
350
1173F
  3
Hidden
350
12C54
  3
JitterOff
350
12C5A
  3
Linepattern
350
11749
  3
OverhangOff
350
12C5B
  3
Realistic
350
11745
  3
Shaded
350
12C59
  3
Shaded with edges
350
12C58
  3
Shades of Gray
350
12C55
  3
Sketchy
350
12C56
  3
Thicken
350
11748
  3
Wireframe
350
12C53
  3
X-Ray
350
12C57
  0
XRECORD
  5
89BC
102
{ACAD_REACTORS
330
C
102
}
330
C
100
AcDbXrecord
280
     1
 90
   990106
  3

 60
     0
 61
     0
 62
     1
 63
     3
 64
     0
 65
     0
 66
     0
 67
     3
 68
     1
 69
     0
 70
     0
 71
     0
 72
     0
 40
0.0
170
     0
  0
XRECORD
  5
14758
102
{ACAD_REACTORS
330
C
102
}
330
C
100
AcDbXrecord
280
     1
 90
        1
330
7F
  0
DICTIONARY
  5
12097
102
{ACAD_REACTORS
330
C
102
}
330
C
100
AcDbDictionary
281
     1
  0
DICTIONARY
  5
5E
102
{ACAD_REACTORS
330
C
102
}
330
C
100
AcDbDictionary
281
     1
  3
CANNOSCALE
350
1187F
  3
CMLEADERSTYLE
350
1187E
  3
CTABLESTYLE
350
84
  3
CVIEWDETAILSTYLE
350
144E6
  3
CVIEWSECTIONSTYLE
350
144E7
  3
DIMASSOC
350
5F
  3
HIDETEXT
350
63
  3
INDEXCTL
350
11881
  3
LAYEREVAL
350
144EA
  3
LAYERNOTIFY
350
144EB
  3
LIGHTINGUNITS
350
144E9
  3
MSLTSCALE
350
144E8
  3
PROJECTNAME
350
11F99
  3
SORTENTS
350
11880
  0
DICTIONARY
  5
1475E
102
{ACAD_REACTORS
330
C
102
}
330
C
100
AcDbDictionary
281
     1
  3
AcDsRecords
350
14760
  3
AcDsSchemas
350
1475F
1001
ACAD
1070
     2
  0
DICTIONARY
  5
11B12
102
{ACAD_REACTORS
330
C
102
}
330
C
100
AcDbDictionary
281
     1
  0
DICTIONARY
  5
98AE
102
{ACAD_REACTORS
330
11D
102
}
330
11D
100
AcDbDictionary
281
     1
  0
DICTIONARY
  5
11E
102
{ACAD_REACTORS
330
11D
102
}
330
11D
100
AcDbDictionary
281
     1
  0
DICTIONARY
  5
98AD
102
{ACAD_REACTORS
330
11D
102
}
330
11D
100
AcDbDictionary
281
     1
1001
ACAD
1000
<All
  0
XRECORD
  5
11821
102
{ACAD_REACTORS
330
11820
102
}
330
11820
100
AcDbXrecord
280
     1
290
     1
  0
XRECORD
  5
11825
102
{ACAD_REACTORS
330
11824
102
}
330
11824
100
AcDbXrecord
280
     1
290
     1
  0
XRECORD
  5
11829
102
{ACAD_REACTORS
330
11828
102
}
330
11828
100
AcDbXrecord
280
     1
290
     1
  0
XRECORD
  5
1182D
102
{ACAD_REACTORS
330
1182C
102
}
330
1182C
100
AcDbXrecord
280
     1
290
     1
  0
XRECORD
  5
1182F
102
{ACAD_REACTORS
330
1182E
102
}
330
1182E
100
AcDbXrecord
280
     1
290
     1
  0
XRECORD
  5
11831
102
{ACAD_REACTORS
330
11830
102
}
330
11830
100
AcDbXrecord
280
     1
290
     1
  0
XRECORD
  5
11833
102
{ACAD_REACTORS
330
11832
102
}
330
11832
100
AcDbXrecord
280
     1
290
     1
  0
SORTENTSTABLE
  5
5C92
102
{ACAD_REACTORS
330
5C91
102
}
330
5C91
100
AcDbSortentsTable
330
1F
  0
SORTENTSTABLE
  5
11FAB
102
{ACAD_REACTORS
330
11E70
102
}
330
11E70
100
AcDbSortentsTable
330
C08
  0
ACDBDETAILVIEWSTYLE
  5
12C60
102
{ACAD_XDICTIONARY
360
14763
102
}
102
{ACAD_REACTORS
330
12C5F
102
}
330
12C5F
100
AcDbModelDocViewStyle
 70
     0
  3
Metric50
290
     0
100
AcDbDetailViewStyle
 70
     0
 71
     0
 90
        3
 71
     1
340
11
 62
   256
 40
5.0
340
0
 62
   256
 40
5.0
300

 40
0.0
280
     1
 71
     2
340
16
 90
       25
 62
   256
 71
     3
340
11
 62
   256
 40
5.0
 90
        0
 40
15.0
 90
        1
300
%<\AcVar ViewDetailId>% (%<\AcVar ViewScale \f "%sn">%)
 71
     4
340
16
 90
       25
 62
   256
340
16
 90
       25
 62
   256
280
     0
  0
LAYOUT
  5
22
102
{ACAD_REACTORS
330
1A
102
}
330
1A
100
AcDbPlotSettings
  1

  2
none_device
  4
ISO_A4_(210.00_x_297.00_MM)
  6

 40
7.5
 41
20.0
 42
7.5
 43
20.0
 44
210.0
 45
297.0
 46
11.54999923706054
 47
-13.65000009536743
 48
0.0
 49
0.0
140
0.0
141
0.0
142
1.0
143
8.704084754739808
 70
 11952
 72
     1
 73
     0
 74
     0
  7

 75
     0
147
0.1148885871608098
 76
     0
 77
     2
 78
   300
148
0.0
149
0.0
100
AcDbLayout
  1
Model
 70
     1
 71
     0
 10
0.0
 20
0.0
 11
12.0
 21
9.0
 12
0.0
 22
0.0
 32
0.0
 14
0.0
 24
0.0
 34
0.0
 15
0.0
 25
0.0
 35
0.0
146
0.0
 13
0.0
 23
0.0
 33
0.0
 16
1.0
 26
0.0
 36
0.0
 17
0.0
 27
1.0
 37
0.0
 76
     0
330
1F
331
1208B
1001
ACAD_PSEXT
1000
None
1000
None
1000
Not applicable
1000
The layout will not be plotted unless a new plotter configuration name is selected.
1070
     0
  0
LAYOUT
  5
78E
102
{ACAD_XDICTIONARY
360
79B
102
}
102
{ACAD_REACTORS
330
1A
102
}
330
1A
100
AcDbPlotSettings
  1

  2
RICOH MP C2503 JPN RPCS V2
  4
A3
  6

 40
5.873749732971191
 41
5.873748779296875
 42
5.873748779296875
 43
5.873748779296875
 44
296.9259948730469
 45
419.9466552734374
 46
0.0
 47
0.0
 48
0.0
 49
0.0
140
0.0
141
0.0
142
1.0
143
1.0
 70
   688
 72
     1
 73
     1
 74
     5
  7
monochrome.ctb
 75
    16
147
1.0
 76
     1
 77
     2
 78
   300
148
0.0
149
0.0
100
AcDbLayout
  1
レイアウト1
 70
     1
 71
     1
 10
-5.873748779296875
 20
-5.873749732971191
 11
414.0729064941406
 21
291.0522451400757
 12
0.0
 22
0.0
 32
0.0
 14
0.0000000000000853
 24
0.0
 34
0.0
 15
408.1991586685179
 25
285.1784963607788
 35
0.0
146
0.0
 13
0.0
 23
0.0
 33
0.0
 16
1.0
 26
0.0
 36
0.0
 17
0.0
 27
1.0
 37
0.0
 76
     0
330
78D
331
794
1001
ACAD_PSEXT
1000
RICOH MP C2503 JPN RPCS V2
1000
RICOH MP C2503 JPN RPCS V2
1000
IP_192.168.24.100
1000
RPCS Driver (For Windows)
1070
     0
  0
MATERIAL
  5
1172B
102
{ACAD_XDICTIONARY
360
1172C
102
}
102
{ACAD_REACTORS
330
6A
102
}
330
6A
100
AcDbMaterial
  1
ByBlock
 72
     0
 43
0.0008202099737533
 43
0.0
 43
0.0
 43
0.0
 43
0.0
 43
0.0008202099737533
 43
0.0
 43
0.0
 43
0.0
 43
0.0
 43
1.0
 43
0.0
 43
0.0
 43
0.0
 43
0.0
 43
1.0
 77
     0
 47
0.0008202099737533
 47
0.0
 47
0.0
 47
0.0
 47
0.0
 47
0.0008202099737533
 47
0.0
 47
0.0
 47
0.0
 47
0.0
 47
1.0
 47
0.0
 47
0.0
 47
0.0
 47
0.0
 47
1.0
171
     0
 49
0.0008202099737533
 49
0.0
 49
0.0
 49
0.0
 49
0.0
 49
0.0008202099737533
 49
0.0
 49
0.0
 49
0.0
 49
0.0
 49
1.0
 49
0.0
 49
0.0
 49
0.0
 49
0.0
 49
1.0
175
     0
142
0.0008202099737533
142
0.0
142
0.0
142
0.0
142
0.0
142
0.0008202099737533
142
0.0
142
0.0
142
0.0
142
0.0
142
1.0
142
0.0
142
0.0
142
0.0
142
0.0
142
1.0
179
     0
144
0.0008202099737533
144
0.0
144
0.0
144
0.0
144
0.0
144
0.0008202099737533
144
0.0
144
0.0
144
0.0
144
0.0
144
1.0
144
0.0
144
0.0
144
0.0
144
0.0
144
1.0
147
0.0008202099737533
147
0.0
147
0.0
147
0.0
147
0.0
147
0.0008202099737533
147
0.0
147
0.0
147
0.0
147
0.0
147
1.0
147
0.0
147
0.0
147
0.0
147
0.0
147
1.0
  0
MATERIAL
  5
11723
102
{ACAD_XDICTIONARY
360
11724
102
}
102
{ACAD_REACTORS
330
6A
102
}
330
6A
100
AcDbMaterial
  1
ByLayer
 72
     0
 43
0.0008202099737533
 43
0.0
 43
0.0
 43
0.0
 43
0.0
 43
0.0008202099737533
 43
0.0
 43
0.0
 43
0.0
 43
0.0
 43
1.0
 43
0.0
 43
0.0
 43
0.0
 43
0.0
 43
1.0
 77
     0
 47
0.0008202099737533
 47
0.0
 47
0.0
 47
0.0
 47
0.0
 47
0.0008202099737533
 47
0.0
 47
0.0
 47
0.0
 47
0.0
 47
1.0
 47
0.0
 47
0.0
 47
0.0
 47
0.0
 47
1.0
171
     0
 49
0.0008202099737533
 49
0.0
 49
0.0
 49
0.0
 49
0.0
 49
0.0008202099737533
 49
0.0
 49
0.0
 49
0.0
 49
0.0
 49
1.0
 49
0.0
 49
0.0
 49
0.0
 49
0.0
 49
1.0
175
     0
142
0.0008202099737533
142
0.0
142
0.0
142
0.0
142
0.0
142
0.0008202099737533
142
0.0
142
0.0
142
0.0
142
0.0
142
1.0
142
0.0
142
0.0
142
0.0
142
0.0
142
1.0
179
     0
144
0.0008202099737533
144
0.0
144
0.0
144
0.0
144
0.0
144
0.0008202099737533
144
0.0
144
0.0
144
0.0
144
0.0
144
1.0
144
0.0
144
0.0
144
0.0
144
0.0
144
1.0
147
0.0008202099737533
147
0.0
147
0.0
147
0.0
147
0.0
147
0.0008202099737533
147
0.0
147
0.0
147
0.0
147
0.0
147
1.0
147
0.0
147
0.0
147
0.0
147
0.0
147
1.0
  0
MATERIAL
  5
11733
102
{ACAD_XDICTIONARY
360
11734
102
}
102
{ACAD_REACTORS
330
6A
102
}
330
6A
100
AcDbMaterial
  1
Global
 72
     0
 43
0.0008202099737533
 43
0.0
 43
0.0
 43
0.0
 43
0.0
 43
0.0008202099737533
 43
0.0
 43
0.0
 43
0.0
 43
0.0
 43
1.0
 43
0.0
 43
0.0
 43
0.0
 43
0.0
 43
1.0
 77
     0
 47
0.0008202099737533
 47
0.0
 47
0.0
 47
0.0
 47
0.0
 47
0.0008202099737533
 47
0.0
 47
0.0
 47
0.0
 47
0.0
 47
1.0
 47
0.0
 47
0.0
 47
0.0
 47
0.0
 47
1.0
171
     0
 49
0.0008202099737533
 49
0.0
 49
0.0
 49
0.0
 49
0.0
 49
0.0008202099737533
 49
0.0
 49
0.0
 49
0.0
 49
0.0
 49
1.0
 49
0.0
 49
0.0
 49
0.0
 49
0.0
 49
1.0
175
     0
142
0.0008202099737533
142
0.0
142
0.0
142
0.0
142
0.0
142
0.0008202099737533
142
0.0
142
0.0
142
0.0
142
0.0
142
1.0
142
0.0
142
0.0
142
0.0
142
0.0
142
1.0
179
     0
144
0.0008202099737533
144
0.0
144
0.0
144
0.0
144
0.0
144
0.0008202099737533
144
0.0
144
0.0
144
0.0
144
0.0
144
1.0
144
0.0
144
0.0
144
0.0
144
0.0
144
1.0
147
0.0008202099737533
147
0.0
147
0.0
147
0.0
147
0.0
147
0.0008202099737533
147
0.0
147
0.0
147
0.0
147
0.0
147
1.0
147
0.0
147
0.0
147
0.0
147
0.0
147
1.0
  0
MLEADERSTYLE
  5
1175F
102
{ACAD_REACTORS
330
1175E
102
}
330
1175E
100
AcDbMLeaderStyle
179
     2
170
     2
171
     1
172
     0
 90
        2
 40
0.0
 41
0.0
173
     1
 91
-1056964608
340
14
 92
       -2
290
     1
 42
2.0
291
     1
 43
0.36
  3
Standard
 44
4.0
300

342
11
174
     1
178
     6
175
     1
176
     0
 93
-1056964608
 45
4.0
292
     0
297
     0
 46
4.0
 94
-1056964608
 47
1.0
 49
1.0
140
1.0
293
     1
141
0.0
294
     1
177
     0
142
1.0
295
     0
296
     0
143
0.125
271
     0
272
     9
273
     9
298
     0
1001
ACAD
1000
AcRTDxfName
1000
MLEADERSTYLE
1000
AcRTDxfName
1000
MLEADERSTYLE
1000
AcRTDxfName
1000
MLEADERSTYLE
1000
AcRTDxfName
1000
MLEADERSTYLE
  0
MLINESTYLE
  5
18
102
{ACAD_REACTORS
330
17
102
}
330
17
100
AcDbMlineStyle
  2
STANDARD
 70
     0
  3

 62
   256
 51
90.0
 52
90.0
 71
     2
 49
0.5
 62
   256
  6
BYLAYER
 49
-0.5
 62
   256
  6
BYLAYER
  0
ACDBPLACEHOLDER
  5
F
102
{ACAD_REACTORS
330
E
102
}
330
E
  0
SCALE
  5
1174D
102
{ACAD_REACTORS
330
1174C
102
}
330
1174C
100
AcDbScale
 70
     0
300
1:1
140
1.0
141
1.0
290
     1
1001
ACAD
1000
AcRTDxfName
1000
SCALE
1000
AcRTDxfName
1000
SCALE
1000
AcRTDxfName
1000
SCALE
1000
AcRTDxfName
1000
SCALE
  0
SCALE
  5
1174E
102
{ACAD_REACTORS
330
1174C
102
}
330
1174C
100
AcDbScale
 70
     0
300
1:2
140
1.0
141
2.0
290
     0
1001
ACAD
1000
AcRTDxfName
1000
SCALE
1000
AcRTDxfName
1000
SCALE
1000
AcRTDxfName
1000
SCALE
1000
AcRTDxfName
1000
SCALE
  0
SCALE
  5
1174F
102
{ACAD_REACTORS
330
1174C
102
}
330
1174C
100
AcDbScale
 70
     0
300
1:4
140
1.0
141
4.0
290
     0
1001
ACAD
1000
AcRTDxfName
1000
SCALE
1000
AcRTDxfName
1000
SCALE
1000
AcRTDxfName
1000
SCALE
1000
AcRTDxfName
1000
SCALE
  0
SCALE
  5
11750
102
{ACAD_REACTORS
330
1174C
102
}
330
1174C
100
AcDbScale
 70
     0
300
1:5
140
1.0
141
5.0
290
     0
1001
ACAD
1000
AcRTDxfName
1000
SCALE
1000
AcRTDxfName
1000
SCALE
1000
AcRTDxfName
1000
SCALE
1000
AcRTDxfName
1000
SCALE
  0
SCALE
  5
11751
102
{ACAD_REACTORS
330
1174C
102
}
330
1174C
100
AcDbScale
 70
     0
300
1:8
140
1.0
141
8.0
290
     0
1001
ACAD
1000
AcRTDxfName
1000
SCALE
1000
AcRTDxfName
1000
SCALE
1000
AcRTDxfName
1000
SCALE
1000
AcRTDxfName
1000
SCALE
  0
SCALE
  5
11752
102
{ACAD_REACTORS
330
1174C
102
}
330
1174C
100
AcDbScale
 70
     0
300
1:10
140
1.0
141
10.0
290
     0
1001
ACAD
1000
AcRTDxfName
1000
SCALE
1000
AcRTDxfName
1000
SCALE
1000
AcRTDxfName
1000
SCALE
1000
AcRTDxfName
1000
SCALE
  0
SCALE
  5
11753
102
{ACAD_REACTORS
330
1174C
102
}
330
1174C
100
AcDbScale
 70
     0
300
1:16
140
1.0
141
16.0
290
     0
1001
ACAD
1000
AcRTDxfName
1000
SCALE
1000
AcRTDxfName
1000
SCALE
1000
AcRTDxfName
1000
SCALE
1000
AcRTDxfName
1000
SCALE
  0
SCALE
  5
11754
102
{ACAD_REACTORS
330
1174C
102
}
330
1174C
100
AcDbScale
 70
     0
300
1:20
140
1.0
141
20.0
290
     0
1001
ACAD
1000
AcRTDxfName
1000
SCALE
1000
AcRTDxfName
1000
SCALE
1000
AcRTDxfName
1000
SCALE
1000
AcRTDxfName
1000
SCALE
  0
SCALE
  5
11755
102
{ACAD_REACTORS
330
1174C
102
}
330
1174C
100
AcDbScale
 70
     0
300
1:30
140
1.0
141
30.0
290
     0
1001
ACAD
1000
AcRTDxfName
1000
SCALE
1000
AcRTDxfName
1000
SCALE
1000
AcRTDxfName
1000
SCALE
1000
AcRTDxfName
1000
SCALE
  0
SCALE
  5
11756
102
{ACAD_REACTORS
330
1174C
102
}
330
1174C
100
AcDbScale
 70
     0
300
1:40
140
1.0
141
40.0
290
     0
1001
ACAD
1000
AcRTDxfName
1000
SCALE
1000
AcRTDxfName
1000
SCALE
1000
AcRTDxfName
1000
SCALE
1000
AcRTDxfName
1000
SCALE
  0
SCALE
  5
11757
102
{ACAD_REACTORS
330
1174C
102
}
330
1174C
100
AcDbScale
 70
     0
300
1:50
140
1.0
141
50.0
290
     0
1001
ACAD
1000
AcRTDxfName
1000
SCALE
1000
AcRTDxfName
1000
SCALE
1000
AcRTDxfName
1000
SCALE
1000
AcRTDxfName
1000
SCALE
  0
SCALE
  5
11758
102
{ACAD_REACTORS
330
1174C
102
}
330
1174C
100
AcDbScale
 70
     0
300
1:100
140
1.0
141
100.0
290
     0
1001
ACAD
1000
AcRTDxfName
1000
SCALE
1000
AcRTDxfName
1000
SCALE
1000
AcRTDxfName
1000
SCALE
1000
AcRTDxfName
1000
SCALE
  0
SCALE
  5
11759
102
{ACAD_REACTORS
330
1174C
102
}
330
1174C
100
AcDbScale
 70
     0
300
2:1
140
2.0
141
1.0
290
     0
1001
ACAD
1000
AcRTDxfName
1000
SCALE
1000
AcRTDxfName
1000
SCALE
1000
AcRTDxfName
1000
SCALE
1000
AcRTDxfName
1000
SCALE
  0
SCALE
  5
1175A
102
{ACAD_REACTORS
330
1174C
102
}
330
1174C
100
AcDbScale
 70
     0
300
4:1
140
4.0
141
1.0
290
     0
1001
ACAD
1000
AcRTDxfName
1000
SCALE
1000
AcRTDxfName
1000
SCALE
1000
AcRTDxfName
1000
SCALE
1000
AcRTDxfName
1000
SCALE
  0
SCALE
  5
1175B
102
{ACAD_REACTORS
330
1174C
102
}
330
1174C
100
AcDbScale
 70
     0
300
8:1
140
8.0
141
1.0
290
     0
1001
ACAD
1000
AcRTDxfName
1000
SCALE
1000
AcRTDxfName
1000
SCALE
1000
AcRTDxfName
1000
SCALE
1000
AcRTDxfName
1000
SCALE
  0
SCALE
  5
1175C
102
{ACAD_REACTORS
330
1174C
102
}
330
1174C
100
AcDbScale
 70
     0
300
10:1
140
10.0
141
1.0
290
     0
1001
ACAD
1000
AcRTDxfName
1000
SCALE
1000
AcRTDxfName
1000
SCALE
1000
AcRTDxfName
1000
SCALE
1000
AcRTDxfName
1000
SCALE
  0
SCALE
  5
1175D
102
{ACAD_REACTORS
330
1174C
102
}
330
1174C
100
AcDbScale
 70
     0
300
100:1
140
100.0
141
1.0
290
     0
1001
ACAD
1000
AcRTDxfName
1000
SCALE
1000
AcRTDxfName
1000
SCALE
1000
AcRTDxfName
1000
SCALE
1000
AcRTDxfName
1000
SCALE
  0
ACDBSECTIONVIEWSTYLE
  5
12C5E
102
{ACAD_XDICTIONARY
360
14761
102
}
102
{ACAD_REACTORS
330
12C5D
102
}
330
12C5D
100
AcDbModelDocViewStyle
 70
     0
  3
Metric50
290
     0
100
AcDbSectionViewStyle
 70
     0
 71
     0
 90
      102
 71
     1
340
11
 62
   256
 40
5.0
340
0
340
0
 62
   256
 40
5.0
300
I, O, Q, S, X, Z
 40
10.0
 90
        0
 40
2.5
 90
        0
 71
     2
340
16
 90
       25
 62
   256
340
16
 90
       50
 62
   256
 40
5.0
 40
2.5
 40
5.0
 71
     3
340
11
 62
   256
 40
5.0
 90
        0
 40
15.0
 90
        1
300
%<\AcVar ViewSectionStartId>%-%<\AcVar ViewSectionEndId>% (%<\AcVar ViewScale \f "%sn">%)
 71
     4
 62
   256
 62
   257
300
ANSI31
 40
1.0
 90
        0
290
     0
290
     0
 90
        6
 40
0.0
 40
1.570796326794896
 40
0.2617993877991494
 40
1.308996938995747
 40
-0.2617993877991494
 40
1.832595714594046
  0
TABLESTYLE
  5
7F
102
{ACAD_XDICTIONARY
360
1186B
102
}
102
{ACAD_REACTORS
330
7E
102
}
330
7E
100
AcDbTableStyle
280
     0
  3
Standard
 70
     0
 71
     0
 40
1.5
 41
1.5
280
     0
281
     0
  7
Standard
140
4.5
170
     2
 62
     0
 63
     7
283
     0
 90
        4
 91
        0
  1

274
    -2
284
     1
 64
     0
275
    -2
285
     1
 65
     0
276
    -2
286
     1
 66
     0
277
    -2
287
     1
 67
     0
278
    -2
288
     1
 68
     0
279
    -2
289
     1
 69
     0
  7
Standard
140
6.0
170
     5
 62
     0
 63
     7
283
     0
 90
        4
 91
        0
  1

274
    -2
284
     1
 64
     0
275
    -2
285
     1
 65
     0
276
    -2
286
     1
 66
     0
277
    -2
287
     1
 67
     0
278
    -2
288
     1
 68
     0
279
    -2
289
     1
 69
     0
  7
Standard
140
4.5
170
     5
 62
     0
 63
     7
283
     0
 90
        4
 91
        0
  1

274
    -2
284
     1
 64
     0
275
    -2
285
     1
 65
     0
276
    -2
286
     1
 66
     0
277
    -2
287
     1
 67
     0
278
    -2
288
     1
 68
     0
279
    -2
289
     1
 69
     0
  0
VISUALSTYLE
  5
11741
102
{ACAD_REACTORS
330
1173B
102
}
330
1173B
100
AcDbVisualStyle
  2
2dWireframe
 70
     4
177
     3
291
     0
 70
    58
 90
        0
176
     1
 90
        2
176
     1
 90
        0
176
     1
 90
        0
176
     1
 40
0.6
176
     1
 40
30.0
176
     1
 62
     7
176
     1
 90
        1
176
     1
 90
        4
176
     1
 62
     7
176
     1
 62
   257
176
     1
 90
        1
176
     1
 90
        1
176
     1
 40
1.0
176
     1
 90
        0
176
     1
 62
   257
176
     1
 40
1.0
176
     1
 90
        1
176
     1
 90
        6
176
     1
 90
        2
176
     1
 62
     7
176
     1
 90
        5
176
     1
 90
        0
176
     1
 90
        0
176
     1
290
     0
176
     1
 90
        1
176
     1
 40
0.0
176
     1
 90
        0
176
     1
290
     1
176
     1
290
     1
176
     1
290
     0
176
     1
290
     0
176
     1
290
     0
176
     1
290
     0
176
     1
290
     0
176
     1
290
     0
176
     1
290
     0
176
     1
 90
       50
176
     1
 40
0.0
176
     1
 40
1.0
176
     1
 90
        0
176
     1
 62
    18
420
        0
176
     1
 90
       50
176
     1
 90
        3
176
     1
 62
     5
420
      255
176
     1
290
     0
176
     1
 90
       50
176
     1
 90
       50
176
     1
 90
       50
176
     1
290
     0
176
     1
 90
       50
176
     1
 62
   256
176
     0
 40
1.0
176
     0
 90
        2
176
     1
  1
strokes_ogs.tif
176
     1
290
     0
176
     1
 40
1.0
176
     1
 40
1.0
176
     1
1001
ACAD
1000
AcRTDxfName
1000
VISUALSTYLE
1000
AcRTDxfName
1000
VISUALSTYLE
1000
AcRTDxfName
1000
VISUALSTYLE
1000
AcRTDxfName
1000
VISUALSTYLE
1000
AcDbSavedByObjectVersion
1070
     0
  0
VISUALSTYLE
  5
11743
102
{ACAD_REACTORS
330
1173B
102
}
330
1173B
100
AcDbVisualStyle
  2
3D Hidden
 70
     6
177
     3
291
     0
 70
    58
 90
        1
176
     1
 90
        2
176
     1
 90
        2
176
     1
 90
        0
176
     1
 40
0.6
176
     1
 40
30.0
176
     1
 62
     7
176
     1
 90
        2
176
     1
 90
        2
176
     1
 62
     7
176
     1
 62
   257
176
     1
 90
        2
176
     1
 90
        1
176
     1
 40
40.0
176
     1
 90
        0
176
     1
 62
   257
176
     1
 40
1.0
176
     1
 90
        1
176
     1
 90
        6
176
     1
 90
        2
176
     1
 62
     7
176
     1
 90
        3
176
     1
 90
        0
176
     1
 90
        0
176
     1
290
     0
176
     1
 90
        1
176
     1
 40
0.0
176
     1
 90
        0
176
     1
290
     0
176
     1
290
     1
176
     1
290
     1
176
     1
290
     0
176
     1
290
     0
176
     1
290
     0
176
     1
290
     0
176
     1
290
     0
176
     1
290
     0
176
     1
 90
       50
176
     1
 40
0.0
176
     1
 40
1.0
176
     1
 90
        0
176
     1
 62
    18
420
        0
176
     1
 90
       50
176
     1
 90
        3
176
     1
 62
     5
420
      255
176
     1
290
     0
176
     1
 90
       50
176
     1
 90
       50
176
     1
 90
       50
176
     1
290
     0
176
     1
 90
       50
176
     1
 62
   256
176
     0
 40
1.0
176
     0
 90
        2
176
     1
  1
strokes_ogs.tif
176
     1
290
     0
176
     1
 40
1.0
176
     1
 40
1.0
176
     1
1001
ACAD
1000
AcRTDxfName
1000
VISUALSTYLE
1000
AcRTDxfName
1000
VISUALSTYLE
1000
AcRTDxfName
1000
VISUALSTYLE
1000
AcRTDxfName
1000
VISUALSTYLE
1000
AcDbSavedByObjectVersion
1070
     0
  0
VISUALSTYLE
  5
11742
102
{ACAD_REACTORS
330
1173B
102
}
330
1173B
100
AcDbVisualStyle
  2
3dWireframe
 70
     5
177
     3
291
     0
 70
    58
 90
        0
176
     1
 90
        2
176
     1
 90
        0
176
     1
 90
        0
176
     1
 40
0.6
176
     1
 40
30.0
176
     1
 62
     7
176
     1
 90
        1
176
     1
 90
        4
176
     1
 62
     7
176
     1
 62
   257
176
     1
 90
        1
176
     1
 90
        1
176
     1
 40
1.0
176
     1
 90
        0
176
     1
 62
   257
176
     1
 40
1.0
176
     1
 90
        1
176
     1
 90
        6
176
     1
 90
        2
176
     1
 62
     7
176
     1
 90
        5
176
     1
 90
        0
176
     1
 90
        0
176
     1
290
     0
176
     1
 90
        1
176
     1
 40
0.0
176
     1
 90
        0
176
     1
290
     0
176
     1
290
     1
176
     1
290
     1
176
     1
290
     0
176
     1
290
     0
176
     1
290
     0
176
     1
290
     0
176
     1
290
     0
176
     1
290
     0
176
     1
 90
       50
176
     1
 40
0.0
176
     1
 40
1.0
176
     1
 90
        0
176
     1
 62
    18
420
        0
176
     1
 90
       50
176
     1
 90
        3
176
     1
 62
     5
420
      255
176
     1
290
     0
176
     1
 90
       50
176
     1
 90
       50
176
     1
 90
       50
176
     1
290
     0
176
     1
 90
       50
176
     1
 62
   256
176
     0
 40
1.0
176
     0
 90
        2
176
     1
  1
strokes_ogs.tif
176
     1
290
     0
176
     1
 40
1.0
176
     1
 40
1.0
176
     1
1001
ACAD
1000
AcRTDxfName
1000
VISUALSTYLE
1000
AcRTDxfName
1000
VISUALSTYLE
1000
AcRTDxfName
1000
VISUALSTYLE
1000
AcRTDxfName
1000
VISUALSTYLE
1000
AcDbSavedByObjectVersion
1070
     0
  0
VISUALSTYLE
  5
11740
102
{ACAD_REACTORS
330
1173B
102
}
330
1173B
100
AcDbVisualStyle
  2
Basic
 70
     7
177
     3
291
     1
 70
    58
 90
        1
176
     1
 90
        0
176
     1
 90
        1
176
     1
 90
        0
176
     1
 40
0.6
176
     1
 40
30.0
176
     1
 62
     7
176
     1
 90
        0
176
     1
 90
        4
176
     1
 62
     7
176
     1
 62
   257
176
     1
 90
        1
176
     1
 90
        1
176
     1
 40
1.0
176
     1
 90
        8
176
     1
 62
     7
176
     1
 40
1.0
176
     1
 90
        1
176
     1
 90
        6
176
     1
 90
        2
176
     1
 62
     7
176
     1
 90
        5
176
     1
 90
        0
176
     1
 90
        0
176
     1
290
     0
176
     1
 90
        1
176
     1
 40
0.0
176
     1
 90
        0
176
     1
290
     0
176
     1
290
     1
176
     1
290
     1
176
     1
290
     0
176
     1
290
     0
176
     1
290
     0
176
     1
290
     0
176
     1
290
     0
176
     1
290
     0
176
     1
 90
       50
176
     1
 40
0.0
176
     1
 40
1.0
176
     1
 90
        0
176
     1
 62
    18
420
        0
176
     1
 90
       50
176
     1
 90
        3
176
     1
 62
     5
420
      255
176
     1
290
     0
176
     1
 90
       50
176
     1
 90
       50
176
     1
 90
       50
176
     1
290
     0
176
     1
 90
       50
176
     1
 62
   256
176
     0
 40
1.0
176
     0
 90
        2
176
     1
  1
strokes_ogs.tif
176
     1
290
     0
176
     1
 40
1.0
176
     1
 40
1.0
176
     1
1001
ACAD
1000
AcRTDxfName
1000
VISUALSTYLE
1000
AcRTDxfName
1000
VISUALSTYLE
1000
AcRTDxfName
1000
VISUALSTYLE
1000
AcRTDxfName
1000
VISUALSTYLE
1000
AcDbSavedByObjectVersion
1070
     0
  0
VISUALSTYLE
  5
11747
102
{ACAD_REACTORS
330
1173B
102
}
330
1173B
100
AcDbVisualStyle
  2
Brighten
 70
    12
177
     3
291
     1
 70
    58
 90
        2
176
     1
 90
        2
176
     1
 90
        0
176
     1
 90
        0
176
     1
 40
0.6
176
     1
 40
30.0
176
     1
 62
     7
176
     1
 90
        1
176
     1
 90
        4
176
     1
 62
     7
176
     1
 62
   257
176
     1
 90
        1
176
     1
 90
        1
176
     1
 40
1.0
176
     1
 90
        8
176
     1
 62
     7
176
     1
 40
1.0
176
     1
 90
        1
176
     1
 90
        6
176
     1
 90
        2
176
     1
 62
     7
176
     1
 90
        5
176
     1
 90
        0
176
     1
 90
        0
176
     1
290
     0
176
     1
 90
        1
176
     1
 40
50.0
176
     1
 90
        0
176
     1
290
     0
176
     1
290
     1
176
     1
290
     1
176
     1
290
     0
176
     1
290
     0
176
     1
290
     0
176
     1
290
     0
176
     1
290
     0
176
     1
290
     0
176
     1
 90
       50
176
     1
 40
0.0
176
     1
 40
1.0
176
     1
 90
        0
176
     1
 62
    18
420
        0
176
     1
 90
       50
176
     1
 90
        3
176
     1
 62
     5
420
      255
176
     1
290
     0
176
     1
 90
       50
176
     1
 90
       50
176
     1
 90
       50
176
     1
290
     0
176
     1
 90
       50
176
     1
 62
   256
176
     0
 40
1.0
176
     0
 90
        2
176
     1
  1
strokes_ogs.tif
176
     1
290
     0
176
     1
 40
1.0
176
     1
 40
1.0
176
     1
1001
ACAD
1000
AcRTDxfName
1000
VISUALSTYLE
1000
AcRTDxfName
1000
VISUALSTYLE
1000
AcRTDxfName
1000
VISUALSTYLE
1000
AcRTDxfName
1000
VISUALSTYLE
1000
AcDbSavedByObjectVersion
1070
     0
  0
VISUALSTYLE
  5
1174B
102
{ACAD_REACTORS
330
1173B
102
}
330
1173B
100
AcDbVisualStyle
  2
ColorChange
 70
    16
177
     3
291
     1
 70
    58
 90
        2
176
     1
 90
        2
176
     1
 90
        3
176
     1
 90
        0
176
     1
 40
0.6
176
     1
 40
30.0
176
     1
 62
     8
176
     1
 90
        1
176
     1
 90
        4
176
     1
 62
     7
176
     1
 62
   257
176
     1
 90
        1
176
     1
 90
        1
176
     1
 40
1.0
176
     1
 90
        8
176
     1
 62
     8
176
     1
 40
1.0
176
     1
 90
        1
176
     1
 90
        6
176
     1
 90
        2
176
     1
 62
     7
176
     1
 90
        5
176
     1
 90
        0
176
     1
 90
        0
176
     1
290
     0
176
     1
 90
        1
176
     1
 40
0.0
176
     1
 90
        0
176
     1
290
     0
176
     1
290
     1
176
     1
290
     1
176
     1
290
     0
176
     1
290
     0
176
     1
290
     0
176
     1
290
     0
176
     1
290
     0
176
     1
290
     0
176
     1
 90
       50
176
     1
 40
0.0
176
     1
 40
1.0
176
     1
 90
        0
176
     1
 62
    18
420
        0
176
     1
 90
       50
176
     1
 90
        3
176
     1
 62
     5
420
      255
176
     1
290
     0
176
     1
 90
       50
176
     1
 90
       50
176
     1
 90
       50
176
     1
290
     0
176
     1
 90
       50
176
     1
 62
   256
176
     0
 40
1.0
176
     0
 90
        2
176
     1
  1
strokes_ogs.tif
176
     1
290
     0
176
     1
 40
1.0
176
     1
 40
1.0
176
     1
1001
ACAD
1000
AcRTDxfName
1000
VISUALSTYLE
1000
AcRTDxfName
1000
VISUALSTYLE
1000
AcRTDxfName
1000
VISUALSTYLE
1000
AcRTDxfName
1000
VISUALSTYLE
1000
AcDbSavedByObjectVersion
1070
     0
  0
VISUALSTYLE
  5
11744
102
{ACAD_REACTORS
330
1173B
102
}
330
1173B
100
AcDbVisualStyle
  2
Conceptual
 70
     9
177
     3
291
     0
 70
    58
 90
        3
176
     1
 90
        2
176
     1
 90
        0
176
     1
 90
        0
176
     1
 40
0.6
176
     1
 40
30.0
176
     1
 62
     7
176
     1
 90
        2
176
     1
 90
        2
176
     1
 62
     7
176
     1
 62
   257
176
     1
 90
        1
176
     1
 90
        1
176
     1
 40
40.0
176
     1
 90
        8
176
     1
 62
     7
176
     1
 40
1.0
176
     1
 90
        1
176
     1
 90
        6
176
     1
 90
        2
176
     1
 62
     7
176
     1
 90
        3
176
     1
 90
        0
176
     1
 90
        0
176
     1
290
     0
176
     1
 90
        1
176
     1
 40
0.0
176
     1
 90
        0
176
     1
290
     0
176
     1
290
     1
176
     1
290
     1
176
     1
290
     0
176
     1
290
     0
176
     1
290
     0
176
     1
290
     0
176
     1
290
     0
176
     1
290
     0
176
     1
 90
       50
176
     1
 40
0.0
176
     1
 40
1.0
176
     1
 90
        0
176
     1
 62
    18
420
        0
176
     1
 90
       50
176
     1
 90
        3
176
     1
 62
     5
420
      255
176
     1
290
     0
176
     1
 90
       50
176
     1
 90
       50
176
     1
 90
       50
176
     1
290
     0
176
     1
 90
       50
176
     1
 62
   256
176
     0
 40
1.0
176
     0
 90
        2
176
     1
  1
strokes_ogs.tif
176
     1
290
     0
176
     1
 40
1.0
176
     1
 40
1.0
176
     1
1001
ACAD
1000
AcRTDxfName
1000
VISUALSTYLE
1000
AcRTDxfName
1000
VISUALSTYLE
1000
AcRTDxfName
1000
VISUALSTYLE
1000
AcRTDxfName
1000
VISUALSTYLE
1000
AcDbSavedByObjectVersion
1070
     0
  0
VISUALSTYLE
  5
11746
102
{ACAD_REACTORS
330
1173B
102
}
330
1173B
100
AcDbVisualStyle
  2
Dim
 70
    11
177
     3
291
     1
 70
    58
 90
        2
176
     1
 90
        2
176
     1
 90
        0
176
     1
 90
        0
176
     1
 40
0.6
176
     1
 40
30.0
176
     1
 62
     7
176
     1
 90
        1
176
     1
 90
        4
176
     1
 62
     7
176
     1
 62
   257
176
     1
 90
        1
176
     1
 90
        1
176
     1
 40
1.0
176
     1
 90
        8
176
     1
 62
     7
176
     1
 40
1.0
176
     1
 90
        1
176
     1
 90
        6
176
     1
 90
        2
176
     1
 62
     7
176
     1
 90
        5
176
     1
 90
        0
176
     1
 90
        0
176
     1
290
     0
176
     1
 90
        1
176
     1
 40
-50.0
176
     1
 90
        0
176
     1
290
     0
176
     1
290
     1
176
     1
290
     1
176
     1
290
     0
176
     1
290
     0
176
     1
290
     0
176
     1
290
     0
176
     1
290
     0
176
     1
290
     0
176
     1
 90
       50
176
     1
 40
0.0
176
     1
 40
1.0
176
     1
 90
        0
176
     1
 62
    18
420
        0
176
     1
 90
       50
176
     1
 90
        3
176
     1
 62
     5
420
      255
176
     1
290
     0
176
     1
 90
       50
176
     1
 90
       50
176
     1
 90
       50
176
     1
290
     0
176
     1
 90
       50
176
     1
 62
   256
176
     0
 40
1.0
176
     0
 90
        2
176
     1
  1
strokes_ogs.tif
176
     1
290
     0
176
     1
 40
1.0
176
     1
 40
1.0
176
     1
1001
ACAD
1000
AcRTDxfName
1000
VISUALSTYLE
1000
AcRTDxfName
1000
VISUALSTYLE
1000
AcRTDxfName
1000
VISUALSTYLE
1000
AcRTDxfName
1000
VISUALSTYLE
1000
AcDbSavedByObjectVersion
1070
     0
  0
VISUALSTYLE
  5
12C5C
102
{ACAD_REACTORS
330
1173B
102
}
330
1173B
100
AcDbVisualStyle
  2
EdgeColorOff
 70
    22
177
     3
291
     1
 70
    58
 90
        2
176
     0
 90
        2
176
     0
 90
        0
176
     0
 90
        0
176
     0
 40
0.6
176
     0
 40
30.0
176
     0
 62
     7
420
 16777215
176
     0
 90
        1
176
     0
 90
        4
176
     0
 62
     7
176
     0
 62
   257
176
     0
 90
        1
176
     0
 90
        1
176
     0
 40
1.0
176
     0
 90
        8
176
     2
 62
     7
176
     0
 40
1.0
176
     0
 90
        1
176
     0
 90
        6
176
     0
 90
        2
176
     0
 62
     7
176
     0
 90
        5
176
     0
 90
        0
176
     0
 90
        0
176
     0
290
     0
176
     0
 90
        1
176
     0
 40
0.0
176
     0
 90
        0
176
     0
290
     0
176
     0
290
     1
176
     0
290
     1
176
     0
290
     0
176
     0
290
     0
176
     0
290
     0
176
     0
290
     0
176
     0
290
     0
176
     0
290
     0
176
     0
 90
       50
176
     0
 40
0.0
176
     0
 40
1.0
176
     0
 90
        0
176
     0
 62
    18
420
        0
176
     0
 90
       50
176
     0
 90
        3
176
     0
 62
     5
420
      255
176
     0
290
     0
176
     0
 90
       50
176
     0
 90
       50
176
     0
 90
       50
176
     0
290
     0
176
     0
 90
       50
176
     0
 62
   256
176
     0
 40
1.0
176
     0
 90
        2
176
     0
  1
strokes_ogs.tif
176
     0
290
     0
176
     0
 40
1.0
176
     0
 40
1.0
176
     0
1001
ACAD
1000
AcDbSavedByObjectVersion
1070
     0
  0
VISUALSTYLE
  5
1174A
102
{ACAD_REACTORS
330
1173B
102
}
330
1173B
100
AcDbVisualStyle
  2
Facepattern
 70
    15
177
     3
291
     1
 70
    58
 90
        2
176
     1
 90
        2
176
     1
 90
        0
176
     1
 90
        0
176
     1
 40
0.6
176
     1
 40
30.0
176
     1
 62
     7
176
     1
 90
        1
176
     1
 90
        4
176
     1
 62
     7
176
     1
 62
   257
176
     1
 90
        1
176
     1
 90
        1
176
     1
 40
1.0
176
     1
 90
        8
176
     1
 62
     7
176
     1
 40
1.0
176
     1
 90
        1
176
     1
 90
        6
176
     1
 90
        2
176
     1
 62
     7
176
     1
 90
        5
176
     1
 90
        0
176
     1
 90
        0
176
     1
290
     0
176
     1
 90
        1
176
     1
 40
0.0
176
     1
 90
        0
176
     1
290
     0
176
     1
290
     1
176
     1
290
     1
176
     1
290
     0
176
     1
290
     0
176
     1
290
     0
176
     1
290
     0
176
     1
290
     0
176
     1
290
     0
176
     1
 90
       50
176
     1
 40
0.0
176
     1
 40
1.0
176
     1
 90
        0
176
     1
 62
    18
420
        0
176
     1
 90
       50
176
     1
 90
        3
176
     1
 62
     5
420
      255
176
     1
290
     0
176
     1
 90
       50
176
     1
 90
       50
176
     1
 90
       50
176
     1
290
     0
176
     1
 90
       50
176
     1
 62
   256
176
     0
 40
1.0
176
     0
 90
        2
176
     1
  1
strokes_ogs.tif
176
     1
290
     0
176
     1
 40
1.0
176
     1
 40
1.0
176
     1
1001
ACAD
1000
AcRTDxfName
1000
VISUALSTYLE
1000
AcRTDxfName
1000
VISUALSTYLE
1000
AcRTDxfName
1000
VISUALSTYLE
1000
AcRTDxfName
1000
VISUALSTYLE
1000
AcDbSavedByObjectVersion
1070
     0
  0
VISUALSTYLE
  5
1173C
102
{ACAD_REACTORS
330
1173B
102
}
330
1173B
100
AcDbVisualStyle
  2
Flat
 70
     0
177
     3
291
     1
 70
    58
 90
        2
176
     1
 90
        1
176
     1
 90
        1
176
     1
 90
        2
176
     1
 40
0.6
176
     1
 40
30.0
176
     1
 62
     7
176
     1
 90
        0
176
     1
 90
        4
176
     1
 62
     7
176
     1
 62
   257
176
     1
 90
        1
176
     1
 90
        1
176
     1
 40
1.0
176
     1
 90
        8
176
     1
 62
     7
176
     1
 40
1.0
176
     1
 90
        1
176
     1
 90
        6
176
     1
 90
        2
176
     1
 62
     7
176
     1
 90
        5
176
     1
 90
        0
176
     1
 90
        0
176
     1
290
     0
176
     1
 90
       13
176
     1
 40
0.0
176
     1
 90
        0
176
     1
290
     0
176
     1
290
     1
176
     1
290
     1
176
     1
290
     0
176
     1
290
     0
176
     1
290
     0
176
     1
290
     0
176
     1
290
     0
176
     1
290
     0
176
     1
 90
       50
176
     1
 40
0.0
176
     1
 40
1.0
176
     1
 90
        0
176
     1
 62
    18
420
        0
176
     1
 90
       50
176
     1
 90
        3
176
     1
 62
     5
420
      255
176
     1
290
     0
176
     1
 90
       50
176
     1
 90
       50
176
     1
 90
       50
176
     1
290
     0
176
     1
 90
       50
176
     1
 62
   256
176
     0
 40
1.0
176
     0
 90
        2
176
     1
  1
strokes_ogs.tif
176
     1
290
     0
176
     1
 40
1.0
176
     1
 40
1.0
176
     1
1001
ACAD
1000
AcRTDxfName
1000
VISUALSTYLE
1000
AcRTDxfName
1000
VISUALSTYLE
1000
AcRTDxfName
1000
VISUALSTYLE
1000
AcRTDxfName
1000
VISUALSTYLE
1000
AcDbSavedByObjectVersion
1070
     0
  0
VISUALSTYLE
  5
1173D
102
{ACAD_REACTORS
330
1173B
102
}
330
1173B
100
AcDbVisualStyle
  2
FlatWithEdges
 70
     1
177
     3
291
     1
 70
    58
 90
        2
176
     1
 90
        1
176
     1
 90
        1
176
     1
 90
        2
176
     1
 40
0.6
176
     1
 40
30.0
176
     1
 62
     7
176
     1
 90
        1
176
     1
 90
        4
176
     1
 62
     7
176
     1
 62
   257
176
     1
 90
        1
176
     1
 90
        1
176
     1
 40
1.0
176
     1
 90
        0
176
     1
 62
   257
176
     1
 40
1.0
176
     1
 90
        1
176
     1
 90
        6
176
     1
 90
        2
176
     1
 62
     7
176
     1
 90
        5
176
     1
 90
        0
176
     1
 90
        0
176
     1
290
     0
176
     1
 90
       13
176
     1
 40
0.0
176
     1
 90
        0
176
     1
290
     0
176
     1
290
     1
176
     1
290
     1
176
     1
290
     0
176
     1
290
     0
176
     1
290
     0
176
     1
290
     0
176
     1
290
     0
176
     1
290
     0
176
     1
 90
       50
176
     1
 40
0.0
176
     1
 40
1.0
176
     1
 90
        0
176
     1
 62
    18
420
        0
176
     1
 90
       50
176
     1
 90
        3
176
     1
 62
     5
420
      255
176
     1
290
     0
176
     1
 90
       50
176
     1
 90
       50
176
     1
 90
       50
176
     1
290
     0
176
     1
 90
       50
176
     1
 62
   256
176
     0
 40
1.0
176
     0
 90
        2
176
     1
  1
strokes_ogs.tif
176
     1
290
     0
176
     1
 40
1.0
176
     1
 40
1.0
176
     1
1001
ACAD
1000
AcRTDxfName
1000
VISUALSTYLE
1000
AcRTDxfName
1000
VISUALSTYLE
1000
AcRTDxfName
1000
VISUALSTYLE
1000
AcRTDxfName
1000
VISUALSTYLE
1000
AcDbSavedByObjectVersion
1070
     0
  0
VISUALSTYLE
  5
1173E
102
{ACAD_REACTORS
330
1173B
102
}
330
1173B
100
AcDbVisualStyle
  2
Gouraud
 70
     2
177
     3
291
     1
 70
    58
 90
        2
176
     1
 90
        2
176
     1
 90
        1
176
     1
 90
        2
176
     1
 40
0.6
176
     1
 40
30.0
176
     1
 62
     7
176
     1
 90
        0
176
     1
 90
        4
176
     1
 62
     7
176
     1
 62
   257
176
     1
 90
        1
176
     1
 90
        1
176
     1
 40
1.0
176
     1
 90
        0
176
     1
 62
     7
176
     1
 40
1.0
176
     1
 90
        1
176
     1
 90
        6
176
     1
 90
        2
176
     1
 62
     7
176
     1
 90
        5
176
     1
 90
        0
176
     1
 90
        0
176
     1
290
     0
176
     1
 90
       13
176
     1
 40
0.0
176
     1
 90
        0
176
     1
290
     0
176
     1
290
     1
176
     1
290
     1
176
     1
290
     0
176
     1
290
     0
176
     1
290
     0
176
     1
290
     0
176
     1
290
     0
176
     1
290
     0
176
     1
 90
       50
176
     1
 40
0.0
176
     1
 40
1.0
176
     1
 90
        0
176
     1
 62
    18
420
        0
176
     1
 90
       50
176
     1
 90
        3
176
     1
 62
     5
420
      255
176
     1
290
     0
176
     1
 90
       50
176
     1
 90
       50
176
     1
 90
       50
176
     1
290
     0
176
     1
 90
       50
176
     1
 62
   256
176
     0
 40
1.0
176
     0
 90
        2
176
     1
  1
strokes_ogs.tif
176
     1
290
     0
176
     1
 40
1.0
176
     1
 40
1.0
176
     1
1001
ACAD
1000
AcRTDxfName
1000
VISUALSTYLE
1000
AcRTDxfName
1000
VISUALSTYLE
1000
AcRTDxfName
1000
VISUALSTYLE
1000
AcRTDxfName
1000
VISUALSTYLE
1000
AcDbSavedByObjectVersion
1070
     0
  0
VISUALSTYLE
  5
1173F
102
{ACAD_REACTORS
330
1173B
102
}
330
1173B
100
AcDbVisualStyle
  2
GouraudWithEdges
 70
     3
177
     3
291
     1
 70
    58
 90
        2
176
     1
 90
        2
176
     1
 90
        1
176
     1
 90
        2
176
     1
 40
0.6
176
     1
 40
30.0
176
     1
 62
     7
176
     1
 90
        1
176
     1
 90
        4
176
     1
 62
     7
176
     1
 62
   257
176
     1
 90
        1
176
     1
 90
        1
176
     1
 40
1.0
176
     1
 90
        0
176
     1
 62
   257
176
     1
 40
1.0
176
     1
 90
        1
176
     1
 90
        6
176
     1
 90
        2
176
     1
 62
     7
176
     1
 90
        5
176
     1
 90
        0
176
     1
 90
        0
176
     1
290
     0
176
     1
 90
       13
176
     1
 40
0.0
176
     1
 90
        0
176
     1
290
     0
176
     1
290
     1
176
     1
290
     1
176
     1
290
     0
176
     1
290
     0
176
     1
290
     0
176
     1
290
     0
176
     1
290
     0
176
     1
290
     0
176
     1
 90
       50
176
     1
 40
0.0
176
     1
 40
1.0
176
     1
 90
        0
176
     1
 62
    18
420
        0
176
     1
 90
       50
176
     1
 90
        3
176
     1
 62
     5
420
      255
176
     1
290
     0
176
     1
 90
       50
176
     1
 90
       50
176
     1
 90
       50
176
     1
290
     0
176
     1
 90
       50
176
     1
 62
   256
176
     0
 40
1.0
176
     0
 90
        2
176
     1
  1
strokes_ogs.tif
176
     1
290
     0
176
     1
 40
1.0
176
     1
 40
1.0
176
     1
1001
ACAD
1000
AcRTDxfName
1000
VISUALSTYLE
1000
AcRTDxfName
1000
VISUALSTYLE
1000
AcRTDxfName
1000
VISUALSTYLE
1000
AcRTDxfName
1000
VISUALSTYLE
1000
AcDbSavedByObjectVersion
1070
     0
  0
VISUALSTYLE
  5
12C54
102
{ACAD_REACTORS
330
1173B
102
}
330
1173B
100
AcDbVisualStyle
  2
Hidden
 70
     6
177
     3
291
     0
 70
    58
 90
        1
176
     1
 90
        2
176
     1
 90
        2
176
     1
 90
        0
176
     1
 40
0.6
176
     1
 40
30.0
176
     1
 62
     7
420
 16777215
176
     1
 90
        2
176
     1
 90
        2
176
     1
 62
     7
176
     1
 62
   257
176
     1
 90
        2
176
     1
 90
        1
176
     1
 40
40.0
176
     1
 90
        0
176
     1
 62
   257
176
     1
 40
1.0
176
     1
 90
        1
176
     1
 90
        6
176
     1
 90
        2
176
     1
 62
     7
176
     1
 90
        3
176
     1
 90
        0
176
     1
 90
        0
176
     1
290
     0
176
     1
 90
        1
176
     1
 40
0.0
176
     1
 90
        0
176
     1
290
     0
176
     1
290
     1
176
     1
290
     1
176
     1
290
     0
176
     1
290
     0
176
     1
290
     0
176
     1
290
     0
176
     1
290
     0
176
     1
290
     0
176
     1
 90
       50
176
     1
 40
0.0
176
     1
 40
1.0
176
     1
 90
        0
176
     1
 62
    18
420
        0
176
     1
 90
       50
176
     1
 90
        3
176
     1
 62
     5
420
      255
176
     1
290
     0
176
     1
 90
       50
176
     1
 90
       50
176
     1
 90
       50
176
     1
290
     0
176
     1
 90
       50
176
     1
 62
   256
176
     0
 40
1.0
176
     0
 90
        2
176
     1
  1
strokes_ogs.tif
176
     1
290
     0
176
     1
 40
1.0
176
     1
 40
1.0
176
     1
1001
ACAD
1000
AcDbSavedByObjectVersion
1070
     0
  0
VISUALSTYLE
  5
12C5A
102
{ACAD_REACTORS
330
1173B
102
}
330
1173B
100
AcDbVisualStyle
  2
JitterOff
 70
    20
177
     3
291
     1
 70
    58
 90
        2
176
     0
 90
        2
176
     0
 90
        0
176
     0
 90
        0
176
     0
 40
0.6
176
     0
 40
30.0
176
     0
 62
     7
420
 16777215
176
     0
 90
        1
176
     0
 90
        4
176
     0
 62
     7
176
     0
 62
   257
176
     0
 90
        1
176
     0
 90
        1
176
     0
 40
1.0
176
     0
 90
       10
176
     2
 62
     7
176
     0
 40
1.0
176
     0
 90
        1
176
     0
 90
        6
176
     0
 90
        2
176
     0
 62
     7
176
     0
 90
        5
176
     0
 90
        0
176
     0
 90
        0
176
     0
290
     0
176
     0
 90
        1
176
     0
 40
0.0
176
     0
 90
        0
176
     0
290
     0
176
     0
290
     1
176
     0
290
     1
176
     0
290
     0
176
     0
290
     0
176
     0
290
     0
176
     0
290
     0
176
     0
290
     0
176
     0
290
     0
176
     0
 90
       50
176
     0
 40
0.0
176
     0
 40
1.0
176
     0
 90
        0
176
     0
 62
    18
420
        0
176
     0
 90
       50
176
     0
 90
        3
176
     0
 62
     5
420
      255
176
     0
290
     0
176
     0
 90
       50
176
     0
 90
       50
176
     0
 90
       50
176
     0
290
     0
176
     0
 90
       50
176
     0
 62
   256
176
     0
 40
1.0
176
     0
 90
        2
176
     0
  1
strokes_ogs.tif
176
     0
290
     0
176
     0
 40
1.0
176
     0
 40
1.0
176
     0
1001
ACAD
1000
AcDbSavedByObjectVersion
1070
     0
  0
VISUALSTYLE
  5
11749
102
{ACAD_REACTORS
330
1173B
102
}
330
1173B
100
AcDbVisualStyle
  2
Linepattern
 70
    14
177
     3
291
     1
 70
    58
 90
        2
176
     1
 90
        2
176
     1
 90
        0
176
     1
 90
        0
176
     1
 40
0.6
176
     1
 40
30.0
176
     1
 62
     7
176
     1
 90
        1
176
     1
 90
        4
176
     1
 62
     7
176
     1
 62
   257
176
     1
 90
        7
176
     1
 90
        7
176
     1
 40
1.0
176
     1
 90
        8
176
     1
 62
     7
176
     1
 40
1.0
176
     1
 90
        1
176
     1
 90
        6
176
     1
 90
        2
176
     1
 62
     7
176
     1
 90
        5
176
     1
 90
        0
176
     1
 90
        0
176
     1
290
     0
176
     1
 90
        1
176
     1
 40
0.0
176
     1
 90
        0
176
     1
290
     0
176
     1
290
     1
176
     1
290
     1
176
     1
290
     0
176
     1
290
     0
176
     1
290
     0
176
     1
290
     0
176
     1
290
     0
176
     1
290
     0
176
     1
 90
       50
176
     1
 40
0.0
176
     1
 40
1.0
176
     1
 90
        0
176
     1
 62
    18
420
        0
176
     1
 90
       50
176
     1
 90
        3
176
     1
 62
     5
420
      255
176
     1
290
     0
176
     1
 90
       50
176
     1
 90
       50
176
     1
 90
       50
176
     1
290
     0
176
     1
 90
       50
176
     1
 62
   256
176
     0
 40
1.0
176
     0
 90
        2
176
     1
  1
strokes_ogs.tif
176
     1
290
     0
176
     1
 40
1.0
176
     1
 40
1.0
176
     1
1001
ACAD
1000
AcRTDxfName
1000
VISUALSTYLE
1000
AcRTDxfName
1000
VISUALSTYLE
1000
AcRTDxfName
1000
VISUALSTYLE
1000
AcRTDxfName
1000
VISUALSTYLE
1000
AcDbSavedByObjectVersion
1070
     0
  0
VISUALSTYLE
  5
12C5B
102
{ACAD_REACTORS
330
1173B
102
}
330
1173B
100
AcDbVisualStyle
  2
OverhangOff
 70
    21
177
     3
291
     1
 70
    58
 90
        2
176
     0
 90
        2
176
     0
 90
        0
176
     0
 90
        0
176
     0
 40
0.6
176
     0
 40
30.0
176
     0
 62
     7
420
 16777215
176
     0
 90
        1
176
     0
 90
        4
176
     0
 62
     7
176
     0
 62
   257
176
     0
 90
        1
176
     0
 90
        1
176
     0
 40
1.0
176
     0
 90
        9
176
     2
 62
     7
176
     0
 40
1.0
176
     0
 90
        1
176
     0
 90
        6
176
     0
 90
        2
176
     0
 62
     7
176
     0
 90
        5
176
     0
 90
        0
176
     0
 90
        0
176
     0
290
     0
176
     0
 90
        1
176
     0
 40
0.0
176
     0
 90
        0
176
     0
290
     0
176
     0
290
     1
176
     0
290
     1
176
     0
290
     0
176
     0
290
     0
176
     0
290
     0
176
     0
290
     0
176
     0
290
     0
176
     0
290
     0
176
     0
 90
       50
176
     0
 40
0.0
176
     0
 40
1.0
176
     0
 90
        0
176
     0
 62
    18
420
        0
176
     0
 90
       50
176
     0
 90
        3
176
     0
 62
     5
420
      255
176
     0
290
     0
176
     0
 90
       50
176
     0
 90
       50
176
     0
 90
       50
176
     0
290
     0
176
     0
 90
       50
176
     0
 62
   256
176
     0
 40
1.0
176
     0
 90
        2
176
     0
  1
strokes_ogs.tif
176
     0
290
     0
176
     0
 40
1.0
176
     0
 40
1.0
176
     0
1001
ACAD
1000
AcDbSavedByObjectVersion
1070
     0
  0
VISUALSTYLE
  5
11745
102
{ACAD_REACTORS
330
1173B
102
}
330
1173B
100
AcDbVisualStyle
  2
Realistic
 70
     8
177
     3
291
     0
 70
    58
 90
        2
176
     1
 90
        2
176
     1
 90
        0
176
     1
 90
        0
176
     1
 40
0.6
176
     1
 40
30.0
176
     1
 62
     7
176
     1
 90
        1
176
     1
 90
        0
176
     1
 62
     7
176
     1
 62
   257
176
     1
 90
        1
176
     1
 90
        1
176
     1
 40
1.0
176
     1
 90
        8
176
     1
 62
     8
176
     1
 40
1.0
176
     1
 90
        1
176
     1
 90
        6
176
     1
 90
        2
176
     1
 62
     7
176
     1
 90
        5
176
     1
 90
        0
176
     1
 90
        0
176
     1
290
     0
176
     1
 90
       13
176
     1
 40
0.0
176
     1
 90
        0
176
     1
290
     0
176
     1
290
     1
176
     1
290
     1
176
     1
290
     0
176
     1
290
     0
176
     1
290
     0
176
     1
290
     0
176
     1
290
     0
176
     1
290
     0
176
     1
 90
       50
176
     1
 40
0.0
176
     1
 40
1.0
176
     1
 90
        0
176
     1
 62
    18
420
        0
176
     1
 90
       50
176
     1
 90
        3
176
     1
 62
     5
420
      255
176
     1
290
     0
176
     1
 90
       50
176
     1
 90
       50
176
     1
 90
       50
176
     1
290
     0
176
     1
 90
       50
176
     1
 62
   256
176
     0
 40
1.0
176
     0
 90
        2
176
     1
  1
strokes_ogs.tif
176
     1
290
     0
176
     1
 40
1.0
176
     1
 40
1.0
176
     1
1001
ACAD
1000
AcRTDxfName
1000
VISUALSTYLE
1000
AcRTDxfName
1000
VISUALSTYLE
1000
AcRTDxfName
1000
VISUALSTYLE
1000
AcRTDxfName
1000
VISUALSTYLE
1000
AcDbSavedByObjectVersion
1070
     0
  0
VISUALSTYLE
  5
12C59
102
{ACAD_REACTORS
330
1173B
102
}
330
1173B
100
AcDbVisualStyle
  2
Shaded
 70
    27
177
     3
291
     0
 70
    58
 90
        2
176
     1
 90
        2
176
     1
 90
        1
176
     1
 90
        2
176
     1
 40
0.6
176
     1
 40
30.0
176
     1
 62
     7
420
 16777215
176
     1
 90
        0
176
     1
 90
        4
176
     1
 62
     7
176
     1
 62
   257
176
     1
 90
        1
176
     1
 90
        1
176
     1
 40
1.0
176
     1
 90
        8
176
     1
 62
   257
176
     1
 40
1.0
176
     1
 90
        1
176
     1
 90
        6
176
     1
 90
        2
176
     1
 62
     8
420
  7895160
176
     1
 90
        3
176
     1
 90
        0
176
     1
 90
        0
176
     1
290
     0
176
     1
 90
        5
176
     1
 40
0.0
176
     1
 90
        0
176
     1
290
     0
176
     1
290
     1
176
     1
290
     1
176
     1
290
     0
176
     1
290
     0
176
     1
290
     0
176
     1
290
     0
176
     1
290
     0
176
     1
290
     0
176
     1
 90
       50
176
     1
 40
0.0
176
     1
 40
1.0
176
     1
 90
        0
176
     1
 62
    18
420
        0
176
     1
 90
       50
176
     1
 90
        3
176
     1
 62
     5
420
      255
176
     1
290
     0
176
     1
 90
       50
176
     1
 90
       50
176
     1
 90
       50
176
     1
290
     0
176
     1
 90
       50
176
     1
 62
   256
176
     0
 40
1.0
176
     0
 90
        2
176
     1
  1
strokes_ogs.tif
176
     1
290
     0
176
     1
 40
1.0
176
     1
 40
1.0
176
     1
1001
ACAD
1000
AcDbSavedByObjectVersion
1070
     0
  0
VISUALSTYLE
  5
12C58
102
{ACAD_REACTORS
330
1173B
102
}
330
1173B
100
AcDbVisualStyle
  2
Shaded with edges
 70
    26
177
     3
291
     0
 70
    58
 90
        2
176
     1
 90
        2
176
     1
 90
        1
176
     1
 90
        2
176
     1
 40
0.6
176
     1
 40
30.0
176
     1
 62
     7
420
 16777215
176
     1
 90
        1
176
     1
 90
        2
176
     1
 62
     7
176
     1
 62
   257
176
     1
 90
        2
176
     1
 90
        1
176
     1
 40
1.0
176
     1
 90
        8
176
     1
 62
   257
176
     1
 40
1.0
176
     1
 90
        1
176
     1
 90
        6
176
     1
 90
        2
176
     1
 62
     7
176
     1
 90
        3
176
     1
 90
        0
176
     1
 90
        0
176
     1
290
     0
176
     1
 90
        5
176
     1
 40
0.0
176
     1
 90
        0
176
     1
290
     0
176
     1
290
     1
176
     1
290
     1
176
     1
290
     0
176
     1
290
     0
176
     1
290
     0
176
     1
290
     0
176
     1
290
     0
176
     1
290
     0
176
     1
 90
       50
176
     1
 40
0.0
176
     1
 40
1.0
176
     1
 90
        0
176
     1
 62
    18
420
        0
176
     1
 90
       50
176
     1
 90
        3
176
     1
 62
     5
420
      255
176
     1
290
     0
176
     1
 90
       50
176
     1
 90
       50
176
     1
 90
       50
176
     1
290
     0
176
     1
 90
       50
176
     1
 62
   256
176
     0
 40
1.0
176
     0
 90
        2
176
     1
  1
strokes_ogs.tif
176
     1
290
     0
176
     1
 40
1.0
176
     1
 40
1.0
176
     1
1001
ACAD
1000
AcDbSavedByObjectVersion
1070
     0
  0
VISUALSTYLE
  5
12C55
102
{ACAD_REACTORS
330
1173B
102
}
330
1173B
100
AcDbVisualStyle
  2
Shades of Gray
 70
    23
177
     3
291
     0
 70
    58
 90
        2
176
     1
 90
        2
176
     1
 90
        3
176
     1
 90
        0
176
     1
 40
0.6
176
     1
 40
30.0
176
     1
 62
     7
420
 16777215
176
     1
 90
        2
176
     1
 90
        2
176
     1
 62
     7
176
     1
 62
     7
176
     1
 90
        1
176
     1
 90
        1
176
     1
 40
40.0
176
     1
 90
        8
176
     1
 62
     7
176
     1
 40
1.0
176
     1
 90
        1
176
     1
 90
        6
176
     1
 90
        2
176
     1
 62
     7
176
     1
 90
        3
176
     1
 90
        0
176
     1
 90
        0
176
     1
290
     0
176
     1
 90
        1
176
     1
 40
0.0
176
     1
 90
        0
176
     1
290
     0
176
     1
290
     1
176
     1
290
     1
176
     1
290
     0
176
     1
290
     0
176
     1
290
     0
176
     1
290
     0
176
     1
290
     0
176
     1
290
     0
176
     1
 90
       50
176
     1
 40
0.0
176
     1
 40
1.0
176
     1
 90
        0
176
     1
 62
    18
420
        0
176
     1
 90
       50
176
     1
 90
        3
176
     1
 62
     5
420
      255
176
     1
290
     0
176
     1
 90
       50
176
     1
 90
       50
176
     1
 90
       50
176
     1
290
     0
176
     1
 90
       50
176
     1
 62
   256
176
     0
 40
1.0
176
     0
 90
        2
176
     1
  1
strokes_ogs.tif
176
     1
290
     0
176
     1
 40
1.0
176
     1
 40
1.0
176
     1
1001
ACAD
1000
AcDbSavedByObjectVersion
1070
     0
  0
VISUALSTYLE
  5
12C56
102
{ACAD_REACTORS
330
1173B
102
}
330
1173B
100
AcDbVisualStyle
  2
Sketchy
 70
    24
177
     3
291
     0
 70
    58
 90
        1
176
     1
 90
        2
176
     1
 90
        2
176
     1
 90
        0
176
     1
 40
0.6
176
     1
 40
30.0
176
     1
 62
     7
420
 16777215
176
     1
 90
        2
176
     1
 90
        2
176
     1
 62
     7
176
     1
 62
     7
176
     1
 90
        1
176
     1
 90
        1
176
     1
 40
40.0
176
     1
 90
       11
176
     1
 62
     7
176
     1
 40
1.0
176
     1
 90
        1
176
     1
 90
        6
176
     1
 90
        2
176
     1
 62
     7
176
     1
 90
        6
176
     1
 90
        0
176
     1
 90
        0
176
     1
290
     0
176
     1
 90
        1
176
     1
 40
0.0
176
     1
 90
        0
176
     1
290
     0
176
     1
290
     1
176
     1
290
     1
176
     1
290
     0
176
     1
290
     0
176
     1
290
     0
176
     1
290
     0
176
     1
290
     0
176
     1
290
     0
176
     1
 90
       50
176
     1
 40
0.0
176
     1
 40
1.0
176
     1
 90
        0
176
     1
 62
    18
420
        0
176
     1
 90
       50
176
     1
 90
        3
176
     1
 62
     5
420
      255
176
     1
290
     0
176
     1
 90
       50
176
     1
 90
       50
176
     1
 90
       50
176
     1
290
     0
176
     1
 90
       50
176
     1
 62
   256
176
     0
 40
1.0
176
     0
 90
        2
176
     1
  1
strokes_ogs.tif
176
     1
290
     0
176
     1
 40
1.0
176
     1
 40
1.0
176
     1
1001
ACAD
1000
AcDbSavedByObjectVersion
1070
     0
  0
VISUALSTYLE
  5
11748
102
{ACAD_REACTORS
330
1173B
102
}
330
1173B
100
AcDbVisualStyle
  2
Thicken
 70
    13
177
     3
291
     1
 70
    58
 90
        2
176
     1
 90
        2
176
     1
 90
        0
176
     1
 90
        0
176
     1
 40
0.6
176
     1
 40
30.0
176
     1
 62
     7
176
     1
 90
        1
176
     1
 90
        4
176
     1
 62
     7
176
     1
 62
   257
176
     1
 90
        1
176
     1
 90
        1
176
     1
 40
1.0
176
     1
 90
       12
176
     1
 62
     7
176
     1
 40
1.0
176
     1
 90
        1
176
     1
 90
        6
176
     1
 90
        2
176
     1
 62
     7
176
     1
 90
        5
176
     1
 90
        0
176
     1
 90
        0
176
     1
290
     0
176
     1
 90
        1
176
     1
 40
0.0
176
     1
 90
        0
176
     1
290
     0
176
     1
290
     1
176
     1
290
     1
176
     1
290
     0
176
     1
290
     0
176
     1
290
     0
176
     1
290
     0
176
     1
290
     0
176
     1
290
     0
176
     1
 90
       50
176
     1
 40
0.0
176
     1
 40
1.0
176
     1
 90
        0
176
     1
 62
    18
420
        0
176
     1
 90
       50
176
     1
 90
        3
176
     1
 62
     5
420
      255
176
     1
290
     0
176
     1
 90
       50
176
     1
 90
       50
176
     1
 90
       50
176
     1
290
     0
176
     1
 90
       50
176
     1
 62
   256
176
     0
 40
1.0
176
     0
 90
        2
176
     1
  1
strokes_ogs.tif
176
     1
290
     0
176
     1
 40
1.0
176
     1
 40
1.0
176
     1
1001
ACAD
1000
AcRTDxfName
1000
VISUALSTYLE
1000
AcRTDxfName
1000
VISUALSTYLE
1000
AcRTDxfName
1000
VISUALSTYLE
1000
AcRTDxfName
1000
VISUALSTYLE
1000
AcDbSavedByObjectVersion
1070
     0
  0
VISUALSTYLE
  5
12C53
102
{ACAD_REACTORS
330
1173B
102
}
330
1173B
100
AcDbVisualStyle
  2
Wireframe
 70
     5
177
     3
291
     0
 70
    58
 90
        0
176
     1
 90
        2
176
     1
 90
        0
176
     1
 90
        0
176
     1
 40
0.6
176
     1
 40
30.0
176
     1
 62
     7
420
 16777215
176
     1
 90
        1
176
     1
 90
        4
176
     1
 62
     7
176
     1
 62
   257
176
     1
 90
        1
176
     1
 90
        1
176
     1
 40
1.0
176
     1
 90
        0
176
     1
 62
   257
176
     1
 40
1.0
176
     1
 90
        1
176
     1
 90
        6
176
     1
 90
        2
176
     1
 62
     7
176
     1
 90
        3
176
     1
 90
        0
176
     1
 90
        0
176
     1
290
     0
176
     1
 90
        1
176
     1
 40
0.0
176
     1
 90
        0
176
     1
290
     0
176
     1
290
     1
176
     1
290
     1
176
     1
290
     0
176
     1
290
     0
176
     1
290
     0
176
     1
290
     0
176
     1
290
     0
176
     1
290
     0
176
     1
 90
       50
176
     1
 40
0.0
176
     1
 40
1.0
176
     1
 90
        0
176
     1
 62
    18
420
        0
176
     1
 90
       50
176
     1
 90
        3
176
     1
 62
     5
420
      255
176
     1
290
     0
176
     1
 90
       50
176
     1
 90
       50
176
     1
 90
       50
176
     1
290
     0
176
     1
 90
       50
176
     1
 62
   256
176
     0
 40
1.0
176
     0
 90
        2
176
     1
  1
strokes_ogs.tif
176
     1
290
     0
176
     1
 40
1.0
176
     1
 40
1.0
176
     1
1001
ACAD
1000
AcDbSavedByObjectVersion
1070
     0
  0
VISUALSTYLE
  5
12C57
102
{ACAD_REACTORS
330
1173B
102
}
330
1173B
100
AcDbVisualStyle
  2
X-Ray
 70
    25
177
     3
291
     0
 70
    58
 90
        2
176
     1
 90
        2
176
     1
 90
        1
176
     1
 90
        1
176
     1
 40
0.5
176
     1
 40
30.0
176
     1
 62
     7
420
 16777215
176
     1
 90
        1
176
     1
 90
        0
176
     1
 62
     7
176
     1
 62
   257
176
     1
 90
        1
176
     1
 90
        1
176
     1
 40
1.0
176
     1
 90
        8
176
     1
 62
     7
176
     1
 40
1.0
176
     1
 90
        1
176
     1
 90
        6
176
     1
 90
        2
176
     1
 62
     7
176
     1
 90
        3
176
     1
 90
        0
176
     1
 90
        0
176
     1
290
     0
176
     1
 90
       13
176
     1
 40
0.0
176
     1
 90
        0
176
     1
290
     0
176
     1
290
     1
176
     1
290
     1
176
     1
290
     0
176
     1
290
     0
176
     1
290
     0
176
     1
290
     0
176
     1
290
     0
176
     1
290
     0
176
     1
 90
       50
176
     1
 40
0.0
176
     1
 40
1.0
176
     1
 90
        0
176
     1
 62
    18
420
        0
176
     1
 90
       50
176
     1
 90
        3
176
     1
 62
     5
420
      255
176
     1
290
     0
176
     1
 90
       50
176
     1
 90
       50
176
     1
 90
       50
176
     1
290
     0
176
     1
 90
       50
176
     1
 62
   256
176
     0
 40
1.0
176
     0
 90
        2
176
     1
  1
strokes_ogs.tif
176
     1
290
     0
176
     1
 40
1.0
176
     1
 40
1.0
176
     1
1001
ACAD
1000
AcDbSavedByObjectVersion
1070
     0
  0
DICTIONARYVAR
  5
1187F
102
{ACAD_REACTORS
330
5E
102
}
330
5E
100
DictionaryVariables
280
     0
  1
1:1
  0
DICTIONARYVAR
  5
1187E
102
{ACAD_REACTORS
330
5E
102
}
330
5E
100
DictionaryVariables
280
     0
  1
STANDARD
  0
DICTIONARYVAR
  5
84
102
{ACAD_REACTORS
330
5E
102
}
330
5E
100
DictionaryVariables
280
     0
  1
STANDARD
  0
DICTIONARYVAR
  5
144E6
102
{ACAD_REACTORS
330
5E
102
}
330
5E
100
DictionaryVariables
280
     0
  1
Metric50
  0
DICTIONARYVAR
  5
144E7
102
{ACAD_REACTORS
330
5E
102
}
330
5E
100
DictionaryVariables
280
     0
  1
Metric50
  0
DICTIONARYVAR
  5
5F
102
{ACAD_REACTORS
330
5E
102
}
330
5E
100
DictionaryVariables
280
     0
  1
2
  0
DICTIONARYVAR
  5
63
102
{ACAD_REACTORS
330
5E
102
}
330
5E
100
DictionaryVariables
280
     0
  1
1
  0
DICTIONARYVAR
  5
11881
102
{ACAD_REACTORS
330
5E
102
}
330
5E
100
DictionaryVariables
280
     0
  1
0
  0
DICTIONARYVAR
  5
144EA
102
{ACAD_REACTORS
330
5E
102
}
330
5E
100
DictionaryVariables
280
     0
  1
1
  0
DICTIONARYVAR
  5
144EB
102
{ACAD_REACTORS
330
5E
102
}
330
5E
100
DictionaryVariables
280
     0
  1
15
  0
DICTIONARYVAR
  5
144E9
102
{ACAD_REACTORS
330
5E
102
}
330
5E
100
DictionaryVariables
280
     0
  1
0
  0
DICTIONARYVAR
  5
144E8
102
{ACAD_REACTORS
330
5E
102
}
330
5E
100
DictionaryVariables
280
     0
  1
0
  0
DICTIONARYVAR
  5
11F99
102
{ACAD_REACTORS
330
5E
102
}
330
5E
100
DictionaryVariables
280
     0
  1

  0
DICTIONARYVAR
  5
11880
102
{ACAD_REACTORS
330
5E
102
}
330
5E
100
DictionaryVariables
280
     0
  1
127
  0
DICTIONARY
  5
14760
102
{ACAD_REACTORS
330
1475E
102
}
330
1475E
100
AcDbDictionary
281
     1
  0
DICTIONARY
  5
1475F
102
{ACAD_REACTORS
330
1475E
102
}
330
1475E
100
AcDbDictionary
281
     1
  3
2505087840528
350
14759
  3
2505087840544
350
1475A
  3
2505087840560
350
1475B
  3
2505087840576
350
1475C
  3
2505087840592
350
1475D
  0
DICTIONARY
  5
14763
330
12C60
100
AcDbDictionary
280
     1
281
     1
  3
ACAD_XREC_ROUNDTRIP
360
14764
  0
DICTIONARY
  5
79B
330
78E
100
AcDbDictionary
280
     1
281
     1
  0
DICTIONARY
  5
1172C
330
1172B
100
AcDbDictionary
280
     1
281
     1
  3
BUMPTILE
360
1172E
  3
DIFFUSETILE
360
1172D
  3
OPACITYTILE
360
11731
  3
REFLECTIONTILE
360
11730
  3
REFRACTIONTILE
360
11732
  3
SPECULARTILE
360
1172F
  0
DICTIONARY
  5
11724
330
11723
100
AcDbDictionary
280
     1
281
     1
  3
BUMPTILE
360
11726
  3
DIFFUSETILE
360
11725
  3
OPACITYTILE
360
11729
  3
REFLECTIONTILE
360
11728
  3
REFRACTIONTILE
360
1172A
  3
SPECULARTILE
360
11727
  0
DICTIONARY
  5
11734
330
11733
100
AcDbDictionary
280
     1
281
     1
  3
BUMPTILE
360
11736
  3
DIFFUSETILE
360
11735
  3
OPACITYTILE
360
11739
  3
REFLECTIONTILE
360
11738
  3
REFRACTIONTILE
360
1173A
  3
SPECULARTILE
360
11737
  0
DICTIONARY
  5
14761
330
12C5E
100
AcDbDictionary
280
     1
281
     1
  3
ACAD_XREC_ROUNDTRIP
360
14762
  0
DICTIONARY
  5
1186B
330
7F
100
AcDbDictionary
280
     1
281
     1
  3
ACAD_ROUNDTRIP_2008_TABLESTYLE_CELLSTYLEMAP
360
14757
  0
XRECORD
  5
14759
102
{ACAD_REACTORS
330
1475F
102
}
330
1475F
100
AcDbXrecord
280
     1
  1
AcDb_Thumbnail_Schema
102
{ATTRRECORD
341
1475A
  2
AcDbDs::TreatedAsObjectData
280
     1
291
     1
102
ATTRRECORD}
102
{ATTRRECORD
341
1475B
  2
AcDbDs::Legacy
280
     1
291
     1
102
ATTRRECORD}
  2
AcDbDs::ID
280
    10
 91
        8
102
{ATTRRECORD
341
1475C
  2
AcDs:Indexable
280
     1
291
     1
102
ATTRRECORD}
102
{ATTRRECORD
341
1475D
  2
AcDbDs::HandleAttribute
280
     7
282
     1
102
ATTRRECORD}
  2
Thumbnail_Data
280
    15
 91
        0
  0
XRECORD
  5
1475A
102
{ACAD_REACTORS
330
1475F
102
}
330
1475F
100
AcDbXrecord
280
     1
  1
AcDbDs::TreatedAsObjectDataSchema
  2
AcDbDs::TreatedAsObjectData
280
     1
 91
        0
  0
XRECORD
  5
1475B
102
{ACAD_REACTORS
330
1475F
102
}
330
1475F
100
AcDbXrecord
280
     1
  1
AcDbDs::LegacySchema
  2
AcDbDs::Legacy
280
     1
 91
        0
  0
XRECORD
  5
1475C
102
{ACAD_REACTORS
330
1475F
102
}
330
1475F
100
AcDbXrecord
280
     1
  1
AcDbDs::IndexedPropertySchema
  2
AcDs:Indexable
280
     1
 91
        0
  0
XRECORD
  5
1475D
102
{ACAD_REACTORS
330
1475F
102
}
330
1475F
100
AcDbXrecord
280
     1
  1
AcDbDs::HandleAttributeSchema
  2
AcDbDs::HandleAttribute
280
     7
 91
        1
284
     1
  0
XRECORD
  5
14764
102
{ACAD_REACTORS
330
14763
102
}
330
14763
100
AcDbXrecord
280
     1
102
DISPLAYNAME
  1
Metric50
102
FLAGS
 90
        0
  0
XRECORD
  5
1172E
102
{ACAD_REACTORS
330
1172C
102
}
330
1172C
100
AcDbXrecord
280
     1
270
     1
271
     1
  0
XRECORD
  5
1172D
102
{ACAD_REACTORS
330
1172C
102
}
330
1172C
100
AcDbXrecord
280
     1
270
     1
271
     1
  0
XRECORD
  5
11731
102
{ACAD_REACTORS
330
1172C
102
}
330
1172C
100
AcDbXrecord
280
     1
270
     1
271
     1
  0
XRECORD
  5
11730
102
{ACAD_REACTORS
330
1172C
102
}
330
1172C
100
AcDbXrecord
280
     1
270
     1
271
     1
  0
XRECORD
  5
11732
102
{ACAD_REACTORS
330
1172C
102
}
330
1172C
100
AcDbXrecord
280
     1
270
     1
271
     1
  0
XRECORD
  5
1172F
102
{ACAD_REACTORS
330
1172C
102
}
330
1172C
100
AcDbXrecord
280
     1
270
     1
271
     1
  0
XRECORD
  5
11726
102
{ACAD_REACTORS
330
11724
102
}
330
11724
100
AcDbXrecord
280
     1
270
     1
271
     1
  0
XRECORD
  5
11725
102
{ACAD_REACTORS
330
11724
102
}
330
11724
100
AcDbXrecord
280
     1
270
     1
271
     1
  0
XRECORD
  5
11729
102
{ACAD_REACTORS
330
11724
102
}
330
11724
100
AcDbXrecord
280
     1
270
     1
271
     1
  0
XRECORD
  5
11728
102
{ACAD_REACTORS
330
11724
102
}
330
11724
100
AcDbXrecord
280
     1
270
     1
271
     1
  0
XRECORD
  5
1172A
102
{ACAD_REACTORS
330
11724
102
}
330
11724
100
AcDbXrecord
280
     1
270
     1
271
     1
  0
XRECORD
  5
11727
102
{ACAD_REACTORS
330
11724
102
}
330
11724
100
AcDbXrecord
280
     1
270
     1
271
     1
  0
XRECORD
  5
11736
102
{ACAD_REACTORS
330
11734
102
}
330
11734
100
AcDbXrecord
280
     1
270
     1
271
     1
  0
XRECORD
  5
11735
102
{ACAD_REACTORS
330
11734
102
}
330
11734
100
AcDbXrecord
280
     1
270
     1
271
     1
  0
XRECORD
  5
11739
102
{ACAD_REACTORS
330
11734
102
}
330
11734
100
AcDbXrecord
280
     1
270
     1
271
     1
  0
XRECORD
  5
11738
102
{ACAD_REACTORS
330
11734
102
}
330
11734
100
AcDbXrecord
280
     1
270
     1
271
     1
  0
XRECORD
  5
1173A
102
{ACAD_REACTORS
330
11734
102
}
330
11734
100
AcDbXrecord
280
     1
270
     1
271
     1
  0
XRECORD
  5
11737
102
{ACAD_REACTORS
330
11734
102
}
330
11734
100
AcDbXrecord
280
     1
270
     1
271
     1
  0
XRECORD
  5
14762
102
{ACAD_REACTORS
330
14761
102
}
330
14761
100
AcDbXrecord
280
     1
102
DISPLAYNAME
  1
Metric50
102
FLAGS
 90
        0
  0
CELLSTYLEMAP
  5
14757
102
{ACAD_REACTORS
330
1186B
102
}
330
1186B
100
AcDbCellStyleMap
 90
        3
300
CELLSTYLE
  1
TABLEFORMAT_BEGIN
 90
        5
170
     1
 91
        0
 92
    32768
 62
   257
 93
        1
300
CONTENTFORMAT
  1
CONTENTFORMAT_BEGIN
 90
        0
 91
        0
 92
        4
 93
        0
300

 40
0.0
140
1.0
 94
        5
 62
     0
340
11
144
6.0
309
CONTENTFORMAT_END
171
     1
301
MARGIN
  1
CELLMARGIN_BEGIN
 40
1.5
 40
1.5
 40
1.5
 40
1.5
 40
0.18
 40
0.18
309
CELLMARGIN_END
 94
        6
 95
        1
302
GRIDFORMAT
  1
GRIDFORMAT_BEGIN
 90
        0
 91
        1
 62
     0
 92
       -2
340
0
 93
        0
 40
0.045
309
GRIDFORMAT_END
 95
        2
302
GRIDFORMAT
  1
GRIDFORMAT_BEGIN
 90
        0
 91
        1
 62
     0
 92
       -2
340
0
 93
        0
 40
0.045
309
GRIDFORMAT_END
 95
        4
302
GRIDFORMAT
  1
GRIDFORMAT_BEGIN
 90
        0
 91
        1
 62
     0
 92
       -2
340
0
 93
        0
 40
0.045
309
GRIDFORMAT_END
 95
        8
302
GRIDFORMAT
  1
GRIDFORMAT_BEGIN
 90
        0
 91
        1
 62
     0
 92
       -2
340
0
 93
        0
 40
0.045
309
GRIDFORMAT_END
 95
       16
302
GRIDFORMAT
  1
GRIDFORMAT_BEGIN
 90
        0
 91
        1
 62
     0
 92
       -2
340
0
 93
        0
 40
0.045
309
GRIDFORMAT_END
 95
       32
302
GRIDFORMAT
  1
GRIDFORMAT_BEGIN
 90
        0
 91
        1
 62
     0
 92
       -2
340
0
 93
        0
 40
0.045
309
GRIDFORMAT_END
309
TABLEFORMAT_END
  1
CELLSTYLE_BEGIN
 90
        1
 91
        1
300
_TITLE
309
CELLSTYLE_END
300
CELLSTYLE
  1
TABLEFORMAT_BEGIN
 90
        5
170
     1
 91
        0
 92
        0
 62
   257
 93
        1
300
CONTENTFORMAT
  1
CONTENTFORMAT_BEGIN
 90
        0
 91
        0
 92
        4
 93
        0
300

 40
0.0
140
1.0
 94
        5
 62
     0
340
11
144
4.5
309
CONTENTFORMAT_END
171
     1
301
MARGIN
  1
CELLMARGIN_BEGIN
 40
1.5
 40
1.5
 40
1.5
 40
1.5
 40
0.18
 40
0.18
309
CELLMARGIN_END
 94
        6
 95
        1
302
GRIDFORMAT
  1
GRIDFORMAT_BEGIN
 90
        0
 91
        1
 62
     0
 92
       -2
340
0
 93
        0
 40
0.045
309
GRIDFORMAT_END
 95
        2
302
GRIDFORMAT
  1
GRIDFORMAT_BEGIN
 90
        0
 91
        1
 62
     0
 92
       -2
340
0
 93
        0
 40
0.045
309
GRIDFORMAT_END
 95
        4
302
GRIDFORMAT
  1
GRIDFORMAT_BEGIN
 90
        0
 91
        1
 62
     0
 92
       -2
340
0
 93
        0
 40
0.045
309
GRIDFORMAT_END
 95
        8
302
GRIDFORMAT
  1
GRIDFORMAT_BEGIN
 90
        0
 91
        1
 62
     0
 92
       -2
340
0
 93
        0
 40
0.045
309
GRIDFORMAT_END
 95
       16
302
GRIDFORMAT
  1
GRIDFORMAT_BEGIN
 90
        0
 91
        1
 62
     0
 92
       -2
340
0
 93
        0
 40
0.045
309
GRIDFORMAT_END
 95
       32
302
GRIDFORMAT
  1
GRIDFORMAT_BEGIN
 90
        0
 91
        1
 62
     0
 92
       -2
340
0
 93
        0
 40
0.045
309
GRIDFORMAT_END
309
TABLEFORMAT_END
  1
CELLSTYLE_BEGIN
 90
        2
 91
        1
300
_HEADER
309
CELLSTYLE_END
300
CELLSTYLE
  1
TABLEFORMAT_BEGIN
 90
        5
170
     1
 91
        0
 92
        0
 62
   257
 93
        1
300
CONTENTFORMAT
  1
CONTENTFORMAT_BEGIN
 90
        0
 91
        0
 92
        4
 93
        0
300

 40
0.0
140
1.0
 94
        2
 62
     0
340
11
144
4.5
309
CONTENTFORMAT_END
171
     1
301
MARGIN
  1
CELLMARGIN_BEGIN
 40
1.5
 40
1.5
 40
1.5
 40
1.5
 40
0.18
 40
0.18
309
CELLMARGIN_END
 94
        6
 95
        1
302
GRIDFORMAT
  1
GRIDFORMAT_BEGIN
 90
        0
 91
        1
 62
     0
 92
       -2
340
0
 93
        0
 40
0.045
309
GRIDFORMAT_END
 95
        2
302
GRIDFORMAT
  1
GRIDFORMAT_BEGIN
 90
        0
 91
        1
 62
     0
 92
       -2
340
0
 93
        0
 40
0.045
309
GRIDFORMAT_END
 95
        4
302
GRIDFORMAT
  1
GRIDFORMAT_BEGIN
 90
        0
 91
        1
 62
     0
 92
       -2
340
0
 93
        0
 40
0.045
309
GRIDFORMAT_END
 95
        8
302
GRIDFORMAT
  1
GRIDFORMAT_BEGIN
 90
        0
 91
        1
 62
     0
 92
       -2
340
0
 93
        0
 40
0.045
309
GRIDFORMAT_END
 95
       16
302
GRIDFORMAT
  1
GRIDFORMAT_BEGIN
 90
        0
 91
        1
 62
     0
 92
       -2
340
0
 93
        0
 40
0.045
309
GRIDFORMAT_END
 95
       32
302
GRIDFORMAT
  1
GRIDFORMAT_BEGIN
 90
        0
 91
        1
 62
     0
 92
       -2
340
0
 93
        0
 40
0.045
309
GRIDFORMAT_END
309
TABLEFORMAT_END
  1
CELLSTYLE_BEGIN
 90
        3
 91
        2
300
_DATA
309
CELLSTYLE_END
  0
ENDSEC
  0
SECTION
  2
ACDSDATA
 70
     2
 71
     8
  0
ACDSSCHEMA
 90
        0
  1
AcDb_Thumbnail_Schema
  2
AcDbDs::ID
280
    10
 91
        8
  2
Thumbnail_Data
280
    15
 91
        0
101
ACDSRECORD
 95
        0
 90
        1
  2
AcDbDs::TreatedAsObjectData
280
     1
291
     1
101
ACDSRECORD
 95
        0
 90
        2
  2
AcDbDs::Legacy
280
     1
291
     1
101
ACDSRECORD
  1
AcDbDs::ID
 90
        3
  2
AcDs:Indexable
280
     1
291
     1
101
ACDSRECORD
  1
AcDbDs::ID
 90
        4
  2
AcDbDs::HandleAttribute
280
     7
282
     1
  0
ACDSSCHEMA
 90
        1
  1
AcDbDs::TreatedAsObjectDataSchema
  2
AcDbDs::TreatedAsObjectData
280
     1
 91
        0
  0
ACDSSCHEMA
 90
        2
  1
AcDbDs::LegacySchema
  2
AcDbDs::Legacy
280
     1
 91
        0
  0
ACDSSCHEMA
 90
        3
  1
AcDbDs::IndexedPropertySchema
  2
AcDs:Indexable
280
     1
 91
        0
  0
ACDSSCHEMA
 90
        4
  1
AcDbDs::HandleAttributeSchema
  2
AcDbDs::HandleAttribute
280
     7
 91
        1
284
     1
  0
ACDSRECORD
 90
        0
  2
AcDbDs::ID
280
    10
320
22
  2
Thumbnail_Data
280
    15
 94
     2238
310
89504E470D0A1A0A0000000D4948445200000100000000870803000000CE6E778000000300504C5445000000FFFFFF0000000000000000000000000000000000000000000000000000000000330000660000990000CC0000FF0033000033330033660033990033CC0033FF0066000066330066660066990066CC0066FF0099
310
000099330099660099990099CC0099FF00CC0000CC3300CC6600CC9900CCCC00CCFF00FF0000FF3300FF6600FF9900FFCC00FFFF3300003300333300663300993300CC3300FF3333003333333333663333993333CC3333FF3366003366333366663366993366CC3366FF3399003399333399663399993399CC3399FF33CC00
310
33CC3333CC6633CC9933CCCC33CCFF33FF0033FF3333FF6633FF9933FFCC33FFFF6600006600336600666600996600CC6600FF6633006633336633666633996633CC6633FF6666006666336666666666996666CC6666FF6699006699336699666699996699CC6699FF66CC0066CC3366CC6666CC9966CCCC66CCFF66FF0066
310
FF3366FF6666FF9966FFCC66FFFF9900009900339900669900999900CC9900FF9933009933339933669933999933CC9933FF9966009966339966669966999966CC9966FF9999009999339999669999999999CC9999FF99CC0099CC3399CC6699CC9999CCCC99CCFF99FF0099FF3399FF6699FF9999FFCC99FFFFCC0000CC00
310
33CC0066CC0099CC00CCCC00FFCC3300CC3333CC3366CC3399CC33CCCC33FFCC6600CC6633CC6666CC6699CC66CCCC66FFCC9900CC9933CC9966CC9999CC99CCCC99FFCCCC00CCCC33CCCC66CCCC99CCCCCCCCCCFFCCFF00CCFF33CCFF66CCFF99CCFFCCCCFFFFFF0000FF0033FF0066FF0099FF00CCFF00FFFF3300FF3333
310
FF3366FF3399FF33CCFF33FFFF6600FF6633FF6666FF6699FF66CCFF66FFFF9900FF9933FF9966FF9999FF99CCFF99FFFFCC00FFCC33FFCC66FFCC99FFCCCCFFCCFFFFFF00FFFF33FFFF66FFFF99FFFFCCFFFFFF0000000D0D0D1A1A1A2828283535354343435050505D5D5D6B6B6B787878868686939393A1A1A1AEAEAEBB
310
BBBBC9C9C9D6D6D6E4E4E4F1F1F1FFFFFF0000000000000000000000000000000000000000000000000000000000003AE5ACE9000005664944415478DAED9D5BD6A3200C80B321F6FFC64BB7916DF0FE8B5C8C102EB6F62F419899530E8A533E931012A500AB348A115DEE0020FAEE2D00B75C43AEFCDF0540ECED5F001680
310
C1002022D8BFB6B27DCE08005B00DCD0B14500C502B8AB4C2101A56114C6475BA700C0DFC8E21D3EB52E15902E01D1D485163C23EA3E5D9E04A49200BD00E80194AC02BCAD4368DA3D6C9AC9F1015C55EA6F5A81DFAA40A767539E28A5DB80EF03680ACAE400DAAA3237007CBA0A3C1D00EA0101EC0A695E46FB3FE1C39517
310
1BB6C35089A7BBCA2BD36FDF9074AB45BEFF1FC07EBA2901D05C895C12006E5CB92365942DA840AB508603C05E823F503EE49B7200BEBE8D5B912B0C0E606F2C87AE0D63286A00B41DBFBDF35A0C003F7CE6DAB495AA7D0D006E23DFC6AFBDF80C064097CC730100E3D9B8CBE812006B3A2C00E3CE1907007E0800AA00F090
310
003B72A5B43794C300F0DFBC382DB5258056521540A446D0EC12309811FC0200E2079C01001CB3DF60003431F0C98C9F36D83615DB889F83C1626600F431FBC7A2679180B3F32B5002E0361560A7C1F16DC007D3A033FD0847BD360D8E3A0BBC0F803A00A122D10F78D71334908E7F3786654FD00CED095E5F0B6CA3CD0D41
310
752D00D2D602F5D52072FF417D35A8865E0D960A1F0FA83EE1578A07A841E301DE93E1032266F37AD2425AD280483D2244634A83C504BF5CE270753B3A3A370078380026EB3C1880E349A82B69CE66729426DF870680F04E9EB79D1DBE9244FEB9047C4A40B60D40F8AF4E520054F202F17CE1009CA3B2F96649EEAAAB5817
310
E7E8B45D4322007FA355722F9DD7CABBC2CE9B451A11D87D7D231900281316387EEDA29C58304B1E0A00492FD100AC2B0FF6DF5E394504F2B5C0A13F9B06D85EDA75170B40DB38C53632D78F04FD1A31C178BAB1D13E1FED112901614DA743A50B00EDE02AF224204685F7B0958AF1AB6E09D8A3BD217A224F0562526F5FA9
310
FAA81D59B6360068375F848A4015C812232A0B8BE6D74EA77B55779B0400D046150A9F1A2B16B12A60D4150980920448F404F198069D397BC308AA50113E0D1E6ED093A641EA08C1DB8E907215C112E06EBD0E32D03D0D260E94E8C510D165A8AE0508148C2643895F0CC1E101E92BCBE1D0CB3EF4217C399C1C70009824D6
310
91DE3A85009554006CEAAA9E1A2331D0DB77FF18ECE569ACB7A641607C1C007838005800260450787394667D3A4E970D000B00B0FF7469009EFEFAFC40650158001680113752228FCE3C0FC0ED867E01583660019004E00DB1C7A900BCF0EA80501080735C4B67B1ADADF262AF1E0EE73D3F3494FF9E1AB32787C7F88F4F93
310
8E900FFD99F0CAA13E408038003AE6F563963FA6C6ECB610494C1CC9D1A3A7F1671B2D500294F6B1EF9010EA978090450C4C5C72481E00A80078A546E3943AD4300300950050FD00E00C0016006100F01B00041941BC2C015B871600142401E82520F1036A004E4F8919D68542610074198066FC807D038568F319008833DB
310
0080B60AE0CCB3400780B9A7C105E00D0018E79B3C6690A9CB4C0010D99C5B8832437CE364B6C5109E01C0A584E268CB61BE9496C3616FA1228078D78B104608885009502A530145B703AA05443A6E7E4EE02721B1F0047C0411859CDDFCC0205581140026FB7493BB7FB67CC8BC55FE9BA02866F100FAD55EA95547FA9094
310
E67AF200FAD6083F01900F2DD93FFE346161BE5D5C3CEAF7D53903487E9DA1EE28FE1200F34301F46B933DF82169445AA17EF6F507497E02A0F815EB36AB65CFE400A80B45AE1E9C36300D9559602C00CD80412ADCC9084A83AA38424200747A6FDD89F360294733825DDA517A4EF0EE329E0A7CE7714039003AADE6AC00FE
310
BF2C000BC002B0002C000BC002B0002C000BC002F0E9659EFEEBF372CB0270C735441758A551FE009B0A7CC9F05CB7230000000049454E44AE4260825B7B703CF9436E0000000049454E44AE426082
  0
ACDSRECORD
 90
        0
  2
AcDbDs::ID
280
    10
320
78E
  2
Thumbnail_Data
280
    15
 94
     2998
310
89504E470D0A1A0A0000000D4948445200000100000000B5080300000087DCD12600000300504C54450D0D0DFFFFFF0D0D0D0000000000000000000000000000000000000000000000000000330000660000990000CC0000FF0033000033330033660033990033CC0033FF0066000066330066660066990066CC0066FF0099
310
000099330099660099990099CC0099FF00CC0000CC3300CC6600CC9900CCCC00CCFF00FF0000FF3300FF6600FF9900FFCC00FFFF3300003300333300663300993300CC3300FF3333003333333333663333993333CC3333FF3366003366333366663366993366CC3366FF3399003399333399663399993399CC3399FF33CC00
310
33CC3333CC6633CC9933CCCC33CCFF33FF0033FF3333FF6633FF9933FFCC33FFFF6600006600336600666600996600CC6600FF6633006633336633666633996633CC6633FF6666006666336666666666996666CC6666FF6699006699336699666699996699CC6699FF66CC0066CC3366CC6666CC9966CCCC66CCFF66FF0066
310
FF3366FF6666FF9966FFCC66FFFF9900009900339900669900999900CC9900FF9933009933339933669933999933CC9933FF9966009966339966669966999966CC9966FF9999009999339999669999999999CC9999FF99CC0099CC3399CC6699CC9999CCCC99CCFF99FF0099FF3399FF6699FF9999FFCC99FFFFCC0000CC00
310
33CC0066CC0099CC00CCCC00FFCC3300CC3333CC3366CC3399CC33CCCC33FFCC6600CC6633CC6666CC6699CC66CCCC66FFCC9900CC9933CC9966CC9999CC99CCCC99FFCCCC00CCCC33CCCC66CCCC99CCCCCCCCCCFFCCFF00CCFF33CCFF66CCFF99CCFFCCCCFFFFFF0000FF0033FF0066FF0099FF00CCFF00FFFF3300FF3333
310
FF3366FF3399FF33CCFF33FFFF6600FF6633FF6666FF6699FF66CCFF66FFFF9900FF9933FF9966FF9999FF99CCFF99FFFFCC00FFCC33FFCC66FFCC99FFCCCCFFCCFFFFFF00FFFF33FFFF66FFFF99FFFFCCFFFFFF0000000D0D0D1A1A1A2828283535354343435050505D5D5D6B6B6B787878868686939393A1A1A1AEAEAEBB
310
BBBBC9C9C9D6D6D6E4E4E4F1F1F1FFFFFF000000000000000000000000000000000000000000000000000000000000D3F30D92000007E14944415478DAED9D4BB6A4200C40B321F63F63E236B2815E00F3AEA70801C24F5141E1BCAEB64AE5C835092144847F1F2F3001C087CB04B001501F2D04C017EFFE0430018400F043
310
8507F09DFB7F3F005C250C7A417D3B0047FAB6CF7700286DC97ADCF66FC7D0B2FA47015C6DAD3A0770BDAC8E05207BC73023508303C8C86C4EA899BD3896110C5AE0FEE003C082D3A7111C4505681F4F2E1B195AF1D35347F42A01AEFCEA0FA80600D44FAA30AABD3942A1169FB2A1BDABC0691D7ECC0AB492805562EB3A76
310
EF3A72675F240257D880438E4FF6EC818CE0F3002AD4E6A512504EE0F512F04900F8751BF0750075D6A2210009CC9F298B2ABE68A6A20A0028EF05B01B9B4549C5FC99B2282562937362DD6D0A53D112B92663EBCCC9E8CFFB5D0E60FB4FE5010811AB43881C00B5F0567DFFFEAB5C17B49B7FE53E002AA602BAD245A68AD2
310
72AB222AA0F66A90571D73A751006DB5BA1340A4A8FD80C42166978A56520600C1697F1700F42E95B601598A2500245A00B21F00DB4EA520D33C5AC5AEEE580560ED8AFE00C8FD97FB00FCF418920832005C05095C59537D1C80B6261B806DB31B09D007E4053C0C2C5649C09FA0AD00547712700C40950480BEF14298FB3F
310
AC0484D1D242234824E02D00F4B63E02B37E80318237758346465B026002E6DB114CB0B81700D2EBD9195F4FEDCAC9EC13F404CFBF47ED1ECB38803FC5E74BCE32DD2A0171C7FC07C03380BC8C305388E19DBED913C44B6C400440383FF23C80CB8D60DD58E0761BD01880E700578F051EEC069B3842BEFBB3FB83A58E9022
310
8ED0889E20DFFEF56BF158404B406F6301553218523E0132242A1E0B3C361A4C0150AA4802FE9A79321E407A817E5C6113ECC83CB4003A71F95444E8D16EB08B98E083003251612592516195890AC700045161AFDC362F9007908E09AAA361717F5EC02DF74D8FF3924BF6A66786547945293924E6AFB0256F79606202A8FC
310
7D0298002E04A01345E16C7A1FBA49B75808A02EC1F60200AD121CABEA399C5C79910434C9F0AC690DBF0F9F91808BD5BAB5F198001A03C0464DBFA9276A39166073740E8C05B6CA901930F709C00EC792A7AA748E906FB9D03B00BA07A02002C04ED2C48B4D71422E302C408D00E0D754897634223D00A916040090562460
310
100020B6F1371B8FCC87C4689F8EB68A95DC1800E43A85493FDDD060E1CC90C4F564493E0700B0C5E17F8640EEF332CA1D99574C8D912AF6EAB2D30E3D4880722EDDC6E6AB01902A84DE1E400542F977B5A0108023F9F4730015D86D9F9E9D843312E05734840AD8DE4F081944E7EA6C80EEFDCC76B72A60334484EBB9309E
310
604D9A9C5F89E81D8054CB2292259323943E592C5EA7DA8F0A64A7662C81548E50B6F4AF02EA521518C511DAAD567323388A23A4FB30D1A41B14647B2C47487CD71192AB416BE70A8B7D7B1447281C0E341A0C0D341C161F1D0EEB27A3448380C85F95C4A00E1410717BBF432131A17D2BBF4B1D2526986A5C5D50D40D098F
310
00209790944992A2BE25320C3B06904C522A9D18712741B356A22700A5A794AF1F109BE9FD0C00F83C009800268009607800D1E7BB8CA5C7AAD3C75F5435583314AB4E87B9A6E8B4017D0318B54C0013C0043001DCFB86099305F8FCDB259E00705F07DFAD047C1CC09480D90B4C009F06D042E57164004B8355E27B07909C
310
C75FCE57877D01D8A772A449F4B2F37C7FCFBDDB23CB67879DC7EE25DDBAA0DB3C0F60BDE475ED121F00487000FC7E59F86B70A78E15700040EA75363A03B08AA924595C52AF61229D5FD7EC0929D97534902CA1E19FA94C96D89A2DD1A1046C9729A499F9B55BBF1F1D0988D900042F9B086C461405A3548F36606BAA20D7
310
29C8E6511B007100302E80DFAD8D4880820F0358DF7B3A3E00E00088A30080030013C03B01C0E701000C0C006F07D0972384060059C8D6794AA4C415F65795F597D5F2969CEB4F02DC557D5D00D23AB87F69E44B625D617B6014C0EFA05E25E02E15E8742CF0591B307B81096002E80200EE9FC9245BE4DFE83D3000F45F72
310
ECCEB885BB98860D1D10D9014452D4BC9DFC0BCF1B85C4800700452131381D12DB55C0AE3F6356A342F2CA5A939B808F044533251714B52F9F48AB0038F73EA624ADC3E2C40196D42BA61220E26301E12D865C18168FAA0094675DDE3731F23B28FA5C0D3AEBFFD64F8CE8B5A7DC973311A38F9EE968A802FBF144824987E0
310
AE74F9FBB6C4CEC7486D4EC518DA80F0CE62EDA5B701C05D314008805FE3D107805C7508185EDCE97C93F600300AC018A7E8A83200C0FD8C517CE90CF49B00B8F3DF1E0074E5C161C3E170CE6133E84F2798370280FCCD441F00726DF6EDB2F78A0916607700F2DD4D69CF74F4A901F4A197BDA9F7BE0C9140CF312243559A
310
E774FB103AFF7D01885A043ED2B50F5F3007008FAFAB7C1B8023CFC4D4B4C278FE4875A02715E007A3445D3101ED38D402ECB7A980DF6FD4F7D9AC52510FD0BA8396DC1E0840ED2B5B85D3A73D0220F7D85CB95A018D7520B3203DE5E0FD0478B7116CFB501C1DE9386E0564D0E233BDC089BDAFB00117D9554C0C0CB9A39E
310
F303AE06C098C2D70328D1855C5B5E01C01509F4869A6EC7B37B97F852005CD08F1513DB877409A0C86FE67CC7D0E3C4C818A26F0940C8040FF1E5DDA071E820F0EA4CC0BFF02AC7EC05A8130F76522B5001E2D4839DF9A1DF4605606CB53BAB87E07C3136DF1B0300B173637683A546D04A001A01780580AA88981B39F27D
310
00CCF5922FF203324751439203F0A1C202F8549900260002E09BC500F86E9900FE007CBC7C1EC07FA47E03847939AF6A0000000049454E44AE426082454E44AE4260820049454E44AE426082F00000000049454E44AE42608288076FA2542009F4CF54F948A4048F0DAAAF04A075B539AB8760FC0156165DB06605135AF172
310
25784A006A01F80480AC88181A3F586DDB00181B253F640744CEA28A240DC0102500609032014C0004C098450318B74C003F008397E101FC07B930BEC7EE5EE6C20000000049454E44AE426082
  0
ENDSEC
  0
EOF
