  0
SECTION
  2
HEADER
  9
$ACADVER
  1
AC1027
  9
$ACADMAINTVER
 70
   125
  9
$DWGCODEPAGE
  3
ANSI_932
  9
$LASTSAVEDBY
  1
D-mishima
  9
$REQUIREDVERSIONS
160
                 0
  9
$INSBASE
 10
0.0
 20
0.0
 30
0.0
  9
$EXTMIN
 10
0.0
 20
0.0
 30
0.0
  9
$EXTMAX
 10
4200.0
 20
2970.0
 30
0.0
  9
$LIMMIN
 10
0.0
 20
0.0
  9
$LIMMAX
 10
4200.0
 20
2970.0
  9
$ORTHOMODE
 70
     1
  9
$REGENMODE
 70
     1
  9
$FILLMODE
 70
     1
  9
$QTEXTMODE
 70
     0
  9
$MIRRTEXT
 70
     0
  9
$LTSCALE
 40
0.1
  9
$ATTMODE
 70
     1
  9
$TEXTSIZE
 40
25.0
  9
$TRACEWID
 40
1.0
  9
$TEXTSTYLE
  7
Standard
  9
$CLAYER
  8
実線
  9
$CELTYPE
  6
ByLayer
  9
$CECOLOR
 62
   256
  9
$CELTSCALE
 40
1.0
  9
$DISPSILH
 70
     0
  9
$DIMSCALE
 40
10.0
  9
$DIMASZ
 40
2.0
  9
$DIMEXO
 40
0.875
  9
$DIMDLI
 40
10.0
  9
$DIMRND
 40
0.0
  9
$DIMDLE
 40
0.0
  9
$DIMEXE
 40
1.0
  9
$DIMTP
 40
0.0
  9
$DIMTM
 40
0.0
  9
$DIMTXT
 40
2.5
  9
$DIMCEN
 40
0.0
  9
$DIMTSZ
 40
0.0
  9
$DIMTOL
 70
     0
  9
$DIMLIM
 70
     0
  9
$DIMTIH
 70
     0
  9
$DIMTOH
 70
     0
  9
$DIMSE1
 70
     0
  9
$DIMSE2
 70
     0
  9
$DIMTAD
 70
     1
  9
$DIMZIN
 70
     8
  9
$DIMBLK
  1

  9
$DIMASO
 70
     1
  9
$DIMSHO
 70
     1
  9
$DIMPOST
  1

  9
$DIMAPOST
  1

  9
$DIMALT
 70
     0
  9
$DIMALTD
 70
     2
  9
$DIMALTF
 40
25.4
  9
$DIMLFAC
 40
1.0
  9
$DIMTOFL
 70
     1
  9
$DIMTVP
 40
0.0
  9
$DIMTIX
 70
     0
  9
$DIMSOXD
 70
     0
  9
$DIMSAH
 70
     1
  9
$DIMBLK1
  1
OPEN
  9
$DIMBLK2
  1
OPEN
  9
$DIMSTYLE
  2
STANDARD
  9
$DIMCLRD
 70
     0
  9
$DIMCLRE
 70
     0
  9
$DIMCLRT
 70
     0
  9
$DIMTFAC
 40
1.0
  9
$DIMGAP
 40
0.875
  9
$DIMJUST
 70
     0
  9
$DIMSD1
 70
     0
  9
$DIMSD2
 70
     0
  9
$DIMTOLJ
 70
     1
  9
$DIMTZIN
 70
     0
  9
$DIMALTZ
 70
     0
  9
$DIMALTTZ
 70
     0
  9
$DIMUPT
 70
     0
  9
$DIMDEC
 70
     3
  9
$DIMTDEC
 70
     3
  9
$DIMALTU
 70
     2
  9
$DIMALTTD
 70
     2
  9
$DIMTXSTY
  7
Standard
  9
$DIMAUNIT
 70
     0
  9
$DIMADEC
 70
     0
  9
$DIMALTRND
 40
0.0
  9
$DIMAZIN
 70
     0
  9
$DIMDSEP
 70
    46
  9
$DIMATFIT
 70
     3
  9
$DIMFRAC
 70
     0
  9
$DIMLDRBLK
  1
OPEN
  9
$DIMLUNIT
 70
     2
  9
$DIMLWD
 70
    -2
  9
$DIMLWE
 70
    -2
  9
$DIMTMOVE
 70
     0
  9
$DIMFXL
 40
1.0
  9
$DIMFXLON
 70
     0
  9
$DIMJOGANG
 40
1.570796326794896
  9
$DIMTFILL
 70
     0
  9
$DIMTFILLCLR
 70
     0
  9
$DIMARCSYM
 70
     0
  9
$DIMLTYPE
  6

  9
$DIMLTEX1
  6

  9
$DIMLTEX2
  6

  9
$DIMTXTDIRECTION
 70
     0
  9
$LUNITS
 70
     2
  9
$LUPREC
 70
     4
  9
$SKETCHINC
 40
1.0
  9
$FILLETRAD
 40
0.0
  9
$AUNITS
 70
     0
  9
$AUPREC
 70
     0
  9
$MENU
  1
.
  9
$ELEVATION
 40
0.0
  9
$PELEVATION
 40
0.0
  9
$THICKNESS
 40
0.0
  9
$LIMCHECK
 70
     0
  9
$CHAMFERA
 40
0.0
  9
$CHAMFERB
 40
0.0
  9
$CHAMFERC
 40
0.0
  9
$CHAMFERD
 40
0.0
  9
$SKPOLY
 70
     0
  9
$TDCREATE
 40
2454064.449062500
  9
$TDUCREATE
 40
2454064.074062859
  9
$TDUPDATE
 40
2460315.474293982
  9
$TDUUPDATE
 40
2460315.099293982
  9
$TDINDWG
 40
3.8234157292
  9
$TDUSRTIMER
 40
3.8233935069
  9
$USRTIMER
 70
     1
  9
$ANGBASE
 50
0.0
  9
$ANGDIR
 70
     0
  9
$PDMODE
 70
     0
  9
$PDSIZE
 40
0.0
  9
$PLINEWID
 40
0.0
  9
$SPLFRAME
 70
     0
  9
$SPLINETYPE
 70
     6
  9
$SPLINESEGS
 70
     8
  9
$HANDSEED
  5
13CFE
  9
$SURFTAB1
 70
     6
  9
$SURFTAB2
 70
     6
  9
$SURFTYPE
 70
     6
  9
$SURFU
 70
     6
  9
$SURFV
 70
     6
  9
$UCSBASE
  2

  9
$UCSNAME
  2

  9
$UCSORG
 10
0.0
 20
0.0
 30
0.0
  9
$UCSXDIR
 10
1.0
 20
0.0
 30
0.0
  9
$UCSYDIR
 10
0.0
 20
1.0
 30
0.0
  9
$UCSORTHOREF
  2

  9
$UCSORTHOVIEW
 70
     0
  9
$UCSORGTOP
 10
0.0
 20
0.0
 30
0.0
  9
$UCSORGBOTTOM
 10
0.0
 20
0.0
 30
0.0
  9
$UCSORGLEFT
 10
0.0
 20
0.0
 30
0.0
  9
$UCSORGRIGHT
 10
0.0
 20
0.0
 30
0.0
  9
$UCSORGFRONT
 10
0.0
 20
0.0
 30
0.0
  9
$UCSORGBACK
 10
0.0
 20
0.0
 30
0.0
  9
$PUCSBASE
  2

  9
$PUCSNAME
  2

  9
$PUCSORG
 10
0.0
 20
0.0
 30
0.0
  9
$PUCSXDIR
 10
1.0
 20
0.0
 30
0.0
  9
$PUCSYDIR
 10
0.0
 20
1.0
 30
0.0
  9
$PUCSORTHOREF
  2

  9
$PUCSORTHOVIEW
 70
     0
  9
$PUCSORGTOP
 10
0.0
 20
0.0
 30
0.0
  9
$PUCSORGBOTTOM
 10
0.0
 20
0.0
 30
0.0
  9
$PUCSORGLEFT
 10
0.0
 20
0.0
 30
0.0
  9
$PUCSORGRIGHT
 10
0.0
 20
0.0
 30
0.0
  9
$PUCSORGFRONT
 10
0.0
 20
0.0
 30
0.0
  9
$PUCSORGBACK
 10
0.0
 20
0.0
 30
0.0
  9
$USERI1
 70
     0
  9
$USERI2
 70
     0
  9
$USERI3
 70
     0
  9
$USERI4
 70
     0
  9
$USERI5
 70
     0
  9
$USERR1
 40
0.0
  9
$USERR2
 40
0.0
  9
$USERR3
 40
0.0
  9
$USERR4
 40
0.0
  9
$USERR5
 40
0.0
  9
$WORLDVIEW
 70
     1
  9
$SHADEDGE
 70
     3
  9
$SHADEDIF
 70
    70
  9
$TILEMODE
 70
     0
  9
$MAXACTVP
 70
    64
  9
$PINSBASE
 10
0.0
 20
0.0
 30
0.0
  9
$PLIMCHECK
 70
     0
  9
$PEXTMIN
 10
-0.0155848232826657
 20
-0.0116472956902953
 30
-0.0000000349181948
  9
$PEXTMAX
 10
408.2073495338802
 20
285.1885517330075
 30
0.0000000814935746
  9
$PLIMMIN
 10
-3.17498779296875
 20
-3.174999952316283
  9
$PLIMMAX
 10
416.8139953613281
 20
293.8356506824494
  9
$UNITMODE
 70
     0
  9
$VISRETAIN
 70
     1
  9
$PLINEGEN
 70
     0
  9
$PSLTSCALE
 70
     1
  9
$TREEDEPTH
 70
  3020
  9
$CMLSTYLE
  2
Standard
  9
$CMLJUST
 70
     0
  9
$CMLSCALE
 40
20.0
  9
$PROXYGRAPHICS
 70
     1
  9
$MEASUREMENT
 70
     1
  9
$CELWEIGHT
370
    -1
  9
$ENDCAPS
280
     0
  9
$JOINSTYLE
280
     0
  9
$LWDISPLAY
290
     0
  9
$INSUNITS
 70
     4
  9
$HYPERLINKBASE
  1

  9
$STYLESHEET
  1
SANKENTC.CTB
  9
$XEDIT
290
     1
  9
$CEPSNTYPE
380
     0
  9
$PSTYLEMODE
290
     1
  9
$FINGERPRINTGUID
  2
{072871F0-2771-4C56-B9BD-B27D0F751D9A}
  9
$VERSIONGUID
  2
{3A519F27-E403-9145-9A1E-6DE3B927902A}
  9
$EXTNAMES
290
     1
  9
$PSVPSCALE
 40
0.0
  9
$OLESTARTUP
290
     0
  9
$SORTENTS
280
   127
  9
$INDEXCTL
280
     0
  9
$HIDETEXT
280
     1
  9
$XCLIPFRAME
280
     2
  9
$HALOGAP
280
     0
  9
$OBSCOLOR
 70
   257
  9
$OBSLTYPE
280
     0
  9
$INTERSECTIONDISPLAY
280
     0
  9
$INTERSECTIONCOLOR
 70
   257
  9
$DIMASSOC
280
     2
  9
$PROJECTNAME
  1

  9
$CAMERADISPLAY
290
     0
  9
$LENSLENGTH
 40
50.0
  9
$CAMERAHEIGHT
 40
0.0
  9
$STEPSPERSEC
 40
2.0
  9
$STEPSIZE
 40
6.0
  9
$3DDWFPREC
 40
2.0
  9
$PSOLWIDTH
 40
0.25
  9
$PSOLHEIGHT
 40
4.0
  9
$LOFTANG1
 40
1.570796326794896
  9
$LOFTANG2
 40
1.570796326794896
  9
$LOFTMAG1
 40
0.0
  9
$LOFTMAG2
 40
0.0
  9
$LOFTPARAM
 70
     7
  9
$LOFTNORMALS
280
     1
  9
$LATITUDE
 40
37.795
  9
$LONGITUDE
 40
-122.394
  9
$NORTHDIRECTION
 40
0.0
  9
$TIMEZONE
 70
 -8000
  9
$LIGHTGLYPHDISPLAY
280
     1
  9
$TILEMODELIGHTSYNCH
280
     1
  9
$CMATERIAL
347
11723
  9
$SOLIDHIST
280
     0
  9
$SHOWHIST
280
     1
  9
$DWFFRAME
280
     2
  9
$DGNFRAME
280
     0
  9
$REALWORLDSCALE
290
     1
  9
$INTERFERECOLOR
 62
     1
  9
$INTERFEREOBJVS
345
11745
  9
$INTERFEREVPVS
346
12EF1
  9
$CSHADOW
280
     0
  9
$SHADOWPLANELOCATION
 40
0.0
  0
ENDSEC
  0
SECTION
  2
CLASSES
  0
CLASS
  1
ACDBDICTIONARYWDFLT
  2
AcDbDictionaryWithDefault
  3
ObjectDBX Classes
 90
        0
 91
        1
280
     0
281
     0
  0
CLASS
  1
DICTIONARYVAR
  2
AcDbDictionaryVar
  3
ObjectDBX Classes
 90
        0
 91
       17
280
     0
281
     0
  0
CLASS
  1
TABLESTYLE
  2
AcDbTableStyle
  3
ObjectDBX Classes
 90
     4095
 91
        1
280
     0
281
     0
  0
CLASS
  1
DIMASSOC
  2
AcDbDimAssoc
  3
"AcDbDimAssoc|Product Desc:     AcDim ARX App For Dimension|Company:          Autodesk, Inc.|WEB Address:      www.autodesk.com"
 90
        0
 91
        0
280
     0
281
     0
  0
CLASS
  1
SORTENTSTABLE
  2
AcDbSortentsTable
  3
ObjectDBX Classes
 90
        0
 91
        2
280
     0
281
     0
  0
CLASS
  1
MATERIAL
  2
AcDbMaterial
  3
ObjectDBX Classes
 90
     1153
 91
        3
280
     0
281
     0
  0
CLASS
  1
VISUALSTYLE
  2
AcDbVisualStyle
  3
ObjectDBX Classes
 90
     4095
 91
       26
280
     0
281
     0
  0
CLASS
  1
SCALE
  2
AcDbScale
  3
ObjectDBX Classes
 90
     1153
 91
       17
280
     0
281
     0
  0
CLASS
  1
MLEADERSTYLE
  2
AcDbMLeaderStyle
  3
ACDB_MLEADERSTYLE_CLASS
 90
     4095
 91
        1
280
     0
281
     0
  0
CLASS
  1
CELLSTYLEMAP
  2
AcDbCellStyleMap
  3
ObjectDBX Classes
 90
     1152
 91
        1
280
     0
281
     0
  0
CLASS
  1
AEC_REFEDIT_STATUS_TRACKER
  2
AecDbRefEditStatusTracker
  3
AecArchBase80|Product Desc: Autodesk Architectural Desktop 2007 |Company: Autodesk,Inc. |WEB Address: www.autodesk.com
 90
      129
 91
        0
280
     0
281
     0
  0
CLASS
  1
NPOCOLLECTION
  2
AcDbImpNonPersistentObjectsCollection
  3
ObjectDBX Classes
 90
     1153
 91
        0
280
     0
281
     0
  0
CLASS
  1
ACDBSECTIONVIEWSTYLE
  2
AcDbSectionViewStyle
  3
ObjectDBX Classes
 90
     1025
 91
        1
280
     0
281
     0
  0
CLASS
  1
ACDBDETAILVIEWSTYLE
  2
AcDbDetailViewStyle
  3
ObjectDBX Classes
 90
     1025
 91
        1
280
     0
281
     0
  0
ENDSEC
  0
SECTION
  2
TABLES
  0
TABLE
  2
VPORT
  5
8
102
{ACAD_XDICTIONARY
360
11871
102
}
330
0
100
AcDbSymbolTable
 70
     1
1001
ACAD
1000
DbSaveVer
1071
      278
  0
VPORT
  5
12358
330
8
100
AcDbSymbolTableRecord
100
AcDbViewportTableRecord
  2
*Active
 70
     0
 10
0.0
 20
0.0
 11
1.0
 21
1.0
 12
2100.000009778887
 22
1485.000006915069
 13
0.0
 23
0.0
 14
10.0
 24
10.0
 15
10.0
 25
10.0
 16
0.0
 26
0.0
 36
1.0
 17
0.0
 27
0.0
 37
0.0
 40
2994.864221293063
 41
1.897364771151178
 42
50.0
 43
0.0
 44
0.0
 50
0.0
 51
0.0
 71
     0
 72
  1000
 73
     1
 74
     3
 75
     0
 76
     0
 77
     0
 78
     0
281
     0
 65
     1
110
0.0
120
0.0
130
0.0
111
1.0
121
0.0
131
0.0
112
0.0
122
1.0
132
0.0
 79
     0
146
0.0
348
11741
 60
     3
 61
     5
292
     1
282
     1
141
0.0
142
0.0
 63
   250
421
  3355443
1001
ACAD_NAV_VCDISPLAY
1070
     3
  0
ENDTAB
  0
TABLE
  2
LTYPE
  5
5
330
0
100
AcDbSymbolTable
 70
     4
  0
LTYPE
  5
14
330
5
100
AcDbSymbolTableRecord
100
AcDbLinetypeTableRecord
  2
ByBlock
 70
     0
  3

 72
    65
 73
     0
 40
0.0
  0
LTYPE
  5
15
330
5
100
AcDbSymbolTableRecord
100
AcDbLinetypeTableRecord
  2
ByLayer
 70
     0
  3

 72
    65
 73
     0
 40
0.0
  0
LTYPE
  5
16
330
5
100
AcDbSymbolTableRecord
100
AcDbLinetypeTableRecord
  2
Continuous
 70
     0
  3
Solid line
 72
    65
 73
     0
 40
0.0
  0
LTYPE
  5
1D4
330
5
100
AcDbSymbolTableRecord
100
AcDbLinetypeTableRecord
  2
PHANTOM
 70
     0
  3
Phantom ______  __  __  ______  __  __  ______
 72
    65
 73
     6
 40
63.5
 49
31.75
 74
     0
 49
-6.349999999999997
 74
     0
 49
6.349999999999997
 74
     0
 49
-6.349999999999997
 74
     0
 49
6.349999999999997
 74
     0
 49
-6.349999999999997
 74
     0
  0
LTYPE
  5
1D5
330
5
100
AcDbSymbolTableRecord
100
AcDbLinetypeTableRecord
  2
CENTER
 70
     0
  3
Center ____ _ ____ _ ____ _ ____ _ ____ _ ____
 72
    65
 73
     4
 40
50.8
 49
31.75
 74
     0
 49
-6.349999999999997
 74
     0
 49
6.349999999999997
 74
     0
 49
-6.349999999999997
 74
     0
  0
LTYPE
  5
1D7
330
5
100
AcDbSymbolTableRecord
100
AcDbLinetypeTableRecord
  2
DASHED
 70
     0
  3
Dashed __ __ __ __ __ __ __ __ __ __ __ __ __ _
 72
    65
 73
     2
 40
19.05
 49
12.7
 74
     0
 49
-6.349999999999997
 74
     0
  0
ENDTAB
  0
TABLE
  2
LAYER
  5
2
102
{ACAD_XDICTIONARY
360
11D
102
}
330
0
100
AcDbSymbolTable
 70
     9
  0
LAYER
  5
10
102
{ACAD_XDICTIONARY
360
11820
102
}
330
2
100
AcDbSymbolTableRecord
100
AcDbLayerTableRecord
  2
0
 70
     0
 62
     7
  6
Continuous
370
    -3
390
F
347
11733
348
0
  0
LAYER
  5
13F
330
2
100
AcDbSymbolTableRecord
100
AcDbLayerTableRecord
  2
Defpoints
 70
     0
 62
     7
  6
Continuous
290
     0
370
    -3
390
F
347
11733
348
0
  0
LAYER
  5
1BF
102
{ACAD_XDICTIONARY
360
11824
102
}
330
2
100
AcDbSymbolTableRecord
100
AcDbLayerTableRecord
  2
図面枠
 70
     0
 62
     2
  6
Continuous
370
    -3
390
F
347
11733
348
0
1001
AcAecLayerStandard
1000

1000

  0
LAYER
  5
1C1
102
{ACAD_XDICTIONARY
360
11828
102
}
330
2
100
AcDbSymbolTableRecord
100
AcDbLayerTableRecord
  2
仮想線
 70
     0
 62
     6
  6
PHANTOM
370
    -3
390
F
347
11733
348
0
1001
AcAecLayerStandard
1000

1000

  0
LAYER
  5
1C3
102
{ACAD_XDICTIONARY
360
1182C
102
}
330
2
100
AcDbSymbolTableRecord
100
AcDbLayerTableRecord
  2
寸法線
 70
     0
 62
     2
  6
Continuous
370
    -3
390
F
347
11733
348
0
1001
AcAecLayerStandard
1000

1000

  0
LAYER
  5
1C4
102
{ACAD_XDICTIONARY
360
1182E
102
}
330
2
100
AcDbSymbolTableRecord
100
AcDbLayerTableRecord
  2
中心線
 70
     0
 62
     1
  6
CENTER
370
    -3
390
F
347
11733
348
0
1001
AcAecLayerStandard
1000

1000

  0
LAYER
  5
1C5
102
{ACAD_XDICTIONARY
360
11830
102
}
330
2
100
AcDbSymbolTableRecord
100
AcDbLayerTableRecord
  2
破線
 70
     0
 62
     4
  6
DASHED
370
    -3
390
F
347
11733
348
0
1001
AcAecLayerStandard
1000

1000

  0
LAYER
  5
82E
102
{ACAD_XDICTIONARY
360
11832
102
}
330
2
100
AcDbSymbolTableRecord
100
AcDbLayerTableRecord
  2
実線
 70
     0
 62
     7
  6
Continuous
370
    -3
390
F
347
11733
348
0
1001
AcAecLayerStandard
1000

1000

  0
LAYER
  5
13CBE
102
{ACAD_XDICTIONARY
360
13CBF
102
}
330
2
100
AcDbSymbolTableRecord
100
AcDbLayerTableRecord
  2
仮線
 70
     0
 62
     5
  6
Continuous
370
    -3
390
F
347
11733
348
0
1001
AcAecLayerStandard
1000

1000

  0
ENDTAB
  0
TABLE
  2
STYLE
  5
3
330
0
100
AcDbSymbolTable
 70
     1
  0
STYLE
  5
11
330
3
100
AcDbSymbolTableRecord
100
AcDbTextStyleTableRecord
  2
Standard
 70
     0
 40
0.0
 41
1.0
 50
0.0
 71
     0
 42
25.0
  3
isocp.shx
  4
extfont2.shx
  0
ENDTAB
  0
TABLE
  2
VIEW
  5
6
330
0
100
AcDbSymbolTable
 70
     0
  0
ENDTAB
  0
TABLE
  2
UCS
  5
7
330
0
100
AcDbSymbolTable
 70
     0
  0
ENDTAB
  0
TABLE
  2
APPID
  5
9
330
0
100
AcDbSymbolTable
 70
    17
  0
APPID
  5
12
330
9
100
AcDbSymbolTableRecord
100
AcDbRegAppTableRecord
  2
ACAD
 70
     0
  0
APPID
  5
9E
330
9
100
AcDbSymbolTableRecord
100
AcDbRegAppTableRecord
  2
ACAD_PSEXT
 70
     0
  0
APPID
  5
1BE
330
9
100
AcDbSymbolTableRecord
100
AcDbRegAppTableRecord
  2
AcAecLayerStandard
 70
     0
  0
APPID
  5
1FF
330
9
100
AcDbSymbolTableRecord
100
AcDbRegAppTableRecord
  2
ACAD_EXEMPT_FROM_CAD_STANDARDS
 70
     0
  0
APPID
  5
1318
330
9
100
AcDbSymbolTableRecord
100
AcDbRegAppTableRecord
  2
ACAD_DSTYLE_DIMTEXT_FILL
 70
     0
  0
APPID
  5
1319
330
9
100
AcDbSymbolTableRecord
100
AcDbRegAppTableRecord
  2
ACAD_DSTYLE_DIMEXT_LENGTH
 70
     0
  0
APPID
  5
131A
330
9
100
AcDbSymbolTableRecord
100
AcDbRegAppTableRecord
  2
ACAD_DSTYLE_DIMEXT_ENABLED
 70
     0
  0
APPID
  5
131B
330
9
100
AcDbSymbolTableRecord
100
AcDbRegAppTableRecord
  2
ACAD_DSTYLE_DIM_LINETYPE
 70
     0
  0
APPID
  5
131C
330
9
100
AcDbSymbolTableRecord
100
AcDbRegAppTableRecord
  2
ACAD_DSTYLE_DIM_EXT1_LINETYPE
 70
     0
  0
APPID
  5
131D
330
9
100
AcDbSymbolTableRecord
100
AcDbRegAppTableRecord
  2
ACAD_DSTYLE_DIM_EXT2_LINETYPE
 70
     0
  0
APPID
  5
1439
330
9
100
AcDbSymbolTableRecord
100
AcDbRegAppTableRecord
  2
ACAD_DSTYLE_DIMJOGGED_JOGANGLE_SYMBOL
 70
     0
  0
APPID
  5
1CB2
330
9
100
AcDbSymbolTableRecord
100
AcDbRegAppTableRecord
  2
ACAD_DSTYLE_DIMARC_LENGTH_SYMBOL
 70
     0
  0
APPID
  5
356E
330
9
100
AcDbSymbolTableRecord
100
AcDbRegAppTableRecord
  2
ACAD_DIMASSOC_CALC_DIMLFAC
 70
     0
  0
APPID
  5
356F
330
9
100
AcDbSymbolTableRecord
100
AcDbRegAppTableRecord
  2
ACAD_DIMASSOC_DIMLFAC
 70
     0
  0
APPID
  5
3570
330
9
100
AcDbSymbolTableRecord
100
AcDbRegAppTableRecord
  2
ACAD_DIMASSOC_OVERRIDDEN_DIMLFAC
 70
     0
  0
APPID
  5
11760
330
9
100
AcDbSymbolTableRecord
100
AcDbRegAppTableRecord
  2
ACAD_MLEADERVER
 70
     0
  0
APPID
  5
130CE
330
9
100
AcDbSymbolTableRecord
100
AcDbRegAppTableRecord
  2
ACAD_NAV_VCDISPLAY
 70
     0
  0
ENDTAB
  0
TABLE
  2
DIMSTYLE
  5
A
330
0
100
AcDbSymbolTable
 70
     1
100
AcDbDimStyleTable
 71
     1
340
C0F
  0
DIMSTYLE
105
C0F
102
{ACAD_REACTORS
330
13305
330
13306
330
13307
330
13308
330
13309
330
1330A
330
1330B
330
1330D
330
1330E
330
13420
330
13421
330
13360
330
13361
330
13362
330
13527
330
13454
330
13455
330
13485
330
1348A
330
1349E
330
1349F
330
134A0
330
134C2
330
134C3
330
134C4
330
134C5
330
134C6
330
134D2
330
134F4
330
134F5
330
134FA
330
13500
330
13502
330
13503
330
13504
102
}
330
A
100
AcDbSymbolTableRecord
100
AcDbDimStyleTableRecord
  2
STANDARD
 70
     0
 40
10.0
 41
2.0
 42
0.875
 43
10.0
 44
1.0
 50
89.99999999999998
 73
     0
 74
     0
 77
     1
 78
     8
140
2.5
141
0.0
147
0.875
172
     1
173
     1
271
     3
272
     3
340
11
341
C08
343
C08
344
C08
1001
ACAD_DSTYLE_DIMJOGGED_JOGANGLE_SYMBOL
1070
   384
1040
1.570796326794896
  0
ENDTAB
  0
TABLE
  2
BLOCK_RECORD
  5
1
330
0
100
AcDbSymbolTable
 70
    36
  0
BLOCK_RECORD
  5
1F
102
{ACAD_XDICTIONARY
360
5C91
102
}
330
1
100
AcDbSymbolTableRecord
100
AcDbBlockTableRecord
  2
*Model_Space
340
22
 70
     0
280
     1
281
     0
  0
BLOCK_RECORD
  5
78D
330
1
100
AcDbSymbolTableRecord
100
AcDbBlockTableRecord
  2
*Paper_Space
340
78E
 70
     0
280
     1
281
     0
  0
BLOCK_RECORD
  5
C08
102
{ACAD_XDICTIONARY
360
122F0
102
}
330
1
100
AcDbSymbolTableRecord
100
AcDbBlockTableRecord
  2
_OPEN
340
0
102
{BLKREFS
331
13B1B
331
13B1C
331
13B24
331
13B25
331
13B2D
331
13B2E
331
13B38
331
13B39
331
13B41
331
13B42
331
13B4A
331
13B4B
331
13B53
331
13B54
331
13B5D
331
13B5E
331
13458
331
13B67
331
13B68
331
13B72
331
13B73
331
13B7B
331
13B7C
331
13B84
331
13B85
331
13B8F
331
13B90
331
13B9A
331
13B9B
331
13BA3
331
13BA4
331
13BAC
331
13BAD
331
13BB7
331
13BB8
331
13BC0
331
13BC1
331
13BCC
331
13BCD
331
13BD7
331
13BD8
331
13BE1
331
13BE2
331
13BEC
331
13BED
331
13BF5
331
13BF6
331
13C00
331
13C01
331
13C09
331
13C0A
331
13C12
331
13C13
331
13C1B
331
13C1C
331
13C24
331
13C25
331
13C2D
331
13C2E
331
13C38
331
13C39
331
13C43
331
13C44
331
13C4C
331
13C4D
331
13C57
331
13C58
331
13C62
331
13C63
331
13C6B
331
13C6C
102
}
 70
     0
280
     1
281
     0
  0
BLOCK_RECORD
  5
1352F
330
1
100
AcDbSymbolTableRecord
100
AcDbBlockTableRecord
  2
*D1
340
0
 70
     0
280
     1
281
     0
  0
BLOCK_RECORD
  5
1353B
330
1
100
AcDbSymbolTableRecord
100
AcDbBlockTableRecord
  2
*D2
340
0
 70
     0
280
     1
281
     0
  0
BLOCK_RECORD
  5
13547
330
1
100
AcDbSymbolTableRecord
100
AcDbBlockTableRecord
  2
*D3
340
0
 70
     0
280
     1
281
     0
  0
BLOCK_RECORD
  5
13553
330
1
100
AcDbSymbolTableRecord
100
AcDbBlockTableRecord
  2
*D4
340
0
 70
     0
280
     1
281
     0
  0
BLOCK_RECORD
  5
13561
330
1
100
AcDbSymbolTableRecord
100
AcDbBlockTableRecord
  2
*D5
340
0
 70
     0
280
     1
281
     0
  0
BLOCK_RECORD
  5
1356D
330
1
100
AcDbSymbolTableRecord
100
AcDbBlockTableRecord
  2
*D6
340
0
 70
     0
280
     1
281
     0
  0
BLOCK_RECORD
  5
13579
330
1
100
AcDbSymbolTableRecord
100
AcDbBlockTableRecord
  2
*D7
340
0
 70
     0
280
     1
281
     0
  0
BLOCK_RECORD
  5
13586
330
1
100
AcDbSymbolTableRecord
100
AcDbBlockTableRecord
  2
*D8
340
0
 70
     0
280
     1
281
     0
  0
BLOCK_RECORD
  5
13593
330
1
100
AcDbSymbolTableRecord
100
AcDbBlockTableRecord
  2
*D9
340
0
 70
     0
280
     1
281
     0
  0
BLOCK_RECORD
  5
1359F
330
1
100
AcDbSymbolTableRecord
100
AcDbBlockTableRecord
  2
*D10
340
0
 70
     0
280
     1
281
     0
  0
BLOCK_RECORD
  5
135AD
330
1
100
AcDbSymbolTableRecord
100
AcDbBlockTableRecord
  2
*D11
340
0
 70
     0
280
     1
281
     0
  0
BLOCK_RECORD
  5
135BB
330
1
100
AcDbSymbolTableRecord
100
AcDbBlockTableRecord
  2
*D12
340
0
 70
     0
280
     1
281
     0
  0
BLOCK_RECORD
  5
135C9
330
1
100
AcDbSymbolTableRecord
100
AcDbBlockTableRecord
  2
*D13
340
0
 70
     0
280
     1
281
     0
  0
BLOCK_RECORD
  5
135D5
330
1
100
AcDbSymbolTableRecord
100
AcDbBlockTableRecord
  2
*D14
340
0
 70
     0
280
     1
281
     0
  0
BLOCK_RECORD
  5
135E1
330
1
100
AcDbSymbolTableRecord
100
AcDbBlockTableRecord
  2
*D15
340
0
 70
     0
280
     1
281
     0
  0
BLOCK_RECORD
  5
135ED
330
1
100
AcDbSymbolTableRecord
100
AcDbBlockTableRecord
  2
*D16
340
0
 70
     0
280
     1
281
     0
  0
BLOCK_RECORD
  5
135F9
330
1
100
AcDbSymbolTableRecord
100
AcDbBlockTableRecord
  2
*D17
340
0
 70
     0
280
     1
281
     0
  0
BLOCK_RECORD
  5
13605
330
1
100
AcDbSymbolTableRecord
100
AcDbBlockTableRecord
  2
*D18
340
0
 70
     0
280
     1
281
     0
  0
BLOCK_RECORD
  5
13613
330
1
100
AcDbSymbolTableRecord
100
AcDbBlockTableRecord
  2
*D19
340
0
 70
     0
280
     1
281
     0
  0
BLOCK_RECORD
  5
13620
330
1
100
AcDbSymbolTableRecord
100
AcDbBlockTableRecord
  2
*D20
340
0
 70
     0
280
     1
281
     0
  0
BLOCK_RECORD
  5
1362E
330
1
100
AcDbSymbolTableRecord
100
AcDbBlockTableRecord
  2
*D21
340
0
 70
     0
280
     1
281
     0
  0
BLOCK_RECORD
  5
1363C
330
1
100
AcDbSymbolTableRecord
100
AcDbBlockTableRecord
  2
*D22
340
0
 70
     0
280
     1
281
     0
  0
BLOCK_RECORD
  5
13649
330
1
100
AcDbSymbolTableRecord
100
AcDbBlockTableRecord
  2
*D23
340
0
 70
     0
280
     1
281
     0
  0
BLOCK_RECORD
  5
13657
330
1
100
AcDbSymbolTableRecord
100
AcDbBlockTableRecord
  2
*D24
340
0
 70
     0
280
     1
281
     0
  0
BLOCK_RECORD
  5
13663
330
1
100
AcDbSymbolTableRecord
100
AcDbBlockTableRecord
  2
*D25
340
0
 70
     0
280
     1
281
     0
  0
BLOCK_RECORD
  5
13671
330
1
100
AcDbSymbolTableRecord
100
AcDbBlockTableRecord
  2
*D26
340
0
 70
     0
280
     1
281
     0
  0
BLOCK_RECORD
  5
1367D
330
1
100
AcDbSymbolTableRecord
100
AcDbBlockTableRecord
  2
*D27
340
0
 70
     0
280
     1
281
     0
  0
BLOCK_RECORD
  5
13689
330
1
100
AcDbSymbolTableRecord
100
AcDbBlockTableRecord
  2
*D28
340
0
 70
     0
280
     1
281
     0
  0
BLOCK_RECORD
  5
13695
330
1
100
AcDbSymbolTableRecord
100
AcDbBlockTableRecord
  2
*D29
340
0
 70
     0
280
     1
281
     0
  0
BLOCK_RECORD
  5
136A1
330
1
100
AcDbSymbolTableRecord
100
AcDbBlockTableRecord
  2
*D30
340
0
 70
     0
280
     1
281
     0
  0
BLOCK_RECORD
  5
136AD
330
1
100
AcDbSymbolTableRecord
100
AcDbBlockTableRecord
  2
*D31
340
0
 70
     0
280
     1
281
     0
  0
BLOCK_RECORD
  5
136BB
330
1
100
AcDbSymbolTableRecord
100
AcDbBlockTableRecord
  2
*D32
340
0
 70
     0
280
     1
281
     0
  0
BLOCK_RECORD
  5
136C9
330
1
100
AcDbSymbolTableRecord
100
AcDbBlockTableRecord
  2
*D33
340
0
 70
     0
280
     1
281
     0
  0
BLOCK_RECORD
  5
136D5
330
1
100
AcDbSymbolTableRecord
100
AcDbBlockTableRecord
  2
*D34
340
0
 70
     0
280
     1
281
     0
  0
BLOCK_RECORD
  5
136E3
330
1
100
AcDbSymbolTableRecord
100
AcDbBlockTableRecord
  2
*D35
340
0
 70
     0
280
     1
281
     0
  0
ENDTAB
  0
ENDSEC
  0
SECTION
  2
BLOCKS
  0
BLOCK
  5
20
330
1F
100
AcDbEntity
  8
0
100
AcDbBlockBegin
  2
*Model_Space
 70
     0
 10
0.0
 20
0.0
 30
0.0
  3
*Model_Space
  1

  0
ENDBLK
  5
21
330
1F
100
AcDbEntity
  8
0
100
AcDbBlockEnd
  0
BLOCK
  5
78F
330
78D
100
AcDbEntity
 67
     1
  8
0
100
AcDbBlockBegin
  2
*Paper_Space
 70
     0
 10
0.0
 20
0.0
 30
0.0
  3
*Paper_Space
  1

  0
ENDBLK
  5
790
330
78D
100
AcDbEntity
 67
     1
  8
0
100
AcDbBlockEnd
  0
BLOCK
  5
C09
330
C08
100
AcDbEntity
  8
0
100
AcDbBlockBegin
  2
_OPEN
 70
     0
 10
0.0
 20
0.0
 30
0.0
  3
_OPEN
  1

  0
LINE
  5
C0A
330
C08
100
AcDbEntity
  8
0
  6
ByBlock
 62
     0
100
AcDbLine
 10
-1.0
 20
0.1666666666666666
 30
0.0
 11
0.0
 21
0.0
 31
0.0
  0
LINE
  5
C0B
330
C08
100
AcDbEntity
  8
0
  6
ByBlock
 62
     0
100
AcDbLine
 10
0.0
 20
0.0
 30
0.0
 11
-1.0
 21
-0.1666666666666666
 31
0.0
  0
LINE
  5
C0C
330
C08
100
AcDbEntity
  8
0
  6
ByBlock
 62
     0
100
AcDbLine
 10
0.0
 20
0.0
 30
0.0
 11
-1.0
 21
0.0
 31
0.0
  0
ENDBLK
  5
C0D
330
C08
100
AcDbEntity
  8
0
100
AcDbBlockEnd
  0
BLOCK
  5
13530
330
1352F
100
AcDbEntity
  8
0
100
AcDbBlockBegin
  2
*D1
 70
     1
 10
0.0
 20
0.0
 30
0.0
  3
*D1
  1

  0
LINE
  5
13B18
330
1352F
100
AcDbEntity
  8
寸法線
 62
     0
440
 16777216
370
    -2
100
AcDbLine
 10
1700.000000000002
 20
1426.250017032489
 30
0.0
 11
1700.000000000002
 21
1275.000026154806
 31
0.0
  0
LINE
  5
13B19
330
1352F
100
AcDbEntity
  8
寸法線
 62
     0
440
 16777216
370
    -2
100
AcDbLine
 10
2100.000000000002
 20
1426.25001703249
 30
0.0
 11
2100.000000000002
 21
1275.000026154806
 31
0.0
  0
LINE
  5
13B1A
330
1352F
100
AcDbEntity
  8
寸法線
 62
     0
440
 16777216
370
    -2
100
AcDbLine
 10
1720.000000000001
 20
1285.000026154806
 30
0.0
 11
2080.000000000002
 21
1285.000026154806
 31
0.0
  0
INSERT
  5
13B1B
330
1352F
100
AcDbEntity
  8
寸法線
 62
     0
440
 16777216
370
    -2
100
AcDbBlockReference
  2
_OPEN
 10
1700.000000000002
 20
1285.000026154806
 30
0.0
 41
20.0
 42
20.0
 43
20.0
 50
180.0
  0
INSERT
  5
13B1C
330
1352F
100
AcDbEntity
  8
寸法線
 62
     0
440
 16777216
370
    -2
100
AcDbBlockReference
  2
_OPEN
 10
2100.000000000002
 20
1285.000026154806
 30
0.0
 41
20.0
 42
20.0
 43
20.0
  0
MTEXT
  5
13B1D
330
1352F
100
AcDbEntity
  8
寸法線
 62
     0
440
 16777216
100
AcDbMText
 10
1900.000000000002
 20
1306.250026154806
 30
0.0
 40
25.0
 41
0.0
 46
0.0
 71
     5
 72
     1
  1
\A1;400
 73
     1
 44
1.0
  0
POINT
  5
13B1E
330
1352F
100
AcDbEntity
  8
Defpoints
 62
     0
440
 16777216
100
AcDbPoint
 10
1700.000000000002
 20
1435.000017032489
 30
0.0
  0
POINT
  5
13B1F
330
1352F
100
AcDbEntity
  8
Defpoints
 62
     0
440
 16777216
100
AcDbPoint
 10
2100.000000000002
 20
1435.000017032489
 30
0.0
  0
POINT
  5
13B20
330
1352F
100
AcDbEntity
  8
Defpoints
 62
     0
440
 16777216
100
AcDbPoint
 10
2100.000000000002
 20
1285.000026154806
 30
0.0
  0
ENDBLK
  5
13531
330
1352F
100
AcDbEntity
  8
0
100
AcDbBlockEnd
  0
BLOCK
  5
1353C
330
1353B
100
AcDbEntity
  8
0
100
AcDbBlockBegin
  2
*D2
 70
     1
 10
0.0
 20
0.0
 30
0.0
  3
*D2
  1

  0
LINE
  5
13B21
330
1353B
100
AcDbEntity
  8
寸法線
 62
     0
440
 16777216
370
    -2
100
AcDbLine
 10
1149.999980186892
 20
1436.250026154805
 30
0.0
 11
1149.999980186892
 21
1275.000026154806
 31
0.0
  0
LINE
  5
13B22
330
1353B
100
AcDbEntity
  8
寸法線
 62
     0
440
 16777216
370
    -2
100
AcDbLine
 10
1699.999980186893
 20
1426.250063374479
 30
0.0
 11
1699.999980186893
 21
1275.000026154806
 31
0.0
  0
LINE
  5
13B23
330
1353B
100
AcDbEntity
  8
寸法線
 62
     0
440
 16777216
370
    -2
100
AcDbLine
 10
1169.999980186892
 20
1285.000026154806
 30
0.0
 11
1679.999980186892
 21
1285.000026154806
 31
0.0
  0
INSERT
  5
13B24
330
1353B
100
AcDbEntity
  8
寸法線
 62
     0
440
 16777216
370
    -2
100
AcDbBlockReference
  2
_OPEN
 10
1149.999980186892
 20
1285.000026154806
 30
0.0
 41
20.0
 42
20.0
 43
20.0
 50
180.0
  0
INSERT
  5
13B25
330
1353B
100
AcDbEntity
  8
寸法線
 62
     0
440
 16777216
370
    -2
100
AcDbBlockReference
  2
_OPEN
 10
1699.999980186893
 20
1285.000026154806
 30
0.0
 41
20.0
 42
20.0
 43
20.0
  0
MTEXT
  5
13B26
330
1353B
100
AcDbEntity
  8
寸法線
 62
     0
440
 16777216
100
AcDbMText
 10
1424.999980186892
 20
1306.250026154806
 30
0.0
 40
25.0
 41
0.0
 46
0.0
 71
     5
 72
     1
  1
\A1;550
 73
     1
 44
1.0
  0
POINT
  5
13B27
330
1353B
100
AcDbEntity
  8
Defpoints
 62
     0
440
 16777216
100
AcDbPoint
 10
1149.999980186892
 20
1445.000026154805
 30
0.0
  0
POINT
  5
13B28
330
1353B
100
AcDbEntity
  8
Defpoints
 62
     0
440
 16777216
100
AcDbPoint
 10
1699.999980186893
 20
1435.000063374479
 30
0.0
  0
POINT
  5
13B29
330
1353B
100
AcDbEntity
  8
Defpoints
 62
     0
440
 16777216
100
AcDbPoint
 10
1699.999980186893
 20
1285.000026154806
 30
0.0
  0
ENDBLK
  5
1353D
330
1353B
100
AcDbEntity
  8
0
100
AcDbBlockEnd
  0
BLOCK
  5
13548
330
13547
100
AcDbEntity
  8
0
100
AcDbBlockBegin
  2
*D3
 70
     1
 10
0.0
 20
0.0
 30
0.0
  3
*D3
  1

  0
LINE
  5
13B2A
330
13547
100
AcDbEntity
  8
寸法線
 62
     0
440
 16777216
370
    -2
100
AcDbLine
 10
1141.249980186893
 20
1845.000026154806
 30
0.0
 11
1019.999980186892
 21
1845.000026154806
 31
0.0
  0
LINE
  5
13B2B
330
13547
100
AcDbEntity
  8
寸法線
 62
     0
440
 16777216
370
    -2
100
AcDbLine
 10
1141.249980186893
 20
1445.000026154805
 30
0.0
 11
1019.999980186892
 21
1445.000026154805
 31
0.0
  0
LINE
  5
13B2C
330
13547
100
AcDbEntity
  8
寸法線
 62
     0
440
 16777216
370
    -2
100
AcDbLine
 10
1029.999980186892
 20
1825.000026154806
 30
0.0
 11
1029.999980186892
 21
1465.000026154806
 31
0.0
  0
INSERT
  5
13B2D
330
13547
100
AcDbEntity
  8
寸法線
 62
     0
440
 16777216
370
    -2
100
AcDbBlockReference
  2
_OPEN
 10
1029.999980186892
 20
1845.000026154806
 30
0.0
 41
20.0
 42
20.0
 43
20.0
 50
90.0
  0
INSERT
  5
13B2E
330
13547
100
AcDbEntity
  8
寸法線
 62
     0
440
 16777216
370
    -2
100
AcDbBlockReference
  2
_OPEN
 10
1029.999980186892
 20
1445.000026154805
 30
0.0
 41
20.0
 42
20.0
 43
20.0
 50
270.0
  0
MTEXT
  5
13B2F
330
13547
100
AcDbEntity
  8
寸法線
 62
     0
440
 16777216
100
AcDbMText
 10
1008.749980186893
 20
1645.000026154805
 30
0.0
 40
25.0
 41
0.0
 46
0.0
 71
     5
 72
     1
  1
\A1;400
 11
0.0000000000000001
 21
1.0
 31
0.0
 73
     1
 44
1.0
  0
POINT
  5
13B30
330
13547
100
AcDbEntity
  8
Defpoints
 62
     0
440
 16777216
100
AcDbPoint
 10
1149.999980186893
 20
1845.000026154806
 30
0.0
  0
POINT
  5
13B31
330
13547
100
AcDbEntity
  8
Defpoints
 62
     0
440
 16777216
100
AcDbPoint
 10
1149.999980186893
 20
1445.000026154805
 30
0.0
  0
POINT
  5
13B32
330
13547
100
AcDbEntity
  8
Defpoints
 62
     0
440
 16777216
100
AcDbPoint
 10
1029.999980186892
 20
1445.000026154805
 30
0.0
  0
ENDBLK
  5
13549
330
13547
100
AcDbEntity
  8
0
100
AcDbBlockEnd
  0
BLOCK
  5
13554
330
13553
100
AcDbEntity
  8
0
100
AcDbBlockBegin
  2
*D4
 70
     1
 10
0.0
 20
0.0
 30
0.0
  3
*D4
  1

  0
LINE
  5
13B33
330
13553
100
AcDbEntity
  8
寸法線
 62
     0
440
 16777216
370
    -2
100
AcDbLine
 10
1149.999980186892
 20
2444.750045369735
 30
0.0
 11
1149.999980186892
 21
2615.000008150062
 31
0.0
  0
LINE
  5
13B34
330
13553
100
AcDbEntity
  8
寸法線
 62
     0
440
 16777216
370
    -2
100
AcDbLine
 10
1168.999980186892
 20
2453.750008150061
 30
0.0
 11
1168.999980186892
 21
2615.000008150062
 31
0.0
  0
LINE
  5
13B35
330
13553
100
AcDbEntity
  8
寸法線
 62
     0
440
 16777216
370
    -2
100
AcDbLine
 10
1129.999980186892
 20
2605.000008150062
 30
0.0
 11
1109.999980186892
 21
2605.000008150062
 31
0.0
  0
LINE
  5
13B36
330
13553
100
AcDbEntity
  8
寸法線
 62
     0
440
 16777216
370
    -2
100
AcDbLine
 10
1188.999980186892
 20
2605.000008150062
 30
0.0
 11
1208.999980186892
 21
2605.000008150062
 31
0.0
  0
LINE
  5
13B37
330
13553
100
AcDbEntity
  8
寸法線
 62
     0
440
 16777216
370
    -2
100
AcDbLine
 10
1149.999980186892
 20
2605.000008150062
 30
0.0
 11
1168.999980186892
 21
2605.000008150062
 31
0.0
  0
INSERT
  5
13B38
330
13553
100
AcDbEntity
  8
寸法線
 62
     0
440
 16777216
370
    -2
100
AcDbBlockReference
  2
_OPEN
 10
1149.999980186892
 20
2605.000008150062
 30
0.0
 41
20.0
 42
20.0
 43
20.0
  0
INSERT
  5
13B39
330
13553
100
AcDbEntity
  8
寸法線
 62
     0
440
 16777216
370
    -2
100
AcDbBlockReference
  2
_OPEN
 10
1168.999980186892
 20
2605.000008150062
 30
0.0
 41
20.0
 42
20.0
 43
20.0
 50
180.0
  0
MTEXT
  5
13B3A
330
13553
100
AcDbEntity
  8
寸法線
 62
     0
440
 16777216
100
AcDbMText
 10
1159.499980186892
 20
2626.250008150063
 30
0.0
 40
25.0
 41
0.0
 46
0.0
 71
     5
 72
     1
  1
\A1;19
 73
     1
 44
1.0
  0
POINT
  5
13B3B
330
13553
100
AcDbEntity
  8
Defpoints
 62
     0
440
 16777216
100
AcDbPoint
 10
1149.999980186892
 20
2436.000045369735
 30
0.0
  0
POINT
  5
13B3C
330
13553
100
AcDbEntity
  8
Defpoints
 62
     0
440
 16777216
100
AcDbPoint
 10
1168.999980186892
 20
2445.000008150061
 30
0.0
  0
POINT
  5
13B3D
330
13553
100
AcDbEntity
  8
Defpoints
 62
     0
440
 16777216
100
AcDbPoint
 10
1168.999980186892
 20
2605.000008150062
 30
0.0
  0
ENDBLK
  5
13555
330
13553
100
AcDbEntity
  8
0
100
AcDbBlockEnd
  0
BLOCK
  5
13562
330
13561
100
AcDbEntity
  8
0
100
AcDbBlockBegin
  2
*D5
 70
     1
 10
0.0
 20
0.0
 30
0.0
  3
*D5
  1

  0
LINE
  5
13B3E
330
13561
100
AcDbEntity
  8
寸法線
 62
     0
440
 16777216
370
    -2
100
AcDbLine
 10
1168.999980186892
 20
2453.750008150061
 30
0.0
 11
1168.999980186892
 21
2615.000008150062
 31
0.0
  0
LINE
  5
13B3F
330
13561
100
AcDbEntity
  8
寸法線
 62
     0
440
 16777216
370
    -2
100
AcDbLine
 10
1699.999980186893
 20
2463.750045369736
 30
0.0
 11
1699.999980186893
 21
2615.000008150062
 31
0.0
  0
LINE
  5
13B40
330
13561
100
AcDbEntity
  8
寸法線
 62
     0
440
 16777216
370
    -2
100
AcDbLine
 10
1188.999980186892
 20
2605.000008150062
 30
0.0
 11
1679.999980186892
 21
2605.000008150062
 31
0.0
  0
INSERT
  5
13B41
330
13561
100
AcDbEntity
  8
寸法線
 62
     0
440
 16777216
370
    -2
100
AcDbBlockReference
  2
_OPEN
 10
1168.999980186892
 20
2605.000008150062
 30
0.0
 41
20.0
 42
20.0
 43
20.0
 50
180.0
  0
INSERT
  5
13B42
330
13561
100
AcDbEntity
  8
寸法線
 62
     0
440
 16777216
370
    -2
100
AcDbBlockReference
  2
_OPEN
 10
1699.999980186893
 20
2605.000008150062
 30
0.0
 41
20.0
 42
20.0
 43
20.0
  0
MTEXT
  5
13B43
330
13561
100
AcDbEntity
  8
寸法線
 62
     0
440
 16777216
100
AcDbMText
 10
1434.499980186892
 20
2626.250008150063
 30
0.0
 40
25.0
 41
0.0
 46
0.0
 71
     5
 72
     1
  1
\A1;531
 73
     1
 44
1.0
  0
POINT
  5
13B44
330
13561
100
AcDbEntity
  8
Defpoints
 62
     0
440
 16777216
100
AcDbPoint
 10
1168.999980186892
 20
2445.000008150061
 30
0.0
  0
POINT
  5
13B45
330
13561
100
AcDbEntity
  8
Defpoints
 62
     0
440
 16777216
100
AcDbPoint
 10
1699.999980186893
 20
2455.000045369736
 30
0.0
  0
POINT
  5
13B46
330
13561
100
AcDbEntity
  8
Defpoints
 62
     0
440
 16777216
100
AcDbPoint
 10
1699.999980186893
 20
2605.000008150062
 30
0.0
  0
ENDBLK
  5
13563
330
13561
100
AcDbEntity
  8
0
100
AcDbBlockEnd
  0
BLOCK
  5
1356E
330
1356D
100
AcDbEntity
  8
0
100
AcDbBlockBegin
  2
*D6
 70
     1
 10
0.0
 20
0.0
 30
0.0
  3
*D6
  1

  0
LINE
  5
13B47
330
1356D
100
AcDbEntity
  8
寸法線
 62
     0
440
 16777216
370
    -2
100
AcDbLine
 10
1160.249980186893
 20
2445.000008150062
 30
0.0
 11
1019.999980186892
 21
2445.000008150062
 31
0.0
  0
LINE
  5
13B48
330
1356D
100
AcDbEntity
  8
寸法線
 62
     0
440
 16777216
370
    -2
100
AcDbLine
 10
1160.249980186893
 20
2045.000008150061
 30
0.0
 11
1019.999980186892
 21
2045.000008150061
 31
0.0
  0
LINE
  5
13B49
330
1356D
100
AcDbEntity
  8
寸法線
 62
     0
440
 16777216
370
    -2
100
AcDbLine
 10
1029.999980186892
 20
2425.000008150062
 30
0.0
 11
1029.999980186892
 21
2065.000008150061
 31
0.0
  0
INSERT
  5
13B4A
330
1356D
100
AcDbEntity
  8
寸法線
 62
     0
440
 16777216
370
    -2
100
AcDbBlockReference
  2
_OPEN
 10
1029.999980186892
 20
2445.000008150062
 30
0.0
 41
20.0
 42
20.0
 43
20.0
 50
90.0
  0
INSERT
  5
13B4B
330
1356D
100
AcDbEntity
  8
寸法線
 62
     0
440
 16777216
370
    -2
100
AcDbBlockReference
  2
_OPEN
 10
1029.999980186892
 20
2045.000008150061
 30
0.0
 41
20.0
 42
20.0
 43
20.0
 50
270.0
  0
MTEXT
  5
13B4C
330
1356D
100
AcDbEntity
  8
寸法線
 62
     0
440
 16777216
100
AcDbMText
 10
1008.749980186892
 20
2245.000008150061
 30
0.0
 40
25.0
 41
0.0
 46
0.0
 71
     5
 72
     1
  1
\A1;400
 11
0.0000000000000001
 21
1.0
 31
0.0
 73
     1
 44
1.0
  0
POINT
  5
13B4D
330
1356D
100
AcDbEntity
  8
Defpoints
 62
     0
440
 16777216
100
AcDbPoint
 10
1168.999980186893
 20
2445.000008150062
 30
0.0
  0
POINT
  5
13B4E
330
1356D
100
AcDbEntity
  8
Defpoints
 62
     0
440
 16777216
100
AcDbPoint
 10
1168.999980186893
 20
2045.000008150061
 30
0.0
  0
POINT
  5
13B4F
330
1356D
100
AcDbEntity
  8
Defpoints
 62
     0
440
 16777216
100
AcDbPoint
 10
1029.999980186892
 20
2045.000008150061
 30
0.0
  0
ENDBLK
  5
1356F
330
1356D
100
AcDbEntity
  8
0
100
AcDbBlockEnd
  0
BLOCK
  5
1357A
330
13579
100
AcDbEntity
  8
0
100
AcDbBlockBegin
  2
*D7
 70
     1
 10
0.0
 20
0.0
 30
0.0
  3
*D7
  1

  0
LINE
  5
13B50
330
13579
100
AcDbEntity
  8
寸法線
 62
     0
440
 16777216
370
    -2
100
AcDbLine
 10
1149.999980186892
 20
2444.750045369735
 30
0.0
 11
1149.999980186892
 21
2695.000008150062
 31
0.0
  0
LINE
  5
13B51
330
13579
100
AcDbEntity
  8
寸法線
 62
     0
440
 16777216
370
    -2
100
AcDbLine
 10
1699.999980186893
 20
2463.750045369736
 30
0.0
 11
1699.999980186893
 21
2695.000008150062
 31
0.0
  0
LINE
  5
13B52
330
13579
100
AcDbEntity
  8
寸法線
 62
     0
440
 16777216
370
    -2
100
AcDbLine
 10
1169.999980186892
 20
2685.000008150062
 30
0.0
 11
1679.999980186892
 21
2685.000008150062
 31
0.0
  0
INSERT
  5
13B53
330
13579
100
AcDbEntity
  8
寸法線
 62
     0
440
 16777216
370
    -2
100
AcDbBlockReference
  2
_OPEN
 10
1149.999980186892
 20
2685.000008150062
 30
0.0
 41
20.0
 42
20.0
 43
20.0
 50
180.0
  0
INSERT
  5
13B54
330
13579
100
AcDbEntity
  8
寸法線
 62
     0
440
 16777216
370
    -2
100
AcDbBlockReference
  2
_OPEN
 10
1699.999980186893
 20
2685.000008150062
 30
0.0
 41
20.0
 42
20.0
 43
20.0
  0
MTEXT
  5
13B55
330
13579
100
AcDbEntity
  8
寸法線
 62
     0
440
 16777216
100
AcDbMText
 10
1424.999980186892
 20
2706.250008150062
 30
0.0
 40
25.0
 41
0.0
 46
0.0
 71
     5
 72
     1
  1
\A1;550
 73
     1
 44
1.0
  0
MTEXT
  5
13B56
330
13579
100
AcDbEntity
  8
寸法線
 62
     0
440
 16777216
100
AcDbMText
 10
1424.999980186892
 20
2663.750008150062
 30
0.0
 40
25.0
 41
0.0
 46
0.0
 71
     5
 72
     1
  1
\A1;H型鋼（連結部）
 73
     1
 44
1.0
  0
POINT
  5
13B57
330
13579
100
AcDbEntity
  8
Defpoints
 62
     0
440
 16777216
100
AcDbPoint
 10
1149.999980186892
 20
2436.000045369735
 30
0.0
  0
POINT
  5
13B58
330
13579
100
AcDbEntity
  8
Defpoints
 62
     0
440
 16777216
100
AcDbPoint
 10
1699.999980186893
 20
2455.000045369736
 30
0.0
  0
POINT
  5
13B59
330
13579
100
AcDbEntity
  8
Defpoints
 62
     0
440
 16777216
100
AcDbPoint
 10
1699.999980186893
 20
2685.000008150062
 30
0.0
  0
ENDBLK
  5
1357B
330
13579
100
AcDbEntity
  8
0
100
AcDbBlockEnd
  0
BLOCK
  5
13587
330
13586
100
AcDbEntity
  8
0
100
AcDbBlockBegin
  2
*D8
 70
     1
 10
0.0
 20
0.0
 30
0.0
  3
*D8
  1

  0
LINE
  5
13B5A
330
13586
100
AcDbEntity
  8
寸法線
 62
     0
440
 16777216
370
    -2
100
AcDbLine
 10
1700.000000000002
 20
2463.750021956392
 30
0.0
 11
1700.000000000002
 21
2695.000008150062
 31
0.0
  0
LINE
  5
13B5B
330
13586
100
AcDbEntity
  8
寸法線
 62
     0
440
 16777216
370
    -2
100
AcDbLine
 10
2100.000000000002
 20
2463.749999027745
 30
0.0
 11
2100.000000000002
 21
2695.000008150062
 31
0.0
  0
LINE
  5
13B5C
330
13586
100
AcDbEntity
  8
寸法線
 62
     0
440
 16777216
370
    -2
100
AcDbLine
 10
1720.000000000001
 20
2685.000008150062
 30
0.0
 11
2080.000000000002
 21
2685.000008150062
 31
0.0
  0
INSERT
  5
13B5D
330
13586
100
AcDbEntity
  8
寸法線
 62
     0
440
 16777216
370
    -2
100
AcDbBlockReference
  2
_OPEN
 10
1700.000000000002
 20
2685.000008150062
 30
0.0
 41
20.0
 42
20.0
 43
20.0
 50
180.0
  0
INSERT
  5
13B5E
330
13586
100
AcDbEntity
  8
寸法線
 62
     0
440
 16777216
370
    -2
100
AcDbBlockReference
  2
_OPEN
 10
2100.000000000002
 20
2685.000008150062
 30
0.0
 41
20.0
 42
20.0
 43
20.0
  0
MTEXT
  5
13B5F
330
13586
100
AcDbEntity
  8
寸法線
 62
     0
440
 16777216
100
AcDbMText
 10
1900.000000000002
 20
2706.250008150062
 30
0.0
 40
25.0
 41
0.0
 46
0.0
 71
     5
 72
     1
  1
\A1;W=400
 73
     1
 44
1.0
  0
MTEXT
  5
13B60
330
13586
100
AcDbEntity
  8
寸法線
 62
     0
440
 16777216
100
AcDbMText
 10
1900.000000000002
 20
2663.750008150062
 30
0.0
 40
25.0
 41
0.0
 46
0.0
 71
     5
 72
     1
  1
\A1;空洞金具
 73
     1
 44
1.0
  0
POINT
  5
13B61
330
13586
100
AcDbEntity
  8
Defpoints
 62
     0
440
 16777216
100
AcDbPoint
 10
1700.000000000002
 20
2455.000021956392
 30
0.0
  0
POINT
  5
13B62
330
13586
100
AcDbEntity
  8
Defpoints
 62
     0
440
 16777216
100
AcDbPoint
 10
2100.000000000002
 20
2454.999999027745
 30
0.0
  0
POINT
  5
13B63
330
13586
100
AcDbEntity
  8
Defpoints
 62
     0
440
 16777216
100
AcDbPoint
 10
2100.000000000002
 20
2685.000008150062
 30
0.0
  0
ENDBLK
  5
13588
330
13586
100
AcDbEntity
  8
0
100
AcDbBlockEnd
  0
BLOCK
  5
13594
330
13593
100
AcDbEntity
  8
0
100
AcDbBlockBegin
  2
*D9
 70
     1
 10
0.0
 20
0.0
 30
0.0
  3
*D9
  1

  0
LINE
  5
13B64
330
13593
100
AcDbEntity
  8
寸法線
 62
     0
440
 16777216
370
    -2
100
AcDbLine
 10
1150.000000000031
 20
2444.750021956406
 30
0.0
 11
1150.000000000031
 21
2775.000008150062
 31
0.0
  0
LINE
  5
13B65
330
13593
100
AcDbEntity
  8
寸法線
 62
     0
440
 16777216
370
    -2
100
AcDbLine
 10
2649.999999999971
 20
2444.750008150076
 30
0.0
 11
2649.999999999971
 21
2775.000008150062
 31
0.0
  0
LINE
  5
13B66
330
13593
100
AcDbEntity
  8
寸法線
 62
     0
440
 16777216
370
    -2
100
AcDbLine
 10
1170.000000000031
 20
2765.000008150062
 30
0.0
 11
2629.999999999971
 21
2765.000008150062
 31
0.0
  0
INSERT
  5
13B67
330
13593
100
AcDbEntity
  8
寸法線
 62
     0
440
 16777216
370
    -2
100
AcDbBlockReference
  2
_OPEN
 10
1150.000000000031
 20
2765.000008150062
 30
0.0
 41
20.0
 42
20.0
 43
20.0
 50
180.0
  0
INSERT
  5
13B68
330
13593
100
AcDbEntity
  8
寸法線
 62
     0
440
 16777216
370
    -2
100
AcDbBlockReference
  2
_OPEN
 10
2649.999999999971
 20
2765.000008150062
 30
0.0
 41
20.0
 42
20.0
 43
20.0
  0
MTEXT
  5
13B69
330
13593
100
AcDbEntity
  8
寸法線
 62
     0
440
 16777216
100
AcDbMText
 10
1900.000000000001
 20
2786.250008150062
 30
0.0
 40
25.0
 41
0.0
 46
0.0
 71
     5
 72
     1
  1
\A1;スルーサーＢ L=1500
 73
     1
 44
1.0
  0
POINT
  5
13B6A
330
13593
100
AcDbEntity
  8
Defpoints
 62
     0
440
 16777216
100
AcDbPoint
 10
1150.000000000031
 20
2436.000021956406
 30
0.0
  0
POINT
  5
13B6B
330
13593
100
AcDbEntity
  8
Defpoints
 62
     0
440
 16777216
100
AcDbPoint
 10
2649.999999999971
 20
2436.000008150076
 30
0.0
  0
POINT
  5
13B6C
330
13593
100
AcDbEntity
  8
Defpoints
 62
     0
440
 16777216
100
AcDbPoint
 10
2649.999999999971
 20
2765.000008150062
 30
0.0
  0
ENDBLK
  5
13595
330
13593
100
AcDbEntity
  8
0
100
AcDbBlockEnd
  0
BLOCK
  5
135A0
330
1359F
100
AcDbEntity
  8
0
100
AcDbBlockBegin
  2
*D10
 70
     1
 10
0.0
 20
0.0
 30
0.0
  3
*D10
  1

  0
LINE
  5
13B8A
330
1359F
100
AcDbEntity
  8
寸法線
 62
     0
440
 16777216
370
    -2
100
AcDbLine
 10
2228.749980186872
 20
1824.499979812824
 30
0.0
 11
2309.999980186869
 21
1824.499979812824
 31
0.0
  0
LINE
  5
13B8B
330
1359F
100
AcDbEntity
  8
寸法線
 62
     0
440
 16777216
370
    -2
100
AcDbLine
 10
2228.749980186872
 20
1805.499979812824
 30
0.0
 11
2309.999980186869
 21
1805.499979812824
 31
0.0
  0
LINE
  5
13B8C
330
1359F
100
AcDbEntity
  8
寸法線
 62
     0
440
 16777216
370
    -2
100
AcDbLine
 10
2299.999980186869
 20
1844.499979812823
 30
0.0
 11
2299.999980186869
 21
1864.499979812824
 31
0.0
  0
LINE
  5
13B8D
330
1359F
100
AcDbEntity
  8
寸法線
 62
     0
440
 16777216
370
    -2
100
AcDbLine
 10
2299.999980186869
 20
1785.499979812823
 30
0.0
 11
2299.999980186869
 21
1765.499979812824
 31
0.0
  0
LINE
  5
13B8E
330
1359F
100
AcDbEntity
  8
寸法線
 62
     0
440
 16777216
370
    -2
100
AcDbLine
 10
2299.999980186869
 20
1824.499979812824
 30
0.0
 11
2299.999980186869
 21
1805.499979812824
 31
0.0
  0
INSERT
  5
13B8F
330
1359F
100
AcDbEntity
  8
寸法線
 62
     0
440
 16777216
370
    -2
100
AcDbBlockReference
  2
_OPEN
 10
2299.999980186869
 20
1824.499979812824
 30
0.0
 41
20.0
 42
20.0
 43
20.0
 50
270.0
  0
INSERT
  5
13B90
330
1359F
100
AcDbEntity
  8
寸法線
 62
     0
440
 16777216
370
    -2
100
AcDbBlockReference
  2
_OPEN
 10
2299.999980186869
 20
1805.499979812824
 30
0.0
 41
20.0
 42
20.0
 43
20.0
 50
90.0
  0
MTEXT
  5
13B91
330
1359F
100
AcDbEntity
  8
寸法線
 62
     0
440
 16777216
100
AcDbMText
 10
2278.749980186869
 20
1814.999979812823
 30
0.0
 40
25.0
 41
0.0
 46
0.0
 71
     5
 72
     1
  1
\A1;19
 11
0.0000000000000001
 21
1.0
 31
0.0
 73
     1
 44
1.0
  0
POINT
  5
13B92
330
1359F
100
AcDbEntity
  8
Defpoints
 62
     0
440
 16777216
100
AcDbPoint
 10
2219.999980186872
 20
1824.499979812824
 30
0.0
  0
POINT
  5
13B93
330
1359F
100
AcDbEntity
  8
Defpoints
 62
     0
440
 16777216
100
AcDbPoint
 10
2219.999980186872
 20
1805.499979812824
 30
0.0
  0
POINT
  5
13B94
330
1359F
100
AcDbEntity
  8
Defpoints
 62
     0
440
 16777216
100
AcDbPoint
 10
2299.999980186869
 20
1805.499979812824
 30
0.0
  0
ENDBLK
  5
135A1
330
1359F
100
AcDbEntity
  8
0
100
AcDbBlockEnd
  0
BLOCK
  5
135AE
330
135AD
100
AcDbEntity
  8
0
100
AcDbBlockBegin
  2
*D11
 70
     1
 10
0.0
 20
0.0
 30
0.0
  3
*D11
  1

  0
LINE
  5
13B95
330
135AD
100
AcDbEntity
  8
寸法線
 62
     0
440
 16777216
370
    -2
100
AcDbLine
 10
2236.75000376647
 20
1475.000047924227
 30
0.0
 11
2309.999980186869
 21
1475.000047924227
 31
0.0
  0
LINE
  5
13B96
330
135AD
100
AcDbEntity
  8
寸法線
 62
     0
440
 16777216
370
    -2
100
AcDbLine
 10
2108.750000000003
 20
1444.999980016172
 30
0.0
 11
2309.999980186869
 21
1444.999980016172
 31
0.0
  0
LINE
  5
13B97
330
135AD
100
AcDbEntity
  8
寸法線
 62
     0
440
 16777216
370
    -2
100
AcDbLine
 10
2299.999980186869
 20
1495.000047924228
 30
0.0
 11
2299.999980186869
 21
1515.000047924227
 31
0.0
  0
LINE
  5
13B98
330
135AD
100
AcDbEntity
  8
寸法線
 62
     0
440
 16777216
370
    -2
100
AcDbLine
 10
2299.999980186869
 20
1424.999980016172
 30
0.0
 11
2299.999980186869
 21
1404.999980016172
 31
0.0
  0
LINE
  5
13B99
330
135AD
100
AcDbEntity
  8
寸法線
 62
     0
440
 16777216
370
    -2
100
AcDbLine
 10
2299.999980186869
 20
1475.000047924227
 30
0.0
 11
2299.999980186869
 21
1444.999980016172
 31
0.0
  0
INSERT
  5
13B9A
330
135AD
100
AcDbEntity
  8
寸法線
 62
     0
440
 16777216
370
    -2
100
AcDbBlockReference
  2
_OPEN
 10
2299.999980186869
 20
1475.000047924227
 30
0.0
 41
20.0
 42
20.0
 43
20.0
 50
270.0
  0
INSERT
  5
13B9B
330
135AD
100
AcDbEntity
  8
寸法線
 62
     0
440
 16777216
370
    -2
100
AcDbBlockReference
  2
_OPEN
 10
2299.999980186869
 20
1444.999980016172
 30
0.0
 41
20.0
 42
20.0
 43
20.0
 50
90.0
  0
MTEXT
  5
13B9C
330
135AD
100
AcDbEntity
  8
寸法線
 62
     0
440
 16777216
100
AcDbMText
 10
2278.749980186869
 20
1460.000013970199
 30
0.0
 40
25.0
 41
0.0
 46
0.0
 71
     5
 72
     1
  1
\A1;30
 11
0.0000000000000001
 21
1.0
 31
0.0
 73
     1
 44
1.0
  0
POINT
  5
13B9D
330
135AD
100
AcDbEntity
  8
Defpoints
 62
     0
440
 16777216
100
AcDbPoint
 10
2228.00000376647
 20
1475.000047924227
 30
0.0
  0
POINT
  5
13B9E
330
135AD
100
AcDbEntity
  8
Defpoints
 62
     0
440
 16777216
100
AcDbPoint
 10
2100.000000000003
 20
1444.999980016172
 30
0.0
  0
POINT
  5
13B9F
330
135AD
100
AcDbEntity
  8
Defpoints
 62
     0
440
 16777216
100
AcDbPoint
 10
2299.999980186869
 20
1444.999980016172
 30
0.0
  0
ENDBLK
  5
135AF
330
135AD
100
AcDbEntity
  8
0
100
AcDbBlockEnd
  0
BLOCK
  5
135BC
330
135BB
100
AcDbEntity
  8
0
100
AcDbBlockBegin
  2
*D12
 70
     1
 10
0.0
 20
0.0
 30
0.0
  3
*D12
  1

  0
LINE
  5
13B6D
330
135BB
100
AcDbEntity
  8
寸法線
 62
     0
440
 16777216
370
    -2
100
AcDbLine
 10
2650.000226983166
 20
2444.750045369735
 30
0.0
 11
2650.000226983166
 21
2615.000008150062
 31
0.0
  0
LINE
  5
13B6E
330
135BB
100
AcDbEntity
  8
寸法線
 62
     0
440
 16777216
370
    -2
100
AcDbLine
 10
2631.000226983166
 20
2453.750008150061
 30
0.0
 11
2631.000226983166
 21
2615.000008150062
 31
0.0
  0
LINE
  5
13B6F
330
135BB
100
AcDbEntity
  8
寸法線
 62
     0
440
 16777216
370
    -2
100
AcDbLine
 10
2670.000226983166
 20
2605.000008150062
 30
0.0
 11
2690.000226983166
 21
2605.000008150062
 31
0.0
  0
LINE
  5
13B70
330
135BB
100
AcDbEntity
  8
寸法線
 62
     0
440
 16777216
370
    -2
100
AcDbLine
 10
2611.000226983166
 20
2605.000008150062
 30
0.0
 11
2591.000226983166
 21
2605.000008150062
 31
0.0
  0
LINE
  5
13B71
330
135BB
100
AcDbEntity
  8
寸法線
 62
     0
440
 16777216
370
    -2
100
AcDbLine
 10
2650.000226983166
 20
2605.000008150062
 30
0.0
 11
2631.000226983166
 21
2605.000008150062
 31
0.0
  0
INSERT
  5
13B72
330
135BB
100
AcDbEntity
  8
寸法線
 62
     0
440
 16777216
370
    -2
100
AcDbBlockReference
  2
_OPEN
 10
2650.000226983166
 20
2605.000008150062
 30
0.0
 41
20.0
 42
20.0
 43
20.0
 50
180.0
  0
INSERT
  5
13B73
330
135BB
100
AcDbEntity
  8
寸法線
 62
     0
440
 16777216
370
    -2
100
AcDbBlockReference
  2
_OPEN
 10
2631.000226983166
 20
2605.000008150062
 30
0.0
 41
20.0
 42
20.0
 43
20.0
  0
MTEXT
  5
13B74
330
135BB
100
AcDbEntity
  8
寸法線
 62
     0
440
 16777216
100
AcDbMText
 10
2640.500226983166
 20
2626.250008150063
 30
0.0
 40
25.0
 41
0.0
 46
0.0
 71
     5
 72
     1
  1
\A1;19
 73
     1
 44
1.0
  0
POINT
  5
13B75
330
135BB
100
AcDbEntity
  8
Defpoints
 62
     0
440
 16777216
100
AcDbPoint
 10
2650.000226983166
 20
2436.000045369735
 30
0.0
  0
POINT
  5
13B76
330
135BB
100
AcDbEntity
  8
Defpoints
 62
     0
440
 16777216
100
AcDbPoint
 10
2631.000226983166
 20
2445.000008150061
 30
0.0
  0
POINT
  5
13B77
330
135BB
100
AcDbEntity
  8
Defpoints
 62
     0
440
 16777216
100
AcDbPoint
 10
2631.000226983166
 20
2605.000008150062
 30
0.0
  0
ENDBLK
  5
135BD
330
135BB
100
AcDbEntity
  8
0
100
AcDbBlockEnd
  0
BLOCK
  5
135CA
330
135C9
100
AcDbEntity
  8
0
100
AcDbBlockBegin
  2
*D13
 70
     1
 10
0.0
 20
0.0
 30
0.0
  3
*D13
  1

  0
LINE
  5
13B78
330
135C9
100
AcDbEntity
  8
寸法線
 62
     0
440
 16777216
370
    -2
100
AcDbLine
 10
2631.000226983166
 20
2453.750008150061
 30
0.0
 11
2631.000226983166
 21
2615.000008150062
 31
0.0
  0
LINE
  5
13B79
330
135C9
100
AcDbEntity
  8
寸法線
 62
     0
440
 16777216
370
    -2
100
AcDbLine
 10
2100.000226983166
 20
2463.750045369736
 30
0.0
 11
2100.000226983166
 21
2615.000008150062
 31
0.0
  0
LINE
  5
13B7A
330
135C9
100
AcDbEntity
  8
寸法線
 62
     0
440
 16777216
370
    -2
100
AcDbLine
 10
2611.000226983166
 20
2605.000008150062
 30
0.0
 11
2120.000226983166
 21
2605.000008150062
 31
0.0
  0
INSERT
  5
13B7B
330
135C9
100
AcDbEntity
  8
寸法線
 62
     0
440
 16777216
370
    -2
100
AcDbBlockReference
  2
_OPEN
 10
2631.000226983166
 20
2605.000008150062
 30
0.0
 41
20.0
 42
20.0
 43
20.0
  0
INSERT
  5
13B7C
330
135C9
100
AcDbEntity
  8
寸法線
 62
     0
440
 16777216
370
    -2
100
AcDbBlockReference
  2
_OPEN
 10
2100.000226983166
 20
2605.000008150062
 30
0.0
 41
20.0
 42
20.0
 43
20.0
 50
180.0
  0
MTEXT
  5
13B7D
330
135C9
100
AcDbEntity
  8
寸法線
 62
     0
440
 16777216
100
AcDbMText
 10
2365.500226983166
 20
2626.250008150063
 30
0.0
 40
25.0
 41
0.0
 46
0.0
 71
     5
 72
     1
  1
\A1;531
 73
     1
 44
1.0
  0
POINT
  5
13B7E
330
135C9
100
AcDbEntity
  8
Defpoints
 62
     0
440
 16777216
100
AcDbPoint
 10
2631.000226983166
 20
2445.000008150061
 30
0.0
  0
POINT
  5
13B7F
330
135C9
100
AcDbEntity
  8
Defpoints
 62
     0
440
 16777216
100
AcDbPoint
 10
2100.000226983166
 20
2455.000045369736
 30
0.0
  0
POINT
  5
13B80
330
135C9
100
AcDbEntity
  8
Defpoints
 62
     0
440
 16777216
100
AcDbPoint
 10
2100.000226983166
 20
2605.000008150062
 30
0.0
  0
ENDBLK
  5
135CB
330
135C9
100
AcDbEntity
  8
0
100
AcDbBlockEnd
  0
BLOCK
  5
135D6
330
135D5
100
AcDbEntity
  8
0
100
AcDbBlockBegin
  2
*D14
 70
     1
 10
0.0
 20
0.0
 30
0.0
  3
*D14
  1

  0
LINE
  5
13B81
330
135D5
100
AcDbEntity
  8
寸法線
 62
     0
440
 16777216
370
    -2
100
AcDbLine
 10
2650.000000000002
 20
1436.250026154805
 30
0.0
 11
2650.000000000002
 21
1275.000026154806
 31
0.0
  0
LINE
  5
13B82
330
135D5
100
AcDbEntity
  8
寸法線
 62
     0
440
 16777216
370
    -2
100
AcDbLine
 10
2100.000000000002
 20
1426.250063374479
 30
0.0
 11
2100.000000000002
 21
1275.000026154806
 31
0.0
  0
LINE
  5
13B83
330
135D5
100
AcDbEntity
  8
寸法線
 62
     0
440
 16777216
370
    -2
100
AcDbLine
 10
2630.000000000002
 20
1285.000026154806
 30
0.0
 11
2120.000000000002
 21
1285.000026154806
 31
0.0
  0
INSERT
  5
13B84
330
135D5
100
AcDbEntity
  8
寸法線
 62
     0
440
 16777216
370
    -2
100
AcDbBlockReference
  2
_OPEN
 10
2650.000000000002
 20
1285.000026154806
 30
0.0
 41
20.0
 42
20.0
 43
20.0
  0
INSERT
  5
13B85
330
135D5
100
AcDbEntity
  8
寸法線
 62
     0
440
 16777216
370
    -2
100
AcDbBlockReference
  2
_OPEN
 10
2100.000000000002
 20
1285.000026154806
 30
0.0
 41
20.0
 42
20.0
 43
20.0
 50
180.0
  0
MTEXT
  5
13B86
330
135D5
100
AcDbEntity
  8
寸法線
 62
     0
440
 16777216
100
AcDbMText
 10
2375.000000000002
 20
1306.250026154806
 30
0.0
 40
25.0
 41
0.0
 46
0.0
 71
     5
 72
     1
  1
\A1;550
 73
     1
 44
1.0
  0
POINT
  5
13B87
330
135D5
100
AcDbEntity
  8
Defpoints
 62
     0
440
 16777216
100
AcDbPoint
 10
2650.000000000002
 20
1445.000026154805
 30
0.0
  0
POINT
  5
13B88
330
135D5
100
AcDbEntity
  8
Defpoints
 62
     0
440
 16777216
100
AcDbPoint
 10
2100.000000000002
 20
1435.000063374479
 30
0.0
  0
POINT
  5
13B89
330
135D5
100
AcDbEntity
  8
Defpoints
 62
     0
440
 16777216
100
AcDbPoint
 10
2100.000000000002
 20
1285.000026154806
 30
0.0
  0
ENDBLK
  5
135D7
330
135D5
100
AcDbEntity
  8
0
100
AcDbBlockEnd
  0
BLOCK
  5
135E2
330
135E1
100
AcDbEntity
  8
0
100
AcDbBlockBegin
  2
*D15
 70
     1
 10
0.0
 20
0.0
 30
0.0
  3
*D15
  1

  0
LINE
  5
13C68
330
135E1
100
AcDbEntity
  8
寸法線
 62
     0
440
 16777216
370
    -2
100
AcDbLine
 10
2658.750226983164
 20
2436.000045369737
 30
0.0
 11
2780.000226983163
 21
2436.000045369737
 31
0.0
  0
LINE
  5
13C69
330
135E1
100
AcDbEntity
  8
寸法線
 62
     0
440
 16777216
370
    -2
100
AcDbLine
 10
2658.750226983164
 20
2054.000045369736
 30
0.0
 11
2780.000226983163
 21
2054.000045369736
 31
0.0
  0
LINE
  5
13C6A
330
135E1
100
AcDbEntity
  8
寸法線
 62
     0
440
 16777216
370
    -2
100
AcDbLine
 10
2770.000226983163
 20
2416.000045369737
 30
0.0
 11
2770.000226983163
 21
2074.000045369736
 31
0.0
  0
INSERT
  5
13C6B
330
135E1
100
AcDbEntity
  8
寸法線
 62
     0
440
 16777216
370
    -2
100
AcDbBlockReference
  2
_OPEN
 10
2770.000226983163
 20
2436.000045369737
 30
0.0
 41
20.0
 42
20.0
 43
20.0
 50
90.0
  0
INSERT
  5
13C6C
330
135E1
100
AcDbEntity
  8
寸法線
 62
     0
440
 16777216
370
    -2
100
AcDbBlockReference
  2
_OPEN
 10
2770.000226983163
 20
2054.000045369736
 30
0.0
 41
20.0
 42
20.0
 43
20.0
 50
270.0
  0
MTEXT
  5
13C6D
330
135E1
100
AcDbEntity
  8
寸法線
 62
     0
440
 16777216
100
AcDbMText
 10
2748.747766353242
 20
2245.000008150062
 30
0.0
 40
25.0
 41
0.0
 46
0.0
 71
     5
 72
     1
  1
\A1;382
 11
0.0000000000000001
 21
1.0
 31
0.0
 73
     1
 44
1.0
  0
POINT
  5
13C6E
330
135E1
100
AcDbEntity
  8
Defpoints
 62
     0
440
 16777216
100
AcDbPoint
 10
2650.000226983164
 20
2436.000045369737
 30
0.0
  0
POINT
  5
13C6F
330
135E1
100
AcDbEntity
  8
Defpoints
 62
     0
440
 16777216
100
AcDbPoint
 10
2650.000226983164
 20
2054.000045369736
 30
0.0
  0
POINT
  5
13C70
330
135E1
100
AcDbEntity
  8
Defpoints
 62
     0
440
 16777216
100
AcDbPoint
 10
2770.000226983163
 20
2054.000045369736
 30
0.0
  0
ENDBLK
  5
135E3
330
135E1
100
AcDbEntity
  8
0
100
AcDbBlockEnd
  0
BLOCK
  5
135EE
330
135ED
100
AcDbEntity
  8
0
100
AcDbBlockBegin
  2
*D16
 70
     1
 10
0.0
 20
0.0
 30
0.0
  3
*D16
  1

  0
LINE
  5
13BA0
330
135ED
100
AcDbEntity
  8
寸法線
 62
     0
440
 16777216
370
    -2
100
AcDbLine
 10
3549.99999999997
 20
2036.249988336965
 30
0.0
 11
3549.99999999997
 21
1914.999988336965
 31
0.0
  0
LINE
  5
13BA1
330
135ED
100
AcDbEntity
  8
寸法線
 62
     0
440
 16777216
370
    -2
100
AcDbLine
 10
3149.999999999969
 20
2036.249988336965
 30
0.0
 11
3149.999999999969
 21
1914.999988336965
 31
0.0
  0
LINE
  5
13BA2
330
135ED
100
AcDbEntity
  8
寸法線
 62
     0
440
 16777216
370
    -2
100
AcDbLine
 10
3529.999999999969
 20
1924.999988336965
 30
0.0
 11
3169.999999999969
 21
1924.999988336965
 31
0.0
  0
INSERT
  5
13BA3
330
135ED
100
AcDbEntity
  8
寸法線
 62
     0
440
 16777216
370
    -2
100
AcDbBlockReference
  2
_OPEN
 10
3549.99999999997
 20
1924.999988336965
 30
0.0
 41
20.0
 42
20.0
 43
20.0
  0
INSERT
  5
13BA4
330
135ED
100
AcDbEntity
  8
寸法線
 62
     0
440
 16777216
370
    -2
100
AcDbBlockReference
  2
_OPEN
 10
3149.999999999969
 20
1924.999988336965
 30
0.0
 41
20.0
 42
20.0
 43
20.0
 50
180.0
  0
MTEXT
  5
13BA5
330
135ED
100
AcDbEntity
  8
寸法線
 62
     0
440
 16777216
100
AcDbMText
 10
3349.999999999971
 20
1946.249988336965
 30
0.0
 40
25.0
 41
0.0
 46
0.0
 71
     5
 72
     1
  1
\A1;400
 73
     1
 44
1.0
  0
POINT
  5
13BA6
330
135ED
100
AcDbEntity
  8
Defpoints
 62
     0
440
 16777216
100
AcDbPoint
 10
3549.99999999997
 20
2044.999988336965
 30
0.0
  0
POINT
  5
13BA7
330
135ED
100
AcDbEntity
  8
Defpoints
 62
     0
440
 16777216
100
AcDbPoint
 10
3149.999999999969
 20
2044.999988336965
 30
0.0
  0
POINT
  5
13BA8
330
135ED
100
AcDbEntity
  8
Defpoints
 62
     0
440
 16777216
100
AcDbPoint
 10
3149.999999999969
 20
1924.999988336965
 30
0.0
  0
ENDBLK
  5
135EF
330
135ED
100
AcDbEntity
  8
0
100
AcDbBlockEnd
  0
BLOCK
  5
135FA
330
135F9
100
AcDbEntity
  8
0
100
AcDbBlockBegin
  2
*D17
 70
     1
 10
0.0
 20
0.0
 30
0.0
  3
*D17
  1

  0
LINE
  5
13BA9
330
135F9
100
AcDbEntity
  8
寸法線
 62
     0
440
 16777216
370
    -2
100
AcDbLine
 10
3141.249999999969
 20
2445.000027963184
 30
0.0
 11
3019.999999999968
 21
2445.000027963183
 31
0.0
  0
LINE
  5
13BAA
330
135F9
100
AcDbEntity
  8
寸法線
 62
     0
440
 16777216
370
    -2
100
AcDbLine
 10
3141.249999999969
 20
2045.000027963183
 30
0.0
 11
3019.999999999968
 21
2045.000027963183
 31
0.0
  0
LINE
  5
13BAB
330
135F9
100
AcDbEntity
  8
寸法線
 62
     0
440
 16777216
370
    -2
100
AcDbLine
 10
3029.999999999967
 20
2425.000027963183
 30
0.0
 11
3029.999999999967
 21
2065.000027963182
 31
0.0
  0
INSERT
  5
13BAC
330
135F9
100
AcDbEntity
  8
寸法線
 62
     0
440
 16777216
370
    -2
100
AcDbBlockReference
  2
_OPEN
 10
3029.999999999967
 20
2445.000027963183
 30
0.0
 41
20.0
 42
20.0
 43
20.0
 50
90.0
  0
INSERT
  5
13BAD
330
135F9
100
AcDbEntity
  8
寸法線
 62
     0
440
 16777216
370
    -2
100
AcDbBlockReference
  2
_OPEN
 10
3029.999999999967
 20
2045.000027963183
 30
0.0
 41
20.0
 42
20.0
 43
20.0
 50
270.0
  0
MTEXT
  5
13BAE
330
135F9
100
AcDbEntity
  8
寸法線
 62
     0
440
 16777216
100
AcDbMText
 10
3008.749999999967
 20
2245.000008150074
 30
0.0
 40
25.0
 41
0.0
 46
0.0
 71
     5
 72
     1
  1
\A1;400
 11
0.0000000000000001
 21
1.0
 31
0.0
 73
     1
 44
1.0
  0
POINT
  5
13BAF
330
135F9
100
AcDbEntity
  8
Defpoints
 62
     0
440
 16777216
100
AcDbPoint
 10
3149.999999999969
 20
2445.000027963184
 30
0.0
  0
POINT
  5
13BB0
330
135F9
100
AcDbEntity
  8
Defpoints
 62
     0
440
 16777216
100
AcDbPoint
 10
3149.999999999969
 20
2045.000027963183
 30
0.0
  0
POINT
  5
13BB1
330
135F9
100
AcDbEntity
  8
Defpoints
 62
     0
440
 16777216
100
AcDbPoint
 10
3029.999999999967
 20
2045.000027963183
 30
0.0
  0
ENDBLK
  5
135FB
330
135F9
100
AcDbEntity
  8
0
100
AcDbBlockEnd
  0
BLOCK
  5
13606
330
13605
100
AcDbEntity
  8
0
100
AcDbBlockBegin
  2
*D18
 70
     1
 10
0.0
 20
0.0
 30
0.0
  3
*D18
  1

  0
LINE
  5
13BB2
330
13605
100
AcDbEntity
  8
寸法線
 62
     0
440
 16777216
370
    -2
100
AcDbLine
 10
2422.24998018687
 20
2251.000004796828
 30
0.0
 11
2320.99999462186
 21
2251.000004796828
 31
0.0
  0
LINE
  5
13BB3
330
13605
100
AcDbEntity
  8
寸法線
 62
     0
440
 16777216
370
    -2
100
AcDbLine
 10
2422.24998018687
 20
2239.000004796828
 30
0.0
 11
2320.99999462186
 21
2239.000004796828
 31
0.0
  0
LINE
  5
13BB4
330
13605
100
AcDbEntity
  8
寸法線
 62
     0
440
 16777216
370
    -2
100
AcDbLine
 10
2330.99999462186
 20
2271.000004796828
 30
0.0
 11
2330.99999462186
 21
2291.000004796828
 31
0.0
  0
LINE
  5
13BB5
330
13605
100
AcDbEntity
  8
寸法線
 62
     0
440
 16777216
370
    -2
100
AcDbLine
 10
2330.99999462186
 20
2219.000004796828
 30
0.0
 11
2330.99999462186
 21
2199.000004796828
 31
0.0
  0
LINE
  5
13BB6
330
13605
100
AcDbEntity
  8
寸法線
 62
     0
440
 16777216
370
    -2
100
AcDbLine
 10
2330.99999462186
 20
2251.000004796828
 30
0.0
 11
2330.99999462186
 21
2239.000004796828
 31
0.0
  0
INSERT
  5
13BB7
330
13605
100
AcDbEntity
  8
寸法線
 62
     0
440
 16777216
370
    -2
100
AcDbBlockReference
  2
_OPEN
 10
2330.99999462186
 20
2251.000004796828
 30
0.0
 41
20.0
 42
20.0
 43
20.0
 50
270.0
  0
INSERT
  5
13BB8
330
13605
100
AcDbEntity
  8
寸法線
 62
     0
440
 16777216
370
    -2
100
AcDbBlockReference
  2
_OPEN
 10
2330.99999462186
 20
2239.000004796828
 30
0.0
 41
20.0
 42
20.0
 43
20.0
 50
90.0
  0
MTEXT
  5
13BB9
330
13605
100
AcDbEntity
  8
寸法線
 62
     0
440
 16777216
100
AcDbMText
 10
2309.747533991938
 20
2245.000004796827
 30
0.0
 40
25.0
 41
0.0
 46
0.0
 71
     5
 72
     1
  1
\A1;12
 11
0.0000000000000001
 21
1.0
 31
0.0
 73
     1
 44
1.0
  0
POINT
  5
13BBA
330
13605
100
AcDbEntity
  8
Defpoints
 62
     0
440
 16777216
100
AcDbPoint
 10
2430.99998018687
 20
2251.000004796828
 30
0.0
  0
POINT
  5
13BBB
330
13605
100
AcDbEntity
  8
Defpoints
 62
     0
440
 16777216
100
AcDbPoint
 10
2430.99998018687
 20
2239.000004796828
 30
0.0
  0
POINT
  5
13BBC
330
13605
100
AcDbEntity
  8
Defpoints
 62
     0
440
 16777216
100
AcDbPoint
 10
2330.99999462186
 20
2239.000004796828
 30
0.0
  0
ENDBLK
  5
13607
330
13605
100
AcDbEntity
  8
0
100
AcDbBlockEnd
  0
BLOCK
  5
13614
330
13613
100
AcDbEntity
  8
0
100
AcDbBlockBegin
  2
*D19
 70
     1
 10
0.0
 20
0.0
 30
0.0
  3
*D19
  1

  0
LINE
  5
13BBD
330
13613
100
AcDbEntity
  8
寸法線
 62
     0
440
 16777216
370
    -2
100
AcDbLine
 10
2650.0
 20
2444.750045369735
 30
0.0
 11
2650.0
 21
2695.000008150062
 31
0.0
  0
LINE
  5
13BBE
330
13613
100
AcDbEntity
  8
寸法線
 62
     0
440
 16777216
370
    -2
100
AcDbLine
 10
2100.0
 20
2463.750045369736
 30
0.0
 11
2100.0
 21
2695.000008150062
 31
0.0
  0
LINE
  5
13BBF
330
13613
100
AcDbEntity
  8
寸法線
 62
     0
440
 16777216
370
    -2
100
AcDbLine
 10
2630.0
 20
2685.000008150062
 30
0.0
 11
2120.0
 21
2685.000008150062
 31
0.0
  0
INSERT
  5
13BC0
330
13613
100
AcDbEntity
  8
寸法線
 62
     0
440
 16777216
370
    -2
100
AcDbBlockReference
  2
_OPEN
 10
2650.0
 20
2685.000008150062
 30
0.0
 41
20.0
 42
20.0
 43
20.0
  0
INSERT
  5
13BC1
330
13613
100
AcDbEntity
  8
寸法線
 62
     0
440
 16777216
370
    -2
100
AcDbBlockReference
  2
_OPEN
 10
2100.0
 20
2685.000008150062
 30
0.0
 41
20.0
 42
20.0
 43
20.0
 50
180.0
  0
MTEXT
  5
13BC2
330
13613
100
AcDbEntity
  8
寸法線
 62
     0
440
 16777216
100
AcDbMText
 10
2375.0
 20
2706.250008150062
 30
0.0
 40
25.0
 41
0.0
 46
0.0
 71
     5
 72
     1
  1
\A1;550
 73
     1
 44
1.0
  0
MTEXT
  5
13BC3
330
13613
100
AcDbEntity
  8
寸法線
 62
     0
440
 16777216
100
AcDbMText
 10
2375.0
 20
2663.750008150062
 30
0.0
 40
25.0
 41
0.0
 46
0.0
 71
     5
 72
     1
  1
\A1;H型鋼（連結部）
 73
     1
 44
1.0
  0
POINT
  5
13BC4
330
13613
100
AcDbEntity
  8
Defpoints
 62
     0
440
 16777216
100
AcDbPoint
 10
2650.0
 20
2436.000045369735
 30
0.0
  0
POINT
  5
13BC5
330
13613
100
AcDbEntity
  8
Defpoints
 62
     0
440
 16777216
100
AcDbPoint
 10
2100.0
 20
2455.000045369736
 30
0.0
  0
POINT
  5
13BC6
330
13613
100
AcDbEntity
  8
Defpoints
 62
     0
440
 16777216
100
AcDbPoint
 10
2100.0
 20
2685.000008150062
 30
0.0
  0
ENDBLK
  5
13615
330
13613
100
AcDbEntity
  8
0
100
AcDbBlockEnd
  0
BLOCK
  5
13621
330
13620
100
AcDbEntity
  8
0
100
AcDbBlockBegin
  2
*D20
 70
     1
 10
0.0
 20
0.0
 30
0.0
  3
*D20
  1

  0
LINE
  5
13BC7
330
13620
100
AcDbEntity
  8
寸法線
 62
     0
440
 16777216
370
    -2
100
AcDbLine
 10
2051.999999999994
 20
591.2497418043935
 30
0.0
 11
2051.999999999994
 21
489.9999853546278
 31
0.0
  0
LINE
  5
13BC8
330
13620
100
AcDbEntity
  8
寸法線
 62
     0
440
 16777216
370
    -2
100
AcDbLine
 10
2083.999896414979
 20
581.2497418043935
 30
0.0
 11
2083.999896414979
 21
489.9999853546278
 31
0.0
  0
LINE
  5
13BC9
330
13620
100
AcDbEntity
  8
寸法線
 62
     0
440
 16777216
370
    -2
100
AcDbLine
 10
2031.999999999994
 20
499.9999853546277
 30
0.0
 11
2011.999999999994
 21
499.9999853546277
 31
0.0
  0
LINE
  5
13BCA
330
13620
100
AcDbEntity
  8
寸法線
 62
     0
440
 16777216
370
    -2
100
AcDbLine
 10
2103.999896414979
 20
499.9999853546277
 30
0.0
 11
2123.999896414979
 21
499.9999853546277
 31
0.0
  0
LINE
  5
13BCB
330
13620
100
AcDbEntity
  8
寸法線
 62
     0
440
 16777216
370
    -2
100
AcDbLine
 10
2051.999999999994
 20
499.9999853546277
 30
0.0
 11
2083.999896414979
 21
499.9999853546277
 31
0.0
  0
INSERT
  5
13BCC
330
13620
100
AcDbEntity
  8
寸法線
 62
     0
440
 16777216
370
    -2
100
AcDbBlockReference
  2
_OPEN
 10
2051.999999999994
 20
499.9999853546277
 30
0.0
 41
20.0
 42
20.0
 43
20.0
  0
INSERT
  5
13BCD
330
13620
100
AcDbEntity
  8
寸法線
 62
     0
440
 16777216
370
    -2
100
AcDbBlockReference
  2
_OPEN
 10
2083.999896414979
 20
499.9999853546277
 30
0.0
 41
20.0
 42
20.0
 43
20.0
 50
180.0
  0
MTEXT
  5
13BCE
330
13620
100
AcDbEntity
  8
寸法線
 62
     0
440
 16777216
100
AcDbMText
 10
2067.999948207486
 20
521.2524459845491
 30
0.0
 40
25.0
 41
0.0
 46
0.0
 71
     5
 72
     1
  1
\A1;32
 73
     1
 44
1.0
  0
POINT
  5
13BCF
330
13620
100
AcDbEntity
  8
Defpoints
 62
     0
440
 16777216
100
AcDbPoint
 10
2051.999999999994
 20
599.9997418043935
 30
0.0
  0
POINT
  5
13BD0
330
13620
100
AcDbEntity
  8
Defpoints
 62
     0
440
 16777216
100
AcDbPoint
 10
2083.999896414979
 20
589.9997418043936
 30
0.0
  0
POINT
  5
13BD1
330
13620
100
AcDbEntity
  8
Defpoints
 62
     0
440
 16777216
100
AcDbPoint
 10
2083.999896414979
 20
499.9999853546277
 30
0.0
  0
ENDBLK
  5
13622
330
13620
100
AcDbEntity
  8
0
100
AcDbBlockEnd
  0
BLOCK
  5
1362F
330
1362E
100
AcDbEntity
  8
0
100
AcDbBlockBegin
  2
*D21
 70
     1
 10
0.0
 20
0.0
 30
0.0
  3
*D21
  1

  0
LINE
  5
13BD2
330
1362E
100
AcDbEntity
  8
寸法線
 62
     0
440
 16777216
370
    -2
100
AcDbLine
 10
2083.999896414979
 20
581.2497418043935
 30
0.0
 11
2083.999896414979
 21
429.9999853546278
 31
0.0
  0
LINE
  5
13BD3
330
1362E
100
AcDbEntity
  8
寸法線
 62
     0
440
 16777216
370
    -2
100
AcDbLine
 10
2099.999896414979
 20
581.2497418043935
 30
0.0
 11
2099.999896414979
 21
429.9999853546278
 31
0.0
  0
LINE
  5
13BD4
330
1362E
100
AcDbEntity
  8
寸法線
 62
     0
440
 16777216
370
    -2
100
AcDbLine
 10
2063.999896414979
 20
439.9999853546278
 30
0.0
 11
2043.999896414979
 21
439.9999853546278
 31
0.0
  0
LINE
  5
13BD5
330
1362E
100
AcDbEntity
  8
寸法線
 62
     0
440
 16777216
370
    -2
100
AcDbLine
 10
2119.999896414979
 20
439.9999853546278
 30
0.0
 11
2139.999896414979
 21
439.9999853546278
 31
0.0
  0
LINE
  5
13BD6
330
1362E
100
AcDbEntity
  8
寸法線
 62
     0
440
 16777216
370
    -2
100
AcDbLine
 10
2083.999896414979
 20
439.9999853546278
 30
0.0
 11
2099.999896414979
 21
439.9999853546278
 31
0.0
  0
INSERT
  5
13BD7
330
1362E
100
AcDbEntity
  8
寸法線
 62
     0
440
 16777216
370
    -2
100
AcDbBlockReference
  2
_OPEN
 10
2083.999896414979
 20
439.9999853546278
 30
0.0
 41
20.0
 42
20.0
 43
20.0
  0
INSERT
  5
13BD8
330
1362E
100
AcDbEntity
  8
寸法線
 62
     0
440
 16777216
370
    -2
100
AcDbBlockReference
  2
_OPEN
 10
2099.999896414979
 20
439.9999853546278
 30
0.0
 41
20.0
 42
20.0
 43
20.0
 50
180.0
  0
MTEXT
  5
13BD9
330
1362E
100
AcDbEntity
  8
寸法線
 62
     0
440
 16777216
100
AcDbMText
 10
2091.999896414979
 20
461.2499853546278
 30
0.0
 40
25.0
 41
0.0
 46
0.0
 71
     5
 72
     1
  1
\A1;16
 73
     1
 44
1.0
  0
POINT
  5
13BDA
330
1362E
100
AcDbEntity
  8
Defpoints
 62
     0
440
 16777216
100
AcDbPoint
 10
2083.999896414979
 20
589.9997418043936
 30
0.0
  0
POINT
  5
13BDB
330
1362E
100
AcDbEntity
  8
Defpoints
 62
     0
440
 16777216
100
AcDbPoint
 10
2099.999896414979
 20
589.9997418043936
 30
0.0
  0
POINT
  5
13BDC
330
1362E
100
AcDbEntity
  8
Defpoints
 62
     0
440
 16777216
100
AcDbPoint
 10
2099.999896414979
 20
439.9999853546278
 30
0.0
  0
ENDBLK
  5
13630
330
1362E
100
AcDbEntity
  8
0
100
AcDbBlockEnd
  0
BLOCK
  5
1363D
330
1363C
100
AcDbEntity
  8
0
100
AcDbBlockBegin
  2
*D22
 70
     1
 10
0.0
 20
0.0
 30
0.0
  3
*D22
  1

  0
LINE
  5
13BDD
330
1363C
100
AcDbEntity
  8
寸法線
 62
     0
440
 16777216
370
    -2
100
AcDbLine
 10
2015.24989641498
 20
939.9997418043939
 30
0.0
 11
2013.999896414979
 21
939.9997418043939
 31
0.0
  0
LINE
  5
13BDE
330
1363C
100
AcDbEntity
  8
寸法線
 62
     0
440
 16777216
370
    -2
100
AcDbLine
 10
2015.24989641498
 20
999.9997418043941
 30
0.0
 11
2013.999896414979
 21
999.9997418043941
 31
0.0
  0
LINE
  5
13BDF
330
1363C
100
AcDbEntity
  8
寸法線
 62
     0
440
 16777216
370
    -2
100
AcDbLine
 10
2023.999896414979
 20
979.999741804394
 30
0.0
 11
2023.999896414979
 21
959.999741804394
 31
0.0
  0
LINE
  5
13BE0
330
1363C
100
AcDbEntity
  8
寸法線
 62
     0
440
 16777216
370
    -2
100
AcDbLine
 10
2023.999896414979
 20
939.9997418043939
 30
0.0
 11
2023.999896414979
 21
852.4800567650029
 31
0.0
  0
INSERT
  5
13BE1
330
1363C
100
AcDbEntity
  8
寸法線
 62
     0
440
 16777216
370
    -2
100
AcDbBlockReference
  2
_OPEN
 10
2023.999896414979
 20
999.9997418043941
 30
0.0
 41
20.0
 42
20.0
 43
20.0
 50
90.0
  0
INSERT
  5
13BE2
330
1363C
100
AcDbEntity
  8
寸法線
 62
     0
440
 16777216
370
    -2
100
AcDbBlockReference
  2
_OPEN
 10
2023.999896414979
 20
939.9997418043939
 30
0.0
 41
20.0
 42
20.0
 43
20.0
 50
270.0
  0
MTEXT
  5
13BE3
330
1363C
100
AcDbEntity
  8
寸法線
 62
     0
440
 16777216
100
AcDbMText
 10
2002.749896414979
 20
886.239899284687
 30
0.0
 40
25.0
 41
0.0
 46
0.0
 71
     5
 72
     1
  1
\A1;%%C60
 11
0.0000000000000001
 21
1.0
 31
0.0
 73
     1
 44
1.0
  0
POINT
  5
13BE4
330
1363C
100
AcDbEntity
  8
Defpoints
 62
     0
440
 16777216
100
AcDbPoint
 10
2023.99989641498
 20
939.9997418043939
 30
0.0
  0
POINT
  5
13BE5
330
1363C
100
AcDbEntity
  8
Defpoints
 62
     0
440
 16777216
100
AcDbPoint
 10
2023.99989641498
 20
999.9997418043941
 30
0.0
  0
POINT
  5
13BE6
330
1363C
100
AcDbEntity
  8
Defpoints
 62
     0
440
 16777216
100
AcDbPoint
 10
2023.999896414979
 20
999.9997418043941
 30
0.0
  0
ENDBLK
  5
1363E
330
1363C
100
AcDbEntity
  8
0
100
AcDbBlockEnd
  0
BLOCK
  5
1364A
330
13649
100
AcDbEntity
  8
0
100
AcDbBlockBegin
  2
*D23
 70
     1
 10
0.0
 20
0.0
 30
0.0
  3
*D23
  1

  0
LINE
  5
13BE7
330
13649
100
AcDbEntity
  8
寸法線
 62
     0
440
 16777216
370
    -2
100
AcDbLine
 10
1715.999896414979
 20
581.2497554878651
 30
0.0
 11
1715.999896414979
 21
489.9999853546278
 31
0.0
  0
LINE
  5
13BE8
330
13649
100
AcDbEntity
  8
寸法線
 62
     0
440
 16777216
370
    -2
100
AcDbLine
 10
1747.999896414979
 20
591.249755487865
 30
0.0
 11
1747.999896414979
 21
489.9999853546278
 31
0.0
  0
LINE
  5
13BE9
330
13649
100
AcDbEntity
  8
寸法線
 62
     0
440
 16777216
370
    -2
100
AcDbLine
 10
1695.999896414979
 20
499.9999853546277
 30
0.0
 11
1675.999896414979
 21
499.9999853546277
 31
0.0
  0
LINE
  5
13BEA
330
13649
100
AcDbEntity
  8
寸法線
 62
     0
440
 16777216
370
    -2
100
AcDbLine
 10
1767.999896414979
 20
499.9999853546277
 30
0.0
 11
1787.999896414979
 21
499.9999853546277
 31
0.0
  0
LINE
  5
13BEB
330
13649
100
AcDbEntity
  8
寸法線
 62
     0
440
 16777216
370
    -2
100
AcDbLine
 10
1715.999896414979
 20
499.9999853546277
 30
0.0
 11
1747.999896414979
 21
499.9999853546277
 31
0.0
  0
INSERT
  5
13BEC
330
13649
100
AcDbEntity
  8
寸法線
 62
     0
440
 16777216
370
    -2
100
AcDbBlockReference
  2
_OPEN
 10
1715.999896414979
 20
499.9999853546277
 30
0.0
 41
20.0
 42
20.0
 43
20.0
  0
INSERT
  5
13BED
330
13649
100
AcDbEntity
  8
寸法線
 62
     0
440
 16777216
370
    -2
100
AcDbBlockReference
  2
_OPEN
 10
1747.999896414979
 20
499.9999853546277
 30
0.0
 41
20.0
 42
20.0
 43
20.0
 50
180.0
  0
MTEXT
  5
13BEE
330
13649
100
AcDbEntity
  8
寸法線
 62
     0
440
 16777216
100
AcDbMText
 10
1731.999896414979
 20
521.2524459845491
 30
0.0
 40
25.0
 41
0.0
 46
0.0
 71
     5
 72
     1
  1
\A1;32
 73
     1
 44
1.0
  0
POINT
  5
13BEF
330
13649
100
AcDbEntity
  8
Defpoints
 62
     0
440
 16777216
100
AcDbPoint
 10
1715.999896414979
 20
589.999755487865
 30
0.0
  0
POINT
  5
13BF0
330
13649
100
AcDbEntity
  8
Defpoints
 62
     0
440
 16777216
100
AcDbPoint
 10
1747.999896414979
 20
599.9997554878651
 30
0.0
  0
POINT
  5
13BF1
330
13649
100
AcDbEntity
  8
Defpoints
 62
     0
440
 16777216
100
AcDbPoint
 10
1747.999896414979
 20
499.9999853546277
 30
0.0
  0
ENDBLK
  5
1364B
330
13649
100
AcDbEntity
  8
0
100
AcDbBlockEnd
  0
BLOCK
  5
13658
330
13657
100
AcDbEntity
  8
0
100
AcDbBlockBegin
  2
*D24
 70
     1
 10
0.0
 20
0.0
 30
0.0
  3
*D24
  1

  0
LINE
  5
13BF2
330
13657
100
AcDbEntity
  8
寸法線
 62
     0
440
 16777216
370
    -2
100
AcDbLine
 10
1747.999896414979
 20
591.249755487865
 30
0.0
 11
1747.999896414979
 21
489.9999853546278
 31
0.0
  0
LINE
  5
13BF3
330
13657
100
AcDbEntity
  8
寸法線
 62
     0
440
 16777216
370
    -2
100
AcDbLine
 10
2051.999896414979
 20
591.2497418043935
 30
0.0
 11
2051.999896414979
 21
489.9999853546278
 31
0.0
  0
LINE
  5
13BF4
330
13657
100
AcDbEntity
  8
寸法線
 62
     0
440
 16777216
370
    -2
100
AcDbLine
 10
1767.999896414979
 20
499.9999853546277
 30
0.0
 11
2031.999896414979
 21
499.9999853546277
 31
0.0
  0
INSERT
  5
13BF5
330
13657
100
AcDbEntity
  8
寸法線
 62
     0
440
 16777216
370
    -2
100
AcDbBlockReference
  2
_OPEN
 10
1747.999896414979
 20
499.9999853546277
 30
0.0
 41
20.0
 42
20.0
 43
20.0
 50
180.0
  0
INSERT
  5
13BF6
330
13657
100
AcDbEntity
  8
寸法線
 62
     0
440
 16777216
370
    -2
100
AcDbBlockReference
  2
_OPEN
 10
2051.999896414979
 20
499.9999853546277
 30
0.0
 41
20.0
 42
20.0
 43
20.0
  0
MTEXT
  5
13BF7
330
13657
100
AcDbEntity
  8
寸法線
 62
     0
440
 16777216
100
AcDbMText
 10
1899.999896414979
 20
521.2499853546278
 30
0.0
 40
25.0
 41
0.0
 46
0.0
 71
     5
 72
     1
  1
\A1;304
 73
     1
 44
1.0
  0
POINT
  5
13BF8
330
13657
100
AcDbEntity
  8
Defpoints
 62
     0
440
 16777216
100
AcDbPoint
 10
1747.999896414979
 20
599.9997554878651
 30
0.0
  0
POINT
  5
13BF9
330
13657
100
AcDbEntity
  8
Defpoints
 62
     0
440
 16777216
100
AcDbPoint
 10
2051.999896414979
 20
599.9997418043935
 30
0.0
  0
POINT
  5
13BFA
330
13657
100
AcDbEntity
  8
Defpoints
 62
     0
440
 16777216
100
AcDbPoint
 10
2051.999896414979
 20
499.9999853546277
 30
0.0
  0
ENDBLK
  5
13659
330
13657
100
AcDbEntity
  8
0
100
AcDbBlockEnd
  0
BLOCK
  5
13664
330
13663
100
AcDbEntity
  8
0
100
AcDbBlockBegin
  2
*D25
 70
     1
 10
0.0
 20
0.0
 30
0.0
  3
*D25
  1

  0
LINE
  5
13BFB
330
13663
100
AcDbEntity
  8
寸法線
 62
     0
440
 16777216
370
    -2
100
AcDbLine
 10
1699.999896414979
 20
581.2497554878651
 30
0.0
 11
1699.999896414979
 21
429.9999853546278
 31
0.0
  0
LINE
  5
13BFC
330
13663
100
AcDbEntity
  8
寸法線
 62
     0
440
 16777216
370
    -2
100
AcDbLine
 10
1715.999896414979
 20
581.2497554878651
 30
0.0
 11
1715.999896414979
 21
429.9999853546278
 31
0.0
  0
LINE
  5
13BFD
330
13663
100
AcDbEntity
  8
寸法線
 62
     0
440
 16777216
370
    -2
100
AcDbLine
 10
1679.999896414979
 20
439.9999853546278
 30
0.0
 11
1659.999896414979
 21
439.9999853546278
 31
0.0
  0
LINE
  5
13BFE
330
13663
100
AcDbEntity
  8
寸法線
 62
     0
440
 16777216
370
    -2
100
AcDbLine
 10
1735.999896414979
 20
439.9999853546278
 30
0.0
 11
1755.999896414979
 21
439.9999853546278
 31
0.0
  0
LINE
  5
13BFF
330
13663
100
AcDbEntity
  8
寸法線
 62
     0
440
 16777216
370
    -2
100
AcDbLine
 10
1699.999896414979
 20
439.9999853546278
 30
0.0
 11
1715.999896414979
 21
439.9999853546278
 31
0.0
  0
INSERT
  5
13C00
330
13663
100
AcDbEntity
  8
寸法線
 62
     0
440
 16777216
370
    -2
100
AcDbBlockReference
  2
_OPEN
 10
1699.999896414979
 20
439.9999853546278
 30
0.0
 41
20.0
 42
20.0
 43
20.0
  0
INSERT
  5
13C01
330
13663
100
AcDbEntity
  8
寸法線
 62
     0
440
 16777216
370
    -2
100
AcDbBlockReference
  2
_OPEN
 10
1715.999896414979
 20
439.9999853546278
 30
0.0
 41
20.0
 42
20.0
 43
20.0
 50
180.0
  0
MTEXT
  5
13C02
330
13663
100
AcDbEntity
  8
寸法線
 62
     0
440
 16777216
100
AcDbMText
 10
1707.999896414979
 20
461.2499853546278
 30
0.0
 40
25.0
 41
0.0
 46
0.0
 71
     5
 72
     1
  1
\A1;16
 73
     1
 44
1.0
  0
POINT
  5
13C03
330
13663
100
AcDbEntity
  8
Defpoints
 62
     0
440
 16777216
100
AcDbPoint
 10
1699.999896414979
 20
589.999755487865
 30
0.0
  0
POINT
  5
13C04
330
13663
100
AcDbEntity
  8
Defpoints
 62
     0
440
 16777216
100
AcDbPoint
 10
1715.999896414979
 20
589.999755487865
 30
0.0
  0
POINT
  5
13C05
330
13663
100
AcDbEntity
  8
Defpoints
 62
     0
440
 16777216
100
AcDbPoint
 10
1715.999896414979
 20
439.9999853546278
 30
0.0
  0
ENDBLK
  5
13665
330
13663
100
AcDbEntity
  8
0
100
AcDbBlockEnd
  0
BLOCK
  5
13672
330
13671
100
AcDbEntity
  8
0
100
AcDbBlockBegin
  2
*D26
 70
     1
 10
0.0
 20
0.0
 30
0.0
  3
*D26
  1

  0
LINE
  5
13C06
330
13671
100
AcDbEntity
  8
寸法線
 62
     0
440
 16777216
370
    -2
100
AcDbLine
 10
1715.999896414979
 20
581.2497554878651
 30
0.0
 11
1715.999896414979
 21
429.9999853546278
 31
0.0
  0
LINE
  5
13C07
330
13671
100
AcDbEntity
  8
寸法線
 62
     0
440
 16777216
370
    -2
100
AcDbLine
 10
2083.999896414979
 20
581.2497600490027
 30
0.0
 11
2083.999896414979
 21
429.9999853546278
 31
0.0
  0
LINE
  5
13C08
330
13671
100
AcDbEntity
  8
寸法線
 62
     0
440
 16777216
370
    -2
100
AcDbLine
 10
1735.999896414979
 20
439.9999853546278
 30
0.0
 11
2063.999896414979
 21
439.9999853546278
 31
0.0
  0
INSERT
  5
13C09
330
13671
100
AcDbEntity
  8
寸法線
 62
     0
440
 16777216
370
    -2
100
AcDbBlockReference
  2
_OPEN
 10
1715.999896414979
 20
439.9999853546278
 30
0.0
 41
20.0
 42
20.0
 43
20.0
 50
180.0
  0
INSERT
  5
13C0A
330
13671
100
AcDbEntity
  8
寸法線
 62
     0
440
 16777216
370
    -2
100
AcDbBlockReference
  2
_OPEN
 10
2083.999896414979
 20
439.9999853546278
 30
0.0
 41
20.0
 42
20.0
 43
20.0
  0
MTEXT
  5
13C0B
330
13671
100
AcDbEntity
  8
寸法線
 62
     0
440
 16777216
100
AcDbMText
 10
1899.999896414979
 20
461.2499853546278
 30
0.0
 40
25.0
 41
0.0
 46
0.0
 71
     5
 72
     1
  1
\A1;368
 73
     1
 44
1.0
  0
POINT
  5
13C0C
330
13671
100
AcDbEntity
  8
Defpoints
 62
     0
440
 16777216
100
AcDbPoint
 10
1715.999896414979
 20
589.999755487865
 30
0.0
  0
POINT
  5
13C0D
330
13671
100
AcDbEntity
  8
Defpoints
 62
     0
440
 16777216
100
AcDbPoint
 10
2083.999896414979
 20
589.9997600490028
 30
0.0
  0
POINT
  5
13C0E
330
13671
100
AcDbEntity
  8
Defpoints
 62
     0
440
 16777216
100
AcDbPoint
 10
2083.999896414979
 20
439.9999853546278
 30
0.0
  0
ENDBLK
  5
13673
330
13671
100
AcDbEntity
  8
0
100
AcDbBlockEnd
  0
BLOCK
  5
1367E
330
1367D
100
AcDbEntity
  8
0
100
AcDbBlockBegin
  2
*D27
 70
     1
 10
0.0
 20
0.0
 30
0.0
  3
*D27
  1

  0
LINE
  5
13C0F
330
1367D
100
AcDbEntity
  8
寸法線
 62
     0
440
 16777216
370
    -2
100
AcDbLine
 10
1699.999896414979
 20
581.2497737324743
 30
0.0
 11
1699.999896414979
 21
369.9999853546278
 31
0.0
  0
LINE
  5
13C10
330
1367D
100
AcDbEntity
  8
寸法線
 62
     0
440
 16777216
370
    -2
100
AcDbLine
 10
2099.999896414979
 20
581.2497600490027
 30
0.0
 11
2099.999896414979
 21
369.9999853546278
 31
0.0
  0
LINE
  5
13C11
330
1367D
100
AcDbEntity
  8
寸法線
 62
     0
440
 16777216
370
    -2
100
AcDbLine
 10
1719.999896414979
 20
379.9999853546278
 30
0.0
 11
2079.999896414979
 21
379.9999853546278
 31
0.0
  0
INSERT
  5
13C12
330
1367D
100
AcDbEntity
  8
寸法線
 62
     0
440
 16777216
370
    -2
100
AcDbBlockReference
  2
_OPEN
 10
1699.999896414979
 20
379.9999853546278
 30
0.0
 41
20.0
 42
20.0
 43
20.0
 50
180.0
  0
INSERT
  5
13C13
330
1367D
100
AcDbEntity
  8
寸法線
 62
     0
440
 16777216
370
    -2
100
AcDbBlockReference
  2
_OPEN
 10
2099.999896414979
 20
379.9999853546278
 30
0.0
 41
20.0
 42
20.0
 43
20.0
  0
MTEXT
  5
13C14
330
1367D
100
AcDbEntity
  8
寸法線
 62
     0
440
 16777216
100
AcDbMText
 10
1899.999896414979
 20
401.2499853546278
 30
0.0
 40
25.0
 41
0.0
 46
0.0
 71
     5
 72
     1
  1
\A1;400
 73
     1
 44
1.0
  0
POINT
  5
13C15
330
1367D
100
AcDbEntity
  8
Defpoints
 62
     0
440
 16777216
100
AcDbPoint
 10
1699.999896414979
 20
589.9997737324743
 30
0.0
  0
POINT
  5
13C16
330
1367D
100
AcDbEntity
  8
Defpoints
 62
     0
440
 16777216
100
AcDbPoint
 10
2099.999896414979
 20
589.9997600490028
 30
0.0
  0
POINT
  5
13C17
330
1367D
100
AcDbEntity
  8
Defpoints
 62
     0
440
 16777216
100
AcDbPoint
 10
2099.999896414979
 20
379.9999853546278
 30
0.0
  0
ENDBLK
  5
1367F
330
1367D
100
AcDbEntity
  8
0
100
AcDbBlockEnd
  0
BLOCK
  5
1368A
330
13689
100
AcDbEntity
  8
0
100
AcDbBlockBegin
  2
*D28
 70
     1
 10
0.0
 20
0.0
 30
0.0
  3
*D28
  1

  0
LINE
  5
13C18
330
13689
100
AcDbEntity
  8
寸法線
 62
     0
440
 16777216
370
    -2
100
AcDbLine
 10
1089.999896414979
 20
581.2497235597406
 30
0.0
 11
1089.999896414979
 21
489.9999853546278
 31
0.0
  0
LINE
  5
13C19
330
13689
100
AcDbEntity
  8
寸法線
 62
     0
440
 16777216
370
    -2
100
AcDbLine
 10
1509.999896414979
 20
581.2497600490173
 30
0.0
 11
1509.999896414979
 21
489.9999853546278
 31
0.0
  0
LINE
  5
13C1A
330
13689
100
AcDbEntity
  8
寸法線
 62
     0
440
 16777216
370
    -2
100
AcDbLine
 10
1109.999896414979
 20
499.9999853546277
 30
0.0
 11
1489.999896414979
 21
499.9999853546277
 31
0.0
  0
INSERT
  5
13C1B
330
13689
100
AcDbEntity
  8
寸法線
 62
     0
440
 16777216
370
    -2
100
AcDbBlockReference
  2
_OPEN
 10
1089.999896414979
 20
499.9999853546277
 30
0.0
 41
20.0
 42
20.0
 43
20.0
 50
180.0
  0
INSERT
  5
13C1C
330
13689
100
AcDbEntity
  8
寸法線
 62
     0
440
 16777216
370
    -2
100
AcDbBlockReference
  2
_OPEN
 10
1509.999896414979
 20
499.9999853546277
 30
0.0
 41
20.0
 42
20.0
 43
20.0
  0
MTEXT
  5
13C1D
330
13689
100
AcDbEntity
  8
寸法線
 62
     0
440
 16777216
100
AcDbMText
 10
1299.999896414979
 20
521.2524459845491
 30
0.0
 40
25.0
 41
0.0
 46
0.0
 71
     5
 72
     1
  1
\A1;420
 73
     1
 44
1.0
  0
POINT
  5
13C1E
330
13689
100
AcDbEntity
  8
Defpoints
 62
     0
440
 16777216
100
AcDbPoint
 10
1089.999896414979
 20
589.9997235597407
 30
0.0
  0
POINT
  5
13C1F
330
13689
100
AcDbEntity
  8
Defpoints
 62
     0
440
 16777216
100
AcDbPoint
 10
1509.999896414979
 20
589.9997600490173
 30
0.0
  0
POINT
  5
13C20
330
13689
100
AcDbEntity
  8
Defpoints
 62
     0
440
 16777216
100
AcDbPoint
 10
1509.999896414979
 20
499.9999853546277
 30
0.0
  0
ENDBLK
  5
1368B
330
13689
100
AcDbEntity
  8
0
100
AcDbBlockEnd
  0
BLOCK
  5
13696
330
13695
100
AcDbEntity
  8
0
100
AcDbBlockBegin
  2
*D29
 70
     1
 10
0.0
 20
0.0
 30
0.0
  3
*D29
  1

  0
LINE
  5
13C21
330
13695
100
AcDbEntity
  8
寸法線
 62
     0
440
 16777216
370
    -2
100
AcDbLine
 10
1081.249943983793
 20
589.9997600490175
 30
0.0
 11
989.999943983793
 21
589.9997600490175
 31
0.0
  0
LINE
  5
13C22
330
13695
100
AcDbEntity
  8
寸法線
 62
     0
440
 16777216
370
    -2
100
AcDbLine
 10
1081.249943983793
 20
1009.999760049018
 30
0.0
 11
989.9999439837928
 21
1009.999760049018
 31
0.0
  0
LINE
  5
13C23
330
13695
100
AcDbEntity
  8
寸法線
 62
     0
440
 16777216
370
    -2
100
AcDbLine
 10
999.999943983793
 20
609.9997600490175
 30
0.0
 11
999.999943983793
 21
989.9997600490179
 31
0.0
  0
INSERT
  5
13C24
330
13695
100
AcDbEntity
  8
寸法線
 62
     0
440
 16777216
370
    -2
100
AcDbBlockReference
  2
_OPEN
 10
999.999943983793
 20
589.9997600490175
 30
0.0
 41
20.0
 42
20.0
 43
20.0
 50
270.0
  0
INSERT
  5
13C25
330
13695
100
AcDbEntity
  8
寸法線
 62
     0
440
 16777216
370
    -2
100
AcDbBlockReference
  2
_OPEN
 10
999.999943983793
 20
1009.999760049018
 30
0.0
 41
20.0
 42
20.0
 43
20.0
 50
90.0
  0
MTEXT
  5
13C26
330
13695
100
AcDbEntity
  8
寸法線
 62
     0
440
 16777216
100
AcDbMText
 10
978.7474833538716
 20
799.9997600490173
 30
0.0
 40
25.0
 41
0.0
 46
0.0
 71
     5
 72
     1
  1
\A1;420
 11
0.0000000000000001
 21
1.0
 31
0.0
 73
     1
 44
1.0
  0
POINT
  5
13C27
330
13695
100
AcDbEntity
  8
Defpoints
 62
     0
440
 16777216
100
AcDbPoint
 10
1089.999943983793
 20
589.9997600490175
 30
0.0
  0
POINT
  5
13C28
330
13695
100
AcDbEntity
  8
Defpoints
 62
     0
440
 16777216
100
AcDbPoint
 10
1089.999943983793
 20
1009.999760049018
 30
0.0
  0
POINT
  5
13C29
330
13695
100
AcDbEntity
  8
Defpoints
 62
     0
440
 16777216
100
AcDbPoint
 10
999.999943983793
 20
1009.999760049018
 30
0.0
  0
ENDBLK
  5
13697
330
13695
100
AcDbEntity
  8
0
100
AcDbBlockEnd
  0
BLOCK
  5
136A2
330
136A1
100
AcDbEntity
  8
0
100
AcDbBlockBegin
  2
*D30
 70
     1
 10
0.0
 20
0.0
 30
0.0
  3
*D30
  1

  0
LINE
  5
13C2A
330
136A1
100
AcDbEntity
  8
寸法線
 62
     0
440
 16777216
370
    -2
100
AcDbLine
 10
2330.000120199395
 20
566.2502562718223
 30
0.0
 11
2330.000120199395
 21
489.9999853546278
 31
0.0
  0
LINE
  5
13C2B
330
136A1
100
AcDbEntity
  8
寸法線
 62
     0
440
 16777216
370
    -2
100
AcDbLine
 10
2670.000120199396
 20
566.2502562718223
 30
0.0
 11
2670.000120199396
 21
489.9999853546278
 31
0.0
  0
LINE
  5
13C2C
330
136A1
100
AcDbEntity
  8
寸法線
 62
     0
440
 16777216
370
    -2
100
AcDbLine
 10
2350.000120199396
 20
499.9999853546277
 30
0.0
 11
2650.000120199396
 21
499.9999853546277
 31
0.0
  0
INSERT
  5
13C2D
330
136A1
100
AcDbEntity
  8
寸法線
 62
     0
440
 16777216
370
    -2
100
AcDbBlockReference
  2
_OPEN
 10
2330.000120199395
 20
499.9999853546277
 30
0.0
 41
20.0
 42
20.0
 43
20.0
 50
180.0
  0
INSERT
  5
13C2E
330
136A1
100
AcDbEntity
  8
寸法線
 62
     0
440
 16777216
370
    -2
100
AcDbBlockReference
  2
_OPEN
 10
2670.000120199396
 20
499.9999853546277
 30
0.0
 41
20.0
 42
20.0
 43
20.0
  0
MTEXT
  5
13C2F
330
136A1
100
AcDbEntity
  8
寸法線
 62
     0
440
 16777216
100
AcDbMText
 10
2500.000121120823
 20
521.2499853546278
 30
0.0
 40
25.0
 41
0.0
 46
0.0
 71
     5
 72
     1
  1
\A1;340
 73
     1
 44
1.0
  0
POINT
  5
13C30
330
136A1
100
AcDbEntity
  8
Defpoints
 62
     0
440
 16777216
100
AcDbPoint
 10
2330.000120199395
 20
575.0002562718223
 30
0.0
  0
POINT
  5
13C31
330
136A1
100
AcDbEntity
  8
Defpoints
 62
     0
440
 16777216
100
AcDbPoint
 10
2670.000120199396
 20
575.0002562718223
 30
0.0
  0
POINT
  5
13C32
330
136A1
100
AcDbEntity
  8
Defpoints
 62
     0
440
 16777216
100
AcDbPoint
 10
2670.000120199396
 20
499.9999853546277
 30
0.0
  0
ENDBLK
  5
136A3
330
136A1
100
AcDbEntity
  8
0
100
AcDbBlockEnd
  0
BLOCK
  5
136AE
330
136AD
100
AcDbEntity
  8
0
100
AcDbBlockBegin
  2
*D31
 70
     1
 10
0.0
 20
0.0
 30
0.0
  3
*D31
  1

  0
LINE
  5
13C33
330
136AD
100
AcDbEntity
  8
寸法線
 62
     0
440
 16777216
370
    -2
100
AcDbLine
 10
2289.999896414979
 20
581.2504906997714
 30
0.0
 11
2289.999896414979
 21
489.9999853546278
 31
0.0
  0
LINE
  5
13C34
330
136AD
100
AcDbEntity
  8
寸法線
 62
     0
440
 16777216
370
    -2
100
AcDbLine
 10
2330.000120199395
 20
566.2502562718223
 30
0.0
 11
2330.000120199395
 21
489.9999853546278
 31
0.0
  0
LINE
  5
13C35
330
136AD
100
AcDbEntity
  8
寸法線
 62
     0
440
 16777216
370
    -2
100
AcDbLine
 10
2269.999896414979
 20
499.9999853546277
 30
0.0
 11
2249.999896414979
 21
499.9999853546277
 31
0.0
  0
LINE
  5
13C36
330
136AD
100
AcDbEntity
  8
寸法線
 62
     0
440
 16777216
370
    -2
100
AcDbLine
 10
2350.000120199396
 20
499.9999853546277
 30
0.0
 11
2370.000120199396
 21
499.9999853546277
 31
0.0
  0
LINE
  5
13C37
330
136AD
100
AcDbEntity
  8
寸法線
 62
     0
440
 16777216
370
    -2
100
AcDbLine
 10
2289.999896414979
 20
499.9999853546277
 30
0.0
 11
2330.000120199395
 21
499.9999853546277
 31
0.0
  0
INSERT
  5
13C38
330
136AD
100
AcDbEntity
  8
寸法線
 62
     0
440
 16777216
370
    -2
100
AcDbBlockReference
  2
_OPEN
 10
2289.999896414979
 20
499.9999853546277
 30
0.0
 41
20.0
 42
20.0
 43
20.0
  0
INSERT
  5
13C39
330
136AD
100
AcDbEntity
  8
寸法線
 62
     0
440
 16777216
370
    -2
100
AcDbBlockReference
  2
_OPEN
 10
2330.000120199395
 20
499.9999853546277
 30
0.0
 41
20.0
 42
20.0
 43
20.0
 50
180.0
  0
MTEXT
  5
13C3A
330
136AD
100
AcDbEntity
  8
寸法線
 62
     0
440
 16777216
100
AcDbMText
 10
2310.000008307187
 20
521.2499853546278
 30
0.0
 40
25.0
 41
0.0
 46
0.0
 71
     5
 72
     1
  1
\A1;40
 73
     1
 44
1.0
  0
POINT
  5
13C3B
330
136AD
100
AcDbEntity
  8
Defpoints
 62
     0
440
 16777216
100
AcDbPoint
 10
2289.999896414979
 20
590.0004906997715
 30
0.0
  0
POINT
  5
13C3C
330
136AD
100
AcDbEntity
  8
Defpoints
 62
     0
440
 16777216
100
AcDbPoint
 10
2330.000120199395
 20
575.0002562718223
 30
0.0
  0
POINT
  5
13C3D
330
136AD
100
AcDbEntity
  8
Defpoints
 62
     0
440
 16777216
100
AcDbPoint
 10
2330.000120199395
 20
499.9999853546277
 30
0.0
  0
ENDBLK
  5
136AF
330
136AD
100
AcDbEntity
  8
0
100
AcDbBlockEnd
  0
BLOCK
  5
136BC
330
136BB
100
AcDbEntity
  8
0
100
AcDbBlockBegin
  2
*D32
 70
     1
 10
0.0
 20
0.0
 30
0.0
  3
*D32
  1

  0
LINE
  5
13C3E
330
136BB
100
AcDbEntity
  8
寸法線
 62
     0
440
 16777216
370
    -2
100
AcDbLine
 10
2733.750120199397
 20
970.0002562718227
 30
0.0
 11
2809.999896414981
 21
970.0002562718227
 31
0.0
  0
LINE
  5
13C3F
330
136BB
100
AcDbEntity
  8
寸法線
 62
     0
440
 16777216
370
    -2
100
AcDbLine
 10
2718.74989641498
 20
1010.000021843902
 30
0.0
 11
2809.999896414981
 21
1010.000021843902
 31
0.0
  0
LINE
  5
13C40
330
136BB
100
AcDbEntity
  8
寸法線
 62
     0
440
 16777216
370
    -2
100
AcDbLine
 10
2799.999896414981
 20
950.0002562718227
 30
0.0
 11
2799.999896414981
 21
930.0002562718228
 31
0.0
  0
LINE
  5
13C41
330
136BB
100
AcDbEntity
  8
寸法線
 62
     0
440
 16777216
370
    -2
100
AcDbLine
 10
2799.99989641498
 20
1030.000021843902
 30
0.0
 11
2799.99989641498
 21
1050.000021843902
 31
0.0
  0
LINE
  5
13C42
330
136BB
100
AcDbEntity
  8
寸法線
 62
     0
440
 16777216
370
    -2
100
AcDbLine
 10
2799.999896414981
 20
970.0002562718227
 30
0.0
 11
2799.999896414981
 21
1010.000021843902
 31
0.0
  0
INSERT
  5
13C43
330
136BB
100
AcDbEntity
  8
寸法線
 62
     0
440
 16777216
370
    -2
100
AcDbBlockReference
  2
_OPEN
 10
2799.999896414981
 20
970.0002562718227
 30
0.0
 41
20.0
 42
20.0
 43
20.0
 50
90.0
  0
INSERT
  5
13C44
330
136BB
100
AcDbEntity
  8
寸法線
 62
     0
440
 16777216
370
    -2
100
AcDbBlockReference
  2
_OPEN
 10
2799.999896414981
 20
1010.000021843902
 30
0.0
 41
20.0
 42
20.0
 43
20.0
 50
270.0
  0
MTEXT
  5
13C45
330
136BB
100
AcDbEntity
  8
寸法線
 62
     0
440
 16777216
100
AcDbMText
 10
2778.74989641498
 20
990.0001390578617
 30
0.0
 40
25.0
 41
0.0
 46
0.0
 71
     5
 72
     1
  1
\A1;40
 11
0.0000000000000001
 21
1.0
 31
0.0
 73
     1
 44
1.0
  0
POINT
  5
13C46
330
136BB
100
AcDbEntity
  8
Defpoints
 62
     0
440
 16777216
100
AcDbPoint
 10
2725.000120199397
 20
970.0002562718227
 30
0.0
  0
POINT
  5
13C47
330
136BB
100
AcDbEntity
  8
Defpoints
 62
     0
440
 16777216
100
AcDbPoint
 10
2709.99989641498
 20
1010.000021843902
 30
0.0
  0
POINT
  5
13C48
330
136BB
100
AcDbEntity
  8
Defpoints
 62
     0
440
 16777216
100
AcDbPoint
 10
2799.999896414981
 20
1010.000021843902
 30
0.0
  0
ENDBLK
  5
136BD
330
136BB
100
AcDbEntity
  8
0
100
AcDbBlockEnd
  0
BLOCK
  5
136CA
330
136C9
100
AcDbEntity
  8
0
100
AcDbBlockBegin
  2
*D33
 70
     1
 10
0.0
 20
0.0
 30
0.0
  3
*D33
  1

  0
LINE
  5
13C49
330
136C9
100
AcDbEntity
  8
寸法線
 62
     0
440
 16777216
370
    -2
100
AcDbLine
 10
2733.750120199397
 20
630.0002562718225
 30
0.0
 11
2809.999896414979
 21
630.0002562718225
 31
0.0
  0
LINE
  5
13C4A
330
136C9
100
AcDbEntity
  8
寸法線
 62
     0
440
 16777216
370
    -2
100
AcDbLine
 10
2733.750120199397
 20
970.0002562718227
 30
0.0
 11
2809.999896414979
 21
970.0002562718227
 31
0.0
  0
LINE
  5
13C4B
330
136C9
100
AcDbEntity
  8
寸法線
 62
     0
440
 16777216
370
    -2
100
AcDbLine
 10
2799.99989641498
 20
650.0002562718225
 30
0.0
 11
2799.99989641498
 21
950.0002562718227
 31
0.0
  0
INSERT
  5
13C4C
330
136C9
100
AcDbEntity
  8
寸法線
 62
     0
440
 16777216
370
    -2
100
AcDbBlockReference
  2
_OPEN
 10
2799.99989641498
 20
630.0002562718225
 30
0.0
 41
20.0
 42
20.0
 43
20.0
 50
270.0
  0
INSERT
  5
13C4D
330
136C9
100
AcDbEntity
  8
寸法線
 62
     0
440
 16777216
370
    -2
100
AcDbBlockReference
  2
_OPEN
 10
2799.99989641498
 20
970.0002562718227
 30
0.0
 41
20.0
 42
20.0
 43
20.0
 50
90.0
  0
MTEXT
  5
13C4E
330
136C9
100
AcDbEntity
  8
寸法線
 62
     0
440
 16777216
100
AcDbMText
 10
2778.749896414979
 20
800.0002562718224
 30
0.0
 40
25.0
 41
0.0
 46
0.0
 71
     5
 72
     1
  1
\A1;340
 11
0.0000000000000001
 21
1.0
 31
0.0
 73
     1
 44
1.0
  0
POINT
  5
13C4F
330
136C9
100
AcDbEntity
  8
Defpoints
 62
     0
440
 16777216
100
AcDbPoint
 10
2725.000120199397
 20
630.0002562718225
 30
0.0
  0
POINT
  5
13C50
330
136C9
100
AcDbEntity
  8
Defpoints
 62
     0
440
 16777216
100
AcDbPoint
 10
2725.000120199397
 20
970.0002562718227
 30
0.0
  0
POINT
  5
13C51
330
136C9
100
AcDbEntity
  8
Defpoints
 62
     0
440
 16777216
100
AcDbPoint
 10
2799.99989641498
 20
970.0002562718227
 30
0.0
  0
ENDBLK
  5
136CB
330
136C9
100
AcDbEntity
  8
0
100
AcDbBlockEnd
  0
BLOCK
  5
136D6
330
136D5
100
AcDbEntity
  8
0
100
AcDbBlockBegin
  2
*D34
 70
     1
 10
0.0
 20
0.0
 30
0.0
  3
*D34
  1

  0
LINE
  5
13C52
330
136D5
100
AcDbEntity
  8
寸法線
 62
     0
440
 16777216
370
    -2
100
AcDbLine
 10
2718.74989641498
 20
590.0004906997716
 30
0.0
 11
2809.999896414979
 21
590.0004906997716
 31
0.0
  0
LINE
  5
13C53
330
136D5
100
AcDbEntity
  8
寸法線
 62
     0
440
 16777216
370
    -2
100
AcDbLine
 10
2733.750120199397
 20
630.0002562718225
 30
0.0
 11
2809.999896414979
 21
630.0002562718225
 31
0.0
  0
LINE
  5
13C54
330
136D5
100
AcDbEntity
  8
寸法線
 62
     0
440
 16777216
370
    -2
100
AcDbLine
 10
2799.99989641498
 20
570.0004906997717
 30
0.0
 11
2799.99989641498
 21
550.0004906997717
 31
0.0
  0
LINE
  5
13C55
330
136D5
100
AcDbEntity
  8
寸法線
 62
     0
440
 16777216
370
    -2
100
AcDbLine
 10
2799.99989641498
 20
650.0002562718225
 30
0.0
 11
2799.99989641498
 21
670.0002562718225
 31
0.0
  0
LINE
  5
13C56
330
136D5
100
AcDbEntity
  8
寸法線
 62
     0
440
 16777216
370
    -2
100
AcDbLine
 10
2799.99989641498
 20
590.0004906997716
 30
0.0
 11
2799.99989641498
 21
630.0002562718225
 31
0.0
  0
INSERT
  5
13C57
330
136D5
100
AcDbEntity
  8
寸法線
 62
     0
440
 16777216
370
    -2
100
AcDbBlockReference
  2
_OPEN
 10
2799.99989641498
 20
590.0004906997716
 30
0.0
 41
20.0
 42
20.0
 43
20.0
 50
90.0
  0
INSERT
  5
13C58
330
136D5
100
AcDbEntity
  8
寸法線
 62
     0
440
 16777216
370
    -2
100
AcDbBlockReference
  2
_OPEN
 10
2799.99989641498
 20
630.0002562718225
 30
0.0
 41
20.0
 42
20.0
 43
20.0
 50
270.0
  0
MTEXT
  5
13C59
330
136D5
100
AcDbEntity
  8
寸法線
 62
     0
440
 16777216
100
AcDbMText
 10
2778.749896414979
 20
610.0003734857963
 30
0.0
 40
25.0
 41
0.0
 46
0.0
 71
     5
 72
     1
  1
\A1;40
 11
0.0000000000000001
 21
1.0
 31
0.0
 73
     1
 44
1.0
  0
POINT
  5
13C5A
330
136D5
100
AcDbEntity
  8
Defpoints
 62
     0
440
 16777216
100
AcDbPoint
 10
2709.99989641498
 20
590.0004906997716
 30
0.0
  0
POINT
  5
13C5B
330
136D5
100
AcDbEntity
  8
Defpoints
 62
     0
440
 16777216
100
AcDbPoint
 10
2725.000120199397
 20
630.0002562718225
 30
0.0
  0
POINT
  5
13C5C
330
136D5
100
AcDbEntity
  8
Defpoints
 62
     0
440
 16777216
100
AcDbPoint
 10
2799.99989641498
 20
630.0002562718225
 30
0.0
  0
ENDBLK
  5
136D7
330
136D5
100
AcDbEntity
  8
0
100
AcDbBlockEnd
  0
BLOCK
  5
136E4
330
136E3
100
AcDbEntity
  8
0
100
AcDbBlockBegin
  2
*D35
 70
     1
 10
0.0
 20
0.0
 30
0.0
  3
*D35
  1

  0
LINE
  5
13C5D
330
136E3
100
AcDbEntity
  8
寸法線
 62
     0
440
 16777216
370
    -2
100
AcDbLine
 10
2670.000120199396
 20
566.2502562718223
 30
0.0
 11
2670.000120199396
 21
489.9999853546278
 31
0.0
  0
LINE
  5
13C5E
330
136E3
100
AcDbEntity
  8
寸法線
 62
     0
440
 16777216
370
    -2
100
AcDbLine
 10
2709.999896414979
 20
581.2504906997714
 30
0.0
 11
2709.999896414979
 21
489.9999853546278
 31
0.0
  0
LINE
  5
13C5F
330
136E3
100
AcDbEntity
  8
寸法線
 62
     0
440
 16777216
370
    -2
100
AcDbLine
 10
2650.000120199396
 20
499.9999853546277
 30
0.0
 11
2630.000120199396
 21
499.9999853546277
 31
0.0
  0
LINE
  5
13C60
330
136E3
100
AcDbEntity
  8
寸法線
 62
     0
440
 16777216
370
    -2
100
AcDbLine
 10
2729.999896414979
 20
499.9999853546277
 30
0.0
 11
2749.999896414979
 21
499.9999853546277
 31
0.0
  0
LINE
  5
13C61
330
136E3
100
AcDbEntity
  8
寸法線
 62
     0
440
 16777216
370
    -2
100
AcDbLine
 10
2670.000120199396
 20
499.9999853546277
 30
0.0
 11
2709.999896414979
 21
499.9999853546277
 31
0.0
  0
INSERT
  5
13C62
330
136E3
100
AcDbEntity
  8
寸法線
 62
     0
440
 16777216
370
    -2
100
AcDbBlockReference
  2
_OPEN
 10
2670.000120199396
 20
499.9999853546277
 30
0.0
 41
20.0
 42
20.0
 43
20.0
  0
INSERT
  5
13C63
330
136E3
100
AcDbEntity
  8
寸法線
 62
     0
440
 16777216
370
    -2
100
AcDbBlockReference
  2
_OPEN
 10
2709.999896414979
 20
499.9999853546277
 30
0.0
 41
20.0
 42
20.0
 43
20.0
 50
180.0
  0
MTEXT
  5
13C64
330
136E3
100
AcDbEntity
  8
寸法線
 62
     0
440
 16777216
100
AcDbMText
 10
2690.000008307187
 20
521.2499853546278
 30
0.0
 40
25.0
 41
0.0
 46
0.0
 71
     5
 72
     1
  1
\A1;40
 73
     1
 44
1.0
  0
POINT
  5
13C65
330
136E3
100
AcDbEntity
  8
Defpoints
 62
     0
440
 16777216
100
AcDbPoint
 10
2670.000120199396
 20
575.0002562718223
 30
0.0
  0
POINT
  5
13C66
330
136E3
100
AcDbEntity
  8
Defpoints
 62
     0
440
 16777216
100
AcDbPoint
 10
2709.999896414979
 20
590.0004906997715
 30
0.0
  0
POINT
  5
13C67
330
136E3
100
AcDbEntity
  8
Defpoints
 62
     0
440
 16777216
100
AcDbPoint
 10
2709.999896414979
 20
499.9999853546277
 30
0.0
  0
ENDBLK
  5
136E5
330
136E3
100
AcDbEntity
  8
0
100
AcDbBlockEnd
  0
ENDSEC
  0
SECTION
  2
ENTITIES
  0
LWPOLYLINE
  5
13302
330
1F
100
AcDbEntity
  8
Defpoints
100
AcDbPolyline
 90
        4
 70
     1
 43
0.0
 10
0.0
 20
0.0
 10
4200.0
 20
0.0
 10
4200.0
 20
2970.0
 10
0.0
 20
2970.0
  0
LWPOLYLINE
  5
13303
330
1F
100
AcDbEntity
  8
Defpoints
100
AcDbPolyline
 90
        4
 70
     1
 43
0.0
 10
69.0039999999999
 20
69.10750000000007
 10
4130.995999999998
 20
69.10750000000007
 10
4130.995999999998
 20
2900.8925
 10
69.0039999999999
 20
2900.8925
  0
LINE
  5
13304
330
1F
100
AcDbEntity
  8
中心線
100
AcDbLine
 10
1125.000000000001
 20
1645.000026409195
 30
0.0
 11
2675.000000000002
 21
1645.000026150636
 31
0.0
  0
DIMENSION
  5
13305
330
1F
100
AcDbEntity
  8
寸法線
100
AcDbDimension
280
     0
  2
*D1
 10
2100.000000000002
 20
1285.000026154806
 30
0.0
 11
1900.000000000002
 21
1306.250026154806
 31
0.0
 70
    32
 71
     5
 42
400.0
 73
     0
 74
     0
 75
     0
  3
STANDARD
100
AcDbAlignedDimension
 13
1700.000000000002
 23
1435.000017032489
 33
0.0
 14
2100.000000000002
 24
1435.000017032489
 34
0.0
100
AcDbRotatedDimension
  0
DIMENSION
  5
13306
330
1F
100
AcDbEntity
  8
寸法線
100
AcDbDimension
280
     0
  2
*D2
 10
1699.999980186893
 20
1285.000026154806
 30
0.0
 11
1424.999980186892
 21
1285.000026154806
 31
0.0
 70
   160
 71
     5
 42
550.0
 73
     0
 74
     0
 75
     0
  3
STANDARD
100
AcDbAlignedDimension
 13
1149.999980186892
 23
1445.000026154805
 33
0.0
 14
1699.999980186893
 24
1435.000063374479
 34
0.0
100
AcDbRotatedDimension
  0
DIMENSION
  5
13307
330
1F
100
AcDbEntity
  8
寸法線
100
AcDbDimension
280
     0
  2
*D3
 10
1029.999980186892
 20
1445.000026154805
 30
0.0
 11
1029.999980186892
 21
1645.000026154805
 31
0.0
 70
   160
 71
     5
 42
400.0000000000002
 73
     0
 74
     0
 75
     0
  3
STANDARD
100
AcDbAlignedDimension
 13
1149.999980186892
 23
1845.000026154805
 33
0.0
 14
1149.999980186892
 24
1445.000026154805
 34
0.0
 50
90.0
100
AcDbRotatedDimension
  0
DIMENSION
  5
13308
330
1F
100
AcDbEntity
  8
寸法線
100
AcDbDimension
280
     0
  2
*D4
 10
1168.999980186892
 20
2605.000008150062
 30
0.0
 11
1159.499980186892
 21
2605.000008150062
 31
0.0
 70
   160
 71
     5
 42
19.0
 73
     0
 74
     0
 75
     0
  3
STANDARD
100
AcDbAlignedDimension
 13
1149.999980186892
 23
2436.000045369735
 33
0.0
 14
1168.999980186892
 24
2445.000008150061
 34
0.0
100
AcDbRotatedDimension
  0
DIMENSION
  5
13309
330
1F
100
AcDbEntity
  8
寸法線
100
AcDbDimension
280
     0
  2
*D5
 10
1699.999980186893
 20
2605.000008150062
 30
0.0
 11
1434.499980186892
 21
2605.000008150062
 31
0.0
 70
   160
 71
     5
 42
531.0
 73
     0
 74
     0
 75
     0
  3
STANDARD
100
AcDbAlignedDimension
 13
1168.999980186892
 23
2445.000008150061
 33
0.0
 14
1699.999980186893
 24
2455.000045369736
 34
0.0
100
AcDbRotatedDimension
  0
DIMENSION
  5
1330A
330
1F
100
AcDbEntity
  8
寸法線
100
AcDbDimension
280
     0
  2
*D6
 10
1029.999980186892
 20
2045.000008150061
 30
0.0
 11
1029.999980186892
 21
2245.000008150061
 31
0.0
 70
   160
 71
     5
 42
400.0000000000007
 73
     0
 74
     0
 75
     0
  3
STANDARD
100
AcDbAlignedDimension
 13
1168.999980186892
 23
2445.000008150061
 33
0.0
 14
1168.999980186892
 24
2045.00000815006
 34
0.0
 50
90.0
100
AcDbRotatedDimension
  0
DIMENSION
  5
1330B
330
1F
100
AcDbEntity
  8
寸法線
100
AcDbDimension
280
     0
  2
*D7
 10
1699.999980186893
 20
2685.000008150062
 30
0.0
 11
1424.999980186892
 21
2685.000008150062
 31
0.0
 70
   160
  1
<>\XH型鋼（連結部）
 71
     5
 42
550.0
 73
     0
 74
     0
 75
     0
  3
STANDARD
100
AcDbAlignedDimension
 13
1149.999980186892
 23
2436.000045369735
 33
0.0
 14
1699.999980186893
 24
2455.000045369736
 34
0.0
100
AcDbRotatedDimension
  0
LINE
  5
1330C
330
1F
100
AcDbEntity
  8
中心線
100
AcDbLine
 10
1125.000000000001
 20
2245.000007785161
 30
0.0
 11
2675.000226983166
 21
2245.000045985873
 31
0.0
  0
DIMENSION
  5
1330D
330
1F
100
AcDbEntity
  8
寸法線
100
AcDbDimension
280
     0
  2
*D8
 10
2100.000000000002
 20
2685.000008150062
 30
0.0
 11
1900.000000000002
 21
2685.000008150062
 31
0.0
 70
    32
  1
W=<>\X空洞金具
 71
     5
 42
400.0
 73
     0
 74
     0
 75
     0
  3
STANDARD
100
AcDbAlignedDimension
 13
1700.000000000002
 23
2455.000021956392
 33
0.0
 14
2100.000000000002
 24
2454.999999027745
 34
0.0
100
AcDbRotatedDimension
  0
DIMENSION
  5
1330E
330
1F
100
AcDbEntity
  8
寸法線
100
AcDbDimension
280
     0
  2
*D9
 10
2649.999999999971
 20
2765.000008150062
 30
0.0
 11
1900.000000000001
 21
2786.250008150062
 31
0.0
 70
    32
  1
スルーサーＢ L=<>
 71
     5
 42
1499.99999999994
 73
     0
 74
     0
 75
     0
  3
STANDARD
100
AcDbAlignedDimension
 13
1150.000000000031
 23
2436.000021956406
 33
0.0
 14
2649.999999999971
 24
2436.000008150076
 34
0.0
100
AcDbRotatedDimension
  0
LINE
  5
1330F
330
1F
100
AcDbEntity
  8
実線
100
AcDbLine
 10
1700.000000000002
 20
1855.000017032489
 30
0.0
 11
1716.000000000002
 21
1855.000017032489
 31
0.0
  0
LINE
  5
13310
330
1F
100
AcDbEntity
  8
実線
100
AcDbLine
 10
1748.000000000002
 20
1502.000035277121
 30
0.0
 11
1748.000000000002
 21
1788.000035277121
 31
0.0
  0
LINE
  5
13311
330
1F
100
AcDbEntity
  8
実線
100
AcDbLine
 10
1748.000000000002
 20
1785.00001703249
 30
0.0
 11
2052.000103585028
 21
1785.00001703249
 31
0.0
  0
LINE
  5
13312
330
1F
100
AcDbEntity
  8
実線
100
AcDbLine
 10
1716.000000000002
 20
1845.00001703249
 30
0.0
 11
2084.000103585028
 21
1845.00001703249
 31
0.0
  0
LINE
  5
13313
330
1F
100
AcDbEntity
  8
破線
100
AcDbLine
 10
1716.000000000002
 20
1829.000017032489
 30
0.0
 11
1748.000000000002
 21
1829.000017032489
 31
0.0
  0
LINE
  5
13314
330
1F
100
AcDbEntity
  8
破線
100
AcDbLine
 10
1748.000000000002
 20
1829.000035277121
 30
0.0
 11
1748.000000000002
 21
1845.00001703249
 31
0.0
  0
LINE
  5
13315
330
1F
100
AcDbEntity
  8
破線
100
AcDbLine
 10
1725.000000000002
 20
1785.00001703249
 30
0.0
 11
1748.000000000002
 21
1785.00001703249
 31
0.0
  0
LINE
  5
13316
330
1F
100
AcDbEntity
  8
実線
100
AcDbLine
 10
1728.000000000002
 20
1788.00001703249
 30
0.0
 11
1748.000000000002
 21
1788.00001703249
 31
0.0
  0
LINE
  5
13317
330
1F
100
AcDbEntity
  8
実線
100
AcDbLine
 10
1716.000000000002
 20
1776.00001703249
 30
0.0
 11
1728.000000000002
 21
1788.00001703249
 31
0.0
  0
LINE
  5
13318
330
1F
100
AcDbEntity
  8
実線
100
AcDbLine
 10
1716.000000000002
 20
1785.00001703249
 30
0.0
 11
1725.000000000002
 21
1785.00001703249
 31
0.0
  0
LINE
  5
13319
330
1F
100
AcDbEntity
  8
破線
100
AcDbLine
 10
2052.000000000002
 20
1829.000035277121
 30
0.0
 11
2052.000000000002
 21
1845.00001703249
 31
0.0
  0
LINE
  5
1331A
330
1F
100
AcDbEntity
  8
破線
100
AcDbLine
 10
2084.000000000002
 20
1829.000017032489
 30
0.0
 11
2052.000000000002
 21
1829.000017032489
 31
0.0
  0
LINE
  5
1331B
330
1F
100
AcDbEntity
  8
破線
100
AcDbLine
 10
1716.000000000002
 20
1653.000017032489
 30
0.0
 11
1748.000000000002
 21
1653.000017032489
 31
0.0
  0
LINE
  5
1331C
330
1F
100
AcDbEntity
  8
破線
100
AcDbLine
 10
1716.000000000002
 20
1637.000017032489
 30
0.0
 11
1748.000000000002
 21
1637.000017032489
 31
0.0
  0
LINE
  5
1331D
330
1F
100
AcDbEntity
  8
破線
100
AcDbLine
 10
2052.000000000002
 20
1653.000017032489
 30
0.0
 11
2084.000000000002
 21
1653.000017032489
 31
0.0
  0
LINE
  5
1331E
330
1F
100
AcDbEntity
  8
破線
100
AcDbLine
 10
2052.000000000002
 20
1637.000017032489
 30
0.0
 11
2084.000000000002
 21
1637.000017032489
 31
0.0
  0
LINE
  5
1331F
330
1F
100
AcDbEntity
  8
実線
100
AcDbLine
 10
2084.000000000002
 20
1855.000017032489
 30
0.0
 11
2100.000000000002
 21
1855.000017032489
 31
0.0
  0
LINE
  5
13320
330
1F
100
AcDbEntity
  8
実線
100
AcDbLine
 10
1716.000000000002
 20
1435.000035277121
 30
0.0
 11
1716.000000000002
 21
1855.000017032489
 31
0.0
  0
LINE
  5
13321
330
1F
100
AcDbEntity
  8
実線
100
AcDbLine
 10
2084.000000000002
 20
1435.000035277121
 30
0.0
 11
2084.000000000002
 21
1855.000017032489
 31
0.0
  0
LINE
  5
13322
330
1F
100
AcDbEntity
  8
実線
100
AcDbLine
 10
1700.000000000002
 20
1435.000017032489
 30
0.0
 11
1716.000000000002
 21
1435.000017032489
 31
0.0
  0
LINE
  5
13323
330
1F
100
AcDbEntity
  8
実線
100
AcDbLine
 10
1748.000000000002
 20
1505.000017032491
 30
0.0
 11
2052.000103585028
 21
1505.00001703249
 31
0.0
  0
LINE
  5
13324
330
1F
100
AcDbEntity
  8
実線
100
AcDbLine
 10
1716.000000000002
 20
1445.00001703249
 30
0.0
 11
2084.000103585028
 21
1445.00001703249
 31
0.0
  0
LINE
  5
13325
330
1F
100
AcDbEntity
  8
破線
100
AcDbLine
 10
1716.000000000002
 20
1461.000017032489
 30
0.0
 11
1748.000000000002
 21
1461.000017032489
 31
0.0
  0
LINE
  5
13326
330
1F
100
AcDbEntity
  8
破線
100
AcDbLine
 10
1748.000000000002
 20
1460.999998787858
 30
0.0
 11
1748.000000000002
 21
1445.00001703249
 31
0.0
  0
LINE
  5
13327
330
1F
100
AcDbEntity
  8
破線
100
AcDbLine
 10
1725.000000000002
 20
1505.00001703249
 30
0.0
 11
1748.000000000002
 21
1505.00001703249
 31
0.0
  0
LINE
  5
13328
330
1F
100
AcDbEntity
  8
実線
100
AcDbLine
 10
1728.000000000002
 20
1502.00001703249
 30
0.0
 11
1748.000000000002
 21
1502.00001703249
 31
0.0
  0
LINE
  5
13329
330
1F
100
AcDbEntity
  8
実線
100
AcDbLine
 10
1716.000000000002
 20
1514.00001703249
 30
0.0
 11
1728.000000000002
 21
1502.00001703249
 31
0.0
  0
LINE
  5
1332A
330
1F
100
AcDbEntity
  8
実線
100
AcDbLine
 10
1716.000000000002
 20
1505.00001703249
 30
0.0
 11
1725.000000000002
 21
1505.00001703249
 31
0.0
  0
LINE
  5
1332B
330
1F
100
AcDbEntity
  8
破線
100
AcDbLine
 10
2052.000000000002
 20
1460.999998787858
 30
0.0
 11
2052.000000000002
 21
1445.00001703249
 31
0.0
  0
LINE
  5
1332C
330
1F
100
AcDbEntity
  8
破線
100
AcDbLine
 10
2084.000000000002
 20
1461.000017032489
 30
0.0
 11
2052.000000000002
 21
1461.000017032489
 31
0.0
  0
LINE
  5
1332D
330
1F
100
AcDbEntity
  8
実線
100
AcDbLine
 10
2084.000000000002
 20
1435.000017032489
 30
0.0
 11
2100.000000000002
 21
1435.000017032489
 31
0.0
  0
LINE
  5
1332E
330
1F
100
AcDbEntity
  8
実線
100
AcDbLine
 10
2052.000103585028
 20
1502.000035277121
 30
0.0
 11
2052.000103585028
 21
1788.000035277121
 31
0.0
  0
LINE
  5
1332F
330
1F
100
AcDbEntity
  8
破線
100
AcDbLine
 10
2075.000103585027
 20
1785.00001703249
 30
0.0
 11
2052.000103585028
 21
1785.00001703249
 31
0.0
  0
LINE
  5
13330
330
1F
100
AcDbEntity
  8
実線
100
AcDbLine
 10
2072.000103585029
 20
1788.00001703249
 30
0.0
 11
2052.000103585028
 21
1788.00001703249
 31
0.0
  0
LINE
  5
13331
330
1F
100
AcDbEntity
  8
実線
100
AcDbLine
 10
2084.000103585028
 20
1776.00001703249
 30
0.0
 11
2072.000103585029
 21
1788.00001703249
 31
0.0
  0
LINE
  5
13332
330
1F
100
AcDbEntity
  8
実線
100
AcDbLine
 10
2084.000103585028
 20
1785.00001703249
 30
0.0
 11
2075.000103585027
 21
1785.00001703249
 31
0.0
  0
LINE
  5
13333
330
1F
100
AcDbEntity
  8
破線
100
AcDbLine
 10
2075.000103585027
 20
1505.00001703249
 30
0.0
 11
2052.000103585028
 21
1505.00001703249
 31
0.0
  0
LINE
  5
13334
330
1F
100
AcDbEntity
  8
実線
100
AcDbLine
 10
2072.000103585029
 20
1502.00001703249
 30
0.0
 11
2052.000103585028
 21
1502.00001703249
 31
0.0
  0
LINE
  5
13335
330
1F
100
AcDbEntity
  8
実線
100
AcDbLine
 10
2084.000103585028
 20
1514.00001703249
 30
0.0
 11
2072.000103585029
 21
1502.00001703249
 31
0.0
  0
LINE
  5
13336
330
1F
100
AcDbEntity
  8
実線
100
AcDbLine
 10
2084.000103585028
 20
1505.00001703249
 30
0.0
 11
2075.000103585027
 21
1505.00001703249
 31
0.0
  0
LINE
  5
13337
330
1F
100
AcDbEntity
  8
実線
100
AcDbLine
 10
1700.000000000002
 20
2035.000017272377
 30
0.0
 11
1700.000000000002
 21
2455.000021956392
 31
0.0
  0
LINE
  5
13338
330
1F
100
AcDbEntity
  8
実線
100
AcDbLine
 10
1700.000000000002
 20
2454.999999027746
 30
0.0
 11
1716.000000000002
 21
2454.999999027746
 31
0.0
  0
LINE
  5
13339
330
1F
100
AcDbEntity
  8
実線
100
AcDbLine
 10
1748.000000000002
 20
2102.000017272377
 30
0.0
 11
1748.000000000002
 21
2388.000017272377
 31
0.0
  0
LINE
  5
1333A
330
1F
100
AcDbEntity
  8
実線
100
AcDbLine
 10
1748.000000000002
 20
2384.999999027747
 30
0.0
 11
2052.000103585028
 21
2384.999999027746
 31
0.0
  0
LINE
  5
1333B
330
1F
100
AcDbEntity
  8
実線
100
AcDbLine
 10
1716.000000000002
 20
2444.999999027746
 30
0.0
 11
2084.000103585028
 21
2444.999999027746
 31
0.0
  0
LINE
  5
1333C
330
1F
100
AcDbEntity
  8
破線
100
AcDbLine
 10
1716.000000000002
 20
2428.999999027746
 30
0.0
 11
1748.000000000002
 21
2428.999999027746
 31
0.0
  0
LINE
  5
1333D
330
1F
100
AcDbEntity
  8
破線
100
AcDbLine
 10
1748.000000000002
 20
2429.000017272377
 30
0.0
 11
1748.000000000002
 21
2444.999999027746
 31
0.0
  0
LINE
  5
1333E
330
1F
100
AcDbEntity
  8
破線
100
AcDbLine
 10
1725.000000000002
 20
2384.999999027746
 30
0.0
 11
1748.000000000002
 21
2384.999999027746
 31
0.0
  0
LINE
  5
1333F
330
1F
100
AcDbEntity
  8
実線
100
AcDbLine
 10
1728.000000000002
 20
2387.999999027746
 30
0.0
 11
1748.000000000002
 21
2387.999999027746
 31
0.0
  0
LINE
  5
13340
330
1F
100
AcDbEntity
  8
実線
100
AcDbLine
 10
1716.000000000002
 20
2375.999999027746
 30
0.0
 11
1728.000000000002
 21
2387.999999027746
 31
0.0
  0
LINE
  5
13341
330
1F
100
AcDbEntity
  8
実線
100
AcDbLine
 10
1716.000000000002
 20
2384.999999027746
 30
0.0
 11
1725.000000000002
 21
2384.999999027746
 31
0.0
  0
LINE
  5
13342
330
1F
100
AcDbEntity
  8
破線
100
AcDbLine
 10
2052.000000000002
 20
2429.000017272377
 30
0.0
 11
2052.000000000002
 21
2444.999999027746
 31
0.0
  0
LINE
  5
13343
330
1F
100
AcDbEntity
  8
破線
100
AcDbLine
 10
2084.000000000002
 20
2428.999999027746
 30
0.0
 11
2052.000000000002
 21
2428.999999027746
 31
0.0
  0
LINE
  5
13344
330
1F
100
AcDbEntity
  8
破線
100
AcDbLine
 10
1716.000000000002
 20
2252.999999027746
 30
0.0
 11
1748.000000000002
 21
2252.999999027746
 31
0.0
  0
LINE
  5
13345
330
1F
100
AcDbEntity
  8
破線
100
AcDbLine
 10
1716.000000000002
 20
2236.999999027746
 30
0.0
 11
1748.000000000002
 21
2236.999999027746
 31
0.0
  0
LINE
  5
13346
330
1F
100
AcDbEntity
  8
破線
100
AcDbLine
 10
2052.000000000002
 20
2252.999999027746
 30
0.0
 11
2084.000000000002
 21
2252.999999027746
 31
0.0
  0
LINE
  5
13347
330
1F
100
AcDbEntity
  8
破線
100
AcDbLine
 10
2052.000000000002
 20
2236.999999027746
 30
0.0
 11
2084.000000000002
 21
2236.999999027746
 31
0.0
  0
LINE
  5
13348
330
1F
100
AcDbEntity
  8
実線
100
AcDbLine
 10
2084.000000000002
 20
2454.999999027746
 30
0.0
 11
2100.000000000002
 21
2454.999999027746
 31
0.0
  0
LINE
  5
13349
330
1F
100
AcDbEntity
  8
実線
100
AcDbLine
 10
1716.000000000002
 20
2035.000017272377
 30
0.0
 11
1716.000000000002
 21
2454.999999027746
 31
0.0
  0
LINE
  5
1334A
330
1F
100
AcDbEntity
  8
実線
100
AcDbLine
 10
2084.000000000002
 20
2035.000017272377
 30
0.0
 11
2084.000000000002
 21
2454.999999027746
 31
0.0
  0
LINE
  5
1334B
330
1F
100
AcDbEntity
  8
実線
100
AcDbLine
 10
1700.000000000002
 20
2034.999999027746
 30
0.0
 11
1716.000000000002
 21
2034.999999027746
 31
0.0
  0
LINE
  5
1334C
330
1F
100
AcDbEntity
  8
実線
100
AcDbLine
 10
1748.000000000002
 20
2104.999999027747
 30
0.0
 11
2052.000103585028
 21
2104.999999027746
 31
0.0
  0
LINE
  5
1334D
330
1F
100
AcDbEntity
  8
実線
100
AcDbLine
 10
1716.000000000002
 20
2044.999999027746
 30
0.0
 11
2084.000103585028
 21
2044.999999027746
 31
0.0
  0
LINE
  5
1334E
330
1F
100
AcDbEntity
  8
破線
100
AcDbLine
 10
1716.000000000002
 20
2060.999999027746
 30
0.0
 11
1748.000000000002
 21
2060.999999027746
 31
0.0
  0
LINE
  5
1334F
330
1F
100
AcDbEntity
  8
破線
100
AcDbLine
 10
1748.000000000002
 20
2060.999980783114
 30
0.0
 11
1748.000000000002
 21
2044.999999027746
 31
0.0
  0
LINE
  5
13350
330
1F
100
AcDbEntity
  8
破線
100
AcDbLine
 10
1725.000000000002
 20
2104.999999027746
 30
0.0
 11
1748.000000000002
 21
2104.999999027746
 31
0.0
  0
LINE
  5
13351
330
1F
100
AcDbEntity
  8
実線
100
AcDbLine
 10
1728.000000000002
 20
2101.999999027746
 30
0.0
 11
1748.000000000002
 21
2101.999999027746
 31
0.0
  0
LINE
  5
13352
330
1F
100
AcDbEntity
  8
実線
100
AcDbLine
 10
1716.000000000002
 20
2113.999999027746
 30
0.0
 11
1728.000000000002
 21
2101.999999027746
 31
0.0
  0
LINE
  5
13353
330
1F
100
AcDbEntity
  8
実線
100
AcDbLine
 10
1716.000000000002
 20
2104.999999027746
 30
0.0
 11
1725.000000000002
 21
2104.999999027746
 31
0.0
  0
LINE
  5
13354
330
1F
100
AcDbEntity
  8
破線
100
AcDbLine
 10
2052.000000000002
 20
2060.999980783114
 30
0.0
 11
2052.000000000002
 21
2044.999999027746
 31
0.0
  0
LINE
  5
13355
330
1F
100
AcDbEntity
  8
破線
100
AcDbLine
 10
2084.000000000002
 20
2060.999999027746
 30
0.0
 11
2052.000000000002
 21
2060.999999027746
 31
0.0
  0
LINE
  5
13356
330
1F
100
AcDbEntity
  8
実線
100
AcDbLine
 10
2084.000000000002
 20
2034.999999027746
 30
0.0
 11
2100.000000000002
 21
2034.999999027746
 31
0.0
  0
LINE
  5
13357
330
1F
100
AcDbEntity
  8
実線
100
AcDbLine
 10
2052.000103585028
 20
2102.000017272377
 30
0.0
 11
2052.000103585028
 21
2388.000017272377
 31
0.0
  0
LINE
  5
13358
330
1F
100
AcDbEntity
  8
破線
100
AcDbLine
 10
2075.000103585027
 20
2384.999999027746
 30
0.0
 11
2052.000103585028
 21
2384.999999027746
 31
0.0
  0
LINE
  5
13359
330
1F
100
AcDbEntity
  8
実線
100
AcDbLine
 10
2072.000103585029
 20
2387.999999027746
 30
0.0
 11
2052.000103585028
 21
2387.999999027746
 31
0.0
  0
LINE
  5
1335A
330
1F
100
AcDbEntity
  8
実線
100
AcDbLine
 10
2084.000103585028
 20
2375.999999027746
 30
0.0
 11
2072.000103585029
 21
2387.999999027746
 31
0.0
  0
LINE
  5
1335B
330
1F
100
AcDbEntity
  8
実線
100
AcDbLine
 10
2084.000103585028
 20
2384.999999027746
 30
0.0
 11
2075.000103585027
 21
2384.999999027746
 31
0.0
  0
LINE
  5
1335C
330
1F
100
AcDbEntity
  8
破線
100
AcDbLine
 10
2075.000103585027
 20
2104.999999027746
 30
0.0
 11
2052.000103585028
 21
2104.999999027746
 31
0.0
  0
LINE
  5
1335D
330
1F
100
AcDbEntity
  8
実線
100
AcDbLine
 10
2072.000103585029
 20
2101.999999027746
 30
0.0
 11
2052.000103585028
 21
2101.999999027746
 31
0.0
  0
LINE
  5
1335E
330
1F
100
AcDbEntity
  8
実線
100
AcDbLine
 10
2084.000103585028
 20
2113.999999027746
 30
0.0
 11
2072.000103585029
 21
2101.999999027746
 31
0.0
  0
LINE
  5
1335F
330
1F
100
AcDbEntity
  8
実線
100
AcDbLine
 10
2084.000103585028
 20
2104.999999027746
 30
0.0
 11
2075.000103585027
 21
2104.999999027746
 31
0.0
  0
DIMENSION
  5
13360
330
1F
100
AcDbEntity
  8
寸法線
100
AcDbDimension
280
     0
  2
*D12
 10
2631.000226983166
 20
2605.000008150062
 30
0.0
 11
2640.500226983166
 21
2605.000008150062
 31
0.0
 70
   160
 71
     5
 42
19.0
 73
     0
 74
     0
 75
     0
  3
STANDARD
100
AcDbAlignedDimension
 13
2650.000226983166
 23
2436.000045369735
 33
0.0
 14
2631.000226983166
 24
2445.000008150061
 34
0.0
 50
180.0
100
AcDbRotatedDimension
  0
DIMENSION
  5
13361
330
1F
100
AcDbEntity
  8
寸法線
100
AcDbDimension
280
     0
  2
*D13
 10
2100.000226983166
 20
2605.000008150062
 30
0.0
 11
2365.500226983166
 21
2605.000008150062
 31
0.0
 70
   160
 71
     5
 42
531.0
 73
     0
 74
     0
 75
     0
  3
STANDARD
100
AcDbAlignedDimension
 13
2631.000226983166
 23
2445.000008150061
 33
0.0
 14
2100.000226983166
 24
2455.000045369736
 34
0.0
 50
180.0
100
AcDbRotatedDimension
  0
DIMENSION
  5
13362
330
1F
100
AcDbEntity
  8
寸法線
100
AcDbDimension
280
     0
  2
*D14
 10
2100.000000000002
 20
1285.000026154806
 30
0.0
 11
2375.000000000002
 21
1285.000026154806
 31
0.0
 70
   160
 71
     5
 42
550.0
 73
     0
 74
     0
 75
     0
  3
STANDARD
100
AcDbAlignedDimension
 13
2650.000000000002
 23
1445.000026154805
 33
0.0
 14
2100.000000000002
 24
1435.000063374479
 34
0.0
 50
180.0
100
AcDbRotatedDimension
  0
LINE
  5
13363
330
1F
100
AcDbEntity
  8
中心線
100
AcDbLine
 10
1572.000000000002
 20
1815.000026154805
 30
0.0
 11
2228.000003823188
 21
1815.000004526167
 31
0.0
  0
LINE
  5
13364
330
1F
100
AcDbEntity
  8
中心線
100
AcDbLine
 10
1690.000051792514
 20
2415.000017272374
 30
0.0
 11
2110.00015537754
 21
2415.000017272374
 31
0.0
  0
LINE
  5
13365
330
1F
100
AcDbEntity
  8
中心線
100
AcDbLine
 10
1690.000051792514
 20
2075.000017272381
 30
0.0
 11
2110.00015537754
 21
2075.000017272381
 31
0.0
  0
LINE
  5
13366
330
1F
100
AcDbEntity
  8
中心線
100
AcDbLine
 10
1571.99999994328
 20
1475.000026514456
 30
0.0
 11
2228.000003766469
 21
1475.000047924227
 31
0.0
  0
LINE
  5
13367
330
1F
100
AcDbEntity
  8
寸法線
100
AcDbLine
 10
1789.999948207486
 20
1119.999781960079
 30
0.0
 11
2109.999948207486
 21
1119.999781960079
 31
0.0
  0
TEXT
  5
13368
330
1F
100
AcDbEntity
  8
寸法線
100
AcDbText
 10
1798.749948207486
 20
1128.749781960079
 30
0.0
 40
37.5
  1
空洞金具詳細図
 72
     1
 11
1949.999948207486
 21
1128.749781960079
 31
0.0
100
AcDbText
 73
     1
  0
LINE
  5
13369
330
1F
100
AcDbEntity
  8
実線
100
AcDbLine
 10
1150.000000000031
 20
2436.000021956406
 30
0.0
 11
1150.000000000031
 21
2054.000021956406
 31
0.0
  0
LINE
  5
1336A
330
1F
100
AcDbEntity
  8
実線
100
AcDbLine
 10
1169.000000000031
 20
2444.999984736725
 30
0.0
 11
1169.000000000031
 21
2044.999984736725
 31
0.0
  0
LINE
  5
1336B
330
1F
100
AcDbEntity
  8
実線
100
AcDbLine
 10
1169.000000000031
 20
2444.999984736725
 30
0.0
 11
1700.000019813133
 21
2444.999984736725
 31
0.0
  0
LINE
  5
1336C
330
1F
100
AcDbEntity
  8
実線
100
AcDbLine
 10
1169.000000000031
 20
2423.999984736726
 30
0.0
 11
1700.000019813133
 21
2423.999984736726
 31
0.0
  0
LINE
  5
1336D
330
1F
100
AcDbEntity
  8
実線
100
AcDbLine
 10
1580.000000000031
 20
2423.999984736726
 30
0.0
 11
1580.000000000031
 21
2394.000021956406
 31
0.0
  0
LINE
  5
1336E
330
1F
100
AcDbEntity
  8
実線
100
AcDbLine
 10
1660.000019813133
 20
2353.999984736725
 30
0.0
 11
1700.000019813133
 21
2353.999984736725
 31
0.0
  0
LINE
  5
1336F
330
1F
100
AcDbEntity
  8
実線
100
AcDbLine
 10
1580.000000000031
 20
2394.000021956406
 30
0.0
 11
1660.000019813133
 21
2353.999984736725
 31
0.0
  0
LINE
  5
13370
330
1F
100
AcDbEntity
  8
実線
100
AcDbLine
 10
1688.00002377575
 20
2423.999984736726
 30
0.0
 11
1700.00002377575
 21
2411.999984736726
 31
0.0
  0
LINE
  5
13371
330
1F
100
AcDbEntity
  8
仮想線
100
AcDbLine
 10
1691.000019813133
 20
2423.999984736726
 30
0.0
 11
1700.000019813133
 21
2414.999984736726
 31
0.0
  0
LINE
  5
13372
330
1F
100
AcDbEntity
  8
実線
100
AcDbLine
 10
1580.000000000031
 20
2065.999984736725
 30
0.0
 11
1580.000000000031
 21
2095.999947517059
 31
0.0
  0
LINE
  5
13373
330
1F
100
AcDbEntity
  8
実線
100
AcDbLine
 10
1660.000019813133
 20
2135.999984736725
 30
0.0
 11
1700.000019813133
 21
2135.999984736725
 31
0.0
  0
LINE
  5
13374
330
1F
100
AcDbEntity
  8
実線
100
AcDbLine
 10
1580.000000000031
 20
2095.999947517059
 30
0.0
 11
1660.000019813133
 21
2135.999984736725
 31
0.0
  0
LINE
  5
13375
330
1F
100
AcDbEntity
  8
実線
100
AcDbLine
 10
1688.00002377575
 20
2065.999984736725
 30
0.0
 11
1700.00002377575
 21
2077.999984736726
 31
0.0
  0
LINE
  5
13376
330
1F
100
AcDbEntity
  8
仮想線
100
AcDbLine
 10
1691.000019813133
 20
2065.999984736725
 30
0.0
 11
1700.000019813133
 21
2074.999984736725
 31
0.0
  0
LINE
  5
13377
330
1F
100
AcDbEntity
  8
実線
100
AcDbLine
 10
1150.000000000031
 20
2436.000021956406
 30
0.0
 11
1169.000000000031
 21
2436.000021956406
 31
0.0
  0
LINE
  5
13378
330
1F
100
AcDbEntity
  8
実線
100
AcDbLine
 10
1150.000000000031
 20
2054.000047517049
 30
0.0
 11
1169.000000000031
 21
2054.000047517049
 31
0.0
  0
LINE
  5
13379
330
1F
100
AcDbEntity
  8
仮想線
100
AcDbLine
 10
1169.000000000031
 20
2444.999984736725
 30
0.0
 11
1160.000037219697
 21
2436.000021956406
 31
0.0
  0
LINE
  5
1337A
330
1F
100
AcDbEntity
  8
仮想線
100
AcDbLine
 10
1169.000000000031
 20
2044.999984736725
 30
0.0
 11
1159.999937219707
 21
2054.000047517049
 31
0.0
  0
LINE
  5
1337B
330
1F
100
AcDbEntity
  8
実線
100
AcDbLine
 10
1169.000000000031
 20
2250.999984736726
 30
0.0
 11
1369.000019813133
 21
2250.999984736726
 31
0.0
  0
LINE
  5
1337C
330
1F
100
AcDbEntity
  8
実線
100
AcDbLine
 10
1169.000000000031
 20
2238.999984736725
 30
0.0
 11
1369.000019813133
 21
2238.999984736725
 31
0.0
  0
LINE
  5
1337D
330
1F
100
AcDbEntity
  8
実線
100
AcDbLine
 10
1369.000019813133
 20
2250.999984736726
 30
0.0
 11
1369.000019813133
 21
2238.999984736725
 31
0.0
  0
LINE
  5
1337E
330
1F
100
AcDbEntity
  8
仮想線
100
AcDbLine
 10
1700.000001981332
 20
2454.000018234434
 30
0.0
 11
1690.999968483624
 21
2444.999984736725
 31
0.0
  0
LINE
  5
1337F
330
1F
100
AcDbEntity
  8
仮想線
100
AcDbLine
 10
1700.000001981332
 20
2036.000018234434
 30
0.0
 11
1691.000035479041
 21
2044.999984736725
 31
0.0
  0
LINE
  5
13380
330
1F
100
AcDbEntity
  8
実線
100
AcDbLine
 10
1169.000000000031
 20
2044.999984736725
 30
0.0
 11
1700.000083079491
 21
2045.000248975291
 31
0.0
  0
LINE
  5
13381
330
1F
100
AcDbEntity
  8
実線
100
AcDbLine
 10
1169.000000000031
 20
2066.000081002985
 30
0.0
 11
1700.000076436512
 21
2066.000248975292
 31
0.0
  0
LINE
  5
13382
330
1F
100
AcDbEntity
  8
中心線
100
AcDbLine
 10
1200.000000000031
 20
2455.000021953176
 30
0.0
 11
1200.000000000031
 21
2414.000021953176
 31
0.0
  0
LINE
  5
13383
330
1F
100
AcDbEntity
  8
中心線
100
AcDbLine
 10
1200.000000000031
 20
2035.000021959652
 30
0.0
 11
1200.000000000031
 21
2076.000021959651
 31
0.0
  0
LINE
  5
13384
330
1F
100
AcDbEntity
  8
中心線
100
AcDbLine
 10
1140.000004497882
 20
2344.999984631369
 30
0.0
 11
1176.000024310988
 21
2344.999984631369
 31
0.0
  0
LINE
  5
13385
330
1F
100
AcDbEntity
  8
中心線
100
AcDbLine
 10
1140.000004497882
 20
2144.99998463137
 30
0.0
 11
1176.000024310988
 21
2144.99998463137
 31
0.0
  0
LINE
  5
13386
330
1F
100
AcDbEntity
  8
中心線
100
AcDbLine
 10
1140.000004497882
 20
2169.99998463137
 30
0.0
 11
1176.000024310988
 21
2169.99998463137
 31
0.0
  0
LINE
  5
13387
330
1F
100
AcDbEntity
  8
中心線
100
AcDbLine
 10
1140.000004497882
 20
2320.000059281443
 30
0.0
 11
1176.000024310988
 21
2320.000059281443
 31
0.0
  0
LINE
  5
13388
330
1F
100
AcDbEntity
  8
中心線
100
AcDbLine
 10
1250.000000000031
 20
2455.000021953176
 30
0.0
 11
1250.000000000031
 21
2414.000021953176
 31
0.0
  0
LINE
  5
13389
330
1F
100
AcDbEntity
  8
中心線
100
AcDbLine
 10
1250.000000000031
 20
2035.000021959652
 30
0.0
 11
1250.000000000031
 21
2076.000021959651
 31
0.0
  0
LINE
  5
1338A
330
1F
100
AcDbEntity
  8
中心線
100
AcDbLine
 10
1300.000000000031
 20
2455.000021953176
 30
0.0
 11
1300.000000000031
 21
2414.000021953176
 31
0.0
  0
LINE
  5
1338B
330
1F
100
AcDbEntity
  8
中心線
100
AcDbLine
 10
1300.000000000031
 20
2035.000021959652
 30
0.0
 11
1300.000000000031
 21
2076.000021959651
 31
0.0
  0
LINE
  5
1338C
330
1F
100
AcDbEntity
  8
中心線
100
AcDbLine
 10
1350.000000000031
 20
2455.000021953176
 30
0.0
 11
1350.000000000031
 21
2414.000021953176
 31
0.0
  0
LINE
  5
1338D
330
1F
100
AcDbEntity
  8
中心線
100
AcDbLine
 10
1350.000000000031
 20
2035.000021959652
 30
0.0
 11
1350.000000000031
 21
2076.000021959651
 31
0.0
  0
LINE
  5
1338E
330
1F
100
AcDbEntity
  8
中心線
100
AcDbLine
 10
1400.000000000031
 20
2455.000021953176
 30
0.0
 11
1400.000000000031
 21
2414.000021953176
 31
0.0
  0
LINE
  5
1338F
330
1F
100
AcDbEntity
  8
中心線
100
AcDbLine
 10
1400.000000000031
 20
2035.000021959652
 30
0.0
 11
1400.000000000031
 21
2076.000021959651
 31
0.0
  0
LINE
  5
13390
330
1F
100
AcDbEntity
  8
中心線
100
AcDbLine
 10
1450.000000000031
 20
2455.000021953176
 30
0.0
 11
1450.000000000031
 21
2414.000021953176
 31
0.0
  0
LINE
  5
13391
330
1F
100
AcDbEntity
  8
中心線
100
AcDbLine
 10
1450.000000000031
 20
2035.000021959652
 30
0.0
 11
1450.000000000031
 21
2076.000021959651
 31
0.0
  0
LINE
  5
13392
330
1F
100
AcDbEntity
  8
中心線
100
AcDbLine
 10
1500.000000000031
 20
2455.000021953176
 30
0.0
 11
1500.000000000031
 21
2414.000021953176
 31
0.0
  0
LINE
  5
13393
330
1F
100
AcDbEntity
  8
中心線
100
AcDbLine
 10
1500.000000000031
 20
2035.000021959652
 30
0.0
 11
1500.000000000031
 21
2076.000021959651
 31
0.0
  0
LINE
  5
13394
330
1F
100
AcDbEntity
  8
実線
100
AcDbLine
 10
1150.000000000002
 20
1844.999979812823
 30
0.0
 11
1700.000019813133
 21
1844.999979812823
 31
0.0
  0
LINE
  5
13395
330
1F
100
AcDbEntity
  8
実線
100
AcDbLine
 10
1169.000000000002
 20
1844.999979812823
 30
0.0
 11
1169.000000000002
 21
1444.999979812823
 31
0.0
  0
LINE
  5
13396
330
1F
100
AcDbEntity
  8
実線
100
AcDbLine
 10
1150.000000000002
 20
1844.999979812823
 30
0.0
 11
1150.000000000002
 21
1444.999979812823
 31
0.0
  0
LINE
  5
13397
330
1F
100
AcDbEntity
  8
破線
100
AcDbLine
 10
1169.000000000002
 20
1651.499979812823
 30
0.0
 11
1700.000019813133
 21
1651.499979812823
 31
0.0
  0
LINE
  5
13398
330
1F
100
AcDbEntity
  8
破線
100
AcDbLine
 10
1179.000000000002
 20
1651.499979812823
 30
0.0
 11
1169.000000000002
 21
1661.499979812823
 31
0.0
  0
LINE
  5
13399
330
1F
100
AcDbEntity
  8
仮想線
100
AcDbLine
 10
1176.000000000001
 20
1651.499979812823
 30
0.0
 11
1169.000000000002
 21
1658.499979812823
 31
0.0
  0
LINE
  5
1339A
330
1F
100
AcDbEntity
  8
破線
100
AcDbLine
 10
1179.000000000002
 20
1638.499979812823
 30
0.0
 11
1169.000000000002
 21
1628.499979812823
 31
0.0
  0
LINE
  5
1339B
330
1F
100
AcDbEntity
  8
仮想線
100
AcDbLine
 10
1176.000000000001
 20
1638.499979812823
 30
0.0
 11
1169.000000000002
 21
1631.499979812823
 31
0.0
  0
LINE
  5
1339C
330
1F
100
AcDbEntity
  8
実線
100
AcDbLine
 10
1700.000000000002
 20
1855.000017032489
 30
0.0
 11
1700.000000000002
 21
1435.000017032489
 31
0.0
  0
LINE
  5
1339D
330
1F
100
AcDbEntity
  8
破線
100
AcDbLine
 10
1580.000019813133
 20
1824.499979812823
 30
0.0
 11
1700.000000000002
 21
1824.499979812823
 31
0.0
  0
LINE
  5
1339E
330
1F
100
AcDbEntity
  8
破線
100
AcDbLine
 10
1580.000019813133
 20
1805.499979812823
 30
0.0
 11
1700.000000000002
 21
1805.499979812823
 31
0.0
  0
LINE
  5
1339F
330
1F
100
AcDbEntity
  8
破線
100
AcDbLine
 10
1580.000019813133
 20
1824.499979812823
 30
0.0
 11
1580.000019813133
 21
1805.499979812823
 31
0.0
  0
LINE
  5
133A0
330
1F
100
AcDbEntity
  8
破線
100
AcDbLine
 10
1580.000019813133
 20
1465.499979812823
 30
0.0
 11
1700.000000000002
 21
1465.499979812823
 31
0.0
  0
LINE
  5
133A1
330
1F
100
AcDbEntity
  8
破線
100
AcDbLine
 10
1580.000019813133
 20
1484.499979812823
 30
0.0
 11
1700.000000000002
 21
1484.499979812823
 31
0.0
  0
LINE
  5
133A2
330
1F
100
AcDbEntity
  8
破線
100
AcDbLine
 10
1580.000019813133
 20
1465.499979812823
 30
0.0
 11
1580.000019813133
 21
1484.499979812823
 31
0.0
  0
LINE
  5
133A3
330
1F
100
AcDbEntity
  8
破線
100
AcDbLine
 10
1169.000000000002
 20
1841.499979812823
 30
0.0
 11
1199.000019813133
 21
1841.499979812823
 31
0.0
  0
LINE
  5
133A4
330
1F
100
AcDbEntity
  8
破線
100
AcDbLine
 10
1369.000000000002
 20
1681.500017032489
 30
0.0
 11
1369.000000000002
 21
1651.499979812823
 31
0.0
  0
LINE
  5
133A5
330
1F
100
AcDbEntity
  8
破線
100
AcDbLine
 10
1199.000019813133
 20
1841.499979812823
 30
0.0
 11
1369.000000000002
 21
1681.500017032489
 31
0.0
  0
LINE
  5
133A6
330
1F
100
AcDbEntity
  8
破線
100
AcDbLine
 10
1369.000000000002
 20
1608.499942593156
 30
0.0
 11
1369.000000000002
 21
1638.499979812823
 31
0.0
  0
LINE
  5
133A7
330
1F
100
AcDbEntity
  8
破線
100
AcDbLine
 10
1199.000019813133
 20
1448.499979812823
 30
0.0
 11
1369.000000000002
 21
1608.499942593156
 31
0.0
  0
LINE
  5
133A8
330
1F
100
AcDbEntity
  8
破線
100
AcDbLine
 10
1169.000000000002
 20
1448.499979812823
 30
0.0
 11
1199.000019813133
 21
1448.499979812823
 31
0.0
  0
LINE
  5
133A9
330
1F
100
AcDbEntity
  8
実線
100
AcDbLine
 10
1150.000000000002
 20
1444.999979812823
 30
0.0
 11
1700.000019813133
 21
1444.999980023563
 31
0.0
  0
LINE
  5
133AA
330
1F
100
AcDbEntity
  8
破線
100
AcDbLine
 10
1169.000000000002
 20
1638.499980023564
 30
0.0
 11
1700.000019813133
 21
1638.499980023564
 31
0.0
  0
LEADER
  5
133AB
330
1F
100
AcDbEntity
  8
寸法線
100
AcDbLeader
  3
STANDARD
 76
     3
 10
1256.123092980646
 20
1780.897600560322
 30
0.0
 10
1331.471927565886
 20
1915.000026154806
 30
0.0
 10
1599.132104500706
 20
1915.000026154806
 30
0.0
211
-1.0
221
0.0
231
0.0
1001
ACAD
1000
DSTYLE
1002
{
1070
   147
1040
0.875
1070
    77
1070
     0
1002
}
  0
TEXT
  5
133AC
330
1F
100
AcDbEntity
  8
寸法線
100
AcDbText
 10
1340.221927565881
 20
1923.750026154806
 30
0.0
 40
25.0
  1
ｶﾊﾞｰﾌﾟﾚｰﾄ連結用孔
 72
     2
 11
1588.555260899215
 21
1948.750026154806
 31
0.0
100
AcDbText
 73
     3
  0
LINE
  5
133AD
330
1F
100
AcDbEntity
  8
中心線
100
AcDbLine
 10
1200.000000000002
 20
1754.999979812837
 30
0.0
 11
1200.000000000002
 21
1685.000017032511
 31
0.0
  0
LINE
  5
133AE
330
1F
100
AcDbEntity
  8
中心線
100
AcDbLine
 10
1165.000018609839
 20
1719.999998422678
 30
0.0
 11
1234.999981390165
 21
1719.999998422678
 31
0.0
  0
CIRCLE
  5
133AF
330
1F
100
AcDbEntity
  8
実線
100
AcDbCircle
 10
1200.000000000002
 20
1719.999998422678
 30
0.0
 40
12.5
  0
LINE
  5
133B0
330
1F
100
AcDbEntity
  8
中心線
100
AcDbLine
 10
1200.000000000002
 20
1535.000079812835
 30
0.0
 11
1200.000000000002
 21
1605.000042593161
 31
0.0
  0
LINE
  5
133B1
330
1F
100
AcDbEntity
  8
中心線
100
AcDbLine
 10
1165.000018609839
 20
1570.000061203002
 30
0.0
 11
1234.999981390165
 21
1570.000061203002
 31
0.0
  0
CIRCLE
  5
133B2
330
1F
100
AcDbEntity
  8
実線
100
AcDbCircle
 10
1200.000000000002
 20
1570.000061203002
 30
0.0
 40
12.5
  0
LINE
  5
133B3
330
1F
100
AcDbEntity
  8
中心線
100
AcDbLine
 10
1300.000000000002
 20
1754.999979812837
 30
0.0
 11
1300.000000000002
 21
1685.000017032511
 31
0.0
  0
LINE
  5
133B4
330
1F
100
AcDbEntity
  8
中心線
100
AcDbLine
 10
1265.000018609838
 20
1719.999998422678
 30
0.0
 11
1334.999981390165
 21
1719.999998422678
 31
0.0
  0
CIRCLE
  5
133B5
330
1F
100
AcDbEntity
  8
実線
100
AcDbCircle
 10
1300.000000000002
 20
1719.999998422678
 30
0.0
 40
12.5
  0
LINE
  5
133B6
330
1F
100
AcDbEntity
  8
中心線
100
AcDbLine
 10
1300.000000000002
 20
1535.000079812835
 30
0.0
 11
1300.000000000002
 21
1605.000042593161
 31
0.0
  0
LINE
  5
133B7
330
1F
100
AcDbEntity
  8
中心線
100
AcDbLine
 10
1265.000018609838
 20
1570.000061203002
 30
0.0
 11
1334.999981390165
 21
1570.000061203002
 31
0.0
  0
CIRCLE
  5
133B8
330
1F
100
AcDbEntity
  8
実線
100
AcDbCircle
 10
1300.000000000002
 20
1570.000061203002
 30
0.0
 40
12.5
  0
LINE
  5
133B9
330
1F
100
AcDbEntity
  8
中心線
100
AcDbLine
 10
1400.000000000002
 20
1754.999979812837
 30
0.0
 11
1400.000000000002
 21
1685.000017032511
 31
0.0
  0
LINE
  5
133BA
330
1F
100
AcDbEntity
  8
中心線
100
AcDbLine
 10
1365.000018609838
 20
1719.999998422678
 30
0.0
 11
1434.999981390165
 21
1719.999998422678
 31
0.0
  0
CIRCLE
  5
133BB
330
1F
100
AcDbEntity
  8
実線
100
AcDbCircle
 10
1400.000000000002
 20
1719.999998422678
 30
0.0
 40
12.5
  0
LINE
  5
133BC
330
1F
100
AcDbEntity
  8
中心線
100
AcDbLine
 10
1400.000000000002
 20
1535.000079812835
 30
0.0
 11
1400.000000000002
 21
1605.000042593161
 31
0.0
  0
LINE
  5
133BD
330
1F
100
AcDbEntity
  8
中心線
100
AcDbLine
 10
1365.000018609838
 20
1570.000061203002
 30
0.0
 11
1434.999981390165
 21
1570.000061203002
 31
0.0
  0
CIRCLE
  5
133BE
330
1F
100
AcDbEntity
  8
実線
100
AcDbCircle
 10
1400.000000000002
 20
1570.000061203002
 30
0.0
 40
12.5
  0
LINE
  5
133BF
330
1F
100
AcDbEntity
  8
中心線
100
AcDbLine
 10
1250.000000000001
 20
1804.999979812837
 30
0.0
 11
1250.000000000001
 21
1735.000017032511
 31
0.0
  0
LINE
  5
133C0
330
1F
100
AcDbEntity
  8
中心線
100
AcDbLine
 10
1215.000018609839
 20
1769.999998422678
 30
0.0
 11
1284.999981390165
 21
1769.999998422678
 31
0.0
  0
CIRCLE
  5
133C1
330
1F
100
AcDbEntity
  8
実線
100
AcDbCircle
 10
1250.000000000001
 20
1769.999998422678
 30
0.0
 40
12.5
  0
LINE
  5
133C2
330
1F
100
AcDbEntity
  8
中心線
100
AcDbLine
 10
1350.000000000002
 20
1804.999979812837
 30
0.0
 11
1350.000000000002
 21
1735.000017032511
 31
0.0
  0
LINE
  5
133C3
330
1F
100
AcDbEntity
  8
中心線
100
AcDbLine
 10
1315.000018609838
 20
1769.999998422678
 30
0.0
 11
1384.999981390165
 21
1769.999998422678
 31
0.0
  0
CIRCLE
  5
133C4
330
1F
100
AcDbEntity
  8
実線
100
AcDbCircle
 10
1350.000000000002
 20
1769.999998422678
 30
0.0
 40
12.5
  0
LINE
  5
133C5
330
1F
100
AcDbEntity
  8
中心線
100
AcDbLine
 10
1250.000000000001
 20
1485.000079812835
 30
0.0
 11
1250.000000000001
 21
1555.000042593161
 31
0.0
  0
LINE
  5
133C6
330
1F
100
AcDbEntity
  8
中心線
100
AcDbLine
 10
1215.000018609839
 20
1520.000061203002
 30
0.0
 11
1284.999981390165
 21
1520.000061203002
 31
0.0
  0
CIRCLE
  5
133C7
330
1F
100
AcDbEntity
  8
実線
100
AcDbCircle
 10
1250.000000000001
 20
1520.000061203002
 30
0.0
 40
12.5
  0
LINE
  5
133C8
330
1F
100
AcDbEntity
  8
中心線
100
AcDbLine
 10
1350.000000000002
 20
1485.000079812835
 30
0.0
 11
1350.000000000002
 21
1555.000042593161
 31
0.0
  0
LINE
  5
133C9
330
1F
100
AcDbEntity
  8
中心線
100
AcDbLine
 10
1315.000018609838
 20
1520.000061203002
 30
0.0
 11
1384.999981390165
 21
1520.000061203002
 31
0.0
  0
CIRCLE
  5
133CA
330
1F
100
AcDbEntity
  8
実線
100
AcDbCircle
 10
1350.000000000002
 20
1520.000061203002
 30
0.0
 40
12.5
  0
LINE
  5
133CB
330
1F
100
AcDbEntity
  8
中心線
100
AcDbLine
 10
1500.000000000001
 20
1754.999979812837
 30
0.0
 11
1500.000000000001
 21
1685.000017032511
 31
0.0
  0
LINE
  5
133CC
330
1F
100
AcDbEntity
  8
中心線
100
AcDbLine
 10
1465.000018609839
 20
1719.999998422678
 30
0.0
 11
1534.999981390165
 21
1719.999998422678
 31
0.0
  0
CIRCLE
  5
133CD
330
1F
100
AcDbEntity
  8
実線
100
AcDbCircle
 10
1500.000000000001
 20
1719.999998422678
 30
0.0
 40
12.5
  0
LINE
  5
133CE
330
1F
100
AcDbEntity
  8
中心線
100
AcDbLine
 10
1500.000000000001
 20
1535.000079812835
 30
0.0
 11
1500.000000000001
 21
1605.000042593161
 31
0.0
  0
LINE
  5
133CF
330
1F
100
AcDbEntity
  8
中心線
100
AcDbLine
 10
1465.000018609839
 20
1570.000061203002
 30
0.0
 11
1534.999981390165
 21
1570.000061203002
 31
0.0
  0
CIRCLE
  5
133D0
330
1F
100
AcDbEntity
  8
実線
100
AcDbCircle
 10
1500.000000000001
 20
1570.000061203002
 30
0.0
 40
12.5
  0
LINE
  5
133D1
330
1F
100
AcDbEntity
  8
中心線
100
AcDbLine
 10
1450.000000000002
 20
1804.999979812837
 30
0.0
 11
1450.000000000002
 21
1735.000017032511
 31
0.0
  0
LINE
  5
133D2
330
1F
100
AcDbEntity
  8
中心線
100
AcDbLine
 10
1415.000018609839
 20
1769.999998422678
 30
0.0
 11
1484.999981390165
 21
1769.999998422678
 31
0.0
  0
CIRCLE
  5
133D3
330
1F
100
AcDbEntity
  8
実線
100
AcDbCircle
 10
1450.000000000002
 20
1769.999998422678
 30
0.0
 40
12.5
  0
LINE
  5
133D4
330
1F
100
AcDbEntity
  8
中心線
100
AcDbLine
 10
1450.000000000002
 20
1485.000079812835
 30
0.0
 11
1450.000000000002
 21
1555.000042593161
 31
0.0
  0
LINE
  5
133D5
330
1F
100
AcDbEntity
  8
中心線
100
AcDbLine
 10
1415.000018609839
 20
1520.000061203002
 30
0.0
 11
1484.999981390165
 21
1520.000061203002
 31
0.0
  0
CIRCLE
  5
133D6
330
1F
100
AcDbEntity
  8
実線
100
AcDbCircle
 10
1450.000000000002
 20
1520.000061203002
 30
0.0
 40
12.5
  0
LINE
  5
133D7
330
1F
100
AcDbEntity
  8
中心線
100
AcDbLine
 10
1140.000004497857
 20
1744.939079491309
 30
0.0
 11
1176.000024310966
 21
1744.939079491309
 31
0.0
  0
LINE
  5
133D8
330
1F
100
AcDbEntity
  8
中心線
100
AcDbLine
 10
1140.000004497857
 20
1544.939079491309
 30
0.0
 11
1176.000024310966
 21
1544.939079491309
 31
0.0
  0
LINE
  5
133D9
330
1F
100
AcDbEntity
  8
中心線
100
AcDbLine
 10
1140.000004497857
 20
1594.939079491308
 30
0.0
 11
1176.000024310966
 21
1594.939079491308
 31
0.0
  0
LINE
  5
133DA
330
1F
100
AcDbEntity
  8
中心線
100
AcDbLine
 10
1140.000004497857
 20
1694.93915414139
 30
0.0
 11
1176.000024310966
 21
1694.93915414139
 31
0.0
  0
LINE
  5
133DB
330
1F
100
AcDbEntity
  8
実線
100
AcDbLine
 10
2650.000000000002
 20
1844.999979812823
 30
0.0
 11
2099.999980186871
 21
1844.999979812823
 31
0.0
  0
LINE
  5
133DC
330
1F
100
AcDbEntity
  8
実線
100
AcDbLine
 10
2631.000000000002
 20
1844.999979812823
 30
0.0
 11
2630.999999999998
 21
1444.999979812823
 31
0.0
  0
LINE
  5
133DD
330
1F
100
AcDbEntity
  8
実線
100
AcDbLine
 10
2650.000000000002
 20
1844.999979812823
 30
0.0
 11
2649.999999999999
 21
1444.999979812823
 31
0.0
  0
LINE
  5
133DE
330
1F
100
AcDbEntity
  8
破線
100
AcDbLine
 10
2631.000000000002
 20
1651.499979812823
 30
0.0
 11
2099.999980186871
 21
1651.499979812823
 31
0.0
  0
LINE
  5
133DF
330
1F
100
AcDbEntity
  8
破線
100
AcDbLine
 10
2621.000000000002
 20
1651.499979812823
 30
0.0
 11
2631.000000000002
 21
1661.499979812823
 31
0.0
  0
LINE
  5
133E0
330
1F
100
AcDbEntity
  8
仮想線
100
AcDbLine
 10
2624.000000000002
 20
1651.499979812823
 30
0.0
 11
2631.000000000002
 21
1658.499979812823
 31
0.0
  0
LINE
  5
133E1
330
1F
100
AcDbEntity
  8
破線
100
AcDbLine
 10
2621.000000000002
 20
1638.499979812823
 30
0.0
 11
2631.000000000002
 21
1628.499979812823
 31
0.0
  0
LINE
  5
133E2
330
1F
100
AcDbEntity
  8
仮想線
100
AcDbLine
 10
2624.000000000002
 20
1638.499979812823
 30
0.0
 11
2631.000000000002
 21
1631.499979812823
 31
0.0
  0
LINE
  5
133E3
330
1F
100
AcDbEntity
  8
実線
100
AcDbLine
 10
2100.000000000002
 20
1855.000017032489
 30
0.0
 11
2099.999999999998
 21
1435.000017032489
 31
0.0
  0
LINE
  5
133E4
330
1F
100
AcDbEntity
  8
破線
100
AcDbLine
 10
2219.999980186871
 20
1824.499979812823
 30
0.0
 11
2100.000000000002
 21
1824.499979812823
 31
0.0
  0
LINE
  5
133E5
330
1F
100
AcDbEntity
  8
破線
100
AcDbLine
 10
2219.999980186871
 20
1805.499979812823
 30
0.0
 11
2100.000000000002
 21
1805.499979812823
 31
0.0
  0
LINE
  5
133E6
330
1F
100
AcDbEntity
  8
破線
100
AcDbLine
 10
2219.999980186871
 20
1824.499979812823
 30
0.0
 11
2219.999980186871
 21
1805.499979812823
 31
0.0
  0
LINE
  5
133E7
330
1F
100
AcDbEntity
  8
破線
100
AcDbLine
 10
2219.999980186867
 20
1465.499979812823
 30
0.0
 11
2099.999999999998
 21
1465.499979812823
 31
0.0
  0
LINE
  5
133E8
330
1F
100
AcDbEntity
  8
破線
100
AcDbLine
 10
2219.999980186867
 20
1484.499979812823
 30
0.0
 11
2099.999999999998
 21
1484.499979812823
 31
0.0
  0
LINE
  5
133E9
330
1F
100
AcDbEntity
  8
破線
100
AcDbLine
 10
2219.999980186867
 20
1465.499979812823
 30
0.0
 11
2219.999980186867
 21
1484.499979812823
 31
0.0
  0
LINE
  5
133EA
330
1F
100
AcDbEntity
  8
破線
100
AcDbLine
 10
2631.000000000002
 20
1841.499979812823
 30
0.0
 11
2600.999980186871
 21
1841.499979812823
 31
0.0
  0
LINE
  5
133EB
330
1F
100
AcDbEntity
  8
破線
100
AcDbLine
 10
2431.000000000002
 20
1681.500017032489
 30
0.0
 11
2431.000000000002
 21
1651.499979812823
 31
0.0
  0
LINE
  5
133EC
330
1F
100
AcDbEntity
  8
破線
100
AcDbLine
 10
2600.999980186871
 20
1841.499979812823
 30
0.0
 11
2431.000000000002
 21
1681.500017032489
 31
0.0
  0
LINE
  5
133ED
330
1F
100
AcDbEntity
  8
破線
100
AcDbLine
 10
2431.000000000002
 20
1608.499942593156
 30
0.0
 11
2431.000000000002
 21
1638.499979812823
 31
0.0
  0
LINE
  5
133EE
330
1F
100
AcDbEntity
  8
破線
100
AcDbLine
 10
2600.999980186867
 20
1448.499979812823
 30
0.0
 11
2431.000000000002
 21
1608.499942593156
 31
0.0
  0
LINE
  5
133EF
330
1F
100
AcDbEntity
  8
破線
100
AcDbLine
 10
2630.999999999998
 20
1448.499979812823
 30
0.0
 11
2600.999980186867
 21
1448.499979812823
 31
0.0
  0
LINE
  5
133F0
330
1F
100
AcDbEntity
  8
実線
100
AcDbLine
 10
2649.999999999999
 20
1444.999979812823
 30
0.0
 11
2099.999980186867
 21
1444.999980023563
 31
0.0
  0
LINE
  5
133F1
330
1F
100
AcDbEntity
  8
破線
100
AcDbLine
 10
2631.000000000002
 20
1638.499980023564
 30
0.0
 11
2099.999980186871
 21
1638.499980023564
 31
0.0
  0
LINE
  5
133F2
330
1F
100
AcDbEntity
  8
中心線
100
AcDbLine
 10
2600.000000000002
 20
1754.999979812837
 30
0.0
 11
2600.000000000002
 21
1685.000017032511
 31
0.0
  0
LINE
  5
133F3
330
1F
100
AcDbEntity
  8
中心線
100
AcDbLine
 10
2634.999981390163
 20
1719.999998422678
 30
0.0
 11
2565.000018609839
 21
1719.999998422678
 31
0.0
  0
CIRCLE
  5
133F4
330
1F
100
AcDbEntity
  8
実線
100
AcDbCircle
 10
2600.000000000002
 20
1719.999998422678
 30
0.0
 40
12.5
  0
LINE
  5
133F5
330
1F
100
AcDbEntity
  8
中心線
100
AcDbLine
 10
2600.000000000002
 20
1535.000079812835
 30
0.0
 11
2600.000000000002
 21
1605.000042593161
 31
0.0
  0
LINE
  5
133F6
330
1F
100
AcDbEntity
  8
中心線
100
AcDbLine
 10
2634.999981390163
 20
1570.000061203002
 30
0.0
 11
2565.000018609839
 21
1570.000061203002
 31
0.0
  0
CIRCLE
  5
133F7
330
1F
100
AcDbEntity
  8
実線
100
AcDbCircle
 10
2600.000000000002
 20
1570.000061203002
 30
0.0
 40
12.5
  0
LINE
  5
133F8
330
1F
100
AcDbEntity
  8
中心線
100
AcDbLine
 10
2500.000000000002
 20
1754.999979812837
 30
0.0
 11
2500.000000000002
 21
1685.000017032511
 31
0.0
  0
LINE
  5
133F9
330
1F
100
AcDbEntity
  8
中心線
100
AcDbLine
 10
2534.999981390165
 20
1719.999998422678
 30
0.0
 11
2465.000018609839
 21
1719.999998422678
 31
0.0
  0
CIRCLE
  5
133FA
330
1F
100
AcDbEntity
  8
実線
100
AcDbCircle
 10
2500.000000000002
 20
1719.999998422678
 30
0.0
 40
12.5
  0
LINE
  5
133FB
330
1F
100
AcDbEntity
  8
中心線
100
AcDbLine
 10
2500.000000000002
 20
1535.000079812835
 30
0.0
 11
2500.000000000002
 21
1605.000042593161
 31
0.0
  0
LINE
  5
133FC
330
1F
100
AcDbEntity
  8
中心線
100
AcDbLine
 10
2534.999981390165
 20
1570.000061203002
 30
0.0
 11
2465.000018609839
 21
1570.000061203002
 31
0.0
  0
CIRCLE
  5
133FD
330
1F
100
AcDbEntity
  8
実線
100
AcDbCircle
 10
2500.000000000002
 20
1570.000061203002
 30
0.0
 40
12.5
  0
LINE
  5
133FE
330
1F
100
AcDbEntity
  8
中心線
100
AcDbLine
 10
2400.000000000002
 20
1754.999979812837
 30
0.0
 11
2400.000000000002
 21
1685.000017032511
 31
0.0
  0
LINE
  5
133FF
330
1F
100
AcDbEntity
  8
中心線
100
AcDbLine
 10
2434.999981390165
 20
1719.999998422678
 30
0.0
 11
2365.000018609839
 21
1719.999998422678
 31
0.0
  0
CIRCLE
  5
13400
330
1F
100
AcDbEntity
  8
実線
100
AcDbCircle
 10
2400.000000000002
 20
1719.999998422678
 30
0.0
 40
12.5
  0
LINE
  5
13401
330
1F
100
AcDbEntity
  8
中心線
100
AcDbLine
 10
2400.000000000002
 20
1535.000079812835
 30
0.0
 11
2400.000000000002
 21
1605.000042593161
 31
0.0
  0
LINE
  5
13402
330
1F
100
AcDbEntity
  8
中心線
100
AcDbLine
 10
2434.999981390165
 20
1570.000061203002
 30
0.0
 11
2365.000018609839
 21
1570.000061203002
 31
0.0
  0
CIRCLE
  5
13403
330
1F
100
AcDbEntity
  8
実線
100
AcDbCircle
 10
2400.000000000002
 20
1570.000061203002
 30
0.0
 40
12.5
  0
LINE
  5
13404
330
1F
100
AcDbEntity
  8
中心線
100
AcDbLine
 10
2550.000000000002
 20
1804.999979812837
 30
0.0
 11
2550.000000000002
 21
1735.000017032511
 31
0.0
  0
LINE
  5
13405
330
1F
100
AcDbEntity
  8
中心線
100
AcDbLine
 10
2584.999981390165
 20
1769.999998422678
 30
0.0
 11
2515.000018609839
 21
1769.999998422678
 31
0.0
  0
CIRCLE
  5
13406
330
1F
100
AcDbEntity
  8
実線
100
AcDbCircle
 10
2550.000000000002
 20
1769.999998422678
 30
0.0
 40
12.5
  0
LINE
  5
13407
330
1F
100
AcDbEntity
  8
中心線
100
AcDbLine
 10
2450.000000000002
 20
1804.999979812837
 30
0.0
 11
2450.000000000002
 21
1735.000017032511
 31
0.0
  0
LINE
  5
13408
330
1F
100
AcDbEntity
  8
中心線
100
AcDbLine
 10
2484.999981390165
 20
1769.999998422678
 30
0.0
 11
2415.000018609839
 21
1769.999998422678
 31
0.0
  0
CIRCLE
  5
13409
330
1F
100
AcDbEntity
  8
実線
100
AcDbCircle
 10
2450.000000000002
 20
1769.999998422678
 30
0.0
 40
12.5
  0
LINE
  5
1340A
330
1F
100
AcDbEntity
  8
中心線
100
AcDbLine
 10
2549.999999999998
 20
1485.000079812835
 30
0.0
 11
2550.000000000002
 21
1555.000042593161
 31
0.0
  0
LINE
  5
1340B
330
1F
100
AcDbEntity
  8
中心線
100
AcDbLine
 10
2584.999981390162
 20
1520.000061203002
 30
0.0
 11
2515.000018609835
 21
1520.000061203002
 31
0.0
  0
CIRCLE
  5
1340C
330
1F
100
AcDbEntity
  8
実線
100
AcDbCircle
 10
2549.999999999998
 20
1520.000061203002
 30
0.0
 40
12.5
  0
LINE
  5
1340D
330
1F
100
AcDbEntity
  8
中心線
100
AcDbLine
 10
2449.999999999998
 20
1485.000079812835
 30
0.0
 11
2450.000000000002
 21
1555.000042593161
 31
0.0
  0
LINE
  5
1340E
330
1F
100
AcDbEntity
  8
中心線
100
AcDbLine
 10
2484.999981390162
 20
1520.000061203002
 30
0.0
 11
2415.000018609835
 21
1520.000061203002
 31
0.0
  0
CIRCLE
  5
1340F
330
1F
100
AcDbEntity
  8
実線
100
AcDbCircle
 10
2449.999999999998
 20
1520.000061203002
 30
0.0
 40
12.5
  0
LINE
  5
13410
330
1F
100
AcDbEntity
  8
中心線
100
AcDbLine
 10
2300.000000000002
 20
1754.999979812837
 30
0.0
 11
2300.000000000002
 21
1685.000017032511
 31
0.0
  0
LINE
  5
13411
330
1F
100
AcDbEntity
  8
中心線
100
AcDbLine
 10
2334.999981390165
 20
1719.999998422678
 30
0.0
 11
2265.000018609839
 21
1719.999998422678
 31
0.0
  0
CIRCLE
  5
13412
330
1F
100
AcDbEntity
  8
実線
100
AcDbCircle
 10
2300.000000000002
 20
1719.999998422678
 30
0.0
 40
12.5
  0
LINE
  5
13413
330
1F
100
AcDbEntity
  8
中心線
100
AcDbLine
 10
2300.000000000002
 20
1535.000079812835
 30
0.0
 11
2300.000000000002
 21
1605.000042593161
 31
0.0
  0
LINE
  5
13414
330
1F
100
AcDbEntity
  8
中心線
100
AcDbLine
 10
2334.999981390165
 20
1570.000061203002
 30
0.0
 11
2265.000018609839
 21
1570.000061203002
 31
0.0
  0
CIRCLE
  5
13415
330
1F
100
AcDbEntity
  8
実線
100
AcDbCircle
 10
2300.000000000002
 20
1570.000061203002
 30
0.0
 40
12.5
  0
LINE
  5
13416
330
1F
100
AcDbEntity
  8
中心線
100
AcDbLine
 10
2350.000000000002
 20
1804.999979812837
 30
0.0
 11
2350.000000000002
 21
1735.000017032511
 31
0.0
  0
LINE
  5
13417
330
1F
100
AcDbEntity
  8
中心線
100
AcDbLine
 10
2384.999981390165
 20
1769.999998422678
 30
0.0
 11
2315.000018609839
 21
1769.999998422678
 31
0.0
  0
CIRCLE
  5
13418
330
1F
100
AcDbEntity
  8
実線
100
AcDbCircle
 10
2350.000000000002
 20
1769.999998422678
 30
0.0
 40
12.5
  0
LINE
  5
13419
330
1F
100
AcDbEntity
  8
中心線
100
AcDbLine
 10
2349.999999999998
 20
1485.000079812835
 30
0.0
 11
2350.000000000002
 21
1555.000042593161
 31
0.0
  0
LINE
  5
1341A
330
1F
100
AcDbEntity
  8
中心線
100
AcDbLine
 10
2384.999981390162
 20
1520.000061203002
 30
0.0
 11
2315.000018609835
 21
1520.000061203002
 31
0.0
  0
CIRCLE
  5
1341B
330
1F
100
AcDbEntity
  8
実線
100
AcDbCircle
 10
2349.999999999998
 20
1520.000061203002
 30
0.0
 40
12.5
  0
LINE
  5
1341C
330
1F
100
AcDbEntity
  8
中心線
100
AcDbLine
 10
2659.999995502145
 20
1744.939079491309
 30
0.0
 11
2623.999975689037
 21
1744.939079491309
 31
0.0
  0
LINE
  5
1341D
330
1F
100
AcDbEntity
  8
中心線
100
AcDbLine
 10
2659.999995502145
 20
1544.939079491309
 30
0.0
 11
2623.999975689037
 21
1544.939079491309
 31
0.0
  0
LINE
  5
1341E
330
1F
100
AcDbEntity
  8
中心線
100
AcDbLine
 10
2659.999995502145
 20
1594.939079491308
 30
0.0
 11
2623.999975689037
 21
1594.939079491308
 31
0.0
  0
LINE
  5
1341F
330
1F
100
AcDbEntity
  8
中心線
100
AcDbLine
 10
2659.999995502145
 20
1694.93915414139
 30
0.0
 11
2623.999975689037
 21
1694.93915414139
 31
0.0
  0
DIMENSION
  5
13420
330
1F
100
AcDbEntity
  8
寸法線
100
AcDbDimension
280
     0
  2
*D10
 10
2299.999980186869
 20
1805.499979812824
 30
0.0
 11
2299.999980186869
 21
1814.999979812823
 31
0.0
 70
   160
 71
     5
 42
19.0
 73
     0
 74
     0
 75
     0
  3
STANDARD
100
AcDbAlignedDimension
 13
2219.999980186871
 23
1824.499979812823
 33
0.0
 14
2219.999980186871
 24
1805.499979812823
 34
0.0
 50
270.0
100
AcDbRotatedDimension
1001
ACAD
1000
DSTYLE
1002
{
1070
   271
1070
     1
1002
}
  0
DIMENSION
  5
13421
330
1F
100
AcDbEntity
  8
寸法線
100
AcDbDimension
280
     0
  2
*D11
 10
2299.999980186869
 20
1444.999980016172
 30
0.0
 11
2299.999980186869
 21
1460.000013970199
 31
0.0
 70
   160
 71
     5
 42
30.00006790805583
 73
     0
 74
     0
 75
     0
  3
STANDARD
100
AcDbAlignedDimension
 13
2228.000003766469
 23
1475.000047924227
 33
0.0
 14
2100.000000000002
 24
1444.999980016171
 34
0.0
 50
270.0
100
AcDbRotatedDimension
1001
ACAD
1000
DSTYLE
1002
{
1070
   271
1070
     1
1002
}
  0
LINE
  5
13422
330
1F
100
AcDbEntity
  8
実線
100
AcDbLine
 10
3549.999999999971
 20
2445.000008150076
 30
0.0
 11
3549.999999999971
 21
2045.000008150076
 31
0.0
  0
LINE
  5
13423
330
1F
100
AcDbEntity
  8
中心線
100
AcDbLine
 10
3349.999999999971
 20
2461.000008150076
 30
0.0
 11
3349.999999999971
 21
2029.000008150071
 31
0.0
  0
LINE
  5
13424
330
1F
100
AcDbEntity
  8
中心線
100
AcDbLine
 10
3124.999999999969
 20
2245.000008150075
 30
0.0
 11
3574.999999999971
 21
2245.000008150075
 31
0.0
  0
LINE
  5
13425
330
1F
100
AcDbEntity
  8
実線
100
AcDbLine
 10
3149.999999999971
 20
2053.999988336966
 30
0.0
 11
3549.999999999971
 21
2053.999988336966
 31
0.0
  0
LINE
  5
13426
330
1F
100
AcDbEntity
  8
実線
100
AcDbLine
 10
3149.999999999971
 20
2435.999988336966
 30
0.0
 11
3549.999999999971
 21
2435.999988336966
 31
0.0
  0
LINE
  5
13427
330
1F
100
AcDbEntity
  8
中心線
100
AcDbLine
 10
3299.999981390134
 20
2135.000026759912
 30
0.0
 11
3299.999981390134
 21
2204.999989540235
 31
0.0
  0
CIRCLE
  5
13428
330
1F
100
AcDbEntity
  8
実線
100
AcDbCircle
 10
3299.999981390134
 20
2170.000008150073
 30
0.0
 40
12.5
  0
LINE
  5
13429
330
1F
100
AcDbEntity
  8
中心線
100
AcDbLine
 10
3334.999962780297
 20
2170.000008150073
 30
0.0
 11
3264.999999999971
 21
2170.000008150073
 31
0.0
  0
LINE
  5
1342A
330
1F
100
AcDbEntity
  8
中心線
100
AcDbLine
 10
3249.999981390134
 20
2110.000026759912
 30
0.0
 11
3249.999981390134
 21
2179.999989540239
 31
0.0
  0
CIRCLE
  5
1342B
330
1F
100
AcDbEntity
  8
実線
100
AcDbCircle
 10
3249.999981390134
 20
2145.000008150072
 30
0.0
 40
12.5
  0
LINE
  5
1342C
330
1F
100
AcDbEntity
  8
中心線
100
AcDbLine
 10
3284.999962780297
 20
2145.000008150072
 30
0.0
 11
3214.999999999971
 21
2145.000008150072
 31
0.0
  0
LINE
  5
1342D
330
1F
100
AcDbEntity
  8
中心線
100
AcDbLine
 10
3299.999981390134
 20
2354.999989540238
 30
0.0
 11
3299.999981390134
 21
2285.000026759912
 31
0.0
  0
CIRCLE
  5
1342E
330
1F
100
AcDbEntity
  8
実線
100
AcDbCircle
 10
3299.999981390134
 20
2320.000008150076
 30
0.0
 40
12.5
  0
LINE
  5
1342F
330
1F
100
AcDbEntity
  8
中心線
100
AcDbLine
 10
3334.999962780297
 20
2320.000008150076
 30
0.0
 11
3264.999999999971
 21
2320.000008150076
 31
0.0
  0
LINE
  5
13430
330
1F
100
AcDbEntity
  8
中心線
100
AcDbLine
 10
3249.999981390134
 20
2379.999989540238
 30
0.0
 11
3249.999981390134
 21
2310.000026759912
 31
0.0
  0
CIRCLE
  5
13431
330
1F
100
AcDbEntity
  8
実線
100
AcDbCircle
 10
3249.999981390134
 20
2345.000008150075
 30
0.0
 40
12.5
  0
LINE
  5
13432
330
1F
100
AcDbEntity
  8
中心線
100
AcDbLine
 10
3284.999962780297
 20
2345.000008150075
 30
0.0
 11
3214.999999999971
 21
2345.000008150075
 31
0.0
  0
LINE
  5
13433
330
1F
100
AcDbEntity
  8
中心線
100
AcDbLine
 10
3400.000018609808
 20
2135.000026759912
 30
0.0
 11
3400.000018609808
 21
2204.999989540235
 31
0.0
  0
CIRCLE
  5
13434
330
1F
100
AcDbEntity
  8
実線
100
AcDbCircle
 10
3400.000018609808
 20
2170.000008150073
 30
0.0
 40
12.5
  0
LINE
  5
13435
330
1F
100
AcDbEntity
  8
中心線
100
AcDbLine
 10
3365.000037219644
 20
2170.000008150073
 30
0.0
 11
3434.999999999969
 21
2170.000008150073
 31
0.0
  0
LINE
  5
13436
330
1F
100
AcDbEntity
  8
中心線
100
AcDbLine
 10
3450.000018609808
 20
2110.000026759912
 30
0.0
 11
3450.000018609808
 21
2179.999989540239
 31
0.0
  0
CIRCLE
  5
13437
330
1F
100
AcDbEntity
  8
実線
100
AcDbCircle
 10
3450.000018609808
 20
2145.000008150072
 30
0.0
 40
12.5
  0
LINE
  5
13438
330
1F
100
AcDbEntity
  8
中心線
100
AcDbLine
 10
3415.000037219643
 20
2145.000008150072
 30
0.0
 11
3484.999999999969
 21
2145.000008150072
 31
0.0
  0
LINE
  5
13439
330
1F
100
AcDbEntity
  8
中心線
100
AcDbLine
 10
3400.000018609808
 20
2354.999989540238
 30
0.0
 11
3400.000018609808
 21
2285.000026759912
 31
0.0
  0
CIRCLE
  5
1343A
330
1F
100
AcDbEntity
  8
実線
100
AcDbCircle
 10
3400.000018609808
 20
2320.000008150076
 30
0.0
 40
12.5
  0
LINE
  5
1343B
330
1F
100
AcDbEntity
  8
中心線
100
AcDbLine
 10
3365.000037219644
 20
2320.000008150076
 30
0.0
 11
3434.999999999969
 21
2320.000008150076
 31
0.0
  0
LINE
  5
1343C
330
1F
100
AcDbEntity
  8
中心線
100
AcDbLine
 10
3450.000018609808
 20
2379.999989540238
 30
0.0
 11
3450.000018609808
 21
2310.000026759912
 31
0.0
  0
CIRCLE
  5
1343D
330
1F
100
AcDbEntity
  8
実線
100
AcDbCircle
 10
3450.000018609808
 20
2345.000008150075
 30
0.0
 40
12.5
  0
LINE
  5
1343E
330
1F
100
AcDbEntity
  8
中心線
100
AcDbLine
 10
3415.000037219643
 20
2345.000008150075
 30
0.0
 11
3484.999999999969
 21
2345.000008150075
 31
0.0
  0
LINE
  5
1343F
330
1F
100
AcDbEntity
  8
破線
100
AcDbLine
 10
3149.999999999971
 20
2065.999988336966
 30
0.0
 11
3321.499962780297
 21
2065.999988336966
 31
0.0
  0
LINE
  5
13440
330
1F
100
AcDbEntity
  8
破線
100
AcDbLine
 10
3549.999999999971
 20
2065.999988336966
 30
0.0
 11
3378.500037219647
 21
2065.999988336966
 31
0.0
  0
LINE
  5
13441
330
1F
100
AcDbEntity
  8
破線
100
AcDbLine
 10
3149.999999999971
 20
2423.999988336966
 30
0.0
 11
3321.499962780297
 21
2423.999988336966
 31
0.0
  0
LINE
  5
13442
330
1F
100
AcDbEntity
  8
破線
100
AcDbLine
 10
3549.999999999971
 20
2423.999988336966
 30
0.0
 11
3378.500037219647
 21
2423.999988336966
 31
0.0
  0
LINE
  5
13443
330
1F
100
AcDbEntity
  8
破線
100
AcDbLine
 10
3343.499999999969
 20
2402.000008150075
 30
0.0
 11
3343.499999999969
 21
2088.000008150072
 31
0.0
  0
LINE
  5
13444
330
1F
100
AcDbEntity
  8
破線
100
AcDbLine
 10
3356.499999999971
 20
2402.000008150075
 30
0.0
 11
3356.499999999971
 21
2088.000008150072
 31
0.0
  0
ARC
  5
13445
330
1F
100
AcDbEntity
  8
破線
100
AcDbCircle
 10
3321.499999999971
 20
2088.000008150072
 30
0.0
 40
22.0
100
AcDbArc
 50
269.9999030668841
 51
0.0
  0
ARC
  5
13446
330
1F
100
AcDbEntity
  8
破線
100
AcDbCircle
 10
3378.499999999971
 20
2088.000008150072
 30
0.0
 40
22.0
100
AcDbArc
 50
180.0
 51
270.0000969331159
  0
ARC
  5
13447
330
1F
100
AcDbEntity
  8
破線
100
AcDbCircle
 10
3321.499999999971
 20
2402.000008150072
 30
0.0
 40
22.0
100
AcDbArc
 50
0.0
 51
90.00009693311588
  0
ARC
  5
13448
330
1F
100
AcDbEntity
  8
破線
100
AcDbCircle
 10
3378.499999999971
 20
2402.000008150072
 30
0.0
 40
22.0
100
AcDbArc
 50
89.99990306688411
 51
180.0
  0
LINE
  5
13449
330
1F
100
AcDbEntity
  8
破線
100
AcDbLine
 10
3153.499962780297
 20
2239.000008150075
 30
0.0
 11
3343.499999999969
 21
2239.000008150075
 31
0.0
  0
LINE
  5
1344A
330
1F
100
AcDbEntity
  8
破線
100
AcDbLine
 10
3153.499962780297
 20
2251.000008150076
 30
0.0
 11
3343.499999999969
 21
2251.000008150076
 31
0.0
  0
LINE
  5
1344B
330
1F
100
AcDbEntity
  8
破線
100
AcDbLine
 10
3546.500037219643
 20
2239.000008150075
 30
0.0
 11
3356.499999999971
 21
2239.000008150075
 31
0.0
  0
LINE
  5
1344C
330
1F
100
AcDbEntity
  8
破線
100
AcDbLine
 10
3546.500037219643
 20
2251.000008150076
 30
0.0
 11
3356.499999999971
 21
2251.000008150076
 31
0.0
  0
LINE
  5
1344D
330
1F
100
AcDbEntity
  8
破線
 48
10.0
100
AcDbLine
 10
3546.500037219643
 20
2251.000008150076
 30
0.0
 11
3546.500037219643
 21
2239.000008150075
 31
0.0
  0
LINE
  5
1344E
330
1F
100
AcDbEntity
  8
実線
100
AcDbLine
 10
3149.999999999971
 20
2445.000008150076
 30
0.0
 11
3549.999999999971
 21
2445.000008150076
 31
0.0
  0
LINE
  5
1344F
330
1F
100
AcDbEntity
  8
実線
100
AcDbLine
 10
3149.999999999971
 20
2045.000008150076
 30
0.0
 11
3549.999999999971
 21
2045.000008150076
 31
0.0
  0
LINE
  5
13450
330
1F
100
AcDbEntity
  8
実線
100
AcDbLine
 10
3149.999999999971
 20
2445.000008150076
 30
0.0
 11
3149.999999999971
 21
2045.000008150076
 31
0.0
  0
LEADER
  5
13451
330
1F
100
AcDbEntity
  8
寸法線
100
AcDbLeader
  3
STANDARD
 76
     3
 10
3257.532916238339
 20
2354.975222061201
 30
0.0
 10
3385.929725329277
 20
2525.000008150076
 30
0.0
 10
3578.508016089541
 20
2525.000008150076
 30
0.0
211
1.0
221
0.0000000000000002
231
0.0
1001
ACAD
1000
DSTYLE
1002
{
1070
   147
1040
0.875
1070
    77
1070
     0
1002
}
  0
TEXT
  5
13452
330
1F
100
AcDbEntity
  8
寸法線
100
AcDbText
 10
3394.679725329276
 20
2533.750008150077
 30
0.0
 40
25.0
  1
主材連結用孔
 72
     2
 11
3568.013058662609
 21
2558.750008150076
 31
0.0
100
AcDbText
 73
     3
  0
LINE
  5
13453
330
1F
100
AcDbEntity
  8
破線
 48
10.0
100
AcDbLine
 10
3153.499962780297
 20
2251.000008150076
 30
0.0
 11
3153.499962780297
 21
2239.000008150075
 31
0.0
  0
DIMENSION
  5
13454
330
1F
100
AcDbEntity
  8
寸法線
100
AcDbDimension
280
     0
  2
*D16
 10
3149.999999999969
 20
1924.999988336965
 30
0.0
 11
3349.999999999971
 21
1924.999988336965
 31
0.0
 70
   160
 71
     5
 42
400.0
 73
     0
 74
     0
 75
     0
  3
STANDARD
100
AcDbAlignedDimension
 13
3549.99999999997
 23
2044.999988336965
 33
0.0
 14
3149.999999999969
 24
2044.999988336965
 34
0.0
100
AcDbRotatedDimension
  0
DIMENSION
  5
13455
330
1F
100
AcDbEntity
  8
寸法線
100
AcDbDimension
280
     0
  2
*D17
 10
3029.999999999967
 20
2045.000027963183
 30
0.0
 11
3029.999999999967
 21
2245.000008150074
 31
0.0
 70
   160
 71
     5
 42
400.0000000000002
 73
     0
 74
     0
 75
     0
  3
STANDARD
100
AcDbAlignedDimension
 13
3149.999999999967
 23
2445.000027963182
 33
0.0
 14
3149.999999999967
 24
2045.000027963182
 34
0.0
 50
270.0
100
AcDbRotatedDimension
  0
TEXT
  5
13456
330
1F
100
AcDbEntity
  8
寸法線
100
AcDbText
 10
2444.125310406613
 20
2137.429301767152
 30
0.0
 40
25.0
  1
ｴﾝﾄﾞﾌﾟﾚｰﾄ
 11
2444.125310406613
 21
2137.429301767152
 31
0.0
100
AcDbText
 73
     1
  0
LINE
  5
13457
330
1F
100
AcDbEntity
  8
寸法線
100
AcDbLine
 10
2630.999990093414
 20
2131.500007576447
 30
0.0
 11
2436.83525081868
 21
2131.500007576447
 31
0.0
  0
INSERT
  5
13458
330
1F
100
AcDbEntity
  8
寸法線
100
AcDbBlockReference
  2
_OPEN
 10
2630.999990093414
 20
2131.500007576447
 30
0.0
 41
20.0
 42
20.0
 43
20.0
  0
LINE
  5
13459
330
1F
100
AcDbEntity
  8
実線
100
AcDbLine
 10
2649.999999999971
 20
2436.000008150076
 30
0.0
 11
2649.999999999971
 21
2054.000008150076
 31
0.0
  0
LINE
  5
1345A
330
1F
100
AcDbEntity
  8
実線
100
AcDbLine
 10
2630.999999999971
 20
2444.999970930395
 30
0.0
 11
2630.999999999971
 21
2044.999970930395
 31
0.0
  0
LINE
  5
1345B
330
1F
100
AcDbEntity
  8
実線
100
AcDbLine
 10
2630.999999999971
 20
2444.999970930395
 30
0.0
 11
2099.999980186869
 21
2444.999970930395
 31
0.0
  0
LINE
  5
1345C
330
1F
100
AcDbEntity
  8
実線
100
AcDbLine
 10
2630.999999999971
 20
2423.999970930395
 30
0.0
 11
2099.999980186869
 21
2423.999970930395
 31
0.0
  0
LINE
  5
1345D
330
1F
100
AcDbEntity
  8
実線
100
AcDbLine
 10
2219.999999999971
 20
2423.999970930395
 30
0.0
 11
2219.999999999971
 21
2394.000008150076
 31
0.0
  0
LINE
  5
1345E
330
1F
100
AcDbEntity
  8
実線
100
AcDbLine
 10
2139.999980186869
 20
2353.999970930395
 30
0.0
 11
2099.999980186869
 21
2353.999970930395
 31
0.0
  0
LINE
  5
1345F
330
1F
100
AcDbEntity
  8
実線
100
AcDbLine
 10
2219.999999999971
 20
2394.000008150076
 30
0.0
 11
2139.999980186869
 21
2353.999970930395
 31
0.0
  0
LINE
  5
13460
330
1F
100
AcDbEntity
  8
実線
100
AcDbLine
 10
2111.999976224252
 20
2423.999970930395
 30
0.0
 11
2099.999976224252
 21
2411.999970930395
 31
0.0
  0
LINE
  5
13461
330
1F
100
AcDbEntity
  8
仮想線
100
AcDbLine
 10
2108.999980186869
 20
2423.999970930395
 30
0.0
 11
2099.999980186869
 21
2414.999970930395
 31
0.0
  0
LINE
  5
13462
330
1F
100
AcDbEntity
  8
実線
100
AcDbLine
 10
2219.999999999971
 20
2065.999970930395
 30
0.0
 11
2219.999999999971
 21
2095.999933710729
 31
0.0
  0
LINE
  5
13463
330
1F
100
AcDbEntity
  8
実線
100
AcDbLine
 10
2139.999980186869
 20
2135.999970930395
 30
0.0
 11
2099.999980186869
 21
2135.999970930395
 31
0.0
  0
LINE
  5
13464
330
1F
100
AcDbEntity
  8
実線
100
AcDbLine
 10
2219.999999999971
 20
2095.999933710729
 30
0.0
 11
2139.999980186869
 21
2135.999970930395
 31
0.0
  0
LINE
  5
13465
330
1F
100
AcDbEntity
  8
実線
100
AcDbLine
 10
2111.999976224252
 20
2065.999970930395
 30
0.0
 11
2099.999976224252
 21
2077.999970930395
 31
0.0
  0
LINE
  5
13466
330
1F
100
AcDbEntity
  8
仮想線
100
AcDbLine
 10
2108.999980186869
 20
2065.999970930395
 30
0.0
 11
2099.999980186869
 21
2074.999970930395
 31
0.0
  0
LINE
  5
13467
330
1F
100
AcDbEntity
  8
実線
100
AcDbLine
 10
2649.999999999971
 20
2436.000008150076
 30
0.0
 11
2630.999999999971
 21
2436.000008150076
 31
0.0
  0
LINE
  5
13468
330
1F
100
AcDbEntity
  8
実線
100
AcDbLine
 10
2649.999999999971
 20
2054.000033710718
 30
0.0
 11
2630.999999999971
 21
2054.000033710718
 31
0.0
  0
LINE
  5
13469
330
1F
100
AcDbEntity
  8
仮想線
100
AcDbLine
 10
2630.999999999971
 20
2444.999970930395
 30
0.0
 11
2639.999962780305
 21
2436.000008150076
 31
0.0
  0
LINE
  5
1346A
330
1F
100
AcDbEntity
  8
仮想線
100
AcDbLine
 10
2630.999999999971
 20
2044.999970930395
 30
0.0
 11
2640.000062780295
 21
2054.000033710718
 31
0.0
  0
LINE
  5
1346B
330
1F
100
AcDbEntity
  8
実線
100
AcDbLine
 10
2630.999999999971
 20
2250.999970930395
 30
0.0
 11
2430.999980186869
 21
2250.999970930395
 31
0.0
  0
LINE
  5
1346C
330
1F
100
AcDbEntity
  8
実線
100
AcDbLine
 10
2630.999999999971
 20
2238.999970930395
 30
0.0
 11
2430.999980186869
 21
2238.999970930395
 31
0.0
  0
LINE
  5
1346D
330
1F
100
AcDbEntity
  8
実線
100
AcDbLine
 10
2430.999980186869
 20
2250.999970930395
 30
0.0
 11
2430.999980186869
 21
2238.999970930395
 31
0.0
  0
LINE
  5
1346E
330
1F
100
AcDbEntity
  8
仮想線
100
AcDbLine
 10
2099.999998018669
 20
2454.000004428103
 30
0.0
 11
2109.000031516378
 21
2444.999970930395
 31
0.0
  0
LINE
  5
1346F
330
1F
100
AcDbEntity
  8
仮想線
100
AcDbLine
 10
2099.999998018669
 20
2036.000004428103
 30
0.0
 11
2108.999964520961
 21
2044.999970930395
 31
0.0
  0
LINE
  5
13470
330
1F
100
AcDbEntity
  8
実線
100
AcDbLine
 10
2630.999999999971
 20
2044.999970930395
 30
0.0
 11
2099.999916920511
 21
2045.000235168961
 31
0.0
  0
LINE
  5
13471
330
1F
100
AcDbEntity
  8
実線
100
AcDbLine
 10
2630.999999999971
 20
2066.000067196655
 30
0.0
 11
2099.99992356349
 21
2066.000235168961
 31
0.0
  0
LINE
  5
13472
330
1F
100
AcDbEntity
  8
実線
100
AcDbLine
 10
2100.0
 20
2455.000008150062
 30
0.0
 11
2100.0
 21
2035.000008150061
 31
0.0
  0
LINE
  5
13473
330
1F
100
AcDbEntity
  8
中心線
100
AcDbLine
 10
2599.999999999971
 20
2455.000008146845
 30
0.0
 11
2599.999999999971
 21
2414.000008146846
 31
0.0
  0
LINE
  5
13474
330
1F
100
AcDbEntity
  8
中心線
100
AcDbLine
 10
2599.999999999971
 20
2035.000008153321
 30
0.0
 11
2599.999999999971
 21
2076.000008153321
 31
0.0
  0
LINE
  5
13475
330
1F
100
AcDbEntity
  8
中心線
100
AcDbLine
 10
2659.999995502119
 20
2344.999970825039
 30
0.0
 11
2623.999975689014
 21
2344.999970825039
 31
0.0
  0
LINE
  5
13476
330
1F
100
AcDbEntity
  8
中心線
100
AcDbLine
 10
2659.999995502119
 20
2144.999970825039
 30
0.0
 11
2623.999975689014
 21
2144.999970825039
 31
0.0
  0
LINE
  5
13477
330
1F
100
AcDbEntity
  8
中心線
100
AcDbLine
 10
2659.999995502119
 20
2169.999970825039
 30
0.0
 11
2623.999975689014
 21
2169.999970825039
 31
0.0
  0
LINE
  5
13478
330
1F
100
AcDbEntity
  8
中心線
100
AcDbLine
 10
2659.999995502119
 20
2320.000045475113
 30
0.0
 11
2623.999975689014
 21
2320.000045475113
 31
0.0
  0
LINE
  5
13479
330
1F
100
AcDbEntity
  8
中心線
100
AcDbLine
 10
2549.999999999971
 20
2455.000008146845
 30
0.0
 11
2549.999999999971
 21
2414.000008146846
 31
0.0
  0
LINE
  5
1347A
330
1F
100
AcDbEntity
  8
中心線
100
AcDbLine
 10
2549.999999999971
 20
2035.000008153321
 30
0.0
 11
2549.999999999971
 21
2076.000008153321
 31
0.0
  0
LINE
  5
1347B
330
1F
100
AcDbEntity
  8
中心線
100
AcDbLine
 10
2499.999999999971
 20
2455.000008146845
 30
0.0
 11
2499.999999999971
 21
2414.000008146846
 31
0.0
  0
LINE
  5
1347C
330
1F
100
AcDbEntity
  8
中心線
100
AcDbLine
 10
2499.999999999971
 20
2035.000008153321
 30
0.0
 11
2499.999999999971
 21
2076.000008153321
 31
0.0
  0
LINE
  5
1347D
330
1F
100
AcDbEntity
  8
中心線
100
AcDbLine
 10
2449.999999999971
 20
2455.000008146845
 30
0.0
 11
2449.999999999971
 21
2414.000008146846
 31
0.0
  0
LINE
  5
1347E
330
1F
100
AcDbEntity
  8
中心線
100
AcDbLine
 10
2449.999999999971
 20
2035.000008153321
 30
0.0
 11
2449.999999999971
 21
2076.000008153321
 31
0.0
  0
LINE
  5
1347F
330
1F
100
AcDbEntity
  8
中心線
100
AcDbLine
 10
2399.999999999971
 20
2455.000008146845
 30
0.0
 11
2399.999999999971
 21
2414.000008146846
 31
0.0
  0
LINE
  5
13480
330
1F
100
AcDbEntity
  8
中心線
100
AcDbLine
 10
2399.999999999971
 20
2035.000008153321
 30
0.0
 11
2399.999999999971
 21
2076.000008153321
 31
0.0
  0
LINE
  5
13481
330
1F
100
AcDbEntity
  8
中心線
100
AcDbLine
 10
2349.999999999971
 20
2455.000008146845
 30
0.0
 11
2349.999999999971
 21
2414.000008146846
 31
0.0
  0
LINE
  5
13482
330
1F
100
AcDbEntity
  8
中心線
100
AcDbLine
 10
2349.999999999971
 20
2035.000008153321
 30
0.0
 11
2349.999999999971
 21
2076.000008153321
 31
0.0
  0
LINE
  5
13483
330
1F
100
AcDbEntity
  8
中心線
100
AcDbLine
 10
2299.999999999971
 20
2455.000008146845
 30
0.0
 11
2299.999999999971
 21
2414.000008146846
 31
0.0
  0
LINE
  5
13484
330
1F
100
AcDbEntity
  8
中心線
100
AcDbLine
 10
2299.999999999971
 20
2035.000008153321
 30
0.0
 11
2299.999999999971
 21
2076.000008153321
 31
0.0
  0
DIMENSION
  5
13485
330
1F
100
AcDbEntity
  8
寸法線
100
AcDbDimension
280
     0
  2
*D18
 10
2330.99999462186
 20
2239.000004796828
 30
0.0
 11
2330.99999462186
 21
2245.000004796827
 31
0.0
 70
   160
 71
     5
 42
12.0
 73
     0
 74
     0
 75
     0
  3
STANDARD
100
AcDbAlignedDimension
 13
2430.999980186869
 23
2251.000004796827
 33
0.0
 14
2430.999980186869
 24
2239.000004796827
 34
0.0
 50
90.0
100
AcDbRotatedDimension
1001
ACAD
1000
DSTYLE
1002
{
1070
   140
1040
2.5
1002
}
  0
TEXT
  5
13486
330
1F
100
AcDbEntity
  8
寸法線
100
AcDbText
 10
2359.029106229262
 20
2328.750004796827
 30
0.0
 40
25.0
  1
ﾘﾌﾞﾌﾟﾚｰﾄ②
 72
     2
 11
2502.362439562596
 21
2328.750004796827
 31
0.0
100
AcDbText
 73
     1
  0
LEADER
  5
13487
330
1F
100
AcDbEntity
  8
寸法線
100
AcDbLeader
  3
STANDARD
 76
     3
 10
2537.253722114809
 20
2250.999970930388
 30
0.0
 10
2505.166366832157
 20
2320.000004796827
 30
0.0
 10
2353.025278840068
 20
2320.000004796827
 30
0.0
1001
ACAD
1000
DSTYLE
1002
{
1070
   147
1040
0.875
1070
    77
1070
     0
1002
}
  0
TEXT
  5
13488
330
1F
100
AcDbEntity
  8
寸法線
100
AcDbText
 10
2194.018087443054
 20
2144.267190570636
 30
0.0
 40
25.0
  1
ﾘﾌﾞﾌﾟﾚｰﾄ①
 72
     2
 11
2337.351420776387
 21
2144.267190570636
 31
0.0
100
AcDbText
 73
     1
  0
LEADER
  5
13489
330
1F
100
AcDbEntity
  8
寸法線
100
AcDbLeader
  3
STANDARD
 76
     3
 10
2156.294238475448
 20
2090.943880401001
 30
0.0
 10
2191.294238475448
 20
2138.443880401001
 30
0.0
 10
2344.384783010166
 20
2138.443880401001
 30
0.0
211
-1.0
221
0.0
231
0.0
1001
ACAD
1000
DSTYLE
1002
{
1070
   147
1040
0.875
1070
    77
1070
     0
1002
}
  0
DIMENSION
  5
1348A
330
1F
100
AcDbEntity
  8
寸法線
100
AcDbDimension
280
     0
  2
*D19
 10
2100.0
 20
2685.000008150062
 30
0.0
 11
2375.0
 21
2685.000008150062
 31
0.0
 70
   160
  1
<>\XH型鋼（連結部）
 71
     5
 42
550.0
 73
     0
 74
     0
 75
     0
  3
STANDARD
100
AcDbAlignedDimension
 13
2650.0
 23
2436.000045369735
 33
0.0
 14
2100.0
 24
2455.000045369736
 34
0.0
 50
180.0
100
AcDbRotatedDimension
  0
LEADER
  5
1348B
330
1F
100
AcDbEntity
  8
寸法線
100
AcDbLeader
  3
STANDARD
 76
     3
 10
2356.123092980646
 20
1780.897600560322
 30
0.0
 10
2431.471927565886
 20
1915.000026154806
 30
0.0
 10
2699.132104500706
 20
1915.000026154806
 30
0.0
211
-1.0
221
0.0
231
0.0
1001
ACAD
1000
DSTYLE
1002
{
1070
   147
1040
0.875
1070
    77
1070
     0
1002
}
  0
TEXT
  5
1348C
330
1F
100
AcDbEntity
  8
寸法線
100
AcDbText
 10
2440.221927565881
 20
1923.750026154806
 30
0.0
 40
25.0
  1
ｶﾊﾞｰﾌﾟﾚｰﾄ連結用孔
 72
     2
 11
2688.555260899215
 21
1948.750026154806
 31
0.0
100
AcDbText
 73
     3
  0
LINE
  5
1348D
330
1F
100
AcDbEntity
  8
実線
100
AcDbLine
 10
1699.999896414979
 20
589.9997600490028
 30
0.0
 11
1699.999896414979
 21
1009.999741804393
 31
0.0
  0
LINE
  5
1348E
330
1F
100
AcDbEntity
  8
実線
100
AcDbLine
 10
1699.999896414979
 20
1009.999741804393
 30
0.0
 11
1715.999896414979
 21
1009.999741804393
 31
0.0
  0
LINE
  5
1348F
330
1F
100
AcDbEntity
  8
実線
100
AcDbLine
 10
1747.999896414979
 20
656.9997600490028
 30
0.0
 11
1747.999896414979
 21
942.9997600490027
 31
0.0
  0
LINE
  5
13490
330
1F
100
AcDbEntity
  8
中心線
100
AcDbLine
 10
1674.999896414979
 20
799.9997418043954
 30
0.0
 11
2124.999896414975
 21
799.9997418043935
 31
0.0
  0
LINE
  5
13491
330
1F
100
AcDbEntity
  8
中心線
100
AcDbLine
 10
1689.999999999994
 20
969.9997418043935
 30
0.0
 11
2109.999999999994
 21
969.9997418043935
 31
0.0
  0
LINE
  5
13492
330
1F
100
AcDbEntity
  8
破線
100
AcDbLine
 10
1715.999896414979
 20
983.9997418043935
 30
0.0
 11
1747.999896414979
 21
983.9997418043935
 31
0.0
  0
LINE
  5
13493
330
1F
100
AcDbEntity
  8
破線
100
AcDbLine
 10
1747.999896414979
 20
983.9997600490027
 30
0.0
 11
1747.999896414979
 21
999.9997418043935
 31
0.0
  0
LINE
  5
13494
330
1F
100
AcDbEntity
  8
破線
100
AcDbLine
 10
1724.999896414979
 20
939.9997418043936
 30
0.0
 11
1747.999896414979
 21
939.9997418043936
 31
0.0
  0
LINE
  5
13495
330
1F
100
AcDbEntity
  8
実線
100
AcDbLine
 10
1727.999896414979
 20
942.9997418043935
 30
0.0
 11
1747.999896414979
 21
942.9997418043935
 31
0.0
  0
LINE
  5
13496
330
1F
100
AcDbEntity
  8
実線
100
AcDbLine
 10
1715.999896414979
 20
930.9997418043936
 30
0.0
 11
1727.999896414979
 21
942.9997418043935
 31
0.0
  0
LINE
  5
13497
330
1F
100
AcDbEntity
  8
実線
100
AcDbLine
 10
1715.999896414979
 20
939.9997418043936
 30
0.0
 11
1724.999896414979
 21
939.9997418043936
 31
0.0
  0
LINE
  5
13498
330
1F
100
AcDbEntity
  8
破線
100
AcDbLine
 10
2051.999896414979
 20
983.9997600490027
 30
0.0
 11
2051.999896414979
 21
999.9997418043935
 31
0.0
  0
LINE
  5
13499
330
1F
100
AcDbEntity
  8
破線
100
AcDbLine
 10
2083.999896414979
 20
983.9997418043935
 30
0.0
 11
2051.999896414979
 21
983.9997418043935
 31
0.0
  0
LINE
  5
1349A
330
1F
100
AcDbEntity
  8
破線
100
AcDbLine
 10
1715.999896414979
 20
807.9997418043936
 30
0.0
 11
1747.999896414979
 21
807.9997418043936
 31
0.0
  0
LINE
  5
1349B
330
1F
100
AcDbEntity
  8
破線
100
AcDbLine
 10
1715.999896414979
 20
791.9997418043935
 30
0.0
 11
1747.999896414979
 21
791.9997418043935
 31
0.0
  0
LINE
  5
1349C
330
1F
100
AcDbEntity
  8
破線
100
AcDbLine
 10
2051.999896414979
 20
807.9997418043936
 30
0.0
 11
2083.999896414979
 21
807.9997418043936
 31
0.0
  0
LINE
  5
1349D
330
1F
100
AcDbEntity
  8
破線
100
AcDbLine
 10
2051.999896414979
 20
791.9997418043935
 30
0.0
 11
2083.999896414979
 21
791.9997418043935
 31
0.0
  0
DIMENSION
  5
1349E
330
1F
100
AcDbEntity
  8
寸法線
100
AcDbDimension
280
     0
  2
*D20
 10
2083.999896414979
 20
499.9999853546277
 30
0.0
 11
2067.999948207486
 21
499.9999853546277
 31
0.0
 70
   160
 71
     5
 42
31.99989641498542
 73
     0
 74
     0
 75
     0
  3
STANDARD
100
AcDbAlignedDimension
 13
2051.999999999994
 23
599.9997418043935
 33
0.0
 14
2083.999896414979
 24
589.9997418043936
 34
0.0
100
AcDbRotatedDimension
  0
DIMENSION
  5
1349F
330
1F
100
AcDbEntity
  8
寸法線
100
AcDbDimension
280
     0
  2
*D21
 10
2099.999896414979
 20
439.9999853546278
 30
0.0
 11
2091.999896414979
 21
439.9999853546278
 31
0.0
 70
   160
 71
     5
 42
16.0
 73
     0
 74
     0
 75
     0
  3
STANDARD
100
AcDbAlignedDimension
 13
2083.999896414979
 23
589.9997418043936
 33
0.0
 14
2099.999896414979
 24
589.9997418043936
 34
0.0
100
AcDbRotatedDimension
  0
DIMENSION
  5
134A0
330
1F
100
AcDbEntity
  8
寸法線
100
AcDbDimension
280
     0
  2
*D22
 10
2023.999896414979
 20
999.9997418043941
 30
0.0
 11
2023.999896414979
 21
886.239899284687
 31
0.0
 70
   160
  1
%%C<>
 71
     5
 42
60.0
 73
     0
 74
     0
 75
     0
  3
STANDARD
100
AcDbAlignedDimension
 13
2023.999896414979
 23
939.9997418043936
 33
0.0
 14
2023.999896414979
 24
999.9997418043935
 34
0.0
 50
90.0
100
AcDbRotatedDimension
  0
LINE
  5
134A1
330
1F
100
AcDbEntity
  8
仮想線
100
AcDbLine
 10
1771.462948669149
 20
539.9997600490028
 30
0.0
 11
1771.462948669149
 21
1059.999760049002
 31
0.0
  0
TEXT
  5
134A2
330
1F
100
AcDbEntity
  8
寸法線
100
AcDbText
 10
1821.118171036196
 20
1038.799741804393
 30
0.0
 40
21.0
  1
Ａ
 72
     4
 11
1830.918171036196
 21
1049.999741804393
 31
0.0
100
AcDbText
  0
TEXT
  5
134A3
330
1F
100
AcDbEntity
  8
寸法線
100
AcDbText
 10
1821.118171036196
 20
538.7997418043935
 30
0.0
 40
21.0
  1
Ａ
 72
     4
 11
1830.918171036196
 21
549.9997418043935
 31
0.0
100
AcDbText
  0
LINE
  5
134A4
330
1F
100
AcDbEntity
  8
実線
100
AcDbLine
 10
2083.999896414979
 20
1009.999741804393
 30
0.0
 11
2099.999896414979
 21
1009.999741804393
 31
0.0
  0
LINE
  5
134A5
330
1F
100
AcDbEntity
  8
実線
100
AcDbLine
 10
1715.999896414979
 20
589.9997600490028
 30
0.0
 11
1715.999896414979
 21
1009.999741804393
 31
0.0
  0
LINE
  5
134A6
330
1F
100
AcDbEntity
  8
実線
100
AcDbLine
 10
2083.999896414979
 20
589.9997600490028
 30
0.0
 11
2083.999896414979
 21
1009.999741804393
 31
0.0
  0
LINE
  5
134A7
330
1F
100
AcDbEntity
  8
実線
100
AcDbLine
 10
2099.999896414979
 20
589.9997600490028
 30
0.0
 11
2099.999896414979
 21
1009.999741804393
 31
0.0
  0
LINE
  5
134A8
330
1F
100
AcDbEntity
  8
実線
100
AcDbLine
 10
1699.999896414979
 20
589.9997418043936
 30
0.0
 11
1715.999896414979
 21
589.9997418043936
 31
0.0
  0
LINE
  5
134A9
330
1F
100
AcDbEntity
  8
中心線
100
AcDbLine
 10
1689.999999999994
 20
629.9997418043935
 30
0.0
 11
2109.999999999994
 21
629.9997418043935
 31
0.0
  0
LINE
  5
134AA
330
1F
100
AcDbEntity
  8
破線
100
AcDbLine
 10
1715.999896414979
 20
615.9997418043936
 30
0.0
 11
1747.999896414979
 21
615.9997418043936
 31
0.0
  0
LINE
  5
134AB
330
1F
100
AcDbEntity
  8
破線
100
AcDbLine
 10
1747.999896414979
 20
615.9997235597552
 30
0.0
 11
1747.999896414979
 21
599.9997418043935
 31
0.0
  0
LINE
  5
134AC
330
1F
100
AcDbEntity
  8
破線
100
AcDbLine
 10
1724.999896414979
 20
659.9997418043935
 30
0.0
 11
1747.999896414979
 21
659.9997418043935
 31
0.0
  0
LINE
  5
134AD
330
1F
100
AcDbEntity
  8
実線
100
AcDbLine
 10
1727.999896414979
 20
656.9997418043936
 30
0.0
 11
1747.999896414979
 21
656.9997418043936
 31
0.0
  0
LINE
  5
134AE
330
1F
100
AcDbEntity
  8
実線
100
AcDbLine
 10
1715.999896414979
 20
668.9997418043936
 30
0.0
 11
1727.999896414979
 21
656.9997418043936
 31
0.0
  0
LINE
  5
134AF
330
1F
100
AcDbEntity
  8
実線
100
AcDbLine
 10
1715.999896414979
 20
659.9997418043935
 30
0.0
 11
1724.999896414979
 21
659.9997418043935
 31
0.0
  0
LINE
  5
134B0
330
1F
100
AcDbEntity
  8
破線
100
AcDbLine
 10
2051.999896414979
 20
615.9997235597552
 30
0.0
 11
2051.999896414979
 21
599.9997418043935
 31
0.0
  0
LINE
  5
134B1
330
1F
100
AcDbEntity
  8
破線
100
AcDbLine
 10
2083.999896414979
 20
615.9997418043936
 30
0.0
 11
2051.999896414979
 21
615.9997418043936
 31
0.0
  0
LINE
  5
134B2
330
1F
100
AcDbEntity
  8
実線
100
AcDbLine
 10
2083.999896414979
 20
589.9997418043936
 30
0.0
 11
2099.999896414979
 21
589.9997418043936
 31
0.0
  0
LINE
  5
134B3
330
1F
100
AcDbEntity
  8
実線
100
AcDbLine
 10
2051.999999999994
 20
656.9997600490028
 30
0.0
 11
2051.999999999994
 21
942.9997600490027
 31
0.0
  0
LINE
  5
134B4
330
1F
100
AcDbEntity
  8
破線
100
AcDbLine
 10
2074.999999999993
 20
939.9997418043936
 30
0.0
 11
2051.999999999994
 21
939.9997418043936
 31
0.0
  0
LINE
  5
134B5
330
1F
100
AcDbEntity
  8
実線
100
AcDbLine
 10
2071.999999999994
 20
942.9997418043935
 30
0.0
 11
2051.999999999994
 21
942.9997418043935
 31
0.0
  0
LINE
  5
134B6
330
1F
100
AcDbEntity
  8
実線
100
AcDbLine
 10
2083.999999999994
 20
930.9997418043936
 30
0.0
 11
2071.999999999994
 21
942.9997418043935
 31
0.0
  0
LINE
  5
134B7
330
1F
100
AcDbEntity
  8
実線
100
AcDbLine
 10
2083.999999999994
 20
939.9997418043936
 30
0.0
 11
2074.999999999993
 21
939.9997418043936
 31
0.0
  0
LINE
  5
134B8
330
1F
100
AcDbEntity
  8
破線
100
AcDbLine
 10
2074.999999999993
 20
659.9997418043935
 30
0.0
 11
2051.999999999994
 21
659.9997418043935
 31
0.0
  0
LINE
  5
134B9
330
1F
100
AcDbEntity
  8
実線
100
AcDbLine
 10
2071.999999999994
 20
656.9997418043936
 30
0.0
 11
2051.999999999994
 21
656.9997418043936
 31
0.0
  0
LINE
  5
134BA
330
1F
100
AcDbEntity
  8
実線
100
AcDbLine
 10
2083.999999999994
 20
668.9997418043936
 30
0.0
 11
2071.999999999994
 21
656.9997418043936
 31
0.0
  0
LINE
  5
134BB
330
1F
100
AcDbEntity
  8
実線
100
AcDbLine
 10
2083.999999999994
 20
659.9997418043935
 30
0.0
 11
2074.999999999993
 21
659.9997418043935
 31
0.0
  0
LINE
  5
134BC
330
1F
100
AcDbEntity
  8
実線
100
AcDbLine
 10
1747.99989641498
 20
939.9997418043906
 30
0.0
 11
2051.999999999994
 21
939.9997418043936
 31
0.0
  0
LINE
  5
134BD
330
1F
100
AcDbEntity
  8
実線
100
AcDbLine
 10
1715.999896414979
 20
999.9997418043935
 30
0.0
 11
2083.999999999994
 21
999.9997418043935
 31
0.0
  0
LINE
  5
134BE
330
1F
100
AcDbEntity
  8
実線
100
AcDbLine
 10
1747.99989641498
 20
659.9997418043935
 30
0.0
 11
2051.999999999994
 21
659.9997418043935
 31
0.0
  0
LINE
  5
134BF
330
1F
100
AcDbEntity
  8
実線
100
AcDbLine
 10
1715.999896414979
 20
599.9997418043935
 30
0.0
 11
2083.999999999994
 21
599.9997418043935
 31
0.0
  0
LEADER
  5
134C0
330
1F
100
AcDbEntity
  8
寸法線
100
AcDbLeader
  3
STANDARD
 76
     2
 10
1771.462948669149
 20
1049.999741804393
 30
0.0
 10
1818.859683854993
 20
1049.999741804393
 30
0.0
1001
ACAD
1000
DSTYLE
1002
{
1070
   147
1040
0.875
1070
    77
1070
     0
1070
    49
1040
0.5
1002
}
  0
LEADER
  5
134C1
330
1F
100
AcDbEntity
  8
寸法線
100
AcDbLeader
  3
STANDARD
 76
     2
 10
1771.462948669149
 20
549.9997418043935
 30
0.0
 10
1818.859683854993
 20
549.9997418043935
 30
0.0
1001
ACAD
1000
DSTYLE
1002
{
1070
   147
1040
0.875
1070
    77
1070
     0
1070
    49
1040
0.5
1002
}
  0
DIMENSION
  5
134C2
330
1F
100
AcDbEntity
  8
寸法線
100
AcDbDimension
280
     0
  2
*D23
 10
1747.999896414979
 20
499.9999853546277
 30
0.0
 11
1731.999896414979
 21
499.9999853546277
 31
0.0
 70
   160
 71
     5
 42
32.0
 73
     0
 74
     0
 75
     0
  3
STANDARD
100
AcDbAlignedDimension
 13
1715.999896414979
 23
589.999755487865
 33
0.0
 14
1747.999896414979
 24
599.9997554878651
 34
0.0
100
AcDbRotatedDimension
  0
DIMENSION
  5
134C3
330
1F
100
AcDbEntity
  8
寸法線
100
AcDbDimension
280
     0
  2
*D24
 10
2051.999896414979
 20
499.9999853546277
 30
0.0
 11
1899.999896414979
 21
521.2499853546278
 31
0.0
 70
    32
 71
     5
 42
304.0
 73
     0
 74
     0
 75
     0
  3
STANDARD
100
AcDbAlignedDimension
 13
1747.999896414979
 23
599.9997554878651
 33
0.0
 14
2051.999896414979
 24
599.9997418043935
 34
0.0
100
AcDbRotatedDimension
  0
DIMENSION
  5
134C4
330
1F
100
AcDbEntity
  8
寸法線
100
AcDbDimension
280
     0
  2
*D25
 10
1715.999896414979
 20
439.9999853546278
 30
0.0
 11
1707.999896414979
 21
439.9999853546278
 31
0.0
 70
   160
 71
     5
 42
16.0
 73
     0
 74
     0
 75
     0
  3
STANDARD
100
AcDbAlignedDimension
 13
1699.999896414979
 23
589.999755487865
 33
0.0
 14
1715.999896414979
 24
589.999755487865
 34
0.0
100
AcDbRotatedDimension
  0
DIMENSION
  5
134C5
330
1F
100
AcDbEntity
  8
寸法線
100
AcDbDimension
280
     0
  2
*D26
 10
2083.999896414979
 20
439.9999853546278
 30
0.0
 11
1899.999896414979
 21
461.2499853546278
 31
0.0
 70
    32
 71
     5
 42
368.0
 73
     0
 74
     0
 75
     0
  3
STANDARD
100
AcDbAlignedDimension
 13
1715.999896414979
 23
589.999755487865
 33
0.0
 14
2083.999896414979
 24
589.9997600490028
 34
0.0
100
AcDbRotatedDimension
  0
DIMENSION
  5
134C6
330
1F
100
AcDbEntity
  8
寸法線
100
AcDbDimension
280
     0
  2
*D27
 10
2099.999896414979
 20
379.9999853546278
 30
0.0
 11
1899.999896414979
 21
401.2499853546278
 31
0.0
 70
    32
 71
     5
 42
400.0
 73
     0
 74
     0
 75
     0
  3
STANDARD
100
AcDbAlignedDimension
 13
1699.999896414979
 23
589.9997737324743
 33
0.0
 14
2099.999896414979
 24
589.9997600490028
 34
0.0
100
AcDbRotatedDimension
  0
LINE
  5
134C7
330
1F
100
AcDbEntity
  8
破線
100
AcDbLine
 10
1116.499896414979
 20
807.999741804379
 30
0.0
 11
1483.499896414979
 21
807.999741804379
 31
0.0
  0
LINE
  5
134C8
330
1F
100
AcDbEntity
  8
中心線
100
AcDbLine
 10
1064.999920199386
 20
799.999741804379
 30
0.0
 11
1534.999920199386
 21
799.999741804379
 31
0.0
  0
LINE
  5
134C9
330
1F
100
AcDbEntity
  8
実線
100
AcDbLine
 10
1089.999896414979
 20
1009.999760049017
 30
0.0
 11
1509.999896414979
 21
1009.999760049017
 31
0.0
  0
LINE
  5
134CA
330
1F
100
AcDbEntity
  8
実線
100
AcDbLine
 10
1089.999896414979
 20
589.9997600490173
 30
0.0
 11
1089.999896414979
 21
1009.999760049017
 31
0.0
  0
LINE
  5
134CB
330
1F
100
AcDbEntity
  8
破線
100
AcDbLine
 10
1116.499896414979
 20
791.999741804379
 30
0.0
 11
1116.499896414979
 21
807.999741804379
 31
0.0
  0
CIRCLE
  5
134CC
330
1F
100
AcDbEntity
  8
破線
100
AcDbCircle
 10
1129.999789022339
 20
969.9997418043791
 30
0.0
 40
30.0
  0
LINE
  5
134CD
330
1F
100
AcDbEntity
  8
破線
100
AcDbLine
 10
1099.999789022339
 20
942.9997600490173
 30
0.0
 11
1115.999789022339
 21
942.9997600490173
 31
0.0
  0
LINE
  5
134CE
330
1F
100
AcDbEntity
  8
破線
100
AcDbLine
 10
1291.999896414979
 20
983.4997418043791
 30
0.0
 11
1291.999896414979
 21
807.9997600490173
 31
0.0
  0
LINE
  5
134CF
330
1F
100
AcDbEntity
  8
破線
100
AcDbLine
 10
1307.999896414979
 20
983.4997418043791
 30
0.0
 11
1307.999896414979
 21
807.9997600490173
 31
0.0
  0
LINE
  5
134D0
330
1F
100
AcDbEntity
  8
破線
100
AcDbLine
 10
1483.499896414979
 20
807.999741804379
 30
0.0
 11
1483.499896414979
 21
791.999741804379
 31
0.0
  0
LINE
  5
134D1
330
1F
100
AcDbEntity
  8
破線
100
AcDbLine
 10
1291.999896414979
 20
983.4997418043791
 30
0.0
 11
1307.999896414979
 21
983.4997418043791
 31
0.0
  0
DIMENSION
  5
134D2
330
1F
100
AcDbEntity
  8
寸法線
100
AcDbDimension
280
     0
  2
*D28
 10
1509.999896414979
 20
499.9999853546277
 30
0.0
 11
1299.999896414979
 21
499.9999853546277
 31
0.0
 70
   160
 71
     5
 42
420.0
 73
     0
 74
     0
 75
     0
  3
STANDARD
100
AcDbAlignedDimension
 13
1089.999896414979
 23
589.9997235597407
 33
0.0
 14
1509.999896414979
 24
589.9997600490173
 34
0.0
100
AcDbRotatedDimension
  0
LINE
  5
134D3
330
1F
100
AcDbEntity
  8
実線
100
AcDbLine
 10
1509.999896414979
 20
589.9997600490173
 30
0.0
 11
1509.999896414979
 21
1009.999760049017
 31
0.0
  0
CIRCLE
  5
134D4
330
1F
100
AcDbEntity
  8
破線
100
AcDbCircle
 10
1469.999789022339
 20
969.9997418043791
 30
0.0
 40
30.0
  0
LINE
  5
134D5
330
1F
100
AcDbEntity
  8
中心線
100
AcDbLine
 10
1414.999920199386
 20
969.9997418043791
 30
0.0
 11
1524.999920199386
 21
969.9997418043791
 31
0.0
  0
LINE
  5
134D6
330
1F
100
AcDbEntity
  8
破線
100
AcDbLine
 10
1099.999789022339
 20
656.9997600490173
 30
0.0
 11
1099.999789022339
 21
942.9997600490173
 31
0.0
  0
LINE
  5
134D7
330
1F
100
AcDbEntity
  8
破線
100
AcDbLine
 10
1156.999896414979
 20
615.999741804379
 30
0.0
 11
1442.999896414979
 21
615.999741804379
 31
0.0
  0
LINE
  5
134D8
330
1F
100
AcDbEntity
  8
破線
100
AcDbLine
 10
1116.499896414979
 20
791.999741804379
 30
0.0
 11
1483.499896414979
 21
791.999741804379
 31
0.0
  0
LINE
  5
134D9
330
1F
100
AcDbEntity
  8
実線
100
AcDbLine
 10
1089.999896414979
 20
589.9997235597407
 30
0.0
 11
1509.999896414979
 21
589.9997235597407
 31
0.0
  0
CIRCLE
  5
134DA
330
1F
100
AcDbEntity
  8
破線
100
AcDbCircle
 10
1129.999789022339
 20
629.999741804379
 30
0.0
 40
30.0
  0
LINE
  5
134DB
330
1F
100
AcDbEntity
  8
破線
100
AcDbLine
 10
1099.999789022339
 20
656.9997600490173
 30
0.0
 11
1115.999789022339
 21
656.9997600490173
 31
0.0
  0
LINE
  5
134DC
330
1F
100
AcDbEntity
  8
破線
100
AcDbLine
 10
1156.999896414979
 20
599.999741804379
 30
0.0
 11
1156.999896414979
 21
615.999741804379
 31
0.0
  0
LINE
  5
134DD
330
1F
100
AcDbEntity
  8
破線
100
AcDbLine
 10
1291.999896414979
 20
616.499741804379
 30
0.0
 11
1291.999896414979
 21
791.9997235597406
 31
0.0
  0
LINE
  5
134DE
330
1F
100
AcDbEntity
  8
破線
100
AcDbLine
 10
1307.999896414979
 20
616.499741804379
 30
0.0
 11
1307.999896414979
 21
791.9997235597406
 31
0.0
  0
LINE
  5
134DF
330
1F
100
AcDbEntity
  8
破線
100
AcDbLine
 10
1291.999896414979
 20
616.499741804379
 30
0.0
 11
1307.999896414979
 21
616.499741804379
 31
0.0
  0
LINE
  5
134E0
330
1F
100
AcDbEntity
  8
破線
100
AcDbLine
 10
1442.999896414979
 20
599.999741804379
 30
0.0
 11
1442.999896414979
 21
615.999741804379
 31
0.0
  0
CIRCLE
  5
134E1
330
1F
100
AcDbEntity
  8
破線
100
AcDbCircle
 10
1469.999789022339
 20
629.999741804379
 30
0.0
 40
30.0
  0
LINE
  5
134E2
330
1F
100
AcDbEntity
  8
破線
100
AcDbLine
 10
1156.999896414979
 20
599.999741804379
 30
0.0
 11
1442.999896414979
 21
599.999741804379
 31
0.0
  0
LINE
  5
134E3
330
1F
100
AcDbEntity
  8
破線
100
AcDbLine
 10
1156.999896414979
 20
999.999741804379
 30
0.0
 11
1442.999896414979
 21
999.999741804379
 31
0.0
  0
LINE
  5
134E4
330
1F
100
AcDbEntity
  8
破線
100
AcDbLine
 10
1156.999896414979
 20
983.999741804379
 30
0.0
 11
1156.999896414979
 21
999.999741804379
 31
0.0
  0
LINE
  5
134E5
330
1F
100
AcDbEntity
  8
破線
100
AcDbLine
 10
1442.999896414979
 20
983.999741804379
 30
0.0
 11
1442.999896414979
 21
999.999741804379
 31
0.0
  0
LINE
  5
134E6
330
1F
100
AcDbEntity
  8
破線
100
AcDbLine
 10
1156.999896414979
 20
983.999741804379
 30
0.0
 11
1442.999896414979
 21
983.999741804379
 31
0.0
  0
LINE
  5
134E7
330
1F
100
AcDbEntity
  8
破線
100
AcDbLine
 10
1115.999789022339
 20
656.9997600490173
 30
0.0
 11
1115.999789022339
 21
942.9997600490173
 31
0.0
  0
LINE
  5
134E8
330
1F
100
AcDbEntity
  8
破線
100
AcDbLine
 10
1483.999789022339
 20
942.9997600490173
 30
0.0
 11
1499.999789022339
 21
942.9997600490173
 31
0.0
  0
LINE
  5
134E9
330
1F
100
AcDbEntity
  8
破線
100
AcDbLine
 10
1483.999789022339
 20
656.9997600490173
 30
0.0
 11
1483.999789022339
 21
942.9997600490173
 31
0.0
  0
LINE
  5
134EA
330
1F
100
AcDbEntity
  8
破線
100
AcDbLine
 10
1483.999789022339
 20
656.9997600490173
 30
0.0
 11
1499.999789022339
 21
656.9997600490173
 31
0.0
  0
LINE
  5
134EB
330
1F
100
AcDbEntity
  8
破線
100
AcDbLine
 10
1499.999789022339
 20
656.9997600490173
 30
0.0
 11
1499.999789022339
 21
942.9997600490173
 31
0.0
  0
LINE
  5
134EC
330
1F
100
AcDbEntity
  8
中心線
100
AcDbLine
 10
1299.999920199386
 20
564.999741804379
 30
0.0
 11
1299.999920199386
 21
1034.999741804379
 31
0.0
  0
LINE
  5
134ED
330
1F
100
AcDbEntity
  8
中心線
100
AcDbLine
 10
1469.999920199386
 20
914.999741804379
 30
0.0
 11
1469.999920199386
 21
1024.999741804379
 31
0.0
  0
LINE
  5
134EE
330
1F
100
AcDbEntity
  8
中心線
100
AcDbLine
 10
1414.999920199386
 20
629.999741804379
 30
0.0
 11
1524.999920199386
 21
629.999741804379
 31
0.0
  0
LINE
  5
134EF
330
1F
100
AcDbEntity
  8
中心線
100
AcDbLine
 10
1469.999920199386
 20
574.999741804379
 30
0.0
 11
1469.999920199386
 21
684.999741804379
 31
0.0
  0
LINE
  5
134F0
330
1F
100
AcDbEntity
  8
中心線
100
AcDbLine
 10
1074.999920199386
 20
969.9997418043791
 30
0.0
 11
1184.999920199386
 21
969.9997418043791
 31
0.0
  0
LINE
  5
134F1
330
1F
100
AcDbEntity
  8
中心線
100
AcDbLine
 10
1129.999920199386
 20
914.999741804379
 30
0.0
 11
1129.999920199386
 21
1024.999741804379
 31
0.0
  0
LINE
  5
134F2
330
1F
100
AcDbEntity
  8
中心線
100
AcDbLine
 10
1074.999920199386
 20
629.999741804379
 30
0.0
 11
1184.999920199386
 21
629.999741804379
 31
0.0
  0
LINE
  5
134F3
330
1F
100
AcDbEntity
  8
中心線
100
AcDbLine
 10
1129.999920199386
 20
574.999741804379
 30
0.0
 11
1129.999920199386
 21
684.999741804379
 31
0.0
  0
DIMENSION
  5
134F4
330
1F
100
AcDbEntity
  8
寸法線
100
AcDbDimension
280
     0
  2
*D29
 10
999.999943983793
 20
1009.999760049018
 30
0.0
 11
999.999943983793
 21
799.9997600490173
 31
0.0
 70
   160
 71
     5
 42
420.0000000000001
 73
     0
 74
     0
 75
     0
  3
STANDARD
100
AcDbAlignedDimension
 13
1089.999943983793
 23
589.9997600490173
 33
0.0
 14
1089.999943983793
 24
1009.999760049017
 34
0.0
 50
90.0
100
AcDbRotatedDimension
  0
DIMENSION
  5
134F5
330
1F
100
AcDbEntity
  8
寸法線
100
AcDbDimension
280
     0
  2
*D30
 10
2670.000120199396
 20
499.9999853546277
 30
0.0
 11
2500.000121120823
 21
499.9999853546277
 31
0.0
 70
   160
 71
     5
 42
340.0
 73
     0
 74
     0
 75
     0
  3
STANDARD
100
AcDbAlignedDimension
 13
2330.000120199395
 23
575.0002562718223
 33
0.0
 14
2670.000120199396
 24
575.0002562718223
 34
0.0
100
AcDbRotatedDimension
  0
LINE
  5
134F6
330
1F
100
AcDbEntity
  8
実線
100
AcDbLine
 10
2289.999896414979
 20
1010.000021843902
 30
0.0
 11
2709.999896414979
 21
1010.000021843902
 31
0.0
  0
LINE
  5
134F7
330
1F
100
AcDbEntity
  8
中心線
100
AcDbLine
 10
2264.999920199386
 20
800.0002562718222
 30
0.0
 11
2734.999920199386
 21
800.0002562718222
 31
0.0
  0
LINE
  5
134F8
330
1F
100
AcDbEntity
  8
実線
100
AcDbLine
 10
2316.499896414979
 20
808.0000218439021
 30
0.0
 11
2683.499896414979
 21
808.0000218439021
 31
0.0
  0
LINE
  5
134F9
330
1F
100
AcDbEntity
  8
実線
100
AcDbLine
 10
2289.999896414979
 20
590.0000218439022
 30
0.0
 11
2289.999896414979
 21
1010.000021843902
 31
0.0
  0
DIMENSION
  5
134FA
330
1F
100
AcDbEntity
  8
寸法線
100
AcDbDimension
280
     0
  2
*D31
 10
2330.000120199395
 20
499.9999853546277
 30
0.0
 11
2310.000008307187
 21
499.9999853546277
 31
0.0
 70
   160
 71
     5
 42
40.00022378441644
 73
     0
 74
     0
 75
     0
  3
STANDARD
100
AcDbAlignedDimension
 13
2289.999896414979
 23
590.0004906997715
 33
0.0
 14
2330.000120199395
 24
575.0002562718223
 34
0.0
100
AcDbRotatedDimension
  0
LINE
  5
134FB
330
1F
100
AcDbEntity
  8
実線
100
AcDbLine
 10
2316.499896414979
 20
792.0000218439022
 30
0.0
 11
2316.499896414979
 21
808.0000218439021
 31
0.0
  0
LINE
  5
134FC
330
1F
100
AcDbEntity
  8
実線
100
AcDbLine
 10
2300.000121120823
 20
943.0000218439023
 30
0.0
 11
2316.000121120823
 21
943.0000218439023
 31
0.0
  0
LINE
  5
134FD
330
1F
100
AcDbEntity
  8
実線
100
AcDbLine
 10
2356.999896414979
 20
1000.000256271822
 30
0.0
 11
2356.999896414979
 21
984.0002562718224
 31
0.0
  0
LINE
  5
134FE
330
1F
100
AcDbEntity
  8
実線
100
AcDbLine
 10
2507.999896414979
 20
983.5002562718223
 30
0.0
 11
2507.999896414979
 21
808.0002562718222
 31
0.0
  0
LINE
  5
134FF
330
1F
100
AcDbEntity
  8
実線
100
AcDbLine
 10
2491.999896414979
 20
983.5002562718223
 30
0.0
 11
2491.999896414979
 21
808.0002562718222
 31
0.0
  0
DIMENSION
  5
13500
330
1F
100
AcDbEntity
  8
寸法線
100
AcDbDimension
280
     0
  2
*D32
 10
2799.999896414981
 20
1010.000021843902
 30
0.0
 11
2799.99989641498
 21
990.0001390578617
 31
0.0
 70
   160
 71
     5
 42
39.99976557207992
 73
     0
 74
     0
 75
     0
  3
STANDARD
100
AcDbAlignedDimension
 13
2725.000120199396
 23
970.0002562718223
 33
0.0
 14
2709.999896414979
 24
1010.000021843902
 34
0.0
 50
90.0
100
AcDbRotatedDimension
  0
LINE
  5
13501
330
1F
100
AcDbEntity
  8
実線
100
AcDbLine
 10
2709.999896414979
 20
590.0000218439022
 30
0.0
 11
2709.999896414979
 21
1010.000021843902
 31
0.0
  0
DIMENSION
  5
13502
330
1F
100
AcDbEntity
  8
寸法線
100
AcDbDimension
280
     0
  2
*D33
 10
2799.99989641498
 20
970.0002562718227
 30
0.0
 11
2799.999896414979
 21
800.0002562718222
 31
0.0
 70
   160
 71
     5
 42
340.0000000000001
 73
     0
 74
     0
 75
     0
  3
STANDARD
100
AcDbAlignedDimension
 13
2725.000120199396
 23
630.0002562718223
 33
0.0
 14
2725.000120199396
 24
970.0002562718223
 34
0.0
 50
90.0
100
AcDbRotatedDimension
  0
DIMENSION
  5
13503
330
1F
100
AcDbEntity
  8
寸法線
100
AcDbDimension
280
     0
  2
*D34
 10
2799.99989641498
 20
630.0002562718225
 30
0.0
 11
2799.999896414979
 21
610.0003734857962
 31
0.0
 70
   160
 71
     5
 42
39.99976557205082
 73
     0
 74
     0
 75
     0
  3
STANDARD
100
AcDbAlignedDimension
 13
2709.999896414979
 23
590.0004906997715
 33
0.0
 14
2725.000120199396
 24
630.0002562718223
 34
0.0
 50
90.0
100
AcDbRotatedDimension
  0
DIMENSION
  5
13504
330
1F
100
AcDbEntity
  8
寸法線
100
AcDbDimension
280
     0
  2
*D35
 10
2709.999896414979
 20
499.9999853546277
 30
0.0
 11
2690.000008307187
 21
499.9999853546277
 31
0.0
 70
   160
 71
     5
 42
39.99977621558355
 73
     0
 74
     0
 75
     0
  3
STANDARD
100
AcDbAlignedDimension
 13
2670.000120199396
 23
575.0002562718223
 33
0.0
 14
2709.999896414979
 24
590.0004906997715
 34
0.0
100
AcDbRotatedDimension
  0
LINE
  5
13505
330
1F
100
AcDbEntity
  8
実線
100
AcDbLine
 10
2683.499896414979
 20
808.0000218439021
 30
0.0
 11
2683.499896414979
 21
792.0000218439022
 31
0.0
  0
LINE
  5
13506
330
1F
100
AcDbEntity
  8
実線
100
AcDbLine
 10
2491.999896414979
 20
983.5002562718223
 30
0.0
 11
2507.999896414979
 21
983.5002562718223
 31
0.0
  0
LINE
  5
13507
330
1F
100
AcDbEntity
  8
実線
100
AcDbLine
 10
2642.999896414979
 20
1000.000256271822
 30
0.0
 11
2642.999896414979
 21
984.0002562718224
 31
0.0
  0
CIRCLE
  5
13508
330
1F
100
AcDbEntity
  8
実線
100
AcDbCircle
 10
2330.000121120823
 20
970.0002562718223
 30
0.0
 40
30.0
  0
LINE
  5
13509
330
1F
100
AcDbEntity
  8
実線
100
AcDbLine
 10
2316.000121120823
 20
657.0000218439022
 30
0.0
 11
2316.000121120823
 21
943.0000218439023
 31
0.0
  0
LINE
  5
1350A
330
1F
100
AcDbEntity
  8
中心線
100
AcDbLine
 10
2615.000120199395
 20
970.0002562718223
 30
0.0
 11
2725.000120199396
 21
970.0002562718223
 31
0.0
  0
CIRCLE
  5
1350B
330
1F
100
AcDbEntity
  8
実線
100
AcDbCircle
 10
2670.000121120823
 20
970.0002562718223
 30
0.0
 40
30.0
  0
LINE
  5
1350C
330
1F
100
AcDbEntity
  8
実線
100
AcDbLine
 10
2356.999896414979
 20
1000.000256271822
 30
0.0
 11
2642.999896414979
 21
1000.000256271822
 31
0.0
  0
LINE
  5
1350D
330
1F
100
AcDbEntity
  8
実線
100
AcDbLine
 10
2289.999896414979
 20
590.0004906997715
 30
0.0
 11
2709.999896414979
 21
590.0004906997715
 31
0.0
  0
LINE
  5
1350E
330
1F
100
AcDbEntity
  8
実線
100
AcDbLine
 10
2300.000121120823
 20
657.0000218439022
 30
0.0
 11
2316.000121120823
 21
657.0000218439022
 31
0.0
  0
LINE
  5
1350F
330
1F
100
AcDbEntity
  8
実線
100
AcDbLine
 10
2507.999896414979
 20
616.5002562718223
 30
0.0
 11
2507.999896414979
 21
792.0002562718223
 31
0.0
  0
LINE
  5
13510
330
1F
100
AcDbEntity
  8
実線
100
AcDbLine
 10
2491.999896414979
 20
616.5002562718223
 30
0.0
 11
2491.999896414979
 21
792.0002562718223
 31
0.0
  0
LINE
  5
13511
330
1F
100
AcDbEntity
  8
実線
100
AcDbLine
 10
2491.999896414979
 20
616.5002562718223
 30
0.0
 11
2507.999896414979
 21
616.5002562718223
 31
0.0
  0
CIRCLE
  5
13512
330
1F
100
AcDbEntity
  8
実線
100
AcDbCircle
 10
2330.000121120823
 20
630.0002562718223
 30
0.0
 40
30.0
  0
CIRCLE
  5
13513
330
1F
100
AcDbEntity
  8
実線
100
AcDbCircle
 10
2670.000121120823
 20
630.0002562718223
 30
0.0
 40
30.0
  0
LINE
  5
13514
330
1F
100
AcDbEntity
  8
実線
100
AcDbLine
 10
2316.499896414979
 20
792.0000218439022
 30
0.0
 11
2683.499896414979
 21
792.0000218439022
 31
0.0
  0
LINE
  5
13515
330
1F
100
AcDbEntity
  8
実線
100
AcDbLine
 10
2356.999896414979
 20
984.0002562718224
 30
0.0
 11
2642.999896414979
 21
984.0002562718224
 31
0.0
  0
LINE
  5
13516
330
1F
100
AcDbEntity
  8
実線
100
AcDbLine
 10
2356.999896414979
 20
616.0002562718223
 30
0.0
 11
2356.999896414979
 21
600.0002562718223
 31
0.0
  0
LINE
  5
13517
330
1F
100
AcDbEntity
  8
実線
100
AcDbLine
 10
2642.999896414979
 20
616.0002562718223
 30
0.0
 11
2642.999896414979
 21
600.0002562718223
 31
0.0
  0
LINE
  5
13518
330
1F
100
AcDbEntity
  8
実線
100
AcDbLine
 10
2356.999896414979
 20
616.0002562718223
 30
0.0
 11
2642.999896414979
 21
616.0002562718223
 31
0.0
  0
LINE
  5
13519
330
1F
100
AcDbEntity
  8
実線
100
AcDbLine
 10
2356.999896414979
 20
600.0002562718223
 30
0.0
 11
2642.999896414979
 21
600.0002562718223
 31
0.0
  0
LINE
  5
1351A
330
1F
100
AcDbEntity
  8
実線
100
AcDbLine
 10
2300.000121120823
 20
657.0000218439022
 30
0.0
 11
2300.000121120823
 21
943.0000218439023
 31
0.0
  0
LINE
  5
1351B
330
1F
100
AcDbEntity
  8
実線
100
AcDbLine
 10
2684.000121120823
 20
943.0000218439023
 30
0.0
 11
2700.000121120823
 21
943.0000218439023
 31
0.0
  0
LINE
  5
1351C
330
1F
100
AcDbEntity
  8
実線
100
AcDbLine
 10
2700.000121120823
 20
657.0000218439022
 30
0.0
 11
2700.000121120823
 21
943.0000218439023
 31
0.0
  0
LINE
  5
1351D
330
1F
100
AcDbEntity
  8
実線
100
AcDbLine
 10
2684.000121120823
 20
657.0000218439022
 30
0.0
 11
2700.000121120823
 21
657.0000218439022
 31
0.0
  0
LINE
  5
1351E
330
1F
100
AcDbEntity
  8
実線
100
AcDbLine
 10
2684.000121120823
 20
657.0000218439022
 30
0.0
 11
2684.000121120823
 21
943.0000218439023
 31
0.0
  0
LINE
  5
1351F
330
1F
100
AcDbEntity
  8
中心線
100
AcDbLine
 10
2670.000120199396
 20
915.0002562718222
 30
0.0
 11
2670.000120199396
 21
1025.000256271822
 31
0.0
  0
LINE
  5
13520
330
1F
100
AcDbEntity
  8
中心線
100
AcDbLine
 10
2615.000120199395
 20
630.0002562718223
 30
0.0
 11
2725.000120199396
 21
630.0002562718223
 31
0.0
  0
LINE
  5
13521
330
1F
100
AcDbEntity
  8
中心線
100
AcDbLine
 10
2670.000120199396
 20
575.0002562718223
 30
0.0
 11
2670.000120199396
 21
685.0002562718223
 31
0.0
  0
LINE
  5
13522
330
1F
100
AcDbEntity
  8
中心線
100
AcDbLine
 10
2275.000120199396
 20
970.0002562718223
 30
0.0
 11
2385.000120199396
 21
970.0002562718223
 31
0.0
  0
LINE
  5
13523
330
1F
100
AcDbEntity
  8
中心線
100
AcDbLine
 10
2330.000120199395
 20
915.0002562718222
 30
0.0
 11
2330.000120199395
 21
1025.000256271822
 31
0.0
  0
LINE
  5
13524
330
1F
100
AcDbEntity
  8
中心線
100
AcDbLine
 10
2275.000120199396
 20
630.0002562718223
 30
0.0
 11
2385.000120199396
 21
630.0002562718223
 31
0.0
  0
LINE
  5
13525
330
1F
100
AcDbEntity
  8
中心線
100
AcDbLine
 10
2330.000120199395
 20
575.0002562718223
 30
0.0
 11
2330.000120199395
 21
685.0002562718223
 31
0.0
  0
LINE
  5
13526
330
1F
100
AcDbEntity
  8
中心線
100
AcDbLine
 10
2499.999920199386
 20
564.9999562718371
 30
0.0
 11
2499.999920199386
 21
1034.999956271837
 31
0.0
  0
DIMENSION
  5
13527
330
1F
100
AcDbEntity
  8
寸法線
100
AcDbDimension
280
     0
  2
*D15
 10
2770.000226983163
 20
2054.000045369736
 30
0.0
 11
2770.000226983163
 21
2245.000008150062
 31
0.0
 70
   160
 71
     5
 42
382.0000000000009
 73
     0
 74
     0
 75
     0
  3
STANDARD
100
AcDbAlignedDimension
 13
2650.000226983163
 23
2436.000045369736
 33
0.0
 14
2650.000226983163
 24
2054.000045369735
 34
0.0
 50
90.0
100
AcDbRotatedDimension
  0
TEXT
  5
13528
330
1F
100
AcDbEntity
  8
寸法線
100
AcDbText
 10
2961.457537936397
 20
606.7561391440013
 30
0.0
 40
25.0
  1
※　H型鋼（連結部）の長さは、切梁メーカー仕様または施工条件により
 11
2961.457537936397
 21
606.7561391440013
 31
0.0
100
AcDbText
 73
     1
  0
TEXT
  5
13529
330
1F
100
AcDbEntity
  8
寸法線
100
AcDbText
 10
2961.457537936397
 20
656.7561391440013
 30
0.0
 40
25.0
  1
※　H型鋼（連結部）の穴開け位置は、切梁メーカー仕様による。
 11
2961.457537936397
 21
656.7561391440013
 31
0.0
100
AcDbText
 73
     1
  0
TEXT
  5
1352A
330
1F
100
AcDbEntity
  8
寸法線
100
AcDbText
 10
2961.457537936397
 20
556.7561391440013
 30
0.0
 40
25.0
  1
　　変更する場合がある。
 11
2961.457537936397
 21
556.7561391440013
 31
0.0
100
AcDbText
 73
     1
  0
TEXT
  5
1352B
330
1F
100
AcDbEntity
  8
寸法線
100
AcDbText
 10
2961.457537936397
 20
506.7561391440013
 30
0.0
 40
25.0
  1
※　空洞金具部は鉄筋防錆剤塗装仕上げ。
 11
2961.457537936397
 21
506.7561391440013
 31
0.0
100
AcDbText
 73
     1
  0
TEXT
  5
1352C
330
1F
100
AcDbEntity
  8
寸法線
100
AcDbText
 10
2961.457537936397
 20
456.7561391440013
 30
0.0
 40
25.0
  1
※　H型鋼（連結部）は赤さび塗装仕上げ。
 11
2961.457537936397
 21
456.7561391440013
 31
0.0
100
AcDbText
 73
     1
  0
TEXT
  5
1352D
330
1F
100
AcDbEntity
  8
寸法線
100
AcDbText
 10
2431.135284138064
 20
436.7285757640375
 30
0.0
 40
24.0
  1
断面Ａ－Ａ
100
AcDbText
  0
LINE
  5
1352E
330
1F
100
AcDbEntity
  8
寸法線
100
AcDbLine
 10
2419.733016898532
 20
429.9997509266927
 30
0.0
 11
2580.266976533663
 21
429.9997509266927
 31
0.0
  0
VIEWPORT
  5
794
330
78D
100
AcDbEntity
 67
     1
  8
0
100
AcDbViewport
 10
204.0958823552988
 20
142.5884522186585
 30
0.0
 40
568.6952815114783
 41
287.6588214341175
 68
     1
 69
     1
 12
204.0958823552988
 22
142.5884522186585
 13
0.0
 23
0.0
 14
10.0
 24
10.0
 15
10.0
 25
10.0
 16
0.0
 26
0.0
 36
1.0
 17
0.0
 27
0.0
 37
0.0
 42
50.0
 43
0.0
 44
0.0
 45
287.6588214341175
 50
0.0
 51
0.0
 72
  1000
 90
    32800
  1

281
     0
 71
     1
 74
     0
110
0.0
120
0.0
130
0.0
111
1.0
121
0.0
131
0.0
112
0.0
122
1.0
132
0.0
 79
     0
146
0.0
170
     0
 61
     5
348
11741
292
     1
282
     1
141
0.0
142
0.0
 63
   250
421
  3355443
  0
VIEWPORT
  5
796
330
78D
100
AcDbEntity
 67
     1
  8
Defpoints
100
AcDbViewport
 10
204.099579334259
 20
142.5892481803894
 30
0.0
 40
408.1991586685178
 41
285.1784963607788
 68
     2
 69
     2
 12
2100.207206595808
 22
1486.804522350007
 13
0.0
 23
0.0
 14
10.0
 24
10.0
 15
10.0
 25
10.0
 16
0.0
 26
0.0
 36
1.0
 17
0.0
 27
0.0
 37
0.0
 42
50.0
 43
0.0
 44
0.0
 45
2851.784980677949
 50
0.0
 51
0.0
 72
  1000
 90
    32864
  1

281
     0
 71
     1
 74
     0
110
0.0
120
0.0
130
0.0
111
1.0
121
0.0
131
0.0
112
0.0
122
1.0
132
0.0
 79
     0
146
0.0
170
     0
 61
     5
348
11741
292
     1
282
     1
141
0.0
142
0.0
 63
   250
421
  3355443
  0
LINE
  5
9A2
330
78D
100
AcDbEntity
 67
     1
  8
図面枠
100
AcDbLine
 10
14.0996
 20
6.589249999999998
 30
0.0
 11
14.0996
 21
278.58925
 31
0.0
  0
LINE
  5
9A3
330
78D
100
AcDbEntity
 67
     1
  8
図面枠
100
AcDbLine
 10
404.0995999999998
 20
6.589249999999998
 30
0.0
 11
404.0995999999998
 21
278.58925
 31
0.0
  0
LINE
  5
9A4
330
78D
100
AcDbEntity
 67
     1
  8
図面枠
100
AcDbLine
 10
14.0996
 20
278.58925
 30
0.0
 11
404.0995999999998
 21
278.58925
 31
0.0
  0
LINE
  5
9A5
330
78D
100
AcDbEntity
 67
     1
  8
図面枠
100
AcDbLine
 10
14.0996
 20
6.589249999999998
 30
0.0
 11
404.0995999999998
 21
6.589249999999991
 31
0.0
  0
LINE
  5
122F6
330
78D
100
AcDbEntity
 67
     1
  8
図面枠
100
AcDbLine
 10
289.0996
 20
36.58925000000001
 30
0.0
 11
404.0995999999998
 21
36.58925000000001
 31
0.0
  0
LINE
  5
122F7
330
78D
100
AcDbEntity
 67
     1
  8
図面枠
100
AcDbLine
 10
289.0996
 20
30.58925
 30
0.0
 11
404.0995999999998
 21
30.58925
 31
0.0
  0
LINE
  5
122F8
330
78D
100
AcDbEntity
 67
     1
  8
図面枠
100
AcDbLine
 10
289.0996
 20
36.58930000000002
 30
0.0
 11
289.0996
 21
6.589250000000002
 31
0.0
  0
LINE
  5
122F9
330
78D
100
AcDbEntity
 67
     1
  8
図面枠
100
AcDbLine
 10
289.0996
 20
18.58925
 30
0.0
 11
404.0995999999998
 21
18.58925
 31
0.0
  0
LINE
  5
122FA
330
78D
100
AcDbEntity
 67
     1
  8
図面枠
100
AcDbLine
 10
352.0996
 20
36.58930000000002
 30
0.0
 11
352.0996
 21
30.58925
 31
0.0
  0
LINE
  5
122FB
330
78D
100
AcDbEntity
 67
     1
  8
図面枠
100
AcDbLine
 10
383.0996
 20
36.58930000000002
 30
0.0
 11
383.0996
 21
30.58925
 31
0.0
  0
LINE
  5
122FC
330
78D
100
AcDbEntity
 67
     1
  8
図面枠
100
AcDbLine
 10
352.0996
 20
30.58925
 30
0.0
 11
352.0996
 21
6.589250000000002
 31
0.0
  0
LINE
  5
122FD
330
78D
100
AcDbEntity
 67
     1
  8
図面枠
100
AcDbLine
 10
312.0996
 20
36.58925000000001
 30
0.0
 11
312.0996
 21
30.58925
 31
0.0
  0
LINE
  5
122FE
330
78D
100
AcDbEntity
 67
     1
  8
図面枠
100
AcDbLine
 10
304.0996
 20
24.58925
 30
0.0
 11
349.0996
 21
24.58925
 31
0.0
  0
TEXT
  5
122FF
330
78D
100
AcDbEntity
 67
     1
  8
図面枠
100
AcDbText
 10
289.9746
 20
32.33925000000001
 30
0.0
 40
2.5
  1
重量
 11
289.9746
 21
32.33925000000001
 31
0.0
100
AcDbText
 73
     1
  0
TEXT
  5
12300
330
78D
100
AcDbEntity
 67
     1
  8
図面枠
100
AcDbText
 10
289.97465
 20
27.21425
 30
0.0
 40
2.5
  1
名　称
 11
289.97465
 21
29.71425
 31
0.0
100
AcDbText
 73
     3
  0
TEXT
  5
12301
330
78D
100
AcDbEntity
 67
     1
  8
図面枠
100
AcDbText
 10
317.6548518950888
 20
32.33930000000001
 30
0.0
 40
2.5
  1
表面仕上げ
 41
0.8
 11
317.6548518950888
 21
32.33930000000001
 31
0.0
100
AcDbText
 73
     1
  0
TEXT
  5
12302
330
78D
100
AcDbEntity
 67
     1
  8
図面枠
100
AcDbText
 10
352.9746
 20
32.33925000000001
 30
0.0
 40
2.5
  1
日付
 11
352.9746
 21
32.33925000000001
 31
0.0
100
AcDbText
 73
     1
  0
TEXT
  5
12303
330
78D
100
AcDbEntity
 67
     1
  8
図面枠
100
AcDbText
 10
383.9746
 20
32.33925000000001
 30
0.0
 40
2.5
  1
尺度
 11
383.9746
 21
32.33925000000001
 31
0.0
100
AcDbText
 73
     1
  0
TEXT
  5
12304
330
78D
100
AcDbEntity
 67
     1
  8
図面枠
100
AcDbText
 10
313.5162666666667
 20
26.33925
 30
0.0
 40
2.5
  1
スルーサーＢ構造図
 72
     1
 11
326.5996
 21
26.33925
 31
0.0
100
AcDbText
 73
     1
  0
TEXT
  5
12305
330
78D
100
AcDbEntity
 67
     1
  8
図面枠
100
AcDbText
 10
317.6611157480315
 20
20.33925
 30
0.0
 40
2.5
  1
切り梁H-400
 72
     1
 11
326.5996
 21
22.83925
 31
0.0
100
AcDbText
 73
     3
  0
TEXT
  5
12306
330
78D
100
AcDbEntity
 67
     1
  8
図面枠
100
AcDbText
 10
368.0162666666667
 20
8.339250000000005
 30
0.0
 40
2.5
  1
Ｈ４０－Ｗ４０
 72
     1
 11
378.0996
 21
8.339250000000005
 31
0.0
100
AcDbText
 73
     1
  0
TEXT
  5
12307
330
78D
100
AcDbEntity
 67
     1
  8
図面枠
100
AcDbText
 10
300.3079
 20
32.33925000000001
 30
0.0
 40
2.5
  1
339kg
 11
300.3079
 21
32.33925000000001
 31
0.0
100
AcDbText
 73
     1
  0
TEXT
  5
12308
330
78D
100
AcDbEntity
 67
     1
  8
図面枠
100
AcDbText
 10
332.9881518950888
 20
32.33930000000001
 30
0.0
 40
2.5
  1
鉄筋防錆剤
 41
0.8
 11
332.9881518950888
 21
32.33930000000001
 31
0.0
100
AcDbText
 73
     1
  0
TEXT
  5
1230A
330
78D
100
AcDbEntity
 67
     1
  8
図面枠
100
AcDbText
 10
394.3079
 20
32.33925000000001
 30
0.0
 40
2.5
  1
1/10
 11
394.3079
 21
32.33925000000001
 31
0.0
100
AcDbText
 73
     1
  0
TEXT
  5
1230B
330
78D
100
AcDbEntity
 67
     1
  8
図面枠
100
AcDbText
 10
300.0162781896648
 20
10.58922126233959
 30
0.0
 40
4.0
  1
三研テクノクリエイト
 11
300.0162781896648
 21
12.58922126233959
 31
0.0
100
AcDbText
 73
     2
  0
TEXT
  5
1230C
330
78D
100
AcDbEntity
 67
     1
  8
図面枠
100
AcDbText
 10
294.2496115229981
 20
12.83922126233959
 30
0.0
 40
2.0
  1
株式
 72
     2
 11
298.5162781896648
 21
12.83922126233959
 31
0.0
100
AcDbText
 73
     1
  0
TEXT
  5
1230D
330
78D
100
AcDbEntity
 67
     1
  8
図面枠
100
AcDbText
 10
294.2496115229981
 20
10.33922126233959
 30
0.0
 40
2.0
  1
会社
 72
     2
 11
298.5162781896648
 21
12.33922126233959
 31
0.0
100
AcDbText
 73
     3
  0
TEXT
  5
1230E
330
78D
100
AcDbEntity
 67
     1
  8
図面枠
100
AcDbText
 10
352.97465
 20
27.21425000000001
 30
0.0
 40
2.5
  1
摘　要
 11
352.97465
 21
29.71425000000001
 31
0.0
100
AcDbText
 73
     3
  0
TEXT
  5
1230F
330
78D
100
AcDbEntity
 67
     1
  8
図面枠
100
AcDbText
 10
352.9746
 20
15.21425
 30
0.0
 40
2.5
  1
型　式
 11
352.9746
 21
17.71425
 31
0.0
100
AcDbText
 73
     3
  0
TEXT
  5
12310
330
78D
100
AcDbEntity
 67
     1
  8
図面枠
100
AcDbText
 10
364.7662666666667
 20
20.86240908820164
 30
0.0
 40
2.5
  1
Ｈ４０－Ｗシリーズ
 72
     1
 11
378.0996
 21
20.86240908820164
 31
0.0
100
AcDbText
 73
     1
  0
LINE
  5
12311
330
78D
100
AcDbEntity
 67
     1
  8
図面枠
100
AcDbLine
 10
227.3699773983349
 20
19.8671985172127
 30
0.0
 11
282.3699773983349
 21
19.8671985172127
 31
0.0
  0
LINE
  5
12312
330
78D
100
AcDbEntity
 67
     1
  8
図面枠
100
AcDbLine
 10
227.3699773983349
 20
19.8671985172127
 30
0.0
 11
227.3699773983349
 21
10.86719851721269
 31
0.0
  0
LINE
  5
12314
330
78D
100
AcDbEntity
 67
     1
  8
図面枠
100
AcDbLine
 10
282.3699773983349
 20
19.8671985172127
 30
0.0
 11
282.3699773983349
 21
10.86719851721269
 31
0.0
  0
LINE
  5
12315
330
78D
100
AcDbEntity
 67
     1
  8
図面枠
100
AcDbLine
 10
227.3699773983349
 20
10.86719851721269
 30
0.0
 11
282.3699773983349
 21
10.86719851721269
 31
0.0
  0
TEXT
  5
12E3D
330
78D
100
AcDbEntity
 67
     1
  8
図面枠
100
AcDbText
 10
228.6019716746131
 20
13.16588865156562
 30
0.0
 40
4.0
  1
スクラップ重量　324kg
 72
     1
 11
254.7744590480284
 21
13.16588865156562
 31
0.0
100
AcDbText
  0
TEXT
  5
13CC7
330
78D
100
AcDbEntity
 67
     1
  8
図面枠
100
AcDbText
 10
363.3079
 20
32.33920000000001
 30
0.0
 40
2.5
  1
2024.01.01
 11
363.3079
 21
32.33920000000001
 31
0.0
100
AcDbText
 73
     1
  0
ENDSEC
  0
SECTION
  2
OBJECTS
  0
DICTIONARY
  5
C
330
0
100
AcDbDictionary
281
     1
  3
ACAD_CIP_PREVIOUS_PRODUCT_INFO
350
12F03
  3
ACAD_COLOR
350
6B
  3
ACAD_DETAILVIEWSTYLE
350
12EFD
  3
ACAD_GROUP
350
D
  3
ACAD_LAYOUT
350
1A
  3
ACAD_MATERIAL
350
6A
  3
ACAD_MLEADERSTYLE
350
1175E
  3
ACAD_MLINESTYLE
350
17
  3
ACAD_PLOTSETTINGS
350
19
  3
ACAD_PLOTSTYLENAME
350
E
  3
ACAD_SCALELIST
350
1174C
  3
ACAD_SECTIONVIEWSTYLE
350
12EFB
  3
ACAD_TABLESTYLE
350
7E
  3
ACAD_VISUALSTYLE
350
1173B
  3
AcadDim
350
89BC
  3
ACDB_RECOMPOSE_DATA
350
13CF1
  3
ACDBHEADERROUNDTRIPXREC
350
1235A
  3
AcDbVariableDictionary
350
5E
  3
AcDsDecomposeData
350
13CF7
  3
AEC_PROPERTY_SET_DEFS
350
11B06
  0
DICTIONARY
  5
11871
330
8
100
AcDbDictionary
280
     1
281
     1
  0
DICTIONARY
  5
11D
330
2
100
AcDbDictionary
280
     1
281
     1
  3
ACAD_LAYERFILTERS
360
98AE
  3
ACAD_LAYERSTATES
360
11E
  3
ACLYDICTIONARY
360
98AD
  0
DICTIONARY
  5
11820
330
10
100
AcDbDictionary
280
     1
281
     1
  3
ADSK_XREC_LAYER_RECONCILED
360
11821
  0
DICTIONARY
  5
11824
330
1BF
100
AcDbDictionary
280
     1
281
     1
  3
ADSK_XREC_LAYER_RECONCILED
360
11825
  0
DICTIONARY
  5
11828
330
1C1
100
AcDbDictionary
280
     1
281
     1
  3
ADSK_XREC_LAYER_RECONCILED
360
11829
  0
DICTIONARY
  5
1182C
330
1C3
100
AcDbDictionary
280
     1
281
     1
  3
ADSK_XREC_LAYER_RECONCILED
360
1182D
  0
DICTIONARY
  5
1182E
330
1C4
100
AcDbDictionary
280
     1
281
     1
  3
ADSK_XREC_LAYER_RECONCILED
360
1182F
  0
DICTIONARY
  5
11830
330
1C5
100
AcDbDictionary
280
     1
281
     1
  3
ADSK_XREC_LAYER_RECONCILED
360
11831
  0
DICTIONARY
  5
11832
330
82E
100
AcDbDictionary
280
     1
281
     1
  3
ADSK_XREC_LAYER_RECONCILED
360
11833
  0
DICTIONARY
  5
13CBF
330
13CBE
100
AcDbDictionary
280
     1
281
     1
  0
DICTIONARY
  5
5C91
330
1F
100
AcDbDictionary
280
     1
281
     1
  3
ACAD_SORTENTS
360
5C92
  0
DICTIONARY
  5
122F0
330
C08
100
AcDbDictionary
280
     1
281
     1
  3
ACAD_SORTENTS
360
1234C
  0
XRECORD
  5
12F03
102
{ACAD_REACTORS
330
C
102
}
330
C
100
AcDbXrecord
280
     1
300
ACD
300
2023
300

  0
DICTIONARY
  5
6B
102
{ACAD_REACTORS
330
C
102
}
330
C
100
AcDbDictionary
281
     1
  0
DICTIONARY
  5
12EFD
102
{ACAD_REACTORS
330
C
102
}
330
C
100
AcDbDictionary
281
     1
  3
Metric50
350
12EFE
  0
DICTIONARY
  5
D
102
{ACAD_REACTORS
330
C
102
}
330
C
100
AcDbDictionary
281
     1
  0
DICTIONARY
  5
1A
102
{ACAD_REACTORS
330
C
102
}
330
C
100
AcDbDictionary
281
     1
  3
Model
350
22
  3
レイアウト1
350
78E
  0
DICTIONARY
  5
6A
102
{ACAD_REACTORS
330
C
102
}
330
C
100
AcDbDictionary
281
     1
  3
ByBlock
350
1172B
  3
ByLayer
350
11723
  3
Global
350
11733
  0
DICTIONARY
  5
1175E
102
{ACAD_REACTORS
330
C
102
}
330
C
100
AcDbDictionary
281
     1
  3
Standard
350
1175F
  0
DICTIONARY
  5
17
102
{ACAD_REACTORS
330
C
102
}
330
C
100
AcDbDictionary
281
     1
  3
Standard
350
18
  0
DICTIONARY
  5
19
102
{ACAD_REACTORS
330
C
102
}
330
C
100
AcDbDictionary
281
     1
  0
ACDBDICTIONARYWDFLT
  5
E
102
{ACAD_REACTORS
330
C
102
}
330
C
100
AcDbDictionary
281
     1
  3
Normal
350
F
100
AcDbDictionaryWithDefault
340
F
  0
DICTIONARY
  5
1174C
102
{ACAD_REACTORS
330
C
102
}
330
C
100
AcDbDictionary
281
     1
  3
A0
350
1174D
  3
A1
350
1174E
  3
A2
350
1174F
  3
A3
350
11750
  3
A4
350
11751
  3
A5
350
11752
  3
A6
350
11753
  3
A7
350
11754
  3
A8
350
11755
  3
A9
350
11756
  3
B0
350
11757
  3
B1
350
11758
  3
B2
350
11759
  3
B3
350
1175A
  3
B4
350
1175B
  3
B5
350
1175C
  3
B6
350
1175D
  0
DICTIONARY
  5
12EFB
102
{ACAD_REACTORS
330
C
102
}
330
C
100
AcDbDictionary
281
     1
  3
Metric50
350
12EFC
  0
DICTIONARY
  5
7E
102
{ACAD_REACTORS
330
C
102
}
330
C
100
AcDbDictionary
281
     1
  3
Standard
350
7F
  0
DICTIONARY
  5
1173B
102
{ACAD_REACTORS
330
C
102
}
330
C
100
AcDbDictionary
281
     1
  3
2dWireframe
350
11741
  3
3D Hidden
350
11743
  3
3dWireframe
350
11742
  3
Basic
350
11740
  3
Brighten
350
11747
  3
ColorChange
350
1174B
  3
Conceptual
350
11744
  3
Dim
350
11746
  3
EdgeColorOff
350
12EFA
  3
Facepattern
350
1174A
  3
Flat
350
1173C
  3
FlatWithEdges
350
1173D
  3
Gouraud
350
1173E
  3
GouraudWithEdges
350
1173F
  3
Hidden
350
12EF2
  3
JitterOff
350
12EF8
  3
Linepattern
350
11749
  3
OverhangOff
350
12EF9
  3
Realistic
350
11745
  3
Shaded
350
12EF7
  3
Shaded with edges
350
12EF6
  3
Shades of Gray
350
12EF3
  3
Sketchy
350
12EF4
  3
Thicken
350
11748
  3
Wireframe
350
12EF1
  3
X-Ray
350
12EF5
  0
XRECORD
  5
89BC
102
{ACAD_REACTORS
330
C
102
}
330
C
100
AcDbXrecord
280
     1
 90
   990106
  3

 60
     0
 61
     0
 62
     1
 63
     3
 64
     0
 65
     0
 66
     0
 67
     3
 68
     1
 69
     0
 70
     0
 71
     0
 72
     0
 40
0.0
170
     0
  0
XRECORD
  5
13CF1
102
{ACAD_REACTORS
330
C
102
}
330
C
100
AcDbXrecord
280
     1
 90
        1
330
7F
  0
DICTIONARY
  5
1235A
102
{ACAD_REACTORS
330
C
102
}
330
C
100
AcDbDictionary
281
     1
  0
DICTIONARY
  5
5E
102
{ACAD_REACTORS
330
C
102
}
330
C
100
AcDbDictionary
281
     1
  3
CANNOSCALE
350
1187F
  3
CMLEADERSTYLE
350
1187E
  3
CTABLESTYLE
350
84
  3
CVIEWDETAILSTYLE
350
13CAF
  3
CVIEWSECTIONSTYLE
350
13CB0
  3
DIMASSOC
350
5F
  3
HIDETEXT
350
63
  3
INDEXCTL
350
11881
  3
LAYEREVAL
350
13CB3
  3
LAYERNOTIFY
350
13CB4
  3
LIGHTINGUNITS
350
13CB2
  3
MSLTSCALE
350
13CB1
  3
PROJECTNAME
350
12339
  3
SORTENTS
350
11880
  0
DICTIONARY
  5
13CF7
102
{ACAD_REACTORS
330
C
102
}
330
C
100
AcDbDictionary
281
     1
  3
AcDsRecords
350
13CF9
  3
AcDsSchemas
350
13CF8
1001
ACAD
1070
     2
  0
DICTIONARY
  5
11B06
102
{ACAD_REACTORS
330
C
102
}
330
C
100
AcDbDictionary
281
     1
  0
DICTIONARY
  5
98AE
102
{ACAD_REACTORS
330
11D
102
}
330
11D
100
AcDbDictionary
281
     1
  0
DICTIONARY
  5
11E
102
{ACAD_REACTORS
330
11D
102
}
330
11D
100
AcDbDictionary
281
     1
  0
DICTIONARY
  5
98AD
102
{ACAD_REACTORS
330
11D
102
}
330
11D
100
AcDbDictionary
281
     1
1001
ACAD
1000
<All
  0
XRECORD
  5
11821
102
{ACAD_REACTORS
330
11820
102
}
330
11820
100
AcDbXrecord
280
     1
290
     1
  0
XRECORD
  5
11825
102
{ACAD_REACTORS
330
11824
102
}
330
11824
100
AcDbXrecord
280
     1
290
     1
  0
XRECORD
  5
11829
102
{ACAD_REACTORS
330
11828
102
}
330
11828
100
AcDbXrecord
280
     1
290
     1
  0
XRECORD
  5
1182D
102
{ACAD_REACTORS
330
1182C
102
}
330
1182C
100
AcDbXrecord
280
     1
290
     1
  0
XRECORD
  5
1182F
102
{ACAD_REACTORS
330
1182E
102
}
330
1182E
100
AcDbXrecord
280
     1
290
     1
  0
XRECORD
  5
11831
102
{ACAD_REACTORS
330
11830
102
}
330
11830
100
AcDbXrecord
280
     1
290
     1
  0
XRECORD
  5
11833
102
{ACAD_REACTORS
330
11832
102
}
330
11832
100
AcDbXrecord
280
     1
290
     1
  0
SORTENTSTABLE
  5
5C92
102
{ACAD_REACTORS
330
5C91
102
}
330
5C91
100
AcDbSortentsTable
330
1F
  0
SORTENTSTABLE
  5
1234C
102
{ACAD_REACTORS
330
122F0
102
}
330
122F0
100
AcDbSortentsTable
330
C08
  0
ACDBDETAILVIEWSTYLE
  5
12EFE
102
{ACAD_XDICTIONARY
360
13CFC
102
}
102
{ACAD_REACTORS
330
12EFD
102
}
330
12EFD
100
AcDbModelDocViewStyle
 70
     0
  3
Metric50
290
     0
100
AcDbDetailViewStyle
 70
     0
 71
     0
 90
        3
 71
     1
340
11
 62
   256
 40
5.0
340
0
 62
   256
 40
5.0
300

 40
0.0
280
     1
 71
     2
340
16
 90
       25
 62
   256
 71
     3
340
11
 62
   256
 40
5.0
 90
        0
 40
15.0
 90
        1
300
%<\AcVar ViewDetailId>% (%<\AcVar ViewScale \f "%sn">%)
 71
     4
340
16
 90
       25
 62
   256
340
16
 90
       25
 62
   256
280
     0
  0
LAYOUT
  5
22
102
{ACAD_REACTORS
330
1A
102
}
330
1A
100
AcDbPlotSettings
  1

  2
none_device
  4
ISO_A4_(210.00_x_297.00_MM)
  6

 40
7.5
 41
20.0
 42
7.5
 43
20.0
 44
210.0
 45
297.0
 46
11.54999923706054
 47
-13.65000009536743
 48
0.0
 49
0.0
140
0.0
141
0.0
142
1.0
143
8.704084754739808
 70
 11952
 72
     1
 73
     0
 74
     0
  7

 75
     0
147
0.1148885871608098
 76
     0
 77
     2
 78
   300
148
0.0
149
0.0
100
AcDbLayout
  1
Model
 70
     1
 71
     0
 10
0.0
 20
0.0
 11
12.0
 21
9.0
 12
0.0
 22
0.0
 32
0.0
 14
0.0
 24
0.0
 34
0.0
 15
0.0
 25
0.0
 35
0.0
146
0.0
 13
0.0
 23
0.0
 33
0.0
 16
1.0
 26
0.0
 36
0.0
 17
0.0
 27
1.0
 37
0.0
 76
     0
330
1F
331
12358
1001
ACAD_PSEXT
1000
None
1000
None
1000
Not applicable
1000
The layout will not be plotted unless a new plotter configuration name is selected.
1070
     0
  0
LAYOUT
  5
78E
102
{ACAD_XDICTIONARY
360
79B
102
}
102
{ACAD_REACTORS
330
1A
102
}
330
1A
100
AcDbPlotSettings
  1

  2
DocuWorks PDF Creator
  4
A3
  6

 40
3.174999952316283
 41
3.174999952316283
 42
3.17498779296875
 43
3.17498779296875
 44
297.0106506347656
 45
419.9889831542968
 46
0.0
 47
0.0
 48
0.0
 49
0.0
140
0.0
141
0.0
142
1.0
143
1.0
 70
   688
 72
     1
 73
     1
 74
     5
  7
monochrome.ctb
 75
    16
147
1.0
 76
     0
 77
     2
 78
   300
148
0.0
149
0.0
100
AcDbLayout
  1
レイアウト1
 70
     1
 71
     1
 10
-3.17498779296875
 20
-3.174999952316283
 11
416.8139953613281
 21
293.8356506824494
 12
0.0
 22
0.0
 32
0.0
 14
-0.0155848232826657
 24
-0.0116472956902953
 34
-0.0000000349181948
 15
408.2073495338802
 25
285.1885517330075
 35
0.0000000814935746
146
0.0
 13
0.0
 23
0.0
 33
0.0
 16
1.0
 26
0.0
 36
0.0
 17
0.0
 27
1.0
 37
0.0
 76
     0
330
78D
331
794
1001
ACAD_PSEXT
1000
DocuWorks PDF Creator
1000
DocuWorks PDF Creator
1000
DocuWorks PDF Creator Port
1000
DocuWorks PDF Creator
1070
     0
  0
MATERIAL
  5
1172B
102
{ACAD_XDICTIONARY
360
1172C
102
}
102
{ACAD_REACTORS
330
6A
102
}
330
6A
100
AcDbMaterial
  1
ByBlock
 72
     0
 43
0.0008202099737533
 43
0.0
 43
0.0
 43
0.0
 43
0.0
 43
0.0008202099737533
 43
0.0
 43
0.0
 43
0.0
 43
0.0
 43
1.0
 43
0.0
 43
0.0
 43
0.0
 43
0.0
 43
1.0
 77
     0
 47
0.0008202099737533
 47
0.0
 47
0.0
 47
0.0
 47
0.0
 47
0.0008202099737533
 47
0.0
 47
0.0
 47
0.0
 47
0.0
 47
1.0
 47
0.0
 47
0.0
 47
0.0
 47
0.0
 47
1.0
171
     0
 49
0.0008202099737533
 49
0.0
 49
0.0
 49
0.0
 49
0.0
 49
0.0008202099737533
 49
0.0
 49
0.0
 49
0.0
 49
0.0
 49
1.0
 49
0.0
 49
0.0
 49
0.0
 49
0.0
 49
1.0
175
     0
142
0.0008202099737533
142
0.0
142
0.0
142
0.0
142
0.0
142
0.0008202099737533
142
0.0
142
0.0
142
0.0
142
0.0
142
1.0
142
0.0
142
0.0
142
0.0
142
0.0
142
1.0
179
     0
144
0.0008202099737533
144
0.0
144
0.0
144
0.0
144
0.0
144
0.0008202099737533
144
0.0
144
0.0
144
0.0
144
0.0
144
1.0
144
0.0
144
0.0
144
0.0
144
0.0
144
1.0
147
0.0008202099737533
147
0.0
147
0.0
147
0.0
147
0.0
147
0.0008202099737533
147
0.0
147
0.0
147
0.0
147
0.0
147
1.0
147
0.0
147
0.0
147
0.0
147
0.0
147
1.0
  0
MATERIAL
  5
11723
102
{ACAD_XDICTIONARY
360
11724
102
}
102
{ACAD_REACTORS
330
6A
102
}
330
6A
100
AcDbMaterial
  1
ByLayer
 72
     0
 43
0.0008202099737533
 43
0.0
 43
0.0
 43
0.0
 43
0.0
 43
0.0008202099737533
 43
0.0
 43
0.0
 43
0.0
 43
0.0
 43
1.0
 43
0.0
 43
0.0
 43
0.0
 43
0.0
 43
1.0
 77
     0
 47
0.0008202099737533
 47
0.0
 47
0.0
 47
0.0
 47
0.0
 47
0.0008202099737533
 47
0.0
 47
0.0
 47
0.0
 47
0.0
 47
1.0
 47
0.0
 47
0.0
 47
0.0
 47
0.0
 47
1.0
171
     0
 49
0.0008202099737533
 49
0.0
 49
0.0
 49
0.0
 49
0.0
 49
0.0008202099737533
 49
0.0
 49
0.0
 49
0.0
 49
0.0
 49
1.0
 49
0.0
 49
0.0
 49
0.0
 49
0.0
 49
1.0
175
     0
142
0.0008202099737533
142
0.0
142
0.0
142
0.0
142
0.0
142
0.0008202099737533
142
0.0
142
0.0
142
0.0
142
0.0
142
1.0
142
0.0
142
0.0
142
0.0
142
0.0
142
1.0
179
     0
144
0.0008202099737533
144
0.0
144
0.0
144
0.0
144
0.0
144
0.0008202099737533
144
0.0
144
0.0
144
0.0
144
0.0
144
1.0
144
0.0
144
0.0
144
0.0
144
0.0
144
1.0
147
0.0008202099737533
147
0.0
147
0.0
147
0.0
147
0.0
147
0.0008202099737533
147
0.0
147
0.0
147
0.0
147
0.0
147
1.0
147
0.0
147
0.0
147
0.0
147
0.0
147
1.0
  0
MATERIAL
  5
11733
102
{ACAD_XDICTIONARY
360
11734
102
}
102
{ACAD_REACTORS
330
6A
102
}
330
6A
100
AcDbMaterial
  1
Global
 72
     0
 43
0.0008202099737533
 43
0.0
 43
0.0
 43
0.0
 43
0.0
 43
0.0008202099737533
 43
0.0
 43
0.0
 43
0.0
 43
0.0
 43
1.0
 43
0.0
 43
0.0
 43
0.0
 43
0.0
 43
1.0
 77
     0
 47
0.0008202099737533
 47
0.0
 47
0.0
 47
0.0
 47
0.0
 47
0.0008202099737533
 47
0.0
 47
0.0
 47
0.0
 47
0.0
 47
1.0
 47
0.0
 47
0.0
 47
0.0
 47
0.0
 47
1.0
171
     0
 49
0.0008202099737533
 49
0.0
 49
0.0
 49
0.0
 49
0.0
 49
0.0008202099737533
 49
0.0
 49
0.0
 49
0.0
 49
0.0
 49
1.0
 49
0.0
 49
0.0
 49
0.0
 49
0.0
 49
1.0
175
     0
142
0.0008202099737533
142
0.0
142
0.0
142
0.0
142
0.0
142
0.0008202099737533
142
0.0
142
0.0
142
0.0
142
0.0
142
1.0
142
0.0
142
0.0
142
0.0
142
0.0
142
1.0
179
     0
144
0.0008202099737533
144
0.0
144
0.0
144
0.0
144
0.0
144
0.0008202099737533
144
0.0
144
0.0
144
0.0
144
0.0
144
1.0
144
0.0
144
0.0
144
0.0
144
0.0
144
1.0
147
0.0008202099737533
147
0.0
147
0.0
147
0.0
147
0.0
147
0.0008202099737533
147
0.0
147
0.0
147
0.0
147
0.0
147
1.0
147
0.0
147
0.0
147
0.0
147
0.0
147
1.0
  0
MLEADERSTYLE
  5
1175F
102
{ACAD_REACTORS
330
1175E
102
}
330
1175E
100
AcDbMLeaderStyle
179
     2
170
     2
171
     1
172
     0
 90
        2
 40
0.0
 41
0.0
173
     1
 91
-1056964608
340
14
 92
       -2
290
     1
 42
2.0
291
     1
 43
0.36
  3
Standard
 44
4.0
300

342
11
174
     1
178
     6
175
     1
176
     0
 93
-1056964608
 45
4.0
292
     0
297
     0
 46
4.0
 94
-1056964608
 47
1.0
 49
1.0
140
1.0
293
     1
141
0.0
294
     1
177
     0
142
1.0
295
     0
296
     0
143
0.125
271
     0
272
     9
273
     9
298
     0
1001
ACAD
1000
AcRTDxfName
1000
MLEADERSTYLE
1000
AcRTDxfName
1000
MLEADERSTYLE
  0
MLINESTYLE
  5
18
102
{ACAD_REACTORS
330
17
102
}
330
17
100
AcDbMlineStyle
  2
STANDARD
 70
     0
  3

 62
   256
 51
90.0
 52
90.0
 71
     2
 49
0.5
 62
   256
  6
BYLAYER
 49
-0.5
 62
   256
  6
BYLAYER
  0
ACDBPLACEHOLDER
  5
F
102
{ACAD_REACTORS
330
E
102
}
330
E
  0
SCALE
  5
1174D
102
{ACAD_REACTORS
330
1174C
102
}
330
1174C
100
AcDbScale
 70
     0
300
1:1
140
1.0
141
1.0
290
     1
1001
ACAD
1000
AcRTDxfName
1000
SCALE
1000
AcRTDxfName
1000
SCALE
  0
SCALE
  5
1174E
102
{ACAD_REACTORS
330
1174C
102
}
330
1174C
100
AcDbScale
 70
     0
300
1:2
140
1.0
141
2.0
290
     0
1001
ACAD
1000
AcRTDxfName
1000
SCALE
1000
AcRTDxfName
1000
SCALE
  0
SCALE
  5
1174F
102
{ACAD_REACTORS
330
1174C
102
}
330
1174C
100
AcDbScale
 70
     0
300
1:4
140
1.0
141
4.0
290
     0
1001
ACAD
1000
AcRTDxfName
1000
SCALE
1000
AcRTDxfName
1000
SCALE
  0
SCALE
  5
11750
102
{ACAD_REACTORS
330
1174C
102
}
330
1174C
100
AcDbScale
 70
     0
300
1:5
140
1.0
141
5.0
290
     0
1001
ACAD
1000
AcRTDxfName
1000
SCALE
1000
AcRTDxfName
1000
SCALE
  0
SCALE
  5
11751
102
{ACAD_REACTORS
330
1174C
102
}
330
1174C
100
AcDbScale
 70
     0
300
1:8
140
1.0
141
8.0
290
     0
1001
ACAD
1000
AcRTDxfName
1000
SCALE
1000
AcRTDxfName
1000
SCALE
  0
SCALE
  5
11752
102
{ACAD_REACTORS
330
1174C
102
}
330
1174C
100
AcDbScale
 70
     0
300
1:10
140
1.0
141
10.0
290
     0
1001
ACAD
1000
AcRTDxfName
1000
SCALE
1000
AcRTDxfName
1000
SCALE
  0
SCALE
  5
11753
102
{ACAD_REACTORS
330
1174C
102
}
330
1174C
100
AcDbScale
 70
     0
300
1:16
140
1.0
141
16.0
290
     0
1001
ACAD
1000
AcRTDxfName
1000
SCALE
1000
AcRTDxfName
1000
SCALE
  0
SCALE
  5
11754
102
{ACAD_REACTORS
330
1174C
102
}
330
1174C
100
AcDbScale
 70
     0
300
1:20
140
1.0
141
20.0
290
     0
1001
ACAD
1000
AcRTDxfName
1000
SCALE
1000
AcRTDxfName
1000
SCALE
  0
SCALE
  5
11755
102
{ACAD_REACTORS
330
1174C
102
}
330
1174C
100
AcDbScale
 70
     0
300
1:30
140
1.0
141
30.0
290
     0
1001
ACAD
1000
AcRTDxfName
1000
SCALE
1000
AcRTDxfName
1000
SCALE
  0
SCALE
  5
11756
102
{ACAD_REACTORS
330
1174C
102
}
330
1174C
100
AcDbScale
 70
     0
300
1:40
140
1.0
141
40.0
290
     0
1001
ACAD
1000
AcRTDxfName
1000
SCALE
1000
AcRTDxfName
1000
SCALE
  0
SCALE
  5
11757
102
{ACAD_REACTORS
330
1174C
102
}
330
1174C
100
AcDbScale
 70
     0
300
1:50
140
1.0
141
50.0
290
     0
1001
ACAD
1000
AcRTDxfName
1000
SCALE
1000
AcRTDxfName
1000
SCALE
  0
SCALE
  5
11758
102
{ACAD_REACTORS
330
1174C
102
}
330
1174C
100
AcDbScale
 70
     0
300
1:100
140
1.0
141
100.0
290
     0
1001
ACAD
1000
AcRTDxfName
1000
SCALE
1000
AcRTDxfName
1000
SCALE
  0
SCALE
  5
11759
102
{ACAD_REACTORS
330
1174C
102
}
330
1174C
100
AcDbScale
 70
     0
300
2:1
140
2.0
141
1.0
290
     0
1001
ACAD
1000
AcRTDxfName
1000
SCALE
1000
AcRTDxfName
1000
SCALE
  0
SCALE
  5
1175A
102
{ACAD_REACTORS
330
1174C
102
}
330
1174C
100
AcDbScale
 70
     0
300
4:1
140
4.0
141
1.0
290
     0
1001
ACAD
1000
AcRTDxfName
1000
SCALE
1000
AcRTDxfName
1000
SCALE
  0
SCALE
  5
1175B
102
{ACAD_REACTORS
330
1174C
102
}
330
1174C
100
AcDbScale
 70
     0
300
8:1
140
8.0
141
1.0
290
     0
1001
ACAD
1000
AcRTDxfName
1000
SCALE
1000
AcRTDxfName
1000
SCALE
  0
SCALE
  5
1175C
102
{ACAD_REACTORS
330
1174C
102
}
330
1174C
100
AcDbScale
 70
     0
300
10:1
140
10.0
141
1.0
290
     0
1001
ACAD
1000
AcRTDxfName
1000
SCALE
1000
AcRTDxfName
1000
SCALE
  0
SCALE
  5
1175D
102
{ACAD_REACTORS
330
1174C
102
}
330
1174C
100
AcDbScale
 70
     0
300
100:1
140
100.0
141
1.0
290
     0
1001
ACAD
1000
AcRTDxfName
1000
SCALE
1000
AcRTDxfName
1000
SCALE
  0
ACDBSECTIONVIEWSTYLE
  5
12EFC
102
{ACAD_XDICTIONARY
360
13CFA
102
}
102
{ACAD_REACTORS
330
12EFB
102
}
330
12EFB
100
AcDbModelDocViewStyle
 70
     0
  3
Metric50
290
     0
100
AcDbSectionViewStyle
 70
     0
 71
     0
 90
      102
 71
     1
340
11
 62
   256
 40
5.0
340
0
340
0
 62
   256
 40
5.0
300
I, O, Q, S, X, Z
 40
10.0
 90
        0
 40
2.5
 90
        0
 71
     2
340
16
 90
       25
 62
   256
340
16
 90
       50
 62
   256
 40
5.0
 40
2.5
 40
5.0
 71
     3
340
11
 62
   256
 40
5.0
 90
        0
 40
15.0
 90
        1
300
%<\AcVar ViewSectionStartId>%-%<\AcVar ViewSectionEndId>% (%<\AcVar ViewScale \f "%sn">%)
 71
     4
 62
   256
 62
   257
300
ANSI31
 40
1.0
 90
        0
290
     0
290
     0
 90
        6
 40
0.0
 40
1.570796326794896
 40
0.2617993877991494
 40
1.308996938995747
 40
-0.2617993877991494
 40
1.832595714594046
  0
TABLESTYLE
  5
7F
102
{ACAD_XDICTIONARY
360
1186B
102
}
102
{ACAD_REACTORS
330
7E
102
}
330
7E
100
AcDbTableStyle
280
     0
  3
Standard
 70
     0
 71
     0
 40
1.5
 41
1.5
280
     0
281
     0
  7
Standard
140
4.5
170
     2
 62
     0
 63
     7
283
     0
 90
        4
 91
        0
  1

274
    -2
284
     1
 64
     0
275
    -2
285
     1
 65
     0
276
    -2
286
     1
 66
     0
277
    -2
287
     1
 67
     0
278
    -2
288
     1
 68
     0
279
    -2
289
     1
 69
     0
  7
Standard
140
6.0
170
     5
 62
     0
 63
     7
283
     0
 90
        4
 91
        0
  1

274
    -2
284
     1
 64
     0
275
    -2
285
     1
 65
     0
276
    -2
286
     1
 66
     0
277
    -2
287
     1
 67
     0
278
    -2
288
     1
 68
     0
279
    -2
289
     1
 69
     0
  7
Standard
140
4.5
170
     5
 62
     0
 63
     7
283
     0
 90
        4
 91
        0
  1

274
    -2
284
     1
 64
     0
275
    -2
285
     1
 65
     0
276
    -2
286
     1
 66
     0
277
    -2
287
     1
 67
     0
278
    -2
288
     1
 68
     0
279
    -2
289
     1
 69
     0
  0
VISUALSTYLE
  5
11741
102
{ACAD_REACTORS
330
1173B
102
}
330
1173B
100
AcDbVisualStyle
  2
2dWireframe
 70
     4
177
     3
291
     0
 70
    58
 90
        0
176
     1
 90
        2
176
     1
 90
        0
176
     1
 90
        0
176
     1
 40
0.6
176
     1
 40
30.0
176
     1
 62
     7
176
     1
 90
        1
176
     1
 90
        4
176
     1
 62
     7
176
     1
 62
   257
176
     1
 90
        1
176
     1
 90
        1
176
     1
 40
1.0
176
     1
 90
        0
176
     1
 62
   257
176
     1
 40
1.0
176
     1
 90
        1
176
     1
 90
        6
176
     1
 90
        2
176
     1
 62
     7
176
     1
 90
        5
176
     1
 90
        0
176
     1
 90
        0
176
     1
290
     0
176
     1
 90
        1
176
     1
 40
0.0
176
     1
 90
        0
176
     1
290
     1
176
     1
290
     1
176
     1
290
     0
176
     1
290
     0
176
     1
290
     0
176
     1
290
     0
176
     1
290
     0
176
     1
290
     0
176
     1
290
     0
176
     1
 90
       50
176
     1
 40
0.0
176
     1
 40
1.0
176
     1
 90
        0
176
     1
 62
    18
420
        0
176
     1
 90
       50
176
     1
 90
        3
176
     1
 62
     5
420
      255
176
     1
290
     0
176
     1
 90
       50
176
     1
 90
       50
176
     1
 90
       50
176
     1
290
     0
176
     1
 90
       50
176
     1
 62
   256
176
     0
 40
1.0
176
     0
 90
        2
176
     1
  1
strokes_ogs.tif
176
     1
290
     0
176
     1
 40
1.0
176
     1
 40
1.0
176
     1
1001
ACAD
1000
AcRTDxfName
1000
VISUALSTYLE
1000
AcRTDxfName
1000
VISUALSTYLE
1000
AcDbSavedByObjectVersion
1070
     0
  0
VISUALSTYLE
  5
11743
102
{ACAD_REACTORS
330
1173B
102
}
330
1173B
100
AcDbVisualStyle
  2
3D Hidden
 70
     6
177
     3
291
     0
 70
    58
 90
        1
176
     1
 90
        2
176
     1
 90
        2
176
     1
 90
        0
176
     1
 40
0.6
176
     1
 40
30.0
176
     1
 62
     7
176
     1
 90
        2
176
     1
 90
        2
176
     1
 62
     7
176
     1
 62
   257
176
     1
 90
        2
176
     1
 90
        1
176
     1
 40
40.0
176
     1
 90
        0
176
     1
 62
   257
176
     1
 40
1.0
176
     1
 90
        1
176
     1
 90
        6
176
     1
 90
        2
176
     1
 62
     7
176
     1
 90
        3
176
     1
 90
        0
176
     1
 90
        0
176
     1
290
     0
176
     1
 90
        1
176
     1
 40
0.0
176
     1
 90
        0
176
     1
290
     0
176
     1
290
     1
176
     1
290
     1
176
     1
290
     0
176
     1
290
     0
176
     1
290
     0
176
     1
290
     0
176
     1
290
     0
176
     1
290
     0
176
     1
 90
       50
176
     1
 40
0.0
176
     1
 40
1.0
176
     1
 90
        0
176
     1
 62
    18
420
        0
176
     1
 90
       50
176
     1
 90
        3
176
     1
 62
     5
420
      255
176
     1
290
     0
176
     1
 90
       50
176
     1
 90
       50
176
     1
 90
       50
176
     1
290
     0
176
     1
 90
       50
176
     1
 62
   256
176
     0
 40
1.0
176
     0
 90
        2
176
     1
  1
strokes_ogs.tif
176
     1
290
     0
176
     1
 40
1.0
176
     1
 40
1.0
176
     1
1001
ACAD
1000
AcRTDxfName
1000
VISUALSTYLE
1000
AcRTDxfName
1000
VISUALSTYLE
1000
AcDbSavedByObjectVersion
1070
     0
  0
VISUALSTYLE
  5
11742
102
{ACAD_REACTORS
330
1173B
102
}
330
1173B
100
AcDbVisualStyle
  2
3dWireframe
 70
     5
177
     3
291
     0
 70
    58
 90
        0
176
     1
 90
        2
176
     1
 90
        0
176
     1
 90
        0
176
     1
 40
0.6
176
     1
 40
30.0
176
     1
 62
     7
176
     1
 90
        1
176
     1
 90
        4
176
     1
 62
     7
176
     1
 62
   257
176
     1
 90
        1
176
     1
 90
        1
176
     1
 40
1.0
176
     1
 90
        0
176
     1
 62
   257
176
     1
 40
1.0
176
     1
 90
        1
176
     1
 90
        6
176
     1
 90
        2
176
     1
 62
     7
176
     1
 90
        5
176
     1
 90
        0
176
     1
 90
        0
176
     1
290
     0
176
     1
 90
        1
176
     1
 40
0.0
176
     1
 90
        0
176
     1
290
     0
176
     1
290
     1
176
     1
290
     1
176
     1
290
     0
176
     1
290
     0
176
     1
290
     0
176
     1
290
     0
176
     1
290
     0
176
     1
290
     0
176
     1
 90
       50
176
     1
 40
0.0
176
     1
 40
1.0
176
     1
 90
        0
176
     1
 62
    18
420
        0
176
     1
 90
       50
176
     1
 90
        3
176
     1
 62
     5
420
      255
176
     1
290
     0
176
     1
 90
       50
176
     1
 90
       50
176
     1
 90
       50
176
     1
290
     0
176
     1
 90
       50
176
     1
 62
   256
176
     0
 40
1.0
176
     0
 90
        2
176
     1
  1
strokes_ogs.tif
176
     1
290
     0
176
     1
 40
1.0
176
     1
 40
1.0
176
     1
1001
ACAD
1000
AcRTDxfName
1000
VISUALSTYLE
1000
AcRTDxfName
1000
VISUALSTYLE
1000
AcDbSavedByObjectVersion
1070
     0
  0
VISUALSTYLE
  5
11740
102
{ACAD_REACTORS
330
1173B
102
}
330
1173B
100
AcDbVisualStyle
  2
Basic
 70
     7
177
     3
291
     1
 70
    58
 90
        1
176
     1
 90
        0
176
     1
 90
        1
176
     1
 90
        0
176
     1
 40
0.6
176
     1
 40
30.0
176
     1
 62
     7
176
     1
 90
        0
176
     1
 90
        4
176
     1
 62
     7
176
     1
 62
   257
176
     1
 90
        1
176
     1
 90
        1
176
     1
 40
1.0
176
     1
 90
        8
176
     1
 62
     7
176
     1
 40
1.0
176
     1
 90
        1
176
     1
 90
        6
176
     1
 90
        2
176
     1
 62
     7
176
     1
 90
        5
176
     1
 90
        0
176
     1
 90
        0
176
     1
290
     0
176
     1
 90
        1
176
     1
 40
0.0
176
     1
 90
        0
176
     1
290
     0
176
     1
290
     1
176
     1
290
     1
176
     1
290
     0
176
     1
290
     0
176
     1
290
     0
176
     1
290
     0
176
     1
290
     0
176
     1
290
     0
176
     1
 90
       50
176
     1
 40
0.0
176
     1
 40
1.0
176
     1
 90
        0
176
     1
 62
    18
420
        0
176
     1
 90
       50
176
     1
 90
        3
176
     1
 62
     5
420
      255
176
     1
290
     0
176
     1
 90
       50
176
     1
 90
       50
176
     1
 90
       50
176
     1
290
     0
176
     1
 90
       50
176
     1
 62
   256
176
     0
 40
1.0
176
     0
 90
        2
176
     1
  1
strokes_ogs.tif
176
     1
290
     0
176
     1
 40
1.0
176
     1
 40
1.0
176
     1
1001
ACAD
1000
AcRTDxfName
1000
VISUALSTYLE
1000
AcRTDxfName
1000
VISUALSTYLE
1000
AcDbSavedByObjectVersion
1070
     0
  0
VISUALSTYLE
  5
11747
102
{ACAD_REACTORS
330
1173B
102
}
330
1173B
100
AcDbVisualStyle
  2
Brighten
 70
    12
177
     3
291
     1
 70
    58
 90
        2
176
     1
 90
        2
176
     1
 90
        0
176
     1
 90
        0
176
     1
 40
0.6
176
     1
 40
30.0
176
     1
 62
     7
176
     1
 90
        1
176
     1
 90
        4
176
     1
 62
     7
176
     1
 62
   257
176
     1
 90
        1
176
     1
 90
        1
176
     1
 40
1.0
176
     1
 90
        8
176
     1
 62
     7
176
     1
 40
1.0
176
     1
 90
        1
176
     1
 90
        6
176
     1
 90
        2
176
     1
 62
     7
176
     1
 90
        5
176
     1
 90
        0
176
     1
 90
        0
176
     1
290
     0
176
     1
 90
        1
176
     1
 40
50.0
176
     1
 90
        0
176
     1
290
     0
176
     1
290
     1
176
     1
290
     1
176
     1
290
     0
176
     1
290
     0
176
     1
290
     0
176
     1
290
     0
176
     1
290
     0
176
     1
290
     0
176
     1
 90
       50
176
     1
 40
0.0
176
     1
 40
1.0
176
     1
 90
        0
176
     1
 62
    18
420
        0
176
     1
 90
       50
176
     1
 90
        3
176
     1
 62
     5
420
      255
176
     1
290
     0
176
     1
 90
       50
176
     1
 90
       50
176
     1
 90
       50
176
     1
290
     0
176
     1
 90
       50
176
     1
 62
   256
176
     0
 40
1.0
176
     0
 90
        2
176
     1
  1
strokes_ogs.tif
176
     1
290
     0
176
     1
 40
1.0
176
     1
 40
1.0
176
     1
1001
ACAD
1000
AcRTDxfName
1000
VISUALSTYLE
1000
AcRTDxfName
1000
VISUALSTYLE
1000
AcDbSavedByObjectVersion
1070
     0
  0
VISUALSTYLE
  5
1174B
102
{ACAD_REACTORS
330
1173B
102
}
330
1173B
100
AcDbVisualStyle
  2
ColorChange
 70
    16
177
     3
291
     1
 70
    58
 90
        2
176
     1
 90
        2
176
     1
 90
        3
176
     1
 90
        0
176
     1
 40
0.6
176
     1
 40
30.0
176
     1
 62
     8
176
     1
 90
        1
176
     1
 90
        4
176
     1
 62
     7
176
     1
 62
   257
176
     1
 90
        1
176
     1
 90
        1
176
     1
 40
1.0
176
     1
 90
        8
176
     1
 62
     8
176
     1
 40
1.0
176
     1
 90
        1
176
     1
 90
        6
176
     1
 90
        2
176
     1
 62
     7
176
     1
 90
        5
176
     1
 90
        0
176
     1
 90
        0
176
     1
290
     0
176
     1
 90
        1
176
     1
 40
0.0
176
     1
 90
        0
176
     1
290
     0
176
     1
290
     1
176
     1
290
     1
176
     1
290
     0
176
     1
290
     0
176
     1
290
     0
176
     1
290
     0
176
     1
290
     0
176
     1
290
     0
176
     1
 90
       50
176
     1
 40
0.0
176
     1
 40
1.0
176
     1
 90
        0
176
     1
 62
    18
420
        0
176
     1
 90
       50
176
     1
 90
        3
176
     1
 62
     5
420
      255
176
     1
290
     0
176
     1
 90
       50
176
     1
 90
       50
176
     1
 90
       50
176
     1
290
     0
176
     1
 90
       50
176
     1
 62
   256
176
     0
 40
1.0
176
     0
 90
        2
176
     1
  1
strokes_ogs.tif
176
     1
290
     0
176
     1
 40
1.0
176
     1
 40
1.0
176
     1
1001
ACAD
1000
AcRTDxfName
1000
VISUALSTYLE
1000
AcRTDxfName
1000
VISUALSTYLE
1000
AcDbSavedByObjectVersion
1070
     0
  0
VISUALSTYLE
  5
11744
102
{ACAD_REACTORS
330
1173B
102
}
330
1173B
100
AcDbVisualStyle
  2
Conceptual
 70
     9
177
     3
291
     0
 70
    58
 90
        3
176
     1
 90
        2
176
     1
 90
        0
176
     1
 90
        0
176
     1
 40
0.6
176
     1
 40
30.0
176
     1
 62
     7
176
     1
 90
        2
176
     1
 90
        2
176
     1
 62
     7
176
     1
 62
   257
176
     1
 90
        1
176
     1
 90
        1
176
     1
 40
40.0
176
     1
 90
        8
176
     1
 62
     7
176
     1
 40
1.0
176
     1
 90
        1
176
     1
 90
        6
176
     1
 90
        2
176
     1
 62
     7
176
     1
 90
        3
176
     1
 90
        0
176
     1
 90
        0
176
     1
290
     0
176
     1
 90
        1
176
     1
 40
0.0
176
     1
 90
        0
176
     1
290
     0
176
     1
290
     1
176
     1
290
     1
176
     1
290
     0
176
     1
290
     0
176
     1
290
     0
176
     1
290
     0
176
     1
290
     0
176
     1
290
     0
176
     1
 90
       50
176
     1
 40
0.0
176
     1
 40
1.0
176
     1
 90
        0
176
     1
 62
    18
420
        0
176
     1
 90
       50
176
     1
 90
        3
176
     1
 62
     5
420
      255
176
     1
290
     0
176
     1
 90
       50
176
     1
 90
       50
176
     1
 90
       50
176
     1
290
     0
176
     1
 90
       50
176
     1
 62
   256
176
     0
 40
1.0
176
     0
 90
        2
176
     1
  1
strokes_ogs.tif
176
     1
290
     0
176
     1
 40
1.0
176
     1
 40
1.0
176
     1
1001
ACAD
1000
AcRTDxfName
1000
VISUALSTYLE
1000
AcRTDxfName
1000
VISUALSTYLE
1000
AcDbSavedByObjectVersion
1070
     0
  0
VISUALSTYLE
  5
11746
102
{ACAD_REACTORS
330
1173B
102
}
330
1173B
100
AcDbVisualStyle
  2
Dim
 70
    11
177
     3
291
     1
 70
    58
 90
        2
176
     1
 90
        2
176
     1
 90
        0
176
     1
 90
        0
176
     1
 40
0.6
176
     1
 40
30.0
176
     1
 62
     7
176
     1
 90
        1
176
     1
 90
        4
176
     1
 62
     7
176
     1
 62
   257
176
     1
 90
        1
176
     1
 90
        1
176
     1
 40
1.0
176
     1
 90
        8
176
     1
 62
     7
176
     1
 40
1.0
176
     1
 90
        1
176
     1
 90
        6
176
     1
 90
        2
176
     1
 62
     7
176
     1
 90
        5
176
     1
 90
        0
176
     1
 90
        0
176
     1
290
     0
176
     1
 90
        1
176
     1
 40
-50.0
176
     1
 90
        0
176
     1
290
     0
176
     1
290
     1
176
     1
290
     1
176
     1
290
     0
176
     1
290
     0
176
     1
290
     0
176
     1
290
     0
176
     1
290
     0
176
     1
290
     0
176
     1
 90
       50
176
     1
 40
0.0
176
     1
 40
1.0
176
     1
 90
        0
176
     1
 62
    18
420
        0
176
     1
 90
       50
176
     1
 90
        3
176
     1
 62
     5
420
      255
176
     1
290
     0
176
     1
 90
       50
176
     1
 90
       50
176
     1
 90
       50
176
     1
290
     0
176
     1
 90
       50
176
     1
 62
   256
176
     0
 40
1.0
176
     0
 90
        2
176
     1
  1
strokes_ogs.tif
176
     1
290
     0
176
     1
 40
1.0
176
     1
 40
1.0
176
     1
1001
ACAD
1000
AcRTDxfName
1000
VISUALSTYLE
1000
AcRTDxfName
1000
VISUALSTYLE
1000
AcDbSavedByObjectVersion
1070
     0
  0
VISUALSTYLE
  5
12EFA
102
{ACAD_REACTORS
330
1173B
102
}
330
1173B
100
AcDbVisualStyle
  2
EdgeColorOff
 70
    22
177
     3
291
     1
 70
    58
 90
        2
176
     0
 90
        2
176
     0
 90
        0
176
     0
 90
        0
176
     0
 40
0.6
176
     0
 40
30.0
176
     0
 62
     7
420
 16777215
176
     0
 90
        1
176
     0
 90
        4
176
     0
 62
     7
176
     0
 62
   257
176
     0
 90
        1
176
     0
 90
        1
176
     0
 40
1.0
176
     0
 90
        8
176
     2
 62
     7
176
     0
 40
1.0
176
     0
 90
        1
176
     0
 90
        6
176
     0
 90
        2
176
     0
 62
     7
176
     0
 90
        5
176
     0
 90
        0
176
     0
 90
        0
176
     0
290
     0
176
     0
 90
        1
176
     0
 40
0.0
176
     0
 90
        0
176
     0
290
     0
176
     0
290
     1
176
     0
290
     1
176
     0
290
     0
176
     0
290
     0
176
     0
290
     0
176
     0
290
     0
176
     0
290
     0
176
     0
290
     0
176
     0
 90
       50
176
     0
 40
0.0
176
     0
 40
1.0
176
     0
 90
        0
176
     0
 62
    18
420
        0
176
     0
 90
       50
176
     0
 90
        3
176
     0
 62
     5
420
      255
176
     0
290
     0
176
     0
 90
       50
176
     0
 90
       50
176
     0
 90
       50
176
     0
290
     0
176
     0
 90
       50
176
     0
 62
   256
176
     0
 40
1.0
176
     0
 90
        2
176
     0
  1
strokes_ogs.tif
176
     0
290
     0
176
     0
 40
1.0
176
     0
 40
1.0
176
     0
1001
ACAD
1000
AcDbSavedByObjectVersion
1070
     0
  0
VISUALSTYLE
  5
1174A
102
{ACAD_REACTORS
330
1173B
102
}
330
1173B
100
AcDbVisualStyle
  2
Facepattern
 70
    15
177
     3
291
     1
 70
    58
 90
        2
176
     1
 90
        2
176
     1
 90
        0
176
     1
 90
        0
176
     1
 40
0.6
176
     1
 40
30.0
176
     1
 62
     7
176
     1
 90
        1
176
     1
 90
        4
176
     1
 62
     7
176
     1
 62
   257
176
     1
 90
        1
176
     1
 90
        1
176
     1
 40
1.0
176
     1
 90
        8
176
     1
 62
     7
176
     1
 40
1.0
176
     1
 90
        1
176
     1
 90
        6
176
     1
 90
        2
176
     1
 62
     7
176
     1
 90
        5
176
     1
 90
        0
176
     1
 90
        0
176
     1
290
     0
176
     1
 90
        1
176
     1
 40
0.0
176
     1
 90
        0
176
     1
290
     0
176
     1
290
     1
176
     1
290
     1
176
     1
290
     0
176
     1
290
     0
176
     1
290
     0
176
     1
290
     0
176
     1
290
     0
176
     1
290
     0
176
     1
 90
       50
176
     1
 40
0.0
176
     1
 40
1.0
176
     1
 90
        0
176
     1
 62
    18
420
        0
176
     1
 90
       50
176
     1
 90
        3
176
     1
 62
     5
420
      255
176
     1
290
     0
176
     1
 90
       50
176
     1
 90
       50
176
     1
 90
       50
176
     1
290
     0
176
     1
 90
       50
176
     1
 62
   256
176
     0
 40
1.0
176
     0
 90
        2
176
     1
  1
strokes_ogs.tif
176
     1
290
     0
176
     1
 40
1.0
176
     1
 40
1.0
176
     1
1001
ACAD
1000
AcRTDxfName
1000
VISUALSTYLE
1000
AcRTDxfName
1000
VISUALSTYLE
1000
AcDbSavedByObjectVersion
1070
     0
  0
VISUALSTYLE
  5
1173C
102
{ACAD_REACTORS
330
1173B
102
}
330
1173B
100
AcDbVisualStyle
  2
Flat
 70
     0
177
     3
291
     1
 70
    58
 90
        2
176
     1
 90
        1
176
     1
 90
        1
176
     1
 90
        2
176
     1
 40
0.6
176
     1
 40
30.0
176
     1
 62
     7
176
     1
 90
        0
176
     1
 90
        4
176
     1
 62
     7
176
     1
 62
   257
176
     1
 90
        1
176
     1
 90
        1
176
     1
 40
1.0
176
     1
 90
        8
176
     1
 62
     7
176
     1
 40
1.0
176
     1
 90
        1
176
     1
 90
        6
176
     1
 90
        2
176
     1
 62
     7
176
     1
 90
        5
176
     1
 90
        0
176
     1
 90
        0
176
     1
290
     0
176
     1
 90
       13
176
     1
 40
0.0
176
     1
 90
        0
176
     1
290
     0
176
     1
290
     1
176
     1
290
     1
176
     1
290
     0
176
     1
290
     0
176
     1
290
     0
176
     1
290
     0
176
     1
290
     0
176
     1
290
     0
176
     1
 90
       50
176
     1
 40
0.0
176
     1
 40
1.0
176
     1
 90
        0
176
     1
 62
    18
420
        0
176
     1
 90
       50
176
     1
 90
        3
176
     1
 62
     5
420
      255
176
     1
290
     0
176
     1
 90
       50
176
     1
 90
       50
176
     1
 90
       50
176
     1
290
     0
176
     1
 90
       50
176
     1
 62
   256
176
     0
 40
1.0
176
     0
 90
        2
176
     1
  1
strokes_ogs.tif
176
     1
290
     0
176
     1
 40
1.0
176
     1
 40
1.0
176
     1
1001
ACAD
1000
AcRTDxfName
1000
VISUALSTYLE
1000
AcRTDxfName
1000
VISUALSTYLE
1000
AcDbSavedByObjectVersion
1070
     0
  0
VISUALSTYLE
  5
1173D
102
{ACAD_REACTORS
330
1173B
102
}
330
1173B
100
AcDbVisualStyle
  2
FlatWithEdges
 70
     1
177
     3
291
     1
 70
    58
 90
        2
176
     1
 90
        1
176
     1
 90
        1
176
     1
 90
        2
176
     1
 40
0.6
176
     1
 40
30.0
176
     1
 62
     7
176
     1
 90
        1
176
     1
 90
        4
176
     1
 62
     7
176
     1
 62
   257
176
     1
 90
        1
176
     1
 90
        1
176
     1
 40
1.0
176
     1
 90
        0
176
     1
 62
   257
176
     1
 40
1.0
176
     1
 90
        1
176
     1
 90
        6
176
     1
 90
        2
176
     1
 62
     7
176
     1
 90
        5
176
     1
 90
        0
176
     1
 90
        0
176
     1
290
     0
176
     1
 90
       13
176
     1
 40
0.0
176
     1
 90
        0
176
     1
290
     0
176
     1
290
     1
176
     1
290
     1
176
     1
290
     0
176
     1
290
     0
176
     1
290
     0
176
     1
290
     0
176
     1
290
     0
176
     1
290
     0
176
     1
 90
       50
176
     1
 40
0.0
176
     1
 40
1.0
176
     1
 90
        0
176
     1
 62
    18
420
        0
176
     1
 90
       50
176
     1
 90
        3
176
     1
 62
     5
420
      255
176
     1
290
     0
176
     1
 90
       50
176
     1
 90
       50
176
     1
 90
       50
176
     1
290
     0
176
     1
 90
       50
176
     1
 62
   256
176
     0
 40
1.0
176
     0
 90
        2
176
     1
  1
strokes_ogs.tif
176
     1
290
     0
176
     1
 40
1.0
176
     1
 40
1.0
176
     1
1001
ACAD
1000
AcRTDxfName
1000
VISUALSTYLE
1000
AcRTDxfName
1000
VISUALSTYLE
1000
AcDbSavedByObjectVersion
1070
     0
  0
VISUALSTYLE
  5
1173E
102
{ACAD_REACTORS
330
1173B
102
}
330
1173B
100
AcDbVisualStyle
  2
Gouraud
 70
     2
177
     3
291
     1
 70
    58
 90
        2
176
     1
 90
        2
176
     1
 90
        1
176
     1
 90
        2
176
     1
 40
0.6
176
     1
 40
30.0
176
     1
 62
     7
176
     1
 90
        0
176
     1
 90
        4
176
     1
 62
     7
176
     1
 62
   257
176
     1
 90
        1
176
     1
 90
        1
176
     1
 40
1.0
176
     1
 90
        0
176
     1
 62
     7
176
     1
 40
1.0
176
     1
 90
        1
176
     1
 90
        6
176
     1
 90
        2
176
     1
 62
     7
176
     1
 90
        5
176
     1
 90
        0
176
     1
 90
        0
176
     1
290
     0
176
     1
 90
       13
176
     1
 40
0.0
176
     1
 90
        0
176
     1
290
     0
176
     1
290
     1
176
     1
290
     1
176
     1
290
     0
176
     1
290
     0
176
     1
290
     0
176
     1
290
     0
176
     1
290
     0
176
     1
290
     0
176
     1
 90
       50
176
     1
 40
0.0
176
     1
 40
1.0
176
     1
 90
        0
176
     1
 62
    18
420
        0
176
     1
 90
       50
176
     1
 90
        3
176
     1
 62
     5
420
      255
176
     1
290
     0
176
     1
 90
       50
176
     1
 90
       50
176
     1
 90
       50
176
     1
290
     0
176
     1
 90
       50
176
     1
 62
   256
176
     0
 40
1.0
176
     0
 90
        2
176
     1
  1
strokes_ogs.tif
176
     1
290
     0
176
     1
 40
1.0
176
     1
 40
1.0
176
     1
1001
ACAD
1000
AcRTDxfName
1000
VISUALSTYLE
1000
AcRTDxfName
1000
VISUALSTYLE
1000
AcDbSavedByObjectVersion
1070
     0
  0
VISUALSTYLE
  5
1173F
102
{ACAD_REACTORS
330
1173B
102
}
330
1173B
100
AcDbVisualStyle
  2
GouraudWithEdges
 70
     3
177
     3
291
     1
 70
    58
 90
        2
176
     1
 90
        2
176
     1
 90
        1
176
     1
 90
        2
176
     1
 40
0.6
176
     1
 40
30.0
176
     1
 62
     7
176
     1
 90
        1
176
     1
 90
        4
176
     1
 62
     7
176
     1
 62
   257
176
     1
 90
        1
176
     1
 90
        1
176
     1
 40
1.0
176
     1
 90
        0
176
     1
 62
   257
176
     1
 40
1.0
176
     1
 90
        1
176
     1
 90
        6
176
     1
 90
        2
176
     1
 62
     7
176
     1
 90
        5
176
     1
 90
        0
176
     1
 90
        0
176
     1
290
     0
176
     1
 90
       13
176
     1
 40
0.0
176
     1
 90
        0
176
     1
290
     0
176
     1
290
     1
176
     1
290
     1
176
     1
290
     0
176
     1
290
     0
176
     1
290
     0
176
     1
290
     0
176
     1
290
     0
176
     1
290
     0
176
     1
 90
       50
176
     1
 40
0.0
176
     1
 40
1.0
176
     1
 90
        0
176
     1
 62
    18
420
        0
176
     1
 90
       50
176
     1
 90
        3
176
     1
 62
     5
420
      255
176
     1
290
     0
176
     1
 90
       50
176
     1
 90
       50
176
     1
 90
       50
176
     1
290
     0
176
     1
 90
       50
176
     1
 62
   256
176
     0
 40
1.0
176
     0
 90
        2
176
     1
  1
strokes_ogs.tif
176
     1
290
     0
176
     1
 40
1.0
176
     1
 40
1.0
176
     1
1001
ACAD
1000
AcRTDxfName
1000
VISUALSTYLE
1000
AcRTDxfName
1000
VISUALSTYLE
1000
AcDbSavedByObjectVersion
1070
     0
  0
VISUALSTYLE
  5
12EF2
102
{ACAD_REACTORS
330
1173B
102
}
330
1173B
100
AcDbVisualStyle
  2
Hidden
 70
     6
177
     3
291
     0
 70
    58
 90
        1
176
     1
 90
        2
176
     1
 90
        2
176
     1
 90
        0
176
     1
 40
0.6
176
     1
 40
30.0
176
     1
 62
     7
420
 16777215
176
     1
 90
        2
176
     1
 90
        2
176
     1
 62
     7
176
     1
 62
   257
176
     1
 90
        2
176
     1
 90
        1
176
     1
 40
40.0
176
     1
 90
        0
176
     1
 62
   257
176
     1
 40
1.0
176
     1
 90
        1
176
     1
 90
        6
176
     1
 90
        2
176
     1
 62
     7
176
     1
 90
        3
176
     1
 90
        0
176
     1
 90
        0
176
     1
290
     0
176
     1
 90
        1
176
     1
 40
0.0
176
     1
 90
        0
176
     1
290
     0
176
     1
290
     1
176
     1
290
     1
176
     1
290
     0
176
     1
290
     0
176
     1
290
     0
176
     1
290
     0
176
     1
290
     0
176
     1
290
     0
176
     1
 90
       50
176
     1
 40
0.0
176
     1
 40
1.0
176
     1
 90
        0
176
     1
 62
    18
420
        0
176
     1
 90
       50
176
     1
 90
        3
176
     1
 62
     5
420
      255
176
     1
290
     0
176
     1
 90
       50
176
     1
 90
       50
176
     1
 90
       50
176
     1
290
     0
176
     1
 90
       50
176
     1
 62
   256
176
     0
 40
1.0
176
     0
 90
        2
176
     1
  1
strokes_ogs.tif
176
     1
290
     0
176
     1
 40
1.0
176
     1
 40
1.0
176
     1
1001
ACAD
1000
AcDbSavedByObjectVersion
1070
     0
  0
VISUALSTYLE
  5
12EF8
102
{ACAD_REACTORS
330
1173B
102
}
330
1173B
100
AcDbVisualStyle
  2
JitterOff
 70
    20
177
     3
291
     1
 70
    58
 90
        2
176
     0
 90
        2
176
     0
 90
        0
176
     0
 90
        0
176
     0
 40
0.6
176
     0
 40
30.0
176
     0
 62
     7
420
 16777215
176
     0
 90
        1
176
     0
 90
        4
176
     0
 62
     7
176
     0
 62
   257
176
     0
 90
        1
176
     0
 90
        1
176
     0
 40
1.0
176
     0
 90
       10
176
     2
 62
     7
176
     0
 40
1.0
176
     0
 90
        1
176
     0
 90
        6
176
     0
 90
        2
176
     0
 62
     7
176
     0
 90
        5
176
     0
 90
        0
176
     0
 90
        0
176
     0
290
     0
176
     0
 90
        1
176
     0
 40
0.0
176
     0
 90
        0
176
     0
290
     0
176
     0
290
     1
176
     0
290
     1
176
     0
290
     0
176
     0
290
     0
176
     0
290
     0
176
     0
290
     0
176
     0
290
     0
176
     0
290
     0
176
     0
 90
       50
176
     0
 40
0.0
176
     0
 40
1.0
176
     0
 90
        0
176
     0
 62
    18
420
        0
176
     0
 90
       50
176
     0
 90
        3
176
     0
 62
     5
420
      255
176
     0
290
     0
176
     0
 90
       50
176
     0
 90
       50
176
     0
 90
       50
176
     0
290
     0
176
     0
 90
       50
176
     0
 62
   256
176
     0
 40
1.0
176
     0
 90
        2
176
     0
  1
strokes_ogs.tif
176
     0
290
     0
176
     0
 40
1.0
176
     0
 40
1.0
176
     0
1001
ACAD
1000
AcDbSavedByObjectVersion
1070
     0
  0
VISUALSTYLE
  5
11749
102
{ACAD_REACTORS
330
1173B
102
}
330
1173B
100
AcDbVisualStyle
  2
Linepattern
 70
    14
177
     3
291
     1
 70
    58
 90
        2
176
     1
 90
        2
176
     1
 90
        0
176
     1
 90
        0
176
     1
 40
0.6
176
     1
 40
30.0
176
     1
 62
     7
176
     1
 90
        1
176
     1
 90
        4
176
     1
 62
     7
176
     1
 62
   257
176
     1
 90
        7
176
     1
 90
        7
176
     1
 40
1.0
176
     1
 90
        8
176
     1
 62
     7
176
     1
 40
1.0
176
     1
 90
        1
176
     1
 90
        6
176
     1
 90
        2
176
     1
 62
     7
176
     1
 90
        5
176
     1
 90
        0
176
     1
 90
        0
176
     1
290
     0
176
     1
 90
        1
176
     1
 40
0.0
176
     1
 90
        0
176
     1
290
     0
176
     1
290
     1
176
     1
290
     1
176
     1
290
     0
176
     1
290
     0
176
     1
290
     0
176
     1
290
     0
176
     1
290
     0
176
     1
290
     0
176
     1
 90
       50
176
     1
 40
0.0
176
     1
 40
1.0
176
     1
 90
        0
176
     1
 62
    18
420
        0
176
     1
 90
       50
176
     1
 90
        3
176
     1
 62
     5
420
      255
176
     1
290
     0
176
     1
 90
       50
176
     1
 90
       50
176
     1
 90
       50
176
     1
290
     0
176
     1
 90
       50
176
     1
 62
   256
176
     0
 40
1.0
176
     0
 90
        2
176
     1
  1
strokes_ogs.tif
176
     1
290
     0
176
     1
 40
1.0
176
     1
 40
1.0
176
     1
1001
ACAD
1000
AcRTDxfName
1000
VISUALSTYLE
1000
AcRTDxfName
1000
VISUALSTYLE
1000
AcDbSavedByObjectVersion
1070
     0
  0
VISUALSTYLE
  5
12EF9
102
{ACAD_REACTORS
330
1173B
102
}
330
1173B
100
AcDbVisualStyle
  2
OverhangOff
 70
    21
177
     3
291
     1
 70
    58
 90
        2
176
     0
 90
        2
176
     0
 90
        0
176
     0
 90
        0
176
     0
 40
0.6
176
     0
 40
30.0
176
     0
 62
     7
420
 16777215
176
     0
 90
        1
176
     0
 90
        4
176
     0
 62
     7
176
     0
 62
   257
176
     0
 90
        1
176
     0
 90
        1
176
     0
 40
1.0
176
     0
 90
        9
176
     2
 62
     7
176
     0
 40
1.0
176
     0
 90
        1
176
     0
 90
        6
176
     0
 90
        2
176
     0
 62
     7
176
     0
 90
        5
176
     0
 90
        0
176
     0
 90
        0
176
     0
290
     0
176
     0
 90
        1
176
     0
 40
0.0
176
     0
 90
        0
176
     0
290
     0
176
     0
290
     1
176
     0
290
     1
176
     0
290
     0
176
     0
290
     0
176
     0
290
     0
176
     0
290
     0
176
     0
290
     0
176
     0
290
     0
176
     0
 90
       50
176
     0
 40
0.0
176
     0
 40
1.0
176
     0
 90
        0
176
     0
 62
    18
420
        0
176
     0
 90
       50
176
     0
 90
        3
176
     0
 62
     5
420
      255
176
     0
290
     0
176
     0
 90
       50
176
     0
 90
       50
176
     0
 90
       50
176
     0
290
     0
176
     0
 90
       50
176
     0
 62
   256
176
     0
 40
1.0
176
     0
 90
        2
176
     0
  1
strokes_ogs.tif
176
     0
290
     0
176
     0
 40
1.0
176
     0
 40
1.0
176
     0
1001
ACAD
1000
AcDbSavedByObjectVersion
1070
     0
  0
VISUALSTYLE
  5
11745
102
{ACAD_REACTORS
330
1173B
102
}
330
1173B
100
AcDbVisualStyle
  2
Realistic
 70
     8
177
     3
291
     0
 70
    58
 90
        2
176
     1
 90
        2
176
     1
 90
        0
176
     1
 90
        0
176
     1
 40
0.6
176
     1
 40
30.0
176
     1
 62
     7
176
     1
 90
        1
176
     1
 90
        0
176
     1
 62
     7
176
     1
 62
   257
176
     1
 90
        1
176
     1
 90
        1
176
     1
 40
1.0
176
     1
 90
        8
176
     1
 62
     8
176
     1
 40
1.0
176
     1
 90
        1
176
     1
 90
        6
176
     1
 90
        2
176
     1
 62
     7
176
     1
 90
        5
176
     1
 90
        0
176
     1
 90
        0
176
     1
290
     0
176
     1
 90
       13
176
     1
 40
0.0
176
     1
 90
        0
176
     1
290
     0
176
     1
290
     1
176
     1
290
     1
176
     1
290
     0
176
     1
290
     0
176
     1
290
     0
176
     1
290
     0
176
     1
290
     0
176
     1
290
     0
176
     1
 90
       50
176
     1
 40
0.0
176
     1
 40
1.0
176
     1
 90
        0
176
     1
 62
    18
420
        0
176
     1
 90
       50
176
     1
 90
        3
176
     1
 62
     5
420
      255
176
     1
290
     0
176
     1
 90
       50
176
     1
 90
       50
176
     1
 90
       50
176
     1
290
     0
176
     1
 90
       50
176
     1
 62
   256
176
     0
 40
1.0
176
     0
 90
        2
176
     1
  1
strokes_ogs.tif
176
     1
290
     0
176
     1
 40
1.0
176
     1
 40
1.0
176
     1
1001
ACAD
1000
AcRTDxfName
1000
VISUALSTYLE
1000
AcRTDxfName
1000
VISUALSTYLE
1000
AcDbSavedByObjectVersion
1070
     0
  0
VISUALSTYLE
  5
12EF7
102
{ACAD_REACTORS
330
1173B
102
}
330
1173B
100
AcDbVisualStyle
  2
Shaded
 70
    27
177
     3
291
     0
 70
    58
 90
        2
176
     1
 90
        2
176
     1
 90
        1
176
     1
 90
        2
176
     1
 40
0.6
176
     1
 40
30.0
176
     1
 62
     7
420
 16777215
176
     1
 90
        0
176
     1
 90
        4
176
     1
 62
     7
176
     1
 62
   257
176
     1
 90
        1
176
     1
 90
        1
176
     1
 40
1.0
176
     1
 90
        8
176
     1
 62
   257
176
     1
 40
1.0
176
     1
 90
        1
176
     1
 90
        6
176
     1
 90
        2
176
     1
 62
     8
420
  7895160
176
     1
 90
        3
176
     1
 90
        0
176
     1
 90
        0
176
     1
290
     0
176
     1
 90
        5
176
     1
 40
0.0
176
     1
 90
        0
176
     1
290
     0
176
     1
290
     1
176
     1
290
     1
176
     1
290
     0
176
     1
290
     0
176
     1
290
     0
176
     1
290
     0
176
     1
290
     0
176
     1
290
     0
176
     1
 90
       50
176
     1
 40
0.0
176
     1
 40
1.0
176
     1
 90
        0
176
     1
 62
    18
420
        0
176
     1
 90
       50
176
     1
 90
        3
176
     1
 62
     5
420
      255
176
     1
290
     0
176
     1
 90
       50
176
     1
 90
       50
176
     1
 90
       50
176
     1
290
     0
176
     1
 90
       50
176
     1
 62
   256
176
     0
 40
1.0
176
     0
 90
        2
176
     1
  1
strokes_ogs.tif
176
     1
290
     0
176
     1
 40
1.0
176
     1
 40
1.0
176
     1
1001
ACAD
1000
AcDbSavedByObjectVersion
1070
     0
  0
VISUALSTYLE
  5
12EF6
102
{ACAD_REACTORS
330
1173B
102
}
330
1173B
100
AcDbVisualStyle
  2
Shaded with edges
 70
    26
177
     3
291
     0
 70
    58
 90
        2
176
     1
 90
        2
176
     1
 90
        1
176
     1
 90
        2
176
     1
 40
0.6
176
     1
 40
30.0
176
     1
 62
     7
420
 16777215
176
     1
 90
        1
176
     1
 90
        2
176
     1
 62
     7
176
     1
 62
   257
176
     1
 90
        2
176
     1
 90
        1
176
     1
 40
1.0
176
     1
 90
        8
176
     1
 62
   257
176
     1
 40
1.0
176
     1
 90
        1
176
     1
 90
        6
176
     1
 90
        2
176
     1
 62
     7
176
     1
 90
        3
176
     1
 90
        0
176
     1
 90
        0
176
     1
290
     0
176
     1
 90
        5
176
     1
 40
0.0
176
     1
 90
        0
176
     1
290
     0
176
     1
290
     1
176
     1
290
     1
176
     1
290
     0
176
     1
290
     0
176
     1
290
     0
176
     1
290
     0
176
     1
290
     0
176
     1
290
     0
176
     1
 90
       50
176
     1
 40
0.0
176
     1
 40
1.0
176
     1
 90
        0
176
     1
 62
    18
420
        0
176
     1
 90
       50
176
     1
 90
        3
176
     1
 62
     5
420
      255
176
     1
290
     0
176
     1
 90
       50
176
     1
 90
       50
176
     1
 90
       50
176
     1
290
     0
176
     1
 90
       50
176
     1
 62
   256
176
     0
 40
1.0
176
     0
 90
        2
176
     1
  1
strokes_ogs.tif
176
     1
290
     0
176
     1
 40
1.0
176
     1
 40
1.0
176
     1
1001
ACAD
1000
AcDbSavedByObjectVersion
1070
     0
  0
VISUALSTYLE
  5
12EF3
102
{ACAD_REACTORS
330
1173B
102
}
330
1173B
100
AcDbVisualStyle
  2
Shades of Gray
 70
    23
177
     3
291
     0
 70
    58
 90
        2
176
     1
 90
        2
176
     1
 90
        3
176
     1
 90
        0
176
     1
 40
0.6
176
     1
 40
30.0
176
     1
 62
     7
420
 16777215
176
     1
 90
        2
176
     1
 90
        2
176
     1
 62
     7
176
     1
 62
     7
176
     1
 90
        1
176
     1
 90
        1
176
     1
 40
40.0
176
     1
 90
        8
176
     1
 62
     7
176
     1
 40
1.0
176
     1
 90
        1
176
     1
 90
        6
176
     1
 90
        2
176
     1
 62
     7
176
     1
 90
        3
176
     1
 90
        0
176
     1
 90
        0
176
     1
290
     0
176
     1
 90
        1
176
     1
 40
0.0
176
     1
 90
        0
176
     1
290
     0
176
     1
290
     1
176
     1
290
     1
176
     1
290
     0
176
     1
290
     0
176
     1
290
     0
176
     1
290
     0
176
     1
290
     0
176
     1
290
     0
176
     1
 90
       50
176
     1
 40
0.0
176
     1
 40
1.0
176
     1
 90
        0
176
     1
 62
    18
420
        0
176
     1
 90
       50
176
     1
 90
        3
176
     1
 62
     5
420
      255
176
     1
290
     0
176
     1
 90
       50
176
     1
 90
       50
176
     1
 90
       50
176
     1
290
     0
176
     1
 90
       50
176
     1
 62
   256
176
     0
 40
1.0
176
     0
 90
        2
176
     1
  1
strokes_ogs.tif
176
     1
290
     0
176
     1
 40
1.0
176
     1
 40
1.0
176
     1
1001
ACAD
1000
AcDbSavedByObjectVersion
1070
     0
  0
VISUALSTYLE
  5
12EF4
102
{ACAD_REACTORS
330
1173B
102
}
330
1173B
100
AcDbVisualStyle
  2
Sketchy
 70
    24
177
     3
291
     0
 70
    58
 90
        1
176
     1
 90
        2
176
     1
 90
        2
176
     1
 90
        0
176
     1
 40
0.6
176
     1
 40
30.0
176
     1
 62
     7
420
 16777215
176
     1
 90
        2
176
     1
 90
        2
176
     1
 62
     7
176
     1
 62
     7
176
     1
 90
        1
176
     1
 90
        1
176
     1
 40
40.0
176
     1
 90
       11
176
     1
 62
     7
176
     1
 40
1.0
176
     1
 90
        1
176
     1
 90
        6
176
     1
 90
        2
176
     1
 62
     7
176
     1
 90
        6
176
     1
 90
        0
176
     1
 90
        0
176
     1
290
     0
176
     1
 90
        1
176
     1
 40
0.0
176
     1
 90
        0
176
     1
290
     0
176
     1
290
     1
176
     1
290
     1
176
     1
290
     0
176
     1
290
     0
176
     1
290
     0
176
     1
290
     0
176
     1
290
     0
176
     1
290
     0
176
     1
 90
       50
176
     1
 40
0.0
176
     1
 40
1.0
176
     1
 90
        0
176
     1
 62
    18
420
        0
176
     1
 90
       50
176
     1
 90
        3
176
     1
 62
     5
420
      255
176
     1
290
     0
176
     1
 90
       50
176
     1
 90
       50
176
     1
 90
       50
176
     1
290
     0
176
     1
 90
       50
176
     1
 62
   256
176
     0
 40
1.0
176
     0
 90
        2
176
     1
  1
strokes_ogs.tif
176
     1
290
     0
176
     1
 40
1.0
176
     1
 40
1.0
176
     1
1001
ACAD
1000
AcDbSavedByObjectVersion
1070
     0
  0
VISUALSTYLE
  5
11748
102
{ACAD_REACTORS
330
1173B
102
}
330
1173B
100
AcDbVisualStyle
  2
Thicken
 70
    13
177
     3
291
     1
 70
    58
 90
        2
176
     1
 90
        2
176
     1
 90
        0
176
     1
 90
        0
176
     1
 40
0.6
176
     1
 40
30.0
176
     1
 62
     7
176
     1
 90
        1
176
     1
 90
        4
176
     1
 62
     7
176
     1
 62
   257
176
     1
 90
        1
176
     1
 90
        1
176
     1
 40
1.0
176
     1
 90
       12
176
     1
 62
     7
176
     1
 40
1.0
176
     1
 90
        1
176
     1
 90
        6
176
     1
 90
        2
176
     1
 62
     7
176
     1
 90
        5
176
     1
 90
        0
176
     1
 90
        0
176
     1
290
     0
176
     1
 90
        1
176
     1
 40
0.0
176
     1
 90
        0
176
     1
290
     0
176
     1
290
     1
176
     1
290
     1
176
     1
290
     0
176
     1
290
     0
176
     1
290
     0
176
     1
290
     0
176
     1
290
     0
176
     1
290
     0
176
     1
 90
       50
176
     1
 40
0.0
176
     1
 40
1.0
176
     1
 90
        0
176
     1
 62
    18
420
        0
176
     1
 90
       50
176
     1
 90
        3
176
     1
 62
     5
420
      255
176
     1
290
     0
176
     1
 90
       50
176
     1
 90
       50
176
     1
 90
       50
176
     1
290
     0
176
     1
 90
       50
176
     1
 62
   256
176
     0
 40
1.0
176
     0
 90
        2
176
     1
  1
strokes_ogs.tif
176
     1
290
     0
176
     1
 40
1.0
176
     1
 40
1.0
176
     1
1001
ACAD
1000
AcRTDxfName
1000
VISUALSTYLE
1000
AcRTDxfName
1000
VISUALSTYLE
1000
AcDbSavedByObjectVersion
1070
     0
  0
VISUALSTYLE
  5
12EF1
102
{ACAD_REACTORS
330
1173B
102
}
330
1173B
100
AcDbVisualStyle
  2
Wireframe
 70
     5
177
     3
291
     0
 70
    58
 90
        0
176
     1
 90
        2
176
     1
 90
        0
176
     1
 90
        0
176
     1
 40
0.6
176
     1
 40
30.0
176
     1
 62
     7
420
 16777215
176
     1
 90
        1
176
     1
 90
        4
176
     1
 62
     7
176
     1
 62
   257
176
     1
 90
        1
176
     1
 90
        1
176
     1
 40
1.0
176
     1
 90
        0
176
     1
 62
   257
176
     1
 40
1.0
176
     1
 90
        1
176
     1
 90
        6
176
     1
 90
        2
176
     1
 62
     7
176
     1
 90
        3
176
     1
 90
        0
176
     1
 90
        0
176
     1
290
     0
176
     1
 90
        1
176
     1
 40
0.0
176
     1
 90
        0
176
     1
290
     0
176
     1
290
     1
176
     1
290
     1
176
     1
290
     0
176
     1
290
     0
176
     1
290
     0
176
     1
290
     0
176
     1
290
     0
176
     1
290
     0
176
     1
 90
       50
176
     1
 40
0.0
176
     1
 40
1.0
176
     1
 90
        0
176
     1
 62
    18
420
        0
176
     1
 90
       50
176
     1
 90
        3
176
     1
 62
     5
420
      255
176
     1
290
     0
176
     1
 90
       50
176
     1
 90
       50
176
     1
 90
       50
176
     1
290
     0
176
     1
 90
       50
176
     1
 62
   256
176
     0
 40
1.0
176
     0
 90
        2
176
     1
  1
strokes_ogs.tif
176
     1
290
     0
176
     1
 40
1.0
176
     1
 40
1.0
176
     1
1001
ACAD
1000
AcDbSavedByObjectVersion
1070
     0
  0
VISUALSTYLE
  5
12EF5
102
{ACAD_REACTORS
330
1173B
102
}
330
1173B
100
AcDbVisualStyle
  2
X-Ray
 70
    25
177
     3
291
     0
 70
    58
 90
        2
176
     1
 90
        2
176
     1
 90
        1
176
     1
 90
        1
176
     1
 40
0.5
176
     1
 40
30.0
176
     1
 62
     7
420
 16777215
176
     1
 90
        1
176
     1
 90
        0
176
     1
 62
     7
176
     1
 62
   257
176
     1
 90
        1
176
     1
 90
        1
176
     1
 40
1.0
176
     1
 90
        8
176
     1
 62
     7
176
     1
 40
1.0
176
     1
 90
        1
176
     1
 90
        6
176
     1
 90
        2
176
     1
 62
     7
176
     1
 90
        3
176
     1
 90
        0
176
     1
 90
        0
176
     1
290
     0
176
     1
 90
       13
176
     1
 40
0.0
176
     1
 90
        0
176
     1
290
     0
176
     1
290
     1
176
     1
290
     1
176
     1
290
     0
176
     1
290
     0
176
     1
290
     0
176
     1
290
     0
176
     1
290
     0
176
     1
290
     0
176
     1
 90
       50
176
     1
 40
0.0
176
     1
 40
1.0
176
     1
 90
        0
176
     1
 62
    18
420
        0
176
     1
 90
       50
176
     1
 90
        3
176
     1
 62
     5
420
      255
176
     1
290
     0
176
     1
 90
       50
176
     1
 90
       50
176
     1
 90
       50
176
     1
290
     0
176
     1
 90
       50
176
     1
 62
   256
176
     0
 40
1.0
176
     0
 90
        2
176
     1
  1
strokes_ogs.tif
176
     1
290
     0
176
     1
 40
1.0
176
     1
 40
1.0
176
     1
1001
ACAD
1000
AcDbSavedByObjectVersion
1070
     0
  0
DICTIONARYVAR
  5
1187F
102
{ACAD_REACTORS
330
5E
102
}
330
5E
100
DictionaryVariables
280
     0
  1
1:1
  0
DICTIONARYVAR
  5
1187E
102
{ACAD_REACTORS
330
5E
102
}
330
5E
100
DictionaryVariables
280
     0
  1
STANDARD
  0
DICTIONARYVAR
  5
84
102
{ACAD_REACTORS
330
5E
102
}
330
5E
100
DictionaryVariables
280
     0
  1
STANDARD
  0
DICTIONARYVAR
  5
13CAF
102
{ACAD_REACTORS
330
5E
102
}
330
5E
100
DictionaryVariables
280
     0
  1
Metric50
  0
DICTIONARYVAR
  5
13CB0
102
{ACAD_REACTORS
330
5E
102
}
330
5E
100
DictionaryVariables
280
     0
  1
Metric50
  0
DICTIONARYVAR
  5
5F
102
{ACAD_REACTORS
330
5E
102
}
330
5E
100
DictionaryVariables
280
     0
  1
2
  0
DICTIONARYVAR
  5
63
102
{ACAD_REACTORS
330
5E
102
}
330
5E
100
DictionaryVariables
280
     0
  1
1
  0
DICTIONARYVAR
  5
11881
102
{ACAD_REACTORS
330
5E
102
}
330
5E
100
DictionaryVariables
280
     0
  1
0
  0
DICTIONARYVAR
  5
13CB3
102
{ACAD_REACTORS
330
5E
102
}
330
5E
100
DictionaryVariables
280
     0
  1
1
  0
DICTIONARYVAR
  5
13CB4
102
{ACAD_REACTORS
330
5E
102
}
330
5E
100
DictionaryVariables
280
     0
  1
15
  0
DICTIONARYVAR
  5
13CB2
102
{ACAD_REACTORS
330
5E
102
}
330
5E
100
DictionaryVariables
280
     0
  1
0
  0
DICTIONARYVAR
  5
13CB1
102
{ACAD_REACTORS
330
5E
102
}
330
5E
100
DictionaryVariables
280
     0
  1
0
  0
DICTIONARYVAR
  5
12339
102
{ACAD_REACTORS
330
5E
102
}
330
5E
100
DictionaryVariables
280
     0
  1

  0
DICTIONARYVAR
  5
11880
102
{ACAD_REACTORS
330
5E
102
}
330
5E
100
DictionaryVariables
280
     0
  1
127
  0
DICTIONARY
  5
13CF9
102
{ACAD_REACTORS
330
13CF7
102
}
330
13CF7
100
AcDbDictionary
281
     1
  0
DICTIONARY
  5
13CF8
102
{ACAD_REACTORS
330
13CF7
102
}
330
13CF7
100
AcDbDictionary
281
     1
  3
2505087714976
350
13CF2
  3
2505087714992
350
13CF3
  3
2505087715008
350
13CF4
  3
2505087715024
350
13CF5
  3
2505087715040
350
13CF6
  0
DICTIONARY
  5
13CFC
330
12EFE
100
AcDbDictionary
280
     1
281
     1
  3
ACAD_XREC_ROUNDTRIP
360
13CFD
  0
DICTIONARY
  5
79B
330
78E
100
AcDbDictionary
280
     1
281
     1
  0
DICTIONARY
  5
1172C
330
1172B
100
AcDbDictionary
280
     1
281
     1
  3
BUMPTILE
360
1172E
  3
DIFFUSETILE
360
1172D
  3
OPACITYTILE
360
11731
  3
REFLECTIONTILE
360
11730
  3
REFRACTIONTILE
360
11732
  3
SPECULARTILE
360
1172F
  0
DICTIONARY
  5
11724
330
11723
100
AcDbDictionary
280
     1
281
     1
  3
BUMPTILE
360
11726
  3
DIFFUSETILE
360
11725
  3
OPACITYTILE
360
11729
  3
REFLECTIONTILE
360
11728
  3
REFRACTIONTILE
360
1172A
  3
SPECULARTILE
360
11727
  0
DICTIONARY
  5
11734
330
11733
100
AcDbDictionary
280
     1
281
     1
  3
BUMPTILE
360
11736
  3
DIFFUSETILE
360
11735
  3
OPACITYTILE
360
11739
  3
REFLECTIONTILE
360
11738
  3
REFRACTIONTILE
360
1173A
  3
SPECULARTILE
360
11737
  0
DICTIONARY
  5
13CFA
330
12EFC
100
AcDbDictionary
280
     1
281
     1
  3
ACAD_XREC_ROUNDTRIP
360
13CFB
  0
DICTIONARY
  5
1186B
330
7F
100
AcDbDictionary
280
     1
281
     1
  3
ACAD_ROUNDTRIP_2008_TABLESTYLE_CELLSTYLEMAP
360
13CF0
  0
XRECORD
  5
13CF2
102
{ACAD_REACTORS
330
13CF8
102
}
330
13CF8
100
AcDbXrecord
280
     1
  1
AcDb_Thumbnail_Schema
102
{ATTRRECORD
341
13CF3
  2
AcDbDs::TreatedAsObjectData
280
     1
291
     1
102
ATTRRECORD}
102
{ATTRRECORD
341
13CF4
  2
AcDbDs::Legacy
280
     1
291
     1
102
ATTRRECORD}
  2
AcDbDs::ID
280
    10
 91
        8
102
{ATTRRECORD
341
13CF5
  2
AcDs:Indexable
280
     1
291
     1
102
ATTRRECORD}
102
{ATTRRECORD
341
13CF6
  2
AcDbDs::HandleAttribute
280
     7
282
     1
102
ATTRRECORD}
  2
Thumbnail_Data
280
    15
 91
        0
  0
XRECORD
  5
13CF3
102
{ACAD_REACTORS
330
13CF8
102
}
330
13CF8
100
AcDbXrecord
280
     1
  1
AcDbDs::TreatedAsObjectDataSchema
  2
AcDbDs::TreatedAsObjectData
280
     1
 91
        0
  0
XRECORD
  5
13CF4
102
{ACAD_REACTORS
330
13CF8
102
}
330
13CF8
100
AcDbXrecord
280
     1
  1
AcDbDs::LegacySchema
  2
AcDbDs::Legacy
280
     1
 91
        0
  0
XRECORD
  5
13CF5
102
{ACAD_REACTORS
330
13CF8
102
}
330
13CF8
100
AcDbXrecord
280
     1
  1
AcDbDs::IndexedPropertySchema
  2
AcDs:Indexable
280
     1
 91
        0
  0
XRECORD
  5
13CF6
102
{ACAD_REACTORS
330
13CF8
102
}
330
13CF8
100
AcDbXrecord
280
     1
  1
AcDbDs::HandleAttributeSchema
  2
AcDbDs::HandleAttribute
280
     7
 91
        1
284
     1
  0
XRECORD
  5
13CFD
102
{ACAD_REACTORS
330
13CFC
102
}
330
13CFC
100
AcDbXrecord
280
     1
102
DISPLAYNAME
  1
Metric50
102
FLAGS
 90
        0
  0
XRECORD
  5
1172E
102
{ACAD_REACTORS
330
1172C
102
}
330
1172C
100
AcDbXrecord
280
     1
270
     1
271
     1
  0
XRECORD
  5
1172D
102
{ACAD_REACTORS
330
1172C
102
}
330
1172C
100
AcDbXrecord
280
     1
270
     1
271
     1
  0
XRECORD
  5
11731
102
{ACAD_REACTORS
330
1172C
102
}
330
1172C
100
AcDbXrecord
280
     1
270
     1
271
     1
  0
XRECORD
  5
11730
102
{ACAD_REACTORS
330
1172C
102
}
330
1172C
100
AcDbXrecord
280
     1
270
     1
271
     1
  0
XRECORD
  5
11732
102
{ACAD_REACTORS
330
1172C
102
}
330
1172C
100
AcDbXrecord
280
     1
270
     1
271
     1
  0
XRECORD
  5
1172F
102
{ACAD_REACTORS
330
1172C
102
}
330
1172C
100
AcDbXrecord
280
     1
270
     1
271
     1
  0
XRECORD
  5
11726
102
{ACAD_REACTORS
330
11724
102
}
330
11724
100
AcDbXrecord
280
     1
270
     1
271
     1
  0
XRECORD
  5
11725
102
{ACAD_REACTORS
330
11724
102
}
330
11724
100
AcDbXrecord
280
     1
270
     1
271
     1
  0
XRECORD
  5
11729
102
{ACAD_REACTORS
330
11724
102
}
330
11724
100
AcDbXrecord
280
     1
270
     1
271
     1
  0
XRECORD
  5
11728
102
{ACAD_REACTORS
330
11724
102
}
330
11724
100
AcDbXrecord
280
     1
270
     1
271
     1
  0
XRECORD
  5
1172A
102
{ACAD_REACTORS
330
11724
102
}
330
11724
100
AcDbXrecord
280
     1
270
     1
271
     1
  0
XRECORD
  5
11727
102
{ACAD_REACTORS
330
11724
102
}
330
11724
100
AcDbXrecord
280
     1
270
     1
271
     1
  0
XRECORD
  5
11736
102
{ACAD_REACTORS
330
11734
102
}
330
11734
100
AcDbXrecord
280
     1
270
     1
271
     1
  0
XRECORD
  5
11735
102
{ACAD_REACTORS
330
11734
102
}
330
11734
100
AcDbXrecord
280
     1
270
     1
271
     1
  0
XRECORD
  5
11739
102
{ACAD_REACTORS
330
11734
102
}
330
11734
100
AcDbXrecord
280
     1
270
     1
271
     1
  0
XRECORD
  5
11738
102
{ACAD_REACTORS
330
11734
102
}
330
11734
100
AcDbXrecord
280
     1
270
     1
271
     1
  0
XRECORD
  5
1173A
102
{ACAD_REACTORS
330
11734
102
}
330
11734
100
AcDbXrecord
280
     1
270
     1
271
     1
  0
XRECORD
  5
11737
102
{ACAD_REACTORS
330
11734
102
}
330
11734
100
AcDbXrecord
280
     1
270
     1
271
     1
  0
XRECORD
  5
13CFB
102
{ACAD_REACTORS
330
13CFA
102
}
330
13CFA
100
AcDbXrecord
280
     1
102
DISPLAYNAME
  1
Metric50
102
FLAGS
 90
        0
  0
CELLSTYLEMAP
  5
13CF0
102
{ACAD_REACTORS
330
1186B
102
}
330
1186B
100
AcDbCellStyleMap
 90
        3
300
CELLSTYLE
  1
TABLEFORMAT_BEGIN
 90
        5
170
     1
 91
        0
 92
    32768
 62
   257
 93
        1
300
CONTENTFORMAT
  1
CONTENTFORMAT_BEGIN
 90
        0
 91
        0
 92
        4
 93
        0
300

 40
0.0
140
1.0
 94
        5
 62
     0
340
11
144
6.0
309
CONTENTFORMAT_END
171
     1
301
MARGIN
  1
CELLMARGIN_BEGIN
 40
1.5
 40
1.5
 40
1.5
 40
1.5
 40
0.18
 40
0.18
309
CELLMARGIN_END
 94
        6
 95
        1
302
GRIDFORMAT
  1
GRIDFORMAT_BEGIN
 90
        0
 91
        1
 62
     0
 92
       -2
340
0
 93
        0
 40
0.045
309
GRIDFORMAT_END
 95
        2
302
GRIDFORMAT
  1
GRIDFORMAT_BEGIN
 90
        0
 91
        1
 62
     0
 92
       -2
340
0
 93
        0
 40
0.045
309
GRIDFORMAT_END
 95
        4
302
GRIDFORMAT
  1
GRIDFORMAT_BEGIN
 90
        0
 91
        1
 62
     0
 92
       -2
340
0
 93
        0
 40
0.045
309
GRIDFORMAT_END
 95
        8
302
GRIDFORMAT
  1
GRIDFORMAT_BEGIN
 90
        0
 91
        1
 62
     0
 92
       -2
340
0
 93
        0
 40
0.045
309
GRIDFORMAT_END
 95
       16
302
GRIDFORMAT
  1
GRIDFORMAT_BEGIN
 90
        0
 91
        1
 62
     0
 92
       -2
340
0
 93
        0
 40
0.045
309
GRIDFORMAT_END
 95
       32
302
GRIDFORMAT
  1
GRIDFORMAT_BEGIN
 90
        0
 91
        1
 62
     0
 92
       -2
340
0
 93
        0
 40
0.045
309
GRIDFORMAT_END
309
TABLEFORMAT_END
  1
CELLSTYLE_BEGIN
 90
        1
 91
        1
300
_TITLE
309
CELLSTYLE_END
300
CELLSTYLE
  1
TABLEFORMAT_BEGIN
 90
        5
170
     1
 91
        0
 92
        0
 62
   257
 93
        1
300
CONTENTFORMAT
  1
CONTENTFORMAT_BEGIN
 90
        0
 91
        0
 92
        4
 93
        0
300

 40
0.0
140
1.0
 94
        5
 62
     0
340
11
144
4.5
309
CONTENTFORMAT_END
171
     1
301
MARGIN
  1
CELLMARGIN_BEGIN
 40
1.5
 40
1.5
 40
1.5
 40
1.5
 40
0.18
 40
0.18
309
CELLMARGIN_END
 94
        6
 95
        1
302
GRIDFORMAT
  1
GRIDFORMAT_BEGIN
 90
        0
 91
        1
 62
     0
 92
       -2
340
0
 93
        0
 40
0.045
309
GRIDFORMAT_END
 95
        2
302
GRIDFORMAT
  1
GRIDFORMAT_BEGIN
 90
        0
 91
        1
 62
     0
 92
       -2
340
0
 93
        0
 40
0.045
309
GRIDFORMAT_END
 95
        4
302
GRIDFORMAT
  1
GRIDFORMAT_BEGIN
 90
        0
 91
        1
 62
     0
 92
       -2
340
0
 93
        0
 40
0.045
309
GRIDFORMAT_END
 95
        8
302
GRIDFORMAT
  1
GRIDFORMAT_BEGIN
 90
        0
 91
        1
 62
     0
 92
       -2
340
0
 93
        0
 40
0.045
309
GRIDFORMAT_END
 95
       16
302
GRIDFORMAT
  1
GRIDFORMAT_BEGIN
 90
        0
 91
        1
 62
     0
 92
       -2
340
0
 93
        0
 40
0.045
309
GRIDFORMAT_END
 95
       32
302
GRIDFORMAT
  1
GRIDFORMAT_BEGIN
 90
        0
 91
        1
 62
     0
 92
       -2
340
0
 93
        0
 40
0.045
309
GRIDFORMAT_END
309
TABLEFORMAT_END
  1
CELLSTYLE_BEGIN
 90
        2
 91
        1
300
_HEADER
309
CELLSTYLE_END
300
CELLSTYLE
  1
TABLEFORMAT_BEGIN
 90
        5
170
     1
 91
        0
 92
        0
 62
   257
 93
        1
300
CONTENTFORMAT
  1
CONTENTFORMAT_BEGIN
 90
        0
 91
        0
 92
        4
 93
        0
300

 40
0.0
140
1.0
 94
        2
 62
     0
340
11
144
4.5
309
CONTENTFORMAT_END
171
     1
301
MARGIN
  1
CELLMARGIN_BEGIN
 40
1.5
 40
1.5
 40
1.5
 40
1.5
 40
0.18
 40
0.18
309
CELLMARGIN_END
 94
        6
 95
        1
302
GRIDFORMAT
  1
GRIDFORMAT_BEGIN
 90
        0
 91
        1
 62
     0
 92
       -2
340
0
 93
        0
 40
0.045
309
GRIDFORMAT_END
 95
        2
302
GRIDFORMAT
  1
GRIDFORMAT_BEGIN
 90
        0
 91
        1
 62
     0
 92
       -2
340
0
 93
        0
 40
0.045
309
GRIDFORMAT_END
 95
        4
302
GRIDFORMAT
  1
GRIDFORMAT_BEGIN
 90
        0
 91
        1
 62
     0
 92
       -2
340
0
 93
        0
 40
0.045
309
GRIDFORMAT_END
 95
        8
302
GRIDFORMAT
  1
GRIDFORMAT_BEGIN
 90
        0
 91
        1
 62
     0
 92
       -2
340
0
 93
        0
 40
0.045
309
GRIDFORMAT_END
 95
       16
302
GRIDFORMAT
  1
GRIDFORMAT_BEGIN
 90
        0
 91
        1
 62
     0
 92
       -2
340
0
 93
        0
 40
0.045
309
GRIDFORMAT_END
 95
       32
302
GRIDFORMAT
  1
GRIDFORMAT_BEGIN
 90
        0
 91
        1
 62
     0
 92
       -2
340
0
 93
        0
 40
0.045
309
GRIDFORMAT_END
309
TABLEFORMAT_END
  1
CELLSTYLE_BEGIN
 90
        3
 91
        2
300
_DATA
309
CELLSTYLE_END
  0
ENDSEC
  0
SECTION
  2
ACDSDATA
 70
     2
 71
     8
  0
ACDSSCHEMA
 90
        0
  1
AcDb_Thumbnail_Schema
  2
AcDbDs::ID
280
    10
 91
        8
  2
Thumbnail_Data
280
    15
 91
        0
101
ACDSRECORD
 95
        0
 90
        1
  2
AcDbDs::TreatedAsObjectData
280
     1
291
     1
101
ACDSRECORD
 95
        0
 90
        2
  2
AcDbDs::Legacy
280
     1
291
     1
101
ACDSRECORD
  1
AcDbDs::ID
 90
        3
  2
AcDs:Indexable
280
     1
291
     1
101
ACDSRECORD
  1
AcDbDs::ID
 90
        4
  2
AcDbDs::HandleAttribute
280
     7
282
     1
  0
ACDSSCHEMA
 90
        1
  1
AcDbDs::TreatedAsObjectDataSchema
  2
AcDbDs::TreatedAsObjectData
280
     1
 91
        0
  0
ACDSSCHEMA
 90
        2
  1
AcDbDs::LegacySchema
  2
AcDbDs::Legacy
280
     1
 91
        0
  0
ACDSSCHEMA
 90
        3
  1
AcDbDs::IndexedPropertySchema
  2
AcDs:Indexable
280
     1
 91
        0
  0
ACDSSCHEMA
 90
        4
  1
AcDbDs::HandleAttributeSchema
  2
AcDbDs::HandleAttribute
280
     7
 91
        1
284
     1
  0
ACDSRECORD
 90
        0
  2
AcDbDs::ID
280
    10
320
22
  2
Thumbnail_Data
280
    15
 94
     2530
310
89504E470D0A1A0A0000000D4948445200000100000000870803000000CE6E778000000300504C5445000000FFFFFF0000000000000000000000000000000000000000000000000000000000330000660000990000CC0000FF0033000033330033660033990033CC0033FF0066000066330066660066990066CC0066FF0099
310
000099330099660099990099CC0099FF00CC0000CC3300CC6600CC9900CCCC00CCFF00FF0000FF3300FF6600FF9900FFCC00FFFF3300003300333300663300993300CC3300FF3333003333333333663333993333CC3333FF3366003366333366663366993366CC3366FF3399003399333399663399993399CC3399FF33CC00
310
33CC3333CC6633CC9933CCCC33CCFF33FF0033FF3333FF6633FF9933FFCC33FFFF6600006600336600666600996600CC6600FF6633006633336633666633996633CC6633FF6666006666336666666666996666CC6666FF6699006699336699666699996699CC6699FF66CC0066CC3366CC6666CC9966CCCC66CCFF66FF0066
310
FF3366FF6666FF9966FFCC66FFFF9900009900339900669900999900CC9900FF9933009933339933669933999933CC9933FF9966009966339966669966999966CC9966FF9999009999339999669999999999CC9999FF99CC0099CC3399CC6699CC9999CCCC99CCFF99FF0099FF3399FF6699FF9999FFCC99FFFFCC0000CC00
310
33CC0066CC0099CC00CCCC00FFCC3300CC3333CC3366CC3399CC33CCCC33FFCC6600CC6633CC6666CC6699CC66CCCC66FFCC9900CC9933CC9966CC9999CC99CCCC99FFCCCC00CCCC33CCCC66CCCC99CCCCCCCCCCFFCCFF00CCFF33CCFF66CCFF99CCFFCCCCFFFFFF0000FF0033FF0066FF0099FF00CCFF00FFFF3300FF3333
310
FF3366FF3399FF33CCFF33FFFF6600FF6633FF6666FF6699FF66CCFF66FFFF9900FF9933FF9966FF9999FF99CCFF99FFFFCC00FFCC33FFCC66FFCC99FFCCCCFFCCFFFFFF00FFFF33FFFF66FFFF99FFFFCCFFFFFF0000000D0D0D1A1A1A2828283535354343435050505D5D5D6B6B6B787878868686939393A1A1A1AEAEAEBB
310
BBBBC9C9C9D6D6D6E4E4E4F1F1F1FFFFFF0000000000000000000000000000000000000000000000000000000000003AE5ACE9000005624944415478DAED9D4B9AA4200C807321EEBF63E335728DEC477987975A6D4D11849E6FDAB6C1197E921012A40056392924BA3C0140F4E82D008F3C43AEFC3F0540ECF02F000BC070
310
001011CC1F53660580BD5F615A3E798404000F94692400AB8359ED617A6F1A0046E7EB0252939BA50253A940D91D4CEE1755DD5F13A940E815C21500ECB668004C80B16FDAB061031F20F03300B734FB8B56E0A746F0B27B83379FB00014B2F35600E7AA3237007CBB0ABC1D00EA410158ADDC364D9A48BBAFE38F29DB462A
310
0DDAED3FA0BBE4D5F556E8B7BB616BE395C8F78F009836D400403A2B1BD501D87E953E14A9A3A002AD7C190C806D53B6B0B7A87ABB591D4A00EE7AEFB702A83E725000F6662D769D56C62B00F4D1FF63E4B52C00A6FBFC5904A90EA76ADF03807BCFF7FE6BA05101684DCD8715004ACFC63E42B7001CA6E30040B6CE3C00A0
310
0B00A3041C3D574A6B1A5002D0CF029F48407A91AB00626A04C948C08846F05900692485010088B3DF88007462E4F9B44F87E8A63F860A899F83DEBF2900E838FB87A2679100EEFC4A9580FE34785105AAD3A0101BF0D92CE082A7612AE84F8343CF021F01481D007F21DB0F68A800D53D4182BCFFC618B63D411ADE13AC02
310
70CB9E722DB0F7B65C0C74D70220712D40D05A0D62ED1FE8AF06D5C0AB4104E8EDAACAE301FD1D7EAD78801A381E6023428D80880D02557FC80322FD885052860C8B7FAF84EEEAF3E8E8DC00E0E500F28CFBA0003026C8F18609E9647CD26CFAF8006E277BCF1BDC49228F220177B2DD572540880DC0AF37F81FD6EB5100D4
310
F0F85CDD0900386F45A92C7F75EA081D2E4E6CB0B7170BC08DABCAC6D307B0F262535D56E5430305241640106CE3A3525CBFD8C23B66C63A0040BF2C229800C0EECEC3E1D39B8BA4C7850A04D1D935E0A8AC6D2BD1004CB46AD70202FB151FD08E0912B8CA7444FB5CB447B004B891D461484F00140DB4701570BAACB2B055
310
5702D2065255C08774ED001EB12BCDD6AE6D00B69E8F7369A92AE013232A4E68FC613C8043D9AC10AB2BD91240AA5DB24C59AB8806D091805E7A7C060948A6C1BF19C109A6C1E806BD6F1A748E107CE608C12C8E10293FA497A6413EFE332C86145B0C85D54FE388038C95D5148B21081E90BEBA1C0E95B56400493C002AF1
310
00EE08C59B3C0428391E50CF5FB523429864C41F3EFD63C497A7DB41DD3C088CAF03002F07000BC0A400F8CBE3DDDC26BEE0F5F96E6E73BD3E3FCFEBF3639405600158008604F0B8B15B001680650316004100EE493DCE0760BB4300A501E0B12D5DC4B7F68B2D7FBABB281BD11F6DE44F0098067E2FBFF6DFCA6E56D0680E
310
40DB7769040208B97D1552FD3E3172A43DB61812C7F87655AC656F99EC885409505A25008E6D0FEA8204F804A2676293434201401300D096D80B4A6D80AFBD00C807001C005C03001C004804804F03106604F19604EC95CF00A0500950DC0F4832A2FBEF52478854D711922701E6B5E73600B32D6CE3072804D3570320CE0F
310
B8650300CE5500679E052E00987B1A5C003E00805039ABBB7512EF4C0010ABE936FF66263B8463AAC5107200702BA138E272B82CADE5B03F5BA809208C7A13C2880111C51DA1D445EA06442E0C7E49E07721B11C40725A127F9910095315C801F00D036CF4B9E5C3CACE8BDF054531EC8CF536203D260C37B65F028B56B131
310
023F49891318372A8C654C3705C04E4D2A8F8B83E444A51240F6D90C7D47F1E7002AFB60DC1D8CDFF3CA88599D131B302280E67FB3DD85337B260B404F28C2472C048D28CD41E5466716180FC0D97AB97EC164A4B6CC6C394292009C0FE1E59C791021102501E53EC16F7ED8D69000BEB01D50A204742DE6D400FE6B590016
310
80056001580016800560015800168005E0AF8F79FBA7CFCB2D0BC013CF105D609593F20F60F1F51F450A95780000000049454E44AE42608276748E5AA930166A01DF7F066B01A29C0A770DBF791924A3816FE852476C1743C1B794BB41E688ABC27A31D431FC3C80F8513831809A12F262BE550E17F65966F7A9D35FE202A5
310
63F8FE4CD058A2CBF9C2A5211D14AD47AA70F348C50687FB01F9CBB3BF54C7E81ABEBB18CA6A8168AF5AB918EA6818F75980881F54E06B51FAB320CF9410FDC3773E3F807467A2A76784A9F8E3F45281B86D01CD067DF4E7CE93A701043DC48FF3080FF3A8F4AB60F2DEE1EA64EA9B8FCBAF809B0D91E07D6402C2DF2724E8
310
1D43B0F6111A0D1B78A829DA0C3CD39786BEF5CA50BCF29090F7505BFC6D00458DFF1280D67D203FE1026B22D1F70210F162F86B009EB930C2009E04C00F557DD308FEC2E8FC6065161616161616161616161616161616161616161616969F917F8D13A1797D803C000000000049454E44AE426082
  0
ACDSRECORD
 90
        0
  2
AcDbDs::ID
280
    10
320
78E
  2
Thumbnail_Data
280
    15
 94
     2950
310
89504E470D0A1A0A0000000D4948445200000100000000B408030000004C80028300000300504C54450D0D0DFFFFFF0D0D0D0000000000000000000000000000000000000000000000000000330000660000990000CC0000FF0033000033330033660033990033CC0033FF0066000066330066660066990066CC0066FF0099
310
000099330099660099990099CC0099FF00CC0000CC3300CC6600CC9900CCCC00CCFF00FF0000FF3300FF6600FF9900FFCC00FFFF3300003300333300663300993300CC3300FF3333003333333333663333993333CC3333FF3366003366333366663366993366CC3366FF3399003399333399663399993399CC3399FF33CC00
310
33CC3333CC6633CC9933CCCC33CCFF33FF0033FF3333FF6633FF9933FFCC33FFFF6600006600336600666600996600CC6600FF6633006633336633666633996633CC6633FF6666006666336666666666996666CC6666FF6699006699336699666699996699CC6699FF66CC0066CC3366CC6666CC9966CCCC66CCFF66FF0066
310
FF3366FF6666FF9966FFCC66FFFF9900009900339900669900999900CC9900FF9933009933339933669933999933CC9933FF9966009966339966669966999966CC9966FF9999009999339999669999999999CC9999FF99CC0099CC3399CC6699CC9999CCCC99CCFF99FF0099FF3399FF6699FF9999FFCC99FFFFCC0000CC00
310
33CC0066CC0099CC00CCCC00FFCC3300CC3333CC3366CC3399CC33CCCC33FFCC6600CC6633CC6666CC6699CC66CCCC66FFCC9900CC9933CC9966CC9999CC99CCCC99FFCCCC00CCCC33CCCC66CCCC99CCCCCCCCCCFFCCFF00CCFF33CCFF66CCFF99CCFFCCCCFFFFFF0000FF0033FF0066FF0099FF00CCFF00FFFF3300FF3333
310
FF3366FF3399FF33CCFF33FFFF6600FF6633FF6666FF6699FF66CCFF66FFFF9900FF9933FF9966FF9999FF99CCFF99FFFFCC00FFCC33FFCC66FFCC99FFCCCCFFCCFFFFFF00FFFF33FFFF66FFFF99FFFFCCFFFFFF0000000D0D0D1A1A1A2828283535354343435050505D5D5D6B6B6B787878868686939393A1A1A1AEAEAEBB
310
BBBBC9C9C9D6D6D6E4E4E4F1F1F1FFFFFF000000000000000000000000000000000000000000000000000000000000D3F30D92000008414944415478DAED9D4DB6AB200C80B321F63F63E236B2807717C0FC55450910FE2A225438F77AAC0A954F12928014FEFEBD39FDFDC11F80FAA4976E77002F4E1B003501BC35691150
310
2F4D06C03B9FFE043001784A105F947800EF79FEC88A00DEFDA5FD307E0000D30A7F07404E6570BB0A098A4A05F701E03E657527806A4A106FD51BE301883CB7CF298CB6A4A600D43D00622D37DEAEFD7353070CD60B04EEFDFCE09C2217ED87DD9C389A08849E9E0BC8FF462B1F0EA7049151669821CAC82AC1662DA01600
310
5756F375594A7BDEA6046A8AC0155DF6981E6C6D0A63E1F1F14CE109A00700056273732FF03C009C005E2802F8721D50D6582680DA0024307F675AF8B10745BF912BA10040D9CD57528287C659162515F377A4E5F32FBCB139A1CFE8C495B00494DA71D4E44677DCAF1100FD24551280105E6E2192008E9A047C8B4FA93AA1
310
9082A646227064F814161081BD6CB9483EA95D4E5448045200C801ABD2AA3D8040D2672243D439D921102AA477DE29007DEEB3F12F51E739B804406EED430390DD01D08F3F00C0D1574738084B00A8AD0F5A01C8F3502B25A83B30291317C65A40CC9B394A8E00D8958906207586F101403680CF76ABB7105BED558722900F
310
C0AF61960ED876D616A0FAD401D900F03B003B03AD03E04700E87D7D01A600C033DD201600608CB3D5160E46802900D7123E3F5F0500750048691B379CC5A7761D651F14F45AA3002DDB7ED5824CD87DFF62250249360180585504B871E3B305E02D2DA0671D00453AE0079560592F60BAC147005C35845C03D8149D650849
310
6A088D6807B80630F990E70BD016D0A32F1077867C0B987C18C417B8E40E2B85418F08735BC097DE600B1148074430963BD317E8371EA0A217AC873176BFB9BD400776C0C33141B023A1CD00E011F68F4785574B988B0A5BA172B6845058DC8D0AAF45954785AB8D0B601240685C200520F1C521D5D27A783CD0807D590E88
310
784609511134DA2FB7268FBC2F503F4D00C5272680BB01E0F166C495221030EF5EAC20223733B5A11234DA19AE4DF22B992688CE373F0FC027F055117B1B4817F1FDE4CAFB74C0F5799E0525F4A9031E2F21EF5B26805B0060C2AB8B1DC6965D71655F401D7E0D86DFD64FF802EE7880F6A054EF00CE2729F8024E5F8DF706
310
8F193EA7B6A325888C60E3C322400322629DD576DAE4DA323F672EF1E1001780558280B10080D89D503628C7CE5CB30FAE0DC02B61240052ADF11DBAB5EA2A781D400B931F05E094301080F56E850ECB4A3255E1BC20636C90E415FBBEEA5D096A49DFA7A64810B4F6AA10809377DBA6C79CBA00006A6BB1D2DB1600089430
310
8E08E867266AB40071EE0FA203CCA0A4DCEC01E9C5A872009CB984D9BF59042A2B413886A82E01101461E72DC0CC105948A52F02B0DAD0D2772F60E6088954E2E708A593BA49066ACF115A6C139E73FBB2274AD2FCCB5086501D111849073886D0DE9509CE1DC8EC06B7AD20FBC3F402BE23F09521B46FC534845A194250D7
310
108A0F8EE6E880E34F1C3BC3F802BB37B8DDF8D7DEA064FCA1B7C503E4C0F1002716541E11D2F18023AF182E220442DA3E4D414C509C3141A784EE01200D8A7229366DC73AE70F8135088AD61B17C848AC0EB00701836F56760B203B637A642830083AE46A72051724579B7A130098002680D6006002982270D3A2AA91B551
310
63B3B9065E5334510D7BE9CC2029F40F8C02E0E58BAA8E97E6F2FA13C01481096002680EE05C38FAF95F99784609623F3FB331013CF22B33D80F81A9042780F600969E103FA104AF893C760C40E61D5CBE2A48DE09405D9E24B58DE748EB0D70B3472E5D3F3000E8356E6EB277437F5109C076E3EB8486730CF41CEC93CE0C
310
91D89AA2FB25FB7C000FC076A67A7F5969A26401002116179F102E00B605740EE018E9DE0E1C8B98D163FB6725DD653410D735D6E835248F54673E752CB4D6A112DC5B8090E7C8B759C54D487B51930C1150644E18DDD3AB2D41C700C007002E007B36E97E0B9E1284C600D48300F08700080E00C40120070018003001FC28
310
00E801003C0700F0ED00008617016D9B58EF7DC8C072568C25E82EABEBAE2A65190B3D5A82FBB22DCE8B2F1680D314DC5F8F59D865756977170220FB34854D0BB85F04BA76869AE8009C4A700278B7084C0078A5B2BF0560FB455BEB578AEDA1261D3D397601B9D5DDDABBC35901912C77F804C0D63F73B2554D25083C0028
310
8D0ADBD5267B2ADC8E8D4586F63A4CFAE011BCF6AA570F40664C3098123141F2E30B491100D3FAF99168BC272C4EED5F49F6AC1620185FC05E282A3B2A1C1601C81784CA03233E006760E47395FF42CCE7183A41D1B28111D4810544B2A0241107EBA9BB2B2E561B1C453AA2457500DA8D0517DE9D225F2ED97200FD7BF39F
310
2C26FB3FACDF0BF89964E0C40100A300902907B3007CF1C25FB5C1510C7D40EE86ADFE2C0880398C9C009AF05A27008253E1C9DD5A7BFCAAA8189A5DCE2A41CF0C6A670A7B4FEB7900B9F2501340469F93BED96F27CD63A0736E08A0C064F0C4E4AB3047C217C86B02ED01588F9AD519E05C81290011F3A7A512BC2224ECBD
310
96D4E2EC04488F52A0039A4D920A3CF578FD0B7F79FE8980C8B75DC5D7B79DA32F73DF457A0A00560140669E931F66A22D87BA878EABB89B63CD9560B597C2420080016099A0E6D0A3227045726B8BC0982F4D91F88F718A694338554DD480FA150011D3320D60CCD9E2DC0FB01271CFABCB4F00888A381F40C2DF6B0160BD
310
8BE55F1592901F048061007004C9B16F259837BEF1C3DD2072913F30A15F00CCBECB217B8140B4DF69E33F0E80A8340802600281679E50107508006683A6458019E92500A80B046648188E1E704C00794A90BA3878680ED364C01694A37FE486C6E037BAC10273E98D008A44E0458905F0AA340110002F4D4609AAF7225801
310
FC7B735A01BC3CFD0714F9B79E098984E10000000049454E44AE426082
  0
ENDSEC
  0
EOF
