  0
SECTION
  2
HEADER
  9
$ACADVER
  1
AC1027
  9
$ACADMAINTVER
 70
   125
  9
$DWGCODEPAGE
  3
ANSI_932
  9
$LASTSAVEDBY
  1
D-mishima
  9
$REQUIREDVERSIONS
160
                 0
  9
$INSBASE
 10
0.0
 20
0.0
 30
0.0
  9
$EXTMIN
 10
0.0
 20
0.0
 30
0.0
  9
$EXTMAX
 10
4200.0
 20
2970.0
 30
0.0
  9
$LIMMIN
 10
0.0
 20
0.0
  9
$LIMMAX
 10
4200.0
 20
2970.0
  9
$ORTHOMODE
 70
     1
  9
$REGENMODE
 70
     1
  9
$FILLMODE
 70
     1
  9
$QTEXTMODE
 70
     0
  9
$MIRRTEXT
 70
     0
  9
$LTSCALE
 40
0.1
  9
$ATTMODE
 70
     1
  9
$TEXTSIZE
 40
37.5
  9
$TRACEWID
 40
1.0
  9
$TEXTSTYLE
  7
Standard
  9
$CLAYER
  8
実線
  9
$CELTYPE
  6
ByLayer
  9
$CECOLOR
 62
   256
  9
$CELTSCALE
 40
1.0
  9
$DISPSILH
 70
     0
  9
$DIMSCALE
 40
10.0
  9
$DIMASZ
 40
2.0
  9
$DIMEXO
 40
0.875
  9
$DIMDLI
 40
10.0
  9
$DIMRND
 40
0.0
  9
$DIMDLE
 40
0.0
  9
$DIMEXE
 40
1.0
  9
$DIMTP
 40
0.0
  9
$DIMTM
 40
0.0
  9
$DIMTXT
 40
2.5
  9
$DIMCEN
 40
0.0
  9
$DIMTSZ
 40
0.0
  9
$DIMTOL
 70
     0
  9
$DIMLIM
 70
     0
  9
$DIMTIH
 70
     0
  9
$DIMTOH
 70
     0
  9
$DIMSE1
 70
     0
  9
$DIMSE2
 70
     0
  9
$DIMTAD
 70
     1
  9
$DIMZIN
 70
     8
  9
$DIMBLK
  1

  9
$DIMASO
 70
     1
  9
$DIMSHO
 70
     1
  9
$DIMPOST
  1

  9
$DIMAPOST
  1

  9
$DIMALT
 70
     0
  9
$DIMALTD
 70
     2
  9
$DIMALTF
 40
25.4
  9
$DIMLFAC
 40
1.0
  9
$DIMTOFL
 70
     1
  9
$DIMTVP
 40
0.0
  9
$DIMTIX
 70
     0
  9
$DIMSOXD
 70
     0
  9
$DIMSAH
 70
     1
  9
$DIMBLK1
  1
OPEN
  9
$DIMBLK2
  1
OPEN
  9
$DIMSTYLE
  2
STANDARD
  9
$DIMCLRD
 70
     0
  9
$DIMCLRE
 70
     0
  9
$DIMCLRT
 70
     0
  9
$DIMTFAC
 40
1.0
  9
$DIMGAP
 40
0.875
  9
$DIMJUST
 70
     0
  9
$DIMSD1
 70
     0
  9
$DIMSD2
 70
     0
  9
$DIMTOLJ
 70
     1
  9
$DIMTZIN
 70
     0
  9
$DIMALTZ
 70
     0
  9
$DIMALTTZ
 70
     0
  9
$DIMUPT
 70
     0
  9
$DIMDEC
 70
     3
  9
$DIMTDEC
 70
     3
  9
$DIMALTU
 70
     2
  9
$DIMALTTD
 70
     2
  9
$DIMTXSTY
  7
Standard
  9
$DIMAUNIT
 70
     0
  9
$DIMADEC
 70
     0
  9
$DIMALTRND
 40
0.0
  9
$DIMAZIN
 70
     0
  9
$DIMDSEP
 70
    46
  9
$DIMATFIT
 70
     3
  9
$DIMFRAC
 70
     0
  9
$DIMLDRBLK
  1
OPEN
  9
$DIMLUNIT
 70
     2
  9
$DIMLWD
 70
    -2
  9
$DIMLWE
 70
    -2
  9
$DIMTMOVE
 70
     0
  9
$DIMFXL
 40
1.0
  9
$DIMFXLON
 70
     0
  9
$DIMJOGANG
 40
1.570796326794896
  9
$DIMTFILL
 70
     0
  9
$DIMTFILLCLR
 70
     0
  9
$DIMARCSYM
 70
     0
  9
$DIMLTYPE
  6

  9
$DIMLTEX1
  6

  9
$DIMLTEX2
  6

  9
$DIMTXTDIRECTION
 70
     0
  9
$LUNITS
 70
     2
  9
$LUPREC
 70
     4
  9
$SKETCHINC
 40
1.0
  9
$FILLETRAD
 40
0.0
  9
$AUNITS
 70
     0
  9
$AUPREC
 70
     0
  9
$MENU
  1
.
  9
$ELEVATION
 40
0.0
  9
$PELEVATION
 40
0.0
  9
$THICKNESS
 40
0.0
  9
$LIMCHECK
 70
     0
  9
$CHAMFERA
 40
0.0
  9
$CHAMFERB
 40
0.0
  9
$CHAMFERC
 40
0.0
  9
$CHAMFERD
 40
0.0
  9
$SKPOLY
 70
     0
  9
$TDCREATE
 40
2454064.449062500
  9
$TDUCREATE
 40
2454064.074062859
  9
$TDUPDATE
 40
2460315.476331018
  9
$TDUUPDATE
 40
2460315.101331019
  9
$TDINDWG
 40
3.1747302894
  9
$TDUSRTIMER
 40
3.1747082407
  9
$USRTIMER
 70
     1
  9
$ANGBASE
 50
0.0
  9
$ANGDIR
 70
     0
  9
$PDMODE
 70
     0
  9
$PDSIZE
 40
0.0
  9
$PLINEWID
 40
0.0
  9
$SPLFRAME
 70
     0
  9
$SPLINETYPE
 70
     6
  9
$SPLINESEGS
 70
     8
  9
$HANDSEED
  5
152F7
  9
$SURFTAB1
 70
     6
  9
$SURFTAB2
 70
     6
  9
$SURFTYPE
 70
     6
  9
$SURFU
 70
     6
  9
$SURFV
 70
     6
  9
$UCSBASE
  2

  9
$UCSNAME
  2

  9
$UCSORG
 10
0.0
 20
0.0
 30
0.0
  9
$UCSXDIR
 10
1.0
 20
0.0
 30
0.0
  9
$UCSYDIR
 10
0.0
 20
1.0
 30
0.0
  9
$UCSORTHOREF
  2

  9
$UCSORTHOVIEW
 70
     0
  9
$UCSORGTOP
 10
0.0
 20
0.0
 30
0.0
  9
$UCSORGBOTTOM
 10
0.0
 20
0.0
 30
0.0
  9
$UCSORGLEFT
 10
0.0
 20
0.0
 30
0.0
  9
$UCSORGRIGHT
 10
0.0
 20
0.0
 30
0.0
  9
$UCSORGFRONT
 10
0.0
 20
0.0
 30
0.0
  9
$UCSORGBACK
 10
0.0
 20
0.0
 30
0.0
  9
$PUCSBASE
  2

  9
$PUCSNAME
  2

  9
$PUCSORG
 10
0.0
 20
0.0
 30
0.0
  9
$PUCSXDIR
 10
1.0
 20
0.0
 30
0.0
  9
$PUCSYDIR
 10
0.0
 20
1.0
 30
0.0
  9
$PUCSORTHOREF
  2

  9
$PUCSORTHOVIEW
 70
     0
  9
$PUCSORGTOP
 10
0.0
 20
0.0
 30
0.0
  9
$PUCSORGBOTTOM
 10
0.0
 20
0.0
 30
0.0
  9
$PUCSORGLEFT
 10
0.0
 20
0.0
 30
0.0
  9
$PUCSORGRIGHT
 10
0.0
 20
0.0
 30
0.0
  9
$PUCSORGFRONT
 10
0.0
 20
0.0
 30
0.0
  9
$PUCSORGBACK
 10
0.0
 20
0.0
 30
0.0
  9
$USERI1
 70
     0
  9
$USERI2
 70
     0
  9
$USERI3
 70
     0
  9
$USERI4
 70
     0
  9
$USERI5
 70
     0
  9
$USERR1
 40
0.0
  9
$USERR2
 40
0.0
  9
$USERR3
 40
0.0
  9
$USERR4
 40
0.0
  9
$USERR5
 40
0.0
  9
$WORLDVIEW
 70
     1
  9
$SHADEDGE
 70
     3
  9
$SHADEDIF
 70
    70
  9
$TILEMODE
 70
     0
  9
$MAXACTVP
 70
    64
  9
$PINSBASE
 10
0.0
 20
0.0
 30
0.0
  9
$PLIMCHECK
 70
     0
  9
$PEXTMIN
 10
0.0000000000000853
 20
0.0
 30
0.0
  9
$PEXTMAX
 10
408.1991586685179
 20
285.1784963607788
 30
0.0
  9
$PLIMMIN
 10
-5.873748779296875
 20
-5.873749732971191
  9
$PLIMMAX
 10
414.0729064941406
 20
291.0522451400757
  9
$UNITMODE
 70
     0
  9
$VISRETAIN
 70
     1
  9
$PLINEGEN
 70
     0
  9
$PSLTSCALE
 70
     1
  9
$TREEDEPTH
 70
  3020
  9
$CMLSTYLE
  2
Standard
  9
$CMLJUST
 70
     0
  9
$CMLSCALE
 40
20.0
  9
$PROXYGRAPHICS
 70
     1
  9
$MEASUREMENT
 70
     1
  9
$CELWEIGHT
370
    -1
  9
$ENDCAPS
280
     0
  9
$JOINSTYLE
280
     0
  9
$LWDISPLAY
290
     0
  9
$INSUNITS
 70
     4
  9
$HYPERLINKBASE
  1

  9
$STYLESHEET
  1
SANKENTC.CTB
  9
$XEDIT
290
     1
  9
$CEPSNTYPE
380
     0
  9
$PSTYLEMODE
290
     1
  9
$FINGERPRINTGUID
  2
{072871F0-2771-4C56-B9BD-B27D0F751D9A}
  9
$VERSIONGUID
  2
{6404B2E6-C4ED-E94F-9F80-F71ED72F5988}
  9
$EXTNAMES
290
     1
  9
$PSVPSCALE
 40
0.0
  9
$OLESTARTUP
290
     0
  9
$SORTENTS
280
   127
  9
$INDEXCTL
280
     0
  9
$HIDETEXT
280
     1
  9
$XCLIPFRAME
280
     2
  9
$HALOGAP
280
     0
  9
$OBSCOLOR
 70
   257
  9
$OBSLTYPE
280
     0
  9
$INTERSECTIONDISPLAY
280
     0
  9
$INTERSECTIONCOLOR
 70
   257
  9
$DIMASSOC
280
     2
  9
$PROJECTNAME
  1

  9
$CAMERADISPLAY
290
     0
  9
$LENSLENGTH
 40
50.0
  9
$CAMERAHEIGHT
 40
0.0
  9
$STEPSPERSEC
 40
2.0
  9
$STEPSIZE
 40
6.0
  9
$3DDWFPREC
 40
2.0
  9
$PSOLWIDTH
 40
0.25
  9
$PSOLHEIGHT
 40
4.0
  9
$LOFTANG1
 40
1.570796326794896
  9
$LOFTANG2
 40
1.570796326794896
  9
$LOFTMAG1
 40
0.0
  9
$LOFTMAG2
 40
0.0
  9
$LOFTPARAM
 70
     7
  9
$LOFTNORMALS
280
     1
  9
$LATITUDE
 40
37.795
  9
$LONGITUDE
 40
-122.394
  9
$NORTHDIRECTION
 40
0.0
  9
$TIMEZONE
 70
 -8000
  9
$LIGHTGLYPHDISPLAY
280
     1
  9
$TILEMODELIGHTSYNCH
280
     1
  9
$CMATERIAL
347
B3D9
  9
$SOLIDHIST
280
     0
  9
$SHOWHIST
280
     1
  9
$DWFFRAME
280
     2
  9
$DGNFRAME
280
     0
  9
$REALWORLDSCALE
290
     1
  9
$INTERFERECOLOR
 62
     1
  9
$INTERFEREOBJVS
345
B3FB
  9
$INTERFEREVPVS
346
12A21
  9
$CSHADOW
280
     0
  9
$SHADOWPLANELOCATION
 40
0.0
  0
ENDSEC
  0
SECTION
  2
CLASSES
  0
CLASS
  1
ACDBDICTIONARYWDFLT
  2
AcDbDictionaryWithDefault
  3
ObjectDBX Classes
 90
        0
 91
        1
280
     0
281
     0
  0
CLASS
  1
DICTIONARYVAR
  2
AcDbDictionaryVar
  3
ObjectDBX Classes
 90
        0
 91
       15
280
     0
281
     0
  0
CLASS
  1
TABLESTYLE
  2
AcDbTableStyle
  3
ObjectDBX Classes
 90
     4095
 91
        1
280
     0
281
     0
  0
CLASS
  1
DIMASSOC
  2
AcDbDimAssoc
  3
"AcDbDimAssoc|Product Desc:     AcDim ARX App For Dimension|Company:          Autodesk, Inc.|WEB Address:      www.autodesk.com"
 90
        0
 91
        0
280
     0
281
     0
  0
CLASS
  1
SORTENTSTABLE
  2
AcDbSortentsTable
  3
ObjectDBX Classes
 90
        0
 91
        3
280
     0
281
     0
  0
CLASS
  1
MATERIAL
  2
AcDbMaterial
  3
ObjectDBX Classes
 90
     1153
 91
        3
280
     0
281
     0
  0
CLASS
  1
VISUALSTYLE
  2
AcDbVisualStyle
  3
ObjectDBX Classes
 90
     4095
 91
       26
280
     0
281
     0
  0
CLASS
  1
SCALE
  2
AcDbScale
  3
ObjectDBX Classes
 90
     1153
 91
       17
280
     0
281
     0
  0
CLASS
  1
MLEADERSTYLE
  2
AcDbMLeaderStyle
  3
ACDB_MLEADERSTYLE_CLASS
 90
     4095
 91
        1
280
     0
281
     0
  0
CLASS
  1
AEC_REFEDIT_STATUS_TRACKER
  2
AecDbRefEditStatusTracker
  3
AecArchBase80|Product Desc: Autodesk Architectural Desktop 2007 |Company: Autodesk,Inc. |WEB Address: www.autodesk.com
 90
      129
 91
        0
280
     0
281
     0
  0
CLASS
  1
NPOCOLLECTION
  2
AcDbImpNonPersistentObjectsCollection
  3
ObjectDBX Classes
 90
     1153
 91
        0
280
     0
281
     0
  0
CLASS
  1
CELLSTYLEMAP
  2
AcDbCellStyleMap
  3
ObjectDBX Classes
 90
     1152
 91
        1
280
     0
281
     0
  0
CLASS
  1
ACDBSECTIONVIEWSTYLE
  2
AcDbSectionViewStyle
  3
ObjectDBX Classes
 90
     1025
 91
        1
280
     0
281
     0
  0
CLASS
  1
ACDBDETAILVIEWSTYLE
  2
AcDbDetailViewStyle
  3
ObjectDBX Classes
 90
     1025
 91
        1
280
     0
281
     0
  0
ENDSEC
  0
SECTION
  2
TABLES
  0
TABLE
  2
VPORT
  5
8
102
{ACAD_XDICTIONARY
360
B651
102
}
330
0
100
AcDbSymbolTable
 70
     1
1001
ACAD
1000
DbSaveVer
1071
      278
  0
VPORT
  5
BAAB
330
8
100
AcDbSymbolTableRecord
100
AcDbViewportTableRecord
  2
*Active
 70
     0
 10
0.0
 20
0.0
 11
1.0
 21
1.0
 12
2100.000009778887
 22
1485.000006915069
 13
0.0
 23
0.0
 14
10.0
 24
10.0
 15
10.0
 25
10.0
 16
0.0
 26
0.0
 36
1.0
 17
0.0
 27
0.0
 37
0.0
 40
2994.864221293063
 41
1.897364771151178
 42
50.0
 43
0.0
 44
0.0
 50
0.0
 51
0.0
 71
     0
 72
  1000
 73
     1
 74
     3
 75
     0
 76
     0
 77
     0
 78
     0
281
     0
 65
     1
110
0.0
120
0.0
130
0.0
111
1.0
121
0.0
131
0.0
112
0.0
122
1.0
132
0.0
 79
     0
146
0.0
348
B3F7
 60
     3
 61
     5
292
     1
282
     1
141
0.0
142
0.0
 63
   250
421
  3355443
1001
ACAD_NAV_VCDISPLAY
1070
     3
  0
ENDTAB
  0
TABLE
  2
LTYPE
  5
5
330
0
100
AcDbSymbolTable
 70
     4
  0
LTYPE
  5
14
330
5
100
AcDbSymbolTableRecord
100
AcDbLinetypeTableRecord
  2
ByBlock
 70
     0
  3

 72
    65
 73
     0
 40
0.0
  0
LTYPE
  5
15
330
5
100
AcDbSymbolTableRecord
100
AcDbLinetypeTableRecord
  2
ByLayer
 70
     0
  3

 72
    65
 73
     0
 40
0.0
  0
LTYPE
  5
16
330
5
100
AcDbSymbolTableRecord
100
AcDbLinetypeTableRecord
  2
Continuous
 70
     0
  3
Solid line
 72
    65
 73
     0
 40
0.0
  0
LTYPE
  5
1D4
330
5
100
AcDbSymbolTableRecord
100
AcDbLinetypeTableRecord
  2
PHANTOM
 70
     0
  3
Phantom ______  __  __  ______  __  __  ______
 72
    65
 73
     6
 40
63.5
 49
31.75
 74
     0
 49
-6.349999999999997
 74
     0
 49
6.349999999999997
 74
     0
 49
-6.349999999999997
 74
     0
 49
6.349999999999997
 74
     0
 49
-6.349999999999997
 74
     0
  0
LTYPE
  5
1D5
330
5
100
AcDbSymbolTableRecord
100
AcDbLinetypeTableRecord
  2
CENTER
 70
     0
  3
Center ____ _ ____ _ ____ _ ____ _ ____ _ ____
 72
    65
 73
     4
 40
50.8
 49
31.75
 74
     0
 49
-6.349999999999997
 74
     0
 49
6.349999999999997
 74
     0
 49
-6.349999999999997
 74
     0
  0
LTYPE
  5
1D7
330
5
100
AcDbSymbolTableRecord
100
AcDbLinetypeTableRecord
  2
DASHED
 70
     0
  3
Dashed __ __ __ __ __ __ __ __ __ __ __ __ __ _
 72
    65
 73
     2
 40
19.05
 49
12.7
 74
     0
 49
-6.349999999999997
 74
     0
  0
ENDTAB
  0
TABLE
  2
LAYER
  5
2
102
{ACAD_XDICTIONARY
360
11D
102
}
330
0
100
AcDbSymbolTable
 70
     8
  0
LAYER
  5
10
102
{ACAD_XDICTIONARY
360
B637
102
}
330
2
100
AcDbSymbolTableRecord
100
AcDbLayerTableRecord
  2
0
 70
     0
 62
     7
  6
Continuous
370
    -3
390
F
347
B3E9
348
0
  0
LAYER
  5
13F
330
2
100
AcDbSymbolTableRecord
100
AcDbLayerTableRecord
  2
Defpoints
 70
     0
 62
     7
  6
Continuous
290
     0
370
    -3
390
F
347
B3E9
348
0
  0
LAYER
  5
1BF
102
{ACAD_XDICTIONARY
360
B63B
102
}
330
2
100
AcDbSymbolTableRecord
100
AcDbLayerTableRecord
  2
図面枠
 70
     0
 62
     2
  6
Continuous
370
    -3
390
F
347
B3E9
348
0
1001
AcAecLayerStandard
1000

1000

  0
LAYER
  5
1C1
102
{ACAD_XDICTIONARY
360
B63F
102
}
330
2
100
AcDbSymbolTableRecord
100
AcDbLayerTableRecord
  2
仮想線
 70
     0
 62
     6
  6
PHANTOM
370
    -3
390
F
347
B3E9
348
0
1001
AcAecLayerStandard
1000

1000

  0
LAYER
  5
1C3
102
{ACAD_XDICTIONARY
360
B643
102
}
330
2
100
AcDbSymbolTableRecord
100
AcDbLayerTableRecord
  2
寸法線
 70
     0
 62
     2
  6
Continuous
370
    -3
390
F
347
B3E9
348
0
1001
AcAecLayerStandard
1000

1000

  0
LAYER
  5
1C4
102
{ACAD_XDICTIONARY
360
B645
102
}
330
2
100
AcDbSymbolTableRecord
100
AcDbLayerTableRecord
  2
中心線
 70
     0
 62
     1
  6
CENTER
370
    -3
390
F
347
B3E9
348
0
1001
AcAecLayerStandard
1000

1000

  0
LAYER
  5
1C5
102
{ACAD_XDICTIONARY
360
B647
102
}
330
2
100
AcDbSymbolTableRecord
100
AcDbLayerTableRecord
  2
破線
 70
     0
 62
     4
  6
DASHED
370
    -3
390
F
347
B3E9
348
0
1001
AcAecLayerStandard
1000

1000

  0
LAYER
  5
82E
102
{ACAD_XDICTIONARY
360
B649
102
}
330
2
100
AcDbSymbolTableRecord
100
AcDbLayerTableRecord
  2
実線
 70
     0
 62
     7
  6
Continuous
370
    -3
390
F
347
B3E9
348
0
1001
AcAecLayerStandard
1000

1000

  0
ENDTAB
  0
TABLE
  2
STYLE
  5
3
330
0
100
AcDbSymbolTable
 70
     1
  0
STYLE
  5
11
330
3
100
AcDbSymbolTableRecord
100
AcDbTextStyleTableRecord
  2
Standard
 70
     0
 40
0.0
 41
1.0
 50
0.0
 71
     0
 42
37.5
  3
isocp.shx
  4
extfont2.shx
  0
ENDTAB
  0
TABLE
  2
VIEW
  5
6
330
0
100
AcDbSymbolTable
 70
     0
  0
ENDTAB
  0
TABLE
  2
UCS
  5
7
330
0
100
AcDbSymbolTable
 70
     0
  0
ENDTAB
  0
TABLE
  2
APPID
  5
9
330
0
100
AcDbSymbolTable
 70
    19
  0
APPID
  5
12
330
9
100
AcDbSymbolTableRecord
100
AcDbRegAppTableRecord
  2
ACAD
 70
     0
  0
APPID
  5
9E
330
9
100
AcDbSymbolTableRecord
100
AcDbRegAppTableRecord
  2
ACAD_PSEXT
 70
     0
  0
APPID
  5
1BE
330
9
100
AcDbSymbolTableRecord
100
AcDbRegAppTableRecord
  2
AcAecLayerStandard
 70
     0
  0
APPID
  5
1FF
330
9
100
AcDbSymbolTableRecord
100
AcDbRegAppTableRecord
  2
ACAD_EXEMPT_FROM_CAD_STANDARDS
 70
     0
  0
APPID
  5
1318
330
9
100
AcDbSymbolTableRecord
100
AcDbRegAppTableRecord
  2
ACAD_DSTYLE_DIMTEXT_FILL
 70
     0
  0
APPID
  5
1319
330
9
100
AcDbSymbolTableRecord
100
AcDbRegAppTableRecord
  2
ACAD_DSTYLE_DIMEXT_LENGTH
 70
     0
  0
APPID
  5
131A
330
9
100
AcDbSymbolTableRecord
100
AcDbRegAppTableRecord
  2
ACAD_DSTYLE_DIMEXT_ENABLED
 70
     0
  0
APPID
  5
131B
330
9
100
AcDbSymbolTableRecord
100
AcDbRegAppTableRecord
  2
ACAD_DSTYLE_DIM_LINETYPE
 70
     0
  0
APPID
  5
131C
330
9
100
AcDbSymbolTableRecord
100
AcDbRegAppTableRecord
  2
ACAD_DSTYLE_DIM_EXT1_LINETYPE
 70
     0
  0
APPID
  5
131D
330
9
100
AcDbSymbolTableRecord
100
AcDbRegAppTableRecord
  2
ACAD_DSTYLE_DIM_EXT2_LINETYPE
 70
     0
  0
APPID
  5
1439
330
9
100
AcDbSymbolTableRecord
100
AcDbRegAppTableRecord
  2
ACAD_DSTYLE_DIMJOGGED_JOGANGLE_SYMBOL
 70
     0
  0
APPID
  5
1CB2
330
9
100
AcDbSymbolTableRecord
100
AcDbRegAppTableRecord
  2
ACAD_DSTYLE_DIMARC_LENGTH_SYMBOL
 70
     0
  0
APPID
  5
356E
330
9
100
AcDbSymbolTableRecord
100
AcDbRegAppTableRecord
  2
ACAD_DIMASSOC_CALC_DIMLFAC
 70
     0
  0
APPID
  5
356F
330
9
100
AcDbSymbolTableRecord
100
AcDbRegAppTableRecord
  2
ACAD_DIMASSOC_DIMLFAC
 70
     0
  0
APPID
  5
3570
330
9
100
AcDbSymbolTableRecord
100
AcDbRegAppTableRecord
  2
ACAD_DIMASSOC_OVERRIDDEN_DIMLFAC
 70
     0
  0
APPID
  5
B416
330
9
100
AcDbSymbolTableRecord
100
AcDbRegAppTableRecord
  2
ACAD_MLEADERVER
 70
     0
  0
APPID
  5
12BFD
330
9
100
AcDbSymbolTableRecord
100
AcDbRegAppTableRecord
  2
ACAD_NAV_VCDISPLAY
 70
     0
  0
APPID
  5
134B6
330
9
100
AcDbSymbolTableRecord
100
AcDbRegAppTableRecord
  2
ACAD_DSTYLE_DIMJAG
 70
     0
  0
APPID
  5
134B7
330
9
100
AcDbSymbolTableRecord
100
AcDbRegAppTableRecord
  2
ACAD_DSTYLE_DIMTALN
 70
     0
  0
ENDTAB
  0
TABLE
  2
DIMSTYLE
  5
A
330
0
100
AcDbSymbolTable
 70
     1
100
AcDbDimStyleTable
 71
     1
340
C0F
  0
DIMSTYLE
105
C0F
102
{ACAD_REACTORS
330
12E38
330
12E39
330
12E3A
330
12E3B
330
12E3C
330
12E3D
330
12E3E
330
12E40
330
12E41
330
13065
330
12E96
330
12E97
330
12E98
330
12E99
330
12F5D
330
12F5E
330
12F93
330
12F94
330
12FC4
330
14359
330
14361
330
14283
330
14284
330
14285
330
14286
330
14287
330
14288
330
14289
330
14295
330
142B7
330
142B9
330
142C4
330
142C6
330
142C7
330
142C8
330
142FF
330
14300
330
14303
330
14308
330
14309
330
1430A
330
1430B
330
15094
102
}
330
A
100
AcDbSymbolTableRecord
100
AcDbDimStyleTableRecord
  2
STANDARD
 70
     0
 40
10.0
 41
2.0
 42
0.875
 43
10.0
 44
1.0
 50
89.99999999999998
 73
     0
 74
     0
 77
     1
 78
     8
140
2.5
141
0.0
147
0.875
172
     1
173
     1
271
     3
272
     3
340
11
341
C08
343
C08
344
C08
1001
ACAD_DSTYLE_DIMJOGGED_JOGANGLE_SYMBOL
1070
   384
1040
1.570796326794896
  0
ENDTAB
  0
TABLE
  2
BLOCK_RECORD
  5
1
330
0
100
AcDbSymbolTable
 70
    44
  0
BLOCK_RECORD
  5
1F
102
{ACAD_XDICTIONARY
360
5C91
102
}
330
1
100
AcDbSymbolTableRecord
100
AcDbBlockTableRecord
  2
*Model_Space
340
22
 70
     0
280
     1
281
     0
  0
BLOCK_RECORD
  5
78D
102
{ACAD_XDICTIONARY
360
A1A8
102
}
330
1
100
AcDbSymbolTableRecord
100
AcDbBlockTableRecord
  2
*Paper_Space
340
78E
 70
     0
280
     1
281
     0
  0
BLOCK_RECORD
  5
C08
102
{ACAD_XDICTIONARY
360
B956
102
}
330
1
100
AcDbSymbolTableRecord
100
AcDbBlockTableRecord
  2
_OPEN
340
0
102
{BLKREFS
331
15110
331
15111
331
15119
331
1511A
331
15124
331
15125
331
1512D
331
1512E
331
15136
331
15137
331
1513F
331
15140
331
15149
331
1514A
331
15153
331
15154
331
1515E
331
1515F
331
15167
331
15168
331
15170
331
15171
331
15179
331
1517A
331
15184
331
15185
331
12F97
331
1527A
331
1527B
331
15285
331
15286
331
1528F
331
15290
331
15298
331
15299
331
152A3
331
152A4
331
15107
331
15108
331
1518F
331
15190
331
15198
331
15199
331
151A1
331
151A2
331
151AC
331
151AD
331
151B5
331
151B6
331
151C1
331
151C2
331
151CA
331
151CB
331
151D5
331
151D6
331
151E0
331
151E1
331
151E9
331
151EA
331
151F4
331
151F5
331
151FD
331
151FE
331
15206
331
15207
331
1520F
331
15210
331
15218
331
15219
331
15223
331
15224
331
1522C
331
1522D
331
15237
331
15238
331
15242
331
15243
331
1524B
331
1524C
331
15254
331
15255
331
1525D
331
1525E
331
15266
331
15267
331
15271
331
15272
102
}
 70
     0
280
     1
281
     0
  0
BLOCK_RECORD
  5
13066
330
1
100
AcDbSymbolTableRecord
100
AcDbBlockTableRecord
  2
*D1
340
0
 70
     0
280
     1
281
     0
  0
BLOCK_RECORD
  5
13072
330
1
100
AcDbSymbolTableRecord
100
AcDbBlockTableRecord
  2
*D2
340
0
 70
     0
280
     1
281
     0
  0
BLOCK_RECORD
  5
1307E
330
1
100
AcDbSymbolTableRecord
100
AcDbBlockTableRecord
  2
*D3
340
0
 70
     0
280
     1
281
     0
  0
BLOCK_RECORD
  5
1308A
330
1
100
AcDbSymbolTableRecord
100
AcDbBlockTableRecord
  2
*D4
340
0
 70
     0
280
     1
281
     0
  0
BLOCK_RECORD
  5
13098
330
1
100
AcDbSymbolTableRecord
100
AcDbBlockTableRecord
  2
*D5
340
0
 70
     0
280
     1
281
     0
  0
BLOCK_RECORD
  5
130A4
330
1
100
AcDbSymbolTableRecord
100
AcDbBlockTableRecord
  2
*D6
340
0
 70
     0
280
     1
281
     0
  0
BLOCK_RECORD
  5
130B0
330
1
100
AcDbSymbolTableRecord
100
AcDbBlockTableRecord
  2
*D7
340
0
 70
     0
280
     1
281
     0
  0
BLOCK_RECORD
  5
130BD
330
1
100
AcDbSymbolTableRecord
100
AcDbBlockTableRecord
  2
*D8
340
0
 70
     0
280
     1
281
     0
  0
BLOCK_RECORD
  5
130CA
330
1
100
AcDbSymbolTableRecord
100
AcDbBlockTableRecord
  2
*D9
340
0
 70
     0
280
     1
281
     0
  0
BLOCK_RECORD
  5
130EE
330
1
100
AcDbSymbolTableRecord
100
AcDbBlockTableRecord
  2
*D10
340
0
 70
     0
280
     1
281
     0
  0
BLOCK_RECORD
  5
130FB
330
1
100
AcDbSymbolTableRecord
100
AcDbBlockTableRecord
  2
*D11
340
0
 70
     0
280
     1
281
     0
  0
BLOCK_RECORD
  5
13109
330
1
100
AcDbSymbolTableRecord
100
AcDbBlockTableRecord
  2
*D12
340
0
 70
     0
280
     1
281
     0
  0
BLOCK_RECORD
  5
13115
330
1
100
AcDbSymbolTableRecord
100
AcDbBlockTableRecord
  2
*D13
340
0
 70
     0
280
     1
281
     0
  0
BLOCK_RECORD
  5
13121
330
1
100
AcDbSymbolTableRecord
100
AcDbBlockTableRecord
  2
*D14
340
0
 70
     0
280
     1
281
     0
  0
BLOCK_RECORD
  5
1312D
330
1
100
AcDbSymbolTableRecord
100
AcDbBlockTableRecord
  2
*D15
340
0
 70
     0
280
     1
281
     0
  0
BLOCK_RECORD
  5
1313B
330
1
100
AcDbSymbolTableRecord
100
AcDbBlockTableRecord
  2
*D16
340
0
 70
     0
280
     1
281
     0
  0
BLOCK_RECORD
  5
13149
330
1
100
AcDbSymbolTableRecord
100
AcDbBlockTableRecord
  2
*D17
340
0
 70
     0
280
     1
281
     0
  0
BLOCK_RECORD
  5
13155
330
1
100
AcDbSymbolTableRecord
100
AcDbBlockTableRecord
  2
*D18
340
0
 70
     0
280
     1
281
     0
  0
BLOCK_RECORD
  5
13161
330
1
100
AcDbSymbolTableRecord
100
AcDbBlockTableRecord
  2
*D19
340
0
 70
     0
280
     1
281
     0
  0
BLOCK_RECORD
  5
14362
330
1
100
AcDbSymbolTableRecord
100
AcDbBlockTableRecord
  2
*D20
340
0
 70
     0
280
     1
281
     0
  0
BLOCK_RECORD
  5
1436F
330
1
100
AcDbSymbolTableRecord
100
AcDbBlockTableRecord
  2
*D21
340
0
 70
     0
280
     1
281
     0
  0
BLOCK_RECORD
  5
1437B
330
1
100
AcDbSymbolTableRecord
100
AcDbBlockTableRecord
  2
*D22
340
0
 70
     0
280
     1
281
     0
  0
BLOCK_RECORD
  5
14389
330
1
100
AcDbSymbolTableRecord
100
AcDbBlockTableRecord
  2
*D23
340
0
 70
     0
280
     1
281
     0
  0
BLOCK_RECORD
  5
14395
330
1
100
AcDbSymbolTableRecord
100
AcDbBlockTableRecord
  2
*D24
340
0
 70
     0
280
     1
281
     0
  0
BLOCK_RECORD
  5
143A3
330
1
100
AcDbSymbolTableRecord
100
AcDbBlockTableRecord
  2
*D25
340
0
 70
     0
280
     1
281
     0
  0
BLOCK_RECORD
  5
143B1
330
1
100
AcDbSymbolTableRecord
100
AcDbBlockTableRecord
  2
*D26
340
0
 70
     0
280
     1
281
     0
  0
BLOCK_RECORD
  5
143BD
330
1
100
AcDbSymbolTableRecord
100
AcDbBlockTableRecord
  2
*D27
340
0
 70
     0
280
     1
281
     0
  0
BLOCK_RECORD
  5
143CB
330
1
100
AcDbSymbolTableRecord
100
AcDbBlockTableRecord
  2
*D28
340
0
 70
     0
280
     1
281
     0
  0
BLOCK_RECORD
  5
143D7
330
1
100
AcDbSymbolTableRecord
100
AcDbBlockTableRecord
  2
*D29
340
0
 70
     0
280
     1
281
     0
  0
BLOCK_RECORD
  5
143E3
330
1
100
AcDbSymbolTableRecord
100
AcDbBlockTableRecord
  2
*D30
340
0
 70
     0
280
     1
281
     0
  0
BLOCK_RECORD
  5
143EF
330
1
100
AcDbSymbolTableRecord
100
AcDbBlockTableRecord
  2
*D31
340
0
 70
     0
280
     1
281
     0
  0
BLOCK_RECORD
  5
14409
330
1
100
AcDbSymbolTableRecord
100
AcDbBlockTableRecord
  2
*D32
340
0
 70
     0
280
     1
281
     0
  0
BLOCK_RECORD
  5
14417
330
1
100
AcDbSymbolTableRecord
100
AcDbBlockTableRecord
  2
*D33
340
0
 70
     0
280
     1
281
     0
  0
BLOCK_RECORD
  5
14423
330
1
100
AcDbSymbolTableRecord
100
AcDbBlockTableRecord
  2
*D34
340
0
 70
     0
280
     1
281
     0
  0
BLOCK_RECORD
  5
14431
330
1
100
AcDbSymbolTableRecord
100
AcDbBlockTableRecord
  2
*D35
340
0
 70
     0
280
     1
281
     0
  0
BLOCK_RECORD
  5
1443F
330
1
100
AcDbSymbolTableRecord
100
AcDbBlockTableRecord
  2
*D36
340
0
 70
     0
280
     1
281
     0
  0
BLOCK_RECORD
  5
1444B
330
1
100
AcDbSymbolTableRecord
100
AcDbBlockTableRecord
  2
*D37
340
0
 70
     0
280
     1
281
     0
  0
BLOCK_RECORD
  5
14457
330
1
100
AcDbSymbolTableRecord
100
AcDbBlockTableRecord
  2
*D38
340
0
 70
     0
280
     1
281
     0
  0
BLOCK_RECORD
  5
14463
330
1
100
AcDbSymbolTableRecord
100
AcDbBlockTableRecord
  2
*D39
340
0
 70
     0
280
     1
281
     0
  0
BLOCK_RECORD
  5
1446F
330
1
100
AcDbSymbolTableRecord
100
AcDbBlockTableRecord
  2
*D40
340
0
 70
     0
280
     1
281
     0
  0
BLOCK_RECORD
  5
1447D
330
1
100
AcDbSymbolTableRecord
100
AcDbBlockTableRecord
  2
*D41
340
0
 70
     0
280
     1
281
     0
  0
BLOCK_RECORD
  5
14489
330
1
100
AcDbSymbolTableRecord
100
AcDbBlockTableRecord
  2
*D42
340
0
 70
     0
280
     1
281
     0
  0
BLOCK_RECORD
  5
15095
330
1
100
AcDbSymbolTableRecord
100
AcDbBlockTableRecord
  2
*D43
340
0
 70
     0
280
     1
281
     0
  0
ENDTAB
  0
ENDSEC
  0
SECTION
  2
BLOCKS
  0
BLOCK
  5
20
330
1F
100
AcDbEntity
  8
0
100
AcDbBlockBegin
  2
*Model_Space
 70
     0
 10
0.0
 20
0.0
 30
0.0
  3
*Model_Space
  1

  0
ENDBLK
  5
21
330
1F
100
AcDbEntity
  8
0
100
AcDbBlockEnd
  0
BLOCK
  5
78F
330
78D
100
AcDbEntity
 67
     1
  8
0
100
AcDbBlockBegin
  2
*Paper_Space
 70
     0
 10
0.0
 20
0.0
 30
0.0
  3
*Paper_Space
  1

  0
ENDBLK
  5
790
330
78D
100
AcDbEntity
 67
     1
  8
0
100
AcDbBlockEnd
  0
BLOCK
  5
C09
330
C08
100
AcDbEntity
  8
0
100
AcDbBlockBegin
  2
_OPEN
 70
     0
 10
0.0
 20
0.0
 30
0.0
  3
_OPEN
  1

  0
LINE
  5
C0A
330
C08
100
AcDbEntity
  8
0
  6
ByBlock
 62
     0
100
AcDbLine
 10
-1.0
 20
0.1666666666666666
 30
0.0
 11
0.0
 21
0.0
 31
0.0
  0
LINE
  5
C0B
330
C08
100
AcDbEntity
  8
0
  6
ByBlock
 62
     0
100
AcDbLine
 10
0.0
 20
0.0
 30
0.0
 11
-1.0
 21
-0.1666666666666666
 31
0.0
  0
LINE
  5
C0C
330
C08
100
AcDbEntity
  8
0
  6
ByBlock
 62
     0
100
AcDbLine
 10
0.0
 20
0.0
 30
0.0
 11
-1.0
 21
0.0
 31
0.0
  0
ENDBLK
  5
C0D
330
C08
100
AcDbEntity
  8
0
100
AcDbBlockEnd
  0
BLOCK
  5
13067
330
13066
100
AcDbEntity
  8
0
100
AcDbBlockBegin
  2
*D1
 70
     1
 10
0.0
 20
0.0
 30
0.0
  3
*D1
  1

  0
LINE
  5
15104
330
13066
100
AcDbEntity
  8
寸法線
 62
     0
440
 16777216
370
    -2
100
AcDbLine
 10
1060.000009906569
 20
1426.249989956243
 30
0.0
 11
1060.000009906569
 21
1274.99999907856
 31
0.0
  0
LINE
  5
15105
330
13066
100
AcDbEntity
  8
寸法線
 62
     0
440
 16777216
370
    -2
100
AcDbLine
 10
2460.00000990657
 20
1426.249989956244
 30
0.0
 11
2460.00000990657
 21
1274.99999907856
 31
0.0
  0
LINE
  5
15106
330
13066
100
AcDbEntity
  8
寸法線
 62
     0
440
 16777216
370
    -2
100
AcDbLine
 10
1080.000009906569
 20
1284.99999907856
 30
0.0
 11
2440.00000990657
 21
1284.99999907856
 31
0.0
  0
INSERT
  5
15107
330
13066
100
AcDbEntity
  8
寸法線
 62
     0
440
 16777216
370
    -2
100
AcDbBlockReference
  2
_OPEN
 10
1060.000009906569
 20
1284.99999907856
 30
0.0
 41
20.0
 42
20.0
 43
20.0
 50
180.0
  0
INSERT
  5
15108
330
13066
100
AcDbEntity
  8
寸法線
 62
     0
440
 16777216
370
    -2
100
AcDbBlockReference
  2
_OPEN
 10
2460.00000990657
 20
1284.99999907856
 30
0.0
 41
20.0
 42
20.0
 43
20.0
  0
MTEXT
  5
15109
330
13066
100
AcDbEntity
  8
寸法線
 62
     0
440
 16777216
100
AcDbMText
 10
1760.000000000015
 20
1306.24999907856
 30
0.0
 40
25.0
 41
0.0
 46
0.0
 71
     5
 72
     1
  1
\A1;1400
 73
     1
 44
1.0
  0
POINT
  5
1510A
330
13066
100
AcDbEntity
  8
Defpoints
 62
     0
440
 16777216
100
AcDbPoint
 10
1060.000009906569
 20
1434.999989956243
 30
0.0
  0
POINT
  5
1510B
330
13066
100
AcDbEntity
  8
Defpoints
 62
     0
440
 16777216
100
AcDbPoint
 10
2460.00000990657
 20
1434.999989956244
 30
0.0
  0
POINT
  5
1510C
330
13066
100
AcDbEntity
  8
Defpoints
 62
     0
440
 16777216
100
AcDbPoint
 10
2460.00000990657
 20
1284.99999907856
 30
0.0
  0
ENDBLK
  5
13068
330
13066
100
AcDbEntity
  8
0
100
AcDbBlockEnd
  0
BLOCK
  5
13073
330
13072
100
AcDbEntity
  8
0
100
AcDbBlockBegin
  2
*D2
 70
     1
 10
0.0
 20
0.0
 30
0.0
  3
*D2
  1

  0
LINE
  5
1510D
330
13072
100
AcDbEntity
  8
寸法線
 62
     0
440
 16777216
370
    -2
100
AcDbLine
 10
509.9999900934603
 20
1436.249999078559
 30
0.0
 11
509.9999900934603
 21
1274.99999907856
 31
0.0
  0
LINE
  5
1510E
330
13072
100
AcDbEntity
  8
寸法線
 62
     0
440
 16777216
370
    -2
100
AcDbLine
 10
1059.99999009346
 20
1426.250036298233
 30
0.0
 11
1059.99999009346
 21
1274.99999907856
 31
0.0
  0
LINE
  5
1510F
330
13072
100
AcDbEntity
  8
寸法線
 62
     0
440
 16777216
370
    -2
100
AcDbLine
 10
529.9999900934603
 20
1284.99999907856
 30
0.0
 11
1039.99999009346
 21
1284.99999907856
 31
0.0
  0
INSERT
  5
15110
330
13072
100
AcDbEntity
  8
寸法線
 62
     0
440
 16777216
370
    -2
100
AcDbBlockReference
  2
_OPEN
 10
509.9999900934603
 20
1284.99999907856
 30
0.0
 41
20.0
 42
20.0
 43
20.0
 50
180.0
  0
INSERT
  5
15111
330
13072
100
AcDbEntity
  8
寸法線
 62
     0
440
 16777216
370
    -2
100
AcDbBlockReference
  2
_OPEN
 10
1059.99999009346
 20
1284.99999907856
 30
0.0
 41
20.0
 42
20.0
 43
20.0
  0
MTEXT
  5
15112
330
13072
100
AcDbEntity
  8
寸法線
 62
     0
440
 16777216
100
AcDbMText
 10
784.9999900934603
 20
1306.24999907856
 30
0.0
 40
25.0
 41
0.0
 46
0.0
 71
     5
 72
     1
  1
\A1;550
 73
     1
 44
1.0
  0
POINT
  5
15113
330
13072
100
AcDbEntity
  8
Defpoints
 62
     0
440
 16777216
100
AcDbPoint
 10
509.9999900934603
 20
1444.999999078559
 30
0.0
  0
POINT
  5
15114
330
13072
100
AcDbEntity
  8
Defpoints
 62
     0
440
 16777216
100
AcDbPoint
 10
1059.99999009346
 20
1435.000036298233
 30
0.0
  0
POINT
  5
15115
330
13072
100
AcDbEntity
  8
Defpoints
 62
     0
440
 16777216
100
AcDbPoint
 10
1059.99999009346
 20
1284.99999907856
 30
0.0
  0
ENDBLK
  5
13074
330
13072
100
AcDbEntity
  8
0
100
AcDbBlockEnd
  0
BLOCK
  5
1307F
330
1307E
100
AcDbEntity
  8
0
100
AcDbBlockBegin
  2
*D3
 70
     1
 10
0.0
 20
0.0
 30
0.0
  3
*D3
  1

  0
LINE
  5
15116
330
1307E
100
AcDbEntity
  8
寸法線
 62
     0
440
 16777216
370
    -2
100
AcDbLine
 10
501.2499900934606
 20
1844.999999078561
 30
0.0
 11
379.9999900934599
 21
1844.999999078561
 31
0.0
  0
LINE
  5
15117
330
1307E
100
AcDbEntity
  8
寸法線
 62
     0
440
 16777216
370
    -2
100
AcDbLine
 10
501.2499900934606
 20
1444.99999907856
 30
0.0
 11
379.99999009346
 21
1444.99999907856
 31
0.0
  0
LINE
  5
15118
330
1307E
100
AcDbEntity
  8
寸法線
 62
     0
440
 16777216
370
    -2
100
AcDbLine
 10
389.99999009346
 20
1824.99999907856
 30
0.0
 11
389.99999009346
 21
1464.99999907856
 31
0.0
  0
INSERT
  5
15119
330
1307E
100
AcDbEntity
  8
寸法線
 62
     0
440
 16777216
370
    -2
100
AcDbBlockReference
  2
_OPEN
 10
389.99999009346
 20
1844.999999078561
 30
0.0
 41
20.0
 42
20.0
 43
20.0
 50
90.0
  0
INSERT
  5
1511A
330
1307E
100
AcDbEntity
  8
寸法線
 62
     0
440
 16777216
370
    -2
100
AcDbBlockReference
  2
_OPEN
 10
389.99999009346
 20
1444.99999907856
 30
0.0
 41
20.0
 42
20.0
 43
20.0
 50
270.0
  0
MTEXT
  5
1511B
330
1307E
100
AcDbEntity
  8
寸法線
 62
     0
440
 16777216
100
AcDbMText
 10
368.7499900934604
 20
1644.999999078559
 30
0.0
 40
25.0
 41
0.0
 46
0.0
 71
     5
 72
     1
  1
\A1;400
 11
0.0000000000000001
 21
1.0
 31
0.0
 73
     1
 44
1.0
  0
POINT
  5
1511C
330
1307E
100
AcDbEntity
  8
Defpoints
 62
     0
440
 16777216
100
AcDbPoint
 10
509.9999900934606
 20
1844.999999078561
 30
0.0
  0
POINT
  5
1511D
330
1307E
100
AcDbEntity
  8
Defpoints
 62
     0
440
 16777216
100
AcDbPoint
 10
509.9999900934606
 20
1444.99999907856
 30
0.0
  0
POINT
  5
1511E
330
1307E
100
AcDbEntity
  8
Defpoints
 62
     0
440
 16777216
100
AcDbPoint
 10
389.99999009346
 20
1444.99999907856
 30
0.0
  0
ENDBLK
  5
13080
330
1307E
100
AcDbEntity
  8
0
100
AcDbBlockEnd
  0
BLOCK
  5
1308B
330
1308A
100
AcDbEntity
  8
0
100
AcDbBlockBegin
  2
*D4
 70
     1
 10
0.0
 20
0.0
 30
0.0
  3
*D4
  1

  0
LINE
  5
1511F
330
1308A
100
AcDbEntity
  8
寸法線
 62
     0
440
 16777216
370
    -2
100
AcDbLine
 10
509.9999900934603
 20
2444.75001829349
 30
0.0
 11
509.9999900934603
 21
2614.999981073817
 31
0.0
  0
LINE
  5
15120
330
1308A
100
AcDbEntity
  8
寸法線
 62
     0
440
 16777216
370
    -2
100
AcDbLine
 10
528.9999900934604
 20
2453.749981073816
 30
0.0
 11
528.9999900934604
 21
2614.999981073817
 31
0.0
  0
LINE
  5
15121
330
1308A
100
AcDbEntity
  8
寸法線
 62
     0
440
 16777216
370
    -2
100
AcDbLine
 10
489.9999900934603
 20
2604.999981073817
 30
0.0
 11
469.9999900934604
 21
2604.999981073817
 31
0.0
  0
LINE
  5
15122
330
1308A
100
AcDbEntity
  8
寸法線
 62
     0
440
 16777216
370
    -2
100
AcDbLine
 10
548.9999900934604
 20
2604.999981073817
 30
0.0
 11
568.9999900934603
 21
2604.999981073817
 31
0.0
  0
LINE
  5
15123
330
1308A
100
AcDbEntity
  8
寸法線
 62
     0
440
 16777216
370
    -2
100
AcDbLine
 10
509.9999900934603
 20
2604.999981073817
 30
0.0
 11
528.9999900934604
 21
2604.999981073817
 31
0.0
  0
INSERT
  5
15124
330
1308A
100
AcDbEntity
  8
寸法線
 62
     0
440
 16777216
370
    -2
100
AcDbBlockReference
  2
_OPEN
 10
509.9999900934603
 20
2604.999981073817
 30
0.0
 41
20.0
 42
20.0
 43
20.0
  0
INSERT
  5
15125
330
1308A
100
AcDbEntity
  8
寸法線
 62
     0
440
 16777216
370
    -2
100
AcDbBlockReference
  2
_OPEN
 10
528.9999900934604
 20
2604.999981073817
 30
0.0
 41
20.0
 42
20.0
 43
20.0
 50
180.0
  0
MTEXT
  5
15126
330
1308A
100
AcDbEntity
  8
寸法線
 62
     0
440
 16777216
100
AcDbMText
 10
519.4999900934603
 20
2626.249981073816
 30
0.0
 40
25.0
 41
0.0
 46
0.0
 71
     5
 72
     1
  1
\A1;19
 73
     1
 44
1.0
  0
POINT
  5
15127
330
1308A
100
AcDbEntity
  8
Defpoints
 62
     0
440
 16777216
100
AcDbPoint
 10
509.9999900934603
 20
2436.00001829349
 30
0.0
  0
POINT
  5
15128
330
1308A
100
AcDbEntity
  8
Defpoints
 62
     0
440
 16777216
100
AcDbPoint
 10
528.9999900934604
 20
2444.999981073816
 30
0.0
  0
POINT
  5
15129
330
1308A
100
AcDbEntity
  8
Defpoints
 62
     0
440
 16777216
100
AcDbPoint
 10
528.9999900934604
 20
2604.999981073817
 30
0.0
  0
ENDBLK
  5
1308C
330
1308A
100
AcDbEntity
  8
0
100
AcDbBlockEnd
  0
BLOCK
  5
13099
330
13098
100
AcDbEntity
  8
0
100
AcDbBlockBegin
  2
*D5
 70
     1
 10
0.0
 20
0.0
 30
0.0
  3
*D5
  1

  0
LINE
  5
1512A
330
13098
100
AcDbEntity
  8
寸法線
 62
     0
440
 16777216
370
    -2
100
AcDbLine
 10
528.9999900934604
 20
2453.749981073816
 30
0.0
 11
528.9999900934604
 21
2614.999981073817
 31
0.0
  0
LINE
  5
1512B
330
13098
100
AcDbEntity
  8
寸法線
 62
     0
440
 16777216
370
    -2
100
AcDbLine
 10
1059.99999009346
 20
2463.75001829349
 30
0.0
 11
1059.99999009346
 21
2614.999981073817
 31
0.0
  0
LINE
  5
1512C
330
13098
100
AcDbEntity
  8
寸法線
 62
     0
440
 16777216
370
    -2
100
AcDbLine
 10
548.9999900934604
 20
2604.999981073817
 30
0.0
 11
1039.99999009346
 21
2604.999981073817
 31
0.0
  0
INSERT
  5
1512D
330
13098
100
AcDbEntity
  8
寸法線
 62
     0
440
 16777216
370
    -2
100
AcDbBlockReference
  2
_OPEN
 10
528.9999900934604
 20
2604.999981073817
 30
0.0
 41
20.0
 42
20.0
 43
20.0
 50
180.0
  0
INSERT
  5
1512E
330
13098
100
AcDbEntity
  8
寸法線
 62
     0
440
 16777216
370
    -2
100
AcDbBlockReference
  2
_OPEN
 10
1059.99999009346
 20
2604.999981073817
 30
0.0
 41
20.0
 42
20.0
 43
20.0
  0
MTEXT
  5
1512F
330
13098
100
AcDbEntity
  8
寸法線
 62
     0
440
 16777216
100
AcDbMText
 10
794.4999900934604
 20
2626.249981073816
 30
0.0
 40
25.0
 41
0.0
 46
0.0
 71
     5
 72
     1
  1
\A1;531
 73
     1
 44
1.0
  0
POINT
  5
15130
330
13098
100
AcDbEntity
  8
Defpoints
 62
     0
440
 16777216
100
AcDbPoint
 10
528.9999900934604
 20
2444.999981073816
 30
0.0
  0
POINT
  5
15131
330
13098
100
AcDbEntity
  8
Defpoints
 62
     0
440
 16777216
100
AcDbPoint
 10
1059.99999009346
 20
2455.000018293489
 30
0.0
  0
POINT
  5
15132
330
13098
100
AcDbEntity
  8
Defpoints
 62
     0
440
 16777216
100
AcDbPoint
 10
1059.99999009346
 20
2604.999981073817
 30
0.0
  0
ENDBLK
  5
1309A
330
13098
100
AcDbEntity
  8
0
100
AcDbBlockEnd
  0
BLOCK
  5
130A5
330
130A4
100
AcDbEntity
  8
0
100
AcDbBlockBegin
  2
*D6
 70
     1
 10
0.0
 20
0.0
 30
0.0
  3
*D6
  1

  0
LINE
  5
15133
330
130A4
100
AcDbEntity
  8
寸法線
 62
     0
440
 16777216
370
    -2
100
AcDbLine
 10
520.2499900934606
 20
2444.999981073816
 30
0.0
 11
379.9999900934598
 21
2444.999981073816
 31
0.0
  0
LINE
  5
15134
330
130A4
100
AcDbEntity
  8
寸法線
 62
     0
440
 16777216
370
    -2
100
AcDbLine
 10
520.2499900934606
 20
2044.999981073816
 30
0.0
 11
379.9999900934599
 21
2044.999981073815
 31
0.0
  0
LINE
  5
15135
330
130A4
100
AcDbEntity
  8
寸法線
 62
     0
440
 16777216
370
    -2
100
AcDbLine
 10
389.9999900934599
 20
2424.999981073816
 30
0.0
 11
389.99999009346
 21
2064.999981073815
 31
0.0
  0
INSERT
  5
15136
330
130A4
100
AcDbEntity
  8
寸法線
 62
     0
440
 16777216
370
    -2
100
AcDbBlockReference
  2
_OPEN
 10
389.9999900934598
 20
2444.999981073816
 30
0.0
 41
20.0
 42
20.0
 43
20.0
 50
90.0
  0
INSERT
  5
15137
330
130A4
100
AcDbEntity
  8
寸法線
 62
     0
440
 16777216
370
    -2
100
AcDbBlockReference
  2
_OPEN
 10
389.99999009346
 20
2044.999981073815
 30
0.0
 41
20.0
 42
20.0
 43
20.0
 50
270.0
  0
MTEXT
  5
15138
330
130A4
100
AcDbEntity
  8
寸法線
 62
     0
440
 16777216
100
AcDbMText
 10
368.7499900934604
 20
2244.999981073815
 30
0.0
 40
25.0
 41
0.0
 46
0.0
 71
     5
 72
     1
  1
\A1;400
 11
0.0000000000000001
 21
1.0
 31
0.0
 73
     1
 44
1.0
  0
POINT
  5
15139
330
130A4
100
AcDbEntity
  8
Defpoints
 62
     0
440
 16777216
100
AcDbPoint
 10
528.9999900934605
 20
2444.999981073816
 30
0.0
  0
POINT
  5
1513A
330
130A4
100
AcDbEntity
  8
Defpoints
 62
     0
440
 16777216
100
AcDbPoint
 10
528.9999900934605
 20
2044.999981073816
 30
0.0
  0
POINT
  5
1513B
330
130A4
100
AcDbEntity
  8
Defpoints
 62
     0
440
 16777216
100
AcDbPoint
 10
389.99999009346
 20
2044.999981073815
 30
0.0
  0
ENDBLK
  5
130A6
330
130A4
100
AcDbEntity
  8
0
100
AcDbBlockEnd
  0
BLOCK
  5
130B1
330
130B0
100
AcDbEntity
  8
0
100
AcDbBlockBegin
  2
*D7
 70
     1
 10
0.0
 20
0.0
 30
0.0
  3
*D7
  1

  0
LINE
  5
1513C
330
130B0
100
AcDbEntity
  8
寸法線
 62
     0
440
 16777216
370
    -2
100
AcDbLine
 10
509.9999900934603
 20
2444.75001829349
 30
0.0
 11
509.9999900934603
 21
2694.999981073816
 31
0.0
  0
LINE
  5
1513D
330
130B0
100
AcDbEntity
  8
寸法線
 62
     0
440
 16777216
370
    -2
100
AcDbLine
 10
1059.99999009346
 20
2463.75001829349
 30
0.0
 11
1059.99999009346
 21
2694.999981073816
 31
0.0
  0
LINE
  5
1513E
330
130B0
100
AcDbEntity
  8
寸法線
 62
     0
440
 16777216
370
    -2
100
AcDbLine
 10
529.9999900934603
 20
2684.999981073817
 30
0.0
 11
1039.99999009346
 21
2684.999981073817
 31
0.0
  0
INSERT
  5
1513F
330
130B0
100
AcDbEntity
  8
寸法線
 62
     0
440
 16777216
370
    -2
100
AcDbBlockReference
  2
_OPEN
 10
509.9999900934603
 20
2684.999981073817
 30
0.0
 41
20.0
 42
20.0
 43
20.0
 50
180.0
  0
INSERT
  5
15140
330
130B0
100
AcDbEntity
  8
寸法線
 62
     0
440
 16777216
370
    -2
100
AcDbBlockReference
  2
_OPEN
 10
1059.99999009346
 20
2684.999981073817
 30
0.0
 41
20.0
 42
20.0
 43
20.0
  0
MTEXT
  5
15141
330
130B0
100
AcDbEntity
  8
寸法線
 62
     0
440
 16777216
100
AcDbMText
 10
784.9999900934603
 20
2706.249981073816
 30
0.0
 40
25.0
 41
0.0
 46
0.0
 71
     5
 72
     1
  1
\A1;550
 73
     1
 44
1.0
  0
MTEXT
  5
15142
330
130B0
100
AcDbEntity
  8
寸法線
 62
     0
440
 16777216
100
AcDbMText
 10
784.9999900934603
 20
2663.749981073816
 30
0.0
 40
25.0
 41
0.0
 46
0.0
 71
     5
 72
     1
  1
\A1;H型鋼（連結部）
 73
     1
 44
1.0
  0
POINT
  5
15143
330
130B0
100
AcDbEntity
  8
Defpoints
 62
     0
440
 16777216
100
AcDbPoint
 10
509.9999900934603
 20
2436.00001829349
 30
0.0
  0
POINT
  5
15144
330
130B0
100
AcDbEntity
  8
Defpoints
 62
     0
440
 16777216
100
AcDbPoint
 10
1059.99999009346
 20
2455.000018293489
 30
0.0
  0
POINT
  5
15145
330
130B0
100
AcDbEntity
  8
Defpoints
 62
     0
440
 16777216
100
AcDbPoint
 10
1059.99999009346
 20
2684.999981073817
 30
0.0
  0
ENDBLK
  5
130B2
330
130B0
100
AcDbEntity
  8
0
100
AcDbBlockEnd
  0
BLOCK
  5
130BE
330
130BD
100
AcDbEntity
  8
0
100
AcDbBlockBegin
  2
*D8
 70
     1
 10
0.0
 20
0.0
 30
0.0
  3
*D8
  1

  0
LINE
  5
15146
330
130BD
100
AcDbEntity
  8
寸法線
 62
     0
440
 16777216
370
    -2
100
AcDbLine
 10
1060.000009906569
 20
2463.749994880146
 30
0.0
 11
1060.000009906569
 21
2694.999981073816
 31
0.0
  0
LINE
  5
15147
330
130BD
100
AcDbEntity
  8
寸法線
 62
     0
440
 16777216
370
    -2
100
AcDbLine
 10
2460.00000990657
 20
2463.7499719515
 30
0.0
 11
2460.00000990657
 21
2694.999981073816
 31
0.0
  0
LINE
  5
15148
330
130BD
100
AcDbEntity
  8
寸法線
 62
     0
440
 16777216
370
    -2
100
AcDbLine
 10
1080.000009906569
 20
2684.999981073817
 30
0.0
 11
2440.00000990657
 21
2684.999981073817
 31
0.0
  0
INSERT
  5
15149
330
130BD
100
AcDbEntity
  8
寸法線
 62
     0
440
 16777216
370
    -2
100
AcDbBlockReference
  2
_OPEN
 10
1060.000009906569
 20
2684.999981073817
 30
0.0
 41
20.0
 42
20.0
 43
20.0
 50
180.0
  0
INSERT
  5
1514A
330
130BD
100
AcDbEntity
  8
寸法線
 62
     0
440
 16777216
370
    -2
100
AcDbBlockReference
  2
_OPEN
 10
2460.00000990657
 20
2684.999981073817
 30
0.0
 41
20.0
 42
20.0
 43
20.0
  0
MTEXT
  5
1514B
330
130BD
100
AcDbEntity
  8
寸法線
 62
     0
440
 16777216
100
AcDbMText
 10
1760.000009906569
 20
2706.249981073816
 30
0.0
 40
25.0
 41
0.0
 46
0.0
 71
     5
 72
     1
  1
\A1;W=1400
 73
     1
 44
1.0
  0
MTEXT
  5
1514C
330
130BD
100
AcDbEntity
  8
寸法線
 62
     0
440
 16777216
100
AcDbMText
 10
1760.000009906569
 20
2663.749981073816
 30
0.0
 40
25.0
 41
0.0
 46
0.0
 71
     5
 72
     1
  1
\A1;空洞金具
 73
     1
 44
1.0
  0
POINT
  5
1514D
330
130BD
100
AcDbEntity
  8
Defpoints
 62
     0
440
 16777216
100
AcDbPoint
 10
1060.000009906569
 20
2454.999994880146
 30
0.0
  0
POINT
  5
1514E
330
130BD
100
AcDbEntity
  8
Defpoints
 62
     0
440
 16777216
100
AcDbPoint
 10
2460.00000990657
 20
2454.9999719515
 30
0.0
  0
POINT
  5
1514F
330
130BD
100
AcDbEntity
  8
Defpoints
 62
     0
440
 16777216
100
AcDbPoint
 10
2460.00000990657
 20
2684.999981073817
 30
0.0
  0
ENDBLK
  5
130BF
330
130BD
100
AcDbEntity
  8
0
100
AcDbBlockEnd
  0
BLOCK
  5
130CB
330
130CA
100
AcDbEntity
  8
0
100
AcDbBlockBegin
  2
*D9
 70
     1
 10
0.0
 20
0.0
 30
0.0
  3
*D9
  1

  0
LINE
  5
15150
330
130CA
100
AcDbEntity
  8
寸法線
 62
     0
440
 16777216
370
    -2
100
AcDbLine
 10
510.0000099065987
 20
2444.749994880161
 30
0.0
 11
510.0000099065987
 21
2774.999981073817
 31
0.0
  0
LINE
  5
15151
330
130CA
100
AcDbEntity
  8
寸法線
 62
     0
440
 16777216
370
    -2
100
AcDbLine
 10
3010.00000990654
 20
2444.74998107383
 30
0.0
 11
3010.00000990654
 21
2774.999981073817
 31
0.0
  0
LINE
  5
15152
330
130CA
100
AcDbEntity
  8
寸法線
 62
     0
440
 16777216
370
    -2
100
AcDbLine
 10
530.0000099065987
 20
2764.999981073817
 30
0.0
 11
2990.00000990654
 21
2764.999981073817
 31
0.0
  0
INSERT
  5
15153
330
130CA
100
AcDbEntity
  8
寸法線
 62
     0
440
 16777216
370
    -2
100
AcDbBlockReference
  2
_OPEN
 10
510.0000099065987
 20
2764.999981073817
 30
0.0
 41
20.0
 42
20.0
 43
20.0
 50
180.0
  0
INSERT
  5
15154
330
130CA
100
AcDbEntity
  8
寸法線
 62
     0
440
 16777216
370
    -2
100
AcDbBlockReference
  2
_OPEN
 10
3010.00000990654
 20
2764.999981073817
 30
0.0
 41
20.0
 42
20.0
 43
20.0
  0
MTEXT
  5
15155
330
130CA
100
AcDbEntity
  8
寸法線
 62
     0
440
 16777216
100
AcDbMText
 10
1759.99999009346
 20
2786.252441703738
 30
0.0
 40
25.0
 41
0.0
 46
0.0
 71
     5
 72
     1
  1
\A1;スルーサーＢ L=2500
 73
     1
 44
1.0
  0
POINT
  5
15156
330
130CA
100
AcDbEntity
  8
Defpoints
 62
     0
440
 16777216
100
AcDbPoint
 10
510.0000099065987
 20
2435.999994880161
 30
0.0
  0
POINT
  5
15157
330
130CA
100
AcDbEntity
  8
Defpoints
 62
     0
440
 16777216
100
AcDbPoint
 10
3010.00000990654
 20
2435.99998107383
 30
0.0
  0
POINT
  5
15158
330
130CA
100
AcDbEntity
  8
Defpoints
 62
     0
440
 16777216
100
AcDbPoint
 10
3010.00000990654
 20
2764.999981073817
 30
0.0
  0
ENDBLK
  5
130CC
330
130CA
100
AcDbEntity
  8
0
100
AcDbBlockEnd
  0
BLOCK
  5
130EF
330
130EE
100
AcDbEntity
  8
0
100
AcDbBlockBegin
  2
*D10
 70
     1
 10
0.0
 20
0.0
 30
0.0
  3
*D10
  1

  0
LINE
  5
151B2
330
130EE
100
AcDbEntity
  8
寸法線
 62
     0
440
 16777216
370
    -2
100
AcDbLine
 10
3010.000009906569
 20
2444.75001829349
 30
0.0
 11
3010.000009906569
 21
2694.999981073816
 31
0.0
  0
LINE
  5
151B3
330
130EE
100
AcDbEntity
  8
寸法線
 62
     0
440
 16777216
370
    -2
100
AcDbLine
 10
2460.000009906569
 20
2463.75001829349
 30
0.0
 11
2460.000009906569
 21
2694.999981073816
 31
0.0
  0
LINE
  5
151B4
330
130EE
100
AcDbEntity
  8
寸法線
 62
     0
440
 16777216
370
    -2
100
AcDbLine
 10
2990.000009906569
 20
2684.999981073817
 30
0.0
 11
2480.000009906569
 21
2684.999981073817
 31
0.0
  0
INSERT
  5
151B5
330
130EE
100
AcDbEntity
  8
寸法線
 62
     0
440
 16777216
370
    -2
100
AcDbBlockReference
  2
_OPEN
 10
3010.000009906569
 20
2684.999981073817
 30
0.0
 41
20.0
 42
20.0
 43
20.0
  0
INSERT
  5
151B6
330
130EE
100
AcDbEntity
  8
寸法線
 62
     0
440
 16777216
370
    -2
100
AcDbBlockReference
  2
_OPEN
 10
2460.000009906569
 20
2684.999981073817
 30
0.0
 41
20.0
 42
20.0
 43
20.0
 50
180.0
  0
MTEXT
  5
151B7
330
130EE
100
AcDbEntity
  8
寸法線
 62
     0
440
 16777216
100
AcDbMText
 10
2735.000009906569
 20
2706.249981073816
 30
0.0
 40
25.0
 41
0.0
 46
0.0
 71
     5
 72
     1
  1
\A1;550
 73
     1
 44
1.0
  0
MTEXT
  5
151B8
330
130EE
100
AcDbEntity
  8
寸法線
 62
     0
440
 16777216
100
AcDbMText
 10
2735.000009906569
 20
2663.749981073816
 30
0.0
 40
25.0
 41
0.0
 46
0.0
 71
     5
 72
     1
  1
\A1;H型鋼（連結部）
 73
     1
 44
1.0
  0
POINT
  5
151B9
330
130EE
100
AcDbEntity
  8
Defpoints
 62
     0
440
 16777216
100
AcDbPoint
 10
3010.000009906569
 20
2436.00001829349
 30
0.0
  0
POINT
  5
151BA
330
130EE
100
AcDbEntity
  8
Defpoints
 62
     0
440
 16777216
100
AcDbPoint
 10
2460.000009906569
 20
2455.000018293489
 30
0.0
  0
POINT
  5
151BB
330
130EE
100
AcDbEntity
  8
Defpoints
 62
     0
440
 16777216
100
AcDbPoint
 10
2460.000009906569
 20
2684.999981073817
 30
0.0
  0
ENDBLK
  5
130F0
330
130EE
100
AcDbEntity
  8
0
100
AcDbBlockEnd
  0
BLOCK
  5
130FC
330
130FB
100
AcDbEntity
  8
0
100
AcDbBlockBegin
  2
*D11
 70
     1
 10
0.0
 20
0.0
 30
0.0
  3
*D11
  1

  0
LINE
  5
15159
330
130FB
100
AcDbEntity
  8
寸法線
 62
     0
440
 16777216
370
    -2
100
AcDbLine
 10
3010.000236889734
 20
2444.75001829349
 30
0.0
 11
3010.000236889734
 21
2614.999981073817
 31
0.0
  0
LINE
  5
1515A
330
130FB
100
AcDbEntity
  8
寸法線
 62
     0
440
 16777216
370
    -2
100
AcDbLine
 10
2991.000236889734
 20
2453.749981073816
 30
0.0
 11
2991.000236889734
 21
2614.999981073817
 31
0.0
  0
LINE
  5
1515B
330
130FB
100
AcDbEntity
  8
寸法線
 62
     0
440
 16777216
370
    -2
100
AcDbLine
 10
3030.000236889734
 20
2604.999981073817
 30
0.0
 11
3050.000236889733
 21
2604.999981073817
 31
0.0
  0
LINE
  5
1515C
330
130FB
100
AcDbEntity
  8
寸法線
 62
     0
440
 16777216
370
    -2
100
AcDbLine
 10
2971.000236889734
 20
2604.999981073817
 30
0.0
 11
2951.000236889734
 21
2604.999981073817
 31
0.0
  0
LINE
  5
1515D
330
130FB
100
AcDbEntity
  8
寸法線
 62
     0
440
 16777216
370
    -2
100
AcDbLine
 10
3010.000236889734
 20
2604.999981073817
 30
0.0
 11
2991.000236889734
 21
2604.999981073817
 31
0.0
  0
INSERT
  5
1515E
330
130FB
100
AcDbEntity
  8
寸法線
 62
     0
440
 16777216
370
    -2
100
AcDbBlockReference
  2
_OPEN
 10
3010.000236889734
 20
2604.999981073817
 30
0.0
 41
20.0
 42
20.0
 43
20.0
 50
180.0
  0
INSERT
  5
1515F
330
130FB
100
AcDbEntity
  8
寸法線
 62
     0
440
 16777216
370
    -2
100
AcDbBlockReference
  2
_OPEN
 10
2991.000236889734
 20
2604.999981073817
 30
0.0
 41
20.0
 42
20.0
 43
20.0
  0
MTEXT
  5
15160
330
130FB
100
AcDbEntity
  8
寸法線
 62
     0
440
 16777216
100
AcDbMText
 10
3000.500236889734
 20
2626.249981073816
 30
0.0
 40
25.0
 41
0.0
 46
0.0
 71
     5
 72
     1
  1
\A1;19
 73
     1
 44
1.0
  0
POINT
  5
15161
330
130FB
100
AcDbEntity
  8
Defpoints
 62
     0
440
 16777216
100
AcDbPoint
 10
3010.000236889734
 20
2436.00001829349
 30
0.0
  0
POINT
  5
15162
330
130FB
100
AcDbEntity
  8
Defpoints
 62
     0
440
 16777216
100
AcDbPoint
 10
2991.000236889734
 20
2444.999981073816
 30
0.0
  0
POINT
  5
15163
330
130FB
100
AcDbEntity
  8
Defpoints
 62
     0
440
 16777216
100
AcDbPoint
 10
2991.000236889734
 20
2604.999981073817
 30
0.0
  0
ENDBLK
  5
130FD
330
130FB
100
AcDbEntity
  8
0
100
AcDbBlockEnd
  0
BLOCK
  5
1310A
330
13109
100
AcDbEntity
  8
0
100
AcDbBlockBegin
  2
*D12
 70
     1
 10
0.0
 20
0.0
 30
0.0
  3
*D12
  1

  0
LINE
  5
15164
330
13109
100
AcDbEntity
  8
寸法線
 62
     0
440
 16777216
370
    -2
100
AcDbLine
 10
2991.000236889734
 20
2453.749981073816
 30
0.0
 11
2991.000236889734
 21
2614.999981073817
 31
0.0
  0
LINE
  5
15165
330
13109
100
AcDbEntity
  8
寸法線
 62
     0
440
 16777216
370
    -2
100
AcDbLine
 10
2460.000236889734
 20
2463.75001829349
 30
0.0
 11
2460.000236889734
 21
2614.999981073817
 31
0.0
  0
LINE
  5
15166
330
13109
100
AcDbEntity
  8
寸法線
 62
     0
440
 16777216
370
    -2
100
AcDbLine
 10
2971.000236889734
 20
2604.999981073817
 30
0.0
 11
2480.000236889734
 21
2604.999981073817
 31
0.0
  0
INSERT
  5
15167
330
13109
100
AcDbEntity
  8
寸法線
 62
     0
440
 16777216
370
    -2
100
AcDbBlockReference
  2
_OPEN
 10
2991.000236889734
 20
2604.999981073817
 30
0.0
 41
20.0
 42
20.0
 43
20.0
  0
INSERT
  5
15168
330
13109
100
AcDbEntity
  8
寸法線
 62
     0
440
 16777216
370
    -2
100
AcDbBlockReference
  2
_OPEN
 10
2460.000236889734
 20
2604.999981073817
 30
0.0
 41
20.0
 42
20.0
 43
20.0
 50
180.0
  0
MTEXT
  5
15169
330
13109
100
AcDbEntity
  8
寸法線
 62
     0
440
 16777216
100
AcDbMText
 10
2725.500236889734
 20
2626.249981073816
 30
0.0
 40
25.0
 41
0.0
 46
0.0
 71
     5
 72
     1
  1
\A1;531
 73
     1
 44
1.0
  0
POINT
  5
1516A
330
13109
100
AcDbEntity
  8
Defpoints
 62
     0
440
 16777216
100
AcDbPoint
 10
2991.000236889734
 20
2444.999981073816
 30
0.0
  0
POINT
  5
1516B
330
13109
100
AcDbEntity
  8
Defpoints
 62
     0
440
 16777216
100
AcDbPoint
 10
2460.000236889734
 20
2455.000018293489
 30
0.0
  0
POINT
  5
1516C
330
13109
100
AcDbEntity
  8
Defpoints
 62
     0
440
 16777216
100
AcDbPoint
 10
2460.000236889734
 20
2604.999981073817
 30
0.0
  0
ENDBLK
  5
1310B
330
13109
100
AcDbEntity
  8
0
100
AcDbBlockEnd
  0
BLOCK
  5
13116
330
13115
100
AcDbEntity
  8
0
100
AcDbBlockBegin
  2
*D13
 70
     1
 10
0.0
 20
0.0
 30
0.0
  3
*D13
  1

  0
LINE
  5
1516D
330
13115
100
AcDbEntity
  8
寸法線
 62
     0
440
 16777216
370
    -2
100
AcDbLine
 10
3018.750236889735
 20
2436.000018293491
 30
0.0
 11
3140.000236889734
 21
2436.000018293491
 31
0.0
  0
LINE
  5
1516E
330
13115
100
AcDbEntity
  8
寸法線
 62
     0
440
 16777216
370
    -2
100
AcDbLine
 10
3018.750236889735
 20
2054.00001829349
 30
0.0
 11
3140.000236889734
 21
2054.00001829349
 31
0.0
  0
LINE
  5
1516F
330
13115
100
AcDbEntity
  8
寸法線
 62
     0
440
 16777216
370
    -2
100
AcDbLine
 10
3130.000236889734
 20
2416.000018293491
 30
0.0
 11
3130.000236889734
 21
2074.000018293491
 31
0.0
  0
INSERT
  5
15170
330
13115
100
AcDbEntity
  8
寸法線
 62
     0
440
 16777216
370
    -2
100
AcDbBlockReference
  2
_OPEN
 10
3130.000236889734
 20
2436.000018293491
 30
0.0
 41
20.0
 42
20.0
 43
20.0
 50
90.0
  0
INSERT
  5
15171
330
13115
100
AcDbEntity
  8
寸法線
 62
     0
440
 16777216
370
    -2
100
AcDbBlockReference
  2
_OPEN
 10
3130.000236889734
 20
2054.00001829349
 30
0.0
 41
20.0
 42
20.0
 43
20.0
 50
270.0
  0
MTEXT
  5
15172
330
13115
100
AcDbEntity
  8
寸法線
 62
     0
440
 16777216
100
AcDbMText
 10
3108.747776259813
 20
2244.999981073815
 30
0.0
 40
25.0
 41
0.0
 46
0.0
 71
     5
 72
     1
  1
\A1;382
 11
0.0000000000000001
 21
1.0
 31
0.0
 73
     1
 44
1.0
  0
POINT
  5
15173
330
13115
100
AcDbEntity
  8
Defpoints
 62
     0
440
 16777216
100
AcDbPoint
 10
3010.000236889735
 20
2436.000018293491
 30
0.0
  0
POINT
  5
15174
330
13115
100
AcDbEntity
  8
Defpoints
 62
     0
440
 16777216
100
AcDbPoint
 10
3010.000236889735
 20
2054.00001829349
 30
0.0
  0
POINT
  5
15175
330
13115
100
AcDbEntity
  8
Defpoints
 62
     0
440
 16777216
100
AcDbPoint
 10
3130.000236889734
 20
2054.00001829349
 30
0.0
  0
ENDBLK
  5
13117
330
13115
100
AcDbEntity
  8
0
100
AcDbBlockEnd
  0
BLOCK
  5
13122
330
13121
100
AcDbEntity
  8
0
100
AcDbBlockBegin
  2
*D14
 70
     1
 10
0.0
 20
0.0
 30
0.0
  3
*D14
  1

  0
LINE
  5
15176
330
13121
100
AcDbEntity
  8
寸法線
 62
     0
440
 16777216
370
    -2
100
AcDbLine
 10
3010.00000990657
 20
1436.249999078559
 30
0.0
 11
3010.00000990657
 21
1274.99999907856
 31
0.0
  0
LINE
  5
15177
330
13121
100
AcDbEntity
  8
寸法線
 62
     0
440
 16777216
370
    -2
100
AcDbLine
 10
2460.00000990657
 20
1426.250036298233
 30
0.0
 11
2460.00000990657
 21
1274.99999907856
 31
0.0
  0
LINE
  5
15178
330
13121
100
AcDbEntity
  8
寸法線
 62
     0
440
 16777216
370
    -2
100
AcDbLine
 10
2990.00000990657
 20
1284.99999907856
 30
0.0
 11
2480.00000990657
 21
1284.99999907856
 31
0.0
  0
INSERT
  5
15179
330
13121
100
AcDbEntity
  8
寸法線
 62
     0
440
 16777216
370
    -2
100
AcDbBlockReference
  2
_OPEN
 10
3010.00000990657
 20
1284.99999907856
 30
0.0
 41
20.0
 42
20.0
 43
20.0
  0
INSERT
  5
1517A
330
13121
100
AcDbEntity
  8
寸法線
 62
     0
440
 16777216
370
    -2
100
AcDbBlockReference
  2
_OPEN
 10
2460.00000990657
 20
1284.99999907856
 30
0.0
 41
20.0
 42
20.0
 43
20.0
 50
180.0
  0
MTEXT
  5
1517B
330
13121
100
AcDbEntity
  8
寸法線
 62
     0
440
 16777216
100
AcDbMText
 10
2735.00000990657
 20
1306.24999907856
 30
0.0
 40
25.0
 41
0.0
 46
0.0
 71
     5
 72
     1
  1
\A1;550
 73
     1
 44
1.0
  0
POINT
  5
1517C
330
13121
100
AcDbEntity
  8
Defpoints
 62
     0
440
 16777216
100
AcDbPoint
 10
3010.00000990657
 20
1444.999999078559
 30
0.0
  0
POINT
  5
1517D
330
13121
100
AcDbEntity
  8
Defpoints
 62
     0
440
 16777216
100
AcDbPoint
 10
2460.00000990657
 20
1435.000036298233
 30
0.0
  0
POINT
  5
1517E
330
13121
100
AcDbEntity
  8
Defpoints
 62
     0
440
 16777216
100
AcDbPoint
 10
2460.00000990657
 20
1284.99999907856
 30
0.0
  0
ENDBLK
  5
13123
330
13121
100
AcDbEntity
  8
0
100
AcDbBlockEnd
  0
BLOCK
  5
1312E
330
1312D
100
AcDbEntity
  8
0
100
AcDbBlockBegin
  2
*D15
 70
     1
 10
0.0
 20
0.0
 30
0.0
  3
*D15
  1

  0
LINE
  5
1517F
330
1312D
100
AcDbEntity
  8
寸法線
 62
     0
440
 16777216
370
    -2
100
AcDbLine
 10
2588.74999009344
 20
1824.499952736578
 30
0.0
 11
2669.999990093437
 21
1824.499952736578
 31
0.0
  0
LINE
  5
15180
330
1312D
100
AcDbEntity
  8
寸法線
 62
     0
440
 16777216
370
    -2
100
AcDbLine
 10
2588.74999009344
 20
1805.499952736578
 30
0.0
 11
2669.999990093437
 21
1805.499952736578
 31
0.0
  0
LINE
  5
15181
330
1312D
100
AcDbEntity
  8
寸法線
 62
     0
440
 16777216
370
    -2
100
AcDbLine
 10
2659.999990093437
 20
1844.499952736578
 30
0.0
 11
2659.999990093437
 21
1864.499952736578
 31
0.0
  0
LINE
  5
15182
330
1312D
100
AcDbEntity
  8
寸法線
 62
     0
440
 16777216
370
    -2
100
AcDbLine
 10
2659.999990093437
 20
1785.499952736578
 30
0.0
 11
2659.999990093437
 21
1765.499952736578
 31
0.0
  0
LINE
  5
15183
330
1312D
100
AcDbEntity
  8
寸法線
 62
     0
440
 16777216
370
    -2
100
AcDbLine
 10
2659.999990093437
 20
1824.499952736578
 30
0.0
 11
2659.999990093437
 21
1805.499952736578
 31
0.0
  0
INSERT
  5
15184
330
1312D
100
AcDbEntity
  8
寸法線
 62
     0
440
 16777216
370
    -2
100
AcDbBlockReference
  2
_OPEN
 10
2659.999990093437
 20
1824.499952736578
 30
0.0
 41
20.0
 42
20.0
 43
20.0
 50
270.0
  0
INSERT
  5
15185
330
1312D
100
AcDbEntity
  8
寸法線
 62
     0
440
 16777216
370
    -2
100
AcDbBlockReference
  2
_OPEN
 10
2659.999990093437
 20
1805.499952736578
 30
0.0
 41
20.0
 42
20.0
 43
20.0
 50
90.0
  0
MTEXT
  5
15186
330
1312D
100
AcDbEntity
  8
寸法線
 62
     0
440
 16777216
100
AcDbMText
 10
2638.749990093437
 20
1814.999952736577
 30
0.0
 40
25.0
 41
0.0
 46
0.0
 71
     5
 72
     1
  1
\A1;19
 11
0.0000000000000001
 21
1.0
 31
0.0
 73
     1
 44
1.0
  0
POINT
  5
15187
330
1312D
100
AcDbEntity
  8
Defpoints
 62
     0
440
 16777216
100
AcDbPoint
 10
2579.99999009344
 20
1824.499952736578
 30
0.0
  0
POINT
  5
15188
330
1312D
100
AcDbEntity
  8
Defpoints
 62
     0
440
 16777216
100
AcDbPoint
 10
2579.99999009344
 20
1805.499952736578
 30
0.0
  0
POINT
  5
15189
330
1312D
100
AcDbEntity
  8
Defpoints
 62
     0
440
 16777216
100
AcDbPoint
 10
2659.999990093437
 20
1805.499952736578
 30
0.0
  0
ENDBLK
  5
1312F
330
1312D
100
AcDbEntity
  8
0
100
AcDbBlockEnd
  0
BLOCK
  5
1313C
330
1313B
100
AcDbEntity
  8
0
100
AcDbBlockBegin
  2
*D16
 70
     1
 10
0.0
 20
0.0
 30
0.0
  3
*D16
  1

  0
LINE
  5
1518A
330
1313B
100
AcDbEntity
  8
寸法線
 62
     0
440
 16777216
370
    -2
100
AcDbLine
 10
2596.750013673037
 20
1475.000020847982
 30
0.0
 11
2669.999990093437
 21
1475.000020847982
 31
0.0
  0
LINE
  5
1518B
330
1313B
100
AcDbEntity
  8
寸法線
 62
     0
440
 16777216
370
    -2
100
AcDbLine
 10
2468.750009906571
 20
1444.999952939926
 30
0.0
 11
2669.999990093437
 21
1444.999952939926
 31
0.0
  0
LINE
  5
1518C
330
1313B
100
AcDbEntity
  8
寸法線
 62
     0
440
 16777216
370
    -2
100
AcDbLine
 10
2659.999990093437
 20
1495.000020847982
 30
0.0
 11
2659.999990093437
 21
1515.000020847982
 31
0.0
  0
LINE
  5
1518D
330
1313B
100
AcDbEntity
  8
寸法線
 62
     0
440
 16777216
370
    -2
100
AcDbLine
 10
2659.999990093437
 20
1424.999952939926
 30
0.0
 11
2659.999990093437
 21
1404.999952939926
 31
0.0
  0
LINE
  5
1518E
330
1313B
100
AcDbEntity
  8
寸法線
 62
     0
440
 16777216
370
    -2
100
AcDbLine
 10
2659.999990093437
 20
1475.000020847982
 30
0.0
 11
2659.999990093437
 21
1444.999952939926
 31
0.0
  0
INSERT
  5
1518F
330
1313B
100
AcDbEntity
  8
寸法線
 62
     0
440
 16777216
370
    -2
100
AcDbBlockReference
  2
_OPEN
 10
2659.999990093437
 20
1475.000020847982
 30
0.0
 41
20.0
 42
20.0
 43
20.0
 50
270.0
  0
INSERT
  5
15190
330
1313B
100
AcDbEntity
  8
寸法線
 62
     0
440
 16777216
370
    -2
100
AcDbBlockReference
  2
_OPEN
 10
2659.999990093437
 20
1444.999952939926
 30
0.0
 41
20.0
 42
20.0
 43
20.0
 50
90.0
  0
MTEXT
  5
15191
330
1313B
100
AcDbEntity
  8
寸法線
 62
     0
440
 16777216
100
AcDbMText
 10
2638.749990093437
 20
1459.999986893953
 30
0.0
 40
25.0
 41
0.0
 46
0.0
 71
     5
 72
     1
  1
\A1;30
 11
0.0000000000000001
 21
1.0
 31
0.0
 73
     1
 44
1.0
  0
POINT
  5
15192
330
1313B
100
AcDbEntity
  8
Defpoints
 62
     0
440
 16777216
100
AcDbPoint
 10
2588.000013673037
 20
1475.000020847982
 30
0.0
  0
POINT
  5
15193
330
1313B
100
AcDbEntity
  8
Defpoints
 62
     0
440
 16777216
100
AcDbPoint
 10
2460.000009906571
 20
1444.999952939926
 30
0.0
  0
POINT
  5
15194
330
1313B
100
AcDbEntity
  8
Defpoints
 62
     0
440
 16777216
100
AcDbPoint
 10
2659.999990093437
 20
1444.999952939926
 30
0.0
  0
ENDBLK
  5
1313D
330
1313B
100
AcDbEntity
  8
0
100
AcDbBlockEnd
  0
BLOCK
  5
1314A
330
13149
100
AcDbEntity
  8
0
100
AcDbBlockBegin
  2
*D17
 70
     1
 10
0.0
 20
0.0
 30
0.0
  3
*D17
  1

  0
LINE
  5
15195
330
13149
100
AcDbEntity
  8
寸法線
 62
     0
440
 16777216
370
    -2
100
AcDbLine
 10
3810.000009906538
 20
2036.24996126072
 30
0.0
 11
3810.000009906538
 21
1914.999961260719
 31
0.0
  0
LINE
  5
15196
330
13149
100
AcDbEntity
  8
寸法線
 62
     0
440
 16777216
370
    -2
100
AcDbLine
 10
3410.000009906538
 20
2036.24996126072
 30
0.0
 11
3410.000009906538
 21
1914.999961260719
 31
0.0
  0
LINE
  5
15197
330
13149
100
AcDbEntity
  8
寸法線
 62
     0
440
 16777216
370
    -2
100
AcDbLine
 10
3790.000009906538
 20
1924.999961260719
 30
0.0
 11
3430.000009906538
 21
1924.999961260719
 31
0.0
  0
INSERT
  5
15198
330
13149
100
AcDbEntity
  8
寸法線
 62
     0
440
 16777216
370
    -2
100
AcDbBlockReference
  2
_OPEN
 10
3810.000009906538
 20
1924.999961260719
 30
0.0
 41
20.0
 42
20.0
 43
20.0
  0
INSERT
  5
15199
330
13149
100
AcDbEntity
  8
寸法線
 62
     0
440
 16777216
370
    -2
100
AcDbBlockReference
  2
_OPEN
 10
3410.000009906538
 20
1924.999961260719
 30
0.0
 41
20.0
 42
20.0
 43
20.0
 50
180.0
  0
MTEXT
  5
1519A
330
13149
100
AcDbEntity
  8
寸法線
 62
     0
440
 16777216
100
AcDbMText
 10
3610.00000990654
 20
1946.249961260719
 30
0.0
 40
25.0
 41
0.0
 46
0.0
 71
     5
 72
     1
  1
\A1;400
 73
     1
 44
1.0
  0
POINT
  5
1519B
330
13149
100
AcDbEntity
  8
Defpoints
 62
     0
440
 16777216
100
AcDbPoint
 10
3810.000009906538
 20
2044.999961260719
 30
0.0
  0
POINT
  5
1519C
330
13149
100
AcDbEntity
  8
Defpoints
 62
     0
440
 16777216
100
AcDbPoint
 10
3410.000009906538
 20
2044.999961260719
 30
0.0
  0
POINT
  5
1519D
330
13149
100
AcDbEntity
  8
Defpoints
 62
     0
440
 16777216
100
AcDbPoint
 10
3410.000009906538
 20
1924.999961260719
 30
0.0
  0
ENDBLK
  5
1314B
330
13149
100
AcDbEntity
  8
0
100
AcDbBlockEnd
  0
BLOCK
  5
13156
330
13155
100
AcDbEntity
  8
0
100
AcDbBlockBegin
  2
*D18
 70
     1
 10
0.0
 20
0.0
 30
0.0
  3
*D18
  1

  0
LINE
  5
1519E
330
13155
100
AcDbEntity
  8
寸法線
 62
     0
440
 16777216
370
    -2
100
AcDbLine
 10
3401.250009906539
 20
2445.000000886937
 30
0.0
 11
3280.000009906537
 21
2445.000000886937
 31
0.0
  0
LINE
  5
1519F
330
13155
100
AcDbEntity
  8
寸法線
 62
     0
440
 16777216
370
    -2
100
AcDbLine
 10
3401.250009906539
 20
2045.000000886937
 30
0.0
 11
3280.000009906537
 21
2045.000000886937
 31
0.0
  0
LINE
  5
151A0
330
13155
100
AcDbEntity
  8
寸法線
 62
     0
440
 16777216
370
    -2
100
AcDbLine
 10
3290.000009906537
 20
2425.000000886937
 30
0.0
 11
3290.000009906537
 21
2065.000000886937
 31
0.0
  0
INSERT
  5
151A1
330
13155
100
AcDbEntity
  8
寸法線
 62
     0
440
 16777216
370
    -2
100
AcDbBlockReference
  2
_OPEN
 10
3290.000009906537
 20
2445.000000886937
 30
0.0
 41
20.0
 42
20.0
 43
20.0
 50
90.0
  0
INSERT
  5
151A2
330
13155
100
AcDbEntity
  8
寸法線
 62
     0
440
 16777216
370
    -2
100
AcDbBlockReference
  2
_OPEN
 10
3290.000009906537
 20
2045.000000886937
 30
0.0
 41
20.0
 42
20.0
 43
20.0
 50
270.0
  0
MTEXT
  5
151A3
330
13155
100
AcDbEntity
  8
寸法線
 62
     0
440
 16777216
100
AcDbMText
 10
3268.750009906537
 20
2244.999981073828
 30
0.0
 40
25.0
 41
0.0
 46
0.0
 71
     5
 72
     1
  1
\A1;400
 11
0.0000000000000001
 21
1.0
 31
0.0
 73
     1
 44
1.0
  0
POINT
  5
151A4
330
13155
100
AcDbEntity
  8
Defpoints
 62
     0
440
 16777216
100
AcDbPoint
 10
3410.000009906539
 20
2445.000000886937
 30
0.0
  0
POINT
  5
151A5
330
13155
100
AcDbEntity
  8
Defpoints
 62
     0
440
 16777216
100
AcDbPoint
 10
3410.000009906539
 20
2045.000000886937
 30
0.0
  0
POINT
  5
151A6
330
13155
100
AcDbEntity
  8
Defpoints
 62
     0
440
 16777216
100
AcDbPoint
 10
3290.000009906537
 20
2045.000000886937
 30
0.0
  0
ENDBLK
  5
13157
330
13155
100
AcDbEntity
  8
0
100
AcDbBlockEnd
  0
BLOCK
  5
13162
330
13161
100
AcDbEntity
  8
0
100
AcDbBlockBegin
  2
*D19
 70
     1
 10
0.0
 20
0.0
 30
0.0
  3
*D19
  1

  0
LINE
  5
151A7
330
13161
100
AcDbEntity
  8
寸法線
 62
     0
440
 16777216
370
    -2
100
AcDbLine
 10
2782.249990093438
 20
2250.999977720582
 30
0.0
 11
2681.000004528428
 21
2250.999977720582
 31
0.0
  0
LINE
  5
151A8
330
13161
100
AcDbEntity
  8
寸法線
 62
     0
440
 16777216
370
    -2
100
AcDbLine
 10
2782.249990093438
 20
2238.999977720582
 30
0.0
 11
2681.000004528428
 21
2238.999977720582
 31
0.0
  0
LINE
  5
151A9
330
13161
100
AcDbEntity
  8
寸法線
 62
     0
440
 16777216
370
    -2
100
AcDbLine
 10
2691.000004528428
 20
2270.999977720582
 30
0.0
 11
2691.000004528428
 21
2290.999977720582
 31
0.0
  0
LINE
  5
151AA
330
13161
100
AcDbEntity
  8
寸法線
 62
     0
440
 16777216
370
    -2
100
AcDbLine
 10
2691.000004528428
 20
2218.999977720582
 30
0.0
 11
2691.000004528428
 21
2198.999977720582
 31
0.0
  0
LINE
  5
151AB
330
13161
100
AcDbEntity
  8
寸法線
 62
     0
440
 16777216
370
    -2
100
AcDbLine
 10
2691.000004528428
 20
2250.999977720582
 30
0.0
 11
2691.000004528428
 21
2238.999977720582
 31
0.0
  0
INSERT
  5
151AC
330
13161
100
AcDbEntity
  8
寸法線
 62
     0
440
 16777216
370
    -2
100
AcDbBlockReference
  2
_OPEN
 10
2691.000004528428
 20
2250.999977720582
 30
0.0
 41
20.0
 42
20.0
 43
20.0
 50
270.0
  0
INSERT
  5
151AD
330
13161
100
AcDbEntity
  8
寸法線
 62
     0
440
 16777216
370
    -2
100
AcDbBlockReference
  2
_OPEN
 10
2691.000004528428
 20
2238.999977720582
 30
0.0
 41
20.0
 42
20.0
 43
20.0
 50
90.0
  0
MTEXT
  5
151AE
330
13161
100
AcDbEntity
  8
寸法線
 62
     0
440
 16777216
100
AcDbMText
 10
2669.747543898507
 20
2244.999977720581
 30
0.0
 40
25.0
 41
0.0
 46
0.0
 71
     5
 72
     1
  1
\A1;12
 11
0.0000000000000001
 21
1.0
 31
0.0
 73
     1
 44
1.0
  0
POINT
  5
151AF
330
13161
100
AcDbEntity
  8
Defpoints
 62
     0
440
 16777216
100
AcDbPoint
 10
2790.999990093439
 20
2250.999977720582
 30
0.0
  0
POINT
  5
151B0
330
13161
100
AcDbEntity
  8
Defpoints
 62
     0
440
 16777216
100
AcDbPoint
 10
2790.999990093439
 20
2238.999977720582
 30
0.0
  0
POINT
  5
151B1
330
13161
100
AcDbEntity
  8
Defpoints
 62
     0
440
 16777216
100
AcDbPoint
 10
2691.000004528428
 20
2238.999977720582
 30
0.0
  0
ENDBLK
  5
13163
330
13161
100
AcDbEntity
  8
0
100
AcDbBlockEnd
  0
BLOCK
  5
14363
330
14362
100
AcDbEntity
  8
0
100
AcDbBlockBegin
  2
*D20
 70
     1
 10
0.0
 20
0.0
 30
0.0
  3
*D20
  1

  0
LINE
  5
1528B
330
14362
100
AcDbEntity
  8
寸法線
 62
     0
440
 16777216
370
    -2
100
AcDbLine
 10
2375.250061699079
 20
939.9999902064459
 30
0.0
 11
2374.000061699078
 21
939.9999902064459
 31
0.0
  0
LINE
  5
1528C
330
14362
100
AcDbEntity
  8
寸法線
 62
     0
440
 16777216
370
    -2
100
AcDbLine
 10
2375.250061699079
 20
999.9999902064459
 30
0.0
 11
2374.000061699078
 21
999.9999902064459
 31
0.0
  0
LINE
  5
1528D
330
14362
100
AcDbEntity
  8
寸法線
 62
     0
440
 16777216
370
    -2
100
AcDbLine
 10
2384.000061699078
 20
979.999990206446
 30
0.0
 11
2384.000061699078
 21
959.999990206446
 31
0.0
  0
LINE
  5
1528E
330
14362
100
AcDbEntity
  8
寸法線
 62
     0
440
 16777216
370
    -2
100
AcDbLine
 10
2384.000061699078
 20
939.9999902064459
 30
0.0
 11
2384.000061699078
 21
852.4803051670549
 31
0.0
  0
INSERT
  5
1528F
330
14362
100
AcDbEntity
  8
寸法線
 62
     0
440
 16777216
370
    -2
100
AcDbBlockReference
  2
_OPEN
 10
2384.000061699078
 20
999.9999902064459
 30
0.0
 41
20.0
 42
20.0
 43
20.0
 50
90.0
  0
INSERT
  5
15290
330
14362
100
AcDbEntity
  8
寸法線
 62
     0
440
 16777216
370
    -2
100
AcDbBlockReference
  2
_OPEN
 10
2384.000061699078
 20
939.9999902064459
 30
0.0
 41
20.0
 42
20.0
 43
20.0
 50
270.0
  0
MTEXT
  5
15291
330
14362
100
AcDbEntity
  8
寸法線
 62
     0
440
 16777216
100
AcDbMText
 10
2362.750061699078
 20
886.240147686739
 30
0.0
 40
25.0
 41
0.0
 46
0.0
 71
     5
 72
     1
  1
\A1;%%C60
 11
0.0000000000000001
 21
1.0
 31
0.0
 73
     1
 44
1.0
  0
POINT
  5
15292
330
14362
100
AcDbEntity
  8
Defpoints
 62
     0
440
 16777216
100
AcDbPoint
 10
2384.000061699079
 20
939.9999902064459
 30
0.0
  0
POINT
  5
15293
330
14362
100
AcDbEntity
  8
Defpoints
 62
     0
440
 16777216
100
AcDbPoint
 10
2384.000061699079
 20
999.9999902064459
 30
0.0
  0
POINT
  5
15294
330
14362
100
AcDbEntity
  8
Defpoints
 62
     0
440
 16777216
100
AcDbPoint
 10
2384.000061699078
 20
999.9999902064459
 30
0.0
  0
ENDBLK
  5
14364
330
14362
100
AcDbEntity
  8
0
100
AcDbBlockEnd
  0
BLOCK
  5
14370
330
1436F
100
AcDbEntity
  8
0
100
AcDbBlockBegin
  2
*D21
 70
     1
 10
0.0
 20
0.0
 30
0.0
  3
*D21
  1

  0
LINE
  5
15295
330
1436F
100
AcDbEntity
  8
寸法線
 62
     0
440
 16777216
370
    -2
100
AcDbLine
 10
1076.000061699078
 20
1018.749990206445
 30
0.0
 11
1076.000061699078
 21
1109.999999328777
 31
0.0
  0
LINE
  5
15296
330
1436F
100
AcDbEntity
  8
寸法線
 62
     0
440
 16777216
370
    -2
100
AcDbLine
 10
1552.000061699078
 20
1038.749990206445
 30
0.0
 11
1552.000061699078
 21
1109.999999328777
 31
0.0
  0
LINE
  5
15297
330
1436F
100
AcDbEntity
  8
寸法線
 62
     0
440
 16777216
370
    -2
100
AcDbLine
 10
1096.000061699078
 20
1099.999999328777
 30
0.0
 11
1532.000061699078
 21
1099.999999328777
 31
0.0
  0
INSERT
  5
15298
330
1436F
100
AcDbEntity
  8
寸法線
 62
     0
440
 16777216
370
    -2
100
AcDbBlockReference
  2
_OPEN
 10
1076.000061699078
 20
1099.999999328777
 30
0.0
 41
20.0
 42
20.0
 43
20.0
 50
180.0
  0
INSERT
  5
15299
330
1436F
100
AcDbEntity
  8
寸法線
 62
     0
440
 16777216
370
    -2
100
AcDbBlockReference
  2
_OPEN
 10
1552.000061699078
 20
1099.999999328777
 30
0.0
 41
20.0
 42
20.0
 43
20.0
  0
MTEXT
  5
1529A
330
1436F
100
AcDbEntity
  8
寸法線
 62
     0
440
 16777216
100
AcDbMText
 10
1314.000061699078
 20
1121.249999328777
 30
0.0
 40
25.0
 41
0.0
 46
0.0
 71
     5
 72
     1
  1
\A1;476
 73
     1
 44
1.0
  0
POINT
  5
1529B
330
1436F
100
AcDbEntity
  8
Defpoints
 62
     0
440
 16777216
100
AcDbPoint
 10
1076.000061699078
 20
1009.999990206445
 30
0.0
  0
POINT
  5
1529C
330
1436F
100
AcDbEntity
  8
Defpoints
 62
     0
440
 16777216
100
AcDbPoint
 10
1552.000061699078
 20
1029.999990206445
 30
0.0
  0
POINT
  5
1529D
330
1436F
100
AcDbEntity
  8
Defpoints
 62
     0
440
 16777216
100
AcDbPoint
 10
1552.000061699078
 20
1099.999999328777
 30
0.0
  0
ENDBLK
  5
14371
330
1436F
100
AcDbEntity
  8
0
100
AcDbBlockEnd
  0
BLOCK
  5
1437C
330
1437B
100
AcDbEntity
  8
0
100
AcDbBlockBegin
  2
*D22
 70
     1
 10
0.0
 20
0.0
 30
0.0
  3
*D22
  1

  0
LINE
  5
151BC
330
1437B
100
AcDbEntity
  8
寸法線
 62
     0
440
 16777216
370
    -2
100
AcDbLine
 10
1076.000061699078
 20
581.2499993287793
 30
0.0
 11
1076.000061699078
 21
489.9999810841136
 31
0.0
  0
LINE
  5
151BD
330
1437B
100
AcDbEntity
  8
寸法線
 62
     0
440
 16777216
370
    -2
100
AcDbLine
 10
1108.000061699078
 20
591.2499993287792
 30
0.0
 11
1108.000061699078
 21
489.9999810841136
 31
0.0
  0
LINE
  5
151BE
330
1437B
100
AcDbEntity
  8
寸法線
 62
     0
440
 16777216
370
    -2
100
AcDbLine
 10
1056.000061699078
 20
499.9999810841136
 30
0.0
 11
1036.000061699078
 21
499.9999810841136
 31
0.0
  0
LINE
  5
151BF
330
1437B
100
AcDbEntity
  8
寸法線
 62
     0
440
 16777216
370
    -2
100
AcDbLine
 10
1128.000061699077
 20
499.9999810841136
 30
0.0
 11
1148.000061699078
 21
499.9999810841136
 31
0.0
  0
LINE
  5
151C0
330
1437B
100
AcDbEntity
  8
寸法線
 62
     0
440
 16777216
370
    -2
100
AcDbLine
 10
1076.000061699078
 20
499.9999810841136
 30
0.0
 11
1108.000061699078
 21
499.9999810841136
 31
0.0
  0
INSERT
  5
151C1
330
1437B
100
AcDbEntity
  8
寸法線
 62
     0
440
 16777216
370
    -2
100
AcDbBlockReference
  2
_OPEN
 10
1076.000061699078
 20
499.9999810841136
 30
0.0
 41
20.0
 42
20.0
 43
20.0
  0
INSERT
  5
151C2
330
1437B
100
AcDbEntity
  8
寸法線
 62
     0
440
 16777216
370
    -2
100
AcDbBlockReference
  2
_OPEN
 10
1108.000061699078
 20
499.9999810841136
 30
0.0
 41
20.0
 42
20.0
 43
20.0
 50
180.0
  0
MTEXT
  5
151C3
330
1437B
100
AcDbEntity
  8
寸法線
 62
     0
440
 16777216
100
AcDbMText
 10
1092.000061699078
 20
521.2524417140349
 30
0.0
 40
25.0
 41
0.0
 46
0.0
 71
     5
 72
     1
  1
\A1;32
 73
     1
 44
1.0
  0
POINT
  5
151C4
330
1437B
100
AcDbEntity
  8
Defpoints
 62
     0
440
 16777216
100
AcDbPoint
 10
1076.000061699078
 20
589.9999993287792
 30
0.0
  0
POINT
  5
151C5
330
1437B
100
AcDbEntity
  8
Defpoints
 62
     0
440
 16777216
100
AcDbPoint
 10
1108.000061699078
 20
599.9999993287793
 30
0.0
  0
POINT
  5
151C6
330
1437B
100
AcDbEntity
  8
Defpoints
 62
     0
440
 16777216
100
AcDbPoint
 10
1108.000061699078
 20
499.9999810841136
 30
0.0
  0
ENDBLK
  5
1437D
330
1437B
100
AcDbEntity
  8
0
100
AcDbBlockEnd
  0
BLOCK
  5
1438A
330
14389
100
AcDbEntity
  8
0
100
AcDbBlockBegin
  2
*D23
 70
     1
 10
0.0
 20
0.0
 30
0.0
  3
*D23
  1

  0
LINE
  5
151C7
330
14389
100
AcDbEntity
  8
寸法線
 62
     0
440
 16777216
370
    -2
100
AcDbLine
 10
1108.000061699078
 20
591.2499993287792
 30
0.0
 11
1108.000061699078
 21
489.9999810841136
 31
0.0
  0
LINE
  5
151C8
330
14389
100
AcDbEntity
  8
寸法線
 62
     0
440
 16777216
370
    -2
100
AcDbLine
 10
2412.000061699078
 20
591.2499993287792
 30
0.0
 11
2412.000061699078
 21
489.9999810841136
 31
0.0
  0
LINE
  5
151C9
330
14389
100
AcDbEntity
  8
寸法線
 62
     0
440
 16777216
370
    -2
100
AcDbLine
 10
1128.000061699077
 20
499.9999810841136
 30
0.0
 11
2392.000061699078
 21
499.9999810841136
 31
0.0
  0
INSERT
  5
151CA
330
14389
100
AcDbEntity
  8
寸法線
 62
     0
440
 16777216
370
    -2
100
AcDbBlockReference
  2
_OPEN
 10
1108.000061699078
 20
499.9999810841136
 30
0.0
 41
20.0
 42
20.0
 43
20.0
 50
180.0
  0
INSERT
  5
151CB
330
14389
100
AcDbEntity
  8
寸法線
 62
     0
440
 16777216
370
    -2
100
AcDbBlockReference
  2
_OPEN
 10
2412.000061699078
 20
499.9999810841136
 30
0.0
 41
20.0
 42
20.0
 43
20.0
  0
MTEXT
  5
151CC
330
14389
100
AcDbEntity
  8
寸法線
 62
     0
440
 16777216
100
AcDbMText
 10
1760.000061699078
 20
521.2499810841136
 30
0.0
 40
25.0
 41
0.0
 46
0.0
 71
     5
 72
     1
  1
\A1;1304
 73
     1
 44
1.0
  0
POINT
  5
151CD
330
14389
100
AcDbEntity
  8
Defpoints
 62
     0
440
 16777216
100
AcDbPoint
 10
1108.000061699078
 20
599.9999993287793
 30
0.0
  0
POINT
  5
151CE
330
14389
100
AcDbEntity
  8
Defpoints
 62
     0
440
 16777216
100
AcDbPoint
 10
2412.000061699078
 20
599.9999993287793
 30
0.0
  0
POINT
  5
151CF
330
14389
100
AcDbEntity
  8
Defpoints
 62
     0
440
 16777216
100
AcDbPoint
 10
2412.000061699078
 20
499.9999810841136
 30
0.0
  0
ENDBLK
  5
1438B
330
14389
100
AcDbEntity
  8
0
100
AcDbBlockEnd
  0
BLOCK
  5
14396
330
14395
100
AcDbEntity
  8
0
100
AcDbBlockBegin
  2
*D24
 70
     1
 10
0.0
 20
0.0
 30
0.0
  3
*D24
  1

  0
LINE
  5
151D0
330
14395
100
AcDbEntity
  8
寸法線
 62
     0
440
 16777216
370
    -2
100
AcDbLine
 10
2412.000165284093
 20
591.2499993287792
 30
0.0
 11
2412.000165284093
 21
489.9999810841136
 31
0.0
  0
LINE
  5
151D1
330
14395
100
AcDbEntity
  8
寸法線
 62
     0
440
 16777216
370
    -2
100
AcDbLine
 10
2444.000061699078
 20
581.2499993287793
 30
0.0
 11
2444.000061699078
 21
489.9999810841136
 31
0.0
  0
LINE
  5
151D2
330
14395
100
AcDbEntity
  8
寸法線
 62
     0
440
 16777216
370
    -2
100
AcDbLine
 10
2392.000165284092
 20
499.9999810841136
 30
0.0
 11
2372.000165284092
 21
499.9999810841136
 31
0.0
  0
LINE
  5
151D3
330
14395
100
AcDbEntity
  8
寸法線
 62
     0
440
 16777216
370
    -2
100
AcDbLine
 10
2464.000061699078
 20
499.9999810841136
 30
0.0
 11
2484.000061699078
 21
499.9999810841136
 31
0.0
  0
LINE
  5
151D4
330
14395
100
AcDbEntity
  8
寸法線
 62
     0
440
 16777216
370
    -2
100
AcDbLine
 10
2412.000165284093
 20
499.9999810841136
 30
0.0
 11
2444.000061699078
 21
499.9999810841136
 31
0.0
  0
INSERT
  5
151D5
330
14395
100
AcDbEntity
  8
寸法線
 62
     0
440
 16777216
370
    -2
100
AcDbBlockReference
  2
_OPEN
 10
2412.000165284093
 20
499.9999810841136
 30
0.0
 41
20.0
 42
20.0
 43
20.0
  0
INSERT
  5
151D6
330
14395
100
AcDbEntity
  8
寸法線
 62
     0
440
 16777216
370
    -2
100
AcDbBlockReference
  2
_OPEN
 10
2444.000061699078
 20
499.9999810841136
 30
0.0
 41
20.0
 42
20.0
 43
20.0
 50
180.0
  0
MTEXT
  5
151D7
330
14395
100
AcDbEntity
  8
寸法線
 62
     0
440
 16777216
100
AcDbMText
 10
2428.000113491585
 20
521.2524417140349
 30
0.0
 40
25.0
 41
0.0
 46
0.0
 71
     5
 72
     1
  1
\A1;32
 73
     1
 44
1.0
  0
POINT
  5
151D8
330
14395
100
AcDbEntity
  8
Defpoints
 62
     0
440
 16777216
100
AcDbPoint
 10
2412.000165284093
 20
599.9999993287793
 30
0.0
  0
POINT
  5
151D9
330
14395
100
AcDbEntity
  8
Defpoints
 62
     0
440
 16777216
100
AcDbPoint
 10
2444.000061699078
 20
589.9999993287792
 30
0.0
  0
POINT
  5
151DA
330
14395
100
AcDbEntity
  8
Defpoints
 62
     0
440
 16777216
100
AcDbPoint
 10
2444.000061699078
 20
499.9999810841136
 30
0.0
  0
ENDBLK
  5
14397
330
14395
100
AcDbEntity
  8
0
100
AcDbBlockEnd
  0
BLOCK
  5
143A4
330
143A3
100
AcDbEntity
  8
0
100
AcDbBlockBegin
  2
*D25
 70
     1
 10
0.0
 20
0.0
 30
0.0
  3
*D25
  1

  0
LINE
  5
151DB
330
143A3
100
AcDbEntity
  8
寸法線
 62
     0
440
 16777216
370
    -2
100
AcDbLine
 10
1060.000061699078
 20
581.2499993287793
 30
0.0
 11
1060.000061699078
 21
429.9999810841136
 31
0.0
  0
LINE
  5
151DC
330
143A3
100
AcDbEntity
  8
寸法線
 62
     0
440
 16777216
370
    -2
100
AcDbLine
 10
1076.000061699078
 20
581.2499993287793
 30
0.0
 11
1076.000061699078
 21
429.9999810841136
 31
0.0
  0
LINE
  5
151DD
330
143A3
100
AcDbEntity
  8
寸法線
 62
     0
440
 16777216
370
    -2
100
AcDbLine
 10
1040.000061699078
 20
439.9999810841136
 30
0.0
 11
1020.000061699078
 21
439.9999810841136
 31
0.0
  0
LINE
  5
151DE
330
143A3
100
AcDbEntity
  8
寸法線
 62
     0
440
 16777216
370
    -2
100
AcDbLine
 10
1096.000061699078
 20
439.9999810841136
 30
0.0
 11
1116.000061699078
 21
439.9999810841136
 31
0.0
  0
LINE
  5
151DF
330
143A3
100
AcDbEntity
  8
寸法線
 62
     0
440
 16777216
370
    -2
100
AcDbLine
 10
1060.000061699078
 20
439.9999810841136
 30
0.0
 11
1076.000061699078
 21
439.9999810841136
 31
0.0
  0
INSERT
  5
151E0
330
143A3
100
AcDbEntity
  8
寸法線
 62
     0
440
 16777216
370
    -2
100
AcDbBlockReference
  2
_OPEN
 10
1060.000061699078
 20
439.9999810841136
 30
0.0
 41
20.0
 42
20.0
 43
20.0
  0
INSERT
  5
151E1
330
143A3
100
AcDbEntity
  8
寸法線
 62
     0
440
 16777216
370
    -2
100
AcDbBlockReference
  2
_OPEN
 10
1076.000061699078
 20
439.9999810841136
 30
0.0
 41
20.0
 42
20.0
 43
20.0
 50
180.0
  0
MTEXT
  5
151E2
330
143A3
100
AcDbEntity
  8
寸法線
 62
     0
440
 16777216
100
AcDbMText
 10
1068.000061699078
 20
461.2499810841136
 30
0.0
 40
25.0
 41
0.0
 46
0.0
 71
     5
 72
     1
  1
\A1;16
 73
     1
 44
1.0
  0
POINT
  5
151E3
330
143A3
100
AcDbEntity
  8
Defpoints
 62
     0
440
 16777216
100
AcDbPoint
 10
1060.000061699078
 20
589.9999993287792
 30
0.0
  0
POINT
  5
151E4
330
143A3
100
AcDbEntity
  8
Defpoints
 62
     0
440
 16777216
100
AcDbPoint
 10
1076.000061699078
 20
589.9999993287792
 30
0.0
  0
POINT
  5
151E5
330
143A3
100
AcDbEntity
  8
Defpoints
 62
     0
440
 16777216
100
AcDbPoint
 10
1076.000061699078
 20
439.9999810841136
 30
0.0
  0
ENDBLK
  5
143A5
330
143A3
100
AcDbEntity
  8
0
100
AcDbBlockEnd
  0
BLOCK
  5
143B2
330
143B1
100
AcDbEntity
  8
0
100
AcDbBlockBegin
  2
*D26
 70
     1
 10
0.0
 20
0.0
 30
0.0
  3
*D26
  1

  0
LINE
  5
151E6
330
143B1
100
AcDbEntity
  8
寸法線
 62
     0
440
 16777216
370
    -2
100
AcDbLine
 10
1076.000061699078
 20
581.2499993287793
 30
0.0
 11
1076.000061699078
 21
429.9999810841136
 31
0.0
  0
LINE
  5
151E7
330
143B1
100
AcDbEntity
  8
寸法線
 62
     0
440
 16777216
370
    -2
100
AcDbLine
 10
2444.000061699078
 20
581.2499902064455
 30
0.0
 11
2444.000061699078
 21
429.9999810841136
 31
0.0
  0
LINE
  5
151E8
330
143B1
100
AcDbEntity
  8
寸法線
 62
     0
440
 16777216
370
    -2
100
AcDbLine
 10
1096.000061699078
 20
439.9999810841136
 30
0.0
 11
2424.000061699078
 21
439.9999810841136
 31
0.0
  0
INSERT
  5
151E9
330
143B1
100
AcDbEntity
  8
寸法線
 62
     0
440
 16777216
370
    -2
100
AcDbBlockReference
  2
_OPEN
 10
1076.000061699078
 20
439.9999810841136
 30
0.0
 41
20.0
 42
20.0
 43
20.0
 50
180.0
  0
INSERT
  5
151EA
330
143B1
100
AcDbEntity
  8
寸法線
 62
     0
440
 16777216
370
    -2
100
AcDbBlockReference
  2
_OPEN
 10
2444.000061699078
 20
439.9999810841136
 30
0.0
 41
20.0
 42
20.0
 43
20.0
  0
MTEXT
  5
151EB
330
143B1
100
AcDbEntity
  8
寸法線
 62
     0
440
 16777216
100
AcDbMText
 10
1760.000061699078
 20
461.2499810841136
 30
0.0
 40
25.0
 41
0.0
 46
0.0
 71
     5
 72
     1
  1
\A1;1368
 73
     1
 44
1.0
  0
POINT
  5
151EC
330
143B1
100
AcDbEntity
  8
Defpoints
 62
     0
440
 16777216
100
AcDbPoint
 10
1076.000061699078
 20
589.9999993287792
 30
0.0
  0
POINT
  5
151ED
330
143B1
100
AcDbEntity
  8
Defpoints
 62
     0
440
 16777216
100
AcDbPoint
 10
2444.000061699078
 20
589.9999902064455
 30
0.0
  0
POINT
  5
151EE
330
143B1
100
AcDbEntity
  8
Defpoints
 62
     0
440
 16777216
100
AcDbPoint
 10
2444.000061699078
 20
439.9999810841136
 30
0.0
  0
ENDBLK
  5
143B3
330
143B1
100
AcDbEntity
  8
0
100
AcDbBlockEnd
  0
BLOCK
  5
143BE
330
143BD
100
AcDbEntity
  8
0
100
AcDbBlockBegin
  2
*D27
 70
     1
 10
0.0
 20
0.0
 30
0.0
  3
*D27
  1

  0
LINE
  5
151EF
330
143BD
100
AcDbEntity
  8
寸法線
 62
     0
440
 16777216
370
    -2
100
AcDbLine
 10
2444.000061699078
 20
581.2499993287793
 30
0.0
 11
2444.000061699078
 21
429.9999810841136
 31
0.0
  0
LINE
  5
151F0
330
143BD
100
AcDbEntity
  8
寸法線
 62
     0
440
 16777216
370
    -2
100
AcDbLine
 10
2460.000061699078
 20
581.2499993287793
 30
0.0
 11
2460.000061699078
 21
429.9999810841136
 31
0.0
  0
LINE
  5
151F1
330
143BD
100
AcDbEntity
  8
寸法線
 62
     0
440
 16777216
370
    -2
100
AcDbLine
 10
2424.000061699078
 20
439.9999810841136
 30
0.0
 11
2404.000061699078
 21
439.9999810841136
 31
0.0
  0
LINE
  5
151F2
330
143BD
100
AcDbEntity
  8
寸法線
 62
     0
440
 16777216
370
    -2
100
AcDbLine
 10
2480.000061699078
 20
439.9999810841136
 30
0.0
 11
2500.000061699078
 21
439.9999810841136
 31
0.0
  0
LINE
  5
151F3
330
143BD
100
AcDbEntity
  8
寸法線
 62
     0
440
 16777216
370
    -2
100
AcDbLine
 10
2444.000061699078
 20
439.9999810841136
 30
0.0
 11
2460.000061699078
 21
439.9999810841136
 31
0.0
  0
INSERT
  5
151F4
330
143BD
100
AcDbEntity
  8
寸法線
 62
     0
440
 16777216
370
    -2
100
AcDbBlockReference
  2
_OPEN
 10
2444.000061699078
 20
439.9999810841136
 30
0.0
 41
20.0
 42
20.0
 43
20.0
  0
INSERT
  5
151F5
330
143BD
100
AcDbEntity
  8
寸法線
 62
     0
440
 16777216
370
    -2
100
AcDbBlockReference
  2
_OPEN
 10
2460.000061699078
 20
439.9999810841136
 30
0.0
 41
20.0
 42
20.0
 43
20.0
 50
180.0
  0
MTEXT
  5
151F6
330
143BD
100
AcDbEntity
  8
寸法線
 62
     0
440
 16777216
100
AcDbMText
 10
2452.000061699078
 20
461.2499810841136
 30
0.0
 40
25.0
 41
0.0
 46
0.0
 71
     5
 72
     1
  1
\A1;16
 73
     1
 44
1.0
  0
POINT
  5
151F7
330
143BD
100
AcDbEntity
  8
Defpoints
 62
     0
440
 16777216
100
AcDbPoint
 10
2444.000061699078
 20
589.9999993287792
 30
0.0
  0
POINT
  5
151F8
330
143BD
100
AcDbEntity
  8
Defpoints
 62
     0
440
 16777216
100
AcDbPoint
 10
2460.000061699078
 20
589.9999993287792
 30
0.0
  0
POINT
  5
151F9
330
143BD
100
AcDbEntity
  8
Defpoints
 62
     0
440
 16777216
100
AcDbPoint
 10
2460.000061699078
 20
439.9999810841136
 30
0.0
  0
ENDBLK
  5
143BF
330
143BD
100
AcDbEntity
  8
0
100
AcDbBlockEnd
  0
BLOCK
  5
143CC
330
143CB
100
AcDbEntity
  8
0
100
AcDbBlockBegin
  2
*D28
 70
     1
 10
0.0
 20
0.0
 30
0.0
  3
*D28
  1

  0
LINE
  5
151FA
330
143CB
100
AcDbEntity
  8
寸法線
 62
     0
440
 16777216
370
    -2
100
AcDbLine
 10
1060.000061699078
 20
581.2500175733885
 30
0.0
 11
1060.000061699078
 21
369.9999810841136
 31
0.0
  0
LINE
  5
151FB
330
143CB
100
AcDbEntity
  8
寸法線
 62
     0
440
 16777216
370
    -2
100
AcDbLine
 10
2460.000061699078
 20
581.2499902064455
 30
0.0
 11
2460.000061699078
 21
369.9999810841136
 31
0.0
  0
LINE
  5
151FC
330
143CB
100
AcDbEntity
  8
寸法線
 62
     0
440
 16777216
370
    -2
100
AcDbLine
 10
1080.000061699078
 20
379.9999810841137
 30
0.0
 11
2440.000061699078
 21
379.9999810841137
 31
0.0
  0
INSERT
  5
151FD
330
143CB
100
AcDbEntity
  8
寸法線
 62
     0
440
 16777216
370
    -2
100
AcDbBlockReference
  2
_OPEN
 10
1060.000061699078
 20
379.9999810841137
 30
0.0
 41
20.0
 42
20.0
 43
20.0
 50
180.0
  0
INSERT
  5
151FE
330
143CB
100
AcDbEntity
  8
寸法線
 62
     0
440
 16777216
370
    -2
100
AcDbBlockReference
  2
_OPEN
 10
2460.000061699078
 20
379.9999810841137
 30
0.0
 41
20.0
 42
20.0
 43
20.0
  0
MTEXT
  5
151FF
330
143CB
100
AcDbEntity
  8
寸法線
 62
     0
440
 16777216
100
AcDbMText
 10
1760.000061699078
 20
401.2499810841136
 30
0.0
 40
25.0
 41
0.0
 46
0.0
 71
     5
 72
     1
  1
\A1;1400
 73
     1
 44
1.0
  0
POINT
  5
15200
330
143CB
100
AcDbEntity
  8
Defpoints
 62
     0
440
 16777216
100
AcDbPoint
 10
1060.000061699078
 20
590.0000175733885
 30
0.0
  0
POINT
  5
15201
330
143CB
100
AcDbEntity
  8
Defpoints
 62
     0
440
 16777216
100
AcDbPoint
 10
2460.000061699078
 20
589.9999902064455
 30
0.0
  0
POINT
  5
15202
330
143CB
100
AcDbEntity
  8
Defpoints
 62
     0
440
 16777216
100
AcDbPoint
 10
2460.000061699078
 20
379.9999810841137
 30
0.0
  0
ENDBLK
  5
143CD
330
143CB
100
AcDbEntity
  8
0
100
AcDbBlockEnd
  0
BLOCK
  5
143D8
330
143D7
100
AcDbEntity
  8
0
100
AcDbBlockBegin
  2
*D29
 70
     1
 10
0.0
 20
0.0
 30
0.0
  3
*D29
  1

  0
LINE
  5
15203
330
143D7
100
AcDbEntity
  8
寸法線
 62
     0
440
 16777216
370
    -2
100
AcDbLine
 10
450.0000616990778
 20
581.2499810841122
 30
0.0
 11
450.0000616990778
 21
489.9999810841141
 31
0.0
  0
LINE
  5
15204
330
143D7
100
AcDbEntity
  8
寸法線
 62
     0
440
 16777216
370
    -2
100
AcDbLine
 10
870.0000616990777
 20
581.2500175733888
 30
0.0
 11
870.0000616990777
 21
489.9999810841141
 31
0.0
  0
LINE
  5
15205
330
143D7
100
AcDbEntity
  8
寸法線
 62
     0
440
 16777216
370
    -2
100
AcDbLine
 10
470.0000616990778
 20
499.999981084114
 30
0.0
 11
850.0000616990778
 21
499.999981084114
 31
0.0
  0
INSERT
  5
15206
330
143D7
100
AcDbEntity
  8
寸法線
 62
     0
440
 16777216
370
    -2
100
AcDbBlockReference
  2
_OPEN
 10
450.0000616990778
 20
499.999981084114
 30
0.0
 41
20.0
 42
20.0
 43
20.0
 50
180.0
  0
INSERT
  5
15207
330
143D7
100
AcDbEntity
  8
寸法線
 62
     0
440
 16777216
370
    -2
100
AcDbBlockReference
  2
_OPEN
 10
870.0000616990777
 20
499.999981084114
 30
0.0
 41
20.0
 42
20.0
 43
20.0
  0
MTEXT
  5
15208
330
143D7
100
AcDbEntity
  8
寸法線
 62
     0
440
 16777216
100
AcDbMText
 10
660.0000616990777
 20
521.2524417140354
 30
0.0
 40
25.0
 41
0.0
 46
0.0
 71
     5
 72
     1
  1
\A1;420
 73
     1
 44
1.0
  0
POINT
  5
15209
330
143D7
100
AcDbEntity
  8
Defpoints
 62
     0
440
 16777216
100
AcDbPoint
 10
450.0000616990778
 20
589.9999810841121
 30
0.0
  0
POINT
  5
1520A
330
143D7
100
AcDbEntity
  8
Defpoints
 62
     0
440
 16777216
100
AcDbPoint
 10
870.0000616990777
 20
590.0000175733888
 30
0.0
  0
POINT
  5
1520B
330
143D7
100
AcDbEntity
  8
Defpoints
 62
     0
440
 16777216
100
AcDbPoint
 10
870.0000616990777
 20
499.999981084114
 30
0.0
  0
ENDBLK
  5
143D9
330
143D7
100
AcDbEntity
  8
0
100
AcDbBlockEnd
  0
BLOCK
  5
143E4
330
143E3
100
AcDbEntity
  8
0
100
AcDbBlockBegin
  2
*D30
 70
     1
 10
0.0
 20
0.0
 30
0.0
  3
*D30
  1

  0
LINE
  5
1520C
330
143E3
100
AcDbEntity
  8
寸法線
 62
     0
440
 16777216
370
    -2
100
AcDbLine
 10
441.2501092678919
 20
590.000017573389
 30
0.0
 11
350.0001092678916
 21
590.000017573389
 31
0.0
  0
LINE
  5
1520D
330
143E3
100
AcDbEntity
  8
寸法線
 62
     0
440
 16777216
370
    -2
100
AcDbLine
 10
441.2501092678919
 20
1010.000017573389
 30
0.0
 11
350.0001092678915
 21
1010.000017573389
 31
0.0
  0
LINE
  5
1520E
330
143E3
100
AcDbEntity
  8
寸法線
 62
     0
440
 16777216
370
    -2
100
AcDbLine
 10
360.0001092678916
 20
610.0000175733891
 30
0.0
 11
360.0001092678915
 21
990.0000175733893
 31
0.0
  0
INSERT
  5
1520F
330
143E3
100
AcDbEntity
  8
寸法線
 62
     0
440
 16777216
370
    -2
100
AcDbBlockReference
  2
_OPEN
 10
360.0001092678916
 20
590.000017573389
 30
0.0
 41
20.0
 42
20.0
 43
20.0
 50
270.0
  0
INSERT
  5
15210
330
143E3
100
AcDbEntity
  8
寸法線
 62
     0
440
 16777216
370
    -2
100
AcDbBlockReference
  2
_OPEN
 10
360.0001092678915
 20
1010.000017573389
 30
0.0
 41
20.0
 42
20.0
 43
20.0
 50
90.0
  0
MTEXT
  5
15211
330
143E3
100
AcDbEntity
  8
寸法線
 62
     0
440
 16777216
100
AcDbMText
 10
338.7476486379705
 20
800.0000175733887
 30
0.0
 40
25.0
 41
0.0
 46
0.0
 71
     5
 72
     1
  1
\A1;420
 11
0.0000000000000001
 21
1.0
 31
0.0
 73
     1
 44
1.0
  0
POINT
  5
15212
330
143E3
100
AcDbEntity
  8
Defpoints
 62
     0
440
 16777216
100
AcDbPoint
 10
450.0001092678919
 20
590.000017573389
 30
0.0
  0
POINT
  5
15213
330
143E3
100
AcDbEntity
  8
Defpoints
 62
     0
440
 16777216
100
AcDbPoint
 10
450.0001092678919
 20
1010.000017573389
 30
0.0
  0
POINT
  5
15214
330
143E3
100
AcDbEntity
  8
Defpoints
 62
     0
440
 16777216
100
AcDbPoint
 10
360.0001092678915
 20
1010.000017573389
 30
0.0
  0
ENDBLK
  5
143E5
330
143E3
100
AcDbEntity
  8
0
100
AcDbBlockEnd
  0
BLOCK
  5
143F0
330
143EF
100
AcDbEntity
  8
0
100
AcDbBlockBegin
  2
*D31
 70
     1
 10
0.0
 20
0.0
 30
0.0
  3
*D31
  1

  0
LINE
  5
15215
330
143EF
100
AcDbEntity
  8
寸法線
 62
     0
440
 16777216
370
    -2
100
AcDbLine
 10
2690.000285483495
 20
566.2502337566848
 30
0.0
 11
2690.000285483495
 21
489.9999628394903
 31
0.0
  0
LINE
  5
15216
330
143EF
100
AcDbEntity
  8
寸法線
 62
     0
440
 16777216
370
    -2
100
AcDbLine
 10
3030.000285483494
 20
566.2502337566848
 30
0.0
 11
3030.000285483494
 21
489.9999628394903
 31
0.0
  0
LINE
  5
15217
330
143EF
100
AcDbEntity
  8
寸法線
 62
     0
440
 16777216
370
    -2
100
AcDbLine
 10
2710.000285483495
 20
499.9999628394903
 30
0.0
 11
3010.000285483494
 21
499.9999628394903
 31
0.0
  0
INSERT
  5
15218
330
143EF
100
AcDbEntity
  8
寸法線
 62
     0
440
 16777216
370
    -2
100
AcDbBlockReference
  2
_OPEN
 10
2690.000285483495
 20
499.9999628394903
 30
0.0
 41
20.0
 42
20.0
 43
20.0
 50
180.0
  0
INSERT
  5
15219
330
143EF
100
AcDbEntity
  8
寸法線
 62
     0
440
 16777216
370
    -2
100
AcDbBlockReference
  2
_OPEN
 10
3030.000285483494
 20
499.9999628394903
 30
0.0
 41
20.0
 42
20.0
 43
20.0
  0
MTEXT
  5
1521A
330
143EF
100
AcDbEntity
  8
寸法線
 62
     0
440
 16777216
100
AcDbMText
 10
2860.000286404922
 20
521.2499628394903
 30
0.0
 40
25.0
 41
0.0
 46
0.0
 71
     5
 72
     1
  1
\A1;340
 73
     1
 44
1.0
  0
POINT
  5
1521B
330
143EF
100
AcDbEntity
  8
Defpoints
 62
     0
440
 16777216
100
AcDbPoint
 10
2690.000285483495
 20
575.0002337566847
 30
0.0
  0
POINT
  5
1521C
330
143EF
100
AcDbEntity
  8
Defpoints
 62
     0
440
 16777216
100
AcDbPoint
 10
3030.000285483494
 20
575.0002337566847
 30
0.0
  0
POINT
  5
1521D
330
143EF
100
AcDbEntity
  8
Defpoints
 62
     0
440
 16777216
100
AcDbPoint
 10
3030.000285483494
 20
499.9999628394903
 30
0.0
  0
ENDBLK
  5
143F1
330
143EF
100
AcDbEntity
  8
0
100
AcDbBlockEnd
  0
BLOCK
  5
1440A
330
14409
100
AcDbEntity
  8
0
100
AcDbBlockBegin
  2
*D32
 70
     1
 10
0.0
 20
0.0
 30
0.0
  3
*D32
  1

  0
LINE
  5
1521E
330
14409
100
AcDbEntity
  8
寸法線
 62
     0
440
 16777216
370
    -2
100
AcDbLine
 10
3093.750285483496
 20
970.0002337566852
 30
0.0
 11
3170.000061699079
 21
970.0002337566852
 31
0.0
  0
LINE
  5
1521F
330
14409
100
AcDbEntity
  8
寸法線
 62
     0
440
 16777216
370
    -2
100
AcDbLine
 10
3078.750061699079
 20
1009.999999328765
 30
0.0
 11
3170.000061699079
 21
1009.999999328765
 31
0.0
  0
LINE
  5
15220
330
14409
100
AcDbEntity
  8
寸法線
 62
     0
440
 16777216
370
    -2
100
AcDbLine
 10
3160.00006169908
 20
950.0002337566852
 30
0.0
 11
3160.00006169908
 21
930.0002337566851
 31
0.0
  0
LINE
  5
15221
330
14409
100
AcDbEntity
  8
寸法線
 62
     0
440
 16777216
370
    -2
100
AcDbLine
 10
3160.000061699079
 20
1029.999999328765
 30
0.0
 11
3160.000061699079
 21
1049.999999328765
 31
0.0
  0
LINE
  5
15222
330
14409
100
AcDbEntity
  8
寸法線
 62
     0
440
 16777216
370
    -2
100
AcDbLine
 10
3160.00006169908
 20
970.0002337566852
 30
0.0
 11
3160.00006169908
 21
1009.999999328765
 31
0.0
  0
INSERT
  5
15223
330
14409
100
AcDbEntity
  8
寸法線
 62
     0
440
 16777216
370
    -2
100
AcDbBlockReference
  2
_OPEN
 10
3160.00006169908
 20
970.0002337566852
 30
0.0
 41
20.0
 42
20.0
 43
20.0
 50
90.0
  0
INSERT
  5
15224
330
14409
100
AcDbEntity
  8
寸法線
 62
     0
440
 16777216
370
    -2
100
AcDbBlockReference
  2
_OPEN
 10
3160.00006169908
 20
1009.999999328765
 30
0.0
 41
20.0
 42
20.0
 43
20.0
 50
270.0
  0
MTEXT
  5
15225
330
14409
100
AcDbEntity
  8
寸法線
 62
     0
440
 16777216
100
AcDbMText
 10
3138.750061699079
 20
990.0001165427241
 30
0.0
 40
25.0
 41
0.0
 46
0.0
 71
     5
 72
     1
  1
\A1;40
 11
0.0000000000000001
 21
1.0
 31
0.0
 73
     1
 44
1.0
  0
POINT
  5
15226
330
14409
100
AcDbEntity
  8
Defpoints
 62
     0
440
 16777216
100
AcDbPoint
 10
3085.000285483496
 20
970.0002337566852
 30
0.0
  0
POINT
  5
15227
330
14409
100
AcDbEntity
  8
Defpoints
 62
     0
440
 16777216
100
AcDbPoint
 10
3070.000061699079
 20
1009.999999328765
 30
0.0
  0
POINT
  5
15228
330
14409
100
AcDbEntity
  8
Defpoints
 62
     0
440
 16777216
100
AcDbPoint
 10
3160.00006169908
 20
1009.999999328765
 30
0.0
  0
ENDBLK
  5
1440B
330
14409
100
AcDbEntity
  8
0
100
AcDbBlockEnd
  0
BLOCK
  5
14418
330
14417
100
AcDbEntity
  8
0
100
AcDbBlockBegin
  2
*D33
 70
     1
 10
0.0
 20
0.0
 30
0.0
  3
*D33
  1

  0
LINE
  5
15229
330
14417
100
AcDbEntity
  8
寸法線
 62
     0
440
 16777216
370
    -2
100
AcDbLine
 10
3093.750285483496
 20
630.000233756685
 30
0.0
 11
3170.000061699079
 21
630.000233756685
 31
0.0
  0
LINE
  5
1522A
330
14417
100
AcDbEntity
  8
寸法線
 62
     0
440
 16777216
370
    -2
100
AcDbLine
 10
3093.750285483496
 20
970.0002337566852
 30
0.0
 11
3170.000061699079
 21
970.0002337566852
 31
0.0
  0
LINE
  5
1522B
330
14417
100
AcDbEntity
  8
寸法線
 62
     0
440
 16777216
370
    -2
100
AcDbLine
 10
3160.000061699079
 20
650.000233756685
 30
0.0
 11
3160.000061699079
 21
950.0002337566852
 31
0.0
  0
INSERT
  5
1522C
330
14417
100
AcDbEntity
  8
寸法線
 62
     0
440
 16777216
370
    -2
100
AcDbBlockReference
  2
_OPEN
 10
3160.000061699079
 20
630.000233756685
 30
0.0
 41
20.0
 42
20.0
 43
20.0
 50
270.0
  0
INSERT
  5
1522D
330
14417
100
AcDbEntity
  8
寸法線
 62
     0
440
 16777216
370
    -2
100
AcDbBlockReference
  2
_OPEN
 10
3160.000061699079
 20
970.0002337566852
 30
0.0
 41
20.0
 42
20.0
 43
20.0
 50
90.0
  0
MTEXT
  5
1522E
330
14417
100
AcDbEntity
  8
寸法線
 62
     0
440
 16777216
100
AcDbMText
 10
3138.750061699078
 20
800.0002337566847
 30
0.0
 40
25.0
 41
0.0
 46
0.0
 71
     5
 72
     1
  1
\A1;340
 11
0.0000000000000001
 21
1.0
 31
0.0
 73
     1
 44
1.0
  0
POINT
  5
1522F
330
14417
100
AcDbEntity
  8
Defpoints
 62
     0
440
 16777216
100
AcDbPoint
 10
3085.000285483496
 20
630.000233756685
 30
0.0
  0
POINT
  5
15230
330
14417
100
AcDbEntity
  8
Defpoints
 62
     0
440
 16777216
100
AcDbPoint
 10
3085.000285483496
 20
970.0002337566852
 30
0.0
  0
POINT
  5
15231
330
14417
100
AcDbEntity
  8
Defpoints
 62
     0
440
 16777216
100
AcDbPoint
 10
3160.000061699079
 20
970.0002337566852
 30
0.0
  0
ENDBLK
  5
14419
330
14417
100
AcDbEntity
  8
0
100
AcDbBlockEnd
  0
BLOCK
  5
14424
330
14423
100
AcDbEntity
  8
0
100
AcDbBlockBegin
  2
*D34
 70
     1
 10
0.0
 20
0.0
 30
0.0
  3
*D34
  1

  0
LINE
  5
15232
330
14423
100
AcDbEntity
  8
寸法線
 62
     0
440
 16777216
370
    -2
100
AcDbLine
 10
3078.750061699079
 20
590.0004681846342
 30
0.0
 11
3170.000061699079
 21
590.0004681846342
 31
0.0
  0
LINE
  5
15233
330
14423
100
AcDbEntity
  8
寸法線
 62
     0
440
 16777216
370
    -2
100
AcDbLine
 10
3093.750285483496
 20
630.000233756685
 30
0.0
 11
3170.000061699079
 21
630.000233756685
 31
0.0
  0
LINE
  5
15234
330
14423
100
AcDbEntity
  8
寸法線
 62
     0
440
 16777216
370
    -2
100
AcDbLine
 10
3160.000061699079
 20
570.0004681846341
 30
0.0
 11
3160.000061699079
 21
550.0004681846341
 31
0.0
  0
LINE
  5
15235
330
14423
100
AcDbEntity
  8
寸法線
 62
     0
440
 16777216
370
    -2
100
AcDbLine
 10
3160.000061699079
 20
650.000233756685
 30
0.0
 11
3160.000061699079
 21
670.000233756685
 31
0.0
  0
LINE
  5
15236
330
14423
100
AcDbEntity
  8
寸法線
 62
     0
440
 16777216
370
    -2
100
AcDbLine
 10
3160.000061699079
 20
590.0004681846342
 30
0.0
 11
3160.000061699079
 21
630.000233756685
 31
0.0
  0
INSERT
  5
15237
330
14423
100
AcDbEntity
  8
寸法線
 62
     0
440
 16777216
370
    -2
100
AcDbBlockReference
  2
_OPEN
 10
3160.000061699079
 20
590.0004681846342
 30
0.0
 41
20.0
 42
20.0
 43
20.0
 50
90.0
  0
INSERT
  5
15238
330
14423
100
AcDbEntity
  8
寸法線
 62
     0
440
 16777216
370
    -2
100
AcDbBlockReference
  2
_OPEN
 10
3160.000061699079
 20
630.000233756685
 30
0.0
 41
20.0
 42
20.0
 43
20.0
 50
270.0
  0
MTEXT
  5
15239
330
14423
100
AcDbEntity
  8
寸法線
 62
     0
440
 16777216
100
AcDbMText
 10
3138.750061699078
 20
610.0003509706586
 30
0.0
 40
25.0
 41
0.0
 46
0.0
 71
     5
 72
     1
  1
\A1;40
 11
0.0000000000000001
 21
1.0
 31
0.0
 73
     1
 44
1.0
  0
POINT
  5
1523A
330
14423
100
AcDbEntity
  8
Defpoints
 62
     0
440
 16777216
100
AcDbPoint
 10
3070.000061699079
 20
590.0004681846342
 30
0.0
  0
POINT
  5
1523B
330
14423
100
AcDbEntity
  8
Defpoints
 62
     0
440
 16777216
100
AcDbPoint
 10
3085.000285483496
 20
630.000233756685
 30
0.0
  0
POINT
  5
1523C
330
14423
100
AcDbEntity
  8
Defpoints
 62
     0
440
 16777216
100
AcDbPoint
 10
3160.000061699079
 20
630.000233756685
 30
0.0
  0
ENDBLK
  5
14425
330
14423
100
AcDbEntity
  8
0
100
AcDbBlockEnd
  0
BLOCK
  5
14432
330
14431
100
AcDbEntity
  8
0
100
AcDbBlockBegin
  2
*D35
 70
     1
 10
0.0
 20
0.0
 30
0.0
  3
*D35
  1

  0
LINE
  5
1523D
330
14431
100
AcDbEntity
  8
寸法線
 62
     0
440
 16777216
370
    -2
100
AcDbLine
 10
3030.000285483494
 20
566.2502337566848
 30
0.0
 11
3030.000285483494
 21
489.9999628394903
 31
0.0
  0
LINE
  5
1523E
330
14431
100
AcDbEntity
  8
寸法線
 62
     0
440
 16777216
370
    -2
100
AcDbLine
 10
3070.000061699078
 20
581.2504681846339
 30
0.0
 11
3070.000061699078
 21
489.9999628394903
 31
0.0
  0
LINE
  5
1523F
330
14431
100
AcDbEntity
  8
寸法線
 62
     0
440
 16777216
370
    -2
100
AcDbLine
 10
3010.000285483494
 20
499.9999628394903
 30
0.0
 11
2990.000285483495
 21
499.9999628394903
 31
0.0
  0
LINE
  5
15240
330
14431
100
AcDbEntity
  8
寸法線
 62
     0
440
 16777216
370
    -2
100
AcDbLine
 10
3090.000061699078
 20
499.9999628394903
 30
0.0
 11
3110.000061699078
 21
499.9999628394903
 31
0.0
  0
LINE
  5
15241
330
14431
100
AcDbEntity
  8
寸法線
 62
     0
440
 16777216
370
    -2
100
AcDbLine
 10
3030.000285483494
 20
499.9999628394903
 30
0.0
 11
3070.000061699078
 21
499.9999628394903
 31
0.0
  0
INSERT
  5
15242
330
14431
100
AcDbEntity
  8
寸法線
 62
     0
440
 16777216
370
    -2
100
AcDbBlockReference
  2
_OPEN
 10
3030.000285483494
 20
499.9999628394903
 30
0.0
 41
20.0
 42
20.0
 43
20.0
  0
INSERT
  5
15243
330
14431
100
AcDbEntity
  8
寸法線
 62
     0
440
 16777216
370
    -2
100
AcDbBlockReference
  2
_OPEN
 10
3070.000061699078
 20
499.9999628394903
 30
0.0
 41
20.0
 42
20.0
 43
20.0
 50
180.0
  0
MTEXT
  5
15244
330
14431
100
AcDbEntity
  8
寸法線
 62
     0
440
 16777216
100
AcDbMText
 10
3050.000173591286
 20
521.2499628394903
 30
0.0
 40
25.0
 41
0.0
 46
0.0
 71
     5
 72
     1
  1
\A1;40
 73
     1
 44
1.0
  0
POINT
  5
15245
330
14431
100
AcDbEntity
  8
Defpoints
 62
     0
440
 16777216
100
AcDbPoint
 10
3030.000285483494
 20
575.0002337566847
 30
0.0
  0
POINT
  5
15246
330
14431
100
AcDbEntity
  8
Defpoints
 62
     0
440
 16777216
100
AcDbPoint
 10
3070.000061699078
 20
590.0004681846339
 30
0.0
  0
POINT
  5
15247
330
14431
100
AcDbEntity
  8
Defpoints
 62
     0
440
 16777216
100
AcDbPoint
 10
3070.000061699078
 20
499.9999628394903
 30
0.0
  0
ENDBLK
  5
14433
330
14431
100
AcDbEntity
  8
0
100
AcDbBlockEnd
  0
BLOCK
  5
14440
330
1443F
100
AcDbEntity
  8
0
100
AcDbBlockBegin
  2
*D36
 70
     1
 10
0.0
 20
0.0
 30
0.0
  3
*D36
  1

  0
LINE
  5
15248
330
1443F
100
AcDbEntity
  8
寸法線
 62
     0
440
 16777216
370
    -2
100
AcDbLine
 10
3666.868631322677
 20
877.5778862019841
 30
0.0
 11
3666.243632262292
 21
878.6604185002834
 31
0.0
  0
LINE
  5
15249
330
1443F
100
AcDbEntity
  8
寸法線
 62
     0
440
 16777216
370
    -2
100
AcDbLine
 10
3433.131383522411
 20
722.4226446193181
 30
0.0
 11
3433.756382583776
 21
721.3401123193204
 31
0.0
  0
LINE
  5
1524A
330
1443F
100
AcDbEntity
  8
寸法線
 62
     0
440
 16777216
370
    -2
100
AcDbLine
 10
3653.923107981817
 20
860.0001751617245
 30
0.0
 11
3446.076906864251
 21
740.0003556578793
 31
0.0
  0
INSERT
  5
1524B
330
1443F
100
AcDbEntity
  8
寸法線
 62
     0
440
 16777216
370
    -2
100
AcDbBlockReference
  2
_OPEN
 10
3671.243624741621
 20
870.0001601203817
 30
0.0
 41
20.0
 42
20.0
 43
20.0
 50
29.99995024365126
  0
INSERT
  5
1524C
330
1443F
100
AcDbEntity
  8
寸法線
 62
     0
440
 16777216
370
    -2
100
AcDbBlockReference
  2
_OPEN
 10
3428.756390104448
 20
730.0003706992221
 30
0.0
 41
20.0
 42
20.0
 43
20.0
 50
209.9999502436513
  0
MTEXT
  5
1524D
330
1443F
100
AcDbEntity
  8
寸法線
 62
     0
440
 16777216
100
AcDbMText
 10
3602.999675081847
 20
855.1397918595444
 30
0.0
 40
25.0
 41
0.0
 46
0.0
 71
     5
 72
     1
  1
\A1;φ280
 11
0.8660258379901666
 21
0.4999992479328641
 31
0.0
 73
     1
 44
1.0
  0
POINT
  5
1524E
330
1443F
100
AcDbEntity
  8
Defpoints
 62
     0
440
 16777216
100
AcDbPoint
 10
3671.24362474209
 20
870.0001601195701
 30
0.0
  0
POINT
  5
1524F
330
1443F
100
AcDbEntity
  8
Defpoints
 62
     0
440
 16777216
100
AcDbPoint
 10
3428.756390102999
 20
730.0003707017321
 30
0.0
  0
POINT
  5
15250
330
1443F
100
AcDbEntity
  8
Defpoints
 62
     0
440
 16777216
100
AcDbPoint
 10
3428.756390104448
 20
730.0003706992221
 30
0.0
  0
ENDBLK
  5
14441
330
1443F
100
AcDbEntity
  8
0
100
AcDbBlockEnd
  0
BLOCK
  5
1444C
330
1444B
100
AcDbEntity
  8
0
100
AcDbBlockBegin
  2
*D37
 70
     1
 10
0.0
 20
0.0
 30
0.0
  3
*D37
  1

  0
LINE
  5
15251
330
1444B
100
AcDbEntity
  8
寸法線
 62
     0
440
 16777216
370
    -2
100
AcDbLine
 10
3319.999844592302
 20
561.2501714007676
 30
0.0
 11
3319.999844592302
 21
489.9999628394903
 31
0.0
  0
LINE
  5
15252
330
1444B
100
AcDbEntity
  8
寸法線
 62
     0
440
 16777216
370
    -2
100
AcDbLine
 10
3780.000061699078
 20
561.2499993287647
 30
0.0
 11
3780.000061699078
 21
489.9999628394903
 31
0.0
  0
LINE
  5
15253
330
1444B
100
AcDbEntity
  8
寸法線
 62
     0
440
 16777216
370
    -2
100
AcDbLine
 10
3339.999844592302
 20
499.9999628394903
 30
0.0
 11
3760.000061699078
 21
499.9999628394903
 31
0.0
  0
INSERT
  5
15254
330
1444B
100
AcDbEntity
  8
寸法線
 62
     0
440
 16777216
370
    -2
100
AcDbBlockReference
  2
_OPEN
 10
3319.999844592302
 20
499.9999628394903
 30
0.0
 41
20.0
 42
20.0
 43
20.0
 50
180.0
  0
INSERT
  5
15255
330
1444B
100
AcDbEntity
  8
寸法線
 62
     0
440
 16777216
370
    -2
100
AcDbBlockReference
  2
_OPEN
 10
3780.000061699078
 20
499.9999628394903
 30
0.0
 41
20.0
 42
20.0
 43
20.0
  0
MTEXT
  5
15256
330
1444B
100
AcDbEntity
  8
寸法線
 62
     0
440
 16777216
100
AcDbMText
 10
3549.99995314569
 20
521.2499628394903
 30
0.0
 40
25.0
 41
0.0
 46
0.0
 71
     5
 72
     1
  1
\A1;460
 73
     1
 44
1.0
  0
POINT
  5
15257
330
1444B
100
AcDbEntity
  8
Defpoints
 62
     0
440
 16777216
100
AcDbPoint
 10
3319.999844592302
 20
570.0001714007676
 30
0.0
  0
POINT
  5
15258
330
1444B
100
AcDbEntity
  8
Defpoints
 62
     0
440
 16777216
100
AcDbPoint
 10
3780.000061699078
 20
569.9999993287646
 30
0.0
  0
POINT
  5
15259
330
1444B
100
AcDbEntity
  8
Defpoints
 62
     0
440
 16777216
100
AcDbPoint
 10
3780.000061699078
 20
499.9999628394903
 30
0.0
  0
ENDBLK
  5
1444D
330
1444B
100
AcDbEntity
  8
0
100
AcDbBlockEnd
  0
BLOCK
  5
14458
330
14457
100
AcDbEntity
  8
0
100
AcDbBlockBegin
  2
*D38
 70
     1
 10
0.0
 20
0.0
 30
0.0
  3
*D38
  1

  0
LINE
  5
1525A
330
14457
100
AcDbEntity
  8
寸法線
 62
     0
440
 16777216
370
    -2
100
AcDbLine
 10
3788.75006169908
 20
569.9999993287649
 30
0.0
 11
3860.000061699296
 21
569.999999328765
 31
0.0
  0
LINE
  5
1525B
330
14457
100
AcDbEntity
  8
寸法線
 62
     0
440
 16777216
370
    -2
100
AcDbLine
 10
3788.75006169908
 20
1029.999999328765
 30
0.0
 11
3860.000061699295
 21
1029.999999328765
 31
0.0
  0
LINE
  5
1525C
330
14457
100
AcDbEntity
  8
寸法線
 62
     0
440
 16777216
370
    -2
100
AcDbLine
 10
3850.000061699296
 20
589.999999328765
 30
0.0
 11
3850.000061699296
 21
1009.999999328765
 31
0.0
  0
INSERT
  5
1525D
330
14457
100
AcDbEntity
  8
寸法線
 62
     0
440
 16777216
370
    -2
100
AcDbBlockReference
  2
_OPEN
 10
3850.000061699296
 20
569.999999328765
 30
0.0
 41
20.0
 42
20.0
 43
20.0
 50
270.0
  0
INSERT
  5
1525E
330
14457
100
AcDbEntity
  8
寸法線
 62
     0
440
 16777216
370
    -2
100
AcDbBlockReference
  2
_OPEN
 10
3850.000061699296
 20
1029.999999328765
 30
0.0
 41
20.0
 42
20.0
 43
20.0
 50
90.0
  0
MTEXT
  5
1525F
330
14457
100
AcDbEntity
  8
寸法線
 62
     0
440
 16777216
100
AcDbMText
 10
3828.750061699295
 20
799.9999993287638
 30
0.0
 40
25.0
 41
0.0
 46
0.0
 71
     5
 72
     1
  1
\A1;460
 11
0.0000000000000001
 21
1.0
 31
0.0
 73
     1
 44
1.0
  0
POINT
  5
15260
330
14457
100
AcDbEntity
  8
Defpoints
 62
     0
440
 16777216
100
AcDbPoint
 10
3780.00006169908
 20
569.9999993287649
 30
0.0
  0
POINT
  5
15261
330
14457
100
AcDbEntity
  8
Defpoints
 62
     0
440
 16777216
100
AcDbPoint
 10
3780.00006169908
 20
1029.999999328765
 30
0.0
  0
POINT
  5
15262
330
14457
100
AcDbEntity
  8
Defpoints
 62
     0
440
 16777216
100
AcDbPoint
 10
3850.000061699296
 20
1029.999999328765
 30
0.0
  0
ENDBLK
  5
14459
330
14457
100
AcDbEntity
  8
0
100
AcDbBlockEnd
  0
BLOCK
  5
14464
330
14463
100
AcDbEntity
  8
0
100
AcDbBlockBegin
  2
*D39
 70
     1
 10
0.0
 20
0.0
 30
0.0
  3
*D39
  1

  0
LINE
  5
15263
330
14463
100
AcDbEntity
  8
寸法線
 62
     0
440
 16777216
370
    -2
100
AcDbLine
 10
1568.000061699078
 20
1038.749990206445
 30
0.0
 11
1568.000061699078
 21
1109.999999328777
 31
0.0
  0
LINE
  5
15264
330
14463
100
AcDbEntity
  8
寸法線
 62
     0
440
 16777216
370
    -2
100
AcDbLine
 10
1951.999958114063
 20
1038.749990206445
 30
0.0
 11
1951.999958114063
 21
1109.999999328777
 31
0.0
  0
LINE
  5
15265
330
14463
100
AcDbEntity
  8
寸法線
 62
     0
440
 16777216
370
    -2
100
AcDbLine
 10
1588.000061699078
 20
1099.999999328777
 30
0.0
 11
1931.999958114063
 21
1099.999999328777
 31
0.0
  0
INSERT
  5
15266
330
14463
100
AcDbEntity
  8
寸法線
 62
     0
440
 16777216
370
    -2
100
AcDbBlockReference
  2
_OPEN
 10
1568.000061699078
 20
1099.999999328777
 30
0.0
 41
20.0
 42
20.0
 43
20.0
 50
180.0
  0
INSERT
  5
15267
330
14463
100
AcDbEntity
  8
寸法線
 62
     0
440
 16777216
370
    -2
100
AcDbBlockReference
  2
_OPEN
 10
1951.999958114063
 20
1099.999999328777
 30
0.0
 41
20.0
 42
20.0
 43
20.0
  0
MTEXT
  5
15268
330
14463
100
AcDbEntity
  8
寸法線
 62
     0
440
 16777216
100
AcDbMText
 10
1760.00000990657
 20
1121.249999328777
 30
0.0
 40
25.0
 41
0.0
 46
0.0
 71
     5
 72
     1
  1
\A1;384
 73
     1
 44
1.0
  0
POINT
  5
15269
330
14463
100
AcDbEntity
  8
Defpoints
 62
     0
440
 16777216
100
AcDbPoint
 10
1568.000061699078
 20
1029.999990206445
 30
0.0
  0
POINT
  5
1526A
330
14463
100
AcDbEntity
  8
Defpoints
 62
     0
440
 16777216
100
AcDbPoint
 10
1951.999958114063
 20
1029.999990206445
 30
0.0
  0
POINT
  5
1526B
330
14463
100
AcDbEntity
  8
Defpoints
 62
     0
440
 16777216
100
AcDbPoint
 10
1951.999958114063
 20
1099.999999328777
 30
0.0
  0
ENDBLK
  5
14465
330
14463
100
AcDbEntity
  8
0
100
AcDbBlockEnd
  0
BLOCK
  5
14470
330
1446F
100
AcDbEntity
  8
0
100
AcDbBlockBegin
  2
*D40
 70
     1
 10
0.0
 20
0.0
 30
0.0
  3
*D40
  1

  0
LINE
  5
1526C
330
1446F
100
AcDbEntity
  8
寸法線
 62
     0
440
 16777216
370
    -2
100
AcDbLine
 10
1552.000061699078
 20
1038.749990206445
 30
0.0
 11
1552.000061699078
 21
1109.999999328777
 31
0.0
  0
LINE
  5
1526D
330
1446F
100
AcDbEntity
  8
寸法線
 62
     0
440
 16777216
370
    -2
100
AcDbLine
 10
1568.000061699078
 20
1038.749990206445
 30
0.0
 11
1568.000061699078
 21
1109.999999328777
 31
0.0
  0
LINE
  5
1526E
330
1446F
100
AcDbEntity
  8
寸法線
 62
     0
440
 16777216
370
    -2
100
AcDbLine
 10
1532.000061699078
 20
1099.999999328777
 30
0.0
 11
1512.000061699078
 21
1099.999999328777
 31
0.0
  0
LINE
  5
1526F
330
1446F
100
AcDbEntity
  8
寸法線
 62
     0
440
 16777216
370
    -2
100
AcDbLine
 10
1588.000061699078
 20
1099.999999328777
 30
0.0
 11
1608.000061699078
 21
1099.999999328777
 31
0.0
  0
LINE
  5
15270
330
1446F
100
AcDbEntity
  8
寸法線
 62
     0
440
 16777216
370
    -2
100
AcDbLine
 10
1552.000061699078
 20
1099.999999328777
 30
0.0
 11
1568.000061699078
 21
1099.999999328777
 31
0.0
  0
INSERT
  5
15271
330
1446F
100
AcDbEntity
  8
寸法線
 62
     0
440
 16777216
370
    -2
100
AcDbBlockReference
  2
_OPEN
 10
1552.000061699078
 20
1099.999999328777
 30
0.0
 41
20.0
 42
20.0
 43
20.0
  0
INSERT
  5
15272
330
1446F
100
AcDbEntity
  8
寸法線
 62
     0
440
 16777216
370
    -2
100
AcDbBlockReference
  2
_OPEN
 10
1568.000061699078
 20
1099.999999328777
 30
0.0
 41
20.0
 42
20.0
 43
20.0
 50
180.0
  0
MTEXT
  5
15273
330
1446F
100
AcDbEntity
  8
寸法線
 62
     0
440
 16777216
100
AcDbMText
 10
1560.000061699078
 20
1121.249999328777
 30
0.0
 40
25.0
 41
0.0
 46
0.0
 71
     5
 72
     1
  1
\A1;16
 73
     1
 44
1.0
  0
POINT
  5
15274
330
1446F
100
AcDbEntity
  8
Defpoints
 62
     0
440
 16777216
100
AcDbPoint
 10
1552.000061699078
 20
1029.999990206445
 30
0.0
  0
POINT
  5
15275
330
1446F
100
AcDbEntity
  8
Defpoints
 62
     0
440
 16777216
100
AcDbPoint
 10
1568.000061699078
 20
1029.999990206445
 30
0.0
  0
POINT
  5
15276
330
1446F
100
AcDbEntity
  8
Defpoints
 62
     0
440
 16777216
100
AcDbPoint
 10
1568.000061699078
 20
1099.999999328777
 30
0.0
  0
ENDBLK
  5
14471
330
1446F
100
AcDbEntity
  8
0
100
AcDbBlockEnd
  0
BLOCK
  5
1447E
330
1447D
100
AcDbEntity
  8
0
100
AcDbBlockBegin
  2
*D41
 70
     1
 10
0.0
 20
0.0
 30
0.0
  3
*D41
  1

  0
LINE
  5
15277
330
1447D
100
AcDbEntity
  8
寸法線
 62
     0
440
 16777216
370
    -2
100
AcDbLine
 10
1967.999958114063
 20
1038.749990206445
 30
0.0
 11
1967.999958114063
 21
1109.999999328777
 31
0.0
  0
LINE
  5
15278
330
1447D
100
AcDbEntity
  8
寸法線
 62
     0
440
 16777216
370
    -2
100
AcDbLine
 10
2444.000061699078
 20
1018.749990206445
 30
0.0
 11
2444.000061699078
 21
1109.999999328777
 31
0.0
  0
LINE
  5
15279
330
1447D
100
AcDbEntity
  8
寸法線
 62
     0
440
 16777216
370
    -2
100
AcDbLine
 10
1987.999958114063
 20
1099.999999328777
 30
0.0
 11
2424.000061699078
 21
1099.999999328777
 31
0.0
  0
INSERT
  5
1527A
330
1447D
100
AcDbEntity
  8
寸法線
 62
     0
440
 16777216
370
    -2
100
AcDbBlockReference
  2
_OPEN
 10
1967.999958114063
 20
1099.999999328777
 30
0.0
 41
20.0
 42
20.0
 43
20.0
 50
180.0
  0
INSERT
  5
1527B
330
1447D
100
AcDbEntity
  8
寸法線
 62
     0
440
 16777216
370
    -2
100
AcDbBlockReference
  2
_OPEN
 10
2444.000061699078
 20
1099.999999328777
 30
0.0
 41
20.0
 42
20.0
 43
20.0
  0
MTEXT
  5
1527C
330
1447D
100
AcDbEntity
  8
寸法線
 62
     0
440
 16777216
100
AcDbMText
 10
2206.000009906571
 20
1121.249999328777
 30
0.0
 40
25.0
 41
0.0
 46
0.0
 71
     5
 72
     1
  1
\A1;476
 73
     1
 44
1.0
  0
POINT
  5
1527D
330
1447D
100
AcDbEntity
  8
Defpoints
 62
     0
440
 16777216
100
AcDbPoint
 10
1967.999958114063
 20
1029.999990206445
 30
0.0
  0
POINT
  5
1527E
330
1447D
100
AcDbEntity
  8
Defpoints
 62
     0
440
 16777216
100
AcDbPoint
 10
2444.000061699078
 20
1009.999990206445
 30
0.0
  0
POINT
  5
1527F
330
1447D
100
AcDbEntity
  8
Defpoints
 62
     0
440
 16777216
100
AcDbPoint
 10
2444.000061699078
 20
1099.999999328777
 30
0.0
  0
ENDBLK
  5
1447F
330
1447D
100
AcDbEntity
  8
0
100
AcDbBlockEnd
  0
BLOCK
  5
1448A
330
14489
100
AcDbEntity
  8
0
100
AcDbBlockBegin
  2
*D42
 70
     1
 10
0.0
 20
0.0
 30
0.0
  3
*D42
  1

  0
LINE
  5
15280
330
14489
100
AcDbEntity
  8
寸法線
 62
     0
440
 16777216
370
    -2
100
AcDbLine
 10
1951.999958114063
 20
1038.749990206445
 30
0.0
 11
1951.999958114063
 21
1109.999999328777
 31
0.0
  0
LINE
  5
15281
330
14489
100
AcDbEntity
  8
寸法線
 62
     0
440
 16777216
370
    -2
100
AcDbLine
 10
1967.999958114063
 20
1038.749990206445
 30
0.0
 11
1967.999958114063
 21
1109.999999328777
 31
0.0
  0
LINE
  5
15282
330
14489
100
AcDbEntity
  8
寸法線
 62
     0
440
 16777216
370
    -2
100
AcDbLine
 10
1931.999958114063
 20
1099.999999328777
 30
0.0
 11
1911.999958114063
 21
1099.999999328777
 31
0.0
  0
LINE
  5
15283
330
14489
100
AcDbEntity
  8
寸法線
 62
     0
440
 16777216
370
    -2
100
AcDbLine
 10
1987.999958114063
 20
1099.999999328777
 30
0.0
 11
2007.999958114063
 21
1099.999999328777
 31
0.0
  0
LINE
  5
15284
330
14489
100
AcDbEntity
  8
寸法線
 62
     0
440
 16777216
370
    -2
100
AcDbLine
 10
1951.999958114063
 20
1099.999999328777
 30
0.0
 11
1967.999958114063
 21
1099.999999328777
 31
0.0
  0
INSERT
  5
15285
330
14489
100
AcDbEntity
  8
寸法線
 62
     0
440
 16777216
370
    -2
100
AcDbBlockReference
  2
_OPEN
 10
1951.999958114063
 20
1099.999999328777
 30
0.0
 41
20.0
 42
20.0
 43
20.0
  0
INSERT
  5
15286
330
14489
100
AcDbEntity
  8
寸法線
 62
     0
440
 16777216
370
    -2
100
AcDbBlockReference
  2
_OPEN
 10
1967.999958114063
 20
1099.999999328777
 30
0.0
 41
20.0
 42
20.0
 43
20.0
 50
180.0
  0
MTEXT
  5
15287
330
14489
100
AcDbEntity
  8
寸法線
 62
     0
440
 16777216
100
AcDbMText
 10
1959.999958114063
 20
1121.249999328777
 30
0.0
 40
25.0
 41
0.0
 46
0.0
 71
     5
 72
     1
  1
\A1;16
 73
     1
 44
1.0
  0
POINT
  5
15288
330
14489
100
AcDbEntity
  8
Defpoints
 62
     0
440
 16777216
100
AcDbPoint
 10
1951.999958114063
 20
1029.999990206445
 30
0.0
  0
POINT
  5
15289
330
14489
100
AcDbEntity
  8
Defpoints
 62
     0
440
 16777216
100
AcDbPoint
 10
1967.999958114063
 20
1029.999990206445
 30
0.0
  0
POINT
  5
1528A
330
14489
100
AcDbEntity
  8
Defpoints
 62
     0
440
 16777216
100
AcDbPoint
 10
1967.999958114063
 20
1099.999999328777
 30
0.0
  0
ENDBLK
  5
1448B
330
14489
100
AcDbEntity
  8
0
100
AcDbBlockEnd
  0
BLOCK
  5
15096
330
15095
100
AcDbEntity
  8
0
100
AcDbBlockBegin
  2
*D43
 70
     1
 10
0.0
 20
0.0
 30
0.0
  3
*D43
  1

  0
LINE
  5
1529E
330
15095
100
AcDbEntity
  8
寸法線
 62
     0
440
 16777216
370
    -2
100
AcDbLine
 10
2689.999885483475
 20
566.2502337566848
 30
0.0
 11
2689.999885483475
 21
489.9999628394903
 31
0.0
  0
LINE
  5
1529F
330
15095
100
AcDbEntity
  8
寸法線
 62
     0
440
 16777216
370
    -2
100
AcDbLine
 10
2650.000109267892
 20
581.2504681846339
 30
0.0
 11
2650.000109267892
 21
489.9999628394903
 31
0.0
  0
LINE
  5
152A0
330
15095
100
AcDbEntity
  8
寸法線
 62
     0
440
 16777216
370
    -2
100
AcDbLine
 10
2709.999885483475
 20
499.9999628394903
 30
0.0
 11
2729.999885483476
 21
499.9999628394903
 31
0.0
  0
LINE
  5
152A1
330
15095
100
AcDbEntity
  8
寸法線
 62
     0
440
 16777216
370
    -2
100
AcDbLine
 10
2630.000109267892
 20
499.9999628394903
 30
0.0
 11
2610.000109267892
 21
499.9999628394903
 31
0.0
  0
LINE
  5
152A2
330
15095
100
AcDbEntity
  8
寸法線
 62
     0
440
 16777216
370
    -2
100
AcDbLine
 10
2689.999885483475
 20
499.9999628394903
 30
0.0
 11
2650.000109267892
 21
499.9999628394903
 31
0.0
  0
INSERT
  5
152A3
330
15095
100
AcDbEntity
  8
寸法線
 62
     0
440
 16777216
370
    -2
100
AcDbBlockReference
  2
_OPEN
 10
2689.999885483475
 20
499.9999628394903
 30
0.0
 41
20.0
 42
20.0
 43
20.0
 50
180.0
  0
INSERT
  5
152A4
330
15095
100
AcDbEntity
  8
寸法線
 62
     0
440
 16777216
370
    -2
100
AcDbBlockReference
  2
_OPEN
 10
2650.000109267892
 20
499.9999628394903
 30
0.0
 41
20.0
 42
20.0
 43
20.0
  0
MTEXT
  5
152A5
330
15095
100
AcDbEntity
  8
寸法線
 62
     0
440
 16777216
100
AcDbMText
 10
2669.999997375684
 20
521.2499628394903
 30
0.0
 40
25.0
 41
0.0
 46
0.0
 71
     5
 72
     1
  1
\A1;40
 73
     1
 44
1.0
  0
POINT
  5
152A6
330
15095
100
AcDbEntity
  8
Defpoints
 62
     0
440
 16777216
100
AcDbPoint
 10
2689.999885483475
 20
575.0002337566847
 30
0.0
  0
POINT
  5
152A7
330
15095
100
AcDbEntity
  8
Defpoints
 62
     0
440
 16777216
100
AcDbPoint
 10
2650.000109267892
 20
590.0004681846339
 30
0.0
  0
POINT
  5
152A8
330
15095
100
AcDbEntity
  8
Defpoints
 62
     0
440
 16777216
100
AcDbPoint
 10
2650.000109267892
 20
499.9999628394903
 30
0.0
  0
ENDBLK
  5
15097
330
15095
100
AcDbEntity
  8
0
100
AcDbBlockEnd
  0
ENDSEC
  0
SECTION
  2
ENTITIES
  0
LWPOLYLINE
  5
12E35
330
1F
100
AcDbEntity
  8
Defpoints
100
AcDbPolyline
 90
        4
 70
     1
 43
0.0
 10
0.0
 20
0.0
 10
4200.0
 20
0.0
 10
4200.0
 20
2970.0
 10
0.0
 20
2970.0
  0
LWPOLYLINE
  5
12E36
330
1F
100
AcDbEntity
  8
Defpoints
100
AcDbPolyline
 90
        4
 70
     1
 43
0.0
 10
69.0039999999999
 20
69.10750000000007
 10
4130.995999999998
 20
69.10750000000007
 10
4130.995999999998
 20
2900.8925
 10
69.0039999999999
 20
2900.8925
  0
LINE
  5
12E37
330
1F
100
AcDbEntity
  8
中心線
100
AcDbLine
 10
485.0000099065697
 20
1644.999999332949
 30
0.0
 11
3035.00000990657
 21
1644.99999907439
 31
0.0
  0
DIMENSION
  5
12E38
330
1F
100
AcDbEntity
  8
寸法線
100
AcDbDimension
280
     0
  2
*D1
 10
2460.00000990657
 20
1284.99999907856
 30
0.0
 11
1760.000000000015
 21
1284.99999907856
 31
0.0
 70
   160
 71
     5
 42
1400.0
 73
     0
 74
     0
 75
     0
  3
STANDARD
100
AcDbAlignedDimension
 13
1060.000009906569
 23
1434.999989956243
 33
0.0
 14
2460.00000990657
 24
1434.999989956244
 34
0.0
100
AcDbRotatedDimension
  0
DIMENSION
  5
12E39
330
1F
100
AcDbEntity
  8
寸法線
100
AcDbDimension
280
     0
  2
*D2
 10
1059.99999009346
 20
1284.99999907856
 30
0.0
 11
784.9999900934603
 21
1284.99999907856
 31
0.0
 70
   160
 71
     5
 42
550.0
 73
     0
 74
     0
 75
     0
  3
STANDARD
100
AcDbAlignedDimension
 13
509.9999900934603
 23
1444.999999078559
 33
0.0
 14
1059.99999009346
 24
1435.000036298233
 34
0.0
100
AcDbRotatedDimension
  0
DIMENSION
  5
12E3A
330
1F
100
AcDbEntity
  8
寸法線
100
AcDbDimension
280
     0
  2
*D3
 10
389.99999009346
 20
1444.99999907856
 30
0.0
 11
389.9999900934604
 21
1644.999999078559
 31
0.0
 70
   160
 71
     5
 42
400.0000000000002
 73
     0
 74
     0
 75
     0
  3
STANDARD
100
AcDbAlignedDimension
 13
509.9999900934603
 23
1844.999999078559
 33
0.0
 14
509.9999900934603
 24
1444.999999078559
 34
0.0
 50
90.0
100
AcDbRotatedDimension
  0
DIMENSION
  5
12E3B
330
1F
100
AcDbEntity
  8
寸法線
100
AcDbDimension
280
     0
  2
*D4
 10
528.9999900934604
 20
2604.999981073817
 30
0.0
 11
519.4999900934603
 21
2604.999981073817
 31
0.0
 70
   160
 71
     5
 42
19.0
 73
     0
 74
     0
 75
     0
  3
STANDARD
100
AcDbAlignedDimension
 13
509.9999900934603
 23
2436.00001829349
 33
0.0
 14
528.9999900934604
 24
2444.999981073816
 34
0.0
100
AcDbRotatedDimension
  0
DIMENSION
  5
12E3C
330
1F
100
AcDbEntity
  8
寸法線
100
AcDbDimension
280
     0
  2
*D5
 10
1059.99999009346
 20
2604.999981073817
 30
0.0
 11
794.4999900934604
 21
2604.999981073817
 31
0.0
 70
   160
 71
     5
 42
531.0
 73
     0
 74
     0
 75
     0
  3
STANDARD
100
AcDbAlignedDimension
 13
528.9999900934604
 23
2444.999981073816
 33
0.0
 14
1059.99999009346
 24
2455.000018293489
 34
0.0
100
AcDbRotatedDimension
  0
DIMENSION
  5
12E3D
330
1F
100
AcDbEntity
  8
寸法線
100
AcDbDimension
280
     0
  2
*D6
 10
389.99999009346
 20
2044.999981073815
 30
0.0
 11
389.9999900934604
 21
2244.999981073815
 31
0.0
 70
   160
 71
     5
 42
400.0000000000011
 73
     0
 74
     0
 75
     0
  3
STANDARD
100
AcDbAlignedDimension
 13
528.9999900934604
 23
2444.999981073816
 33
0.0
 14
528.9999900934604
 24
2044.999981073814
 34
0.0
 50
90.0
100
AcDbRotatedDimension
  0
DIMENSION
  5
12E3E
330
1F
100
AcDbEntity
  8
寸法線
100
AcDbDimension
280
     0
  2
*D7
 10
1059.99999009346
 20
2684.999981073817
 30
0.0
 11
784.9999900934603
 21
2684.999981073817
 31
0.0
 70
   160
  1
<>\XH型鋼（連結部）
 71
     5
 42
550.0
 73
     0
 74
     0
 75
     0
  3
STANDARD
100
AcDbAlignedDimension
 13
509.9999900934603
 23
2436.00001829349
 33
0.0
 14
1059.99999009346
 24
2455.000018293489
 34
0.0
100
AcDbRotatedDimension
  0
LINE
  5
12E3F
330
1F
100
AcDbEntity
  8
中心線
100
AcDbLine
 10
485.0000099065697
 20
2244.999980708916
 30
0.0
 11
3035.000236889734
 21
2245.000018909628
 31
0.0
  0
DIMENSION
  5
12E40
330
1F
100
AcDbEntity
  8
寸法線
100
AcDbDimension
280
     0
  2
*D8
 10
2460.00000990657
 20
2684.999981073817
 30
0.0
 11
1760.000009906569
 21
2684.999981073817
 31
0.0
 70
    32
  1
W=<>\X空洞金具
 71
     5
 42
1400.0
 73
     0
 74
     0
 75
     0
  3
STANDARD
100
AcDbAlignedDimension
 13
1060.000009906569
 23
2454.999994880146
 33
0.0
 14
2460.00000990657
 24
2454.9999719515
 34
0.0
100
AcDbRotatedDimension
  0
DIMENSION
  5
12E41
330
1F
100
AcDbEntity
  8
寸法線
100
AcDbDimension
280
     0
  2
*D9
 10
3010.00000990654
 20
2764.999981073817
 30
0.0
 11
1759.99999009346
 21
2764.999981073817
 31
0.0
 70
   160
  1
スルーサーＢ L=<>
 71
     5
 42
2499.999999999941
 73
     0
 74
     0
 75
     0
  3
STANDARD
100
AcDbAlignedDimension
 13
510.0000099065987
 23
2435.999994880161
 33
0.0
 14
3010.00000990654
 24
2435.99998107383
 34
0.0
100
AcDbRotatedDimension
  0
LINE
  5
12E43
330
1F
100
AcDbEntity
  8
実線
100
AcDbLine
 10
1060.000009906569
 20
1854.999989956244
 30
0.0
 11
1076.000009906569
 21
1854.999989956244
 31
0.0
  0
LINE
  5
12E44
330
1F
100
AcDbEntity
  8
実線
100
AcDbLine
 10
1108.000009906569
 20
1502.000008200875
 30
0.0
 11
1108.000009906569
 21
1788.000008200875
 31
0.0
  0
LINE
  5
12E45
330
1F
100
AcDbEntity
  8
実線
100
AcDbLine
 10
1968.000009906571
 20
1784.999989956244
 30
0.0
 11
2412.000113491596
 21
1784.999989956244
 31
0.0
  0
LINE
  5
12E46
330
1F
100
AcDbEntity
  8
実線
100
AcDbLine
 10
1968.000009906571
 20
1844.999989956244
 30
0.0
 11
2444.000113491596
 21
1844.999989956244
 31
0.0
  0
LINE
  5
12E47
330
1F
100
AcDbEntity
  8
破線
100
AcDbLine
 10
1076.000009906569
 20
1828.999989956244
 30
0.0
 11
1108.000009906569
 21
1828.999989956244
 31
0.0
  0
LINE
  5
12E48
330
1F
100
AcDbEntity
  8
破線
100
AcDbLine
 10
1108.000009906569
 20
1829.000008200875
 30
0.0
 11
1108.000009906569
 21
1844.999989956244
 31
0.0
  0
LINE
  5
12E49
330
1F
100
AcDbEntity
  8
破線
100
AcDbLine
 10
1085.000009906569
 20
1784.999989956244
 30
0.0
 11
1108.000009906569
 21
1784.999989956244
 31
0.0
  0
LINE
  5
12E4A
330
1F
100
AcDbEntity
  8
実線
100
AcDbLine
 10
1088.000009906569
 20
1787.999989956244
 30
0.0
 11
1108.000009906569
 21
1787.999989956244
 31
0.0
  0
LINE
  5
12E4B
330
1F
100
AcDbEntity
  8
実線
100
AcDbLine
 10
1076.000009906569
 20
1775.999989956244
 30
0.0
 11
1088.000009906569
 21
1787.999989956244
 31
0.0
  0
LINE
  5
12E4C
330
1F
100
AcDbEntity
  8
実線
100
AcDbLine
 10
1076.000009906569
 20
1784.999989956244
 30
0.0
 11
1085.000009906569
 21
1784.999989956244
 31
0.0
  0
LINE
  5
12E4D
330
1F
100
AcDbEntity
  8
破線
100
AcDbLine
 10
2412.00000990657
 20
1829.000008200875
 30
0.0
 11
2412.00000990657
 21
1844.999989956244
 31
0.0
  0
LINE
  5
12E4E
330
1F
100
AcDbEntity
  8
破線
100
AcDbLine
 10
2444.00000990657
 20
1828.999989956244
 30
0.0
 11
2412.00000990657
 21
1828.999989956244
 31
0.0
  0
LINE
  5
12E4F
330
1F
100
AcDbEntity
  8
破線
100
AcDbLine
 10
1076.000009906569
 20
1652.999989956244
 30
0.0
 11
1108.000009906569
 21
1652.999989956244
 31
0.0
  0
LINE
  5
12E50
330
1F
100
AcDbEntity
  8
破線
100
AcDbLine
 10
1076.000009906569
 20
1636.999989956244
 30
0.0
 11
1108.000009906569
 21
1636.999989956244
 31
0.0
  0
LINE
  5
12E51
330
1F
100
AcDbEntity
  8
破線
100
AcDbLine
 10
2412.00000990657
 20
1652.999989956244
 30
0.0
 11
2444.00000990657
 21
1652.999989956244
 31
0.0
  0
LINE
  5
12E52
330
1F
100
AcDbEntity
  8
破線
100
AcDbLine
 10
2412.00000990657
 20
1636.999989956244
 30
0.0
 11
2444.00000990657
 21
1636.999989956244
 31
0.0
  0
LINE
  5
12E53
330
1F
100
AcDbEntity
  8
実線
100
AcDbLine
 10
2444.00000990657
 20
1854.999989956244
 30
0.0
 11
2460.00000990657
 21
1854.999989956244
 31
0.0
  0
LINE
  5
12E54
330
1F
100
AcDbEntity
  8
実線
100
AcDbLine
 10
1076.000009906569
 20
1435.000008200875
 30
0.0
 11
1076.000009906569
 21
1854.999989956244
 31
0.0
  0
LINE
  5
12E55
330
1F
100
AcDbEntity
  8
実線
100
AcDbLine
 10
2444.00000990657
 20
1435.000008200875
 30
0.0
 11
2444.00000990657
 21
1854.999989956244
 31
0.0
  0
LINE
  5
12E57
330
1F
100
AcDbEntity
  8
実線
100
AcDbLine
 10
1060.000009906569
 20
1434.999989956244
 30
0.0
 11
1076.000009906569
 21
1434.999989956244
 31
0.0
  0
LINE
  5
12E58
330
1F
100
AcDbEntity
  8
実線
100
AcDbLine
 10
1968.000009906571
 20
1504.999989956244
 30
0.0
 11
2412.000113491596
 21
1504.999989956244
 31
0.0
  0
LINE
  5
12E59
330
1F
100
AcDbEntity
  8
実線
100
AcDbLine
 10
1968.000009906571
 20
1444.999989956244
 30
0.0
 11
2444.000113491596
 21
1444.999989956244
 31
0.0
  0
LINE
  5
12E5A
330
1F
100
AcDbEntity
  8
破線
100
AcDbLine
 10
1076.000009906569
 20
1460.999989956244
 30
0.0
 11
1108.000009906569
 21
1460.999989956244
 31
0.0
  0
LINE
  5
12E5B
330
1F
100
AcDbEntity
  8
破線
100
AcDbLine
 10
1108.000009906569
 20
1460.999971711613
 30
0.0
 11
1108.000009906569
 21
1444.999989956244
 31
0.0
  0
LINE
  5
12E5C
330
1F
100
AcDbEntity
  8
破線
100
AcDbLine
 10
1085.000009906569
 20
1504.999989956244
 30
0.0
 11
1108.000009906569
 21
1504.999989956244
 31
0.0
  0
LINE
  5
12E5D
330
1F
100
AcDbEntity
  8
実線
100
AcDbLine
 10
1088.000009906569
 20
1501.999989956244
 30
0.0
 11
1108.000009906569
 21
1501.999989956244
 31
0.0
  0
LINE
  5
12E5E
330
1F
100
AcDbEntity
  8
実線
100
AcDbLine
 10
1076.000009906569
 20
1513.999989956244
 30
0.0
 11
1088.000009906569
 21
1501.999989956244
 31
0.0
  0
LINE
  5
12E5F
330
1F
100
AcDbEntity
  8
実線
100
AcDbLine
 10
1076.000009906569
 20
1504.999989956244
 30
0.0
 11
1085.000009906569
 21
1504.999989956244
 31
0.0
  0
LINE
  5
12E60
330
1F
100
AcDbEntity
  8
破線
100
AcDbLine
 10
2412.00000990657
 20
1460.999971711613
 30
0.0
 11
2412.00000990657
 21
1444.999989956244
 31
0.0
  0
LINE
  5
12E61
330
1F
100
AcDbEntity
  8
破線
100
AcDbLine
 10
2444.00000990657
 20
1460.999989956244
 30
0.0
 11
2412.00000990657
 21
1460.999989956244
 31
0.0
  0
LINE
  5
12E62
330
1F
100
AcDbEntity
  8
実線
100
AcDbLine
 10
2444.00000990657
 20
1434.999989956244
 30
0.0
 11
2460.00000990657
 21
1434.999989956244
 31
0.0
  0
LINE
  5
12E63
330
1F
100
AcDbEntity
  8
実線
100
AcDbLine
 10
2412.000113491596
 20
1502.000008200875
 30
0.0
 11
2412.000113491596
 21
1788.000008200875
 31
0.0
  0
LINE
  5
12E64
330
1F
100
AcDbEntity
  8
破線
100
AcDbLine
 10
2435.000113491595
 20
1784.999989956244
 30
0.0
 11
2412.000113491596
 21
1784.999989956244
 31
0.0
  0
LINE
  5
12E65
330
1F
100
AcDbEntity
  8
実線
100
AcDbLine
 10
2432.000113491597
 20
1787.999989956244
 30
0.0
 11
2412.000113491596
 21
1787.999989956244
 31
0.0
  0
LINE
  5
12E66
330
1F
100
AcDbEntity
  8
実線
100
AcDbLine
 10
2444.000113491596
 20
1775.999989956244
 30
0.0
 11
2432.000113491597
 21
1787.999989956244
 31
0.0
  0
LINE
  5
12E67
330
1F
100
AcDbEntity
  8
実線
100
AcDbLine
 10
2444.000113491596
 20
1784.999989956244
 30
0.0
 11
2435.000113491595
 21
1784.999989956244
 31
0.0
  0
LINE
  5
12E68
330
1F
100
AcDbEntity
  8
破線
100
AcDbLine
 10
2435.000113491595
 20
1504.999989956244
 30
0.0
 11
2412.000113491596
 21
1504.999989956244
 31
0.0
  0
LINE
  5
12E69
330
1F
100
AcDbEntity
  8
実線
100
AcDbLine
 10
2432.000113491597
 20
1501.999989956244
 30
0.0
 11
2412.000113491596
 21
1501.999989956244
 31
0.0
  0
LINE
  5
12E6A
330
1F
100
AcDbEntity
  8
実線
100
AcDbLine
 10
2444.000113491596
 20
1513.999989956244
 30
0.0
 11
2432.000113491597
 21
1501.999989956244
 31
0.0
  0
LINE
  5
12E6B
330
1F
100
AcDbEntity
  8
実線
100
AcDbLine
 10
2444.000113491596
 20
1504.999989956244
 30
0.0
 11
2435.000113491595
 21
1504.999989956244
 31
0.0
  0
LINE
  5
12E6C
330
1F
100
AcDbEntity
  8
実線
100
AcDbLine
 10
1060.000009906569
 20
2034.999990196131
 30
0.0
 11
1060.000009906569
 21
2454.999994880146
 31
0.0
  0
LINE
  5
12E6D
330
1F
100
AcDbEntity
  8
実線
100
AcDbLine
 10
1060.000009906569
 20
2454.9999719515
 30
0.0
 11
1076.000009906569
 21
2454.9999719515
 31
0.0
  0
LINE
  5
12E6E
330
1F
100
AcDbEntity
  8
実線
100
AcDbLine
 10
1108.000009906569
 20
2101.999990196131
 30
0.0
 11
1108.000009906569
 21
2387.999990196131
 31
0.0
  0
LINE
  5
12E6F
330
1F
100
AcDbEntity
  8
実線
100
AcDbLine
 10
1968.000009906571
 20
2384.999971951501
 30
0.0
 11
2412.000113491596
 21
2384.9999719515
 31
0.0
  0
LINE
  5
12E70
330
1F
100
AcDbEntity
  8
実線
100
AcDbLine
 10
1968.000009906571
 20
2444.9999719515
 30
0.0
 11
2444.000113491596
 21
2444.9999719515
 31
0.0
  0
LINE
  5
12E71
330
1F
100
AcDbEntity
  8
破線
100
AcDbLine
 10
1076.000009906569
 20
2428.9999719515
 30
0.0
 11
1108.000009906569
 21
2428.9999719515
 31
0.0
  0
LINE
  5
12E72
330
1F
100
AcDbEntity
  8
破線
100
AcDbLine
 10
1108.000009906569
 20
2428.999990196131
 30
0.0
 11
1108.000009906569
 21
2444.9999719515
 31
0.0
  0
LINE
  5
12E73
330
1F
100
AcDbEntity
  8
破線
100
AcDbLine
 10
1085.000009906569
 20
2384.9999719515
 30
0.0
 11
1108.000009906569
 21
2384.9999719515
 31
0.0
  0
LINE
  5
12E74
330
1F
100
AcDbEntity
  8
実線
100
AcDbLine
 10
1088.000009906569
 20
2387.9999719515
 30
0.0
 11
1108.000009906569
 21
2387.9999719515
 31
0.0
  0
LINE
  5
12E75
330
1F
100
AcDbEntity
  8
実線
100
AcDbLine
 10
1076.000009906569
 20
2375.9999719515
 30
0.0
 11
1088.000009906569
 21
2387.9999719515
 31
0.0
  0
LINE
  5
12E76
330
1F
100
AcDbEntity
  8
実線
100
AcDbLine
 10
1076.000009906569
 20
2384.9999719515
 30
0.0
 11
1085.000009906569
 21
2384.9999719515
 31
0.0
  0
LINE
  5
12E77
330
1F
100
AcDbEntity
  8
破線
100
AcDbLine
 10
2412.00000990657
 20
2428.999990196131
 30
0.0
 11
2412.00000990657
 21
2444.9999719515
 31
0.0
  0
LINE
  5
12E78
330
1F
100
AcDbEntity
  8
破線
100
AcDbLine
 10
2444.00000990657
 20
2428.9999719515
 30
0.0
 11
2412.00000990657
 21
2428.9999719515
 31
0.0
  0
LINE
  5
12E79
330
1F
100
AcDbEntity
  8
破線
100
AcDbLine
 10
1076.000009906569
 20
2252.9999719515
 30
0.0
 11
1108.000009906569
 21
2252.9999719515
 31
0.0
  0
LINE
  5
12E7A
330
1F
100
AcDbEntity
  8
破線
100
AcDbLine
 10
1076.000009906569
 20
2236.9999719515
 30
0.0
 11
1108.000009906569
 21
2236.9999719515
 31
0.0
  0
LINE
  5
12E7B
330
1F
100
AcDbEntity
  8
破線
100
AcDbLine
 10
2412.00000990657
 20
2252.9999719515
 30
0.0
 11
2444.00000990657
 21
2252.9999719515
 31
0.0
  0
LINE
  5
12E7C
330
1F
100
AcDbEntity
  8
破線
100
AcDbLine
 10
2412.00000990657
 20
2236.9999719515
 30
0.0
 11
2444.00000990657
 21
2236.9999719515
 31
0.0
  0
LINE
  5
12E7D
330
1F
100
AcDbEntity
  8
実線
100
AcDbLine
 10
2444.00000990657
 20
2454.9999719515
 30
0.0
 11
2460.00000990657
 21
2454.9999719515
 31
0.0
  0
LINE
  5
12E7E
330
1F
100
AcDbEntity
  8
実線
100
AcDbLine
 10
1076.000009906569
 20
2034.999990196131
 30
0.0
 11
1076.000009906569
 21
2454.9999719515
 31
0.0
  0
LINE
  5
12E7F
330
1F
100
AcDbEntity
  8
実線
100
AcDbLine
 10
2444.00000990657
 20
2034.999990196131
 30
0.0
 11
2444.00000990657
 21
2454.9999719515
 31
0.0
  0
LINE
  5
12E81
330
1F
100
AcDbEntity
  8
実線
100
AcDbLine
 10
1060.000009906569
 20
2034.9999719515
 30
0.0
 11
1076.000009906569
 21
2034.9999719515
 31
0.0
  0
LINE
  5
12E82
330
1F
100
AcDbEntity
  8
実線
100
AcDbLine
 10
1968.000009906571
 20
2104.9999719515
 30
0.0
 11
2412.000113491596
 21
2104.9999719515
 31
0.0
  0
LINE
  5
12E83
330
1F
100
AcDbEntity
  8
実線
100
AcDbLine
 10
1968.000009906571
 20
2044.9999719515
 30
0.0
 11
2444.000113491596
 21
2044.9999719515
 31
0.0
  0
LINE
  5
12E84
330
1F
100
AcDbEntity
  8
破線
100
AcDbLine
 10
1076.000009906569
 20
2060.9999719515
 30
0.0
 11
1108.000009906569
 21
2060.9999719515
 31
0.0
  0
LINE
  5
12E85
330
1F
100
AcDbEntity
  8
破線
100
AcDbLine
 10
1108.000009906569
 20
2060.999953706869
 30
0.0
 11
1108.000009906569
 21
2044.9999719515
 31
0.0
  0
LINE
  5
12E86
330
1F
100
AcDbEntity
  8
破線
100
AcDbLine
 10
1085.000009906569
 20
2104.9999719515
 30
0.0
 11
1108.000009906569
 21
2104.9999719515
 31
0.0
  0
LINE
  5
12E87
330
1F
100
AcDbEntity
  8
実線
100
AcDbLine
 10
1088.000009906569
 20
2101.9999719515
 30
0.0
 11
1108.000009906569
 21
2101.9999719515
 31
0.0
  0
LINE
  5
12E88
330
1F
100
AcDbEntity
  8
実線
100
AcDbLine
 10
1076.000009906569
 20
2113.9999719515
 30
0.0
 11
1088.000009906569
 21
2101.9999719515
 31
0.0
  0
LINE
  5
12E89
330
1F
100
AcDbEntity
  8
実線
100
AcDbLine
 10
1076.000009906569
 20
2104.9999719515
 30
0.0
 11
1085.000009906569
 21
2104.9999719515
 31
0.0
  0
LINE
  5
12E8A
330
1F
100
AcDbEntity
  8
破線
100
AcDbLine
 10
2412.00000990657
 20
2060.999953706869
 30
0.0
 11
2412.00000990657
 21
2044.9999719515
 31
0.0
  0
LINE
  5
12E8B
330
1F
100
AcDbEntity
  8
破線
100
AcDbLine
 10
2444.00000990657
 20
2060.9999719515
 30
0.0
 11
2412.00000990657
 21
2060.9999719515
 31
0.0
  0
LINE
  5
12E8C
330
1F
100
AcDbEntity
  8
実線
100
AcDbLine
 10
2444.00000990657
 20
2034.9999719515
 30
0.0
 11
2460.00000990657
 21
2034.9999719515
 31
0.0
  0
LINE
  5
12E8D
330
1F
100
AcDbEntity
  8
実線
100
AcDbLine
 10
2412.000113491596
 20
2101.999990196131
 30
0.0
 11
2412.000113491596
 21
2387.999990196131
 31
0.0
  0
LINE
  5
12E8E
330
1F
100
AcDbEntity
  8
破線
100
AcDbLine
 10
2435.000113491595
 20
2384.9999719515
 30
0.0
 11
2412.000113491596
 21
2384.9999719515
 31
0.0
  0
LINE
  5
12E8F
330
1F
100
AcDbEntity
  8
実線
100
AcDbLine
 10
2432.000113491597
 20
2387.9999719515
 30
0.0
 11
2412.000113491596
 21
2387.9999719515
 31
0.0
  0
LINE
  5
12E90
330
1F
100
AcDbEntity
  8
実線
100
AcDbLine
 10
2444.000113491596
 20
2375.9999719515
 30
0.0
 11
2432.000113491597
 21
2387.9999719515
 31
0.0
  0
LINE
  5
12E91
330
1F
100
AcDbEntity
  8
実線
100
AcDbLine
 10
2444.000113491596
 20
2384.9999719515
 30
0.0
 11
2435.000113491595
 21
2384.9999719515
 31
0.0
  0
LINE
  5
12E92
330
1F
100
AcDbEntity
  8
破線
100
AcDbLine
 10
2435.000113491595
 20
2104.9999719515
 30
0.0
 11
2412.000113491596
 21
2104.9999719515
 31
0.0
  0
LINE
  5
12E93
330
1F
100
AcDbEntity
  8
実線
100
AcDbLine
 10
2432.000113491597
 20
2101.9999719515
 30
0.0
 11
2412.000113491596
 21
2101.9999719515
 31
0.0
  0
LINE
  5
12E94
330
1F
100
AcDbEntity
  8
実線
100
AcDbLine
 10
2444.000113491596
 20
2113.9999719515
 30
0.0
 11
2432.000113491597
 21
2101.9999719515
 31
0.0
  0
LINE
  5
12E95
330
1F
100
AcDbEntity
  8
実線
100
AcDbLine
 10
2444.000113491596
 20
2104.9999719515
 30
0.0
 11
2435.000113491595
 21
2104.9999719515
 31
0.0
  0
DIMENSION
  5
12E96
330
1F
100
AcDbEntity
  8
寸法線
100
AcDbDimension
280
     0
  2
*D11
 10
2991.000236889734
 20
2604.999981073817
 30
0.0
 11
3000.500236889734
 21
2604.999981073817
 31
0.0
 70
   160
 71
     5
 42
19.0
 73
     0
 74
     0
 75
     0
  3
STANDARD
100
AcDbAlignedDimension
 13
3010.000236889734
 23
2436.00001829349
 33
0.0
 14
2991.000236889734
 24
2444.999981073816
 34
0.0
 50
180.0
100
AcDbRotatedDimension
  0
DIMENSION
  5
12E97
330
1F
100
AcDbEntity
  8
寸法線
100
AcDbDimension
280
     0
  2
*D12
 10
2460.000236889734
 20
2604.999981073817
 30
0.0
 11
2725.500236889734
 21
2604.999981073817
 31
0.0
 70
   160
 71
     5
 42
531.0
 73
     0
 74
     0
 75
     0
  3
STANDARD
100
AcDbAlignedDimension
 13
2991.000236889734
 23
2444.999981073816
 33
0.0
 14
2460.000236889734
 24
2455.000018293489
 34
0.0
 50
180.0
100
AcDbRotatedDimension
  0
DIMENSION
  5
12E98
330
1F
100
AcDbEntity
  8
寸法線
100
AcDbDimension
280
     0
  2
*D13
 10
3130.000236889734
 20
2054.00001829349
 30
0.0
 11
3130.000236889733
 21
2244.999981073815
 31
0.0
 70
   160
 71
     5
 42
382.0000000000005
 73
     0
 74
     0
 75
     0
  3
STANDARD
100
AcDbAlignedDimension
 13
3010.000236889734
 23
2436.00001829349
 33
0.0
 14
3010.000236889734
 24
2054.000018293489
 34
0.0
 50
90.0
100
AcDbRotatedDimension
  0
DIMENSION
  5
12E99
330
1F
100
AcDbEntity
  8
寸法線
100
AcDbDimension
280
     0
  2
*D14
 10
2460.00000990657
 20
1284.99999907856
 30
0.0
 11
2735.00000990657
 21
1284.99999907856
 31
0.0
 70
   160
 71
     5
 42
550.0
 73
     0
 74
     0
 75
     0
  3
STANDARD
100
AcDbAlignedDimension
 13
3010.00000990657
 23
1444.999999078559
 33
0.0
 14
2460.00000990657
 24
1435.000036298233
 34
0.0
 50
180.0
100
AcDbRotatedDimension
  0
LINE
  5
12E9A
330
1F
100
AcDbEntity
  8
中心線
100
AcDbLine
 10
932.0000099065698
 20
1814.999999078559
 30
0.0
 11
2588.000013729756
 21
1814.999977449921
 31
0.0
  0
LINE
  5
12E9B
330
1F
100
AcDbEntity
  8
中心線
100
AcDbLine
 10
1050.000061699082
 20
2414.999990196128
 30
0.0
 11
2470.000165284108
 21
2414.999990196128
 31
0.0
  0
LINE
  5
12E9C
330
1F
100
AcDbEntity
  8
中心線
100
AcDbLine
 10
1050.000061699082
 20
2074.999990196134
 30
0.0
 11
2470.000165284108
 21
2074.999990196134
 31
0.0
  0
LINE
  5
12E9D
330
1F
100
AcDbEntity
  8
中心線
100
AcDbLine
 10
932.0000098498491
 20
1474.99999943821
 30
0.0
 11
2588.000013673037
 21
1475.000020847981
 31
0.0
  0
LINE
  5
12E9E
330
1F
100
AcDbEntity
  8
寸法線
100
AcDbLine
 10
1600.00000990657
 20
1169.999773128442
 30
0.0
 11
1920.00000990657
 21
1169.999773128442
 31
0.0
  0
TEXT
  5
12E9F
330
1F
100
AcDbEntity
  8
寸法線
100
AcDbText
 10
1608.750009906571
 20
1178.749773128442
 30
0.0
 40
37.5
  1
空洞金具詳細図
 72
     1
 11
1760.00000990657
 21
1178.749773128442
 31
0.0
100
AcDbText
 73
     1
  0
LINE
  5
12EA5
330
1F
100
AcDbEntity
  8
実線
100
AcDbLine
 10
510.0000099065987
 20
2435.999994880161
 30
0.0
 11
510.0000099065987
 21
2053.999994880161
 31
0.0
  0
LINE
  5
12EA6
330
1F
100
AcDbEntity
  8
実線
100
AcDbLine
 10
529.0000099065987
 20
2444.99995766048
 30
0.0
 11
529.0000099065987
 21
2044.99995766048
 31
0.0
  0
LINE
  5
12EA7
330
1F
100
AcDbEntity
  8
実線
100
AcDbLine
 10
529.0000099065987
 20
2444.99995766048
 30
0.0
 11
1060.0000297197
 21
2444.99995766048
 31
0.0
  0
LINE
  5
12EA8
330
1F
100
AcDbEntity
  8
実線
100
AcDbLine
 10
529.0000099065987
 20
2423.99995766048
 30
0.0
 11
1060.0000297197
 21
2423.99995766048
 31
0.0
  0
LINE
  5
12EA9
330
1F
100
AcDbEntity
  8
実線
100
AcDbLine
 10
940.0000099065987
 20
2423.99995766048
 30
0.0
 11
940.0000099065987
 21
2393.999994880161
 31
0.0
  0
LINE
  5
12EAA
330
1F
100
AcDbEntity
  8
実線
100
AcDbLine
 10
1020.0000297197
 20
2353.99995766048
 30
0.0
 11
1060.0000297197
 21
2353.99995766048
 31
0.0
  0
LINE
  5
12EAB
330
1F
100
AcDbEntity
  8
実線
100
AcDbLine
 10
940.0000099065987
 20
2393.999994880161
 30
0.0
 11
1020.0000297197
 21
2353.99995766048
 31
0.0
  0
LINE
  5
12EAC
330
1F
100
AcDbEntity
  8
実線
100
AcDbLine
 10
1048.000033682318
 20
2423.99995766048
 30
0.0
 11
1060.000033682318
 21
2411.99995766048
 31
0.0
  0
LINE
  5
12EAD
330
1F
100
AcDbEntity
  8
仮想線
100
AcDbLine
 10
1051.000029719701
 20
2423.99995766048
 30
0.0
 11
1060.0000297197
 21
2414.99995766048
 31
0.0
  0
LINE
  5
12EAE
330
1F
100
AcDbEntity
  8
実線
100
AcDbLine
 10
940.0000099065987
 20
2065.99995766048
 30
0.0
 11
940.0000099065987
 21
2095.999920440813
 31
0.0
  0
LINE
  5
12EAF
330
1F
100
AcDbEntity
  8
実線
100
AcDbLine
 10
1020.0000297197
 20
2135.99995766048
 30
0.0
 11
1060.0000297197
 21
2135.99995766048
 31
0.0
  0
LINE
  5
12EB0
330
1F
100
AcDbEntity
  8
実線
100
AcDbLine
 10
940.0000099065987
 20
2095.999920440813
 30
0.0
 11
1020.0000297197
 21
2135.99995766048
 31
0.0
  0
LINE
  5
12EB1
330
1F
100
AcDbEntity
  8
実線
100
AcDbLine
 10
1048.000033682318
 20
2065.99995766048
 30
0.0
 11
1060.000033682318
 21
2077.99995766048
 31
0.0
  0
LINE
  5
12EB2
330
1F
100
AcDbEntity
  8
仮想線
100
AcDbLine
 10
1051.000029719701
 20
2065.99995766048
 30
0.0
 11
1060.0000297197
 21
2074.99995766048
 31
0.0
  0
LINE
  5
12EB3
330
1F
100
AcDbEntity
  8
実線
100
AcDbLine
 10
510.0000099065987
 20
2435.999994880161
 30
0.0
 11
529.0000099065987
 21
2435.999994880161
 31
0.0
  0
LINE
  5
12EB4
330
1F
100
AcDbEntity
  8
実線
100
AcDbLine
 10
510.0000099065987
 20
2054.000020440803
 30
0.0
 11
529.0000099065987
 21
2054.000020440803
 31
0.0
  0
LINE
  5
12EB5
330
1F
100
AcDbEntity
  8
仮想線
100
AcDbLine
 10
529.0000099065987
 20
2444.99995766048
 30
0.0
 11
520.0000471262651
 21
2435.999994880161
 31
0.0
  0
LINE
  5
12EB6
330
1F
100
AcDbEntity
  8
仮想線
100
AcDbLine
 10
529.0000099065987
 20
2044.99995766048
 30
0.0
 11
519.9999471262749
 21
2054.000020440803
 31
0.0
  0
LINE
  5
12EB7
330
1F
100
AcDbEntity
  8
実線
100
AcDbLine
 10
529.0000099065987
 20
2250.999957660479
 30
0.0
 11
729.0000297197007
 21
2250.999957660479
 31
0.0
  0
LINE
  5
12EB8
330
1F
100
AcDbEntity
  8
実線
100
AcDbLine
 10
529.0000099065987
 20
2238.99995766048
 30
0.0
 11
729.0000297197007
 21
2238.99995766048
 31
0.0
  0
LINE
  5
12EB9
330
1F
100
AcDbEntity
  8
実線
100
AcDbLine
 10
729.0000297197007
 20
2250.999957660479
 30
0.0
 11
729.0000297197007
 21
2238.99995766048
 31
0.0
  0
LINE
  5
12EBA
330
1F
100
AcDbEntity
  8
仮想線
100
AcDbLine
 10
1060.0000118879
 20
2453.999991158188
 30
0.0
 11
1050.999978390191
 21
2444.99995766048
 31
0.0
  0
LINE
  5
12EBB
330
1F
100
AcDbEntity
  8
仮想線
100
AcDbLine
 10
1060.0000118879
 20
2035.999991158188
 30
0.0
 11
1051.000045385608
 21
2044.99995766048
 31
0.0
  0
LINE
  5
12EBC
330
1F
100
AcDbEntity
  8
実線
100
AcDbLine
 10
529.0000099065987
 20
2044.99995766048
 30
0.0
 11
1060.000092986058
 21
2045.000221899046
 31
0.0
  0
LINE
  5
12EBD
330
1F
100
AcDbEntity
  8
実線
100
AcDbLine
 10
529.0000099065987
 20
2066.000053926739
 30
0.0
 11
1060.00008634308
 21
2066.000221899046
 31
0.0
  0
LINE
  5
12EBF
330
1F
100
AcDbEntity
  8
中心線
100
AcDbLine
 10
560.0000099065987
 20
2454.99999487693
 30
0.0
 11
560.0000099065987
 21
2413.99999487693
 31
0.0
  0
LINE
  5
12EC0
330
1F
100
AcDbEntity
  8
中心線
100
AcDbLine
 10
560.0000099065987
 20
2034.999994883406
 30
0.0
 11
560.0000099065987
 21
2075.999994883406
 31
0.0
  0
LINE
  5
12EC1
330
1F
100
AcDbEntity
  8
中心線
100
AcDbLine
 10
500.0000144044502
 20
2344.999957555124
 30
0.0
 11
536.0000342175558
 21
2344.999957555124
 31
0.0
  0
LINE
  5
12EC2
330
1F
100
AcDbEntity
  8
中心線
100
AcDbLine
 10
500.0000144044502
 20
2144.999957555124
 30
0.0
 11
536.0000342175558
 21
2144.999957555124
 31
0.0
  0
LINE
  5
12EC3
330
1F
100
AcDbEntity
  8
中心線
100
AcDbLine
 10
500.0000144044502
 20
2169.999957555124
 30
0.0
 11
536.0000342175558
 21
2169.999957555124
 31
0.0
  0
LINE
  5
12EC4
330
1F
100
AcDbEntity
  8
中心線
100
AcDbLine
 10
500.0000144044502
 20
2320.000032205197
 30
0.0
 11
536.0000342175558
 21
2320.000032205197
 31
0.0
  0
LINE
  5
12EC5
330
1F
100
AcDbEntity
  8
中心線
100
AcDbLine
 10
610.0000099065987
 20
2454.99999487693
 30
0.0
 11
610.0000099065987
 21
2413.99999487693
 31
0.0
  0
LINE
  5
12EC6
330
1F
100
AcDbEntity
  8
中心線
100
AcDbLine
 10
610.0000099065987
 20
2034.999994883406
 30
0.0
 11
610.0000099065987
 21
2075.999994883406
 31
0.0
  0
LINE
  5
12EC7
330
1F
100
AcDbEntity
  8
中心線
100
AcDbLine
 10
660.0000099065987
 20
2454.99999487693
 30
0.0
 11
660.0000099065987
 21
2413.99999487693
 31
0.0
  0
LINE
  5
12EC8
330
1F
100
AcDbEntity
  8
中心線
100
AcDbLine
 10
660.0000099065987
 20
2034.999994883406
 30
0.0
 11
660.0000099065987
 21
2075.999994883406
 31
0.0
  0
LINE
  5
12EC9
330
1F
100
AcDbEntity
  8
中心線
100
AcDbLine
 10
710.0000099065987
 20
2454.99999487693
 30
0.0
 11
710.0000099065987
 21
2413.99999487693
 31
0.0
  0
LINE
  5
12ECA
330
1F
100
AcDbEntity
  8
中心線
100
AcDbLine
 10
710.0000099065987
 20
2034.999994883406
 30
0.0
 11
710.0000099065987
 21
2075.999994883406
 31
0.0
  0
LINE
  5
12ECB
330
1F
100
AcDbEntity
  8
中心線
100
AcDbLine
 10
760.0000099065987
 20
2454.99999487693
 30
0.0
 11
760.0000099065987
 21
2413.99999487693
 31
0.0
  0
LINE
  5
12ECC
330
1F
100
AcDbEntity
  8
中心線
100
AcDbLine
 10
760.0000099065987
 20
2034.999994883406
 30
0.0
 11
760.0000099065987
 21
2075.999994883406
 31
0.0
  0
LINE
  5
12ECD
330
1F
100
AcDbEntity
  8
中心線
100
AcDbLine
 10
810.0000099065987
 20
2454.99999487693
 30
0.0
 11
810.0000099065987
 21
2413.99999487693
 31
0.0
  0
LINE
  5
12ECE
330
1F
100
AcDbEntity
  8
中心線
100
AcDbLine
 10
810.0000099065987
 20
2034.999994883406
 30
0.0
 11
810.0000099065987
 21
2075.999994883406
 31
0.0
  0
LINE
  5
12ECF
330
1F
100
AcDbEntity
  8
中心線
100
AcDbLine
 10
860.0000099065987
 20
2454.99999487693
 30
0.0
 11
860.0000099065987
 21
2413.99999487693
 31
0.0
  0
LINE
  5
12ED0
330
1F
100
AcDbEntity
  8
中心線
100
AcDbLine
 10
860.0000099065987
 20
2034.999994883406
 30
0.0
 11
860.0000099065987
 21
2075.999994883406
 31
0.0
  0
LINE
  5
12ED1
330
1F
100
AcDbEntity
  8
実線
100
AcDbLine
 10
510.0000099065696
 20
1844.999952736577
 30
0.0
 11
1060.0000297197
 21
1844.999952736577
 31
0.0
  0
LINE
  5
12ED2
330
1F
100
AcDbEntity
  8
実線
100
AcDbLine
 10
529.0000099065696
 20
1844.999952736577
 30
0.0
 11
529.0000099065696
 21
1444.999952736577
 31
0.0
  0
LINE
  5
12ED3
330
1F
100
AcDbEntity
  8
実線
100
AcDbLine
 10
510.0000099065696
 20
1844.999952736577
 30
0.0
 11
510.0000099065696
 21
1444.999952736577
 31
0.0
  0
LINE
  5
12ED4
330
1F
100
AcDbEntity
  8
破線
100
AcDbLine
 10
529.0000099065696
 20
1651.499952736577
 30
0.0
 11
1060.0000297197
 21
1651.499952736577
 31
0.0
  0
LINE
  5
12ED5
330
1F
100
AcDbEntity
  8
破線
100
AcDbLine
 10
539.0000099065696
 20
1651.499952736577
 30
0.0
 11
529.0000099065696
 21
1661.499952736577
 31
0.0
  0
LINE
  5
12ED6
330
1F
100
AcDbEntity
  8
仮想線
100
AcDbLine
 10
536.0000099065696
 20
1651.499952736577
 30
0.0
 11
529.0000099065696
 21
1658.499952736577
 31
0.0
  0
LINE
  5
12ED7
330
1F
100
AcDbEntity
  8
破線
100
AcDbLine
 10
539.0000099065696
 20
1638.499952736577
 30
0.0
 11
529.0000099065696
 21
1628.499952736577
 31
0.0
  0
LINE
  5
12ED8
330
1F
100
AcDbEntity
  8
仮想線
100
AcDbLine
 10
536.0000099065696
 20
1638.499952736577
 30
0.0
 11
529.0000099065696
 21
1631.499952736577
 31
0.0
  0
LINE
  5
12ED9
330
1F
100
AcDbEntity
  8
実線
100
AcDbLine
 10
1060.000009906569
 20
1854.999989956244
 30
0.0
 11
1060.000009906569
 21
1434.999989956243
 31
0.0
  0
LINE
  5
12EDA
330
1F
100
AcDbEntity
  8
破線
100
AcDbLine
 10
940.0000297197006
 20
1824.499952736577
 30
0.0
 11
1060.000009906569
 21
1824.499952736577
 31
0.0
  0
LINE
  5
12EDB
330
1F
100
AcDbEntity
  8
破線
100
AcDbLine
 10
940.0000297197006
 20
1805.499952736577
 30
0.0
 11
1060.000009906569
 21
1805.499952736577
 31
0.0
  0
LINE
  5
12EDC
330
1F
100
AcDbEntity
  8
破線
100
AcDbLine
 10
940.0000297197006
 20
1824.499952736577
 30
0.0
 11
940.0000297197006
 21
1805.499952736577
 31
0.0
  0
LINE
  5
12EDD
330
1F
100
AcDbEntity
  8
破線
100
AcDbLine
 10
940.0000297197006
 20
1465.499952736577
 30
0.0
 11
1060.000009906569
 21
1465.499952736577
 31
0.0
  0
LINE
  5
12EDE
330
1F
100
AcDbEntity
  8
破線
100
AcDbLine
 10
940.0000297197006
 20
1484.499952736577
 30
0.0
 11
1060.000009906569
 21
1484.499952736577
 31
0.0
  0
LINE
  5
12EDF
330
1F
100
AcDbEntity
  8
破線
100
AcDbLine
 10
940.0000297197006
 20
1465.499952736577
 30
0.0
 11
940.0000297197006
 21
1484.499952736577
 31
0.0
  0
LINE
  5
12EE0
330
1F
100
AcDbEntity
  8
破線
100
AcDbLine
 10
529.0000099065696
 20
1841.499952736577
 30
0.0
 11
559.0000297197007
 21
1841.499952736577
 31
0.0
  0
LINE
  5
12EE1
330
1F
100
AcDbEntity
  8
破線
100
AcDbLine
 10
729.0000099065696
 20
1681.499989956243
 30
0.0
 11
729.0000099065696
 21
1651.499952736577
 31
0.0
  0
LINE
  5
12EE2
330
1F
100
AcDbEntity
  8
破線
100
AcDbLine
 10
559.0000297197007
 20
1841.499952736577
 30
0.0
 11
729.0000099065696
 21
1681.499989956243
 31
0.0
  0
LINE
  5
12EE3
330
1F
100
AcDbEntity
  8
破線
100
AcDbLine
 10
729.0000099065696
 20
1608.499915516911
 30
0.0
 11
729.0000099065696
 21
1638.499952736577
 31
0.0
  0
LINE
  5
12EE4
330
1F
100
AcDbEntity
  8
破線
100
AcDbLine
 10
559.0000297197007
 20
1448.499952736577
 30
0.0
 11
729.0000099065696
 21
1608.499915516911
 31
0.0
  0
LINE
  5
12EE5
330
1F
100
AcDbEntity
  8
破線
100
AcDbLine
 10
529.0000099065696
 20
1448.499952736577
 30
0.0
 11
559.0000297197007
 21
1448.499952736577
 31
0.0
  0
LINE
  5
12EE6
330
1F
100
AcDbEntity
  8
実線
100
AcDbLine
 10
510.0000099065696
 20
1444.999952736577
 30
0.0
 11
1060.0000297197
 21
1444.999952947318
 31
0.0
  0
LINE
  5
12EE7
330
1F
100
AcDbEntity
  8
破線
100
AcDbLine
 10
529.0000099065696
 20
1638.499952947318
 30
0.0
 11
1060.0000297197
 21
1638.499952947318
 31
0.0
  0
LEADER
  5
12EE8
330
1F
100
AcDbEntity
  8
寸法線
100
AcDbLeader
  3
STANDARD
 76
     3
 10
616.1231028872139
 20
1780.897573484076
 30
0.0
 10
691.4719374724552
 20
1914.99999907856
 30
0.0
 10
959.132114407275
 20
1914.99999907856
 30
0.0
211
-1.0
221
0.0
231
0.0
1001
ACAD
1000
DSTYLE
1002
{
1070
   147
1040
0.875
1070
    77
1070
     0
1002
}
  0
TEXT
  5
12EE9
330
1F
100
AcDbEntity
  8
寸法線
100
AcDbText
 10
700.2219374724504
 20
1923.74999907856
 30
0.0
 40
25.0
  1
ｶﾊﾞｰﾌﾟﾚｰﾄ連結用孔
 72
     2
 11
948.5552708057836
 21
1948.74999907856
 31
0.0
100
AcDbText
 73
     3
  0
LINE
  5
12EEA
330
1F
100
AcDbEntity
  8
中心線
100
AcDbLine
 10
560.0000099065696
 20
1754.999952736591
 30
0.0
 11
560.0000099065696
 21
1684.999989956265
 31
0.0
  0
LINE
  5
12EEB
330
1F
100
AcDbEntity
  8
中心線
100
AcDbLine
 10
525.0000285164064
 20
1719.999971346432
 30
0.0
 11
594.9999912967327
 21
1719.999971346432
 31
0.0
  0
CIRCLE
  5
12EEC
330
1F
100
AcDbEntity
  8
実線
100
AcDbCircle
 10
560.0000099065696
 20
1719.999971346432
 30
0.0
 40
12.5
  0
LINE
  5
12EED
330
1F
100
AcDbEntity
  8
中心線
100
AcDbLine
 10
560.0000099065696
 20
1535.000052736589
 30
0.0
 11
560.0000099065696
 21
1605.000015516915
 31
0.0
  0
LINE
  5
12EEE
330
1F
100
AcDbEntity
  8
中心線
100
AcDbLine
 10
525.0000285164064
 20
1570.000034126756
 30
0.0
 11
594.9999912967327
 21
1570.000034126756
 31
0.0
  0
CIRCLE
  5
12EEF
330
1F
100
AcDbEntity
  8
実線
100
AcDbCircle
 10
560.0000099065696
 20
1570.000034126756
 30
0.0
 40
12.5
  0
LINE
  5
12EF0
330
1F
100
AcDbEntity
  8
中心線
100
AcDbLine
 10
660.0000099065696
 20
1754.999952736591
 30
0.0
 11
660.0000099065696
 21
1684.999989956265
 31
0.0
  0
LINE
  5
12EF1
330
1F
100
AcDbEntity
  8
中心線
100
AcDbLine
 10
625.0000285164064
 20
1719.999971346432
 30
0.0
 11
694.9999912967328
 21
1719.999971346432
 31
0.0
  0
CIRCLE
  5
12EF2
330
1F
100
AcDbEntity
  8
実線
100
AcDbCircle
 10
660.0000099065696
 20
1719.999971346432
 30
0.0
 40
12.5
  0
LINE
  5
12EF3
330
1F
100
AcDbEntity
  8
中心線
100
AcDbLine
 10
660.0000099065696
 20
1535.000052736589
 30
0.0
 11
660.0000099065696
 21
1605.000015516915
 31
0.0
  0
LINE
  5
12EF4
330
1F
100
AcDbEntity
  8
中心線
100
AcDbLine
 10
625.0000285164064
 20
1570.000034126756
 30
0.0
 11
694.9999912967328
 21
1570.000034126756
 31
0.0
  0
CIRCLE
  5
12EF5
330
1F
100
AcDbEntity
  8
実線
100
AcDbCircle
 10
660.0000099065696
 20
1570.000034126756
 30
0.0
 40
12.5
  0
LINE
  5
12EF6
330
1F
100
AcDbEntity
  8
中心線
100
AcDbLine
 10
760.0000099065696
 20
1754.999952736591
 30
0.0
 11
760.0000099065696
 21
1684.999989956265
 31
0.0
  0
LINE
  5
12EF7
330
1F
100
AcDbEntity
  8
中心線
100
AcDbLine
 10
725.0000285164064
 20
1719.999971346432
 30
0.0
 11
794.9999912967328
 21
1719.999971346432
 31
0.0
  0
CIRCLE
  5
12EF8
330
1F
100
AcDbEntity
  8
実線
100
AcDbCircle
 10
760.0000099065696
 20
1719.999971346432
 30
0.0
 40
12.5
  0
LINE
  5
12EF9
330
1F
100
AcDbEntity
  8
中心線
100
AcDbLine
 10
760.0000099065696
 20
1535.000052736589
 30
0.0
 11
760.0000099065696
 21
1605.000015516915
 31
0.0
  0
LINE
  5
12EFA
330
1F
100
AcDbEntity
  8
中心線
100
AcDbLine
 10
725.0000285164064
 20
1570.000034126756
 30
0.0
 11
794.9999912967328
 21
1570.000034126756
 31
0.0
  0
CIRCLE
  5
12EFB
330
1F
100
AcDbEntity
  8
実線
100
AcDbCircle
 10
760.0000099065696
 20
1570.000034126756
 30
0.0
 40
12.5
  0
LINE
  5
12EFC
330
1F
100
AcDbEntity
  8
中心線
100
AcDbLine
 10
610.0000099065696
 20
1804.999952736591
 30
0.0
 11
610.0000099065696
 21
1734.999989956265
 31
0.0
  0
LINE
  5
12EFD
330
1F
100
AcDbEntity
  8
中心線
100
AcDbLine
 10
575.0000285164064
 20
1769.999971346432
 30
0.0
 11
644.9999912967328
 21
1769.999971346432
 31
0.0
  0
CIRCLE
  5
12EFE
330
1F
100
AcDbEntity
  8
実線
100
AcDbCircle
 10
610.0000099065696
 20
1769.999971346432
 30
0.0
 40
12.5
  0
LINE
  5
12EFF
330
1F
100
AcDbEntity
  8
中心線
100
AcDbLine
 10
710.0000099065696
 20
1804.999952736591
 30
0.0
 11
710.0000099065696
 21
1734.999989956265
 31
0.0
  0
LINE
  5
12F00
330
1F
100
AcDbEntity
  8
中心線
100
AcDbLine
 10
675.0000285164064
 20
1769.999971346432
 30
0.0
 11
744.9999912967328
 21
1769.999971346432
 31
0.0
  0
CIRCLE
  5
12F01
330
1F
100
AcDbEntity
  8
実線
100
AcDbCircle
 10
710.0000099065696
 20
1769.999971346432
 30
0.0
 40
12.5
  0
LINE
  5
12F02
330
1F
100
AcDbEntity
  8
中心線
100
AcDbLine
 10
610.0000099065696
 20
1485.000052736589
 30
0.0
 11
610.0000099065696
 21
1555.000015516915
 31
0.0
  0
LINE
  5
12F03
330
1F
100
AcDbEntity
  8
中心線
100
AcDbLine
 10
575.0000285164064
 20
1520.000034126756
 30
0.0
 11
644.9999912967328
 21
1520.000034126756
 31
0.0
  0
CIRCLE
  5
12F04
330
1F
100
AcDbEntity
  8
実線
100
AcDbCircle
 10
610.0000099065696
 20
1520.000034126756
 30
0.0
 40
12.5
  0
LINE
  5
12F05
330
1F
100
AcDbEntity
  8
中心線
100
AcDbLine
 10
710.0000099065696
 20
1485.000052736589
 30
0.0
 11
710.0000099065696
 21
1555.000015516915
 31
0.0
  0
LINE
  5
12F06
330
1F
100
AcDbEntity
  8
中心線
100
AcDbLine
 10
675.0000285164064
 20
1520.000034126756
 30
0.0
 11
744.9999912967328
 21
1520.000034126756
 31
0.0
  0
CIRCLE
  5
12F07
330
1F
100
AcDbEntity
  8
実線
100
AcDbCircle
 10
710.0000099065696
 20
1520.000034126756
 30
0.0
 40
12.5
  0
LINE
  5
12F08
330
1F
100
AcDbEntity
  8
中心線
100
AcDbLine
 10
860.0000099065695
 20
1754.999952736591
 30
0.0
 11
860.0000099065695
 21
1684.999989956265
 31
0.0
  0
LINE
  5
12F09
330
1F
100
AcDbEntity
  8
中心線
100
AcDbLine
 10
825.0000285164064
 20
1719.999971346432
 30
0.0
 11
894.9999912967328
 21
1719.999971346432
 31
0.0
  0
CIRCLE
  5
12F0A
330
1F
100
AcDbEntity
  8
実線
100
AcDbCircle
 10
860.0000099065695
 20
1719.999971346432
 30
0.0
 40
12.5
  0
LINE
  5
12F0B
330
1F
100
AcDbEntity
  8
中心線
100
AcDbLine
 10
860.0000099065695
 20
1535.000052736589
 30
0.0
 11
860.0000099065695
 21
1605.000015516915
 31
0.0
  0
LINE
  5
12F0C
330
1F
100
AcDbEntity
  8
中心線
100
AcDbLine
 10
825.0000285164064
 20
1570.000034126756
 30
0.0
 11
894.9999912967328
 21
1570.000034126756
 31
0.0
  0
CIRCLE
  5
12F0D
330
1F
100
AcDbEntity
  8
実線
100
AcDbCircle
 10
860.0000099065695
 20
1570.000034126756
 30
0.0
 40
12.5
  0
LINE
  5
12F0E
330
1F
100
AcDbEntity
  8
中心線
100
AcDbLine
 10
810.0000099065695
 20
1804.999952736591
 30
0.0
 11
810.0000099065695
 21
1734.999989956265
 31
0.0
  0
LINE
  5
12F0F
330
1F
100
AcDbEntity
  8
中心線
100
AcDbLine
 10
775.0000285164064
 20
1769.999971346432
 30
0.0
 11
844.9999912967328
 21
1769.999971346432
 31
0.0
  0
CIRCLE
  5
12F10
330
1F
100
AcDbEntity
  8
実線
100
AcDbCircle
 10
810.0000099065695
 20
1769.999971346432
 30
0.0
 40
12.5
  0
LINE
  5
12F11
330
1F
100
AcDbEntity
  8
中心線
100
AcDbLine
 10
810.0000099065695
 20
1485.000052736589
 30
0.0
 11
810.0000099065695
 21
1555.000015516915
 31
0.0
  0
LINE
  5
12F12
330
1F
100
AcDbEntity
  8
中心線
100
AcDbLine
 10
775.0000285164064
 20
1520.000034126756
 30
0.0
 11
844.9999912967328
 21
1520.000034126756
 31
0.0
  0
CIRCLE
  5
12F13
330
1F
100
AcDbEntity
  8
実線
100
AcDbCircle
 10
810.0000099065695
 20
1520.000034126756
 30
0.0
 40
12.5
  0
LINE
  5
12F14
330
1F
100
AcDbEntity
  8
中心線
100
AcDbLine
 10
500.0000144044247
 20
1744.939052415063
 30
0.0
 11
536.0000342175339
 21
1744.939052415063
 31
0.0
  0
LINE
  5
12F15
330
1F
100
AcDbEntity
  8
中心線
100
AcDbLine
 10
500.0000144044247
 20
1544.939052415063
 30
0.0
 11
536.0000342175339
 21
1544.939052415063
 31
0.0
  0
LINE
  5
12F16
330
1F
100
AcDbEntity
  8
中心線
100
AcDbLine
 10
500.0000144044247
 20
1594.939052415063
 30
0.0
 11
536.0000342175339
 21
1594.939052415063
 31
0.0
  0
LINE
  5
12F17
330
1F
100
AcDbEntity
  8
中心線
100
AcDbLine
 10
500.0000144044247
 20
1694.939127065144
 30
0.0
 11
536.0000342175339
 21
1694.939127065144
 31
0.0
  0
LINE
  5
12F18
330
1F
100
AcDbEntity
  8
実線
100
AcDbLine
 10
3010.00000990657
 20
1844.999952736577
 30
0.0
 11
2459.999990093439
 21
1844.999952736577
 31
0.0
  0
LINE
  5
12F19
330
1F
100
AcDbEntity
  8
実線
100
AcDbLine
 10
2991.00000990657
 20
1844.999952736577
 30
0.0
 11
2991.000009906566
 21
1444.999952736577
 31
0.0
  0
LINE
  5
12F1A
330
1F
100
AcDbEntity
  8
実線
100
AcDbLine
 10
3010.00000990657
 20
1844.999952736577
 30
0.0
 11
3010.000009906566
 21
1444.999952736577
 31
0.0
  0
LINE
  5
12F1B
330
1F
100
AcDbEntity
  8
破線
100
AcDbLine
 10
2991.00000990657
 20
1651.499952736577
 30
0.0
 11
2459.999990093439
 21
1651.499952736577
 31
0.0
  0
LINE
  5
12F1C
330
1F
100
AcDbEntity
  8
破線
100
AcDbLine
 10
2981.00000990657
 20
1651.499952736577
 30
0.0
 11
2991.00000990657
 21
1661.499952736577
 31
0.0
  0
LINE
  5
12F1D
330
1F
100
AcDbEntity
  8
仮想線
100
AcDbLine
 10
2984.00000990657
 20
1651.499952736577
 30
0.0
 11
2991.00000990657
 21
1658.499952736577
 31
0.0
  0
LINE
  5
12F1E
330
1F
100
AcDbEntity
  8
破線
100
AcDbLine
 10
2981.00000990657
 20
1638.499952736577
 30
0.0
 11
2991.00000990657
 21
1628.499952736577
 31
0.0
  0
LINE
  5
12F1F
330
1F
100
AcDbEntity
  8
仮想線
100
AcDbLine
 10
2984.00000990657
 20
1638.499952736577
 30
0.0
 11
2991.00000990657
 21
1631.499952736577
 31
0.0
  0
LINE
  5
12F20
330
1F
100
AcDbEntity
  8
実線
100
AcDbLine
 10
2460.00000990657
 20
1854.999989956244
 30
0.0
 11
2460.000009906566
 21
1434.999989956243
 31
0.0
  0
LINE
  5
12F21
330
1F
100
AcDbEntity
  8
破線
100
AcDbLine
 10
2579.999990093439
 20
1824.499952736577
 30
0.0
 11
2460.00000990657
 21
1824.499952736577
 31
0.0
  0
LINE
  5
12F22
330
1F
100
AcDbEntity
  8
破線
100
AcDbLine
 10
2579.999990093439
 20
1805.499952736577
 30
0.0
 11
2460.00000990657
 21
1805.499952736577
 31
0.0
  0
LINE
  5
12F23
330
1F
100
AcDbEntity
  8
破線
100
AcDbLine
 10
2579.999990093439
 20
1824.499952736577
 30
0.0
 11
2579.999990093439
 21
1805.499952736577
 31
0.0
  0
LINE
  5
12F24
330
1F
100
AcDbEntity
  8
破線
100
AcDbLine
 10
2579.999990093435
 20
1465.499952736577
 30
0.0
 11
2460.000009906566
 21
1465.499952736577
 31
0.0
  0
LINE
  5
12F25
330
1F
100
AcDbEntity
  8
破線
100
AcDbLine
 10
2579.999990093435
 20
1484.499952736577
 30
0.0
 11
2460.000009906566
 21
1484.499952736577
 31
0.0
  0
LINE
  5
12F26
330
1F
100
AcDbEntity
  8
破線
100
AcDbLine
 10
2579.999990093435
 20
1465.499952736577
 30
0.0
 11
2579.999990093435
 21
1484.499952736577
 31
0.0
  0
LINE
  5
12F27
330
1F
100
AcDbEntity
  8
破線
100
AcDbLine
 10
2991.00000990657
 20
1841.499952736577
 30
0.0
 11
2960.999990093439
 21
1841.499952736577
 31
0.0
  0
LINE
  5
12F28
330
1F
100
AcDbEntity
  8
破線
100
AcDbLine
 10
2791.00000990657
 20
1681.499989956243
 30
0.0
 11
2791.00000990657
 21
1651.499952736577
 31
0.0
  0
LINE
  5
12F29
330
1F
100
AcDbEntity
  8
破線
100
AcDbLine
 10
2960.999990093439
 20
1841.499952736577
 30
0.0
 11
2791.00000990657
 21
1681.499989956243
 31
0.0
  0
LINE
  5
12F2A
330
1F
100
AcDbEntity
  8
破線
100
AcDbLine
 10
2791.00000990657
 20
1608.499915516911
 30
0.0
 11
2791.00000990657
 21
1638.499952736577
 31
0.0
  0
LINE
  5
12F2B
330
1F
100
AcDbEntity
  8
破線
100
AcDbLine
 10
2960.999990093435
 20
1448.499952736577
 30
0.0
 11
2791.00000990657
 21
1608.499915516911
 31
0.0
  0
LINE
  5
12F2C
330
1F
100
AcDbEntity
  8
破線
100
AcDbLine
 10
2991.000009906566
 20
1448.499952736577
 30
0.0
 11
2960.999990093435
 21
1448.499952736577
 31
0.0
  0
LINE
  5
12F2D
330
1F
100
AcDbEntity
  8
実線
100
AcDbLine
 10
3010.000009906566
 20
1444.999952736577
 30
0.0
 11
2459.999990093435
 21
1444.999952947318
 31
0.0
  0
LINE
  5
12F2E
330
1F
100
AcDbEntity
  8
破線
100
AcDbLine
 10
2991.00000990657
 20
1638.499952947318
 30
0.0
 11
2459.999990093439
 21
1638.499952947318
 31
0.0
  0
LINE
  5
12F2F
330
1F
100
AcDbEntity
  8
中心線
100
AcDbLine
 10
2960.00000990657
 20
1754.999952736591
 30
0.0
 11
2960.00000990657
 21
1684.999989956265
 31
0.0
  0
LINE
  5
12F30
330
1F
100
AcDbEntity
  8
中心線
100
AcDbLine
 10
2994.999991296732
 20
1719.999971346432
 30
0.0
 11
2925.000028516407
 21
1719.999971346432
 31
0.0
  0
CIRCLE
  5
12F31
330
1F
100
AcDbEntity
  8
実線
100
AcDbCircle
 10
2960.00000990657
 20
1719.999971346432
 30
0.0
 40
12.5
  0
LINE
  5
12F32
330
1F
100
AcDbEntity
  8
中心線
100
AcDbLine
 10
2960.00000990657
 20
1535.000052736589
 30
0.0
 11
2960.00000990657
 21
1605.000015516915
 31
0.0
  0
LINE
  5
12F33
330
1F
100
AcDbEntity
  8
中心線
100
AcDbLine
 10
2994.999991296732
 20
1570.000034126756
 30
0.0
 11
2925.000028516407
 21
1570.000034126756
 31
0.0
  0
CIRCLE
  5
12F34
330
1F
100
AcDbEntity
  8
実線
100
AcDbCircle
 10
2960.00000990657
 20
1570.000034126756
 30
0.0
 40
12.5
  0
LINE
  5
12F35
330
1F
100
AcDbEntity
  8
中心線
100
AcDbLine
 10
2860.00000990657
 20
1754.999952736591
 30
0.0
 11
2860.00000990657
 21
1684.999989956265
 31
0.0
  0
LINE
  5
12F36
330
1F
100
AcDbEntity
  8
中心線
100
AcDbLine
 10
2894.999991296733
 20
1719.999971346432
 30
0.0
 11
2825.000028516407
 21
1719.999971346432
 31
0.0
  0
CIRCLE
  5
12F37
330
1F
100
AcDbEntity
  8
実線
100
AcDbCircle
 10
2860.00000990657
 20
1719.999971346432
 30
0.0
 40
12.5
  0
LINE
  5
12F38
330
1F
100
AcDbEntity
  8
中心線
100
AcDbLine
 10
2860.00000990657
 20
1535.000052736589
 30
0.0
 11
2860.00000990657
 21
1605.000015516915
 31
0.0
  0
LINE
  5
12F39
330
1F
100
AcDbEntity
  8
中心線
100
AcDbLine
 10
2894.999991296733
 20
1570.000034126756
 30
0.0
 11
2825.000028516407
 21
1570.000034126756
 31
0.0
  0
CIRCLE
  5
12F3A
330
1F
100
AcDbEntity
  8
実線
100
AcDbCircle
 10
2860.00000990657
 20
1570.000034126756
 30
0.0
 40
12.5
  0
LINE
  5
12F3B
330
1F
100
AcDbEntity
  8
中心線
100
AcDbLine
 10
2760.00000990657
 20
1754.999952736591
 30
0.0
 11
2760.00000990657
 21
1684.999989956265
 31
0.0
  0
LINE
  5
12F3C
330
1F
100
AcDbEntity
  8
中心線
100
AcDbLine
 10
2794.999991296733
 20
1719.999971346432
 30
0.0
 11
2725.000028516407
 21
1719.999971346432
 31
0.0
  0
CIRCLE
  5
12F3D
330
1F
100
AcDbEntity
  8
実線
100
AcDbCircle
 10
2760.00000990657
 20
1719.999971346432
 30
0.0
 40
12.5
  0
LINE
  5
12F3E
330
1F
100
AcDbEntity
  8
中心線
100
AcDbLine
 10
2760.00000990657
 20
1535.000052736589
 30
0.0
 11
2760.00000990657
 21
1605.000015516915
 31
0.0
  0
LINE
  5
12F3F
330
1F
100
AcDbEntity
  8
中心線
100
AcDbLine
 10
2794.999991296733
 20
1570.000034126756
 30
0.0
 11
2725.000028516407
 21
1570.000034126756
 31
0.0
  0
CIRCLE
  5
12F40
330
1F
100
AcDbEntity
  8
実線
100
AcDbCircle
 10
2760.00000990657
 20
1570.000034126756
 30
0.0
 40
12.5
  0
LINE
  5
12F41
330
1F
100
AcDbEntity
  8
中心線
100
AcDbLine
 10
2910.00000990657
 20
1804.999952736591
 30
0.0
 11
2910.00000990657
 21
1734.999989956265
 31
0.0
  0
LINE
  5
12F42
330
1F
100
AcDbEntity
  8
中心線
100
AcDbLine
 10
2944.999991296733
 20
1769.999971346432
 30
0.0
 11
2875.000028516407
 21
1769.999971346432
 31
0.0
  0
CIRCLE
  5
12F43
330
1F
100
AcDbEntity
  8
実線
100
AcDbCircle
 10
2910.00000990657
 20
1769.999971346432
 30
0.0
 40
12.5
  0
LINE
  5
12F44
330
1F
100
AcDbEntity
  8
中心線
100
AcDbLine
 10
2810.00000990657
 20
1804.999952736591
 30
0.0
 11
2810.00000990657
 21
1734.999989956265
 31
0.0
  0
LINE
  5
12F45
330
1F
100
AcDbEntity
  8
中心線
100
AcDbLine
 10
2844.999991296733
 20
1769.999971346432
 30
0.0
 11
2775.000028516407
 21
1769.999971346432
 31
0.0
  0
CIRCLE
  5
12F46
330
1F
100
AcDbEntity
  8
実線
100
AcDbCircle
 10
2810.00000990657
 20
1769.999971346432
 30
0.0
 40
12.5
  0
LINE
  5
12F47
330
1F
100
AcDbEntity
  8
中心線
100
AcDbLine
 10
2910.000009906566
 20
1485.000052736589
 30
0.0
 11
2910.00000990657
 21
1555.000015516915
 31
0.0
  0
LINE
  5
12F48
330
1F
100
AcDbEntity
  8
中心線
100
AcDbLine
 10
2944.999991296729
 20
1520.000034126756
 30
0.0
 11
2875.000028516403
 21
1520.000034126756
 31
0.0
  0
CIRCLE
  5
12F49
330
1F
100
AcDbEntity
  8
実線
100
AcDbCircle
 10
2910.000009906566
 20
1520.000034126756
 30
0.0
 40
12.5
  0
LINE
  5
12F4A
330
1F
100
AcDbEntity
  8
中心線
100
AcDbLine
 10
2810.000009906566
 20
1485.000052736589
 30
0.0
 11
2810.00000990657
 21
1555.000015516915
 31
0.0
  0
LINE
  5
12F4B
330
1F
100
AcDbEntity
  8
中心線
100
AcDbLine
 10
2844.99999129673
 20
1520.000034126756
 30
0.0
 11
2775.000028516403
 21
1520.000034126756
 31
0.0
  0
CIRCLE
  5
12F4C
330
1F
100
AcDbEntity
  8
実線
100
AcDbCircle
 10
2810.000009906566
 20
1520.000034126756
 30
0.0
 40
12.5
  0
LINE
  5
12F4D
330
1F
100
AcDbEntity
  8
中心線
100
AcDbLine
 10
2660.00000990657
 20
1754.999952736591
 30
0.0
 11
2660.00000990657
 21
1684.999989956265
 31
0.0
  0
LINE
  5
12F4E
330
1F
100
AcDbEntity
  8
中心線
100
AcDbLine
 10
2694.999991296733
 20
1719.999971346432
 30
0.0
 11
2625.000028516407
 21
1719.999971346432
 31
0.0
  0
CIRCLE
  5
12F4F
330
1F
100
AcDbEntity
  8
実線
100
AcDbCircle
 10
2660.00000990657
 20
1719.999971346432
 30
0.0
 40
12.5
  0
LINE
  5
12F50
330
1F
100
AcDbEntity
  8
中心線
100
AcDbLine
 10
2660.00000990657
 20
1535.000052736589
 30
0.0
 11
2660.00000990657
 21
1605.000015516915
 31
0.0
  0
LINE
  5
12F51
330
1F
100
AcDbEntity
  8
中心線
100
AcDbLine
 10
2694.999991296733
 20
1570.000034126756
 30
0.0
 11
2625.000028516407
 21
1570.000034126756
 31
0.0
  0
CIRCLE
  5
12F52
330
1F
100
AcDbEntity
  8
実線
100
AcDbCircle
 10
2660.00000990657
 20
1570.000034126756
 30
0.0
 40
12.5
  0
LINE
  5
12F53
330
1F
100
AcDbEntity
  8
中心線
100
AcDbLine
 10
2710.00000990657
 20
1804.999952736591
 30
0.0
 11
2710.00000990657
 21
1734.999989956265
 31
0.0
  0
LINE
  5
12F54
330
1F
100
AcDbEntity
  8
中心線
100
AcDbLine
 10
2744.999991296733
 20
1769.999971346432
 30
0.0
 11
2675.000028516407
 21
1769.999971346432
 31
0.0
  0
CIRCLE
  5
12F55
330
1F
100
AcDbEntity
  8
実線
100
AcDbCircle
 10
2710.00000990657
 20
1769.999971346432
 30
0.0
 40
12.5
  0
LINE
  5
12F56
330
1F
100
AcDbEntity
  8
中心線
100
AcDbLine
 10
2710.000009906566
 20
1485.000052736589
 30
0.0
 11
2710.00000990657
 21
1555.000015516915
 31
0.0
  0
LINE
  5
12F57
330
1F
100
AcDbEntity
  8
中心線
100
AcDbLine
 10
2744.99999129673
 20
1520.000034126756
 30
0.0
 11
2675.000028516403
 21
1520.000034126756
 31
0.0
  0
CIRCLE
  5
12F58
330
1F
100
AcDbEntity
  8
実線
100
AcDbCircle
 10
2710.000009906566
 20
1520.000034126756
 30
0.0
 40
12.5
  0
LINE
  5
12F59
330
1F
100
AcDbEntity
  8
中心線
100
AcDbLine
 10
3020.000005408714
 20
1744.939052415063
 30
0.0
 11
2983.999985595605
 21
1744.939052415063
 31
0.0
  0
LINE
  5
12F5A
330
1F
100
AcDbEntity
  8
中心線
100
AcDbLine
 10
3020.000005408714
 20
1544.939052415063
 30
0.0
 11
2983.999985595605
 21
1544.939052415063
 31
0.0
  0
LINE
  5
12F5B
330
1F
100
AcDbEntity
  8
中心線
100
AcDbLine
 10
3020.000005408714
 20
1594.939052415063
 30
0.0
 11
2983.999985595605
 21
1594.939052415063
 31
0.0
  0
LINE
  5
12F5C
330
1F
100
AcDbEntity
  8
中心線
100
AcDbLine
 10
3020.000005408714
 20
1694.939127065144
 30
0.0
 11
2983.999985595605
 21
1694.939127065144
 31
0.0
  0
DIMENSION
  5
12F5D
330
1F
100
AcDbEntity
  8
寸法線
100
AcDbDimension
280
     0
  2
*D15
 10
2659.999990093437
 20
1805.499952736578
 30
0.0
 11
2659.999990093437
 21
1814.999952736577
 31
0.0
 70
   160
 71
     5
 42
19.0
 73
     0
 74
     0
 75
     0
  3
STANDARD
100
AcDbAlignedDimension
 13
2579.999990093439
 23
1824.499952736577
 33
0.0
 14
2579.999990093439
 24
1805.499952736577
 34
0.0
 50
270.0
100
AcDbRotatedDimension
1001
ACAD
1000
DSTYLE
1002
{
1070
   271
1070
     1
1002
}
  0
DIMENSION
  5
12F5E
330
1F
100
AcDbEntity
  8
寸法線
100
AcDbDimension
280
     0
  2
*D16
 10
2659.999990093437
 20
1444.999952939926
 30
0.0
 11
2659.999990093437
 21
1459.999986893953
 31
0.0
 70
   160
 71
     5
 42
30.0000679080556
 73
     0
 74
     0
 75
     0
  3
STANDARD
100
AcDbAlignedDimension
 13
2588.000013673037
 23
1475.000020847981
 33
0.0
 14
2460.00000990657
 24
1444.999952939926
 34
0.0
 50
270.0
100
AcDbRotatedDimension
1001
ACAD
1000
DSTYLE
1002
{
1070
   271
1070
     1
1002
}
  0
LINE
  5
12F61
330
1F
100
AcDbEntity
  8
実線
100
AcDbLine
 10
3810.00000990654
 20
2444.999981073831
 30
0.0
 11
3810.00000990654
 21
2044.999981073829
 31
0.0
  0
LINE
  5
12F62
330
1F
100
AcDbEntity
  8
中心線
100
AcDbLine
 10
3610.00000990654
 20
2460.999981073831
 30
0.0
 11
3610.00000990654
 21
2028.999981073825
 31
0.0
  0
LINE
  5
12F63
330
1F
100
AcDbEntity
  8
中心線
100
AcDbLine
 10
3385.000009906538
 20
2244.99998107383
 30
0.0
 11
3835.00000990654
 21
2244.99998107383
 31
0.0
  0
LINE
  5
12F64
330
1F
100
AcDbEntity
  8
実線
100
AcDbLine
 10
3410.00000990654
 20
2053.99996126072
 30
0.0
 11
3810.00000990654
 21
2053.99996126072
 31
0.0
  0
LINE
  5
12F65
330
1F
100
AcDbEntity
  8
実線
100
AcDbLine
 10
3410.00000990654
 20
2435.999961260721
 30
0.0
 11
3810.00000990654
 21
2435.999961260721
 31
0.0
  0
LINE
  5
12F66
330
1F
100
AcDbEntity
  8
中心線
100
AcDbLine
 10
3559.999991296703
 20
2134.999999683667
 30
0.0
 11
3559.999991296703
 21
2204.999962463989
 31
0.0
  0
CIRCLE
  5
12F67
330
1F
100
AcDbEntity
  8
実線
100
AcDbCircle
 10
3559.999991296703
 20
2169.999981073827
 30
0.0
 40
12.5
  0
LINE
  5
12F68
330
1F
100
AcDbEntity
  8
中心線
100
AcDbLine
 10
3594.999972686866
 20
2169.999981073827
 30
0.0
 11
3525.00000990654
 21
2169.999981073827
 31
0.0
  0
LINE
  5
12F69
330
1F
100
AcDbEntity
  8
中心線
100
AcDbLine
 10
3509.999991296703
 20
2109.999999683667
 30
0.0
 11
3509.999991296703
 21
2179.999962463993
 31
0.0
  0
CIRCLE
  5
12F6A
330
1F
100
AcDbEntity
  8
実線
100
AcDbCircle
 10
3509.999991296703
 20
2144.999981073826
 30
0.0
 40
12.5
  0
LINE
  5
12F6B
330
1F
100
AcDbEntity
  8
中心線
100
AcDbLine
 10
3544.999972686866
 20
2144.999981073826
 30
0.0
 11
3475.00000990654
 21
2144.999981073826
 31
0.0
  0
LINE
  5
12F6C
330
1F
100
AcDbEntity
  8
中心線
100
AcDbLine
 10
3559.999991296703
 20
2354.999962463992
 30
0.0
 11
3559.999991296703
 21
2284.999999683666
 31
0.0
  0
CIRCLE
  5
12F6D
330
1F
100
AcDbEntity
  8
実線
100
AcDbCircle
 10
3559.999991296703
 20
2319.999981073831
 30
0.0
 40
12.5
  0
LINE
  5
12F6E
330
1F
100
AcDbEntity
  8
中心線
100
AcDbLine
 10
3594.999972686866
 20
2319.999981073831
 30
0.0
 11
3525.00000990654
 21
2319.999981073831
 31
0.0
  0
LINE
  5
12F6F
330
1F
100
AcDbEntity
  8
中心線
100
AcDbLine
 10
3509.999991296703
 20
2379.999962463992
 30
0.0
 11
3509.999991296703
 21
2309.999999683666
 31
0.0
  0
CIRCLE
  5
12F70
330
1F
100
AcDbEntity
  8
実線
100
AcDbCircle
 10
3509.999991296703
 20
2344.999981073829
 30
0.0
 40
12.5
  0
LINE
  5
12F71
330
1F
100
AcDbEntity
  8
中心線
100
AcDbLine
 10
3544.999972686866
 20
2344.999981073829
 30
0.0
 11
3475.00000990654
 21
2344.999981073829
 31
0.0
  0
LINE
  5
12F72
330
1F
100
AcDbEntity
  8
中心線
100
AcDbLine
 10
3660.000028516377
 20
2134.999999683667
 30
0.0
 11
3660.000028516377
 21
2204.999962463989
 31
0.0
  0
CIRCLE
  5
12F73
330
1F
100
AcDbEntity
  8
実線
100
AcDbCircle
 10
3660.000028516377
 20
2169.999981073827
 30
0.0
 40
12.5
  0
LINE
  5
12F74
330
1F
100
AcDbEntity
  8
中心線
100
AcDbLine
 10
3625.000047126214
 20
2169.999981073827
 30
0.0
 11
3695.000009906538
 21
2169.999981073827
 31
0.0
  0
LINE
  5
12F75
330
1F
100
AcDbEntity
  8
中心線
100
AcDbLine
 10
3710.000028516378
 20
2109.999999683667
 30
0.0
 11
3710.000028516378
 21
2179.999962463993
 31
0.0
  0
CIRCLE
  5
12F76
330
1F
100
AcDbEntity
  8
実線
100
AcDbCircle
 10
3710.000028516378
 20
2144.999981073826
 30
0.0
 40
12.5
  0
LINE
  5
12F77
330
1F
100
AcDbEntity
  8
中心線
100
AcDbLine
 10
3675.000047126213
 20
2144.999981073826
 30
0.0
 11
3745.000009906538
 21
2144.999981073826
 31
0.0
  0
LINE
  5
12F78
330
1F
100
AcDbEntity
  8
中心線
100
AcDbLine
 10
3660.000028516377
 20
2354.999962463992
 30
0.0
 11
3660.000028516377
 21
2284.999999683666
 31
0.0
  0
CIRCLE
  5
12F79
330
1F
100
AcDbEntity
  8
実線
100
AcDbCircle
 10
3660.000028516377
 20
2319.999981073831
 30
0.0
 40
12.5
  0
LINE
  5
12F7A
330
1F
100
AcDbEntity
  8
中心線
100
AcDbLine
 10
3625.000047126214
 20
2319.999981073831
 30
0.0
 11
3695.000009906538
 21
2319.999981073831
 31
0.0
  0
LINE
  5
12F7B
330
1F
100
AcDbEntity
  8
中心線
100
AcDbLine
 10
3710.000028516378
 20
2379.999962463992
 30
0.0
 11
3710.000028516378
 21
2309.999999683666
 31
0.0
  0
CIRCLE
  5
12F7C
330
1F
100
AcDbEntity
  8
実線
100
AcDbCircle
 10
3710.000028516378
 20
2344.999981073829
 30
0.0
 40
12.5
  0
LINE
  5
12F7D
330
1F
100
AcDbEntity
  8
中心線
100
AcDbLine
 10
3675.000047126213
 20
2344.999981073829
 30
0.0
 11
3745.000009906538
 21
2344.999981073829
 31
0.0
  0
LINE
  5
12F7E
330
1F
100
AcDbEntity
  8
破線
100
AcDbLine
 10
3410.00000990654
 20
2065.99996126072
 30
0.0
 11
3581.499972686867
 21
2065.99996126072
 31
0.0
  0
LINE
  5
12F7F
330
1F
100
AcDbEntity
  8
破線
100
AcDbLine
 10
3810.00000990654
 20
2065.99996126072
 30
0.0
 11
3638.500047126216
 21
2065.99996126072
 31
0.0
  0
LINE
  5
12F80
330
1F
100
AcDbEntity
  8
破線
100
AcDbLine
 10
3410.00000990654
 20
2423.999961260721
 30
0.0
 11
3581.499972686867
 21
2423.999961260721
 31
0.0
  0
LINE
  5
12F81
330
1F
100
AcDbEntity
  8
破線
100
AcDbLine
 10
3810.00000990654
 20
2423.999961260721
 30
0.0
 11
3638.500047126216
 21
2423.999961260721
 31
0.0
  0
LINE
  5
12F82
330
1F
100
AcDbEntity
  8
破線
100
AcDbLine
 10
3603.500009906538
 20
2401.99998107383
 30
0.0
 11
3603.500009906538
 21
2087.999981073827
 31
0.0
  0
LINE
  5
12F83
330
1F
100
AcDbEntity
  8
破線
100
AcDbLine
 10
3616.50000990654
 20
2401.99998107383
 30
0.0
 11
3616.50000990654
 21
2087.999981073827
 31
0.0
  0
ARC
  5
12F84
330
1F
100
AcDbEntity
  8
破線
100
AcDbCircle
 10
3581.50000990654
 20
2087.999981073827
 30
0.0
 40
22.0
100
AcDbArc
 50
269.9999030668841
 51
0.0
  0
ARC
  5
12F85
330
1F
100
AcDbEntity
  8
破線
100
AcDbCircle
 10
3638.50000990654
 20
2087.999981073827
 30
0.0
 40
22.0
100
AcDbArc
 50
180.0
 51
270.0000969331159
  0
ARC
  5
12F86
330
1F
100
AcDbEntity
  8
破線
100
AcDbCircle
 10
3581.50000990654
 20
2401.999981073827
 30
0.0
 40
22.0
100
AcDbArc
 50
0.0
 51
90.00009693311588
  0
ARC
  5
12F87
330
1F
100
AcDbEntity
  8
破線
100
AcDbCircle
 10
3638.50000990654
 20
2401.999981073827
 30
0.0
 40
22.0
100
AcDbArc
 50
89.99990306688411
 51
180.0
  0
LINE
  5
12F88
330
1F
100
AcDbEntity
  8
破線
100
AcDbLine
 10
3413.499972686866
 20
2238.999981073829
 30
0.0
 11
3603.500009906538
 21
2238.999981073829
 31
0.0
  0
LINE
  5
12F89
330
1F
100
AcDbEntity
  8
破線
100
AcDbLine
 10
3413.499972686866
 20
2250.99998107383
 30
0.0
 11
3603.500009906538
 21
2250.99998107383
 31
0.0
  0
LINE
  5
12F8A
330
1F
100
AcDbEntity
  8
破線
100
AcDbLine
 10
3806.500047126212
 20
2238.999981073829
 30
0.0
 11
3616.50000990654
 21
2238.999981073829
 31
0.0
  0
LINE
  5
12F8B
330
1F
100
AcDbEntity
  8
破線
100
AcDbLine
 10
3806.500047126212
 20
2250.99998107383
 30
0.0
 11
3616.50000990654
 21
2250.99998107383
 31
0.0
  0
LINE
  5
12F8C
330
1F
100
AcDbEntity
  8
破線
 48
10.0
100
AcDbLine
 10
3806.500047126212
 20
2250.99998107383
 30
0.0
 11
3806.500047126212
 21
2238.999981073829
 31
0.0
  0
LINE
  5
12F8D
330
1F
100
AcDbEntity
  8
実線
100
AcDbLine
 10
3410.00000990654
 20
2444.999981073831
 30
0.0
 11
3810.00000990654
 21
2444.999981073831
 31
0.0
  0
LINE
  5
12F8E
330
1F
100
AcDbEntity
  8
実線
100
AcDbLine
 10
3410.00000990654
 20
2044.999981073829
 30
0.0
 11
3810.00000990654
 21
2044.999981073829
 31
0.0
  0
LINE
  5
12F8F
330
1F
100
AcDbEntity
  8
実線
100
AcDbLine
 10
3410.00000990654
 20
2444.999981073831
 30
0.0
 11
3410.00000990654
 21
2044.999981073829
 31
0.0
  0
LEADER
  5
12F90
330
1F
100
AcDbEntity
  8
寸法線
100
AcDbLeader
  3
STANDARD
 76
     3
 10
3517.532926144909
 20
2354.975194984955
 30
0.0
 10
3645.929735235846
 20
2524.999981073829
 30
0.0
 10
3838.50802599611
 20
2524.999981073829
 30
0.0
211
1.0
221
0.0000000000000002
231
0.0
1001
ACAD
1000
DSTYLE
1002
{
1070
   147
1040
0.875
1070
    77
1070
     0
1002
}
  0
TEXT
  5
12F91
330
1F
100
AcDbEntity
  8
寸法線
100
AcDbText
 10
3654.679735235845
 20
2533.74998107383
 30
0.0
 40
25.0
  1
主材連結用孔
 72
     2
 11
3828.013068569178
 21
2558.749981073831
 31
0.0
100
AcDbText
 73
     3
  0
LINE
  5
12F92
330
1F
100
AcDbEntity
  8
破線
 48
10.0
100
AcDbLine
 10
3413.499972686866
 20
2250.99998107383
 30
0.0
 11
3413.499972686866
 21
2238.999981073829
 31
0.0
  0
DIMENSION
  5
12F93
330
1F
100
AcDbEntity
  8
寸法線
100
AcDbDimension
280
     0
  2
*D17
 10
3410.000009906538
 20
1924.999961260719
 30
0.0
 11
3610.00000990654
 21
1924.999961260719
 31
0.0
 70
   160
 71
     5
 42
400.0
 73
     0
 74
     0
 75
     0
  3
STANDARD
100
AcDbAlignedDimension
 13
3810.000009906538
 23
2044.999961260719
 33
0.0
 14
3410.000009906538
 24
2044.999961260719
 34
0.0
100
AcDbRotatedDimension
  0
DIMENSION
  5
12F94
330
1F
100
AcDbEntity
  8
寸法線
100
AcDbDimension
280
     0
  2
*D18
 10
3290.000009906537
 20
2045.000000886937
 30
0.0
 11
3290.000009906537
 21
2244.999981073828
 31
0.0
 70
   160
 71
     5
 42
400.0000000000002
 73
     0
 74
     0
 75
     0
  3
STANDARD
100
AcDbAlignedDimension
 13
3410.000009906537
 23
2445.000000886937
 33
0.0
 14
3410.000009906537
 24
2045.000000886936
 34
0.0
 50
270.0
100
AcDbRotatedDimension
  0
TEXT
  5
12F95
330
1F
100
AcDbEntity
  8
寸法線
100
AcDbText
 10
2804.125320313181
 20
2137.429274690906
 30
0.0
 40
25.0
  1
ｴﾝﾄﾞﾌﾟﾚｰﾄ
 11
2804.125320313181
 21
2137.429274690906
 31
0.0
100
AcDbText
 73
     1
  0
LINE
  5
12F96
330
1F
100
AcDbEntity
  8
寸法線
100
AcDbLine
 10
2990.999999999984
 20
2131.499980500202
 30
0.0
 11
2796.835260725248
 21
2131.499980500202
 31
0.0
  0
INSERT
  5
12F97
330
1F
100
AcDbEntity
  8
寸法線
100
AcDbBlockReference
  2
_OPEN
 10
2990.999999999984
 20
2131.499980500202
 30
0.0
 41
20.0
 42
20.0
 43
20.0
  0
LINE
  5
12F98
330
1F
100
AcDbEntity
  8
実線
100
AcDbLine
 10
3010.00000990654
 20
2435.99998107383
 30
0.0
 11
3010.00000990654
 21
2053.99998107383
 31
0.0
  0
LINE
  5
12F99
330
1F
100
AcDbEntity
  8
実線
100
AcDbLine
 10
2991.00000990654
 20
2444.999943854149
 30
0.0
 11
2991.00000990654
 21
2044.999943854149
 31
0.0
  0
LINE
  5
12F9A
330
1F
100
AcDbEntity
  8
実線
100
AcDbLine
 10
2991.00000990654
 20
2444.999943854149
 30
0.0
 11
2459.999990093438
 21
2444.999943854149
 31
0.0
  0
LINE
  5
12F9B
330
1F
100
AcDbEntity
  8
実線
100
AcDbLine
 10
2991.00000990654
 20
2423.999943854149
 30
0.0
 11
2459.999990093438
 21
2423.999943854149
 31
0.0
  0
LINE
  5
12F9C
330
1F
100
AcDbEntity
  8
実線
100
AcDbLine
 10
2580.00000990654
 20
2423.999943854149
 30
0.0
 11
2580.00000990654
 21
2393.99998107383
 31
0.0
  0
LINE
  5
12F9D
330
1F
100
AcDbEntity
  8
実線
100
AcDbLine
 10
2499.999990093438
 20
2353.999943854149
 30
0.0
 11
2459.999990093438
 21
2353.999943854149
 31
0.0
  0
LINE
  5
12F9E
330
1F
100
AcDbEntity
  8
実線
100
AcDbLine
 10
2580.00000990654
 20
2393.99998107383
 30
0.0
 11
2499.999990093438
 21
2353.999943854149
 31
0.0
  0
LINE
  5
12F9F
330
1F
100
AcDbEntity
  8
実線
100
AcDbLine
 10
2471.99998613082
 20
2423.999943854149
 30
0.0
 11
2459.99998613082
 21
2411.999943854149
 31
0.0
  0
LINE
  5
12FA0
330
1F
100
AcDbEntity
  8
仮想線
100
AcDbLine
 10
2468.999990093438
 20
2423.999943854149
 30
0.0
 11
2459.999990093438
 21
2414.999943854149
 31
0.0
  0
LINE
  5
12FA1
330
1F
100
AcDbEntity
  8
実線
100
AcDbLine
 10
2580.00000990654
 20
2065.999943854149
 30
0.0
 11
2580.00000990654
 21
2095.999906634483
 31
0.0
  0
LINE
  5
12FA2
330
1F
100
AcDbEntity
  8
実線
100
AcDbLine
 10
2499.999990093438
 20
2135.999943854149
 30
0.0
 11
2459.999990093438
 21
2135.999943854149
 31
0.0
  0
LINE
  5
12FA3
330
1F
100
AcDbEntity
  8
実線
100
AcDbLine
 10
2580.00000990654
 20
2095.999906634483
 30
0.0
 11
2499.999990093438
 21
2135.999943854149
 31
0.0
  0
LINE
  5
12FA4
330
1F
100
AcDbEntity
  8
実線
100
AcDbLine
 10
2471.99998613082
 20
2065.999943854149
 30
0.0
 11
2459.99998613082
 21
2077.999943854149
 31
0.0
  0
LINE
  5
12FA5
330
1F
100
AcDbEntity
  8
仮想線
100
AcDbLine
 10
2468.999990093438
 20
2065.999943854149
 30
0.0
 11
2459.999990093438
 21
2074.999943854149
 31
0.0
  0
LINE
  5
12FA6
330
1F
100
AcDbEntity
  8
実線
100
AcDbLine
 10
3010.00000990654
 20
2435.99998107383
 30
0.0
 11
2991.00000990654
 21
2435.99998107383
 31
0.0
  0
LINE
  5
12FA7
330
1F
100
AcDbEntity
  8
実線
100
AcDbLine
 10
3010.00000990654
 20
2054.000006634473
 30
0.0
 11
2991.00000990654
 21
2054.000006634473
 31
0.0
  0
LINE
  5
12FA8
330
1F
100
AcDbEntity
  8
仮想線
100
AcDbLine
 10
2991.00000990654
 20
2444.999943854149
 30
0.0
 11
2999.999972686874
 21
2435.99998107383
 31
0.0
  0
LINE
  5
12FA9
330
1F
100
AcDbEntity
  8
仮想線
100
AcDbLine
 10
2991.00000990654
 20
2044.999943854149
 30
0.0
 11
3000.000072686864
 21
2054.000006634473
 31
0.0
  0
LINE
  5
12FAA
330
1F
100
AcDbEntity
  8
実線
100
AcDbLine
 10
2991.00000990654
 20
2250.999943854149
 30
0.0
 11
2790.999990093438
 21
2250.999943854149
 31
0.0
  0
LINE
  5
12FAB
330
1F
100
AcDbEntity
  8
実線
100
AcDbLine
 10
2991.00000990654
 20
2238.999943854149
 30
0.0
 11
2790.999990093438
 21
2238.999943854149
 31
0.0
  0
LINE
  5
12FAC
330
1F
100
AcDbEntity
  8
実線
100
AcDbLine
 10
2790.999990093438
 20
2250.999943854149
 30
0.0
 11
2790.999990093438
 21
2238.999943854149
 31
0.0
  0
LINE
  5
12FAD
330
1F
100
AcDbEntity
  8
仮想線
100
AcDbLine
 10
2460.000007925238
 20
2453.999977351858
 30
0.0
 11
2469.000041422947
 21
2444.999943854149
 31
0.0
  0
LINE
  5
12FAE
330
1F
100
AcDbEntity
  8
仮想線
100
AcDbLine
 10
2460.000007925238
 20
2035.999977351858
 30
0.0
 11
2468.99997442753
 21
2044.999943854149
 31
0.0
  0
LINE
  5
12FAF
330
1F
100
AcDbEntity
  8
実線
100
AcDbLine
 10
2991.00000990654
 20
2044.999943854149
 30
0.0
 11
2459.99992682708
 21
2045.000208092715
 31
0.0
  0
LINE
  5
12FB0
330
1F
100
AcDbEntity
  8
実線
100
AcDbLine
 10
2991.00000990654
 20
2066.000040120409
 30
0.0
 11
2459.999933470058
 21
2066.000208092715
 31
0.0
  0
LINE
  5
12FB1
330
1F
100
AcDbEntity
  8
実線
100
AcDbLine
 10
2460.000009906569
 20
2454.999981073815
 30
0.0
 11
2460.000009906569
 21
2034.999981073815
 31
0.0
  0
LINE
  5
12FB2
330
1F
100
AcDbEntity
  8
中心線
100
AcDbLine
 10
2960.00000990654
 20
2454.9999810706
 30
0.0
 11
2960.00000990654
 21
2413.999981070599
 31
0.0
  0
LINE
  5
12FB3
330
1F
100
AcDbEntity
  8
中心線
100
AcDbLine
 10
2960.00000990654
 20
2034.999981077075
 30
0.0
 11
2960.00000990654
 21
2075.999981077075
 31
0.0
  0
LINE
  5
12FB4
330
1F
100
AcDbEntity
  8
中心線
100
AcDbLine
 10
3020.000005408688
 20
2344.999943748793
 30
0.0
 11
2983.999985595583
 21
2344.999943748793
 31
0.0
  0
LINE
  5
12FB5
330
1F
100
AcDbEntity
  8
中心線
100
AcDbLine
 10
3020.000005408688
 20
2144.999943748793
 30
0.0
 11
2983.999985595583
 21
2144.999943748793
 31
0.0
  0
LINE
  5
12FB6
330
1F
100
AcDbEntity
  8
中心線
100
AcDbLine
 10
3020.000005408688
 20
2169.999943748793
 30
0.0
 11
2983.999985595583
 21
2169.999943748793
 31
0.0
  0
LINE
  5
12FB7
330
1F
100
AcDbEntity
  8
中心線
100
AcDbLine
 10
3020.000005408688
 20
2320.000018398867
 30
0.0
 11
2983.999985595583
 21
2320.000018398867
 31
0.0
  0
LINE
  5
12FB8
330
1F
100
AcDbEntity
  8
中心線
100
AcDbLine
 10
2910.00000990654
 20
2454.9999810706
 30
0.0
 11
2910.00000990654
 21
2413.999981070599
 31
0.0
  0
LINE
  5
12FB9
330
1F
100
AcDbEntity
  8
中心線
100
AcDbLine
 10
2910.00000990654
 20
2034.999981077075
 30
0.0
 11
2910.00000990654
 21
2075.999981077075
 31
0.0
  0
LINE
  5
12FBA
330
1F
100
AcDbEntity
  8
中心線
100
AcDbLine
 10
2860.00000990654
 20
2454.9999810706
 30
0.0
 11
2860.00000990654
 21
2413.999981070599
 31
0.0
  0
LINE
  5
12FBB
330
1F
100
AcDbEntity
  8
中心線
100
AcDbLine
 10
2860.00000990654
 20
2034.999981077075
 30
0.0
 11
2860.00000990654
 21
2075.999981077075
 31
0.0
  0
LINE
  5
12FBC
330
1F
100
AcDbEntity
  8
中心線
100
AcDbLine
 10
2810.00000990654
 20
2454.9999810706
 30
0.0
 11
2810.00000990654
 21
2413.999981070599
 31
0.0
  0
LINE
  5
12FBD
330
1F
100
AcDbEntity
  8
中心線
100
AcDbLine
 10
2810.00000990654
 20
2034.999981077075
 30
0.0
 11
2810.00000990654
 21
2075.999981077075
 31
0.0
  0
LINE
  5
12FBE
330
1F
100
AcDbEntity
  8
中心線
100
AcDbLine
 10
2760.00000990654
 20
2454.9999810706
 30
0.0
 11
2760.00000990654
 21
2413.999981070599
 31
0.0
  0
LINE
  5
12FBF
330
1F
100
AcDbEntity
  8
中心線
100
AcDbLine
 10
2760.00000990654
 20
2034.999981077075
 30
0.0
 11
2760.00000990654
 21
2075.999981077075
 31
0.0
  0
LINE
  5
12FC0
330
1F
100
AcDbEntity
  8
中心線
100
AcDbLine
 10
2710.00000990654
 20
2454.9999810706
 30
0.0
 11
2710.00000990654
 21
2413.999981070599
 31
0.0
  0
LINE
  5
12FC1
330
1F
100
AcDbEntity
  8
中心線
100
AcDbLine
 10
2710.00000990654
 20
2034.999981077075
 30
0.0
 11
2710.00000990654
 21
2075.999981077075
 31
0.0
  0
LINE
  5
12FC2
330
1F
100
AcDbEntity
  8
中心線
100
AcDbLine
 10
2660.00000990654
 20
2454.9999810706
 30
0.0
 11
2660.00000990654
 21
2413.999981070599
 31
0.0
  0
LINE
  5
12FC3
330
1F
100
AcDbEntity
  8
中心線
100
AcDbLine
 10
2660.00000990654
 20
2034.999981077075
 30
0.0
 11
2660.00000990654
 21
2075.999981077075
 31
0.0
  0
DIMENSION
  5
12FC4
330
1F
100
AcDbEntity
  8
寸法線
100
AcDbDimension
280
     0
  2
*D19
 10
2691.000004528428
 20
2238.999977720582
 30
0.0
 11
2691.000004528428
 21
2244.999977720581
 31
0.0
 70
   160
 71
     5
 42
12.0
 73
     0
 74
     0
 75
     0
  3
STANDARD
100
AcDbAlignedDimension
 13
2790.999990093438
 23
2250.999977720582
 33
0.0
 14
2790.999990093438
 24
2238.999977720581
 34
0.0
 50
90.0
100
AcDbRotatedDimension
1001
ACAD
1000
DSTYLE
1002
{
1070
   140
1040
2.5
1002
}
  0
TEXT
  5
12FC5
330
1F
100
AcDbEntity
  8
寸法線
100
AcDbText
 10
2719.029116135831
 20
2328.749977720582
 30
0.0
 40
25.0
  1
ﾘﾌﾞﾌﾟﾚｰﾄ②
 72
     2
 11
2862.362449469165
 21
2328.749977720582
 31
0.0
100
AcDbText
 73
     1
  0
LEADER
  5
12FC6
330
1F
100
AcDbEntity
  8
寸法線
100
AcDbLeader
  3
STANDARD
 76
     3
 10
2897.253732021378
 20
2250.999943854142
 30
0.0
 10
2865.166376738725
 20
2319.999977720581
 30
0.0
 10
2713.025288746637
 20
2319.999977720581
 30
0.0
1001
ACAD
1000
DSTYLE
1002
{
1070
   147
1040
0.875
1070
    77
1070
     0
1002
}
  0
TEXT
  5
12FC7
330
1F
100
AcDbEntity
  8
寸法線
100
AcDbText
 10
2554.018097349623
 20
2144.26716349439
 30
0.0
 40
25.0
  1
ﾘﾌﾞﾌﾟﾚｰﾄ①
 72
     2
 11
2697.351430682956
 21
2144.26716349439
 31
0.0
100
AcDbText
 73
     1
  0
LEADER
  5
12FC8
330
1F
100
AcDbEntity
  8
寸法線
100
AcDbLeader
  3
STANDARD
 76
     3
 10
2516.294248382016
 20
2103.443853324755
 30
0.0
 10
2551.294248382016
 20
2138.443853324755
 30
0.0
 10
2704.384792916734
 20
2138.443853324755
 30
0.0
211
-1.0
221
0.0
231
0.0
1001
ACAD
1000
DSTYLE
1002
{
1070
   147
1040
0.875
1070
    77
1070
     0
1002
}
  0
DIMENSION
  5
13065
330
1F
100
AcDbEntity
  8
寸法線
100
AcDbDimension
280
     0
  2
*D10
 10
2460.000009906569
 20
2684.999981073817
 30
0.0
 11
2735.000009906569
 21
2684.999981073817
 31
0.0
 70
   160
  1
<>\XH型鋼（連結部）
 71
     5
 42
550.0
 73
     0
 74
     0
 75
     0
  3
STANDARD
100
AcDbAlignedDimension
 13
3010.000009906569
 23
2436.00001829349
 33
0.0
 14
2460.000009906569
 24
2455.000018293489
 34
0.0
 50
180.0
100
AcDbRotatedDimension
  0
DIMENSION
  5
14283
330
1F
100
AcDbEntity
  8
寸法線
100
AcDbDimension
280
     0
  2
*D22
 10
1108.000061699078
 20
499.9999810841136
 30
0.0
 11
1092.000061699078
 21
499.9999810841136
 31
0.0
 70
   160
 71
     5
 42
32.0
 73
     0
 74
     0
 75
     0
  3
STANDARD
100
AcDbAlignedDimension
 13
1076.000061699078
 23
589.9999993287792
 33
0.0
 14
1108.000061699078
 24
599.9999993287793
 34
0.0
100
AcDbRotatedDimension
  0
DIMENSION
  5
14284
330
1F
100
AcDbEntity
  8
寸法線
100
AcDbDimension
280
     0
  2
*D23
 10
2412.000061699078
 20
499.9999810841136
 30
0.0
 11
1760.000061699078
 21
521.2499810841136
 31
0.0
 70
    32
 71
     5
 42
1304.0
 73
     0
 74
     0
 75
     0
  3
STANDARD
100
AcDbAlignedDimension
 13
1108.000061699078
 23
599.9999993287793
 33
0.0
 14
2412.000061699078
 24
599.9999993287793
 34
0.0
100
AcDbRotatedDimension
  0
DIMENSION
  5
14285
330
1F
100
AcDbEntity
  8
寸法線
100
AcDbDimension
280
     0
  2
*D24
 10
2444.000061699078
 20
499.9999810841136
 30
0.0
 11
2428.000113491585
 21
499.9999810841136
 31
0.0
 70
   160
 71
     5
 42
31.99989641498542
 73
     0
 74
     0
 75
     0
  3
STANDARD
100
AcDbAlignedDimension
 13
2412.000165284093
 23
599.9999993287793
 33
0.0
 14
2444.000061699078
 24
589.9999993287792
 34
0.0
100
AcDbRotatedDimension
  0
DIMENSION
  5
14286
330
1F
100
AcDbEntity
  8
寸法線
100
AcDbDimension
280
     0
  2
*D25
 10
1076.000061699078
 20
439.9999810841136
 30
0.0
 11
1068.000061699078
 21
439.9999810841136
 31
0.0
 70
   160
 71
     5
 42
16.0
 73
     0
 74
     0
 75
     0
  3
STANDARD
100
AcDbAlignedDimension
 13
1060.000061699078
 23
589.9999993287792
 33
0.0
 14
1076.000061699078
 24
589.9999993287792
 34
0.0
100
AcDbRotatedDimension
  0
DIMENSION
  5
14287
330
1F
100
AcDbEntity
  8
寸法線
100
AcDbDimension
280
     0
  2
*D26
 10
2444.000061699078
 20
439.9999810841136
 30
0.0
 11
1760.000061699078
 21
461.2499810841136
 31
0.0
 70
    32
 71
     5
 42
1368.0
 73
     0
 74
     0
 75
     0
  3
STANDARD
100
AcDbAlignedDimension
 13
1076.000061699078
 23
589.9999993287792
 33
0.0
 14
2444.000061699078
 24
589.9999902064455
 34
0.0
100
AcDbRotatedDimension
  0
DIMENSION
  5
14288
330
1F
100
AcDbEntity
  8
寸法線
100
AcDbDimension
280
     0
  2
*D27
 10
2460.000061699078
 20
439.9999810841136
 30
0.0
 11
2452.000061699078
 21
439.9999810841136
 31
0.0
 70
   160
 71
     5
 42
16.0
 73
     0
 74
     0
 75
     0
  3
STANDARD
100
AcDbAlignedDimension
 13
2444.000061699078
 23
589.9999993287792
 33
0.0
 14
2460.000061699078
 24
589.9999993287792
 34
0.0
100
AcDbRotatedDimension
  0
DIMENSION
  5
14289
330
1F
100
AcDbEntity
  8
寸法線
100
AcDbDimension
280
     0
  2
*D28
 10
2460.000061699078
 20
379.9999810841137
 30
0.0
 11
1760.000061699078
 21
401.2499810841136
 31
0.0
 70
    32
 71
     5
 42
1400.0
 73
     0
 74
     0
 75
     0
  3
STANDARD
100
AcDbAlignedDimension
 13
1060.000061699078
 23
590.0000175733885
 33
0.0
 14
2460.000061699078
 24
589.9999902064455
 34
0.0
100
AcDbRotatedDimension
  0
LINE
  5
1428A
330
1F
100
AcDbEntity
  8
破線
100
AcDbLine
 10
476.5000616990778
 20
807.9999993287795
 30
0.0
 11
843.5000616990778
 21
807.9999993287795
 31
0.0
  0
LINE
  5
1428B
330
1F
100
AcDbEntity
  8
中心線
100
AcDbLine
 10
425.0000854834848
 20
799.9999993287795
 30
0.0
 11
895.0000854834847
 21
799.9999993287795
 31
0.0
  0
LINE
  5
1428C
330
1F
100
AcDbEntity
  8
実線
100
AcDbLine
 10
450.0000616990778
 20
1010.000017573389
 30
0.0
 11
870.0000616990777
 21
1010.000017573389
 31
0.0
  0
LINE
  5
1428D
330
1F
100
AcDbEntity
  8
実線
100
AcDbLine
 10
450.0000616990778
 20
590.0000175733888
 30
0.0
 11
450.0000616990778
 21
1010.000017573389
 31
0.0
  0
LINE
  5
1428E
330
1F
100
AcDbEntity
  8
破線
100
AcDbLine
 10
476.5000616990778
 20
791.9999993287796
 30
0.0
 11
476.5000616990778
 21
807.9999993287795
 31
0.0
  0
CIRCLE
  5
1428F
330
1F
100
AcDbEntity
  8
破線
100
AcDbCircle
 10
489.9999543064382
 20
969.9999993287796
 30
0.0
 40
30.0
  0
LINE
  5
14290
330
1F
100
AcDbEntity
  8
破線
100
AcDbLine
 10
459.9999543064382
 20
943.0000175733889
 30
0.0
 11
475.9999543064382
 21
943.0000175733889
 31
0.0
  0
LINE
  5
14291
330
1F
100
AcDbEntity
  8
破線
100
AcDbLine
 10
652.0000616990778
 20
983.4999993287796
 30
0.0
 11
652.0000616990778
 21
808.0000175733887
 31
0.0
  0
LINE
  5
14292
330
1F
100
AcDbEntity
  8
破線
100
AcDbLine
 10
668.0000616990778
 20
983.4999993287796
 30
0.0
 11
668.0000616990778
 21
808.0000175733887
 31
0.0
  0
LINE
  5
14293
330
1F
100
AcDbEntity
  8
破線
100
AcDbLine
 10
843.5000616990778
 20
807.9999993287795
 30
0.0
 11
843.5000616990778
 21
791.9999993287796
 31
0.0
  0
LINE
  5
14294
330
1F
100
AcDbEntity
  8
破線
100
AcDbLine
 10
652.0000616990778
 20
983.4999993287796
 30
0.0
 11
668.0000616990778
 21
983.4999993287796
 31
0.0
  0
DIMENSION
  5
14295
330
1F
100
AcDbEntity
  8
寸法線
100
AcDbDimension
280
     0
  2
*D29
 10
870.0000616990777
 20
499.999981084114
 30
0.0
 11
660.0000616990777
 21
499.999981084114
 31
0.0
 70
   160
 71
     5
 42
420.0
 73
     0
 74
     0
 75
     0
  3
STANDARD
100
AcDbAlignedDimension
 13
450.0000616990778
 23
589.9999810841121
 33
0.0
 14
870.0000616990777
 24
590.0000175733888
 34
0.0
100
AcDbRotatedDimension
  0
LINE
  5
14296
330
1F
100
AcDbEntity
  8
実線
100
AcDbLine
 10
870.0000616990777
 20
590.0000175733888
 30
0.0
 11
870.0000616990777
 21
1010.000017573389
 31
0.0
  0
CIRCLE
  5
14297
330
1F
100
AcDbEntity
  8
破線
100
AcDbCircle
 10
829.9999543064382
 20
969.9999993287796
 30
0.0
 40
30.0
  0
LINE
  5
14298
330
1F
100
AcDbEntity
  8
中心線
100
AcDbLine
 10
775.0000854834848
 20
969.9999993287796
 30
0.0
 11
885.0000854834847
 21
969.9999993287796
 31
0.0
  0
LINE
  5
14299
330
1F
100
AcDbEntity
  8
破線
100
AcDbLine
 10
459.9999543064382
 20
657.0000175733888
 30
0.0
 11
459.9999543064382
 21
943.0000175733889
 31
0.0
  0
LINE
  5
1429A
330
1F
100
AcDbEntity
  8
破線
100
AcDbLine
 10
517.0000616990778
 20
615.9999993287796
 30
0.0
 11
803.0000616990777
 21
615.9999993287796
 31
0.0
  0
LINE
  5
1429B
330
1F
100
AcDbEntity
  8
破線
100
AcDbLine
 10
476.5000616990778
 20
791.9999993287796
 30
0.0
 11
843.5000616990778
 21
791.9999993287796
 31
0.0
  0
LINE
  5
1429C
330
1F
100
AcDbEntity
  8
実線
100
AcDbLine
 10
450.0000616990778
 20
589.9999810841121
 30
0.0
 11
870.0000616990777
 21
589.9999810841121
 31
0.0
  0
CIRCLE
  5
1429D
330
1F
100
AcDbEntity
  8
破線
100
AcDbCircle
 10
489.9999543064382
 20
629.9999993287796
 30
0.0
 40
30.0
  0
LINE
  5
1429E
330
1F
100
AcDbEntity
  8
破線
100
AcDbLine
 10
459.9999543064382
 20
657.0000175733888
 30
0.0
 11
475.9999543064382
 21
657.0000175733888
 31
0.0
  0
LINE
  5
1429F
330
1F
100
AcDbEntity
  8
破線
100
AcDbLine
 10
517.0000616990778
 20
599.9999993287795
 30
0.0
 11
517.0000616990778
 21
615.9999993287796
 31
0.0
  0
LINE
  5
142A0
330
1F
100
AcDbEntity
  8
破線
100
AcDbLine
 10
652.0000616990778
 20
616.4999993287795
 30
0.0
 11
652.0000616990778
 21
791.9999810841122
 31
0.0
  0
LINE
  5
142A1
330
1F
100
AcDbEntity
  8
破線
100
AcDbLine
 10
668.0000616990778
 20
616.4999993287795
 30
0.0
 11
668.0000616990778
 21
791.9999810841122
 31
0.0
  0
LINE
  5
142A2
330
1F
100
AcDbEntity
  8
破線
100
AcDbLine
 10
652.0000616990778
 20
616.4999993287795
 30
0.0
 11
668.0000616990778
 21
616.4999993287795
 31
0.0
  0
LINE
  5
142A3
330
1F
100
AcDbEntity
  8
破線
100
AcDbLine
 10
803.0000616990777
 20
599.9999993287795
 30
0.0
 11
803.0000616990777
 21
615.9999993287796
 31
0.0
  0
CIRCLE
  5
142A4
330
1F
100
AcDbEntity
  8
破線
100
AcDbCircle
 10
829.9999543064382
 20
629.9999993287796
 30
0.0
 40
30.0
  0
LINE
  5
142A5
330
1F
100
AcDbEntity
  8
破線
100
AcDbLine
 10
517.0000616990778
 20
599.9999993287795
 30
0.0
 11
803.0000616990777
 21
599.9999993287795
 31
0.0
  0
LINE
  5
142A6
330
1F
100
AcDbEntity
  8
破線
100
AcDbLine
 10
517.0000616990778
 20
999.9999993287795
 30
0.0
 11
803.0000616990777
 21
999.9999993287795
 31
0.0
  0
LINE
  5
142A7
330
1F
100
AcDbEntity
  8
破線
100
AcDbLine
 10
517.0000616990778
 20
983.9999993287795
 30
0.0
 11
517.0000616990778
 21
999.9999993287795
 31
0.0
  0
LINE
  5
142A8
330
1F
100
AcDbEntity
  8
破線
100
AcDbLine
 10
803.0000616990777
 20
983.9999993287795
 30
0.0
 11
803.0000616990777
 21
999.9999993287795
 31
0.0
  0
LINE
  5
142A9
330
1F
100
AcDbEntity
  8
破線
100
AcDbLine
 10
517.0000616990778
 20
983.9999993287795
 30
0.0
 11
803.0000616990777
 21
983.9999993287795
 31
0.0
  0
LINE
  5
142AA
330
1F
100
AcDbEntity
  8
破線
100
AcDbLine
 10
475.9999543064382
 20
657.0000175733888
 30
0.0
 11
475.9999543064382
 21
943.0000175733889
 31
0.0
  0
LINE
  5
142AB
330
1F
100
AcDbEntity
  8
破線
100
AcDbLine
 10
843.9999543064383
 20
943.0000175733889
 30
0.0
 11
859.9999543064383
 21
943.0000175733889
 31
0.0
  0
LINE
  5
142AC
330
1F
100
AcDbEntity
  8
破線
100
AcDbLine
 10
843.9999543064383
 20
657.0000175733888
 30
0.0
 11
843.9999543064383
 21
943.0000175733889
 31
0.0
  0
LINE
  5
142AD
330
1F
100
AcDbEntity
  8
破線
100
AcDbLine
 10
843.9999543064383
 20
657.0000175733888
 30
0.0
 11
859.9999543064383
 21
657.0000175733888
 31
0.0
  0
LINE
  5
142AE
330
1F
100
AcDbEntity
  8
破線
100
AcDbLine
 10
859.9999543064383
 20
657.0000175733888
 30
0.0
 11
859.9999543064383
 21
943.0000175733889
 31
0.0
  0
LINE
  5
142AF
330
1F
100
AcDbEntity
  8
中心線
100
AcDbLine
 10
660.0000854834847
 20
564.9999993287796
 30
0.0
 11
660.0000854834847
 21
1034.999999328779
 31
0.0
  0
LINE
  5
142B0
330
1F
100
AcDbEntity
  8
中心線
100
AcDbLine
 10
830.0000854834847
 20
914.9999993287796
 30
0.0
 11
830.0000854834847
 21
1024.999999328779
 31
0.0
  0
LINE
  5
142B1
330
1F
100
AcDbEntity
  8
中心線
100
AcDbLine
 10
775.0000854834848
 20
629.9999993287796
 30
0.0
 11
885.0000854834847
 21
629.9999993287796
 31
0.0
  0
LINE
  5
142B2
330
1F
100
AcDbEntity
  8
中心線
100
AcDbLine
 10
830.0000854834847
 20
574.9999993287795
 30
0.0
 11
830.0000854834847
 21
684.9999993287796
 31
0.0
  0
LINE
  5
142B3
330
1F
100
AcDbEntity
  8
中心線
100
AcDbLine
 10
435.0000854834847
 20
969.9999993287796
 30
0.0
 11
545.0000854834847
 21
969.9999993287796
 31
0.0
  0
LINE
  5
142B4
330
1F
100
AcDbEntity
  8
中心線
100
AcDbLine
 10
490.0000854834847
 20
914.9999993287796
 30
0.0
 11
490.0000854834847
 21
1024.999999328779
 31
0.0
  0
LINE
  5
142B5
330
1F
100
AcDbEntity
  8
中心線
100
AcDbLine
 10
435.0000854834847
 20
629.9999993287796
 30
0.0
 11
545.0000854834847
 21
629.9999993287796
 31
0.0
  0
LINE
  5
142B6
330
1F
100
AcDbEntity
  8
中心線
100
AcDbLine
 10
490.0000854834847
 20
574.9999993287795
 30
0.0
 11
490.0000854834847
 21
684.9999993287796
 31
0.0
  0
DIMENSION
  5
142B7
330
1F
100
AcDbEntity
  8
寸法線
100
AcDbDimension
280
     0
  2
*D30
 10
360.0001092678915
 20
1010.000017573389
 30
0.0
 11
360.0001092678917
 21
800.0000175733887
 31
0.0
 70
   160
 71
     5
 42
420.0000000000001
 73
     0
 74
     0
 75
     0
  3
STANDARD
100
AcDbAlignedDimension
 13
450.0001092678917
 23
590.0000175733888
 33
0.0
 14
450.0001092678917
 24
1010.000017573389
 34
0.0
 50
90.0
100
AcDbRotatedDimension
  0
TEXT
  5
142B8
330
1F
100
AcDbEntity
  8
寸法線
100
AcDbText
 10
2790.000061699078
 20
1083.750468184634
 30
0.0
 40
25.0
  1
断面Ａ－Ａ
 72
     1
 11
2860.000061699078
 21
1083.750468184634
 31
0.0
100
AcDbText
 73
     1
  0
DIMENSION
  5
142B9
330
1F
100
AcDbEntity
  8
寸法線
100
AcDbDimension
280
     0
  2
*D31
 10
3030.000285483494
 20
499.9999628394903
 30
0.0
 11
2860.000286404922
 21
499.9999628394903
 31
0.0
 70
   160
 71
     5
 42
340.0
 73
     0
 74
     0
 75
     0
  3
STANDARD
100
AcDbAlignedDimension
 13
2690.000285483495
 23
575.0002337566847
 33
0.0
 14
3030.000285483494
 24
575.0002337566847
 34
0.0
100
AcDbRotatedDimension
  0
LINE
  5
142BA
330
1F
100
AcDbEntity
  8
実線
100
AcDbLine
 10
2650.000061699078
 20
1009.999999328765
 30
0.0
 11
3070.000061699078
 21
1009.999999328765
 31
0.0
  0
LINE
  5
142BB
330
1F
100
AcDbEntity
  8
中心線
100
AcDbLine
 10
2625.000085483485
 20
800.0002337566847
 30
0.0
 11
3095.000085483485
 21
800.0002337566847
 31
0.0
  0
LINE
  5
142BC
330
1F
100
AcDbEntity
  8
実線
100
AcDbLine
 10
2676.500061699078
 20
807.9999993287646
 30
0.0
 11
3043.500061699078
 21
807.9999993287646
 31
0.0
  0
LINE
  5
142BD
330
1F
100
AcDbEntity
  8
実線
100
AcDbLine
 10
2650.000061699078
 20
589.9999993287647
 30
0.0
 11
2650.000061699078
 21
1009.999999328765
 31
0.0
  0
LINE
  5
142BF
330
1F
100
AcDbEntity
  8
実線
100
AcDbLine
 10
2676.500061699078
 20
791.9999993287647
 30
0.0
 11
2676.500061699078
 21
807.9999993287646
 31
0.0
  0
LINE
  5
142C0
330
1F
100
AcDbEntity
  8
実線
100
AcDbLine
 10
2660.000286404922
 20
942.9999993287648
 30
0.0
 11
2676.000286404922
 21
942.9999993287648
 31
0.0
  0
LINE
  5
142C1
330
1F
100
AcDbEntity
  8
実線
100
AcDbLine
 10
2717.000061699078
 20
1000.000233756685
 30
0.0
 11
2717.000061699078
 21
984.0002337566847
 31
0.0
  0
LINE
  5
142C2
330
1F
100
AcDbEntity
  8
実線
100
AcDbLine
 10
2868.000061699078
 20
983.5002337566848
 30
0.0
 11
2868.000061699078
 21
808.0002337566847
 31
0.0
  0
LINE
  5
142C3
330
1F
100
AcDbEntity
  8
実線
100
AcDbLine
 10
2852.000061699078
 20
983.5002337566848
 30
0.0
 11
2852.000061699078
 21
808.0002337566847
 31
0.0
  0
DIMENSION
  5
142C4
330
1F
100
AcDbEntity
  8
寸法線
100
AcDbDimension
280
     0
  2
*D32
 10
3160.00006169908
 20
1009.999999328765
 30
0.0
 11
3160.000061699078
 21
990.0001165427241
 31
0.0
 70
   160
 71
     5
 42
39.99976557207992
 73
     0
 74
     0
 75
     0
  3
STANDARD
100
AcDbAlignedDimension
 13
3085.000285483495
 23
970.0002337566848
 33
0.0
 14
3070.000061699078
 24
1009.999999328765
 34
0.0
 50
90.0
100
AcDbRotatedDimension
  0
LINE
  5
142C5
330
1F
100
AcDbEntity
  8
実線
100
AcDbLine
 10
3070.000061699078
 20
589.9999993287647
 30
0.0
 11
3070.000061699078
 21
1009.999999328765
 31
0.0
  0
DIMENSION
  5
142C6
330
1F
100
AcDbEntity
  8
寸法線
100
AcDbDimension
280
     0
  2
*D33
 10
3160.000061699079
 20
970.0002337566852
 30
0.0
 11
3160.000061699078
 21
800.0002337566847
 31
0.0
 70
   160
 71
     5
 42
340.0000000000001
 73
     0
 74
     0
 75
     0
  3
STANDARD
100
AcDbAlignedDimension
 13
3085.000285483495
 23
630.0002337566848
 33
0.0
 14
3085.000285483495
 24
970.0002337566848
 34
0.0
 50
90.0
100
AcDbRotatedDimension
  0
DIMENSION
  5
142C7
330
1F
100
AcDbEntity
  8
寸法線
100
AcDbDimension
280
     0
  2
*D34
 10
3160.000061699079
 20
630.000233756685
 30
0.0
 11
3160.000061699078
 21
610.0003509706586
 31
0.0
 70
   160
 71
     5
 42
39.99976557205082
 73
     0
 74
     0
 75
     0
  3
STANDARD
100
AcDbAlignedDimension
 13
3070.000061699078
 23
590.0004681846339
 33
0.0
 14
3085.000285483495
 24
630.0002337566848
 34
0.0
 50
90.0
100
AcDbRotatedDimension
  0
DIMENSION
  5
142C8
330
1F
100
AcDbEntity
  8
寸法線
100
AcDbDimension
280
     0
  2
*D35
 10
3070.000061699078
 20
499.9999628394903
 30
0.0
 11
3050.000173591286
 21
499.9999628394903
 31
0.0
 70
   160
 71
     5
 42
39.99977621558355
 73
     0
 74
     0
 75
     0
  3
STANDARD
100
AcDbAlignedDimension
 13
3030.000285483494
 23
575.0002337566847
 33
0.0
 14
3070.000061699078
 24
590.0004681846339
 34
0.0
100
AcDbRotatedDimension
  0
LINE
  5
142C9
330
1F
100
AcDbEntity
  8
実線
100
AcDbLine
 10
3043.500061699078
 20
807.9999993287646
 30
0.0
 11
3043.500061699078
 21
791.9999993287647
 31
0.0
  0
LINE
  5
142CA
330
1F
100
AcDbEntity
  8
実線
100
AcDbLine
 10
2852.000061699078
 20
983.5002337566848
 30
0.0
 11
2868.000061699078
 21
983.5002337566848
 31
0.0
  0
LINE
  5
142CB
330
1F
100
AcDbEntity
  8
実線
100
AcDbLine
 10
3003.000061699078
 20
1000.000233756685
 30
0.0
 11
3003.000061699078
 21
984.0002337566847
 31
0.0
  0
CIRCLE
  5
142CC
330
1F
100
AcDbEntity
  8
実線
100
AcDbCircle
 10
2690.000286404922
 20
970.0002337566848
 30
0.0
 40
30.0
  0
LINE
  5
142CD
330
1F
100
AcDbEntity
  8
実線
100
AcDbLine
 10
2676.000286404922
 20
656.9999993287646
 30
0.0
 11
2676.000286404922
 21
942.9999993287648
 31
0.0
  0
LINE
  5
142CE
330
1F
100
AcDbEntity
  8
中心線
100
AcDbLine
 10
2975.000285483494
 20
970.0002337566848
 30
0.0
 11
3085.000285483495
 21
970.0002337566848
 31
0.0
  0
CIRCLE
  5
142CF
330
1F
100
AcDbEntity
  8
実線
100
AcDbCircle
 10
3030.000286404922
 20
970.0002337566848
 30
0.0
 40
30.0
  0
LINE
  5
142D0
330
1F
100
AcDbEntity
  8
実線
100
AcDbLine
 10
2717.000061699078
 20
1000.000233756685
 30
0.0
 11
3003.000061699078
 21
1000.000233756685
 31
0.0
  0
LINE
  5
142D1
330
1F
100
AcDbEntity
  8
実線
100
AcDbLine
 10
2650.000061699078
 20
590.0004681846339
 30
0.0
 11
3070.000061699078
 21
590.0004681846339
 31
0.0
  0
LINE
  5
142D2
330
1F
100
AcDbEntity
  8
実線
100
AcDbLine
 10
2660.000286404922
 20
656.9999993287646
 30
0.0
 11
2676.000286404922
 21
656.9999993287646
 31
0.0
  0
LINE
  5
142D3
330
1F
100
AcDbEntity
  8
実線
100
AcDbLine
 10
2868.000061699078
 20
616.5002337566847
 30
0.0
 11
2868.000061699078
 21
792.0002337566848
 31
0.0
  0
LINE
  5
142D4
330
1F
100
AcDbEntity
  8
実線
100
AcDbLine
 10
2852.000061699078
 20
616.5002337566847
 30
0.0
 11
2852.000061699078
 21
792.0002337566848
 31
0.0
  0
LINE
  5
142D5
330
1F
100
AcDbEntity
  8
実線
100
AcDbLine
 10
2852.000061699078
 20
616.5002337566847
 30
0.0
 11
2868.000061699078
 21
616.5002337566847
 31
0.0
  0
CIRCLE
  5
142D6
330
1F
100
AcDbEntity
  8
実線
100
AcDbCircle
 10
2690.000286404922
 20
630.0002337566848
 30
0.0
 40
30.0
  0
CIRCLE
  5
142D7
330
1F
100
AcDbEntity
  8
実線
100
AcDbCircle
 10
3030.000286404922
 20
630.0002337566848
 30
0.0
 40
30.0
  0
LINE
  5
142D8
330
1F
100
AcDbEntity
  8
実線
100
AcDbLine
 10
2676.500061699078
 20
791.9999993287647
 30
0.0
 11
3043.500061699078
 21
791.9999993287647
 31
0.0
  0
LINE
  5
142D9
330
1F
100
AcDbEntity
  8
実線
100
AcDbLine
 10
2717.000061699078
 20
984.0002337566847
 30
0.0
 11
3003.000061699078
 21
984.0002337566847
 31
0.0
  0
LINE
  5
142DA
330
1F
100
AcDbEntity
  8
実線
100
AcDbLine
 10
2717.000061699078
 20
616.0002337566847
 30
0.0
 11
2717.000061699078
 21
600.0002337566847
 31
0.0
  0
LINE
  5
142DB
330
1F
100
AcDbEntity
  8
実線
100
AcDbLine
 10
3003.000061699078
 20
616.0002337566847
 30
0.0
 11
3003.000061699078
 21
600.0002337566847
 31
0.0
  0
LINE
  5
142DC
330
1F
100
AcDbEntity
  8
実線
100
AcDbLine
 10
2717.000061699078
 20
616.0002337566847
 30
0.0
 11
3003.000061699078
 21
616.0002337566847
 31
0.0
  0
LINE
  5
142DD
330
1F
100
AcDbEntity
  8
実線
100
AcDbLine
 10
2717.000061699078
 20
600.0002337566847
 30
0.0
 11
3003.000061699078
 21
600.0002337566847
 31
0.0
  0
LINE
  5
142DE
330
1F
100
AcDbEntity
  8
実線
100
AcDbLine
 10
2660.000286404922
 20
656.9999993287646
 30
0.0
 11
2660.000286404922
 21
942.9999993287648
 31
0.0
  0
LINE
  5
142DF
330
1F
100
AcDbEntity
  8
実線
100
AcDbLine
 10
3044.000286404922
 20
942.9999993287648
 30
0.0
 11
3060.000286404922
 21
942.9999993287648
 31
0.0
  0
LINE
  5
142E0
330
1F
100
AcDbEntity
  8
実線
100
AcDbLine
 10
3060.000286404922
 20
656.9999993287646
 30
0.0
 11
3060.000286404922
 21
942.9999993287648
 31
0.0
  0
LINE
  5
142E1
330
1F
100
AcDbEntity
  8
実線
100
AcDbLine
 10
3044.000286404922
 20
656.9999993287646
 30
0.0
 11
3060.000286404922
 21
656.9999993287646
 31
0.0
  0
LINE
  5
142E2
330
1F
100
AcDbEntity
  8
実線
100
AcDbLine
 10
3044.000286404922
 20
656.9999993287646
 30
0.0
 11
3044.000286404922
 21
942.9999993287648
 31
0.0
  0
LINE
  5
142E3
330
1F
100
AcDbEntity
  8
中心線
100
AcDbLine
 10
3030.000285483494
 20
915.0002337566847
 30
0.0
 11
3030.000285483494
 21
1025.000233756685
 31
0.0
  0
LINE
  5
142E4
330
1F
100
AcDbEntity
  8
中心線
100
AcDbLine
 10
2975.000285483494
 20
630.0002337566848
 30
0.0
 11
3085.000285483495
 21
630.0002337566848
 31
0.0
  0
LINE
  5
142E5
330
1F
100
AcDbEntity
  8
中心線
100
AcDbLine
 10
3030.000285483494
 20
575.0002337566847
 30
0.0
 11
3030.000285483494
 21
685.0002337566848
 31
0.0
  0
LINE
  5
142E6
330
1F
100
AcDbEntity
  8
中心線
100
AcDbLine
 10
2635.000285483494
 20
970.0002337566848
 30
0.0
 11
2745.000285483494
 21
970.0002337566848
 31
0.0
  0
LINE
  5
142E7
330
1F
100
AcDbEntity
  8
中心線
100
AcDbLine
 10
2690.000285483495
 20
915.0002337566847
 30
0.0
 11
2690.000285483495
 21
1025.000233756685
 31
0.0
  0
LINE
  5
142E8
330
1F
100
AcDbEntity
  8
中心線
100
AcDbLine
 10
2635.000285483494
 20
630.0002337566848
 30
0.0
 11
2745.000285483494
 21
630.0002337566848
 31
0.0
  0
LINE
  5
142E9
330
1F
100
AcDbEntity
  8
中心線
100
AcDbLine
 10
2690.000285483495
 20
575.0002337566847
 30
0.0
 11
2690.000285483495
 21
685.0002337566848
 31
0.0
  0
LINE
  5
142EA
330
1F
100
AcDbEntity
  8
寸法線
100
AcDbLine
 10
2781.250061699078
 20
1075.000468184634
 30
0.0
 11
2938.750061699078
 21
1075.000468184634
 31
0.0
  0
LINE
  5
142EB
330
1F
100
AcDbEntity
  8
中心線
100
AcDbLine
 10
2860.000085483485
 20
564.9999337566996
 30
0.0
 11
2860.000085483485
 21
1034.999933756699
 31
0.0
  0
LINE
  5
142EC
330
1F
100
AcDbEntity
  8
実線
100
AcDbLine
 10
3320.000061699078
 20
569.9999993287646
 30
0.0
 11
3320.000061699078
 21
1029.999999328764
 31
0.0
  0
LINE
  5
142ED
330
1F
100
AcDbEntity
  8
実線
100
AcDbLine
 10
3780.000061699078
 20
569.9999993287646
 30
0.0
 11
3780.000061699078
 21
1029.999999328764
 31
0.0
  0
LINE
  5
142EE
330
1F
100
AcDbEntity
  8
実線
100
AcDbLine
 10
3319.999844592302
 20
570.0001714007676
 30
0.0
 11
3779.999844592302
 21
570.0001714007676
 31
0.0
  0
LINE
  5
142EF
330
1F
100
AcDbEntity
  8
実線
100
AcDbLine
 10
3319.999844592302
 20
1030.000171400767
 30
0.0
 11
3779.999844592302
 21
1030.000171400767
 31
0.0
  0
LINE
  5
142F0
330
1F
100
AcDbEntity
  8
中心線
100
AcDbLine
 10
3550.000061699079
 20
1039.999999328764
 30
0.0
 11
3550.000061699079
 21
559.9999993287647
 31
0.0
  0
LINE
  5
142F1
330
1F
100
AcDbEntity
  8
中心線
100
AcDbLine
 10
3327.499844592303
 20
970.0001714007676
 30
0.0
 11
3432.499844592302
 21
970.0001714007676
 31
0.0
  0
CIRCLE
  5
142F2
330
1F
100
AcDbEntity
  8
実線
100
AcDbCircle
 10
3550.000061699079
 20
800.0001714007677
 30
0.0
 40
140.0
  0
CIRCLE
  5
142F3
330
1F
100
AcDbEntity
  8
実線
100
AcDbCircle
 10
3380.000061699078
 20
970.0001714007676
 30
0.0
 40
30.25
  0
CIRCLE
  5
142F4
330
1F
100
AcDbEntity
  8
実線
100
AcDbCircle
 10
3720.000061699078
 20
970.0001714007676
 30
0.0
 40
30.25
  0
CIRCLE
  5
142F5
330
1F
100
AcDbEntity
  8
実線
100
AcDbCircle
 10
3380.000061699078
 20
630.0001714007676
 30
0.0
 40
30.25
  0
CIRCLE
  5
142F6
330
1F
100
AcDbEntity
  8
実線
100
AcDbCircle
 10
3720.000061699078
 20
630.0001714007676
 30
0.0
 40
30.25
  0
LINE
  5
142F7
330
1F
100
AcDbEntity
  8
中心線
100
AcDbLine
 10
3309.999844592303
 20
800.0001714007677
 30
0.0
 11
3789.999844592303
 21
800.0001714007677
 31
0.0
  0
LINE
  5
142F8
330
1F
100
AcDbEntity
  8
中心線
100
AcDbLine
 10
3380.000061699078
 20
917.499954293963
 30
0.0
 11
3380.000061699078
 21
1022.499954293963
 31
0.0
  0
LINE
  5
142F9
330
1F
100
AcDbEntity
  8
中心線
100
AcDbLine
 10
3327.499844592303
 20
630.0001714007676
 30
0.0
 11
3432.499844592302
 21
630.0001714007676
 31
0.0
  0
LINE
  5
142FA
330
1F
100
AcDbEntity
  8
中心線
100
AcDbLine
 10
3380.000061699078
 20
577.4999542939631
 30
0.0
 11
3380.000061699078
 21
682.4999542939631
 31
0.0
  0
LINE
  5
142FB
330
1F
100
AcDbEntity
  8
中心線
100
AcDbLine
 10
3667.499844592303
 20
970.0001714007676
 30
0.0
 11
3772.499844592303
 21
970.0001714007676
 31
0.0
  0
LINE
  5
142FC
330
1F
100
AcDbEntity
  8
中心線
100
AcDbLine
 10
3720.000061699078
 20
917.499954293963
 30
0.0
 11
3720.000061699078
 21
1022.499954293963
 31
0.0
  0
LINE
  5
142FD
330
1F
100
AcDbEntity
  8
中心線
100
AcDbLine
 10
3667.499844592303
 20
630.0001714007676
 30
0.0
 11
3772.499844592303
 21
630.0001714007676
 31
0.0
  0
LINE
  5
142FE
330
1F
100
AcDbEntity
  8
中心線
100
AcDbLine
 10
3720.000061699078
 20
577.4999542939631
 30
0.0
 11
3720.000061699078
 21
682.4999542939631
 31
0.0
  0
DIMENSION
  5
142FF
330
1F
100
AcDbEntity
  8
寸法線
100
AcDbDimension
280
     0
  2
*D36
 10
3428.756390104448
 20
730.0003706992221
 30
0.0
 11
3613.62588941353
 21
836.7346118331639
 31
0.0
 70
   160
  1
φ280
 71
     5
 42
279.9999999999154
 73
     0
 74
     0
 75
     0
  3
STANDARD
100
AcDbAlignedDimension
 13
3671.24362474209
 23
870.0001601195699
 33
0.0
 14
3428.756390102999
 24
730.0003707017322
 34
0.0
 50
209.9999502436513
100
AcDbRotatedDimension
  0
DIMENSION
  5
14300
330
1F
100
AcDbEntity
  8
寸法線
100
AcDbDimension
280
     0
  2
*D37
 10
3780.000061699078
 20
499.9999628394903
 30
0.0
 11
3549.99995314569
 21
521.2499628394903
 31
0.0
 70
    32
 71
     5
 42
460.0002171067753
 73
     0
 74
     0
 75
     0
  3
STANDARD
100
AcDbAlignedDimension
 13
3319.999844592302
 23
570.0001714007676
 33
0.0
 14
3780.000061699078
 24
569.9999993287646
 34
0.0
100
AcDbRotatedDimension
  0
LINE
  5
14301
330
1F
100
AcDbEntity
  8
寸法線
100
AcDbLine
 10
3469.732973328127
 20
1074.99996283949
 30
0.0
 11
3630.266932963253
 21
1074.99996283949
 31
0.0
  0
TEXT
  5
14302
330
1F
100
AcDbEntity
  8
寸法線
100
AcDbText
 10
3481.135240567649
 20
1081.728787676827
 30
0.0
 40
24.0
  1
断面Ｂ－Ｂ
100
AcDbText
  0
DIMENSION
  5
14303
330
1F
100
AcDbEntity
  8
寸法線
100
AcDbDimension
280
     0
  2
*D38
 10
3850.000061699296
 20
1029.999999328765
 30
0.0
 11
3828.750061699295
 21
799.9999993287638
 31
0.0
 70
    32
 71
     5
 42
460.0
 73
     0
 74
     0
 75
     0
  3
STANDARD
100
AcDbAlignedDimension
 13
3780.000061699078
 23
569.9999993287646
 33
0.0
 14
3780.000061699078
 24
1029.999999328764
 34
0.0
 50
90.0
100
AcDbRotatedDimension
  0
CIRCLE
  5
14304
330
1F
100
AcDbEntity
  8
実線
100
AcDbCircle
 10
3720.000061699078
 20
969.9999542939631
 30
0.0
 40
31.5
  0
CIRCLE
  5
14305
330
1F
100
AcDbEntity
  8
実線
100
AcDbCircle
 10
3380.000061699078
 20
969.9999542939631
 30
0.0
 40
31.5
  0
CIRCLE
  5
14306
330
1F
100
AcDbEntity
  8
実線
100
AcDbCircle
 10
3380.000278805854
 20
629.9997371871877
 30
0.0
 40
31.5
  0
CIRCLE
  5
14307
330
1F
100
AcDbEntity
  8
実線
100
AcDbCircle
 10
3720.000061699078
 20
629.9999542939631
 30
0.0
 40
31.5
  0
DIMENSION
  5
14308
330
1F
100
AcDbEntity
  8
寸法線
100
AcDbDimension
280
     0
  2
*D39
 10
1951.999958114063
 20
1099.999999328777
 30
0.0
 11
1760.00000990657
 21
1121.249999328777
 31
0.0
 70
    32
 71
     5
 42
383.9998964149854
 73
     0
 74
     0
 75
     0
  3
STANDARD
100
AcDbAlignedDimension
 13
1568.000061699078
 23
1029.999990206445
 33
0.0
 14
1951.999958114063
 24
1029.999990206445
 34
0.0
100
AcDbRotatedDimension
1001
ACAD
1000
DSTYLE
1002
{
1070
   279
1070
     1
1002
}
  0
DIMENSION
  5
14309
330
1F
100
AcDbEntity
  8
寸法線
100
AcDbDimension
280
     0
  2
*D40
 10
1568.000061699078
 20
1099.999999328777
 30
0.0
 11
1560.000061699078
 21
1099.999999328777
 31
0.0
 70
   160
 71
     5
 42
16.0
 73
     0
 74
     0
 75
     0
  3
STANDARD
100
AcDbAlignedDimension
 13
1552.000061699078
 23
1029.999990206445
 33
0.0
 14
1568.000061699078
 24
1029.999990206445
 34
0.0
100
AcDbRotatedDimension
  0
DIMENSION
  5
1430A
330
1F
100
AcDbEntity
  8
寸法線
100
AcDbDimension
280
     0
  2
*D41
 10
2444.000061699078
 20
1099.999999328777
 30
0.0
 11
2206.000009906571
 21
1121.249999328777
 31
0.0
 70
    32
 71
     5
 42
476.0001035850145
 73
     0
 74
     0
 75
     0
  3
STANDARD
100
AcDbAlignedDimension
 13
1967.999958114063
 23
1029.999990206445
 33
0.0
 14
2444.000061699078
 24
1009.999990206445
 34
0.0
100
AcDbRotatedDimension
1001
ACAD
1000
DSTYLE
1002
{
1070
   279
1070
     1
1002
}
  0
DIMENSION
  5
1430B
330
1F
100
AcDbEntity
  8
寸法線
100
AcDbDimension
280
     0
  2
*D42
 10
1967.999958114063
 20
1099.999999328777
 30
0.0
 11
1959.999958114063
 21
1099.999999328777
 31
0.0
 70
   160
 71
     5
 42
16.0
 73
     0
 74
     0
 75
     0
  3
STANDARD
100
AcDbAlignedDimension
 13
1951.999958114063
 23
1029.999990206445
 33
0.0
 14
1967.999958114063
 24
1029.999990206445
 34
0.0
100
AcDbRotatedDimension
  0
LINE
  5
1430C
330
1F
100
AcDbEntity
  8
実線
100
AcDbLine
 10
1060.000061699078
 20
589.9999902064455
 30
0.0
 11
1060.000061699078
 21
1009.999990206445
 31
0.0
  0
LINE
  5
1430D
330
1F
100
AcDbEntity
  8
実線
100
AcDbLine
 10
1060.000061699078
 20
1009.999990206445
 30
0.0
 11
1076.000061699078
 21
1009.999990206445
 31
0.0
  0
LINE
  5
1430E
330
1F
100
AcDbEntity
  8
実線
100
AcDbLine
 10
1108.000061699078
 20
657.0000084510838
 30
0.0
 11
1108.000061699078
 21
943.0000084510838
 31
0.0
  0
LINE
  5
1430F
330
1F
100
AcDbEntity
  8
中心線
100
AcDbLine
 10
1045.000165284092
 20
799.9999902064455
 30
0.0
 11
2475.000165284093
 21
799.9999902064455
 31
0.0
  0
LINE
  5
14310
330
1F
100
AcDbEntity
  8
中心線
100
AcDbLine
 10
1050.000165284092
 20
969.9999902064455
 30
0.0
 11
2470.000165284093
 21
969.9999902064455
 31
0.0
  0
LINE
  5
14311
330
1F
100
AcDbEntity
  8
実線
100
AcDbLine
 10
1108.000061699078
 20
939.9999902064456
 30
0.0
 11
1552.000061699078
 21
939.9999902064456
 31
0.0
  0
LINE
  5
14312
330
1F
100
AcDbEntity
  8
実線
100
AcDbLine
 10
1076.000165284092
 20
999.9999902064455
 30
0.0
 11
1552.000061699078
 21
999.9999902064455
 31
0.0
  0
LINE
  5
14313
330
1F
100
AcDbEntity
  8
破線
100
AcDbLine
 10
1076.000061699078
 20
983.9999902064455
 30
0.0
 11
1108.000061699078
 21
983.9999902064455
 31
0.0
  0
LINE
  5
14314
330
1F
100
AcDbEntity
  8
破線
100
AcDbLine
 10
1108.000061699078
 20
984.0000084510839
 30
0.0
 11
1108.000061699078
 21
999.9999902064455
 31
0.0
  0
LINE
  5
14315
330
1F
100
AcDbEntity
  8
破線
100
AcDbLine
 10
1085.000061699078
 20
939.9999902064456
 30
0.0
 11
1108.000061699078
 21
939.9999902064456
 31
0.0
  0
LINE
  5
14316
330
1F
100
AcDbEntity
  8
実線
100
AcDbLine
 10
1088.000061699078
 20
942.9999902064455
 30
0.0
 11
1108.000061699078
 21
942.9999902064455
 31
0.0
  0
LINE
  5
14317
330
1F
100
AcDbEntity
  8
実線
100
AcDbLine
 10
1076.000061699078
 20
930.9999902064456
 30
0.0
 11
1088.000061699078
 21
942.9999902064455
 31
0.0
  0
LINE
  5
14318
330
1F
100
AcDbEntity
  8
実線
100
AcDbLine
 10
1076.000061699078
 20
939.9999902064456
 30
0.0
 11
1085.000061699078
 21
939.9999902064456
 31
0.0
  0
LINE
  5
14319
330
1F
100
AcDbEntity
  8
破線
100
AcDbLine
 10
2412.000061699078
 20
984.0000084510839
 30
0.0
 11
2412.000061699078
 21
999.9999902064455
 31
0.0
  0
LINE
  5
1431A
330
1F
100
AcDbEntity
  8
破線
100
AcDbLine
 10
2444.000061699078
 20
983.9999902064455
 30
0.0
 11
2412.000061699078
 21
983.9999902064455
 31
0.0
  0
LINE
  5
1431B
330
1F
100
AcDbEntity
  8
破線
100
AcDbLine
 10
1076.000061699078
 20
807.9999902064455
 30
0.0
 11
1108.000061699078
 21
807.9999902064455
 31
0.0
  0
LINE
  5
1431C
330
1F
100
AcDbEntity
  8
破線
100
AcDbLine
 10
1076.000061699078
 20
791.9999902064455
 30
0.0
 11
1108.000061699078
 21
791.9999902064455
 31
0.0
  0
LINE
  5
1431D
330
1F
100
AcDbEntity
  8
破線
100
AcDbLine
 10
2412.000061699078
 20
807.9999902064455
 30
0.0
 11
2444.000061699078
 21
807.9999902064455
 31
0.0
  0
LINE
  5
1431E
330
1F
100
AcDbEntity
  8
破線
100
AcDbLine
 10
2412.000061699078
 20
791.9999902064455
 30
0.0
 11
2444.000061699078
 21
791.9999902064455
 31
0.0
  0
LINE
  5
1431F
330
1F
100
AcDbEntity
  8
仮想線
100
AcDbLine
 10
1131.463113953248
 20
540.0000084510838
 30
0.0
 11
1131.463113953248
 21
1060.000008451084
 31
0.0
  0
TEXT
  5
14320
330
1F
100
AcDbEntity
  8
寸法線
100
AcDbText
 10
1181.118336320295
 20
1038.799990206445
 30
0.0
 40
21.0
  1
Ａ
 72
     4
 11
1190.918336320295
 21
1049.999990206445
 31
0.0
100
AcDbText
  0
TEXT
  5
14321
330
1F
100
AcDbEntity
  8
寸法線
100
AcDbText
 10
1181.118336320295
 20
538.7999902064454
 30
0.0
 40
21.0
  1
Ａ
 72
     4
 11
1190.918336320295
 21
549.9999902064455
 31
0.0
100
AcDbText
  0
LINE
  5
14322
330
1F
100
AcDbEntity
  8
実線
100
AcDbLine
 10
2444.000061699078
 20
1009.999990206445
 30
0.0
 11
2460.000061699078
 21
1009.999990206445
 31
0.0
  0
LINE
  5
14323
330
1F
100
AcDbEntity
  8
実線
100
AcDbLine
 10
1076.000061699078
 20
590.0000084510838
 30
0.0
 11
1076.000061699078
 21
1009.999990206445
 31
0.0
  0
LINE
  5
14324
330
1F
100
AcDbEntity
  8
実線
100
AcDbLine
 10
2444.000061699078
 20
590.0000084510838
 30
0.0
 11
2444.000061699078
 21
1009.999990206445
 31
0.0
  0
LINE
  5
14325
330
1F
100
AcDbEntity
  8
実線
100
AcDbLine
 10
2460.000061699078
 20
590.0000084510838
 30
0.0
 11
2460.000061699078
 21
1009.999990206445
 31
0.0
  0
LINE
  5
14326
330
1F
100
AcDbEntity
  8
実線
100
AcDbLine
 10
1060.000061699078
 20
589.9999902064455
 30
0.0
 11
1076.000061699078
 21
589.9999902064455
 31
0.0
  0
LINE
  5
14327
330
1F
100
AcDbEntity
  8
中心線
100
AcDbLine
 10
1050.000165284092
 20
629.9999902064455
 30
0.0
 11
2470.000165284093
 21
629.9999902064455
 31
0.0
  0
LINE
  5
14328
330
1F
100
AcDbEntity
  8
破線
100
AcDbLine
 10
1076.000061699078
 20
615.9999902064456
 30
0.0
 11
1108.000061699078
 21
615.9999902064456
 31
0.0
  0
LINE
  5
14329
330
1F
100
AcDbEntity
  8
破線
100
AcDbLine
 10
1108.000061699078
 20
615.9999719618071
 30
0.0
 11
1108.000061699078
 21
599.9999902064455
 31
0.0
  0
LINE
  5
1432A
330
1F
100
AcDbEntity
  8
破線
100
AcDbLine
 10
1085.000061699078
 20
659.9999902064455
 30
0.0
 11
1108.000061699078
 21
659.9999902064455
 31
0.0
  0
LINE
  5
1432B
330
1F
100
AcDbEntity
  8
実線
100
AcDbLine
 10
1088.000061699078
 20
656.9999902064455
 30
0.0
 11
1108.000061699078
 21
656.9999902064455
 31
0.0
  0
LINE
  5
1432C
330
1F
100
AcDbEntity
  8
実線
100
AcDbLine
 10
1076.000061699078
 20
668.9999902064455
 30
0.0
 11
1088.000061699078
 21
656.9999902064455
 31
0.0
  0
LINE
  5
1432D
330
1F
100
AcDbEntity
  8
実線
100
AcDbLine
 10
1076.000061699078
 20
659.9999902064455
 30
0.0
 11
1085.000061699078
 21
659.9999902064455
 31
0.0
  0
LINE
  5
1432E
330
1F
100
AcDbEntity
  8
破線
100
AcDbLine
 10
2412.000061699078
 20
615.9999719618071
 30
0.0
 11
2412.000061699078
 21
599.9999902064455
 31
0.0
  0
LINE
  5
1432F
330
1F
100
AcDbEntity
  8
破線
100
AcDbLine
 10
2444.000061699078
 20
615.9999902064456
 30
0.0
 11
2412.000061699078
 21
615.9999902064456
 31
0.0
  0
LINE
  5
14330
330
1F
100
AcDbEntity
  8
実線
100
AcDbLine
 10
2444.000061699078
 20
589.9999902064455
 30
0.0
 11
2460.000061699078
 21
589.9999902064455
 31
0.0
  0
LINE
  5
14331
330
1F
100
AcDbEntity
  8
実線
100
AcDbLine
 10
2412.000165284093
 20
657.0000084510838
 30
0.0
 11
2412.000165284093
 21
943.0000084510838
 31
0.0
  0
LINE
  5
14332
330
1F
100
AcDbEntity
  8
破線
100
AcDbLine
 10
2435.000165284093
 20
939.9999902064456
 30
0.0
 11
2412.000165284093
 21
939.9999902064456
 31
0.0
  0
LINE
  5
14333
330
1F
100
AcDbEntity
  8
実線
100
AcDbLine
 10
2432.000165284093
 20
942.9999902064455
 30
0.0
 11
2412.000165284093
 21
942.9999902064455
 31
0.0
  0
LINE
  5
14334
330
1F
100
AcDbEntity
  8
実線
100
AcDbLine
 10
2444.000165284093
 20
930.9999902064456
 30
0.0
 11
2432.000165284093
 21
942.9999902064455
 31
0.0
  0
LINE
  5
14335
330
1F
100
AcDbEntity
  8
実線
100
AcDbLine
 10
2444.000165284093
 20
939.9999902064456
 30
0.0
 11
2435.000165284093
 21
939.9999902064456
 31
0.0
  0
LINE
  5
14336
330
1F
100
AcDbEntity
  8
破線
100
AcDbLine
 10
2435.000165284093
 20
659.9999902064455
 30
0.0
 11
2412.000165284093
 21
659.9999902064455
 31
0.0
  0
LINE
  5
14337
330
1F
100
AcDbEntity
  8
実線
100
AcDbLine
 10
2432.000165284093
 20
656.9999902064455
 30
0.0
 11
2412.000165284093
 21
656.9999902064455
 31
0.0
  0
LINE
  5
14338
330
1F
100
AcDbEntity
  8
実線
100
AcDbLine
 10
2444.000165284093
 20
668.9999902064455
 30
0.0
 11
2432.000165284093
 21
656.9999902064455
 31
0.0
  0
LINE
  5
14339
330
1F
100
AcDbEntity
  8
実線
100
AcDbLine
 10
2444.000165284093
 20
659.9999902064455
 30
0.0
 11
2435.000165284093
 21
659.9999902064455
 31
0.0
  0
LINE
  5
1433A
330
1F
100
AcDbEntity
  8
実線
100
AcDbLine
 10
1552.000061699078
 20
569.9999902064455
 30
0.0
 11
1552.000061699078
 21
1029.999990206445
 31
0.0
  0
LINE
  5
1433B
330
1F
100
AcDbEntity
  8
実線
100
AcDbLine
 10
1552.000061699078
 20
1029.999990206445
 30
0.0
 11
1568.000061699078
 21
1029.999990206445
 31
0.0
  0
LINE
  5
1433C
330
1F
100
AcDbEntity
  8
実線
100
AcDbLine
 10
1568.000061699078
 20
569.9999902064455
 30
0.0
 11
1568.000061699078
 21
1029.999990206445
 31
0.0
  0
LINE
  5
1433D
330
1F
100
AcDbEntity
  8
実線
100
AcDbLine
 10
1552.000061699078
 20
569.9999902064455
 30
0.0
 11
1568.000061699078
 21
569.9999902064455
 31
0.0
  0
LINE
  5
1433E
330
1F
100
AcDbEntity
  8
破線
100
AcDbLine
 10
1552.000061699078
 20
999.9999902064455
 30
0.0
 11
1568.000061699078
 21
999.9999902064455
 31
0.0
  0
LINE
  5
1433F
330
1F
100
AcDbEntity
  8
破線
100
AcDbLine
 10
1552.000061699078
 20
939.9999902064456
 30
0.0
 11
1568.000061699078
 21
939.9999902064456
 31
0.0
  0
LINE
  5
14340
330
1F
100
AcDbEntity
  8
破線
100
AcDbLine
 10
1552.000061699078
 20
659.9999902064455
 30
0.0
 11
1568.000061699078
 21
659.9999902064455
 31
0.0
  0
LINE
  5
14341
330
1F
100
AcDbEntity
  8
破線
100
AcDbLine
 10
1552.000061699078
 20
599.9999902064455
 30
0.0
 11
1568.000061699078
 21
599.9999902064455
 31
0.0
  0
LINE
  5
14342
330
1F
100
AcDbEntity
  8
仮想線
100
AcDbLine
 10
1623.463113953248
 20
540.0000084510838
 30
0.0
 11
1623.463113953248
 21
1060.000008451084
 31
0.0
  0
TEXT
  5
14343
330
1F
100
AcDbEntity
  8
寸法線
100
AcDbText
 10
1672.418336320295
 20
1038.799990206445
 30
0.0
 40
21.0
  1
Ｂ
 72
     4
 11
1682.918336320295
 21
1049.999990206445
 31
0.0
100
AcDbText
  0
TEXT
  5
14344
330
1F
100
AcDbEntity
  8
寸法線
100
AcDbText
 10
1672.418336320295
 20
538.7999902064454
 30
0.0
 40
21.0
  1
Ｂ
 72
     4
 11
1682.918336320295
 21
549.9999902064455
 31
0.0
100
AcDbText
  0
LINE
  5
14345
330
1F
100
AcDbEntity
  8
実線
100
AcDbLine
 10
1952.000061699077
 20
939.9999902064456
 30
0.0
 11
1568.000061699078
 21
939.9999902064456
 31
0.0
  0
LINE
  5
14346
330
1F
100
AcDbEntity
  8
実線
100
AcDbLine
 10
1952.000061699077
 20
999.9999902064455
 30
0.0
 11
1568.000061699078
 21
999.9999902064455
 31
0.0
  0
LINE
  5
14347
330
1F
100
AcDbEntity
  8
実線
100
AcDbLine
 10
1952.000061699077
 20
569.9999902064455
 30
0.0
 11
1952.000061699077
 21
1029.999990206445
 31
0.0
  0
LINE
  5
14348
330
1F
100
AcDbEntity
  8
実線
100
AcDbLine
 10
1952.000061699077
 20
1029.999990206445
 30
0.0
 11
1968.000061699077
 21
1029.999990206445
 31
0.0
  0
LINE
  5
14349
330
1F
100
AcDbEntity
  8
実線
100
AcDbLine
 10
1968.000061699077
 20
569.9999902064455
 30
0.0
 11
1968.000061699077
 21
1029.999990206445
 31
0.0
  0
LINE
  5
1434A
330
1F
100
AcDbEntity
  8
実線
100
AcDbLine
 10
1952.000061699077
 20
569.9999902064455
 30
0.0
 11
1968.000061699077
 21
569.9999902064455
 31
0.0
  0
LINE
  5
1434B
330
1F
100
AcDbEntity
  8
破線
100
AcDbLine
 10
1952.000061699077
 20
999.9999902064455
 30
0.0
 11
1968.000061699077
 21
999.9999902064455
 31
0.0
  0
LINE
  5
1434C
330
1F
100
AcDbEntity
  8
破線
100
AcDbLine
 10
1952.000061699077
 20
939.9999902064456
 30
0.0
 11
1968.000061699077
 21
939.9999902064456
 31
0.0
  0
LINE
  5
1434D
330
1F
100
AcDbEntity
  8
破線
100
AcDbLine
 10
1952.000061699077
 20
659.9999902064455
 30
0.0
 11
1968.000061699077
 21
659.9999902064455
 31
0.0
  0
LINE
  5
1434E
330
1F
100
AcDbEntity
  8
破線
100
AcDbLine
 10
1952.000061699077
 20
599.9999902064455
 30
0.0
 11
1968.000061699077
 21
599.9999902064455
 31
0.0
  0
LINE
  5
1434F
330
1F
100
AcDbEntity
  8
実線
100
AcDbLine
 10
1952.000061699077
 20
599.9999902064455
 30
0.0
 11
1568.000061699078
 21
599.9999902064455
 31
0.0
  0
LINE
  5
14350
330
1F
100
AcDbEntity
  8
実線
100
AcDbLine
 10
2412.000061699078
 20
939.9999902064456
 30
0.0
 11
1968.000061699077
 21
939.9999902064456
 31
0.0
  0
LINE
  5
14351
330
1F
100
AcDbEntity
  8
実線
100
AcDbLine
 10
2443.999958114063
 20
999.9999902064455
 30
0.0
 11
1968.000061699077
 21
999.9999902064455
 31
0.0
  0
LINE
  5
14352
330
1F
100
AcDbEntity
  8
実線
100
AcDbLine
 10
1108.000061699078
 20
659.9999902064455
 30
0.0
 11
1552.000061699078
 21
659.9999902064455
 31
0.0
  0
LINE
  5
14353
330
1F
100
AcDbEntity
  8
実線
100
AcDbLine
 10
1076.000165284092
 20
599.9999902064455
 30
0.0
 11
1552.000061699078
 21
599.9999902064455
 31
0.0
  0
LINE
  5
14354
330
1F
100
AcDbEntity
  8
実線
100
AcDbLine
 10
2412.000061699078
 20
659.9999902064455
 30
0.0
 11
1968.000061699077
 21
659.9999902064455
 31
0.0
  0
LINE
  5
14355
330
1F
100
AcDbEntity
  8
実線
100
AcDbLine
 10
2443.999958114063
 20
599.9999902064455
 30
0.0
 11
1968.000061699077
 21
599.9999902064455
 31
0.0
  0
LINE
  5
14356
330
1F
100
AcDbEntity
  8
仮想線
100
AcDbLine
 10
2023.463113953248
 20
540.0000084510838
 30
0.0
 11
2023.463113953248
 21
1060.000008451084
 31
0.0
  0
TEXT
  5
14357
330
1F
100
AcDbEntity
  8
寸法線
100
AcDbText
 10
2072.418336320295
 20
1038.799990206445
 30
0.0
 40
21.0
  1
Ｂ
 72
     4
 11
2082.918336320295
 21
1049.999990206445
 31
0.0
100
AcDbText
  0
TEXT
  5
14358
330
1F
100
AcDbEntity
  8
寸法線
100
AcDbText
 10
2072.418336320295
 20
538.7999902064454
 30
0.0
 40
21.0
  1
Ｂ
 72
     4
 11
2082.918336320295
 21
549.9999902064455
 31
0.0
100
AcDbText
  0
DIMENSION
  5
14359
330
1F
100
AcDbEntity
  8
寸法線
100
AcDbDimension
280
     0
  2
*D20
 10
2384.000061699078
 20
999.9999902064459
 30
0.0
 11
2384.000061699078
 21
886.240147686739
 31
0.0
 70
   160
  1
%%C<>
 71
     5
 42
60.0
 73
     0
 74
     0
 75
     0
  3
STANDARD
100
AcDbAlignedDimension
 13
2384.000061699078
 23
939.9999902064456
 33
0.0
 14
2384.000061699078
 24
999.9999902064455
 34
0.0
 50
90.0
100
AcDbRotatedDimension
  0
LEADER
  5
1435A
330
1F
100
AcDbEntity
  8
寸法線
100
AcDbLeader
  3
STANDARD
 76
     2
 10
1131.463113953248
 20
1049.999990206445
 30
0.0
 10
1178.859849139092
 20
1049.999990206445
 30
0.0
1001
ACAD
1000
DSTYLE
1002
{
1070
   147
1040
0.875
1070
    77
1070
     0
1070
    49
1040
0.5
1002
}
  0
LEADER
  5
1435B
330
1F
100
AcDbEntity
  8
寸法線
100
AcDbLeader
  3
STANDARD
 76
     2
 10
1131.463113953248
 20
549.9999902064455
 30
0.0
 10
1178.859849139092
 20
549.9999902064455
 30
0.0
1001
ACAD
1000
DSTYLE
1002
{
1070
   147
1040
0.875
1070
    77
1070
     0
1070
    49
1040
0.5
1002
}
  0
LEADER
  5
1435C
330
1F
100
AcDbEntity
  8
寸法線
100
AcDbLeader
  3
STANDARD
 76
     2
 10
1623.463113953248
 20
1049.999990206445
 30
0.0
 10
1670.859849139092
 20
1049.999990206445
 30
0.0
1001
ACAD
1000
DSTYLE
1002
{
1070
   147
1040
0.875
1070
    77
1070
     0
1070
    49
1040
0.5
1002
}
  0
LEADER
  5
1435D
330
1F
100
AcDbEntity
  8
寸法線
100
AcDbLeader
  3
STANDARD
 76
     2
 10
1623.463113953248
 20
549.9999902064455
 30
0.0
 10
1670.859849139092
 20
549.9999902064455
 30
0.0
1001
ACAD
1000
DSTYLE
1002
{
1070
   147
1040
0.875
1070
    77
1070
     0
1070
    49
1040
0.5
1002
}
  0
LEADER
  5
1435E
330
1F
100
AcDbEntity
  8
寸法線
100
AcDbLeader
  3
STANDARD
 76
     2
 10
2023.463113953248
 20
1049.999990206445
 30
0.0
 10
2070.859849139093
 20
1049.999990206445
 30
0.0
1001
ACAD
1000
DSTYLE
1002
{
1070
   147
1040
0.875
1070
    77
1070
     0
1070
    49
1040
0.5
1002
}
  0
LEADER
  5
1435F
330
1F
100
AcDbEntity
  8
寸法線
100
AcDbLeader
  3
STANDARD
 76
     2
 10
2023.463113953248
 20
549.9999902064455
 30
0.0
 10
2070.859849139093
 20
549.9999902064455
 30
0.0
1001
ACAD
1000
DSTYLE
1002
{
1070
   147
1040
0.875
1070
    77
1070
     0
1070
    49
1040
0.5
1002
}
  0
LINE
  5
14360
330
1F
100
AcDbEntity
  8
実線
100
AcDbLine
 10
1952.000061699077
 20
659.9999902064455
 30
0.0
 11
1568.000061699078
 21
659.9999902064455
 31
0.0
  0
DIMENSION
  5
14361
330
1F
100
AcDbEntity
  8
寸法線
100
AcDbDimension
280
     0
  2
*D21
 10
1552.000061699078
 20
1099.999999328777
 30
0.0
 11
1314.000061699078
 21
1121.249999328777
 31
0.0
 70
    32
 71
     5
 42
476.0
 73
     0
 74
     0
 75
     0
  3
STANDARD
100
AcDbAlignedDimension
 13
1076.000061699078
 23
1009.999990206445
 33
0.0
 14
1552.000061699078
 24
1029.999990206445
 34
0.0
100
AcDbRotatedDimension
  0
LEADER
  5
147AB
330
1F
100
AcDbEntity
  8
寸法線
100
AcDbLeader
  3
STANDARD
 76
     3
 10
2716.123102887214
 20
1780.897573484076
 30
0.0
 10
2791.471937472455
 20
1914.99999907856
 30
0.0
 10
3059.132114407275
 20
1914.99999907856
 30
0.0
211
-1.0
221
0.0
231
0.0
1001
ACAD
1000
DSTYLE
1002
{
1070
   147
1040
0.875
1070
    77
1070
     0
1002
}
  0
TEXT
  5
147AC
330
1F
100
AcDbEntity
  8
寸法線
100
AcDbText
 10
2800.22193747245
 20
1923.74999907856
 30
0.0
 40
25.0
  1
ｶﾊﾞｰﾌﾟﾚｰﾄ連結用孔
 72
     2
 11
3048.555270805783
 21
1948.74999907856
 31
0.0
100
AcDbText
 73
     3
  0
LINE
  5
14A7D
330
1F
100
AcDbEntity
  8
実線
100
AcDbLine
 10
1552.00000990657
 20
2014.999970255638
 30
0.0
 11
1552.00000990657
 21
2474.999970255638
 31
0.0
  0
LINE
  5
14A7E
330
1F
100
AcDbEntity
  8
実線
100
AcDbLine
 10
1552.00000990657
 20
2474.999970255638
 30
0.0
 11
1568.000009906571
 21
2474.999970255638
 31
0.0
  0
LINE
  5
14A7F
330
1F
100
AcDbEntity
  8
実線
100
AcDbLine
 10
1568.000009906571
 20
2014.999970255638
 30
0.0
 11
1568.000009906571
 21
2474.999970255638
 31
0.0
  0
LINE
  5
14A80
330
1F
100
AcDbEntity
  8
実線
100
AcDbLine
 10
1552.00000990657
 20
2014.999970255638
 30
0.0
 11
1568.000009906571
 21
2014.999970255638
 31
0.0
  0
LINE
  5
14A81
330
1F
100
AcDbEntity
  8
破線
100
AcDbLine
 10
1552.00000990657
 20
2384.999970255639
 30
0.0
 11
1568.000009906571
 21
2384.999970255639
 31
0.0
  0
LINE
  5
14A82
330
1F
100
AcDbEntity
  8
破線
100
AcDbLine
 10
1552.00000990657
 20
2104.999970255638
 30
0.0
 11
1568.000009906571
 21
2104.999970255638
 31
0.0
  0
LINE
  5
14A83
330
1F
100
AcDbEntity
  8
破線
100
AcDbLine
 10
1552.00000990657
 20
2044.999970255638
 30
0.0
 11
1568.000009906571
 21
2044.999970255638
 31
0.0
  0
LINE
  5
14A91
330
1F
100
AcDbEntity
  8
実線
100
AcDbLine
 10
1552.00000990657
 20
1414.999979138066
 30
0.0
 11
1552.00000990657
 21
1874.999979138067
 31
0.0
  0
LINE
  5
14A92
330
1F
100
AcDbEntity
  8
実線
100
AcDbLine
 10
1552.00000990657
 20
1874.999979138067
 30
0.0
 11
1568.000009906571
 21
1874.999979138067
 31
0.0
  0
LINE
  5
14A93
330
1F
100
AcDbEntity
  8
実線
100
AcDbLine
 10
1568.000009906571
 20
1414.999979138066
 30
0.0
 11
1568.000009906571
 21
1874.999979138067
 31
0.0
  0
LINE
  5
14A94
330
1F
100
AcDbEntity
  8
実線
100
AcDbLine
 10
1552.00000990657
 20
1414.999979138066
 30
0.0
 11
1568.000009906571
 21
1414.999979138066
 31
0.0
  0
LINE
  5
14A95
330
1F
100
AcDbEntity
  8
破線
100
AcDbLine
 10
1552.00000990657
 20
1784.999979138066
 30
0.0
 11
1568.000009906571
 21
1784.999979138066
 31
0.0
  0
LINE
  5
14A96
330
1F
100
AcDbEntity
  8
破線
100
AcDbLine
 10
1552.00000990657
 20
1504.999979138066
 30
0.0
 11
1568.000009906571
 21
1504.999979138066
 31
0.0
  0
LINE
  5
14A97
330
1F
100
AcDbEntity
  8
破線
100
AcDbLine
 10
1552.00000990657
 20
1444.999979138066
 30
0.0
 11
1568.000009906571
 21
1444.999979138066
 31
0.0
  0
LINE
  5
14A98
330
1F
100
AcDbEntity
  8
実線
100
AcDbLine
 10
1952.00000990657
 20
2014.999970255638
 30
0.0
 11
1952.00000990657
 21
2474.999970255638
 31
0.0
  0
LINE
  5
14A99
330
1F
100
AcDbEntity
  8
実線
100
AcDbLine
 10
1952.00000990657
 20
2474.999970255638
 30
0.0
 11
1968.00000990657
 21
2474.999970255638
 31
0.0
  0
LINE
  5
14A9A
330
1F
100
AcDbEntity
  8
実線
100
AcDbLine
 10
1968.00000990657
 20
2014.999970255638
 30
0.0
 11
1968.00000990657
 21
2474.999970255638
 31
0.0
  0
LINE
  5
14A9B
330
1F
100
AcDbEntity
  8
実線
100
AcDbLine
 10
1952.00000990657
 20
2014.999970255638
 30
0.0
 11
1968.00000990657
 21
2014.999970255638
 31
0.0
  0
LINE
  5
14A9C
330
1F
100
AcDbEntity
  8
破線
100
AcDbLine
 10
1952.00000990657
 20
2384.999970255639
 30
0.0
 11
1968.00000990657
 21
2384.999970255639
 31
0.0
  0
LINE
  5
14A9D
330
1F
100
AcDbEntity
  8
破線
100
AcDbLine
 10
1952.00000990657
 20
2104.999970255638
 30
0.0
 11
1968.00000990657
 21
2104.999970255638
 31
0.0
  0
LINE
  5
14A9E
330
1F
100
AcDbEntity
  8
破線
100
AcDbLine
 10
1952.00000990657
 20
2044.999970255638
 30
0.0
 11
1968.00000990657
 21
2044.999970255638
 31
0.0
  0
LINE
  5
14A9F
330
1F
100
AcDbEntity
  8
実線
100
AcDbLine
 10
1952.00000990657
 20
1414.999979138066
 30
0.0
 11
1952.00000990657
 21
1874.999979138067
 31
0.0
  0
LINE
  5
14AA0
330
1F
100
AcDbEntity
  8
実線
100
AcDbLine
 10
1952.00000990657
 20
1874.999979138067
 30
0.0
 11
1968.00000990657
 21
1874.999979138067
 31
0.0
  0
LINE
  5
14AA1
330
1F
100
AcDbEntity
  8
実線
100
AcDbLine
 10
1968.00000990657
 20
1414.999979138066
 30
0.0
 11
1968.00000990657
 21
1874.999979138067
 31
0.0
  0
LINE
  5
14AA2
330
1F
100
AcDbEntity
  8
実線
100
AcDbLine
 10
1952.00000990657
 20
1414.999979138066
 30
0.0
 11
1968.00000990657
 21
1414.999979138066
 31
0.0
  0
LINE
  5
14AA3
330
1F
100
AcDbEntity
  8
破線
100
AcDbLine
 10
1952.00000990657
 20
1784.999979138066
 30
0.0
 11
1968.00000990657
 21
1784.999979138066
 31
0.0
  0
LINE
  5
14AA4
330
1F
100
AcDbEntity
  8
破線
100
AcDbLine
 10
1952.00000990657
 20
1504.999979138066
 30
0.0
 11
1968.00000990657
 21
1504.999979138066
 31
0.0
  0
LINE
  5
14AA5
330
1F
100
AcDbEntity
  8
破線
100
AcDbLine
 10
1952.00000990657
 20
1444.999979138066
 30
0.0
 11
1968.00000990657
 21
1444.999979138066
 31
0.0
  0
LINE
  5
14AA6
330
1F
100
AcDbEntity
  8
破線
100
AcDbLine
 10
1952.00000990657
 20
2444.999970255639
 30
0.0
 11
1968.00000990657
 21
2444.999970255639
 31
0.0
  0
LINE
  5
14AA7
330
1F
100
AcDbEntity
  8
実線
100
AcDbLine
 10
1552.000009906568
 20
1784.999989956244
 30
0.0
 11
1107.999906321544
 21
1784.999989956244
 31
0.0
  0
LINE
  5
14AA8
330
1F
100
AcDbEntity
  8
実線
100
AcDbLine
 10
1552.000009906568
 20
1844.999989956244
 30
0.0
 11
1075.999906321544
 21
1844.999989956244
 31
0.0
  0
LINE
  5
14AA9
330
1F
100
AcDbEntity
  8
実線
100
AcDbLine
 10
1552.000009906568
 20
1504.999989956244
 30
0.0
 11
1107.999906321544
 21
1504.999989956244
 31
0.0
  0
LINE
  5
14AAA
330
1F
100
AcDbEntity
  8
実線
100
AcDbLine
 10
1552.000009906568
 20
1444.999989956244
 30
0.0
 11
1075.999906321544
 21
1444.999989956244
 31
0.0
  0
LINE
  5
14AAB
330
1F
100
AcDbEntity
  8
実線
100
AcDbLine
 10
1552.000009906568
 20
2384.999971951501
 30
0.0
 11
1107.999906321544
 21
2384.9999719515
 31
0.0
  0
LINE
  5
14AAC
330
1F
100
AcDbEntity
  8
実線
100
AcDbLine
 10
1552.000009906568
 20
2444.9999719515
 30
0.0
 11
1075.999906321544
 21
2444.9999719515
 31
0.0
  0
LINE
  5
14AAD
330
1F
100
AcDbEntity
  8
実線
100
AcDbLine
 10
1552.000009906568
 20
2104.9999719515
 30
0.0
 11
1107.999906321544
 21
2104.9999719515
 31
0.0
  0
LINE
  5
14AAE
330
1F
100
AcDbEntity
  8
実線
100
AcDbLine
 10
1552.000009906568
 20
2044.9999719515
 30
0.0
 11
1075.999906321544
 21
2044.9999719515
 31
0.0
  0
LINE
  5
14ABD
330
1F
100
AcDbEntity
  8
破線
100
AcDbLine
 10
1552.00000990657
 20
2444.999970255639
 30
0.0
 11
1568.000009906571
 21
2444.999970255639
 31
0.0
  0
LINE
  5
14ABE
330
1F
100
AcDbEntity
  8
実線
100
AcDbLine
 10
1568.000009906571
 20
2444.999970255639
 30
0.0
 11
1952.00000990657
 21
2444.999970255639
 31
0.0
  0
LINE
  5
14ABF
330
1F
100
AcDbEntity
  8
実線
100
AcDbLine
 10
1568.000009906571
 20
2384.999970255639
 30
0.0
 11
1952.00000990657
 21
2384.999970255639
 31
0.0
  0
LINE
  5
14AC0
330
1F
100
AcDbEntity
  8
実線
100
AcDbLine
 10
1568.000009906571
 20
2104.999970255638
 30
0.0
 11
1952.00000990657
 21
2104.999970255638
 31
0.0
  0
LINE
  5
14AC1
330
1F
100
AcDbEntity
  8
実線
100
AcDbLine
 10
1952.00000990657
 20
2044.999970255638
 30
0.0
 11
1568.000009906571
 21
2044.999970255638
 31
0.0
  0
LINE
  5
14AC2
330
1F
100
AcDbEntity
  8
実線
100
AcDbLine
 10
1568.000009906571
 20
1784.999979138066
 30
0.0
 11
1952.00000990657
 21
1784.999979138066
 31
0.0
  0
LINE
  5
14AC3
330
1F
100
AcDbEntity
  8
破線
100
AcDbLine
 10
1552.00000990657
 20
1844.999979138066
 30
0.0
 11
1568.000009906571
 21
1844.999979138066
 31
0.0
  0
LINE
  5
14AC4
330
1F
100
AcDbEntity
  8
破線
100
AcDbLine
 10
1952.00000990657
 20
1844.999979138066
 30
0.0
 11
1968.00000990657
 21
1844.999979138066
 31
0.0
  0
LINE
  5
14AC5
330
1F
100
AcDbEntity
  8
実線
100
AcDbLine
 10
1568.000009906571
 20
1504.999979138066
 30
0.0
 11
1952.00000990657
 21
1504.999979138066
 31
0.0
  0
LINE
  5
14AC6
330
1F
100
AcDbEntity
  8
実線
100
AcDbLine
 10
1952.00000990657
 20
1444.999979138066
 30
0.0
 11
1568.000009906571
 21
1444.999979138066
 31
0.0
  0
LINE
  5
14AC7
330
1F
100
AcDbEntity
  8
実線
100
AcDbLine
 10
1568.000009906571
 20
1844.999979138066
 30
0.0
 11
1952.00000990657
 21
1844.999979138066
 31
0.0
  0
TEXT
  5
14FD3
330
1F
100
AcDbEntity
  8
寸法線
100
AcDbText
 10
3152.960992024409
 20
1743.395834101175
 30
0.0
 40
25.0
  1
※　H型鋼（連結部）の長さは、切梁メーカー仕様または施工条件
 11
3152.960992024409
 21
1743.395834101175
 31
0.0
100
AcDbText
 73
     1
  0
TEXT
  5
14FD4
330
1F
100
AcDbEntity
  8
寸法線
100
AcDbText
 10
3152.960992024409
 20
1793.395834101175
 30
0.0
 40
25.0
  1
※　H型鋼（連結部）の穴開け位置は、切梁メーカー仕様による。
 11
3152.960992024409
 21
1793.395834101175
 31
0.0
100
AcDbText
 73
     1
  0
TEXT
  5
14FD5
330
1F
100
AcDbEntity
  8
寸法線
100
AcDbText
 10
3152.960992024409
 20
1693.395834101175
 30
0.0
 40
25.0
  1
　　により変更する場合がある。
 11
3152.960992024409
 21
1693.395834101175
 31
0.0
100
AcDbText
 73
     1
  0
TEXT
  5
14FD6
330
1F
100
AcDbEntity
  8
寸法線
100
AcDbText
 10
3152.960992024409
 20
1643.395834101175
 30
0.0
 40
25.0
  1
※　空洞金具部は鉄筋防錆剤塗装仕上げ。
 11
3152.960992024409
 21
1643.395834101175
 31
0.0
100
AcDbText
 73
     1
  0
TEXT
  5
14FD7
330
1F
100
AcDbEntity
  8
寸法線
100
AcDbText
 10
3152.960992024409
 20
1593.395834101175
 30
0.0
 40
25.0
  1
※　H型鋼（連結部）は赤さび塗装仕上げ。
 11
3152.960992024409
 21
1593.395834101175
 31
0.0
100
AcDbText
 73
     1
  0
DIMENSION
  5
15094
330
1F
100
AcDbEntity
  8
寸法線
100
AcDbDimension
280
     0
  2
*D43
 10
2650.000109267892
 20
499.9999628394903
 30
0.0
 11
2669.999997375684
 21
499.9999628394903
 31
0.0
 70
   160
 71
     5
 42
39.99977621558355
 73
     0
 74
     0
 75
     0
  3
STANDARD
100
AcDbAlignedDimension
 13
2689.999885483475
 23
575.0002337566847
 33
0.0
 14
2650.000109267892
 24
590.0004681846339
 34
0.0
 50
180.0
100
AcDbRotatedDimension
  0
VIEWPORT
  5
794
330
78D
100
AcDbEntity
 67
     1
  8
0
100
AcDbViewport
 10
215.5472135276886
 20
142.589248394887
 30
0.0
 40
568.5388333088702
 41
287.5796864262481
 68
     1
 69
     1
 12
215.5472135276886
 22
142.589248394887
 13
0.0
 23
0.0
 14
10.0
 24
10.0
 15
10.0
 25
10.0
 16
0.0
 26
0.0
 36
1.0
 17
0.0
 27
0.0
 37
0.0
 42
50.0
 43
0.0
 44
0.0
 45
287.5796864262481
 50
0.0
 51
0.0
 72
  1000
 90
    32800
  1

281
     0
 71
     1
 74
     0
110
0.0
120
0.0
130
0.0
111
1.0
121
0.0
131
0.0
112
0.0
122
1.0
132
0.0
 79
     0
146
0.0
170
     0
 61
     5
348
B3F7
292
     1
282
     1
141
0.0
142
0.0
 63
   250
421
  3355443
  0
VIEWPORT
  5
796
330
78D
100
AcDbEntity
 67
     1
  8
Defpoints
100
AcDbViewport
 10
204.099579334259
 20
142.5892481803894
 30
0.0
 40
408.1991586685178
 41
285.1784963607788
 68
     2
 69
     2
 12
2100.207206595808
 22
1486.804522350007
 13
0.0
 23
0.0
 14
10.0
 24
10.0
 15
10.0
 25
10.0
 16
0.0
 26
0.0
 36
1.0
 17
0.0
 27
0.0
 37
0.0
 42
50.0
 43
0.0
 44
0.0
 45
2851.784980677949
 50
0.0
 51
0.0
 72
  1000
 90
    32864
  1

281
     0
 71
     1
 74
     0
110
0.0
120
0.0
130
0.0
111
1.0
121
0.0
131
0.0
112
0.0
122
1.0
132
0.0
 79
     0
146
0.0
170
     0
 61
     5
348
B3F7
292
     1
282
     1
141
0.0
142
0.0
 63
   250
421
  3355443
  0
LINE
  5
9A2
330
78D
100
AcDbEntity
 67
     1
  8
図面枠
100
AcDbLine
 10
14.0996
 20
6.589249999999998
 30
0.0
 11
14.0996
 21
278.58925
 31
0.0
  0
LINE
  5
9A3
330
78D
100
AcDbEntity
 67
     1
  8
図面枠
100
AcDbLine
 10
404.0995999999998
 20
6.589249999999998
 30
0.0
 11
404.0995999999998
 21
278.58925
 31
0.0
  0
LINE
  5
9A4
330
78D
100
AcDbEntity
 67
     1
  8
図面枠
100
AcDbLine
 10
14.0996
 20
278.58925
 30
0.0
 11
404.0995999999998
 21
278.58925
 31
0.0
  0
LINE
  5
9A5
330
78D
100
AcDbEntity
 67
     1
  8
図面枠
100
AcDbLine
 10
14.0996
 20
6.589249999999998
 30
0.0
 11
404.0995999999998
 21
6.589249999999991
 31
0.0
  0
LINE
  5
B95C
330
78D
100
AcDbEntity
 67
     1
  8
図面枠
100
AcDbLine
 10
289.0996
 20
36.58925
 30
0.0
 11
404.0995999999998
 21
36.58925
 31
0.0
  0
LINE
  5
B95D
330
78D
100
AcDbEntity
 67
     1
  8
図面枠
100
AcDbLine
 10
289.0996
 20
30.58924999999999
 30
0.0
 11
404.0995999999998
 21
30.58924999999999
 31
0.0
  0
LINE
  5
B95E
330
78D
100
AcDbEntity
 67
     1
  8
図面枠
100
AcDbLine
 10
289.0996
 20
36.58930000000001
 30
0.0
 11
289.0996
 21
6.589249999999998
 31
0.0
  0
LINE
  5
B95F
330
78D
100
AcDbEntity
 67
     1
  8
図面枠
100
AcDbLine
 10
289.0996
 20
18.58924999999999
 30
0.0
 11
404.0995999999998
 21
18.58924999999999
 31
0.0
  0
LINE
  5
B960
330
78D
100
AcDbEntity
 67
     1
  8
図面枠
100
AcDbLine
 10
352.0996
 20
36.58930000000001
 30
0.0
 11
352.0996
 21
30.58924999999999
 31
0.0
  0
LINE
  5
B961
330
78D
100
AcDbEntity
 67
     1
  8
図面枠
100
AcDbLine
 10
383.0996
 20
36.58930000000001
 30
0.0
 11
383.0996
 21
30.58924999999999
 31
0.0
  0
LINE
  5
B962
330
78D
100
AcDbEntity
 67
     1
  8
図面枠
100
AcDbLine
 10
352.0996
 20
30.58924999999999
 30
0.0
 11
352.0996
 21
6.589249999999998
 31
0.0
  0
LINE
  5
B963
330
78D
100
AcDbEntity
 67
     1
  8
図面枠
100
AcDbLine
 10
312.0996
 20
36.58925
 30
0.0
 11
312.0996
 21
30.58924999999999
 31
0.0
  0
LINE
  5
B964
330
78D
100
AcDbEntity
 67
     1
  8
図面枠
100
AcDbLine
 10
304.0996
 20
24.58924999999999
 30
0.0
 11
349.0996
 21
24.58924999999999
 31
0.0
  0
TEXT
  5
B965
330
78D
100
AcDbEntity
 67
     1
  8
図面枠
100
AcDbText
 10
289.9746
 20
32.33925
 30
0.0
 40
2.5
  1
重量
 11
289.9746
 21
32.33925
 31
0.0
100
AcDbText
 73
     1
  0
TEXT
  5
B966
330
78D
100
AcDbEntity
 67
     1
  8
図面枠
100
AcDbText
 10
289.97465
 20
27.21424999999999
 30
0.0
 40
2.5
  1
名　称
 11
289.97465
 21
29.71424999999999
 31
0.0
100
AcDbText
 73
     3
  0
TEXT
  5
B967
330
78D
100
AcDbEntity
 67
     1
  8
図面枠
100
AcDbText
 10
318.5375983281357
 20
32.3393
 30
0.0
 40
2.5
  1
表面仕上げ
 41
0.8
 11
318.5375983281357
 21
32.3393
 31
0.0
100
AcDbText
 73
     1
  0
TEXT
  5
B968
330
78D
100
AcDbEntity
 67
     1
  8
図面枠
100
AcDbText
 10
352.9746
 20
32.33925
 30
0.0
 40
2.5
  1
日付
 11
352.9746
 21
32.33925
 31
0.0
100
AcDbText
 73
     1
  0
TEXT
  5
B969
330
78D
100
AcDbEntity
 67
     1
  8
図面枠
100
AcDbText
 10
383.9746
 20
32.33925
 30
0.0
 40
2.5
  1
尺度
 11
383.9746
 21
32.33925
 31
0.0
100
AcDbText
 73
     1
  0
TEXT
  5
B96A
330
78D
100
AcDbEntity
 67
     1
  8
図面枠
100
AcDbText
 10
313.5162666666667
 20
26.33925
 30
0.0
 40
2.5
  1
スルーサーＢ構造図
 72
     1
 11
326.5996
 21
26.33925
 31
0.0
100
AcDbText
 73
     1
  0
TEXT
  5
B96B
330
78D
100
AcDbEntity
 67
     1
  8
図面枠
100
AcDbText
 10
317.6611157480315
 20
20.33924999999999
 30
0.0
 40
2.5
  1
切り梁H-400
 72
     1
 11
326.5996
 21
22.83924999999999
 31
0.0
100
AcDbText
 73
     3
  0
TEXT
  5
B96C
330
78D
100
AcDbEntity
 67
     1
  8
図面枠
100
AcDbText
 10
366.5162666666667
 20
8.339249999999998
 30
0.0
 40
2.5
  1
Ｈ４０－Ｗ１４０
 72
     1
 11
378.0996
 21
8.339249999999998
 31
0.0
100
AcDbText
 73
     1
  0
TEXT
  5
B96D
330
78D
100
AcDbEntity
 67
     1
  8
図面枠
100
AcDbText
 10
300.3079
 20
32.33925
 30
0.0
 40
2.5
  1
462kg
 11
300.3079
 21
32.33925
 31
0.0
100
AcDbText
 73
     1
  0
TEXT
  5
B96E
330
78D
100
AcDbEntity
 67
     1
  8
図面枠
100
AcDbText
 10
333.8708983281357
 20
32.3393
 30
0.0
 40
2.5
  1
鉄筋防錆剤
 41
0.8
 11
333.8708983281357
 21
32.3393
 31
0.0
100
AcDbText
 73
     1
  0
TEXT
  5
B96F
330
78D
100
AcDbEntity
 67
     1
  8
図面枠
100
AcDbText
 10
394.3079
 20
32.33925
 30
0.0
 40
2.5
  1
1/10
 11
394.3079
 21
32.33925
 31
0.0
100
AcDbText
 73
     1
  0
TEXT
  5
B970
330
78D
100
AcDbEntity
 67
     1
  8
図面枠
100
AcDbText
 10
300.0162781896648
 20
10.58922126233958
 30
0.0
 40
4.0
  1
三研テクノクリエイト
 11
300.0162781896648
 21
12.58922126233958
 31
0.0
100
AcDbText
 73
     2
  0
TEXT
  5
B971
330
78D
100
AcDbEntity
 67
     1
  8
図面枠
100
AcDbText
 10
294.2496115229981
 20
12.83922126233958
 30
0.0
 40
2.0
  1
株式
 72
     2
 11
298.5162781896648
 21
12.83922126233958
 31
0.0
100
AcDbText
 73
     1
  0
TEXT
  5
B972
330
78D
100
AcDbEntity
 67
     1
  8
図面枠
100
AcDbText
 10
294.2496115229981
 20
10.33922126233958
 30
0.0
 40
2.0
  1
会社
 72
     2
 11
298.5162781896648
 21
12.33922126233958
 31
0.0
100
AcDbText
 73
     3
  0
TEXT
  5
B974
330
78D
100
AcDbEntity
 67
     1
  8
図面枠
100
AcDbText
 10
352.97465
 20
27.21425000000002
 30
0.0
 40
2.5
  1
摘　要
 11
352.97465
 21
29.71425000000002
 31
0.0
100
AcDbText
 73
     3
  0
TEXT
  5
B975
330
78D
100
AcDbEntity
 67
     1
  8
図面枠
100
AcDbText
 10
352.9746
 20
15.21425000000001
 30
0.0
 40
2.5
  1
型　式
 11
352.9746
 21
17.71425000000001
 31
0.0
100
AcDbText
 73
     3
  0
LINE
  5
B977
330
78D
100
AcDbEntity
 67
     1
  8
図面枠
100
AcDbLine
 10
234.0996
 20
15.58925000000002
 30
0.0
 11
289.0996
 21
15.58925000000002
 31
0.0
  0
LINE
  5
B978
330
78D
100
AcDbEntity
 67
     1
  8
図面枠
100
AcDbLine
 10
234.0996
 20
15.58925000000002
 30
0.0
 11
234.0996
 21
6.589249999999998
 31
0.0
  0
LINE
  5
B97A
330
78D
100
AcDbEntity
 67
     1
  8
図面枠
100
AcDbLine
 10
289.0996
 20
15.58925000000002
 30
0.0
 11
289.0996
 21
6.589249999999998
 31
0.0
  0
LINE
  5
B97B
330
78D
100
AcDbEntity
 67
     1
  8
図面枠
100
AcDbLine
 10
234.0996
 20
6.589249999999998
 30
0.0
 11
289.0996
 21
6.589249999999998
 31
0.0
  0
TEXT
  5
BAEB
330
78D
100
AcDbEntity
 67
     1
  8
図面枠
100
AcDbText
 10
363.3079
 20
32.33919999999999
 30
0.0
 40
2.5
  1
2024.01.01
 11
363.3079
 21
32.33919999999999
 31
0.0
100
AcDbText
 73
     1
  0
TEXT
  5
BAEC
330
78D
100
AcDbEntity
 67
     1
  8
図面枠
100
AcDbText
 10
364.7662666666667
 20
20.86235908820162
 30
0.0
 40
2.5
  1
Ｈ４０－Ｗシリーズ
 72
     1
 11
378.0996
 21
20.86235908820162
 31
0.0
100
AcDbText
 73
     1
  0
TEXT
  5
128EB
330
78D
100
AcDbEntity
 67
     1
  8
図面枠
100
AcDbText
 10
235.3315942762782
 20
8.887940134352936
 30
0.0
 40
4.0
  1
スクラップ重量　324kg
 72
     1
 11
261.5040816496935
 21
8.887940134352936
 31
0.0
100
AcDbText
  0
ENDSEC
  0
SECTION
  2
OBJECTS
  0
DICTIONARY
  5
C
330
0
100
AcDbDictionary
281
     1
  3
ACAD_CIP_PREVIOUS_PRODUCT_INFO
350
12A33
  3
ACAD_COLOR
350
6B
  3
ACAD_DETAILVIEWSTYLE
350
12A2D
  3
ACAD_GROUP
350
D
  3
ACAD_LAYOUT
350
1A
  3
ACAD_MATERIAL
350
6A
  3
ACAD_MLEADERSTYLE
350
B414
  3
ACAD_MLINESTYLE
350
17
  3
ACAD_PLOTSETTINGS
350
19
  3
ACAD_PLOTSTYLENAME
350
E
  3
ACAD_SCALELIST
350
B402
  3
ACAD_SECTIONVIEWSTYLE
350
12A2B
  3
ACAD_TABLESTYLE
350
7E
  3
ACAD_VISUALSTYLE
350
B3F1
  3
AcadDim
350
89BC
  3
ACDB_RECOMPOSE_DATA
350
152EA
  3
ACDBHEADERROUNDTRIPXREC
350
BAAD
  3
AcDbVariableDictionary
350
5E
  3
AcDsDecomposeData
350
152F0
  3
AEC_PROPERTY_SET_DEFS
350
B546
  0
DICTIONARY
  5
B651
330
8
100
AcDbDictionary
280
     1
281
     1
  0
DICTIONARY
  5
11D
330
2
100
AcDbDictionary
280
     1
281
     1
  3
ACAD_LAYERFILTERS
360
98AE
  3
ACAD_LAYERSTATES
360
11E
  3
ACLYDICTIONARY
360
98AD
  0
DICTIONARY
  5
B637
330
10
100
AcDbDictionary
280
     1
281
     1
  3
ADSK_XREC_LAYER_RECONCILED
360
B638
  0
DICTIONARY
  5
B63B
330
1BF
100
AcDbDictionary
280
     1
281
     1
  3
ADSK_XREC_LAYER_RECONCILED
360
B63C
  0
DICTIONARY
  5
B63F
330
1C1
100
AcDbDictionary
280
     1
281
     1
  3
ADSK_XREC_LAYER_RECONCILED
360
B640
  0
DICTIONARY
  5
B643
330
1C3
100
AcDbDictionary
280
     1
281
     1
  3
ADSK_XREC_LAYER_RECONCILED
360
B644
  0
DICTIONARY
  5
B645
330
1C4
100
AcDbDictionary
280
     1
281
     1
  3
ADSK_XREC_LAYER_RECONCILED
360
B646
  0
DICTIONARY
  5
B647
330
1C5
100
AcDbDictionary
280
     1
281
     1
  3
ADSK_XREC_LAYER_RECONCILED
360
B648
  0
DICTIONARY
  5
B649
330
82E
100
AcDbDictionary
280
     1
281
     1
  3
ADSK_XREC_LAYER_RECONCILED
360
B64A
  0
DICTIONARY
  5
5C91
330
1F
100
AcDbDictionary
280
     1
281
     1
  3
ACAD_SORTENTS
360
5C92
  0
DICTIONARY
  5
A1A8
330
78D
100
AcDbDictionary
280
     1
281
     1
  3
ACAD_SORTENTS
360
A1A9
  0
DICTIONARY
  5
B956
330
C08
100
AcDbDictionary
280
     1
281
     1
  3
ACAD_SORTENTS
360
BAA0
  0
XRECORD
  5
12A33
102
{ACAD_REACTORS
330
C
102
}
330
C
100
AcDbXrecord
280
     1
300
ACD
300
2023
300

  0
DICTIONARY
  5
6B
102
{ACAD_REACTORS
330
C
102
}
330
C
100
AcDbDictionary
281
     1
  0
DICTIONARY
  5
12A2D
102
{ACAD_REACTORS
330
C
102
}
330
C
100
AcDbDictionary
281
     1
  3
Metric50
350
12A2E
  0
DICTIONARY
  5
D
102
{ACAD_REACTORS
330
C
102
}
330
C
100
AcDbDictionary
281
     1
  0
DICTIONARY
  5
1A
102
{ACAD_REACTORS
330
C
102
}
330
C
100
AcDbDictionary
281
     1
  3
Model
350
22
  3
レイアウト1
350
78E
  0
DICTIONARY
  5
6A
102
{ACAD_REACTORS
330
C
102
}
330
C
100
AcDbDictionary
281
     1
  3
ByBlock
350
B3E1
  3
ByLayer
350
B3D9
  3
Global
350
B3E9
  0
DICTIONARY
  5
B414
102
{ACAD_REACTORS
330
C
102
}
330
C
100
AcDbDictionary
281
     1
  3
Standard
350
B415
  0
DICTIONARY
  5
17
102
{ACAD_REACTORS
330
C
102
}
330
C
100
AcDbDictionary
281
     1
  3
Standard
350
18
  0
DICTIONARY
  5
19
102
{ACAD_REACTORS
330
C
102
}
330
C
100
AcDbDictionary
281
     1
  0
ACDBDICTIONARYWDFLT
  5
E
102
{ACAD_REACTORS
330
C
102
}
330
C
100
AcDbDictionary
281
     1
  3
Normal
350
F
100
AcDbDictionaryWithDefault
340
F
  0
DICTIONARY
  5
B402
102
{ACAD_REACTORS
330
C
102
}
330
C
100
AcDbDictionary
281
     1
  3
A0
350
B403
  3
A1
350
B404
  3
A2
350
B405
  3
A3
350
B406
  3
A4
350
B407
  3
A5
350
B408
  3
A6
350
B409
  3
A7
350
B40A
  3
A8
350
B40B
  3
A9
350
B40C
  3
B0
350
B40D
  3
B1
350
B40E
  3
B2
350
B40F
  3
B3
350
B410
  3
B4
350
B411
  3
B5
350
B412
  3
B6
350
B413
  0
DICTIONARY
  5
12A2B
102
{ACAD_REACTORS
330
C
102
}
330
C
100
AcDbDictionary
281
     1
  3
Metric50
350
12A2C
  0
DICTIONARY
  5
7E
102
{ACAD_REACTORS
330
C
102
}
330
C
100
AcDbDictionary
281
     1
  3
Standard
350
7F
  0
DICTIONARY
  5
B3F1
102
{ACAD_REACTORS
330
C
102
}
330
C
100
AcDbDictionary
281
     1
  3
2dWireframe
350
B3F7
  3
3D Hidden
350
B3F9
  3
3dWireframe
350
B3F8
  3
Basic
350
B3F6
  3
Brighten
350
B3FD
  3
ColorChange
350
B401
  3
Conceptual
350
B3FA
  3
Dim
350
B3FC
  3
EdgeColorOff
350
12A2A
  3
Facepattern
350
B400
  3
Flat
350
B3F2
  3
FlatWithEdges
350
B3F3
  3
Gouraud
350
B3F4
  3
GouraudWithEdges
350
B3F5
  3
Hidden
350
12A22
  3
JitterOff
350
12A28
  3
Linepattern
350
B3FF
  3
OverhangOff
350
12A29
  3
Realistic
350
B3FB
  3
Shaded
350
12A27
  3
Shaded with edges
350
12A26
  3
Shades of Gray
350
12A23
  3
Sketchy
350
12A24
  3
Thicken
350
B3FE
  3
Wireframe
350
12A21
  3
X-Ray
350
12A25
  0
XRECORD
  5
89BC
102
{ACAD_REACTORS
330
C
102
}
330
C
100
AcDbXrecord
280
     1
 90
   990106
  3

 60
     0
 61
     0
 62
     1
 63
     3
 64
     0
 65
     0
 66
     0
 67
     3
 68
     1
 69
     0
 70
     0
 71
     0
 72
     0
 40
0.0
170
     0
  0
XRECORD
  5
152EA
102
{ACAD_REACTORS
330
C
102
}
330
C
100
AcDbXrecord
280
     1
 90
        1
330
7F
  0
DICTIONARY
  5
BAAD
102
{ACAD_REACTORS
330
C
102
}
330
C
100
AcDbDictionary
281
     1
  0
DICTIONARY
  5
5E
102
{ACAD_REACTORS
330
C
102
}
330
C
100
AcDbDictionary
281
     1
  3
CANNOSCALE
350
B65F
  3
CMLEADERSTYLE
350
B65E
  3
CTABLESTYLE
350
84
  3
CVIEWDETAILSTYLE
350
14A6A
  3
CVIEWSECTIONSTYLE
350
14A6B
  3
DIMASSOC
350
5F
  3
HIDETEXT
350
63
  3
INDEXCTL
350
B661
  3
LAYEREVAL
350
14A6E
  3
LAYERNOTIFY
350
14A6F
  3
LIGHTINGUNITS
350
14A6D
  3
MSLTSCALE
350
14A6C
  3
PROJECTNAME
350
B981
  3
SORTENTS
350
B660
  0
DICTIONARY
  5
152F0
102
{ACAD_REACTORS
330
C
102
}
330
C
100
AcDbDictionary
281
     1
  3
AcDsRecords
350
152F2
  3
AcDsSchemas
350
152F1
1001
ACAD
1070
     2
  0
DICTIONARY
  5
B546
102
{ACAD_REACTORS
330
C
102
}
330
C
100
AcDbDictionary
281
     1
  0
DICTIONARY
  5
98AE
102
{ACAD_REACTORS
330
11D
102
}
330
11D
100
AcDbDictionary
281
     1
  0
DICTIONARY
  5
11E
102
{ACAD_REACTORS
330
11D
102
}
330
11D
100
AcDbDictionary
281
     1
  0
DICTIONARY
  5
98AD
102
{ACAD_REACTORS
330
11D
102
}
330
11D
100
AcDbDictionary
281
     1
1001
ACAD
1000
<All
  0
XRECORD
  5
B638
102
{ACAD_REACTORS
330
B637
102
}
330
B637
100
AcDbXrecord
280
     1
290
     1
  0
XRECORD
  5
B63C
102
{ACAD_REACTORS
330
B63B
102
}
330
B63B
100
AcDbXrecord
280
     1
290
     1
  0
XRECORD
  5
B640
102
{ACAD_REACTORS
330
B63F
102
}
330
B63F
100
AcDbXrecord
280
     1
290
     1
  0
XRECORD
  5
B644
102
{ACAD_REACTORS
330
B643
102
}
330
B643
100
AcDbXrecord
280
     1
290
     1
  0
XRECORD
  5
B646
102
{ACAD_REACTORS
330
B645
102
}
330
B645
100
AcDbXrecord
280
     1
290
     1
  0
XRECORD
  5
B648
102
{ACAD_REACTORS
330
B647
102
}
330
B647
100
AcDbXrecord
280
     1
290
     1
  0
XRECORD
  5
B64A
102
{ACAD_REACTORS
330
B649
102
}
330
B649
100
AcDbXrecord
280
     1
290
     1
  0
SORTENTSTABLE
  5
5C92
102
{ACAD_REACTORS
330
5C91
102
}
330
5C91
100
AcDbSortentsTable
330
1F
  0
SORTENTSTABLE
  5
A1A9
102
{ACAD_REACTORS
330
A1A8
102
}
330
A1A8
100
AcDbSortentsTable
330
78D
331
794
  5
796
331
796
  5
9A2
331
9A2
  5
9A3
331
9A3
  5
9A4
331
9A4
  5
9A5
331
9A5
  5
9A6
  0
SORTENTSTABLE
  5
BAA0
102
{ACAD_REACTORS
330
B956
102
}
330
B956
100
AcDbSortentsTable
330
C08
  0
ACDBDETAILVIEWSTYLE
  5
12A2E
102
{ACAD_XDICTIONARY
360
152F5
102
}
102
{ACAD_REACTORS
330
12A2D
102
}
330
12A2D
100
AcDbModelDocViewStyle
 70
     0
  3
Metric50
290
     0
100
AcDbDetailViewStyle
 70
     0
 71
     0
 90
        3
 71
     1
340
11
 62
   256
 40
5.0
340
0
 62
   256
 40
5.0
300

 40
0.0
280
     1
 71
     2
340
16
 90
       25
 62
   256
 71
     3
340
11
 62
   256
 40
5.0
 90
        0
 40
15.0
 90
        1
300
%<\AcVar ViewDetailId>% (%<\AcVar ViewScale \f "%sn">%)
 71
     4
340
16
 90
       25
 62
   256
340
16
 90
       25
 62
   256
280
     0
  0
LAYOUT
  5
22
102
{ACAD_REACTORS
330
1A
102
}
330
1A
100
AcDbPlotSettings
  1

  2
none_device
  4
ISO_A4_(210.00_x_297.00_MM)
  6

 40
7.5
 41
20.0
 42
7.5
 43
20.0
 44
210.0
 45
297.0
 46
11.54999923706054
 47
-13.65000009536743
 48
0.0
 49
0.0
140
0.0
141
0.0
142
1.0
143
8.704084754739808
 70
 11952
 72
     1
 73
     0
 74
     0
  7

 75
     0
147
0.1148885871608098
 76
     0
 77
     2
 78
   300
148
0.0
149
0.0
100
AcDbLayout
  1
Model
 70
     1
 71
     0
 10
0.0
 20
0.0
 11
12.0
 21
9.0
 12
0.0
 22
0.0
 32
0.0
 14
0.0
 24
0.0
 34
0.0
 15
0.0
 25
0.0
 35
0.0
146
0.0
 13
0.0
 23
0.0
 33
0.0
 16
1.0
 26
0.0
 36
0.0
 17
0.0
 27
1.0
 37
0.0
 76
     0
330
1F
331
BAAB
1001
ACAD_PSEXT
1000
None
1000
None
1000
Not applicable
1000
The layout will not be plotted unless a new plotter configuration name is selected.
1070
     0
  0
LAYOUT
  5
78E
102
{ACAD_XDICTIONARY
360
79B
102
}
102
{ACAD_REACTORS
330
1A
102
}
330
1A
100
AcDbPlotSettings
  1

  2
RICOH MP C2503 JPN RPCS V2
  4
A3
  6

 40
5.873749732971191
 41
5.873748779296875
 42
5.873748779296875
 43
5.873748779296875
 44
296.9259948730469
 45
419.9466552734374
 46
0.0
 47
0.0
 48
0.0
 49
0.0
140
0.0
141
0.0
142
1.0
143
1.0
 70
   688
 72
     1
 73
     1
 74
     5
  7
monochrome.ctb
 75
    16
147
1.0
 76
     1
 77
     2
 78
   300
148
0.0
149
0.0
100
AcDbLayout
  1
レイアウト1
 70
     1
 71
     1
 10
-5.873748779296875
 20
-5.873749732971191
 11
414.0729064941406
 21
291.0522451400757
 12
0.0
 22
0.0
 32
0.0
 14
0.0000000000000853
 24
0.0
 34
0.0
 15
408.1991586685179
 25
285.1784963607788
 35
0.0
146
0.0
 13
0.0
 23
0.0
 33
0.0
 16
1.0
 26
0.0
 36
0.0
 17
0.0
 27
1.0
 37
0.0
 76
     0
330
78D
331
794
1001
ACAD_PSEXT
1000
RICOH MP C2503 JPN RPCS V2
1000
RICOH MP C2503 JPN RPCS V2
1000
IP_192.168.24.100
1000
RPCS Driver (For Windows)
1070
     0
  0
MATERIAL
  5
B3E1
102
{ACAD_XDICTIONARY
360
B3E2
102
}
102
{ACAD_REACTORS
330
6A
102
}
330
6A
100
AcDbMaterial
  1
ByBlock
 72
     0
 43
0.0008202099737533
 43
0.0
 43
0.0
 43
0.0
 43
0.0
 43
0.0008202099737533
 43
0.0
 43
0.0
 43
0.0
 43
0.0
 43
1.0
 43
0.0
 43
0.0
 43
0.0
 43
0.0
 43
1.0
 77
     0
 47
0.0008202099737533
 47
0.0
 47
0.0
 47
0.0
 47
0.0
 47
0.0008202099737533
 47
0.0
 47
0.0
 47
0.0
 47
0.0
 47
1.0
 47
0.0
 47
0.0
 47
0.0
 47
0.0
 47
1.0
171
     0
 49
0.0008202099737533
 49
0.0
 49
0.0
 49
0.0
 49
0.0
 49
0.0008202099737533
 49
0.0
 49
0.0
 49
0.0
 49
0.0
 49
1.0
 49
0.0
 49
0.0
 49
0.0
 49
0.0
 49
1.0
175
     0
142
0.0008202099737533
142
0.0
142
0.0
142
0.0
142
0.0
142
0.0008202099737533
142
0.0
142
0.0
142
0.0
142
0.0
142
1.0
142
0.0
142
0.0
142
0.0
142
0.0
142
1.0
179
     0
144
0.0008202099737533
144
0.0
144
0.0
144
0.0
144
0.0
144
0.0008202099737533
144
0.0
144
0.0
144
0.0
144
0.0
144
1.0
144
0.0
144
0.0
144
0.0
144
0.0
144
1.0
147
0.0008202099737533
147
0.0
147
0.0
147
0.0
147
0.0
147
0.0008202099737533
147
0.0
147
0.0
147
0.0
147
0.0
147
1.0
147
0.0
147
0.0
147
0.0
147
0.0
147
1.0
  0
MATERIAL
  5
B3D9
102
{ACAD_XDICTIONARY
360
B3DA
102
}
102
{ACAD_REACTORS
330
6A
102
}
330
6A
100
AcDbMaterial
  1
ByLayer
 72
     0
 43
0.0008202099737533
 43
0.0
 43
0.0
 43
0.0
 43
0.0
 43
0.0008202099737533
 43
0.0
 43
0.0
 43
0.0
 43
0.0
 43
1.0
 43
0.0
 43
0.0
 43
0.0
 43
0.0
 43
1.0
 77
     0
 47
0.0008202099737533
 47
0.0
 47
0.0
 47
0.0
 47
0.0
 47
0.0008202099737533
 47
0.0
 47
0.0
 47
0.0
 47
0.0
 47
1.0
 47
0.0
 47
0.0
 47
0.0
 47
0.0
 47
1.0
171
     0
 49
0.0008202099737533
 49
0.0
 49
0.0
 49
0.0
 49
0.0
 49
0.0008202099737533
 49
0.0
 49
0.0
 49
0.0
 49
0.0
 49
1.0
 49
0.0
 49
0.0
 49
0.0
 49
0.0
 49
1.0
175
     0
142
0.0008202099737533
142
0.0
142
0.0
142
0.0
142
0.0
142
0.0008202099737533
142
0.0
142
0.0
142
0.0
142
0.0
142
1.0
142
0.0
142
0.0
142
0.0
142
0.0
142
1.0
179
     0
144
0.0008202099737533
144
0.0
144
0.0
144
0.0
144
0.0
144
0.0008202099737533
144
0.0
144
0.0
144
0.0
144
0.0
144
1.0
144
0.0
144
0.0
144
0.0
144
0.0
144
1.0
147
0.0008202099737533
147
0.0
147
0.0
147
0.0
147
0.0
147
0.0008202099737533
147
0.0
147
0.0
147
0.0
147
0.0
147
1.0
147
0.0
147
0.0
147
0.0
147
0.0
147
1.0
  0
MATERIAL
  5
B3E9
102
{ACAD_XDICTIONARY
360
B3EA
102
}
102
{ACAD_REACTORS
330
6A
102
}
330
6A
100
AcDbMaterial
  1
Global
 72
     0
 43
0.0008202099737533
 43
0.0
 43
0.0
 43
0.0
 43
0.0
 43
0.0008202099737533
 43
0.0
 43
0.0
 43
0.0
 43
0.0
 43
1.0
 43
0.0
 43
0.0
 43
0.0
 43
0.0
 43
1.0
 77
     0
 47
0.0008202099737533
 47
0.0
 47
0.0
 47
0.0
 47
0.0
 47
0.0008202099737533
 47
0.0
 47
0.0
 47
0.0
 47
0.0
 47
1.0
 47
0.0
 47
0.0
 47
0.0
 47
0.0
 47
1.0
171
     0
 49
0.0008202099737533
 49
0.0
 49
0.0
 49
0.0
 49
0.0
 49
0.0008202099737533
 49
0.0
 49
0.0
 49
0.0
 49
0.0
 49
1.0
 49
0.0
 49
0.0
 49
0.0
 49
0.0
 49
1.0
175
     0
142
0.0008202099737533
142
0.0
142
0.0
142
0.0
142
0.0
142
0.0008202099737533
142
0.0
142
0.0
142
0.0
142
0.0
142
1.0
142
0.0
142
0.0
142
0.0
142
0.0
142
1.0
179
     0
144
0.0008202099737533
144
0.0
144
0.0
144
0.0
144
0.0
144
0.0008202099737533
144
0.0
144
0.0
144
0.0
144
0.0
144
1.0
144
0.0
144
0.0
144
0.0
144
0.0
144
1.0
147
0.0008202099737533
147
0.0
147
0.0
147
0.0
147
0.0
147
0.0008202099737533
147
0.0
147
0.0
147
0.0
147
0.0
147
1.0
147
0.0
147
0.0
147
0.0
147
0.0
147
1.0
  0
MLEADERSTYLE
  5
B415
102
{ACAD_REACTORS
330
B414
102
}
330
B414
100
AcDbMLeaderStyle
179
     2
170
     2
171
     1
172
     0
 90
        2
 40
0.0
 41
0.0
173
     1
 91
-1056964608
340
14
 92
       -2
290
     1
 42
2.0
291
     1
 43
0.36
  3
Standard
 44
4.0
300

342
11
174
     1
178
     6
175
     1
176
     0
 93
-1056964608
 45
4.0
292
     0
297
     0
 46
4.0
 94
-1056964608
 47
1.0
 49
1.0
140
1.0
293
     1
141
0.0
294
     1
177
     0
142
1.0
295
     0
296
     0
143
0.125
271
     0
272
     9
273
     9
298
     0
1001
ACAD
1000
AcRTDxfName
1000
MLEADERSTYLE
1000
AcRTDxfName
1000
MLEADERSTYLE
1000
AcRTDxfName
1000
MLEADERSTYLE
  0
MLINESTYLE
  5
18
102
{ACAD_REACTORS
330
17
102
}
330
17
100
AcDbMlineStyle
  2
STANDARD
 70
     0
  3

 62
   256
 51
90.0
 52
90.0
 71
     2
 49
0.5
 62
   256
  6
BYLAYER
 49
-0.5
 62
   256
  6
BYLAYER
  0
ACDBPLACEHOLDER
  5
F
102
{ACAD_REACTORS
330
E
102
}
330
E
  0
SCALE
  5
B403
102
{ACAD_REACTORS
330
B402
102
}
330
B402
100
AcDbScale
 70
     0
300
1:1
140
1.0
141
1.0
290
     1
1001
ACAD
1000
AcRTDxfName
1000
SCALE
1000
AcRTDxfName
1000
SCALE
1000
AcRTDxfName
1000
SCALE
  0
SCALE
  5
B404
102
{ACAD_REACTORS
330
B402
102
}
330
B402
100
AcDbScale
 70
     0
300
1:2
140
1.0
141
2.0
290
     0
1001
ACAD
1000
AcRTDxfName
1000
SCALE
1000
AcRTDxfName
1000
SCALE
1000
AcRTDxfName
1000
SCALE
  0
SCALE
  5
B405
102
{ACAD_REACTORS
330
B402
102
}
330
B402
100
AcDbScale
 70
     0
300
1:4
140
1.0
141
4.0
290
     0
1001
ACAD
1000
AcRTDxfName
1000
SCALE
1000
AcRTDxfName
1000
SCALE
1000
AcRTDxfName
1000
SCALE
  0
SCALE
  5
B406
102
{ACAD_REACTORS
330
B402
102
}
330
B402
100
AcDbScale
 70
     0
300
1:5
140
1.0
141
5.0
290
     0
1001
ACAD
1000
AcRTDxfName
1000
SCALE
1000
AcRTDxfName
1000
SCALE
1000
AcRTDxfName
1000
SCALE
  0
SCALE
  5
B407
102
{ACAD_REACTORS
330
B402
102
}
330
B402
100
AcDbScale
 70
     0
300
1:8
140
1.0
141
8.0
290
     0
1001
ACAD
1000
AcRTDxfName
1000
SCALE
1000
AcRTDxfName
1000
SCALE
1000
AcRTDxfName
1000
SCALE
  0
SCALE
  5
B408
102
{ACAD_REACTORS
330
B402
102
}
330
B402
100
AcDbScale
 70
     0
300
1:10
140
1.0
141
10.0
290
     0
1001
ACAD
1000
AcRTDxfName
1000
SCALE
1000
AcRTDxfName
1000
SCALE
1000
AcRTDxfName
1000
SCALE
  0
SCALE
  5
B409
102
{ACAD_REACTORS
330
B402
102
}
330
B402
100
AcDbScale
 70
     0
300
1:16
140
1.0
141
16.0
290
     0
1001
ACAD
1000
AcRTDxfName
1000
SCALE
1000
AcRTDxfName
1000
SCALE
1000
AcRTDxfName
1000
SCALE
  0
SCALE
  5
B40A
102
{ACAD_REACTORS
330
B402
102
}
330
B402
100
AcDbScale
 70
     0
300
1:20
140
1.0
141
20.0
290
     0
1001
ACAD
1000
AcRTDxfName
1000
SCALE
1000
AcRTDxfName
1000
SCALE
1000
AcRTDxfName
1000
SCALE
  0
SCALE
  5
B40B
102
{ACAD_REACTORS
330
B402
102
}
330
B402
100
AcDbScale
 70
     0
300
1:30
140
1.0
141
30.0
290
     0
1001
ACAD
1000
AcRTDxfName
1000
SCALE
1000
AcRTDxfName
1000
SCALE
1000
AcRTDxfName
1000
SCALE
  0
SCALE
  5
B40C
102
{ACAD_REACTORS
330
B402
102
}
330
B402
100
AcDbScale
 70
     0
300
1:40
140
1.0
141
40.0
290
     0
1001
ACAD
1000
AcRTDxfName
1000
SCALE
1000
AcRTDxfName
1000
SCALE
1000
AcRTDxfName
1000
SCALE
  0
SCALE
  5
B40D
102
{ACAD_REACTORS
330
B402
102
}
330
B402
100
AcDbScale
 70
     0
300
1:50
140
1.0
141
50.0
290
     0
1001
ACAD
1000
AcRTDxfName
1000
SCALE
1000
AcRTDxfName
1000
SCALE
1000
AcRTDxfName
1000
SCALE
  0
SCALE
  5
B40E
102
{ACAD_REACTORS
330
B402
102
}
330
B402
100
AcDbScale
 70
     0
300
1:100
140
1.0
141
100.0
290
     0
1001
ACAD
1000
AcRTDxfName
1000
SCALE
1000
AcRTDxfName
1000
SCALE
1000
AcRTDxfName
1000
SCALE
  0
SCALE
  5
B40F
102
{ACAD_REACTORS
330
B402
102
}
330
B402
100
AcDbScale
 70
     0
300
2:1
140
2.0
141
1.0
290
     0
1001
ACAD
1000
AcRTDxfName
1000
SCALE
1000
AcRTDxfName
1000
SCALE
1000
AcRTDxfName
1000
SCALE
  0
SCALE
  5
B410
102
{ACAD_REACTORS
330
B402
102
}
330
B402
100
AcDbScale
 70
     0
300
4:1
140
4.0
141
1.0
290
     0
1001
ACAD
1000
AcRTDxfName
1000
SCALE
1000
AcRTDxfName
1000
SCALE
1000
AcRTDxfName
1000
SCALE
  0
SCALE
  5
B411
102
{ACAD_REACTORS
330
B402
102
}
330
B402
100
AcDbScale
 70
     0
300
8:1
140
8.0
141
1.0
290
     0
1001
ACAD
1000
AcRTDxfName
1000
SCALE
1000
AcRTDxfName
1000
SCALE
1000
AcRTDxfName
1000
SCALE
  0
SCALE
  5
B412
102
{ACAD_REACTORS
330
B402
102
}
330
B402
100
AcDbScale
 70
     0
300
10:1
140
10.0
141
1.0
290
     0
1001
ACAD
1000
AcRTDxfName
1000
SCALE
1000
AcRTDxfName
1000
SCALE
1000
AcRTDxfName
1000
SCALE
  0
SCALE
  5
B413
102
{ACAD_REACTORS
330
B402
102
}
330
B402
100
AcDbScale
 70
     0
300
100:1
140
100.0
141
1.0
290
     0
1001
ACAD
1000
AcRTDxfName
1000
SCALE
1000
AcRTDxfName
1000
SCALE
1000
AcRTDxfName
1000
SCALE
  0
ACDBSECTIONVIEWSTYLE
  5
12A2C
102
{ACAD_XDICTIONARY
360
152F3
102
}
102
{ACAD_REACTORS
330
12A2B
102
}
330
12A2B
100
AcDbModelDocViewStyle
 70
     0
  3
Metric50
290
     0
100
AcDbSectionViewStyle
 70
     0
 71
     0
 90
      102
 71
     1
340
11
 62
   256
 40
5.0
340
0
340
0
 62
   256
 40
5.0
300
I, O, Q, S, X, Z
 40
10.0
 90
        0
 40
2.5
 90
        0
 71
     2
340
16
 90
       25
 62
   256
340
16
 90
       50
 62
   256
 40
5.0
 40
2.5
 40
5.0
 71
     3
340
11
 62
   256
 40
5.0
 90
        0
 40
15.0
 90
        1
300
%<\AcVar ViewSectionStartId>%-%<\AcVar ViewSectionEndId>% (%<\AcVar ViewScale \f "%sn">%)
 71
     4
 62
   256
 62
   257
300
ANSI31
 40
1.0
 90
        0
290
     0
290
     0
 90
        6
 40
0.0
 40
1.570796326794896
 40
0.2617993877991494
 40
1.308996938995747
 40
-0.2617993877991494
 40
1.832595714594046
  0
TABLESTYLE
  5
7F
102
{ACAD_XDICTIONARY
360
B64B
102
}
102
{ACAD_REACTORS
330
7E
102
}
330
7E
100
AcDbTableStyle
280
     0
  3
Standard
 70
     0
 71
     0
 40
1.5
 41
1.5
280
     0
281
     0
  7
Standard
140
4.5
170
     2
 62
     0
 63
     7
283
     0
 90
        4
 91
        0
  1

274
    -2
284
     1
 64
     0
275
    -2
285
     1
 65
     0
276
    -2
286
     1
 66
     0
277
    -2
287
     1
 67
     0
278
    -2
288
     1
 68
     0
279
    -2
289
     1
 69
     0
  7
Standard
140
6.0
170
     5
 62
     0
 63
     7
283
     0
 90
        4
 91
        0
  1

274
    -2
284
     1
 64
     0
275
    -2
285
     1
 65
     0
276
    -2
286
     1
 66
     0
277
    -2
287
     1
 67
     0
278
    -2
288
     1
 68
     0
279
    -2
289
     1
 69
     0
  7
Standard
140
4.5
170
     5
 62
     0
 63
     7
283
     0
 90
        4
 91
        0
  1

274
    -2
284
     1
 64
     0
275
    -2
285
     1
 65
     0
276
    -2
286
     1
 66
     0
277
    -2
287
     1
 67
     0
278
    -2
288
     1
 68
     0
279
    -2
289
     1
 69
     0
  0
VISUALSTYLE
  5
B3F7
102
{ACAD_REACTORS
330
B3F1
102
}
330
B3F1
100
AcDbVisualStyle
  2
2dWireframe
 70
     4
177
     3
291
     0
 70
    58
 90
        0
176
     1
 90
        2
176
     1
 90
        0
176
     1
 90
        0
176
     1
 40
0.6
176
     1
 40
30.0
176
     1
 62
     7
176
     1
 90
        1
176
     1
 90
        4
176
     1
 62
     7
176
     1
 62
   257
176
     1
 90
        1
176
     1
 90
        1
176
     1
 40
1.0
176
     1
 90
        0
176
     1
 62
   257
176
     1
 40
1.0
176
     1
 90
        1
176
     1
 90
        6
176
     1
 90
        2
176
     1
 62
     7
176
     1
 90
        5
176
     1
 90
        0
176
     1
 90
        0
176
     1
290
     0
176
     1
 90
        1
176
     1
 40
0.0
176
     1
 90
        0
176
     1
290
     1
176
     1
290
     1
176
     1
290
     0
176
     1
290
     0
176
     1
290
     0
176
     1
290
     0
176
     1
290
     0
176
     1
290
     0
176
     1
290
     0
176
     1
 90
       50
176
     1
 40
0.0
176
     1
 40
1.0
176
     1
 90
        0
176
     1
 62
    18
420
        0
176
     1
 90
       50
176
     1
 90
        3
176
     1
 62
     5
420
      255
176
     1
290
     0
176
     1
 90
       50
176
     1
 90
       50
176
     1
 90
       50
176
     1
290
     0
176
     1
 90
       50
176
     1
 62
   256
176
     0
 40
1.0
176
     0
 90
        2
176
     1
  1
strokes_ogs.tif
176
     1
290
     0
176
     1
 40
1.0
176
     1
 40
1.0
176
     1
1001
ACAD
1000
AcRTDxfName
1000
VISUALSTYLE
1000
AcRTDxfName
1000
VISUALSTYLE
1000
AcRTDxfName
1000
VISUALSTYLE
1000
AcDbSavedByObjectVersion
1070
     0
  0
VISUALSTYLE
  5
B3F9
102
{ACAD_REACTORS
330
B3F1
102
}
330
B3F1
100
AcDbVisualStyle
  2
3D Hidden
 70
     6
177
     3
291
     0
 70
    58
 90
        1
176
     1
 90
        2
176
     1
 90
        2
176
     1
 90
        0
176
     1
 40
0.6
176
     1
 40
30.0
176
     1
 62
     7
176
     1
 90
        2
176
     1
 90
        2
176
     1
 62
     7
176
     1
 62
   257
176
     1
 90
        2
176
     1
 90
        1
176
     1
 40
40.0
176
     1
 90
        0
176
     1
 62
   257
176
     1
 40
1.0
176
     1
 90
        1
176
     1
 90
        6
176
     1
 90
        2
176
     1
 62
     7
176
     1
 90
        3
176
     1
 90
        0
176
     1
 90
        0
176
     1
290
     0
176
     1
 90
        1
176
     1
 40
0.0
176
     1
 90
        0
176
     1
290
     0
176
     1
290
     1
176
     1
290
     1
176
     1
290
     0
176
     1
290
     0
176
     1
290
     0
176
     1
290
     0
176
     1
290
     0
176
     1
290
     0
176
     1
 90
       50
176
     1
 40
0.0
176
     1
 40
1.0
176
     1
 90
        0
176
     1
 62
    18
420
        0
176
     1
 90
       50
176
     1
 90
        3
176
     1
 62
     5
420
      255
176
     1
290
     0
176
     1
 90
       50
176
     1
 90
       50
176
     1
 90
       50
176
     1
290
     0
176
     1
 90
       50
176
     1
 62
   256
176
     0
 40
1.0
176
     0
 90
        2
176
     1
  1
strokes_ogs.tif
176
     1
290
     0
176
     1
 40
1.0
176
     1
 40
1.0
176
     1
1001
ACAD
1000
AcRTDxfName
1000
VISUALSTYLE
1000
AcRTDxfName
1000
VISUALSTYLE
1000
AcRTDxfName
1000
VISUALSTYLE
1000
AcDbSavedByObjectVersion
1070
     0
  0
VISUALSTYLE
  5
B3F8
102
{ACAD_REACTORS
330
B3F1
102
}
330
B3F1
100
AcDbVisualStyle
  2
3dWireframe
 70
     5
177
     3
291
     0
 70
    58
 90
        0
176
     1
 90
        2
176
     1
 90
        0
176
     1
 90
        0
176
     1
 40
0.6
176
     1
 40
30.0
176
     1
 62
     7
176
     1
 90
        1
176
     1
 90
        4
176
     1
 62
     7
176
     1
 62
   257
176
     1
 90
        1
176
     1
 90
        1
176
     1
 40
1.0
176
     1
 90
        0
176
     1
 62
   257
176
     1
 40
1.0
176
     1
 90
        1
176
     1
 90
        6
176
     1
 90
        2
176
     1
 62
     7
176
     1
 90
        5
176
     1
 90
        0
176
     1
 90
        0
176
     1
290
     0
176
     1
 90
        1
176
     1
 40
0.0
176
     1
 90
        0
176
     1
290
     0
176
     1
290
     1
176
     1
290
     1
176
     1
290
     0
176
     1
290
     0
176
     1
290
     0
176
     1
290
     0
176
     1
290
     0
176
     1
290
     0
176
     1
 90
       50
176
     1
 40
0.0
176
     1
 40
1.0
176
     1
 90
        0
176
     1
 62
    18
420
        0
176
     1
 90
       50
176
     1
 90
        3
176
     1
 62
     5
420
      255
176
     1
290
     0
176
     1
 90
       50
176
     1
 90
       50
176
     1
 90
       50
176
     1
290
     0
176
     1
 90
       50
176
     1
 62
   256
176
     0
 40
1.0
176
     0
 90
        2
176
     1
  1
strokes_ogs.tif
176
     1
290
     0
176
     1
 40
1.0
176
     1
 40
1.0
176
     1
1001
ACAD
1000
AcRTDxfName
1000
VISUALSTYLE
1000
AcRTDxfName
1000
VISUALSTYLE
1000
AcRTDxfName
1000
VISUALSTYLE
1000
AcDbSavedByObjectVersion
1070
     0
  0
VISUALSTYLE
  5
B3F6
102
{ACAD_REACTORS
330
B3F1
102
}
330
B3F1
100
AcDbVisualStyle
  2
Basic
 70
     7
177
     3
291
     1
 70
    58
 90
        1
176
     1
 90
        0
176
     1
 90
        1
176
     1
 90
        0
176
     1
 40
0.6
176
     1
 40
30.0
176
     1
 62
     7
176
     1
 90
        0
176
     1
 90
        4
176
     1
 62
     7
176
     1
 62
   257
176
     1
 90
        1
176
     1
 90
        1
176
     1
 40
1.0
176
     1
 90
        8
176
     1
 62
     7
176
     1
 40
1.0
176
     1
 90
        1
176
     1
 90
        6
176
     1
 90
        2
176
     1
 62
     7
176
     1
 90
        5
176
     1
 90
        0
176
     1
 90
        0
176
     1
290
     0
176
     1
 90
        1
176
     1
 40
0.0
176
     1
 90
        0
176
     1
290
     0
176
     1
290
     1
176
     1
290
     1
176
     1
290
     0
176
     1
290
     0
176
     1
290
     0
176
     1
290
     0
176
     1
290
     0
176
     1
290
     0
176
     1
 90
       50
176
     1
 40
0.0
176
     1
 40
1.0
176
     1
 90
        0
176
     1
 62
    18
420
        0
176
     1
 90
       50
176
     1
 90
        3
176
     1
 62
     5
420
      255
176
     1
290
     0
176
     1
 90
       50
176
     1
 90
       50
176
     1
 90
       50
176
     1
290
     0
176
     1
 90
       50
176
     1
 62
   256
176
     0
 40
1.0
176
     0
 90
        2
176
     1
  1
strokes_ogs.tif
176
     1
290
     0
176
     1
 40
1.0
176
     1
 40
1.0
176
     1
1001
ACAD
1000
AcRTDxfName
1000
VISUALSTYLE
1000
AcRTDxfName
1000
VISUALSTYLE
1000
AcRTDxfName
1000
VISUALSTYLE
1000
AcDbSavedByObjectVersion
1070
     0
  0
VISUALSTYLE
  5
B3FD
102
{ACAD_REACTORS
330
B3F1
102
}
330
B3F1
100
AcDbVisualStyle
  2
Brighten
 70
    12
177
     3
291
     1
 70
    58
 90
        2
176
     1
 90
        2
176
     1
 90
        0
176
     1
 90
        0
176
     1
 40
0.6
176
     1
 40
30.0
176
     1
 62
     7
176
     1
 90
        1
176
     1
 90
        4
176
     1
 62
     7
176
     1
 62
   257
176
     1
 90
        1
176
     1
 90
        1
176
     1
 40
1.0
176
     1
 90
        8
176
     1
 62
     7
176
     1
 40
1.0
176
     1
 90
        1
176
     1
 90
        6
176
     1
 90
        2
176
     1
 62
     7
176
     1
 90
        5
176
     1
 90
        0
176
     1
 90
        0
176
     1
290
     0
176
     1
 90
        1
176
     1
 40
50.0
176
     1
 90
        0
176
     1
290
     0
176
     1
290
     1
176
     1
290
     1
176
     1
290
     0
176
     1
290
     0
176
     1
290
     0
176
     1
290
     0
176
     1
290
     0
176
     1
290
     0
176
     1
 90
       50
176
     1
 40
0.0
176
     1
 40
1.0
176
     1
 90
        0
176
     1
 62
    18
420
        0
176
     1
 90
       50
176
     1
 90
        3
176
     1
 62
     5
420
      255
176
     1
290
     0
176
     1
 90
       50
176
     1
 90
       50
176
     1
 90
       50
176
     1
290
     0
176
     1
 90
       50
176
     1
 62
   256
176
     0
 40
1.0
176
     0
 90
        2
176
     1
  1
strokes_ogs.tif
176
     1
290
     0
176
     1
 40
1.0
176
     1
 40
1.0
176
     1
1001
ACAD
1000
AcRTDxfName
1000
VISUALSTYLE
1000
AcRTDxfName
1000
VISUALSTYLE
1000
AcRTDxfName
1000
VISUALSTYLE
1000
AcDbSavedByObjectVersion
1070
     0
  0
VISUALSTYLE
  5
B401
102
{ACAD_REACTORS
330
B3F1
102
}
330
B3F1
100
AcDbVisualStyle
  2
ColorChange
 70
    16
177
     3
291
     1
 70
    58
 90
        2
176
     1
 90
        2
176
     1
 90
        3
176
     1
 90
        0
176
     1
 40
0.6
176
     1
 40
30.0
176
     1
 62
     8
176
     1
 90
        1
176
     1
 90
        4
176
     1
 62
     7
176
     1
 62
   257
176
     1
 90
        1
176
     1
 90
        1
176
     1
 40
1.0
176
     1
 90
        8
176
     1
 62
     8
176
     1
 40
1.0
176
     1
 90
        1
176
     1
 90
        6
176
     1
 90
        2
176
     1
 62
     7
176
     1
 90
        5
176
     1
 90
        0
176
     1
 90
        0
176
     1
290
     0
176
     1
 90
        1
176
     1
 40
0.0
176
     1
 90
        0
176
     1
290
     0
176
     1
290
     1
176
     1
290
     1
176
     1
290
     0
176
     1
290
     0
176
     1
290
     0
176
     1
290
     0
176
     1
290
     0
176
     1
290
     0
176
     1
 90
       50
176
     1
 40
0.0
176
     1
 40
1.0
176
     1
 90
        0
176
     1
 62
    18
420
        0
176
     1
 90
       50
176
     1
 90
        3
176
     1
 62
     5
420
      255
176
     1
290
     0
176
     1
 90
       50
176
     1
 90
       50
176
     1
 90
       50
176
     1
290
     0
176
     1
 90
       50
176
     1
 62
   256
176
     0
 40
1.0
176
     0
 90
        2
176
     1
  1
strokes_ogs.tif
176
     1
290
     0
176
     1
 40
1.0
176
     1
 40
1.0
176
     1
1001
ACAD
1000
AcRTDxfName
1000
VISUALSTYLE
1000
AcRTDxfName
1000
VISUALSTYLE
1000
AcRTDxfName
1000
VISUALSTYLE
1000
AcDbSavedByObjectVersion
1070
     0
  0
VISUALSTYLE
  5
B3FA
102
{ACAD_REACTORS
330
B3F1
102
}
330
B3F1
100
AcDbVisualStyle
  2
Conceptual
 70
     9
177
     3
291
     0
 70
    58
 90
        3
176
     1
 90
        2
176
     1
 90
        0
176
     1
 90
        0
176
     1
 40
0.6
176
     1
 40
30.0
176
     1
 62
     7
176
     1
 90
        2
176
     1
 90
        2
176
     1
 62
     7
176
     1
 62
   257
176
     1
 90
        1
176
     1
 90
        1
176
     1
 40
40.0
176
     1
 90
        8
176
     1
 62
     7
176
     1
 40
1.0
176
     1
 90
        1
176
     1
 90
        6
176
     1
 90
        2
176
     1
 62
     7
176
     1
 90
        3
176
     1
 90
        0
176
     1
 90
        0
176
     1
290
     0
176
     1
 90
        1
176
     1
 40
0.0
176
     1
 90
        0
176
     1
290
     0
176
     1
290
     1
176
     1
290
     1
176
     1
290
     0
176
     1
290
     0
176
     1
290
     0
176
     1
290
     0
176
     1
290
     0
176
     1
290
     0
176
     1
 90
       50
176
     1
 40
0.0
176
     1
 40
1.0
176
     1
 90
        0
176
     1
 62
    18
420
        0
176
     1
 90
       50
176
     1
 90
        3
176
     1
 62
     5
420
      255
176
     1
290
     0
176
     1
 90
       50
176
     1
 90
       50
176
     1
 90
       50
176
     1
290
     0
176
     1
 90
       50
176
     1
 62
   256
176
     0
 40
1.0
176
     0
 90
        2
176
     1
  1
strokes_ogs.tif
176
     1
290
     0
176
     1
 40
1.0
176
     1
 40
1.0
176
     1
1001
ACAD
1000
AcRTDxfName
1000
VISUALSTYLE
1000
AcRTDxfName
1000
VISUALSTYLE
1000
AcRTDxfName
1000
VISUALSTYLE
1000
AcDbSavedByObjectVersion
1070
     0
  0
VISUALSTYLE
  5
B3FC
102
{ACAD_REACTORS
330
B3F1
102
}
330
B3F1
100
AcDbVisualStyle
  2
Dim
 70
    11
177
     3
291
     1
 70
    58
 90
        2
176
     1
 90
        2
176
     1
 90
        0
176
     1
 90
        0
176
     1
 40
0.6
176
     1
 40
30.0
176
     1
 62
     7
176
     1
 90
        1
176
     1
 90
        4
176
     1
 62
     7
176
     1
 62
   257
176
     1
 90
        1
176
     1
 90
        1
176
     1
 40
1.0
176
     1
 90
        8
176
     1
 62
     7
176
     1
 40
1.0
176
     1
 90
        1
176
     1
 90
        6
176
     1
 90
        2
176
     1
 62
     7
176
     1
 90
        5
176
     1
 90
        0
176
     1
 90
        0
176
     1
290
     0
176
     1
 90
        1
176
     1
 40
-50.0
176
     1
 90
        0
176
     1
290
     0
176
     1
290
     1
176
     1
290
     1
176
     1
290
     0
176
     1
290
     0
176
     1
290
     0
176
     1
290
     0
176
     1
290
     0
176
     1
290
     0
176
     1
 90
       50
176
     1
 40
0.0
176
     1
 40
1.0
176
     1
 90
        0
176
     1
 62
    18
420
        0
176
     1
 90
       50
176
     1
 90
        3
176
     1
 62
     5
420
      255
176
     1
290
     0
176
     1
 90
       50
176
     1
 90
       50
176
     1
 90
       50
176
     1
290
     0
176
     1
 90
       50
176
     1
 62
   256
176
     0
 40
1.0
176
     0
 90
        2
176
     1
  1
strokes_ogs.tif
176
     1
290
     0
176
     1
 40
1.0
176
     1
 40
1.0
176
     1
1001
ACAD
1000
AcRTDxfName
1000
VISUALSTYLE
1000
AcRTDxfName
1000
VISUALSTYLE
1000
AcRTDxfName
1000
VISUALSTYLE
1000
AcDbSavedByObjectVersion
1070
     0
  0
VISUALSTYLE
  5
12A2A
102
{ACAD_REACTORS
330
B3F1
102
}
330
B3F1
100
AcDbVisualStyle
  2
EdgeColorOff
 70
    22
177
     3
291
     1
 70
    58
 90
        2
176
     0
 90
        2
176
     0
 90
        0
176
     0
 90
        0
176
     0
 40
0.6
176
     0
 40
30.0
176
     0
 62
     7
420
 16777215
176
     0
 90
        1
176
     0
 90
        4
176
     0
 62
     7
176
     0
 62
   257
176
     0
 90
        1
176
     0
 90
        1
176
     0
 40
1.0
176
     0
 90
        8
176
     2
 62
     7
176
     0
 40
1.0
176
     0
 90
        1
176
     0
 90
        6
176
     0
 90
        2
176
     0
 62
     7
176
     0
 90
        5
176
     0
 90
        0
176
     0
 90
        0
176
     0
290
     0
176
     0
 90
        1
176
     0
 40
0.0
176
     0
 90
        0
176
     0
290
     0
176
     0
290
     1
176
     0
290
     1
176
     0
290
     0
176
     0
290
     0
176
     0
290
     0
176
     0
290
     0
176
     0
290
     0
176
     0
290
     0
176
     0
 90
       50
176
     0
 40
0.0
176
     0
 40
1.0
176
     0
 90
        0
176
     0
 62
    18
420
        0
176
     0
 90
       50
176
     0
 90
        3
176
     0
 62
     5
420
      255
176
     0
290
     0
176
     0
 90
       50
176
     0
 90
       50
176
     0
 90
       50
176
     0
290
     0
176
     0
 90
       50
176
     0
 62
   256
176
     0
 40
1.0
176
     0
 90
        2
176
     0
  1
strokes_ogs.tif
176
     0
290
     0
176
     0
 40
1.0
176
     0
 40
1.0
176
     0
1001
ACAD
1000
AcDbSavedByObjectVersion
1070
     0
  0
VISUALSTYLE
  5
B400
102
{ACAD_REACTORS
330
B3F1
102
}
330
B3F1
100
AcDbVisualStyle
  2
Facepattern
 70
    15
177
     3
291
     1
 70
    58
 90
        2
176
     1
 90
        2
176
     1
 90
        0
176
     1
 90
        0
176
     1
 40
0.6
176
     1
 40
30.0
176
     1
 62
     7
176
     1
 90
        1
176
     1
 90
        4
176
     1
 62
     7
176
     1
 62
   257
176
     1
 90
        1
176
     1
 90
        1
176
     1
 40
1.0
176
     1
 90
        8
176
     1
 62
     7
176
     1
 40
1.0
176
     1
 90
        1
176
     1
 90
        6
176
     1
 90
        2
176
     1
 62
     7
176
     1
 90
        5
176
     1
 90
        0
176
     1
 90
        0
176
     1
290
     0
176
     1
 90
        1
176
     1
 40
0.0
176
     1
 90
        0
176
     1
290
     0
176
     1
290
     1
176
     1
290
     1
176
     1
290
     0
176
     1
290
     0
176
     1
290
     0
176
     1
290
     0
176
     1
290
     0
176
     1
290
     0
176
     1
 90
       50
176
     1
 40
0.0
176
     1
 40
1.0
176
     1
 90
        0
176
     1
 62
    18
420
        0
176
     1
 90
       50
176
     1
 90
        3
176
     1
 62
     5
420
      255
176
     1
290
     0
176
     1
 90
       50
176
     1
 90
       50
176
     1
 90
       50
176
     1
290
     0
176
     1
 90
       50
176
     1
 62
   256
176
     0
 40
1.0
176
     0
 90
        2
176
     1
  1
strokes_ogs.tif
176
     1
290
     0
176
     1
 40
1.0
176
     1
 40
1.0
176
     1
1001
ACAD
1000
AcRTDxfName
1000
VISUALSTYLE
1000
AcRTDxfName
1000
VISUALSTYLE
1000
AcRTDxfName
1000
VISUALSTYLE
1000
AcDbSavedByObjectVersion
1070
     0
  0
VISUALSTYLE
  5
B3F2
102
{ACAD_REACTORS
330
B3F1
102
}
330
B3F1
100
AcDbVisualStyle
  2
Flat
 70
     0
177
     3
291
     1
 70
    58
 90
        2
176
     1
 90
        1
176
     1
 90
        1
176
     1
 90
        2
176
     1
 40
0.6
176
     1
 40
30.0
176
     1
 62
     7
176
     1
 90
        0
176
     1
 90
        4
176
     1
 62
     7
176
     1
 62
   257
176
     1
 90
        1
176
     1
 90
        1
176
     1
 40
1.0
176
     1
 90
        8
176
     1
 62
     7
176
     1
 40
1.0
176
     1
 90
        1
176
     1
 90
        6
176
     1
 90
        2
176
     1
 62
     7
176
     1
 90
        5
176
     1
 90
        0
176
     1
 90
        0
176
     1
290
     0
176
     1
 90
       13
176
     1
 40
0.0
176
     1
 90
        0
176
     1
290
     0
176
     1
290
     1
176
     1
290
     1
176
     1
290
     0
176
     1
290
     0
176
     1
290
     0
176
     1
290
     0
176
     1
290
     0
176
     1
290
     0
176
     1
 90
       50
176
     1
 40
0.0
176
     1
 40
1.0
176
     1
 90
        0
176
     1
 62
    18
420
        0
176
     1
 90
       50
176
     1
 90
        3
176
     1
 62
     5
420
      255
176
     1
290
     0
176
     1
 90
       50
176
     1
 90
       50
176
     1
 90
       50
176
     1
290
     0
176
     1
 90
       50
176
     1
 62
   256
176
     0
 40
1.0
176
     0
 90
        2
176
     1
  1
strokes_ogs.tif
176
     1
290
     0
176
     1
 40
1.0
176
     1
 40
1.0
176
     1
1001
ACAD
1000
AcRTDxfName
1000
VISUALSTYLE
1000
AcRTDxfName
1000
VISUALSTYLE
1000
AcRTDxfName
1000
VISUALSTYLE
1000
AcDbSavedByObjectVersion
1070
     0
  0
VISUALSTYLE
  5
B3F3
102
{ACAD_REACTORS
330
B3F1
102
}
330
B3F1
100
AcDbVisualStyle
  2
FlatWithEdges
 70
     1
177
     3
291
     1
 70
    58
 90
        2
176
     1
 90
        1
176
     1
 90
        1
176
     1
 90
        2
176
     1
 40
0.6
176
     1
 40
30.0
176
     1
 62
     7
176
     1
 90
        1
176
     1
 90
        4
176
     1
 62
     7
176
     1
 62
   257
176
     1
 90
        1
176
     1
 90
        1
176
     1
 40
1.0
176
     1
 90
        0
176
     1
 62
   257
176
     1
 40
1.0
176
     1
 90
        1
176
     1
 90
        6
176
     1
 90
        2
176
     1
 62
     7
176
     1
 90
        5
176
     1
 90
        0
176
     1
 90
        0
176
     1
290
     0
176
     1
 90
       13
176
     1
 40
0.0
176
     1
 90
        0
176
     1
290
     0
176
     1
290
     1
176
     1
290
     1
176
     1
290
     0
176
     1
290
     0
176
     1
290
     0
176
     1
290
     0
176
     1
290
     0
176
     1
290
     0
176
     1
 90
       50
176
     1
 40
0.0
176
     1
 40
1.0
176
     1
 90
        0
176
     1
 62
    18
420
        0
176
     1
 90
       50
176
     1
 90
        3
176
     1
 62
     5
420
      255
176
     1
290
     0
176
     1
 90
       50
176
     1
 90
       50
176
     1
 90
       50
176
     1
290
     0
176
     1
 90
       50
176
     1
 62
   256
176
     0
 40
1.0
176
     0
 90
        2
176
     1
  1
strokes_ogs.tif
176
     1
290
     0
176
     1
 40
1.0
176
     1
 40
1.0
176
     1
1001
ACAD
1000
AcRTDxfName
1000
VISUALSTYLE
1000
AcRTDxfName
1000
VISUALSTYLE
1000
AcRTDxfName
1000
VISUALSTYLE
1000
AcDbSavedByObjectVersion
1070
     0
  0
VISUALSTYLE
  5
B3F4
102
{ACAD_REACTORS
330
B3F1
102
}
330
B3F1
100
AcDbVisualStyle
  2
Gouraud
 70
     2
177
     3
291
     1
 70
    58
 90
        2
176
     1
 90
        2
176
     1
 90
        1
176
     1
 90
        2
176
     1
 40
0.6
176
     1
 40
30.0
176
     1
 62
     7
176
     1
 90
        0
176
     1
 90
        4
176
     1
 62
     7
176
     1
 62
   257
176
     1
 90
        1
176
     1
 90
        1
176
     1
 40
1.0
176
     1
 90
        0
176
     1
 62
     7
176
     1
 40
1.0
176
     1
 90
        1
176
     1
 90
        6
176
     1
 90
        2
176
     1
 62
     7
176
     1
 90
        5
176
     1
 90
        0
176
     1
 90
        0
176
     1
290
     0
176
     1
 90
       13
176
     1
 40
0.0
176
     1
 90
        0
176
     1
290
     0
176
     1
290
     1
176
     1
290
     1
176
     1
290
     0
176
     1
290
     0
176
     1
290
     0
176
     1
290
     0
176
     1
290
     0
176
     1
290
     0
176
     1
 90
       50
176
     1
 40
0.0
176
     1
 40
1.0
176
     1
 90
        0
176
     1
 62
    18
420
        0
176
     1
 90
       50
176
     1
 90
        3
176
     1
 62
     5
420
      255
176
     1
290
     0
176
     1
 90
       50
176
     1
 90
       50
176
     1
 90
       50
176
     1
290
     0
176
     1
 90
       50
176
     1
 62
   256
176
     0
 40
1.0
176
     0
 90
        2
176
     1
  1
strokes_ogs.tif
176
     1
290
     0
176
     1
 40
1.0
176
     1
 40
1.0
176
     1
1001
ACAD
1000
AcRTDxfName
1000
VISUALSTYLE
1000
AcRTDxfName
1000
VISUALSTYLE
1000
AcRTDxfName
1000
VISUALSTYLE
1000
AcDbSavedByObjectVersion
1070
     0
  0
VISUALSTYLE
  5
B3F5
102
{ACAD_REACTORS
330
B3F1
102
}
330
B3F1
100
AcDbVisualStyle
  2
GouraudWithEdges
 70
     3
177
     3
291
     1
 70
    58
 90
        2
176
     1
 90
        2
176
     1
 90
        1
176
     1
 90
        2
176
     1
 40
0.6
176
     1
 40
30.0
176
     1
 62
     7
176
     1
 90
        1
176
     1
 90
        4
176
     1
 62
     7
176
     1
 62
   257
176
     1
 90
        1
176
     1
 90
        1
176
     1
 40
1.0
176
     1
 90
        0
176
     1
 62
   257
176
     1
 40
1.0
176
     1
 90
        1
176
     1
 90
        6
176
     1
 90
        2
176
     1
 62
     7
176
     1
 90
        5
176
     1
 90
        0
176
     1
 90
        0
176
     1
290
     0
176
     1
 90
       13
176
     1
 40
0.0
176
     1
 90
        0
176
     1
290
     0
176
     1
290
     1
176
     1
290
     1
176
     1
290
     0
176
     1
290
     0
176
     1
290
     0
176
     1
290
     0
176
     1
290
     0
176
     1
290
     0
176
     1
 90
       50
176
     1
 40
0.0
176
     1
 40
1.0
176
     1
 90
        0
176
     1
 62
    18
420
        0
176
     1
 90
       50
176
     1
 90
        3
176
     1
 62
     5
420
      255
176
     1
290
     0
176
     1
 90
       50
176
     1
 90
       50
176
     1
 90
       50
176
     1
290
     0
176
     1
 90
       50
176
     1
 62
   256
176
     0
 40
1.0
176
     0
 90
        2
176
     1
  1
strokes_ogs.tif
176
     1
290
     0
176
     1
 40
1.0
176
     1
 40
1.0
176
     1
1001
ACAD
1000
AcRTDxfName
1000
VISUALSTYLE
1000
AcRTDxfName
1000
VISUALSTYLE
1000
AcRTDxfName
1000
VISUALSTYLE
1000
AcDbSavedByObjectVersion
1070
     0
  0
VISUALSTYLE
  5
12A22
102
{ACAD_REACTORS
330
B3F1
102
}
330
B3F1
100
AcDbVisualStyle
  2
Hidden
 70
     6
177
     3
291
     0
 70
    58
 90
        1
176
     1
 90
        2
176
     1
 90
        2
176
     1
 90
        0
176
     1
 40
0.6
176
     1
 40
30.0
176
     1
 62
     7
420
 16777215
176
     1
 90
        2
176
     1
 90
        2
176
     1
 62
     7
176
     1
 62
   257
176
     1
 90
        2
176
     1
 90
        1
176
     1
 40
40.0
176
     1
 90
        0
176
     1
 62
   257
176
     1
 40
1.0
176
     1
 90
        1
176
     1
 90
        6
176
     1
 90
        2
176
     1
 62
     7
176
     1
 90
        3
176
     1
 90
        0
176
     1
 90
        0
176
     1
290
     0
176
     1
 90
        1
176
     1
 40
0.0
176
     1
 90
        0
176
     1
290
     0
176
     1
290
     1
176
     1
290
     1
176
     1
290
     0
176
     1
290
     0
176
     1
290
     0
176
     1
290
     0
176
     1
290
     0
176
     1
290
     0
176
     1
 90
       50
176
     1
 40
0.0
176
     1
 40
1.0
176
     1
 90
        0
176
     1
 62
    18
420
        0
176
     1
 90
       50
176
     1
 90
        3
176
     1
 62
     5
420
      255
176
     1
290
     0
176
     1
 90
       50
176
     1
 90
       50
176
     1
 90
       50
176
     1
290
     0
176
     1
 90
       50
176
     1
 62
   256
176
     0
 40
1.0
176
     0
 90
        2
176
     1
  1
strokes_ogs.tif
176
     1
290
     0
176
     1
 40
1.0
176
     1
 40
1.0
176
     1
1001
ACAD
1000
AcDbSavedByObjectVersion
1070
     0
  0
VISUALSTYLE
  5
12A28
102
{ACAD_REACTORS
330
B3F1
102
}
330
B3F1
100
AcDbVisualStyle
  2
JitterOff
 70
    20
177
     3
291
     1
 70
    58
 90
        2
176
     0
 90
        2
176
     0
 90
        0
176
     0
 90
        0
176
     0
 40
0.6
176
     0
 40
30.0
176
     0
 62
     7
420
 16777215
176
     0
 90
        1
176
     0
 90
        4
176
     0
 62
     7
176
     0
 62
   257
176
     0
 90
        1
176
     0
 90
        1
176
     0
 40
1.0
176
     0
 90
       10
176
     2
 62
     7
176
     0
 40
1.0
176
     0
 90
        1
176
     0
 90
        6
176
     0
 90
        2
176
     0
 62
     7
176
     0
 90
        5
176
     0
 90
        0
176
     0
 90
        0
176
     0
290
     0
176
     0
 90
        1
176
     0
 40
0.0
176
     0
 90
        0
176
     0
290
     0
176
     0
290
     1
176
     0
290
     1
176
     0
290
     0
176
     0
290
     0
176
     0
290
     0
176
     0
290
     0
176
     0
290
     0
176
     0
290
     0
176
     0
 90
       50
176
     0
 40
0.0
176
     0
 40
1.0
176
     0
 90
        0
176
     0
 62
    18
420
        0
176
     0
 90
       50
176
     0
 90
        3
176
     0
 62
     5
420
      255
176
     0
290
     0
176
     0
 90
       50
176
     0
 90
       50
176
     0
 90
       50
176
     0
290
     0
176
     0
 90
       50
176
     0
 62
   256
176
     0
 40
1.0
176
     0
 90
        2
176
     0
  1
strokes_ogs.tif
176
     0
290
     0
176
     0
 40
1.0
176
     0
 40
1.0
176
     0
1001
ACAD
1000
AcDbSavedByObjectVersion
1070
     0
  0
VISUALSTYLE
  5
B3FF
102
{ACAD_REACTORS
330
B3F1
102
}
330
B3F1
100
AcDbVisualStyle
  2
Linepattern
 70
    14
177
     3
291
     1
 70
    58
 90
        2
176
     1
 90
        2
176
     1
 90
        0
176
     1
 90
        0
176
     1
 40
0.6
176
     1
 40
30.0
176
     1
 62
     7
176
     1
 90
        1
176
     1
 90
        4
176
     1
 62
     7
176
     1
 62
   257
176
     1
 90
        7
176
     1
 90
        7
176
     1
 40
1.0
176
     1
 90
        8
176
     1
 62
     7
176
     1
 40
1.0
176
     1
 90
        1
176
     1
 90
        6
176
     1
 90
        2
176
     1
 62
     7
176
     1
 90
        5
176
     1
 90
        0
176
     1
 90
        0
176
     1
290
     0
176
     1
 90
        1
176
     1
 40
0.0
176
     1
 90
        0
176
     1
290
     0
176
     1
290
     1
176
     1
290
     1
176
     1
290
     0
176
     1
290
     0
176
     1
290
     0
176
     1
290
     0
176
     1
290
     0
176
     1
290
     0
176
     1
 90
       50
176
     1
 40
0.0
176
     1
 40
1.0
176
     1
 90
        0
176
     1
 62
    18
420
        0
176
     1
 90
       50
176
     1
 90
        3
176
     1
 62
     5
420
      255
176
     1
290
     0
176
     1
 90
       50
176
     1
 90
       50
176
     1
 90
       50
176
     1
290
     0
176
     1
 90
       50
176
     1
 62
   256
176
     0
 40
1.0
176
     0
 90
        2
176
     1
  1
strokes_ogs.tif
176
     1
290
     0
176
     1
 40
1.0
176
     1
 40
1.0
176
     1
1001
ACAD
1000
AcRTDxfName
1000
VISUALSTYLE
1000
AcRTDxfName
1000
VISUALSTYLE
1000
AcRTDxfName
1000
VISUALSTYLE
1000
AcDbSavedByObjectVersion
1070
     0
  0
VISUALSTYLE
  5
12A29
102
{ACAD_REACTORS
330
B3F1
102
}
330
B3F1
100
AcDbVisualStyle
  2
OverhangOff
 70
    21
177
     3
291
     1
 70
    58
 90
        2
176
     0
 90
        2
176
     0
 90
        0
176
     0
 90
        0
176
     0
 40
0.6
176
     0
 40
30.0
176
     0
 62
     7
420
 16777215
176
     0
 90
        1
176
     0
 90
        4
176
     0
 62
     7
176
     0
 62
   257
176
     0
 90
        1
176
     0
 90
        1
176
     0
 40
1.0
176
     0
 90
        9
176
     2
 62
     7
176
     0
 40
1.0
176
     0
 90
        1
176
     0
 90
        6
176
     0
 90
        2
176
     0
 62
     7
176
     0
 90
        5
176
     0
 90
        0
176
     0
 90
        0
176
     0
290
     0
176
     0
 90
        1
176
     0
 40
0.0
176
     0
 90
        0
176
     0
290
     0
176
     0
290
     1
176
     0
290
     1
176
     0
290
     0
176
     0
290
     0
176
     0
290
     0
176
     0
290
     0
176
     0
290
     0
176
     0
290
     0
176
     0
 90
       50
176
     0
 40
0.0
176
     0
 40
1.0
176
     0
 90
        0
176
     0
 62
    18
420
        0
176
     0
 90
       50
176
     0
 90
        3
176
     0
 62
     5
420
      255
176
     0
290
     0
176
     0
 90
       50
176
     0
 90
       50
176
     0
 90
       50
176
     0
290
     0
176
     0
 90
       50
176
     0
 62
   256
176
     0
 40
1.0
176
     0
 90
        2
176
     0
  1
strokes_ogs.tif
176
     0
290
     0
176
     0
 40
1.0
176
     0
 40
1.0
176
     0
1001
ACAD
1000
AcDbSavedByObjectVersion
1070
     0
  0
VISUALSTYLE
  5
B3FB
102
{ACAD_REACTORS
330
B3F1
102
}
330
B3F1
100
AcDbVisualStyle
  2
Realistic
 70
     8
177
     3
291
     0
 70
    58
 90
        2
176
     1
 90
        2
176
     1
 90
        0
176
     1
 90
        0
176
     1
 40
0.6
176
     1
 40
30.0
176
     1
 62
     7
176
     1
 90
        1
176
     1
 90
        0
176
     1
 62
     7
176
     1
 62
   257
176
     1
 90
        1
176
     1
 90
        1
176
     1
 40
1.0
176
     1
 90
        8
176
     1
 62
     8
176
     1
 40
1.0
176
     1
 90
        1
176
     1
 90
        6
176
     1
 90
        2
176
     1
 62
     7
176
     1
 90
        5
176
     1
 90
        0
176
     1
 90
        0
176
     1
290
     0
176
     1
 90
       13
176
     1
 40
0.0
176
     1
 90
        0
176
     1
290
     0
176
     1
290
     1
176
     1
290
     1
176
     1
290
     0
176
     1
290
     0
176
     1
290
     0
176
     1
290
     0
176
     1
290
     0
176
     1
290
     0
176
     1
 90
       50
176
     1
 40
0.0
176
     1
 40
1.0
176
     1
 90
        0
176
     1
 62
    18
420
        0
176
     1
 90
       50
176
     1
 90
        3
176
     1
 62
     5
420
      255
176
     1
290
     0
176
     1
 90
       50
176
     1
 90
       50
176
     1
 90
       50
176
     1
290
     0
176
     1
 90
       50
176
     1
 62
   256
176
     0
 40
1.0
176
     0
 90
        2
176
     1
  1
strokes_ogs.tif
176
     1
290
     0
176
     1
 40
1.0
176
     1
 40
1.0
176
     1
1001
ACAD
1000
AcRTDxfName
1000
VISUALSTYLE
1000
AcRTDxfName
1000
VISUALSTYLE
1000
AcRTDxfName
1000
VISUALSTYLE
1000
AcDbSavedByObjectVersion
1070
     0
  0
VISUALSTYLE
  5
12A27
102
{ACAD_REACTORS
330
B3F1
102
}
330
B3F1
100
AcDbVisualStyle
  2
Shaded
 70
    27
177
     3
291
     0
 70
    58
 90
        2
176
     1
 90
        2
176
     1
 90
        1
176
     1
 90
        2
176
     1
 40
0.6
176
     1
 40
30.0
176
     1
 62
     7
420
 16777215
176
     1
 90
        0
176
     1
 90
        4
176
     1
 62
     7
176
     1
 62
   257
176
     1
 90
        1
176
     1
 90
        1
176
     1
 40
1.0
176
     1
 90
        8
176
     1
 62
   257
176
     1
 40
1.0
176
     1
 90
        1
176
     1
 90
        6
176
     1
 90
        2
176
     1
 62
     8
420
  7895160
176
     1
 90
        3
176
     1
 90
        0
176
     1
 90
        0
176
     1
290
     0
176
     1
 90
        5
176
     1
 40
0.0
176
     1
 90
        0
176
     1
290
     0
176
     1
290
     1
176
     1
290
     1
176
     1
290
     0
176
     1
290
     0
176
     1
290
     0
176
     1
290
     0
176
     1
290
     0
176
     1
290
     0
176
     1
 90
       50
176
     1
 40
0.0
176
     1
 40
1.0
176
     1
 90
        0
176
     1
 62
    18
420
        0
176
     1
 90
       50
176
     1
 90
        3
176
     1
 62
     5
420
      255
176
     1
290
     0
176
     1
 90
       50
176
     1
 90
       50
176
     1
 90
       50
176
     1
290
     0
176
     1
 90
       50
176
     1
 62
   256
176
     0
 40
1.0
176
     0
 90
        2
176
     1
  1
strokes_ogs.tif
176
     1
290
     0
176
     1
 40
1.0
176
     1
 40
1.0
176
     1
1001
ACAD
1000
AcDbSavedByObjectVersion
1070
     0
  0
VISUALSTYLE
  5
12A26
102
{ACAD_REACTORS
330
B3F1
102
}
330
B3F1
100
AcDbVisualStyle
  2
Shaded with edges
 70
    26
177
     3
291
     0
 70
    58
 90
        2
176
     1
 90
        2
176
     1
 90
        1
176
     1
 90
        2
176
     1
 40
0.6
176
     1
 40
30.0
176
     1
 62
     7
420
 16777215
176
     1
 90
        1
176
     1
 90
        2
176
     1
 62
     7
176
     1
 62
   257
176
     1
 90
        2
176
     1
 90
        1
176
     1
 40
1.0
176
     1
 90
        8
176
     1
 62
   257
176
     1
 40
1.0
176
     1
 90
        1
176
     1
 90
        6
176
     1
 90
        2
176
     1
 62
     7
176
     1
 90
        3
176
     1
 90
        0
176
     1
 90
        0
176
     1
290
     0
176
     1
 90
        5
176
     1
 40
0.0
176
     1
 90
        0
176
     1
290
     0
176
     1
290
     1
176
     1
290
     1
176
     1
290
     0
176
     1
290
     0
176
     1
290
     0
176
     1
290
     0
176
     1
290
     0
176
     1
290
     0
176
     1
 90
       50
176
     1
 40
0.0
176
     1
 40
1.0
176
     1
 90
        0
176
     1
 62
    18
420
        0
176
     1
 90
       50
176
     1
 90
        3
176
     1
 62
     5
420
      255
176
     1
290
     0
176
     1
 90
       50
176
     1
 90
       50
176
     1
 90
       50
176
     1
290
     0
176
     1
 90
       50
176
     1
 62
   256
176
     0
 40
1.0
176
     0
 90
        2
176
     1
  1
strokes_ogs.tif
176
     1
290
     0
176
     1
 40
1.0
176
     1
 40
1.0
176
     1
1001
ACAD
1000
AcDbSavedByObjectVersion
1070
     0
  0
VISUALSTYLE
  5
12A23
102
{ACAD_REACTORS
330
B3F1
102
}
330
B3F1
100
AcDbVisualStyle
  2
Shades of Gray
 70
    23
177
     3
291
     0
 70
    58
 90
        2
176
     1
 90
        2
176
     1
 90
        3
176
     1
 90
        0
176
     1
 40
0.6
176
     1
 40
30.0
176
     1
 62
     7
420
 16777215
176
     1
 90
        2
176
     1
 90
        2
176
     1
 62
     7
176
     1
 62
     7
176
     1
 90
        1
176
     1
 90
        1
176
     1
 40
40.0
176
     1
 90
        8
176
     1
 62
     7
176
     1
 40
1.0
176
     1
 90
        1
176
     1
 90
        6
176
     1
 90
        2
176
     1
 62
     7
176
     1
 90
        3
176
     1
 90
        0
176
     1
 90
        0
176
     1
290
     0
176
     1
 90
        1
176
     1
 40
0.0
176
     1
 90
        0
176
     1
290
     0
176
     1
290
     1
176
     1
290
     1
176
     1
290
     0
176
     1
290
     0
176
     1
290
     0
176
     1
290
     0
176
     1
290
     0
176
     1
290
     0
176
     1
 90
       50
176
     1
 40
0.0
176
     1
 40
1.0
176
     1
 90
        0
176
     1
 62
    18
420
        0
176
     1
 90
       50
176
     1
 90
        3
176
     1
 62
     5
420
      255
176
     1
290
     0
176
     1
 90
       50
176
     1
 90
       50
176
     1
 90
       50
176
     1
290
     0
176
     1
 90
       50
176
     1
 62
   256
176
     0
 40
1.0
176
     0
 90
        2
176
     1
  1
strokes_ogs.tif
176
     1
290
     0
176
     1
 40
1.0
176
     1
 40
1.0
176
     1
1001
ACAD
1000
AcDbSavedByObjectVersion
1070
     0
  0
VISUALSTYLE
  5
12A24
102
{ACAD_REACTORS
330
B3F1
102
}
330
B3F1
100
AcDbVisualStyle
  2
Sketchy
 70
    24
177
     3
291
     0
 70
    58
 90
        1
176
     1
 90
        2
176
     1
 90
        2
176
     1
 90
        0
176
     1
 40
0.6
176
     1
 40
30.0
176
     1
 62
     7
420
 16777215
176
     1
 90
        2
176
     1
 90
        2
176
     1
 62
     7
176
     1
 62
     7
176
     1
 90
        1
176
     1
 90
        1
176
     1
 40
40.0
176
     1
 90
       11
176
     1
 62
     7
176
     1
 40
1.0
176
     1
 90
        1
176
     1
 90
        6
176
     1
 90
        2
176
     1
 62
     7
176
     1
 90
        6
176
     1
 90
        0
176
     1
 90
        0
176
     1
290
     0
176
     1
 90
        1
176
     1
 40
0.0
176
     1
 90
        0
176
     1
290
     0
176
     1
290
     1
176
     1
290
     1
176
     1
290
     0
176
     1
290
     0
176
     1
290
     0
176
     1
290
     0
176
     1
290
     0
176
     1
290
     0
176
     1
 90
       50
176
     1
 40
0.0
176
     1
 40
1.0
176
     1
 90
        0
176
     1
 62
    18
420
        0
176
     1
 90
       50
176
     1
 90
        3
176
     1
 62
     5
420
      255
176
     1
290
     0
176
     1
 90
       50
176
     1
 90
       50
176
     1
 90
       50
176
     1
290
     0
176
     1
 90
       50
176
     1
 62
   256
176
     0
 40
1.0
176
     0
 90
        2
176
     1
  1
strokes_ogs.tif
176
     1
290
     0
176
     1
 40
1.0
176
     1
 40
1.0
176
     1
1001
ACAD
1000
AcDbSavedByObjectVersion
1070
     0
  0
VISUALSTYLE
  5
B3FE
102
{ACAD_REACTORS
330
B3F1
102
}
330
B3F1
100
AcDbVisualStyle
  2
Thicken
 70
    13
177
     3
291
     1
 70
    58
 90
        2
176
     1
 90
        2
176
     1
 90
        0
176
     1
 90
        0
176
     1
 40
0.6
176
     1
 40
30.0
176
     1
 62
     7
176
     1
 90
        1
176
     1
 90
        4
176
     1
 62
     7
176
     1
 62
   257
176
     1
 90
        1
176
     1
 90
        1
176
     1
 40
1.0
176
     1
 90
       12
176
     1
 62
     7
176
     1
 40
1.0
176
     1
 90
        1
176
     1
 90
        6
176
     1
 90
        2
176
     1
 62
     7
176
     1
 90
        5
176
     1
 90
        0
176
     1
 90
        0
176
     1
290
     0
176
     1
 90
        1
176
     1
 40
0.0
176
     1
 90
        0
176
     1
290
     0
176
     1
290
     1
176
     1
290
     1
176
     1
290
     0
176
     1
290
     0
176
     1
290
     0
176
     1
290
     0
176
     1
290
     0
176
     1
290
     0
176
     1
 90
       50
176
     1
 40
0.0
176
     1
 40
1.0
176
     1
 90
        0
176
     1
 62
    18
420
        0
176
     1
 90
       50
176
     1
 90
        3
176
     1
 62
     5
420
      255
176
     1
290
     0
176
     1
 90
       50
176
     1
 90
       50
176
     1
 90
       50
176
     1
290
     0
176
     1
 90
       50
176
     1
 62
   256
176
     0
 40
1.0
176
     0
 90
        2
176
     1
  1
strokes_ogs.tif
176
     1
290
     0
176
     1
 40
1.0
176
     1
 40
1.0
176
     1
1001
ACAD
1000
AcRTDxfName
1000
VISUALSTYLE
1000
AcRTDxfName
1000
VISUALSTYLE
1000
AcRTDxfName
1000
VISUALSTYLE
1000
AcDbSavedByObjectVersion
1070
     0
  0
VISUALSTYLE
  5
12A21
102
{ACAD_REACTORS
330
B3F1
102
}
330
B3F1
100
AcDbVisualStyle
  2
Wireframe
 70
     5
177
     3
291
     0
 70
    58
 90
        0
176
     1
 90
        2
176
     1
 90
        0
176
     1
 90
        0
176
     1
 40
0.6
176
     1
 40
30.0
176
     1
 62
     7
420
 16777215
176
     1
 90
        1
176
     1
 90
        4
176
     1
 62
     7
176
     1
 62
   257
176
     1
 90
        1
176
     1
 90
        1
176
     1
 40
1.0
176
     1
 90
        0
176
     1
 62
   257
176
     1
 40
1.0
176
     1
 90
        1
176
     1
 90
        6
176
     1
 90
        2
176
     1
 62
     7
176
     1
 90
        3
176
     1
 90
        0
176
     1
 90
        0
176
     1
290
     0
176
     1
 90
        1
176
     1
 40
0.0
176
     1
 90
        0
176
     1
290
     0
176
     1
290
     1
176
     1
290
     1
176
     1
290
     0
176
     1
290
     0
176
     1
290
     0
176
     1
290
     0
176
     1
290
     0
176
     1
290
     0
176
     1
 90
       50
176
     1
 40
0.0
176
     1
 40
1.0
176
     1
 90
        0
176
     1
 62
    18
420
        0
176
     1
 90
       50
176
     1
 90
        3
176
     1
 62
     5
420
      255
176
     1
290
     0
176
     1
 90
       50
176
     1
 90
       50
176
     1
 90
       50
176
     1
290
     0
176
     1
 90
       50
176
     1
 62
   256
176
     0
 40
1.0
176
     0
 90
        2
176
     1
  1
strokes_ogs.tif
176
     1
290
     0
176
     1
 40
1.0
176
     1
 40
1.0
176
     1
1001
ACAD
1000
AcDbSavedByObjectVersion
1070
     0
  0
VISUALSTYLE
  5
12A25
102
{ACAD_REACTORS
330
B3F1
102
}
330
B3F1
100
AcDbVisualStyle
  2
X-Ray
 70
    25
177
     3
291
     0
 70
    58
 90
        2
176
     1
 90
        2
176
     1
 90
        1
176
     1
 90
        1
176
     1
 40
0.5
176
     1
 40
30.0
176
     1
 62
     7
420
 16777215
176
     1
 90
        1
176
     1
 90
        0
176
     1
 62
     7
176
     1
 62
   257
176
     1
 90
        1
176
     1
 90
        1
176
     1
 40
1.0
176
     1
 90
        8
176
     1
 62
     7
176
     1
 40
1.0
176
     1
 90
        1
176
     1
 90
        6
176
     1
 90
        2
176
     1
 62
     7
176
     1
 90
        3
176
     1
 90
        0
176
     1
 90
        0
176
     1
290
     0
176
     1
 90
       13
176
     1
 40
0.0
176
     1
 90
        0
176
     1
290
     0
176
     1
290
     1
176
     1
290
     1
176
     1
290
     0
176
     1
290
     0
176
     1
290
     0
176
     1
290
     0
176
     1
290
     0
176
     1
290
     0
176
     1
 90
       50
176
     1
 40
0.0
176
     1
 40
1.0
176
     1
 90
        0
176
     1
 62
    18
420
        0
176
     1
 90
       50
176
     1
 90
        3
176
     1
 62
     5
420
      255
176
     1
290
     0
176
     1
 90
       50
176
     1
 90
       50
176
     1
 90
       50
176
     1
290
     0
176
     1
 90
       50
176
     1
 62
   256
176
     0
 40
1.0
176
     0
 90
        2
176
     1
  1
strokes_ogs.tif
176
     1
290
     0
176
     1
 40
1.0
176
     1
 40
1.0
176
     1
1001
ACAD
1000
AcDbSavedByObjectVersion
1070
     0
  0
DICTIONARYVAR
  5
B65F
102
{ACAD_REACTORS
330
5E
102
}
330
5E
100
DictionaryVariables
280
     0
  1
1:1
  0
DICTIONARYVAR
  5
B65E
102
{ACAD_REACTORS
330
5E
102
}
330
5E
100
DictionaryVariables
280
     0
  1
STANDARD
  0
DICTIONARYVAR
  5
84
102
{ACAD_REACTORS
330
5E
102
}
330
5E
100
DictionaryVariables
280
     0
  1
STANDARD
  0
DICTIONARYVAR
  5
14A6A
102
{ACAD_REACTORS
330
5E
102
}
330
5E
100
DictionaryVariables
280
     0
  1
Metric50
  0
DICTIONARYVAR
  5
14A6B
102
{ACAD_REACTORS
330
5E
102
}
330
5E
100
DictionaryVariables
280
     0
  1
Metric50
  0
DICTIONARYVAR
  5
5F
102
{ACAD_REACTORS
330
5E
102
}
330
5E
100
DictionaryVariables
280
     0
  1
2
  0
DICTIONARYVAR
  5
63
102
{ACAD_REACTORS
330
5E
102
}
330
5E
100
DictionaryVariables
280
     0
  1
1
  0
DICTIONARYVAR
  5
B661
102
{ACAD_REACTORS
330
5E
102
}
330
5E
100
DictionaryVariables
280
     0
  1
0
  0
DICTIONARYVAR
  5
14A6E
102
{ACAD_REACTORS
330
5E
102
}
330
5E
100
DictionaryVariables
280
     0
  1
1
  0
DICTIONARYVAR
  5
14A6F
102
{ACAD_REACTORS
330
5E
102
}
330
5E
100
DictionaryVariables
280
     0
  1
15
  0
DICTIONARYVAR
  5
14A6D
102
{ACAD_REACTORS
330
5E
102
}
330
5E
100
DictionaryVariables
280
     0
  1
0
  0
DICTIONARYVAR
  5
14A6C
102
{ACAD_REACTORS
330
5E
102
}
330
5E
100
DictionaryVariables
280
     0
  1
0
  0
DICTIONARYVAR
  5
B981
102
{ACAD_REACTORS
330
5E
102
}
330
5E
100
DictionaryVariables
280
     0
  1

  0
DICTIONARYVAR
  5
B660
102
{ACAD_REACTORS
330
5E
102
}
330
5E
100
DictionaryVariables
280
     0
  1
127
  0
DICTIONARY
  5
152F2
102
{ACAD_REACTORS
330
152F0
102
}
330
152F0
100
AcDbDictionary
281
     1
  0
DICTIONARY
  5
152F1
102
{ACAD_REACTORS
330
152F0
102
}
330
152F0
100
AcDbDictionary
281
     1
  3
2506219060272
350
152EB
  3
2506219060288
350
152EC
  3
2506219060304
350
152ED
  3
2506219060320
350
152EE
  3
2506219060336
350
152EF
  0
DICTIONARY
  5
152F5
330
12A2E
100
AcDbDictionary
280
     1
281
     1
  3
ACAD_XREC_ROUNDTRIP
360
152F6
  0
DICTIONARY
  5
79B
330
78E
100
AcDbDictionary
280
     1
281
     1
  0
DICTIONARY
  5
B3E2
330
B3E1
100
AcDbDictionary
280
     1
281
     1
  3
BUMPTILE
360
B3E4
  3
DIFFUSETILE
360
B3E3
  3
OPACITYTILE
360
B3E7
  3
REFLECTIONTILE
360
B3E6
  3
REFRACTIONTILE
360
B3E8
  3
SPECULARTILE
360
B3E5
  0
DICTIONARY
  5
B3DA
330
B3D9
100
AcDbDictionary
280
     1
281
     1
  3
BUMPTILE
360
B3DC
  3
DIFFUSETILE
360
B3DB
  3
OPACITYTILE
360
B3DF
  3
REFLECTIONTILE
360
B3DE
  3
REFRACTIONTILE
360
B3E0
  3
SPECULARTILE
360
B3DD
  0
DICTIONARY
  5
B3EA
330
B3E9
100
AcDbDictionary
280
     1
281
     1
  3
BUMPTILE
360
B3EC
  3
DIFFUSETILE
360
B3EB
  3
OPACITYTILE
360
B3EF
  3
REFLECTIONTILE
360
B3EE
  3
REFRACTIONTILE
360
B3F0
  3
SPECULARTILE
360
B3ED
  0
DICTIONARY
  5
152F3
330
12A2C
100
AcDbDictionary
280
     1
281
     1
  3
ACAD_XREC_ROUNDTRIP
360
152F4
  0
DICTIONARY
  5
B64B
330
7F
100
AcDbDictionary
280
     1
281
     1
  3
ACAD_ROUNDTRIP_2008_TABLESTYLE_CELLSTYLEMAP
360
152E9
  0
XRECORD
  5
152EB
102
{ACAD_REACTORS
330
152F1
102
}
330
152F1
100
AcDbXrecord
280
     1
  1
AcDb_Thumbnail_Schema
102
{ATTRRECORD
341
152EC
  2
AcDbDs::TreatedAsObjectData
280
     1
291
     1
102
ATTRRECORD}
102
{ATTRRECORD
341
152ED
  2
AcDbDs::Legacy
280
     1
291
     1
102
ATTRRECORD}
  2
AcDbDs::ID
280
    10
 91
        8
102
{ATTRRECORD
341
152EE
  2
AcDs:Indexable
280
     1
291
     1
102
ATTRRECORD}
102
{ATTRRECORD
341
152EF
  2
AcDbDs::HandleAttribute
280
     7
282
     1
102
ATTRRECORD}
  2
Thumbnail_Data
280
    15
 91
        0
  0
XRECORD
  5
152EC
102
{ACAD_REACTORS
330
152F1
102
}
330
152F1
100
AcDbXrecord
280
     1
  1
AcDbDs::TreatedAsObjectDataSchema
  2
AcDbDs::TreatedAsObjectData
280
     1
 91
        0
  0
XRECORD
  5
152ED
102
{ACAD_REACTORS
330
152F1
102
}
330
152F1
100
AcDbXrecord
280
     1
  1
AcDbDs::LegacySchema
  2
AcDbDs::Legacy
280
     1
 91
        0
  0
XRECORD
  5
152EE
102
{ACAD_REACTORS
330
152F1
102
}
330
152F1
100
AcDbXrecord
280
     1
  1
AcDbDs::IndexedPropertySchema
  2
AcDs:Indexable
280
     1
 91
        0
  0
XRECORD
  5
152EF
102
{ACAD_REACTORS
330
152F1
102
}
330
152F1
100
AcDbXrecord
280
     1
  1
AcDbDs::HandleAttributeSchema
  2
AcDbDs::HandleAttribute
280
     7
 91
        1
284
     1
  0
XRECORD
  5
152F6
102
{ACAD_REACTORS
330
152F5
102
}
330
152F5
100
AcDbXrecord
280
     1
102
DISPLAYNAME
  1
Metric50
102
FLAGS
 90
        0
  0
XRECORD
  5
B3E4
102
{ACAD_REACTORS
330
B3E2
102
}
330
B3E2
100
AcDbXrecord
280
     1
270
     1
271
     1
  0
XRECORD
  5
B3E3
102
{ACAD_REACTORS
330
B3E2
102
}
330
B3E2
100
AcDbXrecord
280
     1
270
     1
271
     1
  0
XRECORD
  5
B3E7
102
{ACAD_REACTORS
330
B3E2
102
}
330
B3E2
100
AcDbXrecord
280
     1
270
     1
271
     1
  0
XRECORD
  5
B3E6
102
{ACAD_REACTORS
330
B3E2
102
}
330
B3E2
100
AcDbXrecord
280
     1
270
     1
271
     1
  0
XRECORD
  5
B3E8
102
{ACAD_REACTORS
330
B3E2
102
}
330
B3E2
100
AcDbXrecord
280
     1
270
     1
271
     1
  0
XRECORD
  5
B3E5
102
{ACAD_REACTORS
330
B3E2
102
}
330
B3E2
100
AcDbXrecord
280
     1
270
     1
271
     1
  0
XRECORD
  5
B3DC
102
{ACAD_REACTORS
330
B3DA
102
}
330
B3DA
100
AcDbXrecord
280
     1
270
     1
271
     1
  0
XRECORD
  5
B3DB
102
{ACAD_REACTORS
330
B3DA
102
}
330
B3DA
100
AcDbXrecord
280
     1
270
     1
271
     1
  0
XRECORD
  5
B3DF
102
{ACAD_REACTORS
330
B3DA
102
}
330
B3DA
100
AcDbXrecord
280
     1
270
     1
271
     1
  0
XRECORD
  5
B3DE
102
{ACAD_REACTORS
330
B3DA
102
}
330
B3DA
100
AcDbXrecord
280
     1
270
     1
271
     1
  0
XRECORD
  5
B3E0
102
{ACAD_REACTORS
330
B3DA
102
}
330
B3DA
100
AcDbXrecord
280
     1
270
     1
271
     1
  0
XRECORD
  5
B3DD
102
{ACAD_REACTORS
330
B3DA
102
}
330
B3DA
100
AcDbXrecord
280
     1
270
     1
271
     1
  0
XRECORD
  5
B3EC
102
{ACAD_REACTORS
330
B3EA
102
}
330
B3EA
100
AcDbXrecord
280
     1
270
     1
271
     1
  0
XRECORD
  5
B3EB
102
{ACAD_REACTORS
330
B3EA
102
}
330
B3EA
100
AcDbXrecord
280
     1
270
     1
271
     1
  0
XRECORD
  5
B3EF
102
{ACAD_REACTORS
330
B3EA
102
}
330
B3EA
100
AcDbXrecord
280
     1
270
     1
271
     1
  0
XRECORD
  5
B3EE
102
{ACAD_REACTORS
330
B3EA
102
}
330
B3EA
100
AcDbXrecord
280
     1
270
     1
271
     1
  0
XRECORD
  5
B3F0
102
{ACAD_REACTORS
330
B3EA
102
}
330
B3EA
100
AcDbXrecord
280
     1
270
     1
271
     1
  0
XRECORD
  5
B3ED
102
{ACAD_REACTORS
330
B3EA
102
}
330
B3EA
100
AcDbXrecord
280
     1
270
     1
271
     1
  0
XRECORD
  5
152F4
102
{ACAD_REACTORS
330
152F3
102
}
330
152F3
100
AcDbXrecord
280
     1
102
DISPLAYNAME
  1
Metric50
102
FLAGS
 90
        0
  0
CELLSTYLEMAP
  5
152E9
102
{ACAD_REACTORS
330
B64B
102
}
330
B64B
100
AcDbCellStyleMap
 90
        3
300
CELLSTYLE
  1
TABLEFORMAT_BEGIN
 90
        5
170
     1
 91
        0
 92
    32768
 62
   257
 93
        1
300
CONTENTFORMAT
  1
CONTENTFORMAT_BEGIN
 90
        0
 91
        0
 92
        4
 93
        0
300

 40
0.0
140
1.0
 94
        5
 62
     0
340
11
144
6.0
309
CONTENTFORMAT_END
171
     1
301
MARGIN
  1
CELLMARGIN_BEGIN
 40
1.5
 40
1.5
 40
1.5
 40
1.5
 40
0.18
 40
0.18
309
CELLMARGIN_END
 94
        6
 95
        1
302
GRIDFORMAT
  1
GRIDFORMAT_BEGIN
 90
        0
 91
        1
 62
     0
 92
       -2
340
0
 93
        0
 40
0.045
309
GRIDFORMAT_END
 95
        2
302
GRIDFORMAT
  1
GRIDFORMAT_BEGIN
 90
        0
 91
        1
 62
     0
 92
       -2
340
0
 93
        0
 40
0.045
309
GRIDFORMAT_END
 95
        4
302
GRIDFORMAT
  1
GRIDFORMAT_BEGIN
 90
        0
 91
        1
 62
     0
 92
       -2
340
0
 93
        0
 40
0.045
309
GRIDFORMAT_END
 95
        8
302
GRIDFORMAT
  1
GRIDFORMAT_BEGIN
 90
        0
 91
        1
 62
     0
 92
       -2
340
0
 93
        0
 40
0.045
309
GRIDFORMAT_END
 95
       16
302
GRIDFORMAT
  1
GRIDFORMAT_BEGIN
 90
        0
 91
        1
 62
     0
 92
       -2
340
0
 93
        0
 40
0.045
309
GRIDFORMAT_END
 95
       32
302
GRIDFORMAT
  1
GRIDFORMAT_BEGIN
 90
        0
 91
        1
 62
     0
 92
       -2
340
0
 93
        0
 40
0.045
309
GRIDFORMAT_END
309
TABLEFORMAT_END
  1
CELLSTYLE_BEGIN
 90
        1
 91
        1
300
_TITLE
309
CELLSTYLE_END
300
CELLSTYLE
  1
TABLEFORMAT_BEGIN
 90
        5
170
     1
 91
        0
 92
        0
 62
   257
 93
        1
300
CONTENTFORMAT
  1
CONTENTFORMAT_BEGIN
 90
        0
 91
        0
 92
        4
 93
        0
300

 40
0.0
140
1.0
 94
        5
 62
     0
340
11
144
4.5
309
CONTENTFORMAT_END
171
     1
301
MARGIN
  1
CELLMARGIN_BEGIN
 40
1.5
 40
1.5
 40
1.5
 40
1.5
 40
0.18
 40
0.18
309
CELLMARGIN_END
 94
        6
 95
        1
302
GRIDFORMAT
  1
GRIDFORMAT_BEGIN
 90
        0
 91
        1
 62
     0
 92
       -2
340
0
 93
        0
 40
0.045
309
GRIDFORMAT_END
 95
        2
302
GRIDFORMAT
  1
GRIDFORMAT_BEGIN
 90
        0
 91
        1
 62
     0
 92
       -2
340
0
 93
        0
 40
0.045
309
GRIDFORMAT_END
 95
        4
302
GRIDFORMAT
  1
GRIDFORMAT_BEGIN
 90
        0
 91
        1
 62
     0
 92
       -2
340
0
 93
        0
 40
0.045
309
GRIDFORMAT_END
 95
        8
302
GRIDFORMAT
  1
GRIDFORMAT_BEGIN
 90
        0
 91
        1
 62
     0
 92
       -2
340
0
 93
        0
 40
0.045
309
GRIDFORMAT_END
 95
       16
302
GRIDFORMAT
  1
GRIDFORMAT_BEGIN
 90
        0
 91
        1
 62
     0
 92
       -2
340
0
 93
        0
 40
0.045
309
GRIDFORMAT_END
 95
       32
302
GRIDFORMAT
  1
GRIDFORMAT_BEGIN
 90
        0
 91
        1
 62
     0
 92
       -2
340
0
 93
        0
 40
0.045
309
GRIDFORMAT_END
309
TABLEFORMAT_END
  1
CELLSTYLE_BEGIN
 90
        2
 91
        1
300
_HEADER
309
CELLSTYLE_END
300
CELLSTYLE
  1
TABLEFORMAT_BEGIN
 90
        5
170
     1
 91
        0
 92
        0
 62
   257
 93
        1
300
CONTENTFORMAT
  1
CONTENTFORMAT_BEGIN
 90
        0
 91
        0
 92
        4
 93
        0
300

 40
0.0
140
1.0
 94
        2
 62
     0
340
11
144
4.5
309
CONTENTFORMAT_END
171
     1
301
MARGIN
  1
CELLMARGIN_BEGIN
 40
1.5
 40
1.5
 40
1.5
 40
1.5
 40
0.18
 40
0.18
309
CELLMARGIN_END
 94
        6
 95
        1
302
GRIDFORMAT
  1
GRIDFORMAT_BEGIN
 90
        0
 91
        1
 62
     0
 92
       -2
340
0
 93
        0
 40
0.045
309
GRIDFORMAT_END
 95
        2
302
GRIDFORMAT
  1
GRIDFORMAT_BEGIN
 90
        0
 91
        1
 62
     0
 92
       -2
340
0
 93
        0
 40
0.045
309
GRIDFORMAT_END
 95
        4
302
GRIDFORMAT
  1
GRIDFORMAT_BEGIN
 90
        0
 91
        1
 62
     0
 92
       -2
340
0
 93
        0
 40
0.045
309
GRIDFORMAT_END
 95
        8
302
GRIDFORMAT
  1
GRIDFORMAT_BEGIN
 90
        0
 91
        1
 62
     0
 92
       -2
340
0
 93
        0
 40
0.045
309
GRIDFORMAT_END
 95
       16
302
GRIDFORMAT
  1
GRIDFORMAT_BEGIN
 90
        0
 91
        1
 62
     0
 92
       -2
340
0
 93
        0
 40
0.045
309
GRIDFORMAT_END
 95
       32
302
GRIDFORMAT
  1
GRIDFORMAT_BEGIN
 90
        0
 91
        1
 62
     0
 92
       -2
340
0
 93
        0
 40
0.045
309
GRIDFORMAT_END
309
TABLEFORMAT_END
  1
CELLSTYLE_BEGIN
 90
        3
 91
        2
300
_DATA
309
CELLSTYLE_END
  0
ENDSEC
  0
SECTION
  2
ACDSDATA
 70
     2
 71
     8
  0
ACDSSCHEMA
 90
        0
  1
AcDb_Thumbnail_Schema
  2
AcDbDs::ID
280
    10
 91
        8
  2
Thumbnail_Data
280
    15
 91
        0
101
ACDSRECORD
 95
        0
 90
        1
  2
AcDbDs::TreatedAsObjectData
280
     1
291
     1
101
ACDSRECORD
 95
        0
 90
        2
  2
AcDbDs::Legacy
280
     1
291
     1
101
ACDSRECORD
  1
AcDbDs::ID
 90
        3
  2
AcDs:Indexable
280
     1
291
     1
101
ACDSRECORD
  1
AcDbDs::ID
 90
        4
  2
AcDbDs::HandleAttribute
280
     7
282
     1
  0
ACDSSCHEMA
 90
        1
  1
AcDbDs::TreatedAsObjectDataSchema
  2
AcDbDs::TreatedAsObjectData
280
     1
 91
        0
  0
ACDSSCHEMA
 90
        2
  1
AcDbDs::LegacySchema
  2
AcDbDs::Legacy
280
     1
 91
        0
  0
ACDSSCHEMA
 90
        3
  1
AcDbDs::IndexedPropertySchema
  2
AcDs:Indexable
280
     1
 91
        0
  0
ACDSSCHEMA
 90
        4
  1
AcDbDs::HandleAttributeSchema
  2
AcDbDs::HandleAttribute
280
     7
 91
        1
284
     1
  0
ACDSRECORD
 90
        0
  2
AcDbDs::ID
280
    10
320
22
  2
Thumbnail_Data
280
    15
 94
     3156
310
89504E470D0A1A0A0000000D4948445200000100000000870803000000CE6E778000000300504C5445000000FFFFFF0000000000000000000000000000000000000000000000000000000000330000660000990000CC0000FF0033000033330033660033990033CC0033FF0066000066330066660066990066CC0066FF0099
310
000099330099660099990099CC0099FF00CC0000CC3300CC6600CC9900CCCC00CCFF00FF0000FF3300FF6600FF9900FFCC00FFFF3300003300333300663300993300CC3300FF3333003333333333663333993333CC3333FF3366003366333366663366993366CC3366FF3399003399333399663399993399CC3399FF33CC00
310
33CC3333CC6633CC9933CCCC33CCFF33FF0033FF3333FF6633FF9933FFCC33FFFF6600006600336600666600996600CC6600FF6633006633336633666633996633CC6633FF6666006666336666666666996666CC6666FF6699006699336699666699996699CC6699FF66CC0066CC3366CC6666CC9966CCCC66CCFF66FF0066
310
FF3366FF6666FF9966FFCC66FFFF9900009900339900669900999900CC9900FF9933009933339933669933999933CC9933FF9966009966339966669966999966CC9966FF9999009999339999669999999999CC9999FF99CC0099CC3399CC6699CC9999CCCC99CCFF99FF0099FF3399FF6699FF9999FFCC99FFFFCC0000CC00
310
33CC0066CC0099CC00CCCC00FFCC3300CC3333CC3366CC3399CC33CCCC33FFCC6600CC6633CC6666CC6699CC66CCCC66FFCC9900CC9933CC9966CC9999CC99CCCC99FFCCCC00CCCC33CCCC66CCCC99CCCCCCCCCCFFCCFF00CCFF33CCFF66CCFF99CCFFCCCCFFFFFF0000FF0033FF0066FF0099FF00CCFF00FFFF3300FF3333
310
FF3366FF3399FF33CCFF33FFFF6600FF6633FF6666FF6699FF66CCFF66FFFF9900FF9933FF9966FF9999FF99CCFF99FFFFCC00FFCC33FFCC66FFCC99FFCCCCFFCCFFFFFF00FFFF33FFFF66FFFF99FFFFCCFFFFFF0000000D0D0D1A1A1A2828283535354343435050505D5D5D6B6B6B787878868686939393A1A1A1AEAEAEBB
310
BBBBC9C9C9D6D6D6E4E4E4F1F1F1FFFFFF0000000000000000000000000000000000000000000000000000000000003AE5ACE9000006724944415478DAED9D5996AC200C40B321F6FFC78FDBC836F2DFA54C41411C20620BEF749787AEA2E09A4006F0018C5228F4EA5203C0ABEFDE0050A58DF7CA7F2D00AFBDFD03C000D0
310
110044049C5FE62B7C3D00BC028097B39FEE0E8074E95A02CE74EFC458907D4BCF004EDCA05377D34E1A4305BA56816D0FB12C010726BB4DBB1D4AC0AAA3D00840C72A909ED76EAEF0989E5AAFE8404B007595F560CB5DAA40158BE5C0C7B1D739A00F006921F92200FC2600FCBA0ABC01C0363E9B89D85E0080C293A05136
310
9A3491B6FFCCAFA54C53323CA70E55FDEAD05D466DEB89EBB8BDB66FC45C10BC9904A0B9811900A45385A85C63AB9300ECE0B85D4C6A29A834285B640164C43C2DDA475560A9CDB61D0370D7BF812B60358F0130958783D62A13CB8E5AC602008D606EBDEE02801DFE7509883ECDD53E0700615680DF2F9206A0736DDF0590
310
36EF7EB34302C032692C00E6572900280400B2003048C03C932AA5CD242903C0F688DA4B00BFE02A80C827C145024870127C1080FDEA1800805FFE240168366FAF177275DD0E60AD056B07DDCC1A01D06A5BFE9504AC3CBB7E2400C45560B30C3E3B07082C83CBD4CFECFEEC32F8C82AD01E003700DC554F76C09E2548152C
310
416206806791B304E9314B30D57FEBC9DCF4057EA33DE10B4047BE0095BCBCA3DE209CF106D563DE60AE548A072477FC25E2014A3C1EE094321D10A15B2AC0EAD601916C442814948C099E6DE5684CF042F854678283FF7D9314966A3E032097429701502F2D9A691D72CD23EFC163006A2686533779A7F562FE585E02B085
310
04649BEF630E40213D7F70F63A0BA0862518A25F3D02B0568852715AEAB4D5B36F08B158D05CAFE8BCBC34F705D4EA2B9D657ACB1436E92EE70CBB96BD6444AB026E2EE35C4273674851F04A03807BEE3003308FC3B59E0250DAA8D41CC06CA2C3FCB35CC42181EBBE8057B49F02CCAD6BF335A984090B1A04322004600942
310
FD3A0C64DE41B5638204AC6DB211A1C3128020911E07E7B17119A803C0B5ACFD456C1D9A7F7C27295AC3492E2A6CD553411CC3A82701CB8F693E0A97EFD87F129BA45CB2CEDC933924A5239FB41600BDFCD86097762A902290B3171A27467CF8456D26F23A7981A871455907206B85374E8DA95CB9971ACBB6DA19803D09A0
310
A61290348492045AEF0F109D04CBCBA0A033142F83D06C196466105F065D1778A214045520328440DA10EAC21D7612101B2BD597C1D81422E80E40D0D3E81DB753637EA671AD2BBA164417F006B5B380740B7798B7DE2580B5C193D9A97246057C0BF1B4AEBA0290C94B554A8D21CB88DF7C1AC84387A72B6D972FC780DF05
310
E07C1CF8F3006000780D003C7172B4983F8A4F8EBEF1F87C19001E06308ECF777C7CFE056500E8EF313A2C9CF13D00D8762FC500D025805DF3A0DE53277A05103D5924EC715CD540B3276B3D05A0E6725F5018E4270BFA0190EE6AB926E5031E0080FD0148EE695BD7A69F2A8757E8F6A60230250646BFDAA8FB44C9F795D4
310
CB7D986DAA0EDB8A50283BCCC2557A13B2A21F806444682AD54471A2DC08FDF61F5734EFA90C80E5A08A0B01DB20A65661086A3A120054F3B30656DBDD1948F24713B57F092B070B946B4F4E0A009874BD0E5FAF59FA7ECE634CC9B0F854AAD1A84302C43769F721CCD9112601211717FE2C088094BBE37EDC4C02E8A20460
310
24016E842EE764D8742201A434EC01B83407CC77370200BB00FCC0C975E463005C231ADC591951006A0540D507003100480020D303249403808F02C008807D8A48D818296007603B09985B2E00404803B0296A1143C849406C072815D901970D21DA3584561240CC38242900CB77E81D00BFA55C5DB5039663937ECA4B00F0
310
230CA603B20F8B4A40031500383707189DD7BE42640E68B80A1C0110CF01E87B40FF61193C0D00E9E300BC1D101685AF01709620C803D875868E9669679758DA19DABAC3E45FBB718773BBC48E2C835AE7DC61FF68A1E7DDE1524044DD3084C2F1B88E03224B486C05809D9AAAA402485B0051486CE58FCAB9C3460D36EE30
310
4F814CDBE0A6B9DFEBA02824F20091D3118D901D0D41CAF01103B089EEE32A569F4B1461766FCD265D147F45743626F90876940B8BE37608DBC719645319FB7F5EBF11C313C4307907B24FE06F09209FD3AAB317A694383BB48B464405924271E816972460BB53B2944E1604009787888709C8F7BC4A338F6C07EB0940CD7D
310
826F05D08B003C07E0CEB7FD0300FD9401600018000680016000180006800160001800EE36F3F5FF7DFEBD6500A8D1C6AB0B8C52287FD33E6102CD0BC64D0000000049454E44AE42608260827A4B6485A3AD89FDD08F8461C7337FEE20F844E2B035496700680EC08A982B32CC003852E28A01385E2FE11D94006412E04B2D
310
AE89359FEFD52E011000B093E4D89651006EB0CD0540B913D2980D38A7355E00A008404838809DF35805601FB900EE793B3300400280C50008C22616008089F3B52D03000300CE31D2981BFC1800569C91108B00D003B006C6C605978B1CF0027F0480BB41D19ACC0D86EE13ECCC535F8B3B6661DAE2DC0000BC4D02CEF982
310
6500082900EECF5C20044202D03E346C5402C299EB3A9CBA4E8A8603213FC02F1508817CF00989A88401E01A131941C46B86F498110C9F5D1002D0A486E300ED00E81400ED015C8103B20FB70060A1E2B01BBCCD0670FF9E53012101BE359D443400707100CDC7017F01407801D19A911748035818097E2B80457D814F0000
310
5C9C73008417A884CF5F07808B3303A0AFDD457738EC5F8D76877D5F4065FA02EDCB961D4A93EB0C85DDE19438DF9D10A97587D34B9B1B748FD34B36576B77B890120B988EA5C4D20991AB3B7C8CEC1E55013F267A3A212203D7F3675552D4A5C4C28C10D162159057AB654AACD69AECC9B10E0084459A7A8AB5F46C719177
310
3E5FFD10231C96005F30C3F80E790103737CA2AA546262391B16300520B3E91A79924AE357B6300098CE07E7EB38982F4DE52B56370198AADC9501401D00448FA28AA0B756E05A0084830C3A86C0148404A50E43EE7FC564C63814DAB7AB0459FEFF0249795A3314A65638AD887341C2FB8AB04500E11A321B50AFEDD45400
310
A3C32226CFDE6CD19F2A8E368C129BF8F8C3CB0080CF190DF6771200731200DF0EA04142263EFF0D12F0FF68C0FBFF065F002F8017C00BE005F0027801BC005E002F80AFBAEAA5FFCA9ED61EF08165BD10FCF6F27D00FE0132F8C052D67804680000000049454E44AE426082
  0
ACDSRECORD
 90
        0
  2
AcDbDs::ID
280
    10
320
78E
  2
Thumbnail_Data
280
    15
 94
     3220
310
89504E470D0A1A0A0000000D4948445200000100000000B5080300000087DCD12600000300504C54450D0D0DFFFFFF0D0D0D0000000000000000000000000000000000000000000000000000330000660000990000CC0000FF0033000033330033660033990033CC0033FF0066000066330066660066990066CC0066FF0099
310
000099330099660099990099CC0099FF00CC0000CC3300CC6600CC9900CCCC00CCFF00FF0000FF3300FF6600FF9900FFCC00FFFF3300003300333300663300993300CC3300FF3333003333333333663333993333CC3333FF3366003366333366663366993366CC3366FF3399003399333399663399993399CC3399FF33CC00
310
33CC3333CC6633CC9933CCCC33CCFF33FF0033FF3333FF6633FF9933FFCC33FFFF6600006600336600666600996600CC6600FF6633006633336633666633996633CC6633FF6666006666336666666666996666CC6666FF6699006699336699666699996699CC6699FF66CC0066CC3366CC6666CC9966CCCC66CCFF66FF0066
310
FF3366FF6666FF9966FFCC66FFFF9900009900339900669900999900CC9900FF9933009933339933669933999933CC9933FF9966009966339966669966999966CC9966FF9999009999339999669999999999CC9999FF99CC0099CC3399CC6699CC9999CCCC99CCFF99FF0099FF3399FF6699FF9999FFCC99FFFFCC0000CC00
310
33CC0066CC0099CC00CCCC00FFCC3300CC3333CC3366CC3399CC33CCCC33FFCC6600CC6633CC6666CC6699CC66CCCC66FFCC9900CC9933CC9966CC9999CC99CCCC99FFCCCC00CCCC33CCCC66CCCC99CCCCCCCCCCFFCCFF00CCFF33CCFF66CCFF99CCFFCCCCFFFFFF0000FF0033FF0066FF0099FF00CCFF00FFFF3300FF3333
310
FF3366FF3399FF33CCFF33FFFF6600FF6633FF6666FF6699FF66CCFF66FFFF9900FF9933FF9966FF9999FF99CCFF99FFFFCC00FFCC33FFCC66FFCC99FFCCCCFFCCFFFFFF00FFFF33FFFF66FFFF99FFFFCCFFFFFF0000000D0D0D1A1A1A2828283535354343435050505D5D5D6B6B6B787878868686939393A1A1A1AEAEAEBB
310
BBBBC9C9C9D6D6D6E4E4E4F1F1F1FFFFFF000000000000000000000000000000000000000000000000000000000000D3F30D92000009184944415478DAED9D4BA2A42A0C40B321F63F63E236B281BB00E6B74A050384AF805AC8EBEE67F9038F21840410FE264FF0028089D30B6003A0264D04C08C6FFF05F002F001E04489
310
0730CFFB1F0A00C9AD7142008CF83D08C0F9D2E27A0F24241A201D09E09E2A6C1C809BAAB0AB005C537FBD5C2F03502F7D6744D7BF10AF52824C51321FAA04807B1EFA3B5E257841150814003B54013E53BAFB922AB0154237EA630000797CBCA20AB885EEA18FCA352FB630CF72008CA98E958AE71A09E8619516DF148749
310
40CE03F6AF0257F7051E0C2052615E00330088E9CC1900E0EC3AE01600420EF7B827BE09006CD60A4860FE98B4A8E600142D07977B0E0094E70018E5B128A9983F3A2D957139113D42EECAE5BE044D567319BA61C07200FA05270108D1520284104900CAD3EDFBC6A72C7B42716C0BA684E92A80A6A4812AB05D2417194B2A
310
B45FC5AF3AE871B9EB02FB008EDF4292C756A700C45F2E2B606774C071C370D6CAF31BD857E02A4AD017C07E28569DEB7480D8F34CE51C0420F100203B02D80E7EFE369680ED203D43BB83300FC04745C81580347BAA017C2A64BC9D575D00D8D5CA336875A958009B1AD900EC9BDD24603FA18B04B81E20247EA09404AC7F
310
3E00547F091802A04C02B40C08A1DFFFD3250083850A012012F06300F6EDFD040C36836094606D3368A4ED720076579E02388E1CA56D0D404ABB8D666DBABDB2B5B204BF26C2F10BA565E6A32908F58DEA0D2942C953652D25A06D5F0094884800D812802109386F09E23D7500B055003A0080FB0388F405CEEB805B00700C
310
E0FCBE40C366F04243C8337F8E1071C21052C41052CF0600DB7F963D98D517D825A07B5F40F5EB0C294702A88F3FDD1768D61B8C02D0DDD62E12F079CC6A7F0069053A9AC2DA6DD1DA29BAF785F18C47A86D33F8449F604B4328EE15FE1A82ADBDC29674F0B98700844CE1FAB8C09204D0232E9002B0386E713F2E6027AC8F
310
0C0584B06F644865E71E0987C9A831396AB87C5D6CB03ADD0FC0E084D9FB5F002F8072007AA0E835135FB272C78023A509806B67FEE40D94CC1F555929017722C09F0499BB6B24E096B5BBFE7E2F8042007525386F08611FFAD97D81D0A09B617D0164731F2001A47F157D055DC608B9FA0BDD3346488029290F404761547B
310
7F8019E864D43DCD5D507CEBFC153CEC03777CACD949E79E147B84849078742F24E9B83BAFAB910E700158B90B6001049AFFA05150E61213CA76397A7ED10E2E31528EAD3BBFEE142A844F57153C8C4034476CCF7A31808F202B69FD3B2630B29583C93D5A05F458124EFA69A5CA8F0BC855154AED6E567657BB37002BDF3D
310
D873442B1255206C189748C09AA7507659860120F99A32C4AB00996267A4DFB39EF301F81268D782BE0002B92BB79790EC2A60A51DF01536ADFB04AB070748C0F6AF38B6AD805DDDB4BAC2B8C05A178509380FD6017BEEC7B68A4A00E47455F3478808DB06E11EA5FB3841376F415B81B8197012C0C7645B443C7518232454
310
22CF45E93A906E05CE4B400680B61220D2891B48EB4943B413593748EA2E5520B72F00F512E01842BB32BA540992ED2243E87C2B609A417165334873774751D1850D689B109968FF404348840CA12AEF55A121B47607AE368585D94E8F5C6AE811525B9E77E80C99320C7589DDA93B2CBCEEF01800DA1EBCCC2162F2156187
310
48570042C2152E31ED8C24F96E2551639DA2C09A7A039CA28269C885182D01D13150C9132A0749F91669E884718111353030629B720925D1393486E93BB50F8D2557AAC2C700381F099D1E00BC005E002F801B01C0FAF54DAD15118B9EEFDA35451345C97FA8826155B702F0AE293AB90EF8D5F40218B9BC3EE885686FB2B4
310
FE6000CC789D3901E0A400462DC5FB2AC17B00F057A2E6AD686FBDEA5F02802C0FEB807F163E17C02043371DF277CE441C06206A0120BF3F76557C364CFE1B1905A0E620964E4DC86F42F2CE6C0B203E8D8B1DB617BB0A1BD11F27014B703CD6772F77146357350020DB03903100D1027247BF592E994F25235B48EEE8CC39
310
A7B34E38974A148089C91C713AB345E6EFAF19A3124B556088BD6A0B0459A824F358D22C3262CEB3DE918D4A315EA6D428317D4F1F803344E43B4C2E2C01AA5802D009382BE0016C4F8534273AB4C6CAA912800ED6AE3BF60839D07DDB6F2523CB687C83C04B203ACC5E85B81E24F727F94965F254EBB94402F44E0BC0BEB3
310
5E0284D4915F61CA24B6C13A59B5B95C02BE4FE449807948BAA51C1DD05E02F669122E806FB5B000D4ACAF5DA4038003A07C00ED75401E00504D75803B4AAC02008DA03F0CC0B7E9A90640EE6D8FA43A01001800D00F00720080010061007AF521B4774D0340AFA6B5DE0A9F06004E03D8FFB7AF44AA1E0700FCA1B2270040
310
2D80DDBEB83D00C41880E3A782B2BE001E00846F0A3BC3D45A9BC2EEAAB2E12E8E670A134D80EE72F3582101320240120BF403A09D29BCAF2B4C6E1F0420C1B2841D7BDA4A5005E08955408B8574F69676879FA204191D80484D61355D2BA017D9F634E32400CC1708660560AFABAA604200A62F004FEC0BB400B01E92A0DA
310
F406F31C227569C99A3253E51021B738EB14E50040479798FBD2AF7489653A459353660A2D41F6FE8E53541B7C239CA2BE29EC384545DBBE803B23E61AB7784960A4B30EC06B0223FA67202C658FF5C0A63AC08918D200BB5F0622B3565F8941550720101B7401602CAE180A8206F66701401F4024928995C151CCF9910EC6
310
9B259EF8FDDC6E1E80BD4A6A14003607C07DEF882B6F0A43DE896CC6D62736E323E8DDA15AB50002A39AAA4638D59DE77E6384D9ED17D61F83550D20398CA9F3848082C15485A3AEDA8D10C1822923AD6F7922B50450F025F4D6A8AE0770E349318324A043599343FCDA006E56050AAA0A36B9A71E327A9817E8AEA204C777
310
A9F61526D1BAB0A90EE8202B98A34DF0F8F4963727C3C1E4EC026CAC04072B00244638F3C9BD98F1D3A515E8A2A11EA403C62767A1C080F4C4971384DF01C0A8C29F07905317E0F49AA20F00608B04DAF3D3D16B33E812D33F07C06F3F90179363BDED1F02005A02D2CDE06F48C0F4CD604D63F9202598632712A3DEB80D11
310
E8AF470300677D5BFD49845DCFA3793AB70F40BECCFBE066902A6CFBA573128046007E09001C9F15831080A35543D77D6E7FAF9A5F66F8CE0080893B0040E157DE10184B280960A2C402982ABD005E0004C09CC9009837BD00BE00264FD303F807E73114E33B84B0410000000049454E44AE4260820000000049454E44AE42
310
608291F403F0036001F866D200BE9B7E0076001F4F9F07F01F91E71D612643DEAE0000000049454E44AE426082
  0
ENDSEC
  0
EOF
