  0
SECTION
  2
HEADER
  9
$ACADVER
  1
AC1027
  9
$ACADMAINTVER
 70
   125
  9
$DWGCODEPAGE
  3
ANSI_932
  9
$LASTSAVEDBY
  1
D-mishima
  9
$REQUIREDVERSIONS
160
                 0
  9
$INSBASE
 10
0.0
 20
0.0
 30
0.0
  9
$EXTMIN
 10
0.0
 20
0.0
 30
0.0
  9
$EXTMAX
 10
4200.0
 20
2970.0
 30
0.0
  9
$LIMMIN
 10
0.0
 20
0.0
  9
$LIMMAX
 10
4200.0
 20
2970.0
  9
$ORTHOMODE
 70
     1
  9
$REGENMODE
 70
     1
  9
$FILLMODE
 70
     1
  9
$QTEXTMODE
 70
     0
  9
$MIRRTEXT
 70
     0
  9
$LTSCALE
 40
0.1
  9
$ATTMODE
 70
     1
  9
$TEXTSIZE
 40
37.5
  9
$TRACEWID
 40
1.0
  9
$TEXTSTYLE
  7
Standard
  9
$CLAYER
  8
寸法線
  9
$CELTYPE
  6
ByLayer
  9
$CECOLOR
 62
   256
  9
$CELTSCALE
 40
1.0
  9
$DISPSILH
 70
     0
  9
$DIMSCALE
 40
10.0
  9
$DIMASZ
 40
2.0
  9
$DIMEXO
 40
0.875
  9
$DIMDLI
 40
10.0
  9
$DIMRND
 40
0.0
  9
$DIMDLE
 40
0.0
  9
$DIMEXE
 40
1.0
  9
$DIMTP
 40
0.0
  9
$DIMTM
 40
0.0
  9
$DIMTXT
 40
2.5
  9
$DIMCEN
 40
0.0
  9
$DIMTSZ
 40
0.0
  9
$DIMTOL
 70
     0
  9
$DIMLIM
 70
     0
  9
$DIMTIH
 70
     0
  9
$DIMTOH
 70
     0
  9
$DIMSE1
 70
     0
  9
$DIMSE2
 70
     0
  9
$DIMTAD
 70
     1
  9
$DIMZIN
 70
     8
  9
$DIMBLK
  1

  9
$DIMASO
 70
     1
  9
$DIMSHO
 70
     1
  9
$DIMPOST
  1

  9
$DIMAPOST
  1

  9
$DIMALT
 70
     0
  9
$DIMALTD
 70
     2
  9
$DIMALTF
 40
25.4
  9
$DIMLFAC
 40
1.0
  9
$DIMTOFL
 70
     1
  9
$DIMTVP
 40
0.0
  9
$DIMTIX
 70
     0
  9
$DIMSOXD
 70
     0
  9
$DIMSAH
 70
     1
  9
$DIMBLK1
  1
OPEN
  9
$DIMBLK2
  1
OPEN
  9
$DIMSTYLE
  2
STANDARD
  9
$DIMCLRD
 70
     0
  9
$DIMCLRE
 70
     0
  9
$DIMCLRT
 70
     0
  9
$DIMTFAC
 40
1.0
  9
$DIMGAP
 40
0.875
  9
$DIMJUST
 70
     0
  9
$DIMSD1
 70
     0
  9
$DIMSD2
 70
     0
  9
$DIMTOLJ
 70
     1
  9
$DIMTZIN
 70
     0
  9
$DIMALTZ
 70
     0
  9
$DIMALTTZ
 70
     0
  9
$DIMUPT
 70
     0
  9
$DIMDEC
 70
     3
  9
$DIMTDEC
 70
     3
  9
$DIMALTU
 70
     2
  9
$DIMALTTD
 70
     2
  9
$DIMTXSTY
  7
Standard
  9
$DIMAUNIT
 70
     0
  9
$DIMADEC
 70
     0
  9
$DIMALTRND
 40
0.0
  9
$DIMAZIN
 70
     0
  9
$DIMDSEP
 70
    46
  9
$DIMATFIT
 70
     3
  9
$DIMFRAC
 70
     0
  9
$DIMLDRBLK
  1
OPEN
  9
$DIMLUNIT
 70
     2
  9
$DIMLWD
 70
    -2
  9
$DIMLWE
 70
    -2
  9
$DIMTMOVE
 70
     0
  9
$DIMFXL
 40
1.0
  9
$DIMFXLON
 70
     0
  9
$DIMJOGANG
 40
1.570796326794896
  9
$DIMTFILL
 70
     0
  9
$DIMTFILLCLR
 70
     0
  9
$DIMARCSYM
 70
     0
  9
$DIMLTYPE
  6

  9
$DIMLTEX1
  6

  9
$DIMLTEX2
  6

  9
$DIMTXTDIRECTION
 70
     0
  9
$LUNITS
 70
     2
  9
$LUPREC
 70
     4
  9
$SKETCHINC
 40
1.0
  9
$FILLETRAD
 40
0.0
  9
$AUNITS
 70
     0
  9
$AUPREC
 70
     0
  9
$MENU
  1
.
  9
$ELEVATION
 40
0.0
  9
$PELEVATION
 40
0.0
  9
$THICKNESS
 40
0.0
  9
$LIMCHECK
 70
     0
  9
$CHAMFERA
 40
0.0
  9
$CHAMFERB
 40
0.0
  9
$CHAMFERC
 40
0.0
  9
$CHAMFERD
 40
0.0
  9
$SKPOLY
 70
     0
  9
$TDCREATE
 40
2454064.449062500
  9
$TDUCREATE
 40
2454064.074062859
  9
$TDUPDATE
 40
2460315.476134260
  9
$TDUUPDATE
 40
2460315.101134259
  9
$TDINDWG
 40
3.1345755093
  9
$TDUSRTIMER
 40
3.1345532870
  9
$USRTIMER
 70
     1
  9
$ANGBASE
 50
0.0
  9
$ANGDIR
 70
     0
  9
$PDMODE
 70
     0
  9
$PDSIZE
 40
0.0
  9
$PLINEWID
 40
0.0
  9
$SPLFRAME
 70
     0
  9
$SPLINETYPE
 70
     6
  9
$SPLINESEGS
 70
     8
  9
$HANDSEED
  5
14201
  9
$SURFTAB1
 70
     6
  9
$SURFTAB2
 70
     6
  9
$SURFTYPE
 70
     6
  9
$SURFU
 70
     6
  9
$SURFV
 70
     6
  9
$UCSBASE
  2

  9
$UCSNAME
  2

  9
$UCSORG
 10
0.0
 20
0.0
 30
0.0
  9
$UCSXDIR
 10
1.0
 20
0.0
 30
0.0
  9
$UCSYDIR
 10
0.0
 20
1.0
 30
0.0
  9
$UCSORTHOREF
  2

  9
$UCSORTHOVIEW
 70
     0
  9
$UCSORGTOP
 10
0.0
 20
0.0
 30
0.0
  9
$UCSORGBOTTOM
 10
0.0
 20
0.0
 30
0.0
  9
$UCSORGLEFT
 10
0.0
 20
0.0
 30
0.0
  9
$UCSORGRIGHT
 10
0.0
 20
0.0
 30
0.0
  9
$UCSORGFRONT
 10
0.0
 20
0.0
 30
0.0
  9
$UCSORGBACK
 10
0.0
 20
0.0
 30
0.0
  9
$PUCSBASE
  2

  9
$PUCSNAME
  2

  9
$PUCSORG
 10
0.0
 20
0.0
 30
0.0
  9
$PUCSXDIR
 10
1.0
 20
0.0
 30
0.0
  9
$PUCSYDIR
 10
0.0
 20
1.0
 30
0.0
  9
$PUCSORTHOREF
  2

  9
$PUCSORTHOVIEW
 70
     0
  9
$PUCSORGTOP
 10
0.0
 20
0.0
 30
0.0
  9
$PUCSORGBOTTOM
 10
0.0
 20
0.0
 30
0.0
  9
$PUCSORGLEFT
 10
0.0
 20
0.0
 30
0.0
  9
$PUCSORGRIGHT
 10
0.0
 20
0.0
 30
0.0
  9
$PUCSORGFRONT
 10
0.0
 20
0.0
 30
0.0
  9
$PUCSORGBACK
 10
0.0
 20
0.0
 30
0.0
  9
$USERI1
 70
     0
  9
$USERI2
 70
     0
  9
$USERI3
 70
     0
  9
$USERI4
 70
     0
  9
$USERI5
 70
     0
  9
$USERR1
 40
0.0
  9
$USERR2
 40
0.0
  9
$USERR3
 40
0.0
  9
$USERR4
 40
0.0
  9
$USERR5
 40
0.0
  9
$WORLDVIEW
 70
     1
  9
$SHADEDGE
 70
     3
  9
$SHADEDIF
 70
    70
  9
$TILEMODE
 70
     0
  9
$MAXACTVP
 70
    64
  9
$PINSBASE
 10
0.0
 20
0.0
 30
0.0
  9
$PLIMCHECK
 70
     0
  9
$PEXTMIN
 10
0.0000000000000853
 20
0.0
 30
0.0
  9
$PEXTMAX
 10
408.1991586685179
 20
285.1784963607788
 30
0.0
  9
$PLIMMIN
 10
-5.873748779296875
 20
-5.873749732971191
  9
$PLIMMAX
 10
414.0729064941406
 20
291.0522451400757
  9
$UNITMODE
 70
     0
  9
$VISRETAIN
 70
     1
  9
$PLINEGEN
 70
     0
  9
$PSLTSCALE
 70
     1
  9
$TREEDEPTH
 70
  3020
  9
$CMLSTYLE
  2
Standard
  9
$CMLJUST
 70
     0
  9
$CMLSCALE
 40
20.0
  9
$PROXYGRAPHICS
 70
     1
  9
$MEASUREMENT
 70
     1
  9
$CELWEIGHT
370
    -1
  9
$ENDCAPS
280
     0
  9
$JOINSTYLE
280
     0
  9
$LWDISPLAY
290
     0
  9
$INSUNITS
 70
     4
  9
$HYPERLINKBASE
  1

  9
$STYLESHEET
  1
SANKENTC.CTB
  9
$XEDIT
290
     1
  9
$CEPSNTYPE
380
     0
  9
$PSTYLEMODE
290
     1
  9
$FINGERPRINTGUID
  2
{072871F0-2771-4C56-B9BD-B27D0F751D9A}
  9
$VERSIONGUID
  2
{6186C915-45B5-4944-8206-4241C9D0E2A9}
  9
$EXTNAMES
290
     1
  9
$PSVPSCALE
 40
0.0
  9
$OLESTARTUP
290
     0
  9
$SORTENTS
280
   127
  9
$INDEXCTL
280
     0
  9
$HIDETEXT
280
     1
  9
$XCLIPFRAME
280
     2
  9
$HALOGAP
280
     0
  9
$OBSCOLOR
 70
   257
  9
$OBSLTYPE
280
     0
  9
$INTERSECTIONDISPLAY
280
     0
  9
$INTERSECTIONCOLOR
 70
   257
  9
$DIMASSOC
280
     2
  9
$PROJECTNAME
  1

  9
$CAMERADISPLAY
290
     0
  9
$LENSLENGTH
 40
50.0
  9
$CAMERAHEIGHT
 40
0.0
  9
$STEPSPERSEC
 40
2.0
  9
$STEPSIZE
 40
6.0
  9
$3DDWFPREC
 40
2.0
  9
$PSOLWIDTH
 40
0.25
  9
$PSOLHEIGHT
 40
4.0
  9
$LOFTANG1
 40
1.570796326794896
  9
$LOFTANG2
 40
1.570796326794896
  9
$LOFTMAG1
 40
0.0
  9
$LOFTMAG2
 40
0.0
  9
$LOFTPARAM
 70
     7
  9
$LOFTNORMALS
280
     1
  9
$LATITUDE
 40
37.795
  9
$LONGITUDE
 40
-122.394
  9
$NORTHDIRECTION
 40
0.0
  9
$TIMEZONE
 70
 -8000
  9
$LIGHTGLYPHDISPLAY
280
     1
  9
$TILEMODELIGHTSYNCH
280
     1
  9
$CMATERIAL
347
B3D9
  9
$SOLIDHIST
280
     0
  9
$SHOWHIST
280
     1
  9
$DWFFRAME
280
     2
  9
$DGNFRAME
280
     0
  9
$REALWORLDSCALE
290
     1
  9
$INTERFERECOLOR
 62
     1
  9
$INTERFEREOBJVS
345
B3FB
  9
$INTERFEREVPVS
346
1189C
  9
$CSHADOW
280
     0
  9
$SHADOWPLANELOCATION
 40
0.0
  0
ENDSEC
  0
SECTION
  2
CLASSES
  0
CLASS
  1
ACDBDICTIONARYWDFLT
  2
AcDbDictionaryWithDefault
  3
ObjectDBX Classes
 90
        0
 91
        1
280
     0
281
     0
  0
CLASS
  1
DICTIONARYVAR
  2
AcDbDictionaryVar
  3
ObjectDBX Classes
 90
        0
 91
       17
280
     0
281
     0
  0
CLASS
  1
TABLESTYLE
  2
AcDbTableStyle
  3
ObjectDBX Classes
 90
     4095
 91
        1
280
     0
281
     0
  0
CLASS
  1
DIMASSOC
  2
AcDbDimAssoc
  3
"AcDbDimAssoc|Product Desc:     AcDim ARX App For Dimension|Company:          Autodesk, Inc.|WEB Address:      www.autodesk.com"
 90
        0
 91
        0
280
     0
281
     0
  0
CLASS
  1
SORTENTSTABLE
  2
AcDbSortentsTable
  3
ObjectDBX Classes
 90
        0
 91
        3
280
     0
281
     0
  0
CLASS
  1
MATERIAL
  2
AcDbMaterial
  3
ObjectDBX Classes
 90
     1153
 91
        3
280
     0
281
     0
  0
CLASS
  1
VISUALSTYLE
  2
AcDbVisualStyle
  3
ObjectDBX Classes
 90
     4095
 91
       26
280
     0
281
     0
  0
CLASS
  1
SCALE
  2
AcDbScale
  3
ObjectDBX Classes
 90
     1153
 91
       17
280
     0
281
     0
  0
CLASS
  1
MLEADERSTYLE
  2
AcDbMLeaderStyle
  3
ACDB_MLEADERSTYLE_CLASS
 90
     4095
 91
        1
280
     0
281
     0
  0
CLASS
  1
AEC_REFEDIT_STATUS_TRACKER
  2
AecDbRefEditStatusTracker
  3
AecArchBase80|Product Desc: Autodesk Architectural Desktop 2007 |Company: Autodesk,Inc. |WEB Address: www.autodesk.com
 90
      129
 91
        0
280
     0
281
     0
  0
CLASS
  1
NPOCOLLECTION
  2
AcDbImpNonPersistentObjectsCollection
  3
ObjectDBX Classes
 90
     1153
 91
        0
280
     0
281
     0
  0
CLASS
  1
CELLSTYLEMAP
  2
AcDbCellStyleMap
  3
ObjectDBX Classes
 90
     1152
 91
        1
280
     0
281
     0
  0
CLASS
  1
ACDBSECTIONVIEWSTYLE
  2
AcDbSectionViewStyle
  3
ObjectDBX Classes
 90
     1025
 91
        1
280
     0
281
     0
  0
CLASS
  1
ACDBDETAILVIEWSTYLE
  2
AcDbDetailViewStyle
  3
ObjectDBX Classes
 90
     1025
 91
        1
280
     0
281
     0
  0
ENDSEC
  0
SECTION
  2
TABLES
  0
TABLE
  2
VPORT
  5
8
102
{ACAD_XDICTIONARY
360
B651
102
}
330
0
100
AcDbSymbolTable
 70
     1
1001
ACAD
1000
DbSaveVer
1071
      278
  0
VPORT
  5
BAAB
330
8
100
AcDbSymbolTableRecord
100
AcDbViewportTableRecord
  2
*Active
 70
     0
 10
0.0
 20
0.0
 11
1.0
 21
1.0
 12
2100.000009778887
 22
1485.000006915069
 13
0.0
 23
0.0
 14
10.0
 24
10.0
 15
10.0
 25
10.0
 16
0.0
 26
0.0
 36
1.0
 17
0.0
 27
0.0
 37
0.0
 40
2994.864221293063
 41
1.897364771151178
 42
50.0
 43
0.0
 44
0.0
 50
0.0
 51
0.0
 71
     0
 72
  1000
 73
     1
 74
     3
 75
     0
 76
     0
 77
     0
 78
     0
281
     0
 65
     1
110
0.0
120
0.0
130
0.0
111
1.0
121
0.0
131
0.0
112
0.0
122
1.0
132
0.0
 79
     0
146
0.0
348
B3F7
 60
     3
 61
     5
292
     1
282
     1
141
0.0
142
0.0
 63
   250
421
  3355443
1001
ACAD_NAV_VCDISPLAY
1070
     3
  0
ENDTAB
  0
TABLE
  2
LTYPE
  5
5
330
0
100
AcDbSymbolTable
 70
     4
  0
LTYPE
  5
14
330
5
100
AcDbSymbolTableRecord
100
AcDbLinetypeTableRecord
  2
ByBlock
 70
     0
  3

 72
    65
 73
     0
 40
0.0
  0
LTYPE
  5
15
330
5
100
AcDbSymbolTableRecord
100
AcDbLinetypeTableRecord
  2
ByLayer
 70
     0
  3

 72
    65
 73
     0
 40
0.0
  0
LTYPE
  5
16
330
5
100
AcDbSymbolTableRecord
100
AcDbLinetypeTableRecord
  2
Continuous
 70
     0
  3
Solid line
 72
    65
 73
     0
 40
0.0
  0
LTYPE
  5
1D4
330
5
100
AcDbSymbolTableRecord
100
AcDbLinetypeTableRecord
  2
PHANTOM
 70
     0
  3
Phantom ______  __  __  ______  __  __  ______
 72
    65
 73
     6
 40
63.5
 49
31.75
 74
     0
 49
-6.349999999999997
 74
     0
 49
6.349999999999997
 74
     0
 49
-6.349999999999997
 74
     0
 49
6.349999999999997
 74
     0
 49
-6.349999999999997
 74
     0
  0
LTYPE
  5
1D5
330
5
100
AcDbSymbolTableRecord
100
AcDbLinetypeTableRecord
  2
CENTER
 70
     0
  3
Center ____ _ ____ _ ____ _ ____ _ ____ _ ____
 72
    65
 73
     4
 40
50.8
 49
31.75
 74
     0
 49
-6.349999999999997
 74
     0
 49
6.349999999999997
 74
     0
 49
-6.349999999999997
 74
     0
  0
LTYPE
  5
1D7
330
5
100
AcDbSymbolTableRecord
100
AcDbLinetypeTableRecord
  2
DASHED
 70
     0
  3
Dashed __ __ __ __ __ __ __ __ __ __ __ __ __ _
 72
    65
 73
     2
 40
19.05
 49
12.7
 74
     0
 49
-6.349999999999997
 74
     0
  0
ENDTAB
  0
TABLE
  2
LAYER
  5
2
102
{ACAD_XDICTIONARY
360
11D
102
}
330
0
100
AcDbSymbolTable
 70
     8
  0
LAYER
  5
10
102
{ACAD_XDICTIONARY
360
B637
102
}
330
2
100
AcDbSymbolTableRecord
100
AcDbLayerTableRecord
  2
0
 70
     0
 62
     7
  6
Continuous
370
    -3
390
F
347
B3E9
348
0
  0
LAYER
  5
13F
330
2
100
AcDbSymbolTableRecord
100
AcDbLayerTableRecord
  2
Defpoints
 70
     0
 62
     7
  6
Continuous
290
     0
370
    -3
390
F
347
B3E9
348
0
  0
LAYER
  5
1BF
102
{ACAD_XDICTIONARY
360
B63B
102
}
330
2
100
AcDbSymbolTableRecord
100
AcDbLayerTableRecord
  2
図面枠
 70
     0
 62
     2
  6
Continuous
370
    -3
390
F
347
B3E9
348
0
1001
AcAecLayerStandard
1000

1000

  0
LAYER
  5
1C1
102
{ACAD_XDICTIONARY
360
B63F
102
}
330
2
100
AcDbSymbolTableRecord
100
AcDbLayerTableRecord
  2
仮想線
 70
     0
 62
     6
  6
PHANTOM
370
    -3
390
F
347
B3E9
348
0
1001
AcAecLayerStandard
1000

1000

  0
LAYER
  5
1C3
102
{ACAD_XDICTIONARY
360
B643
102
}
330
2
100
AcDbSymbolTableRecord
100
AcDbLayerTableRecord
  2
寸法線
 70
     0
 62
     2
  6
Continuous
370
    -3
390
F
347
B3E9
348
0
1001
AcAecLayerStandard
1000

1000

  0
LAYER
  5
1C4
102
{ACAD_XDICTIONARY
360
B645
102
}
330
2
100
AcDbSymbolTableRecord
100
AcDbLayerTableRecord
  2
中心線
 70
     0
 62
     1
  6
CENTER
370
    -3
390
F
347
B3E9
348
0
1001
AcAecLayerStandard
1000

1000

  0
LAYER
  5
1C5
102
{ACAD_XDICTIONARY
360
B647
102
}
330
2
100
AcDbSymbolTableRecord
100
AcDbLayerTableRecord
  2
破線
 70
     0
 62
     4
  6
DASHED
370
    -3
390
F
347
B3E9
348
0
1001
AcAecLayerStandard
1000

1000

  0
LAYER
  5
82E
102
{ACAD_XDICTIONARY
360
B649
102
}
330
2
100
AcDbSymbolTableRecord
100
AcDbLayerTableRecord
  2
実線
 70
     0
 62
     7
  6
Continuous
370
    -3
390
F
347
B3E9
348
0
1001
AcAecLayerStandard
1000

1000

  0
ENDTAB
  0
TABLE
  2
STYLE
  5
3
330
0
100
AcDbSymbolTable
 70
     1
  0
STYLE
  5
11
330
3
100
AcDbSymbolTableRecord
100
AcDbTextStyleTableRecord
  2
Standard
 70
     0
 40
0.0
 41
1.0
 50
0.0
 71
     0
 42
37.5
  3
isocp.shx
  4
extfont2.shx
  0
ENDTAB
  0
TABLE
  2
VIEW
  5
6
330
0
100
AcDbSymbolTable
 70
     0
  0
ENDTAB
  0
TABLE
  2
UCS
  5
7
330
0
100
AcDbSymbolTable
 70
     0
  0
ENDTAB
  0
TABLE
  2
APPID
  5
9
330
0
100
AcDbSymbolTable
 70
    19
  0
APPID
  5
12
330
9
100
AcDbSymbolTableRecord
100
AcDbRegAppTableRecord
  2
ACAD
 70
     0
  0
APPID
  5
9E
330
9
100
AcDbSymbolTableRecord
100
AcDbRegAppTableRecord
  2
ACAD_PSEXT
 70
     0
  0
APPID
  5
1BE
330
9
100
AcDbSymbolTableRecord
100
AcDbRegAppTableRecord
  2
AcAecLayerStandard
 70
     0
  0
APPID
  5
1FF
330
9
100
AcDbSymbolTableRecord
100
AcDbRegAppTableRecord
  2
ACAD_EXEMPT_FROM_CAD_STANDARDS
 70
     0
  0
APPID
  5
1318
330
9
100
AcDbSymbolTableRecord
100
AcDbRegAppTableRecord
  2
ACAD_DSTYLE_DIMTEXT_FILL
 70
     0
  0
APPID
  5
1319
330
9
100
AcDbSymbolTableRecord
100
AcDbRegAppTableRecord
  2
ACAD_DSTYLE_DIMEXT_LENGTH
 70
     0
  0
APPID
  5
131A
330
9
100
AcDbSymbolTableRecord
100
AcDbRegAppTableRecord
  2
ACAD_DSTYLE_DIMEXT_ENABLED
 70
     0
  0
APPID
  5
131B
330
9
100
AcDbSymbolTableRecord
100
AcDbRegAppTableRecord
  2
ACAD_DSTYLE_DIM_LINETYPE
 70
     0
  0
APPID
  5
131C
330
9
100
AcDbSymbolTableRecord
100
AcDbRegAppTableRecord
  2
ACAD_DSTYLE_DIM_EXT1_LINETYPE
 70
     0
  0
APPID
  5
131D
330
9
100
AcDbSymbolTableRecord
100
AcDbRegAppTableRecord
  2
ACAD_DSTYLE_DIM_EXT2_LINETYPE
 70
     0
  0
APPID
  5
1439
330
9
100
AcDbSymbolTableRecord
100
AcDbRegAppTableRecord
  2
ACAD_DSTYLE_DIMJOGGED_JOGANGLE_SYMBOL
 70
     0
  0
APPID
  5
1CB2
330
9
100
AcDbSymbolTableRecord
100
AcDbRegAppTableRecord
  2
ACAD_DSTYLE_DIMARC_LENGTH_SYMBOL
 70
     0
  0
APPID
  5
356E
330
9
100
AcDbSymbolTableRecord
100
AcDbRegAppTableRecord
  2
ACAD_DIMASSOC_CALC_DIMLFAC
 70
     0
  0
APPID
  5
356F
330
9
100
AcDbSymbolTableRecord
100
AcDbRegAppTableRecord
  2
ACAD_DIMASSOC_DIMLFAC
 70
     0
  0
APPID
  5
3570
330
9
100
AcDbSymbolTableRecord
100
AcDbRegAppTableRecord
  2
ACAD_DIMASSOC_OVERRIDDEN_DIMLFAC
 70
     0
  0
APPID
  5
B416
330
9
100
AcDbSymbolTableRecord
100
AcDbRegAppTableRecord
  2
ACAD_MLEADERVER
 70
     0
  0
APPID
  5
11ADD
330
9
100
AcDbSymbolTableRecord
100
AcDbRegAppTableRecord
  2
ACAD_NAV_VCDISPLAY
 70
     0
  0
APPID
  5
1251C
330
9
100
AcDbSymbolTableRecord
100
AcDbRegAppTableRecord
  2
ACAD_DSTYLE_DIMJAG
 70
     0
  0
APPID
  5
1251D
330
9
100
AcDbSymbolTableRecord
100
AcDbRegAppTableRecord
  2
ACAD_DSTYLE_DIMTALN
 70
     0
  0
ENDTAB
  0
TABLE
  2
DIMSTYLE
  5
A
330
0
100
AcDbSymbolTable
 70
     1
100
AcDbDimStyleTable
 71
     1
340
C0F
  0
DIMSTYLE
105
C0F
102
{ACAD_REACTORS
330
11DDD
330
11DDE
330
11DDF
330
11DE0
330
11D82
330
11D83
330
11D84
330
11D85
330
11D86
330
11D87
330
11D88
330
11D8A
330
11D8B
330
11ED2
330
11ED3
330
11F03
330
11F08
330
11E9E
330
11E9F
330
12684
330
12605
330
12606
330
12612
330
12634
330
12635
330
12636
330
12637
330
12638
330
126DE
330
126DF
330
126E0
330
126E1
330
126E2
330
126E3
330
13AD3
330
13AD4
330
13AD7
330
13A8D
330
13A92
330
13A98
330
13A9A
330
13A9B
330
13A9C
102
}
330
A
100
AcDbSymbolTableRecord
100
AcDbDimStyleTableRecord
  2
STANDARD
 70
     0
 40
10.0
 41
2.0
 42
0.875
 43
10.0
 44
1.0
 50
89.99999999999998
 73
     0
 74
     0
 77
     1
 78
     8
140
2.5
141
0.0
147
0.875
172
     1
173
     1
271
     3
272
     3
340
11
341
C08
343
C08
344
C08
1001
ACAD_DSTYLE_DIMJOGGED_JOGANGLE_SYMBOL
1070
   384
1040
1.570796326794896
  0
ENDTAB
  0
TABLE
  2
BLOCK_RECORD
  5
1
330
0
100
AcDbSymbolTable
 70
    44
  0
BLOCK_RECORD
  5
1F
102
{ACAD_XDICTIONARY
360
5C91
102
}
330
1
100
AcDbSymbolTableRecord
100
AcDbBlockTableRecord
  2
*Model_Space
340
22
 70
     0
280
     1
281
     0
  0
BLOCK_RECORD
  5
78D
102
{ACAD_XDICTIONARY
360
A1A8
102
}
330
1
100
AcDbSymbolTableRecord
100
AcDbBlockTableRecord
  2
*Paper_Space
340
78E
 70
     0
280
     1
281
     0
  0
BLOCK_RECORD
  5
C08
102
{ACAD_XDICTIONARY
360
B956
102
}
330
1
100
AcDbSymbolTableRecord
100
AcDbBlockTableRecord
  2
_OPEN
340
0
102
{BLKREFS
331
13FE2
331
13FE3
331
13FEB
331
13FEC
331
13FF4
331
13FF5
331
13FFF
331
14000
331
14008
331
14009
331
14011
331
14012
331
1401A
331
1401B
331
14024
331
14025
331
1402E
331
1402F
331
14039
331
1403A
331
14042
331
14043
331
1404B
331
1404C
331
14054
331
14055
331
1405F
331
14060
331
1406A
331
1406B
331
14073
331
14074
331
1407C
331
1407D
331
14087
331
14088
331
14090
331
14091
331
1409C
331
1409D
331
140A7
331
140A8
331
140B0
331
140B1
331
140B9
331
140BA
331
140C2
331
140C3
331
140CD
331
140CE
331
140D6
331
140D7
331
140E1
331
140E2
331
140EB
331
140EC
331
140F6
331
140F7
331
140FF
331
14100
331
1410A
331
1410B
331
14113
331
14114
331
1411C
331
1411D
331
14125
331
14126
331
1412E
331
1412F
331
14139
331
1413A
331
14144
331
14145
331
1414D
331
1414E
331
14158
331
14159
331
14163
331
14164
331
1416C
331
1416D
331
14175
331
14176
331
1417E
331
1417F
331
11ED6
102
}
 70
     0
280
     1
281
     0
  0
BLOCK_RECORD
  5
1201A
330
1
100
AcDbSymbolTableRecord
100
AcDbBlockTableRecord
  2
*D1
340
0
 70
     0
280
     1
281
     0
  0
BLOCK_RECORD
  5
12028
330
1
100
AcDbSymbolTableRecord
100
AcDbBlockTableRecord
  2
*D2
340
0
 70
     0
280
     1
281
     0
  0
BLOCK_RECORD
  5
12034
330
1
100
AcDbSymbolTableRecord
100
AcDbBlockTableRecord
  2
*D3
340
0
 70
     0
280
     1
281
     0
  0
BLOCK_RECORD
  5
12040
330
1
100
AcDbSymbolTableRecord
100
AcDbBlockTableRecord
  2
*D4
340
0
 70
     0
280
     1
281
     0
  0
BLOCK_RECORD
  5
1204C
330
1
100
AcDbSymbolTableRecord
100
AcDbBlockTableRecord
  2
*D5
340
0
 70
     0
280
     1
281
     0
  0
BLOCK_RECORD
  5
12058
330
1
100
AcDbSymbolTableRecord
100
AcDbBlockTableRecord
  2
*D6
340
0
 70
     0
280
     1
281
     0
  0
BLOCK_RECORD
  5
12064
330
1
100
AcDbSymbolTableRecord
100
AcDbBlockTableRecord
  2
*D7
340
0
 70
     0
280
     1
281
     0
  0
BLOCK_RECORD
  5
12070
330
1
100
AcDbSymbolTableRecord
100
AcDbBlockTableRecord
  2
*D8
340
0
 70
     0
280
     1
281
     0
  0
BLOCK_RECORD
  5
1207E
330
1
100
AcDbSymbolTableRecord
100
AcDbBlockTableRecord
  2
*D9
340
0
 70
     0
280
     1
281
     0
  0
BLOCK_RECORD
  5
1208A
330
1
100
AcDbSymbolTableRecord
100
AcDbBlockTableRecord
  2
*D10
340
0
 70
     0
280
     1
281
     0
  0
BLOCK_RECORD
  5
12096
330
1
100
AcDbSymbolTableRecord
100
AcDbBlockTableRecord
  2
*D11
340
0
 70
     0
280
     1
281
     0
  0
BLOCK_RECORD
  5
120A3
330
1
100
AcDbSymbolTableRecord
100
AcDbBlockTableRecord
  2
*D12
340
0
 70
     0
280
     1
281
     0
  0
BLOCK_RECORD
  5
120B0
330
1
100
AcDbSymbolTableRecord
100
AcDbBlockTableRecord
  2
*D13
340
0
 70
     0
280
     1
281
     0
  0
BLOCK_RECORD
  5
120BC
330
1
100
AcDbSymbolTableRecord
100
AcDbBlockTableRecord
  2
*D14
340
0
 70
     0
280
     1
281
     0
  0
BLOCK_RECORD
  5
120C8
330
1
100
AcDbSymbolTableRecord
100
AcDbBlockTableRecord
  2
*D15
340
0
 70
     0
280
     1
281
     0
  0
BLOCK_RECORD
  5
120D4
330
1
100
AcDbSymbolTableRecord
100
AcDbBlockTableRecord
  2
*D16
340
0
 70
     0
280
     1
281
     0
  0
BLOCK_RECORD
  5
120E2
330
1
100
AcDbSymbolTableRecord
100
AcDbBlockTableRecord
  2
*D17
340
0
 70
     0
280
     1
281
     0
  0
BLOCK_RECORD
  5
1214B
330
1
100
AcDbSymbolTableRecord
100
AcDbBlockTableRecord
  2
*D18
340
0
 70
     0
280
     1
281
     0
  0
BLOCK_RECORD
  5
12159
330
1
100
AcDbSymbolTableRecord
100
AcDbBlockTableRecord
  2
*D19
340
0
 70
     0
280
     1
281
     0
  0
BLOCK_RECORD
  5
126E4
330
1
100
AcDbSymbolTableRecord
100
AcDbBlockTableRecord
  2
*D20
340
0
 70
     0
280
     1
281
     0
  0
BLOCK_RECORD
  5
12741
330
1
100
AcDbSymbolTableRecord
100
AcDbBlockTableRecord
  2
*D21
340
0
 70
     0
280
     1
281
     0
  0
BLOCK_RECORD
  5
1274F
330
1
100
AcDbSymbolTableRecord
100
AcDbBlockTableRecord
  2
*D22
340
0
 70
     0
280
     1
281
     0
  0
BLOCK_RECORD
  5
1275D
330
1
100
AcDbSymbolTableRecord
100
AcDbBlockTableRecord
  2
*D23
340
0
 70
     0
280
     1
281
     0
  0
BLOCK_RECORD
  5
12769
330
1
100
AcDbSymbolTableRecord
100
AcDbBlockTableRecord
  2
*D24
340
0
 70
     0
280
     1
281
     0
  0
BLOCK_RECORD
  5
12775
330
1
100
AcDbSymbolTableRecord
100
AcDbBlockTableRecord
  2
*D25
340
0
 70
     0
280
     1
281
     0
  0
BLOCK_RECORD
  5
12781
330
1
100
AcDbSymbolTableRecord
100
AcDbBlockTableRecord
  2
*D26
340
0
 70
     0
280
     1
281
     0
  0
BLOCK_RECORD
  5
1278F
330
1
100
AcDbSymbolTableRecord
100
AcDbBlockTableRecord
  2
*D27
340
0
 70
     0
280
     1
281
     0
  0
BLOCK_RECORD
  5
1279B
330
1
100
AcDbSymbolTableRecord
100
AcDbBlockTableRecord
  2
*D28
340
0
 70
     0
280
     1
281
     0
  0
BLOCK_RECORD
  5
127CD
330
1
100
AcDbSymbolTableRecord
100
AcDbBlockTableRecord
  2
*D29
340
0
 70
     0
280
     1
281
     0
  0
BLOCK_RECORD
  5
127DB
330
1
100
AcDbSymbolTableRecord
100
AcDbBlockTableRecord
  2
*D30
340
0
 70
     0
280
     1
281
     0
  0
BLOCK_RECORD
  5
127E7
330
1
100
AcDbSymbolTableRecord
100
AcDbBlockTableRecord
  2
*D31
340
0
 70
     0
280
     1
281
     0
  0
BLOCK_RECORD
  5
127F5
330
1
100
AcDbSymbolTableRecord
100
AcDbBlockTableRecord
  2
*D32
340
0
 70
     0
280
     1
281
     0
  0
BLOCK_RECORD
  5
12801
330
1
100
AcDbSymbolTableRecord
100
AcDbBlockTableRecord
  2
*D33
340
0
 70
     0
280
     1
281
     0
  0
BLOCK_RECORD
  5
1280D
330
1
100
AcDbSymbolTableRecord
100
AcDbBlockTableRecord
  2
*D34
340
0
 70
     0
280
     1
281
     0
  0
BLOCK_RECORD
  5
13ADC
330
1
100
AcDbSymbolTableRecord
100
AcDbBlockTableRecord
  2
*D35
340
0
 70
     0
280
     1
281
     0
  0
BLOCK_RECORD
  5
13AE8
330
1
100
AcDbSymbolTableRecord
100
AcDbBlockTableRecord
  2
*D36
340
0
 70
     0
280
     1
281
     0
  0
BLOCK_RECORD
  5
13AF4
330
1
100
AcDbSymbolTableRecord
100
AcDbBlockTableRecord
  2
*D37
340
0
 70
     0
280
     1
281
     0
  0
BLOCK_RECORD
  5
13B00
330
1
100
AcDbSymbolTableRecord
100
AcDbBlockTableRecord
  2
*D38
340
0
 70
     0
280
     1
281
     0
  0
BLOCK_RECORD
  5
13B0C
330
1
100
AcDbSymbolTableRecord
100
AcDbBlockTableRecord
  2
*D39
340
0
 70
     0
280
     1
281
     0
  0
BLOCK_RECORD
  5
13B1A
330
1
100
AcDbSymbolTableRecord
100
AcDbBlockTableRecord
  2
*D40
340
0
 70
     0
280
     1
281
     0
  0
BLOCK_RECORD
  5
13B28
330
1
100
AcDbSymbolTableRecord
100
AcDbBlockTableRecord
  2
*D41
340
0
 70
     0
280
     1
281
     0
  0
BLOCK_RECORD
  5
13B34
330
1
100
AcDbSymbolTableRecord
100
AcDbBlockTableRecord
  2
*D42
340
0
 70
     0
280
     1
281
     0
  0
BLOCK_RECORD
  5
13B42
330
1
100
AcDbSymbolTableRecord
100
AcDbBlockTableRecord
  2
*D43
340
0
 70
     0
280
     1
281
     0
  0
ENDTAB
  0
ENDSEC
  0
SECTION
  2
BLOCKS
  0
BLOCK
  5
20
330
1F
100
AcDbEntity
  8
0
100
AcDbBlockBegin
  2
*Model_Space
 70
     0
 10
0.0
 20
0.0
 30
0.0
  3
*Model_Space
  1

  0
ENDBLK
  5
21
330
1F
100
AcDbEntity
  8
0
100
AcDbBlockEnd
  0
BLOCK
  5
78F
330
78D
100
AcDbEntity
 67
     1
  8
0
100
AcDbBlockBegin
  2
*Paper_Space
 70
     0
 10
0.0
 20
0.0
 30
0.0
  3
*Paper_Space
  1

  0
ENDBLK
  5
790
330
78D
100
AcDbEntity
 67
     1
  8
0
100
AcDbBlockEnd
  0
BLOCK
  5
C09
330
C08
100
AcDbEntity
  8
0
100
AcDbBlockBegin
  2
_OPEN
 70
     0
 10
0.0
 20
0.0
 30
0.0
  3
_OPEN
  1

  0
LINE
  5
C0A
330
C08
100
AcDbEntity
  8
0
  6
ByBlock
 62
     0
100
AcDbLine
 10
-1.0
 20
0.1666666666666666
 30
0.0
 11
0.0
 21
0.0
 31
0.0
  0
LINE
  5
C0B
330
C08
100
AcDbEntity
  8
0
  6
ByBlock
 62
     0
100
AcDbLine
 10
0.0
 20
0.0
 30
0.0
 11
-1.0
 21
-0.1666666666666666
 31
0.0
  0
LINE
  5
C0C
330
C08
100
AcDbEntity
  8
0
  6
ByBlock
 62
     0
100
AcDbLine
 10
0.0
 20
0.0
 30
0.0
 11
-1.0
 21
0.0
 31
0.0
  0
ENDBLK
  5
C0D
330
C08
100
AcDbEntity
  8
0
100
AcDbBlockEnd
  0
BLOCK
  5
1201B
330
1201A
100
AcDbEntity
  8
0
100
AcDbBlockBegin
  2
*D1
 70
     1
 10
0.0
 20
0.0
 30
0.0
  3
*D1
  1

  0
LINE
  5
14034
330
1201A
100
AcDbEntity
  8
寸法線
 62
     0
440
 16777216
370
    -2
100
AcDbLine
 10
2910.000123398137
 20
2444.750018964711
 30
0.0
 11
2910.000123398137
 21
2614.999981745037
 31
0.0
  0
LINE
  5
14035
330
1201A
100
AcDbEntity
  8
寸法線
 62
     0
440
 16777216
370
    -2
100
AcDbLine
 10
2891.000123398137
 20
2453.749981745037
 30
0.0
 11
2891.000123398137
 21
2614.999981745037
 31
0.0
  0
LINE
  5
14036
330
1201A
100
AcDbEntity
  8
寸法線
 62
     0
440
 16777216
370
    -2
100
AcDbLine
 10
2930.000123398137
 20
2604.999981745037
 30
0.0
 11
2950.000123398137
 21
2604.999981745037
 31
0.0
  0
LINE
  5
14037
330
1201A
100
AcDbEntity
  8
寸法線
 62
     0
440
 16777216
370
    -2
100
AcDbLine
 10
2871.000123398136
 20
2604.999981745037
 30
0.0
 11
2851.000123398137
 21
2604.999981745037
 31
0.0
  0
LINE
  5
14038
330
1201A
100
AcDbEntity
  8
寸法線
 62
     0
440
 16777216
370
    -2
100
AcDbLine
 10
2910.000123398137
 20
2604.999981745037
 30
0.0
 11
2891.000123398137
 21
2604.999981745037
 31
0.0
  0
INSERT
  5
14039
330
1201A
100
AcDbEntity
  8
寸法線
 62
     0
440
 16777216
370
    -2
100
AcDbBlockReference
  2
_OPEN
 10
2910.000123398137
 20
2604.999981745037
 30
0.0
 41
20.0
 42
20.0
 43
20.0
 50
180.0
  0
INSERT
  5
1403A
330
1201A
100
AcDbEntity
  8
寸法線
 62
     0
440
 16777216
370
    -2
100
AcDbBlockReference
  2
_OPEN
 10
2891.000123398137
 20
2604.999981745037
 30
0.0
 41
20.0
 42
20.0
 43
20.0
  0
MTEXT
  5
1403B
330
1201A
100
AcDbEntity
  8
寸法線
 62
     0
440
 16777216
100
AcDbMText
 10
2900.500123398137
 20
2626.249981745037
 30
0.0
 40
25.0
 41
0.0
 46
0.0
 71
     5
 72
     1
  1
\A1;19
 73
     1
 44
1.0
  0
POINT
  5
1403C
330
1201A
100
AcDbEntity
  8
Defpoints
 62
     0
440
 16777216
100
AcDbPoint
 10
2910.000123398137
 20
2436.000018964711
 30
0.0
  0
POINT
  5
1403D
330
1201A
100
AcDbEntity
  8
Defpoints
 62
     0
440
 16777216
100
AcDbPoint
 10
2891.000123398137
 20
2444.999981745036
 30
0.0
  0
POINT
  5
1403E
330
1201A
100
AcDbEntity
  8
Defpoints
 62
     0
440
 16777216
100
AcDbPoint
 10
2891.000123398137
 20
2604.999981745037
 30
0.0
  0
ENDBLK
  5
1201C
330
1201A
100
AcDbEntity
  8
0
100
AcDbBlockEnd
  0
BLOCK
  5
12029
330
12028
100
AcDbEntity
  8
0
100
AcDbBlockBegin
  2
*D2
 70
     1
 10
0.0
 20
0.0
 30
0.0
  3
*D2
  1

  0
LINE
  5
1403F
330
12028
100
AcDbEntity
  8
寸法線
 62
     0
440
 16777216
370
    -2
100
AcDbLine
 10
2891.000123398137
 20
2453.749981745037
 30
0.0
 11
2891.000123398137
 21
2614.999981745037
 31
0.0
  0
LINE
  5
14040
330
12028
100
AcDbEntity
  8
寸法線
 62
     0
440
 16777216
370
    -2
100
AcDbLine
 10
2360.000123398137
 20
2463.75001896471
 30
0.0
 11
2360.000123398137
 21
2614.999981745037
 31
0.0
  0
LINE
  5
14041
330
12028
100
AcDbEntity
  8
寸法線
 62
     0
440
 16777216
370
    -2
100
AcDbLine
 10
2871.000123398136
 20
2604.999981745037
 30
0.0
 11
2380.000123398136
 21
2604.999981745037
 31
0.0
  0
INSERT
  5
14042
330
12028
100
AcDbEntity
  8
寸法線
 62
     0
440
 16777216
370
    -2
100
AcDbBlockReference
  2
_OPEN
 10
2891.000123398137
 20
2604.999981745037
 30
0.0
 41
20.0
 42
20.0
 43
20.0
  0
INSERT
  5
14043
330
12028
100
AcDbEntity
  8
寸法線
 62
     0
440
 16777216
370
    -2
100
AcDbBlockReference
  2
_OPEN
 10
2360.000123398137
 20
2604.999981745037
 30
0.0
 41
20.0
 42
20.0
 43
20.0
 50
180.0
  0
MTEXT
  5
14044
330
12028
100
AcDbEntity
  8
寸法線
 62
     0
440
 16777216
100
AcDbMText
 10
2625.500123398137
 20
2626.249981745037
 30
0.0
 40
25.0
 41
0.0
 46
0.0
 71
     5
 72
     1
  1
\A1;531
 73
     1
 44
1.0
  0
POINT
  5
14045
330
12028
100
AcDbEntity
  8
Defpoints
 62
     0
440
 16777216
100
AcDbPoint
 10
2891.000123398137
 20
2444.999981745036
 30
0.0
  0
POINT
  5
14046
330
12028
100
AcDbEntity
  8
Defpoints
 62
     0
440
 16777216
100
AcDbPoint
 10
2360.000123398137
 20
2455.000018964711
 30
0.0
  0
POINT
  5
14047
330
12028
100
AcDbEntity
  8
Defpoints
 62
     0
440
 16777216
100
AcDbPoint
 10
2360.000123398137
 20
2604.999981745037
 30
0.0
  0
ENDBLK
  5
1202A
330
12028
100
AcDbEntity
  8
0
100
AcDbBlockEnd
  0
BLOCK
  5
12035
330
12034
100
AcDbEntity
  8
0
100
AcDbBlockBegin
  2
*D3
 70
     1
 10
0.0
 20
0.0
 30
0.0
  3
*D3
  1

  0
LINE
  5
14048
330
12034
100
AcDbEntity
  8
寸法線
 62
     0
440
 16777216
370
    -2
100
AcDbLine
 10
2918.750123398138
 20
2436.000018964711
 30
0.0
 11
3040.000123398137
 21
2436.000018964711
 31
0.0
  0
LINE
  5
14049
330
12034
100
AcDbEntity
  8
寸法線
 62
     0
440
 16777216
370
    -2
100
AcDbLine
 10
2918.750123398138
 20
2054.000018964711
 30
0.0
 11
3040.000123398137
 21
2054.000018964711
 31
0.0
  0
LINE
  5
1404A
330
12034
100
AcDbEntity
  8
寸法線
 62
     0
440
 16777216
370
    -2
100
AcDbLine
 10
3030.000123398137
 20
2416.000018964711
 30
0.0
 11
3030.000123398137
 21
2074.000018964711
 31
0.0
  0
INSERT
  5
1404B
330
12034
100
AcDbEntity
  8
寸法線
 62
     0
440
 16777216
370
    -2
100
AcDbBlockReference
  2
_OPEN
 10
3030.000123398137
 20
2436.000018964711
 30
0.0
 41
20.0
 42
20.0
 43
20.0
 50
90.0
  0
INSERT
  5
1404C
330
12034
100
AcDbEntity
  8
寸法線
 62
     0
440
 16777216
370
    -2
100
AcDbBlockReference
  2
_OPEN
 10
3030.000123398137
 20
2054.000018964711
 30
0.0
 41
20.0
 42
20.0
 43
20.0
 50
270.0
  0
MTEXT
  5
1404D
330
12034
100
AcDbEntity
  8
寸法線
 62
     0
440
 16777216
100
AcDbMText
 10
3008.747662768215
 20
2244.999981745036
 30
0.0
 40
25.0
 41
0.0
 46
0.0
 71
     5
 72
     1
  1
\A1;382
 11
0.0000000000000001
 21
1.0
 31
0.0
 73
     1
 44
1.0
  0
POINT
  5
1404E
330
12034
100
AcDbEntity
  8
Defpoints
 62
     0
440
 16777216
100
AcDbPoint
 10
2910.000123398138
 20
2436.000018964711
 30
0.0
  0
POINT
  5
1404F
330
12034
100
AcDbEntity
  8
Defpoints
 62
     0
440
 16777216
100
AcDbPoint
 10
2910.000123398138
 20
2054.000018964711
 30
0.0
  0
POINT
  5
14050
330
12034
100
AcDbEntity
  8
Defpoints
 62
     0
440
 16777216
100
AcDbPoint
 10
3030.000123398137
 20
2054.000018964711
 30
0.0
  0
ENDBLK
  5
12036
330
12034
100
AcDbEntity
  8
0
100
AcDbBlockEnd
  0
BLOCK
  5
12041
330
12040
100
AcDbEntity
  8
0
100
AcDbBlockBegin
  2
*D4
 70
     1
 10
0.0
 20
0.0
 30
0.0
  3
*D4
  1

  0
LINE
  5
14051
330
12040
100
AcDbEntity
  8
寸法線
 62
     0
440
 16777216
370
    -2
100
AcDbLine
 10
2909.999896414973
 20
1436.24999974978
 30
0.0
 11
2909.999896414973
 21
1274.999999749781
 31
0.0
  0
LINE
  5
14052
330
12040
100
AcDbEntity
  8
寸法線
 62
     0
440
 16777216
370
    -2
100
AcDbLine
 10
2359.999896414973
 20
1426.250036969454
 30
0.0
 11
2359.999896414973
 21
1274.999999749781
 31
0.0
  0
LINE
  5
14053
330
12040
100
AcDbEntity
  8
寸法線
 62
     0
440
 16777216
370
    -2
100
AcDbLine
 10
2889.999896414973
 20
1284.99999974978
 30
0.0
 11
2379.999896414973
 21
1284.99999974978
 31
0.0
  0
INSERT
  5
14054
330
12040
100
AcDbEntity
  8
寸法線
 62
     0
440
 16777216
370
    -2
100
AcDbBlockReference
  2
_OPEN
 10
2909.999896414973
 20
1284.99999974978
 30
0.0
 41
20.0
 42
20.0
 43
20.0
  0
INSERT
  5
14055
330
12040
100
AcDbEntity
  8
寸法線
 62
     0
440
 16777216
370
    -2
100
AcDbBlockReference
  2
_OPEN
 10
2359.999896414973
 20
1284.99999974978
 30
0.0
 41
20.0
 42
20.0
 43
20.0
 50
180.0
  0
MTEXT
  5
14056
330
12040
100
AcDbEntity
  8
寸法線
 62
     0
440
 16777216
100
AcDbMText
 10
2634.999896414973
 20
1306.249999749781
 30
0.0
 40
25.0
 41
0.0
 46
0.0
 71
     5
 72
     1
  1
\A1;550
 73
     1
 44
1.0
  0
POINT
  5
14057
330
12040
100
AcDbEntity
  8
Defpoints
 62
     0
440
 16777216
100
AcDbPoint
 10
2909.999896414973
 20
1444.99999974978
 30
0.0
  0
POINT
  5
14058
330
12040
100
AcDbEntity
  8
Defpoints
 62
     0
440
 16777216
100
AcDbPoint
 10
2359.999896414973
 20
1435.000036969454
 30
0.0
  0
POINT
  5
14059
330
12040
100
AcDbEntity
  8
Defpoints
 62
     0
440
 16777216
100
AcDbPoint
 10
2359.999896414973
 20
1284.99999974978
 30
0.0
  0
ENDBLK
  5
12042
330
12040
100
AcDbEntity
  8
0
100
AcDbBlockEnd
  0
BLOCK
  5
1204D
330
1204C
100
AcDbEntity
  8
0
100
AcDbBlockBegin
  2
*D5
 70
     1
 10
0.0
 20
0.0
 30
0.0
  3
*D5
  1

  0
LINE
  5
13FDF
330
1204C
100
AcDbEntity
  8
寸法線
 62
     0
440
 16777216
370
    -2
100
AcDbLine
 10
1059.999896414972
 20
1426.249990627464
 30
0.0
 11
1059.999896414972
 21
1274.999999749781
 31
0.0
  0
LINE
  5
13FE0
330
1204C
100
AcDbEntity
  8
寸法線
 62
     0
440
 16777216
370
    -2
100
AcDbLine
 10
2359.999896414973
 20
1426.249990627465
 30
0.0
 11
2359.999896414973
 21
1274.999999749781
 31
0.0
  0
LINE
  5
13FE1
330
1204C
100
AcDbEntity
  8
寸法線
 62
     0
440
 16777216
370
    -2
100
AcDbLine
 10
1079.999896414973
 20
1284.99999974978
 30
0.0
 11
2339.999896414973
 21
1284.99999974978
 31
0.0
  0
INSERT
  5
13FE2
330
1204C
100
AcDbEntity
  8
寸法線
 62
     0
440
 16777216
370
    -2
100
AcDbBlockReference
  2
_OPEN
 10
1059.999896414972
 20
1284.99999974978
 30
0.0
 41
20.0
 42
20.0
 43
20.0
 50
180.0
  0
INSERT
  5
13FE3
330
1204C
100
AcDbEntity
  8
寸法線
 62
     0
440
 16777216
370
    -2
100
AcDbBlockReference
  2
_OPEN
 10
2359.999896414973
 20
1284.99999974978
 30
0.0
 41
20.0
 42
20.0
 43
20.0
  0
MTEXT
  5
13FE4
330
1204C
100
AcDbEntity
  8
寸法線
 62
     0
440
 16777216
100
AcDbMText
 10
1709.999886508418
 20
1306.249999749781
 30
0.0
 40
25.0
 41
0.0
 46
0.0
 71
     5
 72
     1
  1
\A1;1300
 73
     1
 44
1.0
  0
POINT
  5
13FE5
330
1204C
100
AcDbEntity
  8
Defpoints
 62
     0
440
 16777216
100
AcDbPoint
 10
1059.999896414972
 20
1434.999990627464
 30
0.0
  0
POINT
  5
13FE6
330
1204C
100
AcDbEntity
  8
Defpoints
 62
     0
440
 16777216
100
AcDbPoint
 10
2359.999896414973
 20
1434.999990627465
 30
0.0
  0
POINT
  5
13FE7
330
1204C
100
AcDbEntity
  8
Defpoints
 62
     0
440
 16777216
100
AcDbPoint
 10
2359.999896414973
 20
1284.99999974978
 30
0.0
  0
ENDBLK
  5
1204E
330
1204C
100
AcDbEntity
  8
0
100
AcDbBlockEnd
  0
BLOCK
  5
12059
330
12058
100
AcDbEntity
  8
0
100
AcDbBlockBegin
  2
*D6
 70
     1
 10
0.0
 20
0.0
 30
0.0
  3
*D6
  1

  0
LINE
  5
13FE8
330
12058
100
AcDbEntity
  8
寸法線
 62
     0
440
 16777216
370
    -2
100
AcDbLine
 10
509.9998766018634
 20
1436.24999974978
 30
0.0
 11
509.9998766018634
 21
1274.999999749781
 31
0.0
  0
LINE
  5
13FE9
330
12058
100
AcDbEntity
  8
寸法線
 62
     0
440
 16777216
370
    -2
100
AcDbLine
 10
1059.999876601863
 20
1426.250036969454
 30
0.0
 11
1059.999876601863
 21
1274.999999749781
 31
0.0
  0
LINE
  5
13FEA
330
12058
100
AcDbEntity
  8
寸法線
 62
     0
440
 16777216
370
    -2
100
AcDbLine
 10
529.9998766018634
 20
1284.99999974978
 30
0.0
 11
1039.999876601863
 21
1284.99999974978
 31
0.0
  0
INSERT
  5
13FEB
330
12058
100
AcDbEntity
  8
寸法線
 62
     0
440
 16777216
370
    -2
100
AcDbBlockReference
  2
_OPEN
 10
509.9998766018634
 20
1284.99999974978
 30
0.0
 41
20.0
 42
20.0
 43
20.0
 50
180.0
  0
INSERT
  5
13FEC
330
12058
100
AcDbEntity
  8
寸法線
 62
     0
440
 16777216
370
    -2
100
AcDbBlockReference
  2
_OPEN
 10
1059.999876601863
 20
1284.99999974978
 30
0.0
 41
20.0
 42
20.0
 43
20.0
  0
MTEXT
  5
13FED
330
12058
100
AcDbEntity
  8
寸法線
 62
     0
440
 16777216
100
AcDbMText
 10
784.9998766018634
 20
1306.249999749781
 30
0.0
 40
25.0
 41
0.0
 46
0.0
 71
     5
 72
     1
  1
\A1;550
 73
     1
 44
1.0
  0
POINT
  5
13FEE
330
12058
100
AcDbEntity
  8
Defpoints
 62
     0
440
 16777216
100
AcDbPoint
 10
509.9998766018634
 20
1444.99999974978
 30
0.0
  0
POINT
  5
13FEF
330
12058
100
AcDbEntity
  8
Defpoints
 62
     0
440
 16777216
100
AcDbPoint
 10
1059.999876601863
 20
1435.000036969454
 30
0.0
  0
POINT
  5
13FF0
330
12058
100
AcDbEntity
  8
Defpoints
 62
     0
440
 16777216
100
AcDbPoint
 10
1059.999876601863
 20
1284.99999974978
 30
0.0
  0
ENDBLK
  5
1205A
330
12058
100
AcDbEntity
  8
0
100
AcDbBlockEnd
  0
BLOCK
  5
12065
330
12064
100
AcDbEntity
  8
0
100
AcDbBlockBegin
  2
*D7
 70
     1
 10
0.0
 20
0.0
 30
0.0
  3
*D7
  1

  0
LINE
  5
13FF1
330
12064
100
AcDbEntity
  8
寸法線
 62
     0
440
 16777216
370
    -2
100
AcDbLine
 10
501.2498766018636
 20
1844.999999749781
 30
0.0
 11
379.999876601863
 21
1844.999999749781
 31
0.0
  0
LINE
  5
13FF2
330
12064
100
AcDbEntity
  8
寸法線
 62
     0
440
 16777216
370
    -2
100
AcDbLine
 10
501.2498766018636
 20
1444.999999749781
 30
0.0
 11
379.999876601863
 21
1444.999999749781
 31
0.0
  0
LINE
  5
13FF3
330
12064
100
AcDbEntity
  8
寸法線
 62
     0
440
 16777216
370
    -2
100
AcDbLine
 10
389.999876601863
 20
1824.999999749781
 30
0.0
 11
389.9998766018631
 21
1464.999999749781
 31
0.0
  0
INSERT
  5
13FF4
330
12064
100
AcDbEntity
  8
寸法線
 62
     0
440
 16777216
370
    -2
100
AcDbBlockReference
  2
_OPEN
 10
389.999876601863
 20
1844.999999749781
 30
0.0
 41
20.0
 42
20.0
 43
20.0
 50
90.0
  0
INSERT
  5
13FF5
330
12064
100
AcDbEntity
  8
寸法線
 62
     0
440
 16777216
370
    -2
100
AcDbBlockReference
  2
_OPEN
 10
389.9998766018631
 20
1444.999999749781
 30
0.0
 41
20.0
 42
20.0
 43
20.0
 50
270.0
  0
MTEXT
  5
13FF6
330
12064
100
AcDbEntity
  8
寸法線
 62
     0
440
 16777216
100
AcDbMText
 10
368.7498766018634
 20
1644.99999974978
 30
0.0
 40
25.0
 41
0.0
 46
0.0
 71
     5
 72
     1
  1
\A1;400
 11
0.0000000000000001
 21
1.0
 31
0.0
 73
     1
 44
1.0
  0
POINT
  5
13FF7
330
12064
100
AcDbEntity
  8
Defpoints
 62
     0
440
 16777216
100
AcDbPoint
 10
509.9998766018636
 20
1844.999999749781
 30
0.0
  0
POINT
  5
13FF8
330
12064
100
AcDbEntity
  8
Defpoints
 62
     0
440
 16777216
100
AcDbPoint
 10
509.9998766018636
 20
1444.999999749781
 30
0.0
  0
POINT
  5
13FF9
330
12064
100
AcDbEntity
  8
Defpoints
 62
     0
440
 16777216
100
AcDbPoint
 10
389.9998766018631
 20
1444.999999749781
 30
0.0
  0
ENDBLK
  5
12066
330
12064
100
AcDbEntity
  8
0
100
AcDbBlockEnd
  0
BLOCK
  5
12071
330
12070
100
AcDbEntity
  8
0
100
AcDbBlockBegin
  2
*D8
 70
     1
 10
0.0
 20
0.0
 30
0.0
  3
*D8
  1

  0
LINE
  5
13FFA
330
12070
100
AcDbEntity
  8
寸法線
 62
     0
440
 16777216
370
    -2
100
AcDbLine
 10
509.9998766018634
 20
2444.750018964711
 30
0.0
 11
509.9998766018634
 21
2614.999981745037
 31
0.0
  0
LINE
  5
13FFB
330
12070
100
AcDbEntity
  8
寸法線
 62
     0
440
 16777216
370
    -2
100
AcDbLine
 10
528.9998766018634
 20
2453.749981745037
 30
0.0
 11
528.9998766018634
 21
2614.999981745037
 31
0.0
  0
LINE
  5
13FFC
330
12070
100
AcDbEntity
  8
寸法線
 62
     0
440
 16777216
370
    -2
100
AcDbLine
 10
489.9998766018634
 20
2604.999981745037
 30
0.0
 11
469.9998766018634
 21
2604.999981745037
 31
0.0
  0
LINE
  5
13FFD
330
12070
100
AcDbEntity
  8
寸法線
 62
     0
440
 16777216
370
    -2
100
AcDbLine
 10
548.9998766018634
 20
2604.999981745037
 30
0.0
 11
568.9998766018634
 21
2604.999981745037
 31
0.0
  0
LINE
  5
13FFE
330
12070
100
AcDbEntity
  8
寸法線
 62
     0
440
 16777216
370
    -2
100
AcDbLine
 10
509.9998766018634
 20
2604.999981745037
 30
0.0
 11
528.9998766018634
 21
2604.999981745037
 31
0.0
  0
INSERT
  5
13FFF
330
12070
100
AcDbEntity
  8
寸法線
 62
     0
440
 16777216
370
    -2
100
AcDbBlockReference
  2
_OPEN
 10
509.9998766018634
 20
2604.999981745037
 30
0.0
 41
20.0
 42
20.0
 43
20.0
  0
INSERT
  5
14000
330
12070
100
AcDbEntity
  8
寸法線
 62
     0
440
 16777216
370
    -2
100
AcDbBlockReference
  2
_OPEN
 10
528.9998766018634
 20
2604.999981745037
 30
0.0
 41
20.0
 42
20.0
 43
20.0
 50
180.0
  0
MTEXT
  5
14001
330
12070
100
AcDbEntity
  8
寸法線
 62
     0
440
 16777216
100
AcDbMText
 10
519.4998766018634
 20
2626.249981745037
 30
0.0
 40
25.0
 41
0.0
 46
0.0
 71
     5
 72
     1
  1
\A1;19
 73
     1
 44
1.0
  0
POINT
  5
14002
330
12070
100
AcDbEntity
  8
Defpoints
 62
     0
440
 16777216
100
AcDbPoint
 10
509.9998766018634
 20
2436.000018964711
 30
0.0
  0
POINT
  5
14003
330
12070
100
AcDbEntity
  8
Defpoints
 62
     0
440
 16777216
100
AcDbPoint
 10
528.9998766018634
 20
2444.999981745036
 30
0.0
  0
POINT
  5
14004
330
12070
100
AcDbEntity
  8
Defpoints
 62
     0
440
 16777216
100
AcDbPoint
 10
528.9998766018634
 20
2604.999981745037
 30
0.0
  0
ENDBLK
  5
12072
330
12070
100
AcDbEntity
  8
0
100
AcDbBlockEnd
  0
BLOCK
  5
1207F
330
1207E
100
AcDbEntity
  8
0
100
AcDbBlockBegin
  2
*D9
 70
     1
 10
0.0
 20
0.0
 30
0.0
  3
*D9
  1

  0
LINE
  5
14005
330
1207E
100
AcDbEntity
  8
寸法線
 62
     0
440
 16777216
370
    -2
100
AcDbLine
 10
528.9998766018634
 20
2453.749981745037
 30
0.0
 11
528.9998766018634
 21
2614.999981745037
 31
0.0
  0
LINE
  5
14006
330
1207E
100
AcDbEntity
  8
寸法線
 62
     0
440
 16777216
370
    -2
100
AcDbLine
 10
1059.999876601863
 20
2463.75001896471
 30
0.0
 11
1059.999876601863
 21
2614.999981745037
 31
0.0
  0
LINE
  5
14007
330
1207E
100
AcDbEntity
  8
寸法線
 62
     0
440
 16777216
370
    -2
100
AcDbLine
 10
548.9998766018634
 20
2604.999981745037
 30
0.0
 11
1039.999876601863
 21
2604.999981745037
 31
0.0
  0
INSERT
  5
14008
330
1207E
100
AcDbEntity
  8
寸法線
 62
     0
440
 16777216
370
    -2
100
AcDbBlockReference
  2
_OPEN
 10
528.9998766018634
 20
2604.999981745037
 30
0.0
 41
20.0
 42
20.0
 43
20.0
 50
180.0
  0
INSERT
  5
14009
330
1207E
100
AcDbEntity
  8
寸法線
 62
     0
440
 16777216
370
    -2
100
AcDbBlockReference
  2
_OPEN
 10
1059.999876601863
 20
2604.999981745037
 30
0.0
 41
20.0
 42
20.0
 43
20.0
  0
MTEXT
  5
1400A
330
1207E
100
AcDbEntity
  8
寸法線
 62
     0
440
 16777216
100
AcDbMText
 10
794.4998766018634
 20
2626.249981745037
 30
0.0
 40
25.0
 41
0.0
 46
0.0
 71
     5
 72
     1
  1
\A1;531
 73
     1
 44
1.0
  0
POINT
  5
1400B
330
1207E
100
AcDbEntity
  8
Defpoints
 62
     0
440
 16777216
100
AcDbPoint
 10
528.9998766018634
 20
2444.999981745036
 30
0.0
  0
POINT
  5
1400C
330
1207E
100
AcDbEntity
  8
Defpoints
 62
     0
440
 16777216
100
AcDbPoint
 10
1059.999876601863
 20
2455.000018964711
 30
0.0
  0
POINT
  5
1400D
330
1207E
100
AcDbEntity
  8
Defpoints
 62
     0
440
 16777216
100
AcDbPoint
 10
1059.999876601863
 20
2604.999981745037
 30
0.0
  0
ENDBLK
  5
12080
330
1207E
100
AcDbEntity
  8
0
100
AcDbBlockEnd
  0
BLOCK
  5
1208B
330
1208A
100
AcDbEntity
  8
0
100
AcDbBlockBegin
  2
*D10
 70
     1
 10
0.0
 20
0.0
 30
0.0
  3
*D10
  1

  0
LINE
  5
1400E
330
1208A
100
AcDbEntity
  8
寸法線
 62
     0
440
 16777216
370
    -2
100
AcDbLine
 10
520.2498766018636
 20
2444.999981745037
 30
0.0
 11
379.9998766018628
 21
2444.999981745037
 31
0.0
  0
LINE
  5
1400F
330
1208A
100
AcDbEntity
  8
寸法線
 62
     0
440
 16777216
370
    -2
100
AcDbLine
 10
520.2498766018636
 20
2044.999981745036
 30
0.0
 11
379.9998766018629
 21
2044.999981745036
 31
0.0
  0
LINE
  5
14010
330
1208A
100
AcDbEntity
  8
寸法線
 62
     0
440
 16777216
370
    -2
100
AcDbLine
 10
389.9998766018629
 20
2424.999981745037
 30
0.0
 11
389.999876601863
 21
2064.999981745036
 31
0.0
  0
INSERT
  5
14011
330
1208A
100
AcDbEntity
  8
寸法線
 62
     0
440
 16777216
370
    -2
100
AcDbBlockReference
  2
_OPEN
 10
389.9998766018629
 20
2444.999981745037
 30
0.0
 41
20.0
 42
20.0
 43
20.0
 50
90.0
  0
INSERT
  5
14012
330
1208A
100
AcDbEntity
  8
寸法線
 62
     0
440
 16777216
370
    -2
100
AcDbBlockReference
  2
_OPEN
 10
389.999876601863
 20
2044.999981745036
 30
0.0
 41
20.0
 42
20.0
 43
20.0
 50
270.0
  0
MTEXT
  5
14013
330
1208A
100
AcDbEntity
  8
寸法線
 62
     0
440
 16777216
100
AcDbMText
 10
368.7498766018634
 20
2244.999981745036
 30
0.0
 40
25.0
 41
0.0
 46
0.0
 71
     5
 72
     1
  1
\A1;400
 11
0.0000000000000001
 21
1.0
 31
0.0
 73
     1
 44
1.0
  0
POINT
  5
14014
330
1208A
100
AcDbEntity
  8
Defpoints
 62
     0
440
 16777216
100
AcDbPoint
 10
528.9998766018636
 20
2444.999981745037
 30
0.0
  0
POINT
  5
14015
330
1208A
100
AcDbEntity
  8
Defpoints
 62
     0
440
 16777216
100
AcDbPoint
 10
528.9998766018636
 20
2044.999981745036
 30
0.0
  0
POINT
  5
14016
330
1208A
100
AcDbEntity
  8
Defpoints
 62
     0
440
 16777216
100
AcDbPoint
 10
389.999876601863
 20
2044.999981745036
 30
0.0
  0
ENDBLK
  5
1208C
330
1208A
100
AcDbEntity
  8
0
100
AcDbBlockEnd
  0
BLOCK
  5
12097
330
12096
100
AcDbEntity
  8
0
100
AcDbBlockBegin
  2
*D11
 70
     1
 10
0.0
 20
0.0
 30
0.0
  3
*D11
  1

  0
LINE
  5
14017
330
12096
100
AcDbEntity
  8
寸法線
 62
     0
440
 16777216
370
    -2
100
AcDbLine
 10
509.9998766018634
 20
2444.750018964711
 30
0.0
 11
509.9998766018634
 21
2694.999981745037
 31
0.0
  0
LINE
  5
14018
330
12096
100
AcDbEntity
  8
寸法線
 62
     0
440
 16777216
370
    -2
100
AcDbLine
 10
1059.999876601863
 20
2463.75001896471
 30
0.0
 11
1059.999876601863
 21
2694.999981745037
 31
0.0
  0
LINE
  5
14019
330
12096
100
AcDbEntity
  8
寸法線
 62
     0
440
 16777216
370
    -2
100
AcDbLine
 10
529.9998766018634
 20
2684.999981745037
 30
0.0
 11
1039.999876601863
 21
2684.999981745037
 31
0.0
  0
INSERT
  5
1401A
330
12096
100
AcDbEntity
  8
寸法線
 62
     0
440
 16777216
370
    -2
100
AcDbBlockReference
  2
_OPEN
 10
509.9998766018634
 20
2684.999981745037
 30
0.0
 41
20.0
 42
20.0
 43
20.0
 50
180.0
  0
INSERT
  5
1401B
330
12096
100
AcDbEntity
  8
寸法線
 62
     0
440
 16777216
370
    -2
100
AcDbBlockReference
  2
_OPEN
 10
1059.999876601863
 20
2684.999981745037
 30
0.0
 41
20.0
 42
20.0
 43
20.0
  0
MTEXT
  5
1401C
330
12096
100
AcDbEntity
  8
寸法線
 62
     0
440
 16777216
100
AcDbMText
 10
784.9998766018634
 20
2706.249981745037
 30
0.0
 40
25.0
 41
0.0
 46
0.0
 71
     5
 72
     1
  1
\A1;550
 73
     1
 44
1.0
  0
MTEXT
  5
1401D
330
12096
100
AcDbEntity
  8
寸法線
 62
     0
440
 16777216
100
AcDbMText
 10
784.9998766018634
 20
2663.749981745037
 30
0.0
 40
25.0
 41
0.0
 46
0.0
 71
     5
 72
     1
  1
\A1;H型鋼（連結部）
 73
     1
 44
1.0
  0
POINT
  5
1401E
330
12096
100
AcDbEntity
  8
Defpoints
 62
     0
440
 16777216
100
AcDbPoint
 10
509.9998766018634
 20
2436.000018964711
 30
0.0
  0
POINT
  5
1401F
330
12096
100
AcDbEntity
  8
Defpoints
 62
     0
440
 16777216
100
AcDbPoint
 10
1059.999876601863
 20
2455.000018964711
 30
0.0
  0
POINT
  5
14020
330
12096
100
AcDbEntity
  8
Defpoints
 62
     0
440
 16777216
100
AcDbPoint
 10
1059.999876601863
 20
2684.999981745037
 30
0.0
  0
ENDBLK
  5
12098
330
12096
100
AcDbEntity
  8
0
100
AcDbBlockEnd
  0
BLOCK
  5
120A4
330
120A3
100
AcDbEntity
  8
0
100
AcDbBlockBegin
  2
*D12
 70
     1
 10
0.0
 20
0.0
 30
0.0
  3
*D12
  1

  0
LINE
  5
14021
330
120A3
100
AcDbEntity
  8
寸法線
 62
     0
440
 16777216
370
    -2
100
AcDbLine
 10
1059.999896414972
 20
2463.749995551367
 30
0.0
 11
1059.999896414972
 21
2694.999981745037
 31
0.0
  0
LINE
  5
14022
330
120A3
100
AcDbEntity
  8
寸法線
 62
     0
440
 16777216
370
    -2
100
AcDbLine
 10
2359.999896414973
 20
2463.74997262272
 30
0.0
 11
2359.999896414973
 21
2694.999981745037
 31
0.0
  0
LINE
  5
14023
330
120A3
100
AcDbEntity
  8
寸法線
 62
     0
440
 16777216
370
    -2
100
AcDbLine
 10
1079.999896414973
 20
2684.999981745037
 30
0.0
 11
2339.999896414973
 21
2684.999981745037
 31
0.0
  0
INSERT
  5
14024
330
120A3
100
AcDbEntity
  8
寸法線
 62
     0
440
 16777216
370
    -2
100
AcDbBlockReference
  2
_OPEN
 10
1059.999896414972
 20
2684.999981745037
 30
0.0
 41
20.0
 42
20.0
 43
20.0
 50
180.0
  0
INSERT
  5
14025
330
120A3
100
AcDbEntity
  8
寸法線
 62
     0
440
 16777216
370
    -2
100
AcDbBlockReference
  2
_OPEN
 10
2359.999896414973
 20
2684.999981745037
 30
0.0
 41
20.0
 42
20.0
 43
20.0
  0
MTEXT
  5
14026
330
120A3
100
AcDbEntity
  8
寸法線
 62
     0
440
 16777216
100
AcDbMText
 10
1709.999896414973
 20
2706.249981745037
 30
0.0
 40
25.0
 41
0.0
 46
0.0
 71
     5
 72
     1
  1
\A1;W=1300
 73
     1
 44
1.0
  0
MTEXT
  5
14027
330
120A3
100
AcDbEntity
  8
寸法線
 62
     0
440
 16777216
100
AcDbMText
 10
1709.999896414973
 20
2663.749981745037
 30
0.0
 40
25.0
 41
0.0
 46
0.0
 71
     5
 72
     1
  1
\A1;空洞金具
 73
     1
 44
1.0
  0
POINT
  5
14028
330
120A3
100
AcDbEntity
  8
Defpoints
 62
     0
440
 16777216
100
AcDbPoint
 10
1059.999896414972
 20
2454.999995551367
 30
0.0
  0
POINT
  5
14029
330
120A3
100
AcDbEntity
  8
Defpoints
 62
     0
440
 16777216
100
AcDbPoint
 10
2359.999896414973
 20
2454.99997262272
 30
0.0
  0
POINT
  5
1402A
330
120A3
100
AcDbEntity
  8
Defpoints
 62
     0
440
 16777216
100
AcDbPoint
 10
2359.999896414973
 20
2684.999981745037
 30
0.0
  0
ENDBLK
  5
120A5
330
120A3
100
AcDbEntity
  8
0
100
AcDbBlockEnd
  0
BLOCK
  5
120B1
330
120B0
100
AcDbEntity
  8
0
100
AcDbBlockBegin
  2
*D13
 70
     1
 10
0.0
 20
0.0
 30
0.0
  3
*D13
  1

  0
LINE
  5
1402B
330
120B0
100
AcDbEntity
  8
寸法線
 62
     0
440
 16777216
370
    -2
100
AcDbLine
 10
509.9998964150017
 20
2444.749995551382
 30
0.0
 11
509.9998964150017
 21
2774.999981745037
 31
0.0
  0
LINE
  5
1402C
330
120B0
100
AcDbEntity
  8
寸法線
 62
     0
440
 16777216
370
    -2
100
AcDbLine
 10
2909.999896414943
 20
2444.749981745051
 30
0.0
 11
2909.999896414943
 21
2774.999981745037
 31
0.0
  0
LINE
  5
1402D
330
120B0
100
AcDbEntity
  8
寸法線
 62
     0
440
 16777216
370
    -2
100
AcDbLine
 10
529.9998964150018
 20
2764.999981745037
 30
0.0
 11
2889.999896414943
 21
2764.999981745037
 31
0.0
  0
INSERT
  5
1402E
330
120B0
100
AcDbEntity
  8
寸法線
 62
     0
440
 16777216
370
    -2
100
AcDbBlockReference
  2
_OPEN
 10
509.9998964150017
 20
2764.999981745037
 30
0.0
 41
20.0
 42
20.0
 43
20.0
 50
180.0
  0
INSERT
  5
1402F
330
120B0
100
AcDbEntity
  8
寸法線
 62
     0
440
 16777216
370
    -2
100
AcDbBlockReference
  2
_OPEN
 10
2909.999896414943
 20
2764.999981745037
 30
0.0
 41
20.0
 42
20.0
 43
20.0
  0
MTEXT
  5
14030
330
120B0
100
AcDbEntity
  8
寸法線
 62
     0
440
 16777216
100
AcDbMText
 10
1709.999896414972
 20
2786.252442374959
 30
0.0
 40
25.0
 41
0.0
 46
0.0
 71
     5
 72
     1
  1
\A1;スルーサーＢ L=2400
 73
     1
 44
1.0
  0
POINT
  5
14031
330
120B0
100
AcDbEntity
  8
Defpoints
 62
     0
440
 16777216
100
AcDbPoint
 10
509.9998964150017
 20
2435.999995551382
 30
0.0
  0
POINT
  5
14032
330
120B0
100
AcDbEntity
  8
Defpoints
 62
     0
440
 16777216
100
AcDbPoint
 10
2909.999896414943
 20
2435.999981745051
 30
0.0
  0
POINT
  5
14033
330
120B0
100
AcDbEntity
  8
Defpoints
 62
     0
440
 16777216
100
AcDbPoint
 10
2909.999896414943
 20
2764.999981745037
 30
0.0
  0
ENDBLK
  5
120B2
330
120B0
100
AcDbEntity
  8
0
100
AcDbBlockEnd
  0
BLOCK
  5
120BD
330
120BC
100
AcDbEntity
  8
0
100
AcDbBlockBegin
  2
*D14
 70
     1
 10
0.0
 20
0.0
 30
0.0
  3
*D14
  1

  0
LINE
  5
14070
330
120BC
100
AcDbEntity
  8
寸法線
 62
     0
440
 16777216
370
    -2
100
AcDbLine
 10
3810.000123398135
 20
2036.249980186892
 30
0.0
 11
3810.000123398135
 21
1914.999980186891
 31
0.0
  0
LINE
  5
14071
330
120BC
100
AcDbEntity
  8
寸法線
 62
     0
440
 16777216
370
    -2
100
AcDbLine
 10
3410.000123398134
 20
2036.249980186892
 30
0.0
 11
3410.000123398134
 21
1914.999980186891
 31
0.0
  0
LINE
  5
14072
330
120BC
100
AcDbEntity
  8
寸法線
 62
     0
440
 16777216
370
    -2
100
AcDbLine
 10
3790.000123398135
 20
1924.999980186892
 30
0.0
 11
3430.000123398135
 21
1924.999980186892
 31
0.0
  0
INSERT
  5
14073
330
120BC
100
AcDbEntity
  8
寸法線
 62
     0
440
 16777216
370
    -2
100
AcDbBlockReference
  2
_OPEN
 10
3810.000123398135
 20
1924.999980186892
 30
0.0
 41
20.0
 42
20.0
 43
20.0
  0
INSERT
  5
14074
330
120BC
100
AcDbEntity
  8
寸法線
 62
     0
440
 16777216
370
    -2
100
AcDbBlockReference
  2
_OPEN
 10
3410.000123398134
 20
1924.999980186892
 30
0.0
 41
20.0
 42
20.0
 43
20.0
 50
180.0
  0
MTEXT
  5
14075
330
120BC
100
AcDbEntity
  8
寸法線
 62
     0
440
 16777216
100
AcDbMText
 10
3610.000123398137
 20
1946.249980186891
 30
0.0
 40
25.0
 41
0.0
 46
0.0
 71
     5
 72
     1
  1
\A1;400
 73
     1
 44
1.0
  0
POINT
  5
14076
330
120BC
100
AcDbEntity
  8
Defpoints
 62
     0
440
 16777216
100
AcDbPoint
 10
3810.000123398135
 20
2044.999980186892
 30
0.0
  0
POINT
  5
14077
330
120BC
100
AcDbEntity
  8
Defpoints
 62
     0
440
 16777216
100
AcDbPoint
 10
3410.000123398134
 20
2044.999980186892
 30
0.0
  0
POINT
  5
14078
330
120BC
100
AcDbEntity
  8
Defpoints
 62
     0
440
 16777216
100
AcDbPoint
 10
3410.000123398134
 20
1924.999980186892
 30
0.0
  0
ENDBLK
  5
120BE
330
120BC
100
AcDbEntity
  8
0
100
AcDbBlockEnd
  0
BLOCK
  5
120C9
330
120C8
100
AcDbEntity
  8
0
100
AcDbBlockBegin
  2
*D15
 70
     1
 10
0.0
 20
0.0
 30
0.0
  3
*D15
  1

  0
LINE
  5
14079
330
120C8
100
AcDbEntity
  8
寸法線
 62
     0
440
 16777216
370
    -2
100
AcDbLine
 10
3401.250123398135
 20
2445.00001981311
 30
0.0
 11
3280.000123398134
 21
2445.00001981311
 31
0.0
  0
LINE
  5
1407A
330
120C8
100
AcDbEntity
  8
寸法線
 62
     0
440
 16777216
370
    -2
100
AcDbLine
 10
3401.250123398135
 20
2045.000019813109
 30
0.0
 11
3280.000123398134
 21
2045.000019813109
 31
0.0
  0
LINE
  5
1407B
330
120C8
100
AcDbEntity
  8
寸法線
 62
     0
440
 16777216
370
    -2
100
AcDbLine
 10
3290.000123398134
 20
2425.00001981311
 30
0.0
 11
3290.000123398134
 21
2065.00001981311
 31
0.0
  0
INSERT
  5
1407C
330
120C8
100
AcDbEntity
  8
寸法線
 62
     0
440
 16777216
370
    -2
100
AcDbBlockReference
  2
_OPEN
 10
3290.000123398134
 20
2445.00001981311
 30
0.0
 41
20.0
 42
20.0
 43
20.0
 50
90.0
  0
INSERT
  5
1407D
330
120C8
100
AcDbEntity
  8
寸法線
 62
     0
440
 16777216
370
    -2
100
AcDbBlockReference
  2
_OPEN
 10
3290.000123398134
 20
2045.000019813109
 30
0.0
 41
20.0
 42
20.0
 43
20.0
 50
270.0
  0
MTEXT
  5
1407E
330
120C8
100
AcDbEntity
  8
寸法線
 62
     0
440
 16777216
100
AcDbMText
 10
3268.750123398134
 20
2245.0
 30
0.0
 40
25.0
 41
0.0
 46
0.0
 71
     5
 72
     1
  1
\A1;400
 11
0.0000000000000001
 21
1.0
 31
0.0
 73
     1
 44
1.0
  0
POINT
  5
1407F
330
120C8
100
AcDbEntity
  8
Defpoints
 62
     0
440
 16777216
100
AcDbPoint
 10
3410.000123398136
 20
2445.00001981311
 30
0.0
  0
POINT
  5
14080
330
120C8
100
AcDbEntity
  8
Defpoints
 62
     0
440
 16777216
100
AcDbPoint
 10
3410.000123398136
 20
2045.000019813109
 30
0.0
  0
POINT
  5
14081
330
120C8
100
AcDbEntity
  8
Defpoints
 62
     0
440
 16777216
100
AcDbPoint
 10
3290.000123398134
 20
2045.000019813109
 30
0.0
  0
ENDBLK
  5
120CA
330
120C8
100
AcDbEntity
  8
0
100
AcDbBlockEnd
  0
BLOCK
  5
120D5
330
120D4
100
AcDbEntity
  8
0
100
AcDbBlockBegin
  2
*D16
 70
     1
 10
0.0
 20
0.0
 30
0.0
  3
*D16
  1

  0
LINE
  5
14082
330
120D4
100
AcDbEntity
  8
寸法線
 62
     0
440
 16777216
370
    -2
100
AcDbLine
 10
2682.249876601842
 20
2250.999978391803
 30
0.0
 11
2580.999891036832
 21
2250.999978391803
 31
0.0
  0
LINE
  5
14083
330
120D4
100
AcDbEntity
  8
寸法線
 62
     0
440
 16777216
370
    -2
100
AcDbLine
 10
2682.249876601842
 20
2238.999978391803
 30
0.0
 11
2580.999891036832
 21
2238.999978391803
 31
0.0
  0
LINE
  5
14084
330
120D4
100
AcDbEntity
  8
寸法線
 62
     0
440
 16777216
370
    -2
100
AcDbLine
 10
2590.999891036831
 20
2270.999978391803
 30
0.0
 11
2590.999891036831
 21
2290.999978391803
 31
0.0
  0
LINE
  5
14085
330
120D4
100
AcDbEntity
  8
寸法線
 62
     0
440
 16777216
370
    -2
100
AcDbLine
 10
2590.999891036831
 20
2218.999978391803
 30
0.0
 11
2590.999891036831
 21
2198.999978391803
 31
0.0
  0
LINE
  5
14086
330
120D4
100
AcDbEntity
  8
寸法線
 62
     0
440
 16777216
370
    -2
100
AcDbLine
 10
2590.999891036831
 20
2250.999978391803
 30
0.0
 11
2590.999891036831
 21
2238.999978391803
 31
0.0
  0
INSERT
  5
14087
330
120D4
100
AcDbEntity
  8
寸法線
 62
     0
440
 16777216
370
    -2
100
AcDbBlockReference
  2
_OPEN
 10
2590.999891036831
 20
2250.999978391803
 30
0.0
 41
20.0
 42
20.0
 43
20.0
 50
270.0
  0
INSERT
  5
14088
330
120D4
100
AcDbEntity
  8
寸法線
 62
     0
440
 16777216
370
    -2
100
AcDbBlockReference
  2
_OPEN
 10
2590.999891036831
 20
2238.999978391803
 30
0.0
 41
20.0
 42
20.0
 43
20.0
 50
90.0
  0
MTEXT
  5
14089
330
120D4
100
AcDbEntity
  8
寸法線
 62
     0
440
 16777216
100
AcDbMText
 10
2569.74743040691
 20
2244.999978391802
 30
0.0
 40
25.0
 41
0.0
 46
0.0
 71
     5
 72
     1
  1
\A1;12
 11
0.0000000000000001
 21
1.0
 31
0.0
 73
     1
 44
1.0
  0
POINT
  5
1408A
330
120D4
100
AcDbEntity
  8
Defpoints
 62
     0
440
 16777216
100
AcDbPoint
 10
2690.999876601842
 20
2250.999978391803
 30
0.0
  0
POINT
  5
1408B
330
120D4
100
AcDbEntity
  8
Defpoints
 62
     0
440
 16777216
100
AcDbPoint
 10
2690.999876601842
 20
2238.999978391803
 30
0.0
  0
POINT
  5
1408C
330
120D4
100
AcDbEntity
  8
Defpoints
 62
     0
440
 16777216
100
AcDbPoint
 10
2590.999891036831
 20
2238.999978391803
 30
0.0
  0
ENDBLK
  5
120D6
330
120D4
100
AcDbEntity
  8
0
100
AcDbBlockEnd
  0
BLOCK
  5
120E3
330
120E2
100
AcDbEntity
  8
0
100
AcDbBlockBegin
  2
*D17
 70
     1
 10
0.0
 20
0.0
 30
0.0
  3
*D17
  1

  0
LINE
  5
1408D
330
120E2
100
AcDbEntity
  8
寸法線
 62
     0
440
 16777216
370
    -2
100
AcDbLine
 10
2909.999896414972
 20
2444.750018964711
 30
0.0
 11
2909.999896414972
 21
2694.999981745037
 31
0.0
  0
LINE
  5
1408E
330
120E2
100
AcDbEntity
  8
寸法線
 62
     0
440
 16777216
370
    -2
100
AcDbLine
 10
2359.999896414972
 20
2463.75001896471
 30
0.0
 11
2359.999896414972
 21
2694.999981745037
 31
0.0
  0
LINE
  5
1408F
330
120E2
100
AcDbEntity
  8
寸法線
 62
     0
440
 16777216
370
    -2
100
AcDbLine
 10
2889.999896414972
 20
2684.999981745037
 30
0.0
 11
2379.999896414972
 21
2684.999981745037
 31
0.0
  0
INSERT
  5
14090
330
120E2
100
AcDbEntity
  8
寸法線
 62
     0
440
 16777216
370
    -2
100
AcDbBlockReference
  2
_OPEN
 10
2909.999896414972
 20
2684.999981745037
 30
0.0
 41
20.0
 42
20.0
 43
20.0
  0
INSERT
  5
14091
330
120E2
100
AcDbEntity
  8
寸法線
 62
     0
440
 16777216
370
    -2
100
AcDbBlockReference
  2
_OPEN
 10
2359.999896414972
 20
2684.999981745037
 30
0.0
 41
20.0
 42
20.0
 43
20.0
 50
180.0
  0
MTEXT
  5
14092
330
120E2
100
AcDbEntity
  8
寸法線
 62
     0
440
 16777216
100
AcDbMText
 10
2634.999896414972
 20
2706.249981745037
 30
0.0
 40
25.0
 41
0.0
 46
0.0
 71
     5
 72
     1
  1
\A1;550
 73
     1
 44
1.0
  0
MTEXT
  5
14093
330
120E2
100
AcDbEntity
  8
寸法線
 62
     0
440
 16777216
100
AcDbMText
 10
2634.999896414972
 20
2663.749981745037
 30
0.0
 40
25.0
 41
0.0
 46
0.0
 71
     5
 72
     1
  1
\A1;H型鋼（連結部）
 73
     1
 44
1.0
  0
POINT
  5
14094
330
120E2
100
AcDbEntity
  8
Defpoints
 62
     0
440
 16777216
100
AcDbPoint
 10
2909.999896414972
 20
2436.000018964711
 30
0.0
  0
POINT
  5
14095
330
120E2
100
AcDbEntity
  8
Defpoints
 62
     0
440
 16777216
100
AcDbPoint
 10
2359.999896414972
 20
2455.000018964711
 30
0.0
  0
POINT
  5
14096
330
120E2
100
AcDbEntity
  8
Defpoints
 62
     0
440
 16777216
100
AcDbPoint
 10
2359.999896414972
 20
2684.999981745037
 30
0.0
  0
ENDBLK
  5
120E4
330
120E2
100
AcDbEntity
  8
0
100
AcDbBlockEnd
  0
BLOCK
  5
1214C
330
1214B
100
AcDbEntity
  8
0
100
AcDbBlockBegin
  2
*D18
 70
     1
 10
0.0
 20
0.0
 30
0.0
  3
*D18
  1

  0
LINE
  5
1405A
330
1214B
100
AcDbEntity
  8
寸法線
 62
     0
440
 16777216
370
    -2
100
AcDbLine
 10
2488.749876601842
 20
1824.499953407799
 30
0.0
 11
2569.99987660184
 21
1824.499953407799
 31
0.0
  0
LINE
  5
1405B
330
1214B
100
AcDbEntity
  8
寸法線
 62
     0
440
 16777216
370
    -2
100
AcDbLine
 10
2488.749876601842
 20
1805.499953407799
 30
0.0
 11
2569.99987660184
 21
1805.499953407799
 31
0.0
  0
LINE
  5
1405C
330
1214B
100
AcDbEntity
  8
寸法線
 62
     0
440
 16777216
370
    -2
100
AcDbLine
 10
2559.99987660184
 20
1844.499953407799
 30
0.0
 11
2559.99987660184
 21
1864.499953407799
 31
0.0
  0
LINE
  5
1405D
330
1214B
100
AcDbEntity
  8
寸法線
 62
     0
440
 16777216
370
    -2
100
AcDbLine
 10
2559.99987660184
 20
1785.499953407798
 30
0.0
 11
2559.99987660184
 21
1765.499953407799
 31
0.0
  0
LINE
  5
1405E
330
1214B
100
AcDbEntity
  8
寸法線
 62
     0
440
 16777216
370
    -2
100
AcDbLine
 10
2559.99987660184
 20
1824.499953407799
 30
0.0
 11
2559.99987660184
 21
1805.499953407799
 31
0.0
  0
INSERT
  5
1405F
330
1214B
100
AcDbEntity
  8
寸法線
 62
     0
440
 16777216
370
    -2
100
AcDbBlockReference
  2
_OPEN
 10
2559.99987660184
 20
1824.499953407799
 30
0.0
 41
20.0
 42
20.0
 43
20.0
 50
270.0
  0
INSERT
  5
14060
330
1214B
100
AcDbEntity
  8
寸法線
 62
     0
440
 16777216
370
    -2
100
AcDbBlockReference
  2
_OPEN
 10
2559.99987660184
 20
1805.499953407799
 30
0.0
 41
20.0
 42
20.0
 43
20.0
 50
90.0
  0
MTEXT
  5
14061
330
1214B
100
AcDbEntity
  8
寸法線
 62
     0
440
 16777216
100
AcDbMText
 10
2538.74987660184
 20
1814.999953407798
 30
0.0
 40
25.0
 41
0.0
 46
0.0
 71
     5
 72
     1
  1
\A1;19
 11
0.0000000000000001
 21
1.0
 31
0.0
 73
     1
 44
1.0
  0
POINT
  5
14062
330
1214B
100
AcDbEntity
  8
Defpoints
 62
     0
440
 16777216
100
AcDbPoint
 10
2479.999876601843
 20
1824.499953407799
 30
0.0
  0
POINT
  5
14063
330
1214B
100
AcDbEntity
  8
Defpoints
 62
     0
440
 16777216
100
AcDbPoint
 10
2479.999876601843
 20
1805.499953407799
 30
0.0
  0
POINT
  5
14064
330
1214B
100
AcDbEntity
  8
Defpoints
 62
     0
440
 16777216
100
AcDbPoint
 10
2559.99987660184
 20
1805.499953407799
 30
0.0
  0
ENDBLK
  5
1214D
330
1214B
100
AcDbEntity
  8
0
100
AcDbBlockEnd
  0
BLOCK
  5
1215A
330
12159
100
AcDbEntity
  8
0
100
AcDbBlockBegin
  2
*D19
 70
     1
 10
0.0
 20
0.0
 30
0.0
  3
*D19
  1

  0
LINE
  5
14065
330
12159
100
AcDbEntity
  8
寸法線
 62
     0
440
 16777216
370
    -2
100
AcDbLine
 10
2496.74990018144
 20
1475.000021519202
 30
0.0
 11
2569.99987660184
 21
1475.000021519203
 31
0.0
  0
LINE
  5
14066
330
12159
100
AcDbEntity
  8
寸法線
 62
     0
440
 16777216
370
    -2
100
AcDbLine
 10
2368.749896414974
 20
1444.999953611147
 30
0.0
 11
2569.99987660184
 21
1444.999953611147
 31
0.0
  0
LINE
  5
14067
330
12159
100
AcDbEntity
  8
寸法線
 62
     0
440
 16777216
370
    -2
100
AcDbLine
 10
2559.99987660184
 20
1495.000021519202
 30
0.0
 11
2559.99987660184
 21
1515.000021519202
 31
0.0
  0
LINE
  5
14068
330
12159
100
AcDbEntity
  8
寸法線
 62
     0
440
 16777216
370
    -2
100
AcDbLine
 10
2559.99987660184
 20
1424.999953611147
 30
0.0
 11
2559.99987660184
 21
1404.999953611147
 31
0.0
  0
LINE
  5
14069
330
12159
100
AcDbEntity
  8
寸法線
 62
     0
440
 16777216
370
    -2
100
AcDbLine
 10
2559.99987660184
 20
1475.000021519202
 30
0.0
 11
2559.99987660184
 21
1444.999953611147
 31
0.0
  0
INSERT
  5
1406A
330
12159
100
AcDbEntity
  8
寸法線
 62
     0
440
 16777216
370
    -2
100
AcDbBlockReference
  2
_OPEN
 10
2559.99987660184
 20
1475.000021519202
 30
0.0
 41
20.0
 42
20.0
 43
20.0
 50
270.0
  0
INSERT
  5
1406B
330
12159
100
AcDbEntity
  8
寸法線
 62
     0
440
 16777216
370
    -2
100
AcDbBlockReference
  2
_OPEN
 10
2559.99987660184
 20
1444.999953611147
 30
0.0
 41
20.0
 42
20.0
 43
20.0
 50
90.0
  0
MTEXT
  5
1406C
330
12159
100
AcDbEntity
  8
寸法線
 62
     0
440
 16777216
100
AcDbMText
 10
2538.74987660184
 20
1459.999987565174
 30
0.0
 40
25.0
 41
0.0
 46
0.0
 71
     5
 72
     1
  1
\A1;30
 11
0.0000000000000001
 21
1.0
 31
0.0
 73
     1
 44
1.0
  0
POINT
  5
1406D
330
12159
100
AcDbEntity
  8
Defpoints
 62
     0
440
 16777216
100
AcDbPoint
 10
2487.999900181441
 20
1475.000021519202
 30
0.0
  0
POINT
  5
1406E
330
12159
100
AcDbEntity
  8
Defpoints
 62
     0
440
 16777216
100
AcDbPoint
 10
2359.999896414974
 20
1444.999953611147
 30
0.0
  0
POINT
  5
1406F
330
12159
100
AcDbEntity
  8
Defpoints
 62
     0
440
 16777216
100
AcDbPoint
 10
2559.99987660184
 20
1444.999953611147
 30
0.0
  0
ENDBLK
  5
1215B
330
12159
100
AcDbEntity
  8
0
100
AcDbBlockEnd
  0
BLOCK
  5
126E5
330
126E4
100
AcDbEntity
  8
0
100
AcDbBlockBegin
  2
*D20
 70
     1
 10
0.0
 20
0.0
 30
0.0
  3
*D20
  1

  0
LINE
  5
140E7
330
126E4
100
AcDbEntity
  8
寸法線
 62
     0
440
 16777216
370
    -2
100
AcDbLine
 10
2275.249948207482
 20
939.9999954388482
 30
0.0
 11
2273.999948207482
 21
939.9999954388482
 31
0.0
  0
LINE
  5
140E8
330
126E4
100
AcDbEntity
  8
寸法線
 62
     0
440
 16777216
370
    -2
100
AcDbLine
 10
2275.249948207482
 20
999.9999954388481
 30
0.0
 11
2273.999948207482
 21
999.9999954388481
 31
0.0
  0
LINE
  5
140E9
330
126E4
100
AcDbEntity
  8
寸法線
 62
     0
440
 16777216
370
    -2
100
AcDbLine
 10
2283.999948207481
 20
979.999995438848
 30
0.0
 11
2283.999948207481
 21
959.9999954388481
 31
0.0
  0
LINE
  5
140EA
330
126E4
100
AcDbEntity
  8
寸法線
 62
     0
440
 16777216
370
    -2
100
AcDbLine
 10
2283.999948207481
 20
939.9999954388482
 30
0.0
 11
2283.999948207481
 21
852.4803103994569
 31
0.0
  0
INSERT
  5
140EB
330
126E4
100
AcDbEntity
  8
寸法線
 62
     0
440
 16777216
370
    -2
100
AcDbBlockReference
  2
_OPEN
 10
2283.999948207481
 20
999.9999954388481
 30
0.0
 41
20.0
 42
20.0
 43
20.0
 50
90.0
  0
INSERT
  5
140EC
330
126E4
100
AcDbEntity
  8
寸法線
 62
     0
440
 16777216
370
    -2
100
AcDbBlockReference
  2
_OPEN
 10
2283.999948207481
 20
939.9999954388482
 30
0.0
 41
20.0
 42
20.0
 43
20.0
 50
270.0
  0
MTEXT
  5
140ED
330
126E4
100
AcDbEntity
  8
寸法線
 62
     0
440
 16777216
100
AcDbMText
 10
2262.749948207481
 20
886.240152919141
 30
0.0
 40
25.0
 41
0.0
 46
0.0
 71
     5
 72
     1
  1
\A1;%%C60
 11
0.0000000000000001
 21
1.0
 31
0.0
 73
     1
 44
1.0
  0
POINT
  5
140EE
330
126E4
100
AcDbEntity
  8
Defpoints
 62
     0
440
 16777216
100
AcDbPoint
 10
2283.999948207482
 20
939.9999954388482
 30
0.0
  0
POINT
  5
140EF
330
126E4
100
AcDbEntity
  8
Defpoints
 62
     0
440
 16777216
100
AcDbPoint
 10
2283.999948207482
 20
999.9999954388481
 30
0.0
  0
POINT
  5
140F0
330
126E4
100
AcDbEntity
  8
Defpoints
 62
     0
440
 16777216
100
AcDbPoint
 10
2283.999948207481
 20
999.9999954388481
 30
0.0
  0
ENDBLK
  5
126E6
330
126E4
100
AcDbEntity
  8
0
100
AcDbBlockEnd
  0
BLOCK
  5
12742
330
12741
100
AcDbEntity
  8
0
100
AcDbBlockBegin
  2
*D21
 70
     1
 10
0.0
 20
0.0
 30
0.0
  3
*D21
  1

  0
LINE
  5
14097
330
12741
100
AcDbEntity
  8
寸法線
 62
     0
440
 16777216
370
    -2
100
AcDbLine
 10
2312.000051792495
 20
591.2499954388477
 30
0.0
 11
2312.000051792495
 21
489.9999817553343
 31
0.0
  0
LINE
  5
14098
330
12741
100
AcDbEntity
  8
寸法線
 62
     0
440
 16777216
370
    -2
100
AcDbLine
 10
2343.999948207481
 20
581.2499954388477
 30
0.0
 11
2343.999948207481
 21
489.9999817553343
 31
0.0
  0
LINE
  5
14099
330
12741
100
AcDbEntity
  8
寸法線
 62
     0
440
 16777216
370
    -2
100
AcDbLine
 10
2292.000051792495
 20
499.9999817553343
 30
0.0
 11
2272.000051792495
 21
499.9999817553343
 31
0.0
  0
LINE
  5
1409A
330
12741
100
AcDbEntity
  8
寸法線
 62
     0
440
 16777216
370
    -2
100
AcDbLine
 10
2363.999948207481
 20
499.9999817553343
 30
0.0
 11
2383.999948207481
 21
499.9999817553343
 31
0.0
  0
LINE
  5
1409B
330
12741
100
AcDbEntity
  8
寸法線
 62
     0
440
 16777216
370
    -2
100
AcDbLine
 10
2312.000051792495
 20
499.9999817553343
 30
0.0
 11
2343.999948207481
 21
499.9999817553343
 31
0.0
  0
INSERT
  5
1409C
330
12741
100
AcDbEntity
  8
寸法線
 62
     0
440
 16777216
370
    -2
100
AcDbBlockReference
  2
_OPEN
 10
2312.000051792495
 20
499.9999817553343
 30
0.0
 41
20.0
 42
20.0
 43
20.0
  0
INSERT
  5
1409D
330
12741
100
AcDbEntity
  8
寸法線
 62
     0
440
 16777216
370
    -2
100
AcDbBlockReference
  2
_OPEN
 10
2343.999948207481
 20
499.9999817553343
 30
0.0
 41
20.0
 42
20.0
 43
20.0
 50
180.0
  0
MTEXT
  5
1409E
330
12741
100
AcDbEntity
  8
寸法線
 62
     0
440
 16777216
100
AcDbMText
 10
2327.999999999988
 20
521.2524423852556
 30
0.0
 40
25.0
 41
0.0
 46
0.0
 71
     5
 72
     1
  1
\A1;32
 73
     1
 44
1.0
  0
POINT
  5
1409F
330
12741
100
AcDbEntity
  8
Defpoints
 62
     0
440
 16777216
100
AcDbPoint
 10
2312.000051792495
 20
599.9999954388477
 30
0.0
  0
POINT
  5
140A0
330
12741
100
AcDbEntity
  8
Defpoints
 62
     0
440
 16777216
100
AcDbPoint
 10
2343.999948207481
 20
589.9999954388476
 30
0.0
  0
POINT
  5
140A1
330
12741
100
AcDbEntity
  8
Defpoints
 62
     0
440
 16777216
100
AcDbPoint
 10
2343.999948207481
 20
499.9999817553343
 30
0.0
  0
ENDBLK
  5
12743
330
12741
100
AcDbEntity
  8
0
100
AcDbBlockEnd
  0
BLOCK
  5
12750
330
1274F
100
AcDbEntity
  8
0
100
AcDbBlockBegin
  2
*D22
 70
     1
 10
0.0
 20
0.0
 30
0.0
  3
*D22
  1

  0
LINE
  5
140A2
330
1274F
100
AcDbEntity
  8
寸法線
 62
     0
440
 16777216
370
    -2
100
AcDbLine
 10
2343.999948207481
 20
581.2499954388477
 30
0.0
 11
2343.999948207481
 21
429.9999817553343
 31
0.0
  0
LINE
  5
140A3
330
1274F
100
AcDbEntity
  8
寸法線
 62
     0
440
 16777216
370
    -2
100
AcDbLine
 10
2359.999948207481
 20
581.2499954388477
 30
0.0
 11
2359.999948207481
 21
429.9999817553343
 31
0.0
  0
LINE
  5
140A4
330
1274F
100
AcDbEntity
  8
寸法線
 62
     0
440
 16777216
370
    -2
100
AcDbLine
 10
2323.999948207481
 20
439.9999817553343
 30
0.0
 11
2303.999948207481
 21
439.9999817553343
 31
0.0
  0
LINE
  5
140A5
330
1274F
100
AcDbEntity
  8
寸法線
 62
     0
440
 16777216
370
    -2
100
AcDbLine
 10
2379.999948207481
 20
439.9999817553343
 30
0.0
 11
2399.999948207481
 21
439.9999817553343
 31
0.0
  0
LINE
  5
140A6
330
1274F
100
AcDbEntity
  8
寸法線
 62
     0
440
 16777216
370
    -2
100
AcDbLine
 10
2343.999948207481
 20
439.9999817553343
 30
0.0
 11
2359.999948207481
 21
439.9999817553343
 31
0.0
  0
INSERT
  5
140A7
330
1274F
100
AcDbEntity
  8
寸法線
 62
     0
440
 16777216
370
    -2
100
AcDbBlockReference
  2
_OPEN
 10
2343.999948207481
 20
439.9999817553343
 30
0.0
 41
20.0
 42
20.0
 43
20.0
  0
INSERT
  5
140A8
330
1274F
100
AcDbEntity
  8
寸法線
 62
     0
440
 16777216
370
    -2
100
AcDbBlockReference
  2
_OPEN
 10
2359.999948207481
 20
439.9999817553343
 30
0.0
 41
20.0
 42
20.0
 43
20.0
 50
180.0
  0
MTEXT
  5
140A9
330
1274F
100
AcDbEntity
  8
寸法線
 62
     0
440
 16777216
100
AcDbMText
 10
2351.999948207481
 20
461.2499817553343
 30
0.0
 40
25.0
 41
0.0
 46
0.0
 71
     5
 72
     1
  1
\A1;16
 73
     1
 44
1.0
  0
POINT
  5
140AA
330
1274F
100
AcDbEntity
  8
Defpoints
 62
     0
440
 16777216
100
AcDbPoint
 10
2343.999948207481
 20
589.9999954388476
 30
0.0
  0
POINT
  5
140AB
330
1274F
100
AcDbEntity
  8
Defpoints
 62
     0
440
 16777216
100
AcDbPoint
 10
2359.999948207481
 20
589.9999954388476
 30
0.0
  0
POINT
  5
140AC
330
1274F
100
AcDbEntity
  8
Defpoints
 62
     0
440
 16777216
100
AcDbPoint
 10
2359.999948207481
 20
439.9999817553343
 30
0.0
  0
ENDBLK
  5
12751
330
1274F
100
AcDbEntity
  8
0
100
AcDbBlockEnd
  0
BLOCK
  5
1275E
330
1275D
100
AcDbEntity
  8
0
100
AcDbBlockBegin
  2
*D23
 70
     1
 10
0.0
 20
0.0
 30
0.0
  3
*D23
  1

  0
LINE
  5
140AD
330
1275D
100
AcDbEntity
  8
寸法線
 62
     0
440
 16777216
370
    -2
100
AcDbLine
 10
449.9999482074809
 20
581.2499589495709
 30
0.0
 11
449.9999482074809
 21
489.9999635107251
 31
0.0
  0
LINE
  5
140AE
330
1275D
100
AcDbEntity
  8
寸法線
 62
     0
440
 16777216
370
    -2
100
AcDbLine
 10
869.9999482074808
 20
581.2499954388477
 30
0.0
 11
869.9999482074808
 21
489.9999635107251
 31
0.0
  0
LINE
  5
140AF
330
1275D
100
AcDbEntity
  8
寸法線
 62
     0
440
 16777216
370
    -2
100
AcDbLine
 10
469.9999482074808
 20
499.9999635107251
 30
0.0
 11
849.9999482074809
 21
499.9999635107251
 31
0.0
  0
INSERT
  5
140B0
330
1275D
100
AcDbEntity
  8
寸法線
 62
     0
440
 16777216
370
    -2
100
AcDbBlockReference
  2
_OPEN
 10
449.9999482074809
 20
499.9999635107251
 30
0.0
 41
20.0
 42
20.0
 43
20.0
 50
180.0
  0
INSERT
  5
140B1
330
1275D
100
AcDbEntity
  8
寸法線
 62
     0
440
 16777216
370
    -2
100
AcDbBlockReference
  2
_OPEN
 10
869.9999482074808
 20
499.9999635107251
 30
0.0
 41
20.0
 42
20.0
 43
20.0
  0
MTEXT
  5
140B2
330
1275D
100
AcDbEntity
  8
寸法線
 62
     0
440
 16777216
100
AcDbMText
 10
659.9999482074808
 20
521.2524241406464
 30
0.0
 40
25.0
 41
0.0
 46
0.0
 71
     5
 72
     1
  1
\A1;420
 73
     1
 44
1.0
  0
POINT
  5
140B3
330
1275D
100
AcDbEntity
  8
Defpoints
 62
     0
440
 16777216
100
AcDbPoint
 10
449.9999482074809
 20
589.999958949571
 30
0.0
  0
POINT
  5
140B4
330
1275D
100
AcDbEntity
  8
Defpoints
 62
     0
440
 16777216
100
AcDbPoint
 10
869.9999482074808
 20
589.9999954388476
 30
0.0
  0
POINT
  5
140B5
330
1275D
100
AcDbEntity
  8
Defpoints
 62
     0
440
 16777216
100
AcDbPoint
 10
869.9999482074808
 20
499.9999635107251
 30
0.0
  0
ENDBLK
  5
1275F
330
1275D
100
AcDbEntity
  8
0
100
AcDbBlockEnd
  0
BLOCK
  5
1276A
330
12769
100
AcDbEntity
  8
0
100
AcDbBlockBegin
  2
*D24
 70
     1
 10
0.0
 20
0.0
 30
0.0
  3
*D24
  1

  0
LINE
  5
140B6
330
12769
100
AcDbEntity
  8
寸法線
 62
     0
440
 16777216
370
    -2
100
AcDbLine
 10
441.249995776295
 20
589.9999954388479
 30
0.0
 11
319.9999957762947
 21
589.9999954388479
 31
0.0
  0
LINE
  5
140B7
330
12769
100
AcDbEntity
  8
寸法線
 62
     0
440
 16777216
370
    -2
100
AcDbLine
 10
441.249995776295
 20
1009.999995438848
 30
0.0
 11
319.9999957762945
 21
1009.999995438848
 31
0.0
  0
LINE
  5
140B8
330
12769
100
AcDbEntity
  8
寸法線
 62
     0
440
 16777216
370
    -2
100
AcDbLine
 10
329.9999957762947
 20
609.9999954388479
 30
0.0
 11
329.9999957762945
 21
989.9999954388482
 31
0.0
  0
INSERT
  5
140B9
330
12769
100
AcDbEntity
  8
寸法線
 62
     0
440
 16777216
370
    -2
100
AcDbBlockReference
  2
_OPEN
 10
329.9999957762947
 20
589.9999954388479
 30
0.0
 41
20.0
 42
20.0
 43
20.0
 50
270.0
  0
INSERT
  5
140BA
330
12769
100
AcDbEntity
  8
寸法線
 62
     0
440
 16777216
370
    -2
100
AcDbBlockReference
  2
_OPEN
 10
329.9999957762945
 20
1009.999995438848
 30
0.0
 41
20.0
 42
20.0
 43
20.0
 50
90.0
  0
MTEXT
  5
140BB
330
12769
100
AcDbEntity
  8
寸法線
 62
     0
440
 16777216
100
AcDbMText
 10
308.7475351463735
 20
799.9999954388477
 30
0.0
 40
25.0
 41
0.0
 46
0.0
 71
     5
 72
     1
  1
\A1;420
 11
0.0000000000000001
 21
1.0
 31
0.0
 73
     1
 44
1.0
  0
POINT
  5
140BC
330
12769
100
AcDbEntity
  8
Defpoints
 62
     0
440
 16777216
100
AcDbPoint
 10
449.999995776295
 20
589.9999954388479
 30
0.0
  0
POINT
  5
140BD
330
12769
100
AcDbEntity
  8
Defpoints
 62
     0
440
 16777216
100
AcDbPoint
 10
449.999995776295
 20
1009.999995438848
 30
0.0
  0
POINT
  5
140BE
330
12769
100
AcDbEntity
  8
Defpoints
 62
     0
440
 16777216
100
AcDbPoint
 10
329.9999957762945
 20
1009.999995438848
 30
0.0
  0
ENDBLK
  5
1276B
330
12769
100
AcDbEntity
  8
0
100
AcDbBlockEnd
  0
BLOCK
  5
12776
330
12775
100
AcDbEntity
  8
0
100
AcDbBlockBegin
  2
*D25
 70
     1
 10
0.0
 20
0.0
 30
0.0
  3
*D25
  1

  0
LINE
  5
140BF
330
12775
100
AcDbEntity
  8
寸法線
 62
     0
440
 16777216
370
    -2
100
AcDbLine
 10
1517.999948207481
 20
1038.749995438847
 30
0.0
 11
1517.999948207481
 21
1109.999999999998
 31
0.0
  0
LINE
  5
140C0
330
12775
100
AcDbEntity
  8
寸法線
 62
     0
440
 16777216
370
    -2
100
AcDbLine
 10
1901.999948207481
 20
1038.749995438847
 30
0.0
 11
1901.999948207481
 21
1109.999999999998
 31
0.0
  0
LINE
  5
140C1
330
12775
100
AcDbEntity
  8
寸法線
 62
     0
440
 16777216
370
    -2
100
AcDbLine
 10
1537.999948207481
 20
1099.999999999998
 30
0.0
 11
1881.999948207481
 21
1099.999999999998
 31
0.0
  0
INSERT
  5
140C2
330
12775
100
AcDbEntity
  8
寸法線
 62
     0
440
 16777216
370
    -2
100
AcDbBlockReference
  2
_OPEN
 10
1517.999948207481
 20
1099.999999999998
 30
0.0
 41
20.0
 42
20.0
 43
20.0
 50
180.0
  0
INSERT
  5
140C3
330
12775
100
AcDbEntity
  8
寸法線
 62
     0
440
 16777216
370
    -2
100
AcDbBlockReference
  2
_OPEN
 10
1901.999948207481
 20
1099.999999999998
 30
0.0
 41
20.0
 42
20.0
 43
20.0
  0
MTEXT
  5
140C4
330
12775
100
AcDbEntity
  8
寸法線
 62
     0
440
 16777216
100
AcDbMText
 10
1709.999948207481
 20
1121.249999999998
 30
0.0
 40
25.0
 41
0.0
 46
0.0
 71
     5
 72
     1
  1
\A1;384
 73
     1
 44
1.0
  0
POINT
  5
140C5
330
12775
100
AcDbEntity
  8
Defpoints
 62
     0
440
 16777216
100
AcDbPoint
 10
1517.999948207481
 20
1029.999995438847
 30
0.0
  0
POINT
  5
140C6
330
12775
100
AcDbEntity
  8
Defpoints
 62
     0
440
 16777216
100
AcDbPoint
 10
1901.999948207481
 20
1029.999995438847
 30
0.0
  0
POINT
  5
140C7
330
12775
100
AcDbEntity
  8
Defpoints
 62
     0
440
 16777216
100
AcDbPoint
 10
1901.999948207481
 20
1099.999999999998
 30
0.0
  0
ENDBLK
  5
12777
330
12775
100
AcDbEntity
  8
0
100
AcDbBlockEnd
  0
BLOCK
  5
12782
330
12781
100
AcDbEntity
  8
0
100
AcDbBlockBegin
  2
*D26
 70
     1
 10
0.0
 20
0.0
 30
0.0
  3
*D26
  1

  0
LINE
  5
140C8
330
12781
100
AcDbEntity
  8
寸法線
 62
     0
440
 16777216
370
    -2
100
AcDbLine
 10
1501.999948207481
 20
1038.749995438847
 30
0.0
 11
1501.999948207481
 21
1109.999999999998
 31
0.0
  0
LINE
  5
140C9
330
12781
100
AcDbEntity
  8
寸法線
 62
     0
440
 16777216
370
    -2
100
AcDbLine
 10
1517.999948207481
 20
1038.749995438847
 30
0.0
 11
1517.999948207481
 21
1109.999999999998
 31
0.0
  0
LINE
  5
140CA
330
12781
100
AcDbEntity
  8
寸法線
 62
     0
440
 16777216
370
    -2
100
AcDbLine
 10
1481.999948207481
 20
1099.999999999998
 30
0.0
 11
1461.999948207481
 21
1099.999999999998
 31
0.0
  0
LINE
  5
140CB
330
12781
100
AcDbEntity
  8
寸法線
 62
     0
440
 16777216
370
    -2
100
AcDbLine
 10
1537.999948207481
 20
1099.999999999998
 30
0.0
 11
1557.999948207481
 21
1099.999999999998
 31
0.0
  0
LINE
  5
140CC
330
12781
100
AcDbEntity
  8
寸法線
 62
     0
440
 16777216
370
    -2
100
AcDbLine
 10
1501.999948207481
 20
1099.999999999998
 30
0.0
 11
1517.999948207481
 21
1099.999999999998
 31
0.0
  0
INSERT
  5
140CD
330
12781
100
AcDbEntity
  8
寸法線
 62
     0
440
 16777216
370
    -2
100
AcDbBlockReference
  2
_OPEN
 10
1501.999948207481
 20
1099.999999999998
 30
0.0
 41
20.0
 42
20.0
 43
20.0
  0
INSERT
  5
140CE
330
12781
100
AcDbEntity
  8
寸法線
 62
     0
440
 16777216
370
    -2
100
AcDbBlockReference
  2
_OPEN
 10
1517.999948207481
 20
1099.999999999998
 30
0.0
 41
20.0
 42
20.0
 43
20.0
 50
180.0
  0
MTEXT
  5
140CF
330
12781
100
AcDbEntity
  8
寸法線
 62
     0
440
 16777216
100
AcDbMText
 10
1509.999948207481
 20
1121.249999999998
 30
0.0
 40
25.0
 41
0.0
 46
0.0
 71
     5
 72
     1
  1
\A1;16
 73
     1
 44
1.0
  0
POINT
  5
140D0
330
12781
100
AcDbEntity
  8
Defpoints
 62
     0
440
 16777216
100
AcDbPoint
 10
1501.999948207481
 20
1029.999995438847
 30
0.0
  0
POINT
  5
140D1
330
12781
100
AcDbEntity
  8
Defpoints
 62
     0
440
 16777216
100
AcDbPoint
 10
1517.999948207481
 20
1029.999995438847
 30
0.0
  0
POINT
  5
140D2
330
12781
100
AcDbEntity
  8
Defpoints
 62
     0
440
 16777216
100
AcDbPoint
 10
1517.999948207481
 20
1099.999999999998
 30
0.0
  0
ENDBLK
  5
12783
330
12781
100
AcDbEntity
  8
0
100
AcDbBlockEnd
  0
BLOCK
  5
12790
330
1278F
100
AcDbEntity
  8
0
100
AcDbBlockBegin
  2
*D27
 70
     1
 10
0.0
 20
0.0
 30
0.0
  3
*D27
  1

  0
LINE
  5
140D3
330
1278F
100
AcDbEntity
  8
寸法線
 62
     0
440
 16777216
370
    -2
100
AcDbLine
 10
1917.999948207481
 20
1038.749995438847
 30
0.0
 11
1917.999948207481
 21
1109.999999999998
 31
0.0
  0
LINE
  5
140D4
330
1278F
100
AcDbEntity
  8
寸法線
 62
     0
440
 16777216
370
    -2
100
AcDbLine
 10
2343.999948207481
 20
1018.749995438847
 30
0.0
 11
2343.999948207481
 21
1109.999999999998
 31
0.0
  0
LINE
  5
140D5
330
1278F
100
AcDbEntity
  8
寸法線
 62
     0
440
 16777216
370
    -2
100
AcDbLine
 10
1937.999948207481
 20
1099.999999999998
 30
0.0
 11
2323.999948207481
 21
1099.999999999998
 31
0.0
  0
INSERT
  5
140D6
330
1278F
100
AcDbEntity
  8
寸法線
 62
     0
440
 16777216
370
    -2
100
AcDbBlockReference
  2
_OPEN
 10
1917.999948207481
 20
1099.999999999998
 30
0.0
 41
20.0
 42
20.0
 43
20.0
 50
180.0
  0
INSERT
  5
140D7
330
1278F
100
AcDbEntity
  8
寸法線
 62
     0
440
 16777216
370
    -2
100
AcDbBlockReference
  2
_OPEN
 10
2343.999948207481
 20
1099.999999999998
 30
0.0
 41
20.0
 42
20.0
 43
20.0
  0
MTEXT
  5
140D8
330
1278F
100
AcDbEntity
  8
寸法線
 62
     0
440
 16777216
100
AcDbMText
 10
2130.999948207481
 20
1121.252460629919
 30
0.0
 40
25.0
 41
0.0
 46
0.0
 71
     5
 72
     1
  1
\A1;426
 73
     1
 44
1.0
  0
POINT
  5
140D9
330
1278F
100
AcDbEntity
  8
Defpoints
 62
     0
440
 16777216
100
AcDbPoint
 10
1917.999948207481
 20
1029.999995438847
 30
0.0
  0
POINT
  5
140DA
330
1278F
100
AcDbEntity
  8
Defpoints
 62
     0
440
 16777216
100
AcDbPoint
 10
2343.999948207481
 20
1009.999995438848
 30
0.0
  0
POINT
  5
140DB
330
1278F
100
AcDbEntity
  8
Defpoints
 62
     0
440
 16777216
100
AcDbPoint
 10
2343.999948207481
 20
1099.999999999998
 30
0.0
  0
ENDBLK
  5
12791
330
1278F
100
AcDbEntity
  8
0
100
AcDbBlockEnd
  0
BLOCK
  5
1279C
330
1279B
100
AcDbEntity
  8
0
100
AcDbBlockBegin
  2
*D28
 70
     1
 10
0.0
 20
0.0
 30
0.0
  3
*D28
  1

  0
LINE
  5
140DC
330
1279B
100
AcDbEntity
  8
寸法線
 62
     0
440
 16777216
370
    -2
100
AcDbLine
 10
1901.999948207481
 20
1038.749995438847
 30
0.0
 11
1901.999948207481
 21
1109.999999999998
 31
0.0
  0
LINE
  5
140DD
330
1279B
100
AcDbEntity
  8
寸法線
 62
     0
440
 16777216
370
    -2
100
AcDbLine
 10
1917.999948207481
 20
1038.749995438847
 30
0.0
 11
1917.999948207481
 21
1109.999999999998
 31
0.0
  0
LINE
  5
140DE
330
1279B
100
AcDbEntity
  8
寸法線
 62
     0
440
 16777216
370
    -2
100
AcDbLine
 10
1881.999948207481
 20
1099.999999999998
 30
0.0
 11
1861.999948207481
 21
1099.999999999998
 31
0.0
  0
LINE
  5
140DF
330
1279B
100
AcDbEntity
  8
寸法線
 62
     0
440
 16777216
370
    -2
100
AcDbLine
 10
1937.999948207481
 20
1099.999999999998
 30
0.0
 11
1957.999948207481
 21
1099.999999999998
 31
0.0
  0
LINE
  5
140E0
330
1279B
100
AcDbEntity
  8
寸法線
 62
     0
440
 16777216
370
    -2
100
AcDbLine
 10
1901.999948207481
 20
1099.999999999998
 30
0.0
 11
1917.999948207481
 21
1099.999999999998
 31
0.0
  0
INSERT
  5
140E1
330
1279B
100
AcDbEntity
  8
寸法線
 62
     0
440
 16777216
370
    -2
100
AcDbBlockReference
  2
_OPEN
 10
1901.999948207481
 20
1099.999999999998
 30
0.0
 41
20.0
 42
20.0
 43
20.0
  0
INSERT
  5
140E2
330
1279B
100
AcDbEntity
  8
寸法線
 62
     0
440
 16777216
370
    -2
100
AcDbBlockReference
  2
_OPEN
 10
1917.999948207481
 20
1099.999999999998
 30
0.0
 41
20.0
 42
20.0
 43
20.0
 50
180.0
  0
MTEXT
  5
140E3
330
1279B
100
AcDbEntity
  8
寸法線
 62
     0
440
 16777216
100
AcDbMText
 10
1909.999948207481
 20
1121.249999999998
 30
0.0
 40
25.0
 41
0.0
 46
0.0
 71
     5
 72
     1
  1
\A1;16
 73
     1
 44
1.0
  0
POINT
  5
140E4
330
1279B
100
AcDbEntity
  8
Defpoints
 62
     0
440
 16777216
100
AcDbPoint
 10
1901.999948207481
 20
1029.999995438847
 30
0.0
  0
POINT
  5
140E5
330
1279B
100
AcDbEntity
  8
Defpoints
 62
     0
440
 16777216
100
AcDbPoint
 10
1917.999948207481
 20
1029.999995438847
 30
0.0
  0
POINT
  5
140E6
330
1279B
100
AcDbEntity
  8
Defpoints
 62
     0
440
 16777216
100
AcDbPoint
 10
1917.999948207481
 20
1099.999999999998
 30
0.0
  0
ENDBLK
  5
1279D
330
1279B
100
AcDbEntity
  8
0
100
AcDbBlockEnd
  0
BLOCK
  5
127CE
330
127CD
100
AcDbEntity
  8
0
100
AcDbBlockBegin
  2
*D29
 70
     1
 10
0.0
 20
0.0
 30
0.0
  3
*D29
  1

  0
LINE
  5
140F1
330
127CD
100
AcDbEntity
  8
寸法線
 62
     0
440
 16777216
370
    -2
100
AcDbLine
 10
1075.999948207481
 20
581.2500091223337
 30
0.0
 11
1075.999948207481
 21
489.9999817553343
 31
0.0
  0
LINE
  5
140F2
330
127CD
100
AcDbEntity
  8
寸法線
 62
     0
440
 16777216
370
    -2
100
AcDbLine
 10
1107.999948207481
 20
591.2500091223336
 30
0.0
 11
1107.999948207481
 21
489.9999817553343
 31
0.0
  0
LINE
  5
140F3
330
127CD
100
AcDbEntity
  8
寸法線
 62
     0
440
 16777216
370
    -2
100
AcDbLine
 10
1055.999948207481
 20
499.9999817553343
 30
0.0
 11
1035.999948207481
 21
499.9999817553343
 31
0.0
  0
LINE
  5
140F4
330
127CD
100
AcDbEntity
  8
寸法線
 62
     0
440
 16777216
370
    -2
100
AcDbLine
 10
1127.999948207481
 20
499.9999817553343
 30
0.0
 11
1147.999948207481
 21
499.9999817553343
 31
0.0
  0
LINE
  5
140F5
330
127CD
100
AcDbEntity
  8
寸法線
 62
     0
440
 16777216
370
    -2
100
AcDbLine
 10
1075.999948207481
 20
499.9999817553343
 30
0.0
 11
1107.999948207481
 21
499.9999817553343
 31
0.0
  0
INSERT
  5
140F6
330
127CD
100
AcDbEntity
  8
寸法線
 62
     0
440
 16777216
370
    -2
100
AcDbBlockReference
  2
_OPEN
 10
1075.999948207481
 20
499.9999817553343
 30
0.0
 41
20.0
 42
20.0
 43
20.0
  0
INSERT
  5
140F7
330
127CD
100
AcDbEntity
  8
寸法線
 62
     0
440
 16777216
370
    -2
100
AcDbBlockReference
  2
_OPEN
 10
1107.999948207481
 20
499.9999817553343
 30
0.0
 41
20.0
 42
20.0
 43
20.0
 50
180.0
  0
MTEXT
  5
140F8
330
127CD
100
AcDbEntity
  8
寸法線
 62
     0
440
 16777216
100
AcDbMText
 10
1091.999948207481
 20
521.2524423852556
 30
0.0
 40
25.0
 41
0.0
 46
0.0
 71
     5
 72
     1
  1
\A1;32
 73
     1
 44
1.0
  0
POINT
  5
140F9
330
127CD
100
AcDbEntity
  8
Defpoints
 62
     0
440
 16777216
100
AcDbPoint
 10
1075.999948207481
 20
590.0000091223337
 30
0.0
  0
POINT
  5
140FA
330
127CD
100
AcDbEntity
  8
Defpoints
 62
     0
440
 16777216
100
AcDbPoint
 10
1107.999948207481
 20
600.0000091223337
 30
0.0
  0
POINT
  5
140FB
330
127CD
100
AcDbEntity
  8
Defpoints
 62
     0
440
 16777216
100
AcDbPoint
 10
1107.999948207481
 20
499.9999817553343
 30
0.0
  0
ENDBLK
  5
127CF
330
127CD
100
AcDbEntity
  8
0
100
AcDbBlockEnd
  0
BLOCK
  5
127DC
330
127DB
100
AcDbEntity
  8
0
100
AcDbBlockBegin
  2
*D30
 70
     1
 10
0.0
 20
0.0
 30
0.0
  3
*D30
  1

  0
LINE
  5
140FC
330
127DB
100
AcDbEntity
  8
寸法線
 62
     0
440
 16777216
370
    -2
100
AcDbLine
 10
1107.999948207481
 20
591.2500091223336
 30
0.0
 11
1107.999948207481
 21
489.9999817553343
 31
0.0
  0
LINE
  5
140FD
330
127DB
100
AcDbEntity
  8
寸法線
 62
     0
440
 16777216
370
    -2
100
AcDbLine
 10
2311.999948207481
 20
591.2499954388477
 30
0.0
 11
2311.999948207481
 21
489.9999817553343
 31
0.0
  0
LINE
  5
140FE
330
127DB
100
AcDbEntity
  8
寸法線
 62
     0
440
 16777216
370
    -2
100
AcDbLine
 10
1127.999948207481
 20
499.9999817553343
 30
0.0
 11
2291.999948207481
 21
499.9999817553343
 31
0.0
  0
INSERT
  5
140FF
330
127DB
100
AcDbEntity
  8
寸法線
 62
     0
440
 16777216
370
    -2
100
AcDbBlockReference
  2
_OPEN
 10
1107.999948207481
 20
499.9999817553343
 30
0.0
 41
20.0
 42
20.0
 43
20.0
 50
180.0
  0
INSERT
  5
14100
330
127DB
100
AcDbEntity
  8
寸法線
 62
     0
440
 16777216
370
    -2
100
AcDbBlockReference
  2
_OPEN
 10
2311.999948207481
 20
499.9999817553343
 30
0.0
 41
20.0
 42
20.0
 43
20.0
  0
MTEXT
  5
14101
330
127DB
100
AcDbEntity
  8
寸法線
 62
     0
440
 16777216
100
AcDbMText
 10
1709.999948207481
 20
521.2524423852556
 30
0.0
 40
25.0
 41
0.0
 46
0.0
 71
     5
 72
     1
  1
\A1;1204
 73
     1
 44
1.0
  0
POINT
  5
14102
330
127DB
100
AcDbEntity
  8
Defpoints
 62
     0
440
 16777216
100
AcDbPoint
 10
1107.999948207481
 20
600.0000091223337
 30
0.0
  0
POINT
  5
14103
330
127DB
100
AcDbEntity
  8
Defpoints
 62
     0
440
 16777216
100
AcDbPoint
 10
2311.999948207481
 20
599.9999954388477
 30
0.0
  0
POINT
  5
14104
330
127DB
100
AcDbEntity
  8
Defpoints
 62
     0
440
 16777216
100
AcDbPoint
 10
2311.999948207481
 20
499.9999817553343
 30
0.0
  0
ENDBLK
  5
127DD
330
127DB
100
AcDbEntity
  8
0
100
AcDbBlockEnd
  0
BLOCK
  5
127E8
330
127E7
100
AcDbEntity
  8
0
100
AcDbBlockBegin
  2
*D31
 70
     1
 10
0.0
 20
0.0
 30
0.0
  3
*D31
  1

  0
LINE
  5
14105
330
127E7
100
AcDbEntity
  8
寸法線
 62
     0
440
 16777216
370
    -2
100
AcDbLine
 10
1059.999948207481
 20
581.2500091223337
 30
0.0
 11
1059.999948207481
 21
429.9999817553343
 31
0.0
  0
LINE
  5
14106
330
127E7
100
AcDbEntity
  8
寸法線
 62
     0
440
 16777216
370
    -2
100
AcDbLine
 10
1075.999948207481
 20
581.2500091223337
 30
0.0
 11
1075.999948207481
 21
429.9999817553343
 31
0.0
  0
LINE
  5
14107
330
127E7
100
AcDbEntity
  8
寸法線
 62
     0
440
 16777216
370
    -2
100
AcDbLine
 10
1039.999948207481
 20
439.9999817553343
 30
0.0
 11
1019.999948207481
 21
439.9999817553343
 31
0.0
  0
LINE
  5
14108
330
127E7
100
AcDbEntity
  8
寸法線
 62
     0
440
 16777216
370
    -2
100
AcDbLine
 10
1095.999948207481
 20
439.9999817553343
 30
0.0
 11
1115.999948207481
 21
439.9999817553343
 31
0.0
  0
LINE
  5
14109
330
127E7
100
AcDbEntity
  8
寸法線
 62
     0
440
 16777216
370
    -2
100
AcDbLine
 10
1059.999948207481
 20
439.9999817553343
 30
0.0
 11
1075.999948207481
 21
439.9999817553343
 31
0.0
  0
INSERT
  5
1410A
330
127E7
100
AcDbEntity
  8
寸法線
 62
     0
440
 16777216
370
    -2
100
AcDbBlockReference
  2
_OPEN
 10
1059.999948207481
 20
439.9999817553343
 30
0.0
 41
20.0
 42
20.0
 43
20.0
  0
INSERT
  5
1410B
330
127E7
100
AcDbEntity
  8
寸法線
 62
     0
440
 16777216
370
    -2
100
AcDbBlockReference
  2
_OPEN
 10
1075.999948207481
 20
439.9999817553343
 30
0.0
 41
20.0
 42
20.0
 43
20.0
 50
180.0
  0
MTEXT
  5
1410C
330
127E7
100
AcDbEntity
  8
寸法線
 62
     0
440
 16777216
100
AcDbMText
 10
1067.999948207481
 20
461.2499817553343
 30
0.0
 40
25.0
 41
0.0
 46
0.0
 71
     5
 72
     1
  1
\A1;16
 73
     1
 44
1.0
  0
POINT
  5
1410D
330
127E7
100
AcDbEntity
  8
Defpoints
 62
     0
440
 16777216
100
AcDbPoint
 10
1059.999948207481
 20
590.0000091223337
 30
0.0
  0
POINT
  5
1410E
330
127E7
100
AcDbEntity
  8
Defpoints
 62
     0
440
 16777216
100
AcDbPoint
 10
1075.999948207481
 20
590.0000091223337
 30
0.0
  0
POINT
  5
1410F
330
127E7
100
AcDbEntity
  8
Defpoints
 62
     0
440
 16777216
100
AcDbPoint
 10
1075.999948207481
 20
439.9999817553343
 30
0.0
  0
ENDBLK
  5
127E9
330
127E7
100
AcDbEntity
  8
0
100
AcDbBlockEnd
  0
BLOCK
  5
127F6
330
127F5
100
AcDbEntity
  8
0
100
AcDbBlockBegin
  2
*D32
 70
     1
 10
0.0
 20
0.0
 30
0.0
  3
*D32
  1

  0
LINE
  5
14110
330
127F5
100
AcDbEntity
  8
寸法線
 62
     0
440
 16777216
370
    -2
100
AcDbLine
 10
1075.999948207481
 20
581.2500091223337
 30
0.0
 11
1075.999948207481
 21
429.9999817553343
 31
0.0
  0
LINE
  5
14111
330
127F5
100
AcDbEntity
  8
寸法線
 62
     0
440
 16777216
370
    -2
100
AcDbLine
 10
2343.999948207481
 20
581.2500136834569
 30
0.0
 11
2343.999948207481
 21
429.9999817553343
 31
0.0
  0
LINE
  5
14112
330
127F5
100
AcDbEntity
  8
寸法線
 62
     0
440
 16777216
370
    -2
100
AcDbLine
 10
1095.999948207481
 20
439.9999817553343
 30
0.0
 11
2323.999948207481
 21
439.9999817553343
 31
0.0
  0
INSERT
  5
14113
330
127F5
100
AcDbEntity
  8
寸法線
 62
     0
440
 16777216
370
    -2
100
AcDbBlockReference
  2
_OPEN
 10
1075.999948207481
 20
439.9999817553343
 30
0.0
 41
20.0
 42
20.0
 43
20.0
 50
180.0
  0
INSERT
  5
14114
330
127F5
100
AcDbEntity
  8
寸法線
 62
     0
440
 16777216
370
    -2
100
AcDbBlockReference
  2
_OPEN
 10
2343.999948207481
 20
439.9999817553343
 30
0.0
 41
20.0
 42
20.0
 43
20.0
  0
MTEXT
  5
14115
330
127F5
100
AcDbEntity
  8
寸法線
 62
     0
440
 16777216
100
AcDbMText
 10
1709.999948207481
 20
461.2524423852556
 30
0.0
 40
25.0
 41
0.0
 46
0.0
 71
     5
 72
     1
  1
\A1;1268
 73
     1
 44
1.0
  0
POINT
  5
14116
330
127F5
100
AcDbEntity
  8
Defpoints
 62
     0
440
 16777216
100
AcDbPoint
 10
1075.999948207481
 20
590.0000091223337
 30
0.0
  0
POINT
  5
14117
330
127F5
100
AcDbEntity
  8
Defpoints
 62
     0
440
 16777216
100
AcDbPoint
 10
2343.999948207481
 20
590.0000136834569
 30
0.0
  0
POINT
  5
14118
330
127F5
100
AcDbEntity
  8
Defpoints
 62
     0
440
 16777216
100
AcDbPoint
 10
2343.999948207481
 20
439.9999817553343
 30
0.0
  0
ENDBLK
  5
127F7
330
127F5
100
AcDbEntity
  8
0
100
AcDbBlockEnd
  0
BLOCK
  5
12802
330
12801
100
AcDbEntity
  8
0
100
AcDbBlockBegin
  2
*D33
 70
     1
 10
0.0
 20
0.0
 30
0.0
  3
*D33
  1

  0
LINE
  5
14119
330
12801
100
AcDbEntity
  8
寸法線
 62
     0
440
 16777216
370
    -2
100
AcDbLine
 10
1059.999948207481
 20
581.2500273669429
 30
0.0
 11
1059.999948207481
 21
369.9999817553344
 31
0.0
  0
LINE
  5
1411A
330
12801
100
AcDbEntity
  8
寸法線
 62
     0
440
 16777216
370
    -2
100
AcDbLine
 10
2359.999948207481
 20
581.2500136834569
 30
0.0
 11
2359.999948207481
 21
369.9999817553344
 31
0.0
  0
LINE
  5
1411B
330
12801
100
AcDbEntity
  8
寸法線
 62
     0
440
 16777216
370
    -2
100
AcDbLine
 10
1079.999948207481
 20
379.9999817553344
 30
0.0
 11
2339.999948207481
 21
379.9999817553344
 31
0.0
  0
INSERT
  5
1411C
330
12801
100
AcDbEntity
  8
寸法線
 62
     0
440
 16777216
370
    -2
100
AcDbBlockReference
  2
_OPEN
 10
1059.999948207481
 20
379.9999817553344
 30
0.0
 41
20.0
 42
20.0
 43
20.0
 50
180.0
  0
INSERT
  5
1411D
330
12801
100
AcDbEntity
  8
寸法線
 62
     0
440
 16777216
370
    -2
100
AcDbBlockReference
  2
_OPEN
 10
2359.999948207481
 20
379.9999817553344
 30
0.0
 41
20.0
 42
20.0
 43
20.0
  0
MTEXT
  5
1411E
330
12801
100
AcDbEntity
  8
寸法線
 62
     0
440
 16777216
100
AcDbMText
 10
1709.999948207481
 20
401.2499817553344
 30
0.0
 40
25.0
 41
0.0
 46
0.0
 71
     5
 72
     1
  1
\A1;1300
 73
     1
 44
1.0
  0
POINT
  5
1411F
330
12801
100
AcDbEntity
  8
Defpoints
 62
     0
440
 16777216
100
AcDbPoint
 10
1059.999948207481
 20
590.0000273669429
 30
0.0
  0
POINT
  5
14120
330
12801
100
AcDbEntity
  8
Defpoints
 62
     0
440
 16777216
100
AcDbPoint
 10
2359.999948207481
 20
590.0000136834569
 30
0.0
  0
POINT
  5
14121
330
12801
100
AcDbEntity
  8
Defpoints
 62
     0
440
 16777216
100
AcDbPoint
 10
2359.999948207481
 20
379.9999817553344
 30
0.0
  0
ENDBLK
  5
12803
330
12801
100
AcDbEntity
  8
0
100
AcDbBlockEnd
  0
BLOCK
  5
1280E
330
1280D
100
AcDbEntity
  8
0
100
AcDbBlockBegin
  2
*D34
 70
     1
 10
0.0
 20
0.0
 30
0.0
  3
*D34
  1

  0
LINE
  5
14122
330
1280D
100
AcDbEntity
  8
寸法線
 62
     0
440
 16777216
370
    -2
100
AcDbLine
 10
1075.999948207481
 20
1018.749995438847
 30
0.0
 11
1075.999948207481
 21
1109.999999999998
 31
0.0
  0
LINE
  5
14123
330
1280D
100
AcDbEntity
  8
寸法線
 62
     0
440
 16777216
370
    -2
100
AcDbLine
 10
1501.999948207481
 20
1038.749995438847
 30
0.0
 11
1501.999948207481
 21
1109.999999999998
 31
0.0
  0
LINE
  5
14124
330
1280D
100
AcDbEntity
  8
寸法線
 62
     0
440
 16777216
370
    -2
100
AcDbLine
 10
1095.999948207481
 20
1099.999999999998
 30
0.0
 11
1481.999948207481
 21
1099.999999999998
 31
0.0
  0
INSERT
  5
14125
330
1280D
100
AcDbEntity
  8
寸法線
 62
     0
440
 16777216
370
    -2
100
AcDbBlockReference
  2
_OPEN
 10
1075.999948207481
 20
1099.999999999998
 30
0.0
 41
20.0
 42
20.0
 43
20.0
 50
180.0
  0
INSERT
  5
14126
330
1280D
100
AcDbEntity
  8
寸法線
 62
     0
440
 16777216
370
    -2
100
AcDbBlockReference
  2
_OPEN
 10
1501.999948207481
 20
1099.999999999998
 30
0.0
 41
20.0
 42
20.0
 43
20.0
  0
MTEXT
  5
14127
330
1280D
100
AcDbEntity
  8
寸法線
 62
     0
440
 16777216
100
AcDbMText
 10
1288.999948207481
 20
1121.252460629919
 30
0.0
 40
25.0
 41
0.0
 46
0.0
 71
     5
 72
     1
  1
\A1;426
 73
     1
 44
1.0
  0
POINT
  5
14128
330
1280D
100
AcDbEntity
  8
Defpoints
 62
     0
440
 16777216
100
AcDbPoint
 10
1075.999948207481
 20
1009.999995438848
 30
0.0
  0
POINT
  5
14129
330
1280D
100
AcDbEntity
  8
Defpoints
 62
     0
440
 16777216
100
AcDbPoint
 10
1501.999948207481
 20
1029.999995438847
 30
0.0
  0
POINT
  5
1412A
330
1280D
100
AcDbEntity
  8
Defpoints
 62
     0
440
 16777216
100
AcDbPoint
 10
1501.999948207481
 20
1099.999999999998
 30
0.0
  0
ENDBLK
  5
1280F
330
1280D
100
AcDbEntity
  8
0
100
AcDbBlockEnd
  0
BLOCK
  5
13ADD
330
13ADC
100
AcDbEntity
  8
0
100
AcDbBlockBegin
  2
*D35
 70
     1
 10
0.0
 20
0.0
 30
0.0
  3
*D35
  1

  0
LINE
  5
14169
330
13ADC
100
AcDbEntity
  8
寸法線
 62
     0
440
 16777216
370
    -2
100
AcDbLine
 10
3566.868517831082
 20
877.5779096790111
 30
0.0
 11
3566.243518770708
 21
878.6604419772929
 31
0.0
  0
LINE
  5
1416A
330
13ADC
100
AcDbEntity
  8
寸法線
 62
     0
440
 16777216
370
    -2
100
AcDbLine
 10
3333.131270030812
 20
722.4226680963428
 30
0.0
 11
3333.756269092143
 21
721.3401357964023
 31
0.0
  0
LINE
  5
1416B
330
13ADC
100
AcDbEntity
  8
寸法線
 62
     0
440
 16777216
370
    -2
100
AcDbLine
 10
3553.922994490227
 20
860.0001986387377
 30
0.0
 11
3346.076793372624
 21
740.0003791349575
 31
0.0
  0
INSERT
  5
1416C
330
13ADC
100
AcDbEntity
  8
寸法線
 62
     0
440
 16777216
370
    -2
100
AcDbBlockReference
  2
_OPEN
 10
3571.243511250035
 20
870.0001835973898
 30
0.0
 41
20.0
 42
20.0
 43
20.0
 50
29.99995024363343
  0
INSERT
  5
1416D
330
13ADC
100
AcDbEntity
  8
寸法線
 62
     0
440
 16777216
370
    -2
100
AcDbBlockReference
  2
_OPEN
 10
3328.756276612818
 20
730.0003941763056
 30
0.0
 41
20.0
 42
20.0
 43
20.0
 50
209.9999502436335
  0
MTEXT
  5
1416E
330
13ADC
100
AcDbEntity
  8
寸法線
 62
     0
440
 16777216
100
AcDbMText
 10
3502.999561590256
 20
855.1398153365745
 30
0.0
 40
25.0
 41
0.0
 46
0.0
 71
     5
 72
     1
  1
\A1;φ280
 11
0.866025837990322
 21
0.4999992479325949
 31
0.0
 73
     1
 44
1.0
  0
POINT
  5
1416F
330
13ADC
100
AcDbEntity
  8
Defpoints
 62
     0
440
 16777216
100
AcDbPoint
 10
3571.243511250493
 20
870.0001835965958
 30
0.0
  0
POINT
  5
14170
330
13ADC
100
AcDbEntity
  8
Defpoints
 62
     0
440
 16777216
100
AcDbPoint
 10
3328.756276611402
 20
730.0003941787581
 30
0.0
  0
POINT
  5
14171
330
13ADC
100
AcDbEntity
  8
Defpoints
 62
     0
440
 16777216
100
AcDbPoint
 10
3328.756276612818
 20
730.0003941763056
 30
0.0
  0
ENDBLK
  5
13ADE
330
13ADC
100
AcDbEntity
  8
0
100
AcDbBlockEnd
  0
BLOCK
  5
13AE9
330
13AE8
100
AcDbEntity
  8
0
100
AcDbBlockBegin
  2
*D36
 70
     1
 10
0.0
 20
0.0
 30
0.0
  3
*D36
  1

  0
LINE
  5
14172
330
13AE8
100
AcDbEntity
  8
寸法線
 62
     0
440
 16777216
370
    -2
100
AcDbLine
 10
3219.999731100705
 20
561.2501948777935
 30
0.0
 11
3219.999731100705
 21
489.9999863165162
 31
0.0
  0
LINE
  5
14173
330
13AE8
100
AcDbEntity
  8
寸法線
 62
     0
440
 16777216
370
    -2
100
AcDbLine
 10
3679.999948207481
 20
561.2500228057906
 30
0.0
 11
3679.999948207481
 21
489.9999863165162
 31
0.0
  0
LINE
  5
14174
330
13AE8
100
AcDbEntity
  8
寸法線
 62
     0
440
 16777216
370
    -2
100
AcDbLine
 10
3239.999731100706
 20
499.9999863165162
 30
0.0
 11
3659.999948207481
 21
499.9999863165162
 31
0.0
  0
INSERT
  5
14175
330
13AE8
100
AcDbEntity
  8
寸法線
 62
     0
440
 16777216
370
    -2
100
AcDbBlockReference
  2
_OPEN
 10
3219.999731100705
 20
499.9999863165162
 30
0.0
 41
20.0
 42
20.0
 43
20.0
 50
180.0
  0
INSERT
  5
14176
330
13AE8
100
AcDbEntity
  8
寸法線
 62
     0
440
 16777216
370
    -2
100
AcDbBlockReference
  2
_OPEN
 10
3679.999948207481
 20
499.9999863165162
 30
0.0
 41
20.0
 42
20.0
 43
20.0
  0
MTEXT
  5
14177
330
13AE8
100
AcDbEntity
  8
寸法線
 62
     0
440
 16777216
100
AcDbMText
 10
3449.999839654093
 20
521.2499863165162
 30
0.0
 40
25.0
 41
0.0
 46
0.0
 71
     5
 72
     1
  1
\A1;460
 73
     1
 44
1.0
  0
POINT
  5
14178
330
13AE8
100
AcDbEntity
  8
Defpoints
 62
     0
440
 16777216
100
AcDbPoint
 10
3219.999731100705
 20
570.0001948777935
 30
0.0
  0
POINT
  5
14179
330
13AE8
100
AcDbEntity
  8
Defpoints
 62
     0
440
 16777216
100
AcDbPoint
 10
3679.999948207481
 20
570.0000228057906
 30
0.0
  0
POINT
  5
1417A
330
13AE8
100
AcDbEntity
  8
Defpoints
 62
     0
440
 16777216
100
AcDbPoint
 10
3679.999948207481
 20
499.9999863165162
 30
0.0
  0
ENDBLK
  5
13AEA
330
13AE8
100
AcDbEntity
  8
0
100
AcDbBlockEnd
  0
BLOCK
  5
13AF5
330
13AF4
100
AcDbEntity
  8
0
100
AcDbBlockBegin
  2
*D37
 70
     1
 10
0.0
 20
0.0
 30
0.0
  3
*D37
  1

  0
LINE
  5
1417B
330
13AF4
100
AcDbEntity
  8
寸法線
 62
     0
440
 16777216
370
    -2
100
AcDbLine
 10
3688.749948207483
 20
570.0000228057908
 30
0.0
 11
3759.999948207708
 21
570.0000228057908
 31
0.0
  0
LINE
  5
1417C
330
13AF4
100
AcDbEntity
  8
寸法線
 62
     0
440
 16777216
370
    -2
100
AcDbLine
 10
3688.749948207483
 20
1030.000022805791
 30
0.0
 11
3759.999948207708
 21
1030.000022805791
 31
0.0
  0
LINE
  5
1417D
330
13AF4
100
AcDbEntity
  8
寸法線
 62
     0
440
 16777216
370
    -2
100
AcDbLine
 10
3749.999948207709
 20
590.0000228057908
 30
0.0
 11
3749.999948207709
 21
1010.000022805791
 31
0.0
  0
INSERT
  5
1417E
330
13AF4
100
AcDbEntity
  8
寸法線
 62
     0
440
 16777216
370
    -2
100
AcDbBlockReference
  2
_OPEN
 10
3749.999948207709
 20
570.0000228057908
 30
0.0
 41
20.0
 42
20.0
 43
20.0
 50
270.0
  0
INSERT
  5
1417F
330
13AF4
100
AcDbEntity
  8
寸法線
 62
     0
440
 16777216
370
    -2
100
AcDbBlockReference
  2
_OPEN
 10
3749.999948207708
 20
1030.000022805791
 30
0.0
 41
20.0
 42
20.0
 43
20.0
 50
90.0
  0
MTEXT
  5
14180
330
13AF4
100
AcDbEntity
  8
寸法線
 62
     0
440
 16777216
100
AcDbMText
 10
3728.749948207707
 20
800.0000228057897
 30
0.0
 40
25.0
 41
0.0
 46
0.0
 71
     5
 72
     1
  1
\A1;460
 11
0.0000000000000001
 21
1.0
 31
0.0
 73
     1
 44
1.0
  0
POINT
  5
14181
330
13AF4
100
AcDbEntity
  8
Defpoints
 62
     0
440
 16777216
100
AcDbPoint
 10
3679.999948207483
 20
570.0000228057908
 30
0.0
  0
POINT
  5
14182
330
13AF4
100
AcDbEntity
  8
Defpoints
 62
     0
440
 16777216
100
AcDbPoint
 10
3679.999948207483
 20
1030.000022805791
 30
0.0
  0
POINT
  5
14183
330
13AF4
100
AcDbEntity
  8
Defpoints
 62
     0
440
 16777216
100
AcDbPoint
 10
3749.999948207708
 20
1030.000022805791
 30
0.0
  0
ENDBLK
  5
13AF6
330
13AF4
100
AcDbEntity
  8
0
100
AcDbBlockEnd
  0
BLOCK
  5
13B01
330
13B00
100
AcDbEntity
  8
0
100
AcDbBlockBegin
  2
*D38
 70
     1
 10
0.0
 20
0.0
 30
0.0
  3
*D38
  1

  0
LINE
  5
1412B
330
13B00
100
AcDbEntity
  8
寸法線
 62
     0
440
 16777216
370
    -2
100
AcDbLine
 10
2590.000171991898
 20
566.2502572337107
 30
0.0
 11
2590.000171991898
 21
489.9999863165162
 31
0.0
  0
LINE
  5
1412C
330
13B00
100
AcDbEntity
  8
寸法線
 62
     0
440
 16777216
370
    -2
100
AcDbLine
 10
2930.000171991898
 20
566.2502572337107
 30
0.0
 11
2930.000171991898
 21
489.9999863165162
 31
0.0
  0
LINE
  5
1412D
330
13B00
100
AcDbEntity
  8
寸法線
 62
     0
440
 16777216
370
    -2
100
AcDbLine
 10
2610.000171991897
 20
499.9999863165162
 30
0.0
 11
2910.000171991898
 21
499.9999863165162
 31
0.0
  0
INSERT
  5
1412E
330
13B00
100
AcDbEntity
  8
寸法線
 62
     0
440
 16777216
370
    -2
100
AcDbBlockReference
  2
_OPEN
 10
2590.000171991898
 20
499.9999863165162
 30
0.0
 41
20.0
 42
20.0
 43
20.0
 50
180.0
  0
INSERT
  5
1412F
330
13B00
100
AcDbEntity
  8
寸法線
 62
     0
440
 16777216
370
    -2
100
AcDbBlockReference
  2
_OPEN
 10
2930.000171991898
 20
499.9999863165162
 30
0.0
 41
20.0
 42
20.0
 43
20.0
  0
MTEXT
  5
14130
330
13B00
100
AcDbEntity
  8
寸法線
 62
     0
440
 16777216
100
AcDbMText
 10
2760.000172913325
 20
521.2499863165162
 30
0.0
 40
25.0
 41
0.0
 46
0.0
 71
     5
 72
     1
  1
\A1;340
 73
     1
 44
1.0
  0
POINT
  5
14131
330
13B00
100
AcDbEntity
  8
Defpoints
 62
     0
440
 16777216
100
AcDbPoint
 10
2590.000171991898
 20
575.0002572337107
 30
0.0
  0
POINT
  5
14132
330
13B00
100
AcDbEntity
  8
Defpoints
 62
     0
440
 16777216
100
AcDbPoint
 10
2930.000171991898
 20
575.0002572337107
 30
0.0
  0
POINT
  5
14133
330
13B00
100
AcDbEntity
  8
Defpoints
 62
     0
440
 16777216
100
AcDbPoint
 10
2930.000171991898
 20
499.9999863165162
 30
0.0
  0
ENDBLK
  5
13B02
330
13B00
100
AcDbEntity
  8
0
100
AcDbBlockEnd
  0
BLOCK
  5
13B0D
330
13B0C
100
AcDbEntity
  8
0
100
AcDbBlockBegin
  2
*D39
 70
     1
 10
0.0
 20
0.0
 30
0.0
  3
*D39
  1

  0
LINE
  5
14134
330
13B0C
100
AcDbEntity
  8
寸法線
 62
     0
440
 16777216
370
    -2
100
AcDbLine
 10
2549.999948207481
 20
581.2504916616599
 30
0.0
 11
2549.999948207481
 21
489.9999863165162
 31
0.0
  0
LINE
  5
14135
330
13B0C
100
AcDbEntity
  8
寸法線
 62
     0
440
 16777216
370
    -2
100
AcDbLine
 10
2590.000171991898
 20
566.2502572337107
 30
0.0
 11
2590.000171991898
 21
489.9999863165162
 31
0.0
  0
LINE
  5
14136
330
13B0C
100
AcDbEntity
  8
寸法線
 62
     0
440
 16777216
370
    -2
100
AcDbLine
 10
2529.999948207481
 20
499.9999863165162
 30
0.0
 11
2509.999948207481
 21
499.9999863165162
 31
0.0
  0
LINE
  5
14137
330
13B0C
100
AcDbEntity
  8
寸法線
 62
     0
440
 16777216
370
    -2
100
AcDbLine
 10
2610.000171991897
 20
499.9999863165162
 30
0.0
 11
2630.000171991897
 21
499.9999863165162
 31
0.0
  0
LINE
  5
14138
330
13B0C
100
AcDbEntity
  8
寸法線
 62
     0
440
 16777216
370
    -2
100
AcDbLine
 10
2549.999948207481
 20
499.9999863165162
 30
0.0
 11
2590.000171991898
 21
499.9999863165162
 31
0.0
  0
INSERT
  5
14139
330
13B0C
100
AcDbEntity
  8
寸法線
 62
     0
440
 16777216
370
    -2
100
AcDbBlockReference
  2
_OPEN
 10
2549.999948207481
 20
499.9999863165162
 30
0.0
 41
20.0
 42
20.0
 43
20.0
  0
INSERT
  5
1413A
330
13B0C
100
AcDbEntity
  8
寸法線
 62
     0
440
 16777216
370
    -2
100
AcDbBlockReference
  2
_OPEN
 10
2590.000171991898
 20
499.9999863165162
 30
0.0
 41
20.0
 42
20.0
 43
20.0
 50
180.0
  0
MTEXT
  5
1413B
330
13B0C
100
AcDbEntity
  8
寸法線
 62
     0
440
 16777216
100
AcDbMText
 10
2570.000060099689
 20
521.2499863165162
 30
0.0
 40
25.0
 41
0.0
 46
0.0
 71
     5
 72
     1
  1
\A1;40
 73
     1
 44
1.0
  0
POINT
  5
1413C
330
13B0C
100
AcDbEntity
  8
Defpoints
 62
     0
440
 16777216
100
AcDbPoint
 10
2549.999948207481
 20
590.0004916616599
 30
0.0
  0
POINT
  5
1413D
330
13B0C
100
AcDbEntity
  8
Defpoints
 62
     0
440
 16777216
100
AcDbPoint
 10
2590.000171991898
 20
575.0002572337107
 30
0.0
  0
POINT
  5
1413E
330
13B0C
100
AcDbEntity
  8
Defpoints
 62
     0
440
 16777216
100
AcDbPoint
 10
2590.000171991898
 20
499.9999863165162
 30
0.0
  0
ENDBLK
  5
13B0E
330
13B0C
100
AcDbEntity
  8
0
100
AcDbBlockEnd
  0
BLOCK
  5
13B1B
330
13B1A
100
AcDbEntity
  8
0
100
AcDbBlockBegin
  2
*D40
 70
     1
 10
0.0
 20
0.0
 30
0.0
  3
*D40
  1

  0
LINE
  5
1413F
330
13B1A
100
AcDbEntity
  8
寸法線
 62
     0
440
 16777216
370
    -2
100
AcDbLine
 10
2993.750171991898
 20
970.0002572337112
 30
0.0
 11
3069.999948207482
 21
970.0002572337112
 31
0.0
  0
LINE
  5
14140
330
13B1A
100
AcDbEntity
  8
寸法線
 62
     0
440
 16777216
370
    -2
100
AcDbLine
 10
2978.749948207482
 20
1010.000022805791
 30
0.0
 11
3069.999948207482
 21
1010.000022805791
 31
0.0
  0
LINE
  5
14141
330
13B1A
100
AcDbEntity
  8
寸法線
 62
     0
440
 16777216
370
    -2
100
AcDbLine
 10
3059.999948207482
 20
950.0002572337111
 30
0.0
 11
3059.999948207482
 21
930.0002572337112
 31
0.0
  0
LINE
  5
14142
330
13B1A
100
AcDbEntity
  8
寸法線
 62
     0
440
 16777216
370
    -2
100
AcDbLine
 10
3059.999948207482
 20
1030.000022805791
 30
0.0
 11
3059.999948207482
 21
1050.000022805791
 31
0.0
  0
LINE
  5
14143
330
13B1A
100
AcDbEntity
  8
寸法線
 62
     0
440
 16777216
370
    -2
100
AcDbLine
 10
3059.999948207482
 20
970.0002572337112
 30
0.0
 11
3059.999948207482
 21
1010.000022805791
 31
0.0
  0
INSERT
  5
14144
330
13B1A
100
AcDbEntity
  8
寸法線
 62
     0
440
 16777216
370
    -2
100
AcDbBlockReference
  2
_OPEN
 10
3059.999948207482
 20
970.0002572337112
 30
0.0
 41
20.0
 42
20.0
 43
20.0
 50
90.0
  0
INSERT
  5
14145
330
13B1A
100
AcDbEntity
  8
寸法線
 62
     0
440
 16777216
370
    -2
100
AcDbBlockReference
  2
_OPEN
 10
3059.999948207482
 20
1010.000022805791
 30
0.0
 41
20.0
 42
20.0
 43
20.0
 50
270.0
  0
MTEXT
  5
14146
330
13B1A
100
AcDbEntity
  8
寸法線
 62
     0
440
 16777216
100
AcDbMText
 10
3038.749948207482
 20
990.0001400197499
 30
0.0
 40
25.0
 41
0.0
 46
0.0
 71
     5
 72
     1
  1
\A1;40
 11
0.0000000000000001
 21
1.0
 31
0.0
 73
     1
 44
1.0
  0
POINT
  5
14147
330
13B1A
100
AcDbEntity
  8
Defpoints
 62
     0
440
 16777216
100
AcDbPoint
 10
2985.000171991898
 20
970.0002572337112
 30
0.0
  0
POINT
  5
14148
330
13B1A
100
AcDbEntity
  8
Defpoints
 62
     0
440
 16777216
100
AcDbPoint
 10
2969.999948207482
 20
1010.000022805791
 30
0.0
  0
POINT
  5
14149
330
13B1A
100
AcDbEntity
  8
Defpoints
 62
     0
440
 16777216
100
AcDbPoint
 10
3059.999948207482
 20
1010.000022805791
 30
0.0
  0
ENDBLK
  5
13B1C
330
13B1A
100
AcDbEntity
  8
0
100
AcDbBlockEnd
  0
BLOCK
  5
13B29
330
13B28
100
AcDbEntity
  8
0
100
AcDbBlockBegin
  2
*D41
 70
     1
 10
0.0
 20
0.0
 30
0.0
  3
*D41
  1

  0
LINE
  5
1414A
330
13B28
100
AcDbEntity
  8
寸法線
 62
     0
440
 16777216
370
    -2
100
AcDbLine
 10
2993.750171991898
 20
630.0002572337109
 30
0.0
 11
3069.999948207482
 21
630.0002572337109
 31
0.0
  0
LINE
  5
1414B
330
13B28
100
AcDbEntity
  8
寸法線
 62
     0
440
 16777216
370
    -2
100
AcDbLine
 10
2993.750171991898
 20
970.0002572337112
 30
0.0
 11
3069.999948207482
 21
970.0002572337112
 31
0.0
  0
LINE
  5
1414C
330
13B28
100
AcDbEntity
  8
寸法線
 62
     0
440
 16777216
370
    -2
100
AcDbLine
 10
3059.999948207482
 20
650.0002572337109
 30
0.0
 11
3059.999948207482
 21
950.0002572337111
 31
0.0
  0
INSERT
  5
1414D
330
13B28
100
AcDbEntity
  8
寸法線
 62
     0
440
 16777216
370
    -2
100
AcDbBlockReference
  2
_OPEN
 10
3059.999948207482
 20
630.0002572337109
 30
0.0
 41
20.0
 42
20.0
 43
20.0
 50
270.0
  0
INSERT
  5
1414E
330
13B28
100
AcDbEntity
  8
寸法線
 62
     0
440
 16777216
370
    -2
100
AcDbBlockReference
  2
_OPEN
 10
3059.999948207482
 20
970.0002572337112
 30
0.0
 41
20.0
 42
20.0
 43
20.0
 50
90.0
  0
MTEXT
  5
1414F
330
13B28
100
AcDbEntity
  8
寸法線
 62
     0
440
 16777216
100
AcDbMText
 10
3038.749948207481
 20
800.0002572337107
 30
0.0
 40
25.0
 41
0.0
 46
0.0
 71
     5
 72
     1
  1
\A1;340
 11
0.0000000000000001
 21
1.0
 31
0.0
 73
     1
 44
1.0
  0
POINT
  5
14150
330
13B28
100
AcDbEntity
  8
Defpoints
 62
     0
440
 16777216
100
AcDbPoint
 10
2985.000171991898
 20
630.0002572337109
 30
0.0
  0
POINT
  5
14151
330
13B28
100
AcDbEntity
  8
Defpoints
 62
     0
440
 16777216
100
AcDbPoint
 10
2985.000171991898
 20
970.0002572337112
 30
0.0
  0
POINT
  5
14152
330
13B28
100
AcDbEntity
  8
Defpoints
 62
     0
440
 16777216
100
AcDbPoint
 10
3059.999948207482
 20
970.0002572337112
 30
0.0
  0
ENDBLK
  5
13B2A
330
13B28
100
AcDbEntity
  8
0
100
AcDbBlockEnd
  0
BLOCK
  5
13B35
330
13B34
100
AcDbEntity
  8
0
100
AcDbBlockBegin
  2
*D42
 70
     1
 10
0.0
 20
0.0
 30
0.0
  3
*D42
  1

  0
LINE
  5
14153
330
13B34
100
AcDbEntity
  8
寸法線
 62
     0
440
 16777216
370
    -2
100
AcDbLine
 10
2978.749948207482
 20
590.0004916616601
 30
0.0
 11
3069.999948207482
 21
590.0004916616601
 31
0.0
  0
LINE
  5
14154
330
13B34
100
AcDbEntity
  8
寸法線
 62
     0
440
 16777216
370
    -2
100
AcDbLine
 10
2993.750171991898
 20
630.0002572337109
 30
0.0
 11
3069.999948207482
 21
630.0002572337109
 31
0.0
  0
LINE
  5
14155
330
13B34
100
AcDbEntity
  8
寸法線
 62
     0
440
 16777216
370
    -2
100
AcDbLine
 10
3059.999948207482
 20
570.0004916616601
 30
0.0
 11
3059.999948207482
 21
550.0004916616601
 31
0.0
  0
LINE
  5
14156
330
13B34
100
AcDbEntity
  8
寸法線
 62
     0
440
 16777216
370
    -2
100
AcDbLine
 10
3059.999948207482
 20
650.0002572337109
 30
0.0
 11
3059.999948207482
 21
670.0002572337109
 31
0.0
  0
LINE
  5
14157
330
13B34
100
AcDbEntity
  8
寸法線
 62
     0
440
 16777216
370
    -2
100
AcDbLine
 10
3059.999948207482
 20
590.0004916616601
 30
0.0
 11
3059.999948207482
 21
630.0002572337109
 31
0.0
  0
INSERT
  5
14158
330
13B34
100
AcDbEntity
  8
寸法線
 62
     0
440
 16777216
370
    -2
100
AcDbBlockReference
  2
_OPEN
 10
3059.999948207482
 20
590.0004916616601
 30
0.0
 41
20.0
 42
20.0
 43
20.0
 50
90.0
  0
INSERT
  5
14159
330
13B34
100
AcDbEntity
  8
寸法線
 62
     0
440
 16777216
370
    -2
100
AcDbBlockReference
  2
_OPEN
 10
3059.999948207482
 20
630.0002572337109
 30
0.0
 41
20.0
 42
20.0
 43
20.0
 50
270.0
  0
MTEXT
  5
1415A
330
13B34
100
AcDbEntity
  8
寸法線
 62
     0
440
 16777216
100
AcDbMText
 10
3038.749948207481
 20
610.0003744476845
 30
0.0
 40
25.0
 41
0.0
 46
0.0
 71
     5
 72
     1
  1
\A1;40
 11
0.0000000000000001
 21
1.0
 31
0.0
 73
     1
 44
1.0
  0
POINT
  5
1415B
330
13B34
100
AcDbEntity
  8
Defpoints
 62
     0
440
 16777216
100
AcDbPoint
 10
2969.999948207482
 20
590.0004916616601
 30
0.0
  0
POINT
  5
1415C
330
13B34
100
AcDbEntity
  8
Defpoints
 62
     0
440
 16777216
100
AcDbPoint
 10
2985.000171991898
 20
630.0002572337109
 30
0.0
  0
POINT
  5
1415D
330
13B34
100
AcDbEntity
  8
Defpoints
 62
     0
440
 16777216
100
AcDbPoint
 10
3059.999948207482
 20
630.0002572337109
 30
0.0
  0
ENDBLK
  5
13B36
330
13B34
100
AcDbEntity
  8
0
100
AcDbBlockEnd
  0
BLOCK
  5
13B43
330
13B42
100
AcDbEntity
  8
0
100
AcDbBlockBegin
  2
*D43
 70
     1
 10
0.0
 20
0.0
 30
0.0
  3
*D43
  1

  0
LINE
  5
1415E
330
13B42
100
AcDbEntity
  8
寸法線
 62
     0
440
 16777216
370
    -2
100
AcDbLine
 10
2930.000171991898
 20
566.2502572337107
 30
0.0
 11
2930.000171991898
 21
489.9999863165162
 31
0.0
  0
LINE
  5
1415F
330
13B42
100
AcDbEntity
  8
寸法線
 62
     0
440
 16777216
370
    -2
100
AcDbLine
 10
2969.999948207481
 20
581.2504916616599
 30
0.0
 11
2969.999948207481
 21
489.9999863165162
 31
0.0
  0
LINE
  5
14160
330
13B42
100
AcDbEntity
  8
寸法線
 62
     0
440
 16777216
370
    -2
100
AcDbLine
 10
2910.000171991898
 20
499.9999863165162
 30
0.0
 11
2890.000171991898
 21
499.9999863165162
 31
0.0
  0
LINE
  5
14161
330
13B42
100
AcDbEntity
  8
寸法線
 62
     0
440
 16777216
370
    -2
100
AcDbLine
 10
2989.999948207481
 20
499.9999863165162
 30
0.0
 11
3009.999948207481
 21
499.9999863165162
 31
0.0
  0
LINE
  5
14162
330
13B42
100
AcDbEntity
  8
寸法線
 62
     0
440
 16777216
370
    -2
100
AcDbLine
 10
2930.000171991898
 20
499.9999863165162
 30
0.0
 11
2969.999948207481
 21
499.9999863165162
 31
0.0
  0
INSERT
  5
14163
330
13B42
100
AcDbEntity
  8
寸法線
 62
     0
440
 16777216
370
    -2
100
AcDbBlockReference
  2
_OPEN
 10
2930.000171991898
 20
499.9999863165162
 30
0.0
 41
20.0
 42
20.0
 43
20.0
  0
INSERT
  5
14164
330
13B42
100
AcDbEntity
  8
寸法線
 62
     0
440
 16777216
370
    -2
100
AcDbBlockReference
  2
_OPEN
 10
2969.999948207481
 20
499.9999863165162
 30
0.0
 41
20.0
 42
20.0
 43
20.0
 50
180.0
  0
MTEXT
  5
14165
330
13B42
100
AcDbEntity
  8
寸法線
 62
     0
440
 16777216
100
AcDbMText
 10
2950.000060099689
 20
521.2499863165162
 30
0.0
 40
25.0
 41
0.0
 46
0.0
 71
     5
 72
     1
  1
\A1;40
 73
     1
 44
1.0
  0
POINT
  5
14166
330
13B42
100
AcDbEntity
  8
Defpoints
 62
     0
440
 16777216
100
AcDbPoint
 10
2930.000171991898
 20
575.0002572337107
 30
0.0
  0
POINT
  5
14167
330
13B42
100
AcDbEntity
  8
Defpoints
 62
     0
440
 16777216
100
AcDbPoint
 10
2969.999948207481
 20
590.0004916616599
 30
0.0
  0
POINT
  5
14168
330
13B42
100
AcDbEntity
  8
Defpoints
 62
     0
440
 16777216
100
AcDbPoint
 10
2969.999948207481
 20
499.9999863165162
 30
0.0
  0
ENDBLK
  5
13B44
330
13B42
100
AcDbEntity
  8
0
100
AcDbBlockEnd
  0
ENDSEC
  0
SECTION
  2
ENTITIES
  0
LWPOLYLINE
  5
11D7F
330
1F
100
AcDbEntity
  8
Defpoints
100
AcDbPolyline
 90
        4
 70
     1
 43
0.0
 10
0.0
 20
0.0
 10
4200.0
 20
0.0
 10
4200.0
 20
2970.0
 10
0.0
 20
2970.0
  0
LWPOLYLINE
  5
11D80
330
1F
100
AcDbEntity
  8
Defpoints
100
AcDbPolyline
 90
        4
 70
     1
 43
0.0
 10
69.0039999999999
 20
69.10750000000007
 10
4130.995999999998
 20
69.10750000000007
 10
4130.995999999998
 20
2900.8925
 10
69.0039999999999
 20
2900.8925
  0
LINE
  5
11D81
330
1F
100
AcDbEntity
  8
中心線
100
AcDbLine
 10
484.9998964149726
 20
1645.00000000417
 30
0.0
 11
2934.999896414973
 21
1644.999999745611
 31
0.0
  0
DIMENSION
  5
11D82
330
1F
100
AcDbEntity
  8
寸法線
100
AcDbDimension
280
     0
  2
*D5
 10
2359.999896414973
 20
1284.99999974978
 30
0.0
 11
1709.999886508418
 21
1284.99999974978
 31
0.0
 70
   160
 71
     5
 42
1300.0
 73
     0
 74
     0
 75
     0
  3
STANDARD
100
AcDbAlignedDimension
 13
1059.999896414972
 23
1434.999990627464
 33
0.0
 14
2359.999896414973
 24
1434.999990627465
 34
0.0
100
AcDbRotatedDimension
  0
DIMENSION
  5
11D83
330
1F
100
AcDbEntity
  8
寸法線
100
AcDbDimension
280
     0
  2
*D6
 10
1059.999876601863
 20
1284.99999974978
 30
0.0
 11
784.9998766018634
 21
1284.99999974978
 31
0.0
 70
   160
 71
     5
 42
550.0
 73
     0
 74
     0
 75
     0
  3
STANDARD
100
AcDbAlignedDimension
 13
509.9998766018634
 23
1444.99999974978
 33
0.0
 14
1059.999876601863
 24
1435.000036969454
 34
0.0
100
AcDbRotatedDimension
  0
DIMENSION
  5
11D84
330
1F
100
AcDbEntity
  8
寸法線
100
AcDbDimension
280
     0
  2
*D7
 10
389.9998766018631
 20
1444.999999749781
 30
0.0
 11
389.9998766018634
 21
1644.99999974978
 31
0.0
 70
   160
 71
     5
 42
400.0000000000002
 73
     0
 74
     0
 75
     0
  3
STANDARD
100
AcDbAlignedDimension
 13
509.9998766018634
 23
1844.99999974978
 33
0.0
 14
509.9998766018634
 24
1444.99999974978
 34
0.0
 50
90.0
100
AcDbRotatedDimension
  0
DIMENSION
  5
11D85
330
1F
100
AcDbEntity
  8
寸法線
100
AcDbDimension
280
     0
  2
*D8
 10
528.9998766018634
 20
2604.999981745037
 30
0.0
 11
519.4998766018634
 21
2604.999981745037
 31
0.0
 70
   160
 71
     5
 42
19.0
 73
     0
 74
     0
 75
     0
  3
STANDARD
100
AcDbAlignedDimension
 13
509.9998766018634
 23
2436.000018964711
 33
0.0
 14
528.9998766018634
 24
2444.999981745036
 34
0.0
100
AcDbRotatedDimension
  0
DIMENSION
  5
11D86
330
1F
100
AcDbEntity
  8
寸法線
100
AcDbDimension
280
     0
  2
*D9
 10
1059.999876601863
 20
2604.999981745037
 30
0.0
 11
794.4998766018634
 21
2604.999981745037
 31
0.0
 70
   160
 71
     5
 42
531.0
 73
     0
 74
     0
 75
     0
  3
STANDARD
100
AcDbAlignedDimension
 13
528.9998766018634
 23
2444.999981745036
 33
0.0
 14
1059.999876601863
 24
2455.000018964711
 34
0.0
100
AcDbRotatedDimension
  0
DIMENSION
  5
11D87
330
1F
100
AcDbEntity
  8
寸法線
100
AcDbDimension
280
     0
  2
*D10
 10
389.999876601863
 20
2044.999981745036
 30
0.0
 11
389.9998766018634
 21
2244.999981745036
 31
0.0
 70
   160
 71
     5
 42
400.0000000000011
 73
     0
 74
     0
 75
     0
  3
STANDARD
100
AcDbAlignedDimension
 13
528.9998766018634
 23
2444.999981745036
 33
0.0
 14
528.9998766018634
 24
2044.999981745036
 34
0.0
 50
90.0
100
AcDbRotatedDimension
  0
DIMENSION
  5
11D88
330
1F
100
AcDbEntity
  8
寸法線
100
AcDbDimension
280
     0
  2
*D11
 10
1059.999876601863
 20
2684.999981745037
 30
0.0
 11
784.9998766018634
 21
2684.999981745037
 31
0.0
 70
   160
  1
<>\XH型鋼（連結部）
 71
     5
 42
550.0
 73
     0
 74
     0
 75
     0
  3
STANDARD
100
AcDbAlignedDimension
 13
509.9998766018634
 23
2436.000018964711
 33
0.0
 14
1059.999876601863
 24
2455.000018964711
 34
0.0
100
AcDbRotatedDimension
  0
LINE
  5
11D89
330
1F
100
AcDbEntity
  8
中心線
100
AcDbLine
 10
484.9998964149726
 20
2244.999981380137
 30
0.0
 11
2935.000123398137
 21
2245.000019580849
 31
0.0
  0
DIMENSION
  5
11D8A
330
1F
100
AcDbEntity
  8
寸法線
100
AcDbDimension
280
     0
  2
*D12
 10
2359.999896414973
 20
2684.999981745037
 30
0.0
 11
1709.999896414973
 21
2684.999981745037
 31
0.0
 70
    32
  1
W=<>\X空洞金具
 71
     5
 42
1300.0
 73
     0
 74
     0
 75
     0
  3
STANDARD
100
AcDbAlignedDimension
 13
1059.999896414972
 23
2454.999995551367
 33
0.0
 14
2359.999896414973
 24
2454.99997262272
 34
0.0
100
AcDbRotatedDimension
  0
DIMENSION
  5
11D8B
330
1F
100
AcDbEntity
  8
寸法線
100
AcDbDimension
280
     0
  2
*D13
 10
2909.999896414943
 20
2764.999981745037
 30
0.0
 11
1709.999896414972
 21
2786.252442374959
 31
0.0
 70
    32
  1
スルーサーＢ L=<>
 71
     5
 42
2399.999999999941
 73
     0
 74
     0
 75
     0
  3
STANDARD
100
AcDbAlignedDimension
 13
509.9998964150017
 23
2435.999995551382
 33
0.0
 14
2909.999896414943
 24
2435.999981745051
 34
0.0
100
AcDbRotatedDimension
  0
LINE
  5
11D8C
330
1F
100
AcDbEntity
  8
実線
100
AcDbLine
 10
1059.999896414972
 20
1854.999990627464
 30
0.0
 11
1075.999896414972
 21
1854.999990627464
 31
0.0
  0
LINE
  5
11D8D
330
1F
100
AcDbEntity
  8
実線
100
AcDbLine
 10
1107.999896414972
 20
1502.000008872096
 30
0.0
 11
1107.999896414972
 21
1788.000008872096
 31
0.0
  0
LINE
  5
11D8E
330
1F
100
AcDbEntity
  8
実線
100
AcDbLine
 10
1917.999896414973
 20
1784.999990627465
 30
0.0
 11
2311.999999999998
 21
1784.999990627464
 31
0.0
  0
LINE
  5
11D8F
330
1F
100
AcDbEntity
  8
実線
100
AcDbLine
 10
1917.999896414973
 20
1844.999990627465
 30
0.0
 11
2343.999999999998
 21
1844.999990627465
 31
0.0
  0
LINE
  5
11D90
330
1F
100
AcDbEntity
  8
破線
100
AcDbLine
 10
1075.999896414972
 20
1828.999990627465
 30
0.0
 11
1107.999896414972
 21
1828.999990627465
 31
0.0
  0
LINE
  5
11D91
330
1F
100
AcDbEntity
  8
破線
100
AcDbLine
 10
1107.999896414972
 20
1829.000008872096
 30
0.0
 11
1107.999896414972
 21
1844.999990627465
 31
0.0
  0
LINE
  5
11D92
330
1F
100
AcDbEntity
  8
破線
100
AcDbLine
 10
1084.999896414972
 20
1784.999990627464
 30
0.0
 11
1107.999896414972
 21
1784.999990627464
 31
0.0
  0
LINE
  5
11D93
330
1F
100
AcDbEntity
  8
実線
100
AcDbLine
 10
1087.999896414973
 20
1787.999990627465
 30
0.0
 11
1107.999896414972
 21
1787.999990627465
 31
0.0
  0
LINE
  5
11D94
330
1F
100
AcDbEntity
  8
実線
100
AcDbLine
 10
1075.999896414972
 20
1775.999990627465
 30
0.0
 11
1087.999896414973
 21
1787.999990627465
 31
0.0
  0
LINE
  5
11D95
330
1F
100
AcDbEntity
  8
実線
100
AcDbLine
 10
1075.999896414972
 20
1784.999990627464
 30
0.0
 11
1084.999896414972
 21
1784.999990627464
 31
0.0
  0
LINE
  5
11D96
330
1F
100
AcDbEntity
  8
破線
100
AcDbLine
 10
2311.999896414973
 20
1829.000008872096
 30
0.0
 11
2311.999896414973
 21
1844.999990627465
 31
0.0
  0
LINE
  5
11D97
330
1F
100
AcDbEntity
  8
破線
100
AcDbLine
 10
2343.999896414973
 20
1828.999990627465
 30
0.0
 11
2311.999896414973
 21
1828.999990627465
 31
0.0
  0
LINE
  5
11D98
330
1F
100
AcDbEntity
  8
破線
100
AcDbLine
 10
1075.999896414972
 20
1652.999990627465
 30
0.0
 11
1107.999896414972
 21
1652.999990627465
 31
0.0
  0
LINE
  5
11D99
330
1F
100
AcDbEntity
  8
破線
100
AcDbLine
 10
1075.999896414972
 20
1636.999990627464
 30
0.0
 11
1107.999896414972
 21
1636.999990627464
 31
0.0
  0
LINE
  5
11D9A
330
1F
100
AcDbEntity
  8
破線
100
AcDbLine
 10
2311.999896414973
 20
1652.999990627465
 30
0.0
 11
2343.999896414973
 21
1652.999990627465
 31
0.0
  0
LINE
  5
11D9B
330
1F
100
AcDbEntity
  8
破線
100
AcDbLine
 10
2311.999896414973
 20
1636.999990627464
 30
0.0
 11
2343.999896414973
 21
1636.999990627464
 31
0.0
  0
LINE
  5
11D9C
330
1F
100
AcDbEntity
  8
実線
100
AcDbLine
 10
2343.999896414973
 20
1854.999990627464
 30
0.0
 11
2359.999896414973
 21
1854.999990627464
 31
0.0
  0
LINE
  5
11D9D
330
1F
100
AcDbEntity
  8
実線
100
AcDbLine
 10
1075.999896414972
 20
1435.000008872096
 30
0.0
 11
1075.999896414972
 21
1854.999990627464
 31
0.0
  0
LINE
  5
11D9E
330
1F
100
AcDbEntity
  8
実線
100
AcDbLine
 10
2343.999896414973
 20
1435.000008872096
 30
0.0
 11
2343.999896414973
 21
1854.999990627464
 31
0.0
  0
LINE
  5
11D9F
330
1F
100
AcDbEntity
  8
実線
100
AcDbLine
 10
1059.999896414972
 20
1434.999990627465
 30
0.0
 11
1075.999896414972
 21
1434.999990627465
 31
0.0
  0
LINE
  5
11DA0
330
1F
100
AcDbEntity
  8
実線
100
AcDbLine
 10
1917.999896414973
 20
1504.999990627465
 30
0.0
 11
2311.999999999998
 21
1504.999990627465
 31
0.0
  0
LINE
  5
11DA1
330
1F
100
AcDbEntity
  8
実線
100
AcDbLine
 10
1917.999896414973
 20
1444.999990627465
 30
0.0
 11
2343.999999999998
 21
1444.999990627465
 31
0.0
  0
LINE
  5
11DA2
330
1F
100
AcDbEntity
  8
破線
100
AcDbLine
 10
1075.999896414972
 20
1460.999990627465
 30
0.0
 11
1107.999896414972
 21
1460.999990627465
 31
0.0
  0
LINE
  5
11DA3
330
1F
100
AcDbEntity
  8
破線
100
AcDbLine
 10
1107.999896414972
 20
1460.999972382834
 30
0.0
 11
1107.999896414972
 21
1444.999990627465
 31
0.0
  0
LINE
  5
11DA4
330
1F
100
AcDbEntity
  8
破線
100
AcDbLine
 10
1084.999896414972
 20
1504.999990627465
 30
0.0
 11
1107.999896414972
 21
1504.999990627465
 31
0.0
  0
LINE
  5
11DA5
330
1F
100
AcDbEntity
  8
実線
100
AcDbLine
 10
1087.999896414973
 20
1501.999990627465
 30
0.0
 11
1107.999896414972
 21
1501.999990627465
 31
0.0
  0
LINE
  5
11DA6
330
1F
100
AcDbEntity
  8
実線
100
AcDbLine
 10
1075.999896414972
 20
1513.999990627465
 30
0.0
 11
1087.999896414973
 21
1501.999990627465
 31
0.0
  0
LINE
  5
11DA7
330
1F
100
AcDbEntity
  8
実線
100
AcDbLine
 10
1075.999896414972
 20
1504.999990627465
 30
0.0
 11
1084.999896414972
 21
1504.999990627465
 31
0.0
  0
LINE
  5
11DA8
330
1F
100
AcDbEntity
  8
破線
100
AcDbLine
 10
2311.999896414973
 20
1460.999972382834
 30
0.0
 11
2311.999896414973
 21
1444.999990627465
 31
0.0
  0
LINE
  5
11DA9
330
1F
100
AcDbEntity
  8
破線
100
AcDbLine
 10
2343.999896414973
 20
1460.999990627465
 30
0.0
 11
2311.999896414973
 21
1460.999990627465
 31
0.0
  0
LINE
  5
11DAA
330
1F
100
AcDbEntity
  8
実線
100
AcDbLine
 10
2343.999896414973
 20
1434.999990627465
 30
0.0
 11
2359.999896414973
 21
1434.999990627465
 31
0.0
  0
LINE
  5
11DAB
330
1F
100
AcDbEntity
  8
実線
100
AcDbLine
 10
2311.999999999998
 20
1502.000008872096
 30
0.0
 11
2311.999999999998
 21
1788.000008872096
 31
0.0
  0
LINE
  5
11DAC
330
1F
100
AcDbEntity
  8
破線
100
AcDbLine
 10
2334.999999999999
 20
1784.999990627464
 30
0.0
 11
2311.999999999998
 21
1784.999990627464
 31
0.0
  0
LINE
  5
11DAD
330
1F
100
AcDbEntity
  8
実線
100
AcDbLine
 10
2332.0
 20
1787.999990627465
 30
0.0
 11
2311.999999999998
 21
1787.999990627465
 31
0.0
  0
LINE
  5
11DAE
330
1F
100
AcDbEntity
  8
実線
100
AcDbLine
 10
2343.999999999998
 20
1775.999990627465
 30
0.0
 11
2332.0
 21
1787.999990627465
 31
0.0
  0
LINE
  5
11DAF
330
1F
100
AcDbEntity
  8
実線
100
AcDbLine
 10
2343.999999999998
 20
1784.999990627464
 30
0.0
 11
2334.999999999999
 21
1784.999990627464
 31
0.0
  0
LINE
  5
11DB0
330
1F
100
AcDbEntity
  8
破線
100
AcDbLine
 10
2334.999999999999
 20
1504.999990627465
 30
0.0
 11
2311.999999999998
 21
1504.999990627465
 31
0.0
  0
LINE
  5
11DB1
330
1F
100
AcDbEntity
  8
実線
100
AcDbLine
 10
2332.0
 20
1501.999990627465
 30
0.0
 11
2311.999999999998
 21
1501.999990627465
 31
0.0
  0
LINE
  5
11DB2
330
1F
100
AcDbEntity
  8
実線
100
AcDbLine
 10
2343.999999999998
 20
1513.999990627465
 30
0.0
 11
2332.0
 21
1501.999990627465
 31
0.0
  0
LINE
  5
11DB3
330
1F
100
AcDbEntity
  8
実線
100
AcDbLine
 10
2343.999999999998
 20
1504.999990627465
 30
0.0
 11
2334.999999999999
 21
1504.999990627465
 31
0.0
  0
LINE
  5
11DB4
330
1F
100
AcDbEntity
  8
実線
100
AcDbLine
 10
1059.999896414972
 20
2034.999990867352
 30
0.0
 11
1059.999896414972
 21
2454.999995551367
 31
0.0
  0
LINE
  5
11DB5
330
1F
100
AcDbEntity
  8
実線
100
AcDbLine
 10
1059.999896414972
 20
2454.999972622721
 30
0.0
 11
1075.999896414972
 21
2454.999972622721
 31
0.0
  0
LINE
  5
11DB6
330
1F
100
AcDbEntity
  8
実線
100
AcDbLine
 10
1107.999896414972
 20
2101.999990867352
 30
0.0
 11
1107.999896414972
 21
2387.999990867352
 31
0.0
  0
LINE
  5
11DB7
330
1F
100
AcDbEntity
  8
実線
100
AcDbLine
 10
1917.999896414973
 20
2384.999972622721
 30
0.0
 11
2311.999999999998
 21
2384.999972622721
 31
0.0
  0
LINE
  5
11DB8
330
1F
100
AcDbEntity
  8
実線
100
AcDbLine
 10
1917.999896414973
 20
2444.999972622721
 30
0.0
 11
2343.999999999998
 21
2444.999972622721
 31
0.0
  0
LINE
  5
11DB9
330
1F
100
AcDbEntity
  8
破線
100
AcDbLine
 10
1075.999896414972
 20
2428.999972622721
 30
0.0
 11
1107.999896414972
 21
2428.999972622721
 31
0.0
  0
LINE
  5
11DBA
330
1F
100
AcDbEntity
  8
破線
100
AcDbLine
 10
1107.999896414972
 20
2428.999990867352
 30
0.0
 11
1107.999896414972
 21
2444.999972622721
 31
0.0
  0
LINE
  5
11DBB
330
1F
100
AcDbEntity
  8
破線
100
AcDbLine
 10
1084.999896414972
 20
2384.999972622721
 30
0.0
 11
1107.999896414972
 21
2384.999972622721
 31
0.0
  0
LINE
  5
11DBC
330
1F
100
AcDbEntity
  8
実線
100
AcDbLine
 10
1087.999896414973
 20
2387.999972622721
 30
0.0
 11
1107.999896414972
 21
2387.999972622721
 31
0.0
  0
LINE
  5
11DBD
330
1F
100
AcDbEntity
  8
実線
100
AcDbLine
 10
1075.999896414972
 20
2375.999972622721
 30
0.0
 11
1087.999896414973
 21
2387.999972622721
 31
0.0
  0
LINE
  5
11DBE
330
1F
100
AcDbEntity
  8
実線
100
AcDbLine
 10
1075.999896414972
 20
2384.999972622721
 30
0.0
 11
1084.999896414972
 21
2384.999972622721
 31
0.0
  0
LINE
  5
11DBF
330
1F
100
AcDbEntity
  8
破線
100
AcDbLine
 10
2311.999896414973
 20
2428.999990867352
 30
0.0
 11
2311.999896414973
 21
2444.999972622721
 31
0.0
  0
LINE
  5
11DC0
330
1F
100
AcDbEntity
  8
破線
100
AcDbLine
 10
2343.999896414973
 20
2428.999972622721
 30
0.0
 11
2311.999896414973
 21
2428.999972622721
 31
0.0
  0
LINE
  5
11DC1
330
1F
100
AcDbEntity
  8
破線
100
AcDbLine
 10
1075.999896414972
 20
2252.999972622721
 30
0.0
 11
1107.999896414972
 21
2252.999972622721
 31
0.0
  0
LINE
  5
11DC2
330
1F
100
AcDbEntity
  8
破線
100
AcDbLine
 10
1075.999896414972
 20
2236.99997262272
 30
0.0
 11
1107.999896414972
 21
2236.99997262272
 31
0.0
  0
LINE
  5
11DC3
330
1F
100
AcDbEntity
  8
破線
100
AcDbLine
 10
2311.999896414973
 20
2252.999972622721
 30
0.0
 11
2343.999896414973
 21
2252.999972622721
 31
0.0
  0
LINE
  5
11DC4
330
1F
100
AcDbEntity
  8
破線
100
AcDbLine
 10
2311.999896414973
 20
2236.99997262272
 30
0.0
 11
2343.999896414973
 21
2236.99997262272
 31
0.0
  0
LINE
  5
11DC5
330
1F
100
AcDbEntity
  8
実線
100
AcDbLine
 10
2343.999896414973
 20
2454.999972622721
 30
0.0
 11
2359.999896414973
 21
2454.999972622721
 31
0.0
  0
LINE
  5
11DC6
330
1F
100
AcDbEntity
  8
実線
100
AcDbLine
 10
1075.999896414972
 20
2034.999990867352
 30
0.0
 11
1075.999896414972
 21
2454.999972622721
 31
0.0
  0
LINE
  5
11DC7
330
1F
100
AcDbEntity
  8
実線
100
AcDbLine
 10
2343.999896414973
 20
2034.999990867352
 30
0.0
 11
2343.999896414973
 21
2454.999972622721
 31
0.0
  0
LINE
  5
11DC8
330
1F
100
AcDbEntity
  8
実線
100
AcDbLine
 10
1059.999896414972
 20
2034.999972622721
 30
0.0
 11
1075.999896414972
 21
2034.999972622721
 31
0.0
  0
LINE
  5
11DC9
330
1F
100
AcDbEntity
  8
実線
100
AcDbLine
 10
1917.999896414973
 20
2104.999972622721
 30
0.0
 11
2311.999999999998
 21
2104.999972622721
 31
0.0
  0
LINE
  5
11DCA
330
1F
100
AcDbEntity
  8
実線
100
AcDbLine
 10
1917.999896414973
 20
2044.999972622721
 30
0.0
 11
2343.999999999998
 21
2044.999972622721
 31
0.0
  0
LINE
  5
11DCB
330
1F
100
AcDbEntity
  8
破線
100
AcDbLine
 10
1075.999896414972
 20
2060.999972622721
 30
0.0
 11
1107.999896414972
 21
2060.999972622721
 31
0.0
  0
LINE
  5
11DCC
330
1F
100
AcDbEntity
  8
破線
100
AcDbLine
 10
1107.999896414972
 20
2060.99995437809
 30
0.0
 11
1107.999896414972
 21
2044.999972622721
 31
0.0
  0
LINE
  5
11DCD
330
1F
100
AcDbEntity
  8
破線
100
AcDbLine
 10
1084.999896414972
 20
2104.999972622721
 30
0.0
 11
1107.999896414972
 21
2104.999972622721
 31
0.0
  0
LINE
  5
11DCE
330
1F
100
AcDbEntity
  8
実線
100
AcDbLine
 10
1087.999896414973
 20
2101.999972622721
 30
0.0
 11
1107.999896414972
 21
2101.999972622721
 31
0.0
  0
LINE
  5
11DCF
330
1F
100
AcDbEntity
  8
実線
100
AcDbLine
 10
1075.999896414972
 20
2113.999972622721
 30
0.0
 11
1087.999896414973
 21
2101.999972622721
 31
0.0
  0
LINE
  5
11DD0
330
1F
100
AcDbEntity
  8
実線
100
AcDbLine
 10
1075.999896414972
 20
2104.999972622721
 30
0.0
 11
1084.999896414972
 21
2104.999972622721
 31
0.0
  0
LINE
  5
11DD1
330
1F
100
AcDbEntity
  8
破線
100
AcDbLine
 10
2311.999896414973
 20
2060.99995437809
 30
0.0
 11
2311.999896414973
 21
2044.999972622721
 31
0.0
  0
LINE
  5
11DD2
330
1F
100
AcDbEntity
  8
破線
100
AcDbLine
 10
2343.999896414973
 20
2060.999972622721
 30
0.0
 11
2311.999896414973
 21
2060.999972622721
 31
0.0
  0
LINE
  5
11DD3
330
1F
100
AcDbEntity
  8
実線
100
AcDbLine
 10
2343.999896414973
 20
2034.999972622721
 30
0.0
 11
2359.999896414973
 21
2034.999972622721
 31
0.0
  0
LINE
  5
11DD4
330
1F
100
AcDbEntity
  8
実線
100
AcDbLine
 10
2311.999999999998
 20
2101.999990867352
 30
0.0
 11
2311.999999999998
 21
2387.999990867352
 31
0.0
  0
LINE
  5
11DD5
330
1F
100
AcDbEntity
  8
破線
100
AcDbLine
 10
2334.999999999999
 20
2384.999972622721
 30
0.0
 11
2311.999999999998
 21
2384.999972622721
 31
0.0
  0
LINE
  5
11DD6
330
1F
100
AcDbEntity
  8
実線
100
AcDbLine
 10
2332.0
 20
2387.999972622721
 30
0.0
 11
2311.999999999998
 21
2387.999972622721
 31
0.0
  0
LINE
  5
11DD7
330
1F
100
AcDbEntity
  8
実線
100
AcDbLine
 10
2343.999999999998
 20
2375.999972622721
 30
0.0
 11
2332.0
 21
2387.999972622721
 31
0.0
  0
LINE
  5
11DD8
330
1F
100
AcDbEntity
  8
実線
100
AcDbLine
 10
2343.999999999998
 20
2384.999972622721
 30
0.0
 11
2334.999999999999
 21
2384.999972622721
 31
0.0
  0
LINE
  5
11DD9
330
1F
100
AcDbEntity
  8
破線
100
AcDbLine
 10
2334.999999999999
 20
2104.999972622721
 30
0.0
 11
2311.999999999998
 21
2104.999972622721
 31
0.0
  0
LINE
  5
11DDA
330
1F
100
AcDbEntity
  8
実線
100
AcDbLine
 10
2332.0
 20
2101.999972622721
 30
0.0
 11
2311.999999999998
 21
2101.999972622721
 31
0.0
  0
LINE
  5
11DDB
330
1F
100
AcDbEntity
  8
実線
100
AcDbLine
 10
2343.999999999998
 20
2113.999972622721
 30
0.0
 11
2332.0
 21
2101.999972622721
 31
0.0
  0
LINE
  5
11DDC
330
1F
100
AcDbEntity
  8
実線
100
AcDbLine
 10
2343.999999999998
 20
2104.999972622721
 30
0.0
 11
2334.999999999999
 21
2104.999972622721
 31
0.0
  0
DIMENSION
  5
11DDD
330
1F
100
AcDbEntity
  8
寸法線
100
AcDbDimension
280
     0
  2
*D1
 10
2891.000123398137
 20
2604.999981745037
 30
0.0
 11
2900.500123398137
 21
2604.999981745037
 31
0.0
 70
   160
 71
     5
 42
19.0
 73
     0
 74
     0
 75
     0
  3
STANDARD
100
AcDbAlignedDimension
 13
2910.000123398137
 23
2436.000018964711
 33
0.0
 14
2891.000123398137
 24
2444.999981745036
 34
0.0
 50
180.0
100
AcDbRotatedDimension
  0
DIMENSION
  5
11DDE
330
1F
100
AcDbEntity
  8
寸法線
100
AcDbDimension
280
     0
  2
*D2
 10
2360.000123398137
 20
2604.999981745037
 30
0.0
 11
2625.500123398137
 21
2604.999981745037
 31
0.0
 70
   160
 71
     5
 42
531.0
 73
     0
 74
     0
 75
     0
  3
STANDARD
100
AcDbAlignedDimension
 13
2891.000123398137
 23
2444.999981745036
 33
0.0
 14
2360.000123398137
 24
2455.000018964711
 34
0.0
 50
180.0
100
AcDbRotatedDimension
  0
DIMENSION
  5
11DDF
330
1F
100
AcDbEntity
  8
寸法線
100
AcDbDimension
280
     0
  2
*D3
 10
3030.000123398137
 20
2054.000018964711
 30
0.0
 11
3030.000123398137
 21
2244.999981745036
 31
0.0
 70
   160
 71
     5
 42
382.0000000000005
 73
     0
 74
     0
 75
     0
  3
STANDARD
100
AcDbAlignedDimension
 13
2910.000123398137
 23
2436.000018964711
 33
0.0
 14
2910.000123398137
 24
2054.00001896471
 34
0.0
 50
90.0
100
AcDbRotatedDimension
  0
DIMENSION
  5
11DE0
330
1F
100
AcDbEntity
  8
寸法線
100
AcDbDimension
280
     0
  2
*D4
 10
2359.999896414973
 20
1284.99999974978
 30
0.0
 11
2634.999896414973
 21
1284.99999974978
 31
0.0
 70
   160
 71
     5
 42
550.0
 73
     0
 74
     0
 75
     0
  3
STANDARD
100
AcDbAlignedDimension
 13
2909.999896414973
 23
1444.99999974978
 33
0.0
 14
2359.999896414973
 24
1435.000036969454
 34
0.0
 50
180.0
100
AcDbRotatedDimension
  0
LINE
  5
11DE1
330
1F
100
AcDbEntity
  8
中心線
100
AcDbLine
 10
931.9998964149727
 20
1814.99999974978
 30
0.0
 11
2487.999900238159
 21
1814.999978121142
 31
0.0
  0
LINE
  5
11DE2
330
1F
100
AcDbEntity
  8
中心線
100
AcDbLine
 10
1049.999948207485
 20
2414.999990867349
 30
0.0
 11
2370.000051792511
 21
2414.999990867349
 31
0.0
  0
LINE
  5
11DE3
330
1F
100
AcDbEntity
  8
中心線
100
AcDbLine
 10
1049.999948207485
 20
2074.999990867356
 30
0.0
 11
2370.000051792511
 21
2074.999990867356
 31
0.0
  0
LINE
  5
11DE4
330
1F
100
AcDbEntity
  8
中心線
100
AcDbLine
 10
931.999896358252
 20
1475.000000109431
 30
0.0
 11
2487.999900181439
 21
1475.000021519202
 31
0.0
  0
LINE
  5
11DE5
330
1F
100
AcDbEntity
  8
寸法線
100
AcDbLine
 10
1549.999896414973
 20
1169.999773799663
 30
0.0
 11
1869.999896414973
 21
1169.999773799663
 31
0.0
  0
TEXT
  5
11DE6
330
1F
100
AcDbEntity
  8
寸法線
100
AcDbText
 10
1558.749896414973
 20
1178.749773799663
 30
0.0
 40
37.5
  1
空洞金具詳細図
 72
     1
 11
1709.999896414974
 21
1178.749773799663
 31
0.0
100
AcDbText
 73
     1
  0
LINE
  5
11DE7
330
1F
100
AcDbEntity
  8
実線
100
AcDbLine
 10
509.9998964150017
 20
2435.999995551382
 30
0.0
 11
509.9998964150017
 21
2053.999995551381
 31
0.0
  0
LINE
  5
11DE8
330
1F
100
AcDbEntity
  8
実線
100
AcDbLine
 10
528.9998964150018
 20
2444.999958331701
 30
0.0
 11
528.9998964150018
 21
2044.9999583317
 31
0.0
  0
LINE
  5
11DE9
330
1F
100
AcDbEntity
  8
実線
100
AcDbLine
 10
528.9998964150018
 20
2444.999958331701
 30
0.0
 11
1059.999916228103
 21
2444.999958331701
 31
0.0
  0
LINE
  5
11DEA
330
1F
100
AcDbEntity
  8
実線
100
AcDbLine
 10
528.9998964150018
 20
2423.9999583317
 30
0.0
 11
1059.999916228103
 21
2423.9999583317
 31
0.0
  0
LINE
  5
11DEB
330
1F
100
AcDbEntity
  8
実線
100
AcDbLine
 10
939.9998964150018
 20
2423.9999583317
 30
0.0
 11
939.9998964150018
 21
2393.999995551381
 31
0.0
  0
LINE
  5
11DEC
330
1F
100
AcDbEntity
  8
実線
100
AcDbLine
 10
1019.999916228104
 20
2353.999958331701
 30
0.0
 11
1059.999916228103
 21
2353.999958331701
 31
0.0
  0
LINE
  5
11DED
330
1F
100
AcDbEntity
  8
実線
100
AcDbLine
 10
939.9998964150018
 20
2393.999995551381
 30
0.0
 11
1019.999916228104
 21
2353.999958331701
 31
0.0
  0
LINE
  5
11DEE
330
1F
100
AcDbEntity
  8
実線
100
AcDbLine
 10
1047.999920190721
 20
2423.9999583317
 30
0.0
 11
1059.999920190721
 21
2411.9999583317
 31
0.0
  0
LINE
  5
11DEF
330
1F
100
AcDbEntity
  8
仮想線
100
AcDbLine
 10
1050.999916228104
 20
2423.9999583317
 30
0.0
 11
1059.999916228103
 21
2414.999958331701
 31
0.0
  0
LINE
  5
11DF0
330
1F
100
AcDbEntity
  8
実線
100
AcDbLine
 10
939.9998964150018
 20
2065.9999583317
 30
0.0
 11
939.9998964150018
 21
2095.999921112034
 31
0.0
  0
LINE
  5
11DF1
330
1F
100
AcDbEntity
  8
実線
100
AcDbLine
 10
1019.999916228104
 20
2135.9999583317
 30
0.0
 11
1059.999916228103
 21
2135.9999583317
 31
0.0
  0
LINE
  5
11DF2
330
1F
100
AcDbEntity
  8
実線
100
AcDbLine
 10
939.9998964150018
 20
2095.999921112034
 30
0.0
 11
1019.999916228104
 21
2135.9999583317
 31
0.0
  0
LINE
  5
11DF3
330
1F
100
AcDbEntity
  8
実線
100
AcDbLine
 10
1047.999920190721
 20
2065.9999583317
 30
0.0
 11
1059.999920190721
 21
2077.9999583317
 31
0.0
  0
LINE
  5
11DF4
330
1F
100
AcDbEntity
  8
仮想線
100
AcDbLine
 10
1050.999916228104
 20
2065.9999583317
 30
0.0
 11
1059.999916228103
 21
2074.9999583317
 31
0.0
  0
LINE
  5
11DF5
330
1F
100
AcDbEntity
  8
実線
100
AcDbLine
 10
509.9998964150017
 20
2435.999995551382
 30
0.0
 11
528.9998964150018
 21
2435.999995551382
 31
0.0
  0
LINE
  5
11DF6
330
1F
100
AcDbEntity
  8
実線
100
AcDbLine
 10
509.9998964150017
 20
2054.000021112024
 30
0.0
 11
528.9998964150018
 21
2054.000021112024
 31
0.0
  0
LINE
  5
11DF7
330
1F
100
AcDbEntity
  8
仮想線
100
AcDbLine
 10
528.9998964150018
 20
2444.999958331701
 30
0.0
 11
519.9999336346682
 21
2435.999995551382
 31
0.0
  0
LINE
  5
11DF8
330
1F
100
AcDbEntity
  8
仮想線
100
AcDbLine
 10
528.9998964150018
 20
2044.9999583317
 30
0.0
 11
519.9998336346779
 21
2054.000021112024
 31
0.0
  0
LINE
  5
11DF9
330
1F
100
AcDbEntity
  8
実線
100
AcDbLine
 10
528.9998964150018
 20
2250.9999583317
 30
0.0
 11
728.9999162281037
 21
2250.9999583317
 31
0.0
  0
LINE
  5
11DFA
330
1F
100
AcDbEntity
  8
実線
100
AcDbLine
 10
528.9998964150018
 20
2238.9999583317
 30
0.0
 11
728.9999162281037
 21
2238.9999583317
 31
0.0
  0
LINE
  5
11DFB
330
1F
100
AcDbEntity
  8
実線
100
AcDbLine
 10
728.9999162281037
 20
2250.9999583317
 30
0.0
 11
728.9999162281037
 21
2238.9999583317
 31
0.0
  0
LINE
  5
11DFC
330
1F
100
AcDbEntity
  8
仮想線
100
AcDbLine
 10
1059.999898396303
 20
2453.999991829409
 30
0.0
 11
1050.999864898594
 21
2444.999958331701
 31
0.0
  0
LINE
  5
11DFD
330
1F
100
AcDbEntity
  8
仮想線
100
AcDbLine
 10
1059.999898396303
 20
2035.999991829409
 30
0.0
 11
1050.999931894011
 21
2044.9999583317
 31
0.0
  0
LINE
  5
11DFE
330
1F
100
AcDbEntity
  8
実線
100
AcDbLine
 10
528.9998964150018
 20
2044.9999583317
 30
0.0
 11
1059.999979494461
 21
2045.000222570267
 31
0.0
  0
LINE
  5
11DFF
330
1F
100
AcDbEntity
  8
実線
100
AcDbLine
 10
528.9998964150018
 20
2066.00005459796
 30
0.0
 11
1059.999972851483
 21
2066.000222570266
 31
0.0
  0
LINE
  5
11E00
330
1F
100
AcDbEntity
  8
中心線
100
AcDbLine
 10
559.9998964150017
 20
2454.999995548151
 30
0.0
 11
559.9998964150017
 21
2413.999995548151
 31
0.0
  0
LINE
  5
11E01
330
1F
100
AcDbEntity
  8
中心線
100
AcDbLine
 10
559.9998964150017
 20
2034.999995554626
 30
0.0
 11
559.9998964150017
 21
2075.999995554626
 31
0.0
  0
LINE
  5
11E02
330
1F
100
AcDbEntity
  8
中心線
100
AcDbLine
 10
499.9999009128532
 20
2344.999958226344
 30
0.0
 11
535.9999207259589
 21
2344.999958226344
 31
0.0
  0
LINE
  5
11E03
330
1F
100
AcDbEntity
  8
中心線
100
AcDbLine
 10
499.9999009128532
 20
2144.999958226344
 30
0.0
 11
535.9999207259589
 21
2144.999958226344
 31
0.0
  0
LINE
  5
11E04
330
1F
100
AcDbEntity
  8
中心線
100
AcDbLine
 10
499.9999009128532
 20
2169.999958226345
 30
0.0
 11
535.9999207259589
 21
2169.999958226345
 31
0.0
  0
LINE
  5
11E05
330
1F
100
AcDbEntity
  8
中心線
100
AcDbLine
 10
499.9999009128532
 20
2320.000032876418
 30
0.0
 11
535.9999207259589
 21
2320.000032876418
 31
0.0
  0
LINE
  5
11E06
330
1F
100
AcDbEntity
  8
中心線
100
AcDbLine
 10
609.9998964150017
 20
2454.999995548151
 30
0.0
 11
609.9998964150017
 21
2413.999995548151
 31
0.0
  0
LINE
  5
11E07
330
1F
100
AcDbEntity
  8
中心線
100
AcDbLine
 10
609.9998964150017
 20
2034.999995554626
 30
0.0
 11
609.9998964150017
 21
2075.999995554626
 31
0.0
  0
LINE
  5
11E08
330
1F
100
AcDbEntity
  8
中心線
100
AcDbLine
 10
659.9998964150017
 20
2454.999995548151
 30
0.0
 11
659.9998964150017
 21
2413.999995548151
 31
0.0
  0
LINE
  5
11E09
330
1F
100
AcDbEntity
  8
中心線
100
AcDbLine
 10
659.9998964150017
 20
2034.999995554626
 30
0.0
 11
659.9998964150017
 21
2075.999995554626
 31
0.0
  0
LINE
  5
11E0A
330
1F
100
AcDbEntity
  8
中心線
100
AcDbLine
 10
709.9998964150017
 20
2454.999995548151
 30
0.0
 11
709.9998964150017
 21
2413.999995548151
 31
0.0
  0
LINE
  5
11E0B
330
1F
100
AcDbEntity
  8
中心線
100
AcDbLine
 10
709.9998964150017
 20
2034.999995554626
 30
0.0
 11
709.9998964150017
 21
2075.999995554626
 31
0.0
  0
LINE
  5
11E0C
330
1F
100
AcDbEntity
  8
中心線
100
AcDbLine
 10
759.9998964150017
 20
2454.999995548151
 30
0.0
 11
759.9998964150017
 21
2413.999995548151
 31
0.0
  0
LINE
  5
11E0D
330
1F
100
AcDbEntity
  8
中心線
100
AcDbLine
 10
759.9998964150017
 20
2034.999995554626
 30
0.0
 11
759.9998964150017
 21
2075.999995554626
 31
0.0
  0
LINE
  5
11E0E
330
1F
100
AcDbEntity
  8
中心線
100
AcDbLine
 10
809.9998964150017
 20
2454.999995548151
 30
0.0
 11
809.9998964150017
 21
2413.999995548151
 31
0.0
  0
LINE
  5
11E0F
330
1F
100
AcDbEntity
  8
中心線
100
AcDbLine
 10
809.9998964150017
 20
2034.999995554626
 30
0.0
 11
809.9998964150017
 21
2075.999995554626
 31
0.0
  0
LINE
  5
11E10
330
1F
100
AcDbEntity
  8
中心線
100
AcDbLine
 10
859.9998964150017
 20
2454.999995548151
 30
0.0
 11
859.9998964150017
 21
2413.999995548151
 31
0.0
  0
LINE
  5
11E11
330
1F
100
AcDbEntity
  8
中心線
100
AcDbLine
 10
859.9998964150017
 20
2034.999995554626
 30
0.0
 11
859.9998964150017
 21
2075.999995554626
 31
0.0
  0
LINE
  5
11E12
330
1F
100
AcDbEntity
  8
実線
100
AcDbLine
 10
509.9998964149726
 20
1844.999953407798
 30
0.0
 11
1059.999916228103
 21
1844.999953407798
 31
0.0
  0
LINE
  5
11E13
330
1F
100
AcDbEntity
  8
実線
100
AcDbLine
 10
528.9998964149726
 20
1844.999953407798
 30
0.0
 11
528.9998964149726
 21
1444.999953407798
 31
0.0
  0
LINE
  5
11E14
330
1F
100
AcDbEntity
  8
実線
100
AcDbLine
 10
509.9998964149726
 20
1844.999953407798
 30
0.0
 11
509.9998964149726
 21
1444.999953407798
 31
0.0
  0
LINE
  5
11E15
330
1F
100
AcDbEntity
  8
破線
100
AcDbLine
 10
528.9998964149726
 20
1651.499953407798
 30
0.0
 11
1059.999916228103
 21
1651.499953407798
 31
0.0
  0
LINE
  5
11E16
330
1F
100
AcDbEntity
  8
破線
100
AcDbLine
 10
538.9998964149726
 20
1651.499953407798
 30
0.0
 11
528.9998964149726
 21
1661.499953407798
 31
0.0
  0
LINE
  5
11E17
330
1F
100
AcDbEntity
  8
仮想線
100
AcDbLine
 10
535.9998964149727
 20
1651.499953407798
 30
0.0
 11
528.9998964149726
 21
1658.499953407798
 31
0.0
  0
LINE
  5
11E18
330
1F
100
AcDbEntity
  8
破線
100
AcDbLine
 10
538.9998964149726
 20
1638.499953407798
 30
0.0
 11
528.9998964149726
 21
1628.499953407798
 31
0.0
  0
LINE
  5
11E19
330
1F
100
AcDbEntity
  8
仮想線
100
AcDbLine
 10
535.9998964149727
 20
1638.499953407798
 30
0.0
 11
528.9998964149726
 21
1631.499953407798
 31
0.0
  0
LINE
  5
11E1A
330
1F
100
AcDbEntity
  8
実線
100
AcDbLine
 10
1059.999896414972
 20
1854.999990627464
 30
0.0
 11
1059.999896414972
 21
1434.999990627464
 31
0.0
  0
LINE
  5
11E1B
330
1F
100
AcDbEntity
  8
破線
100
AcDbLine
 10
939.9999162281037
 20
1824.499953407798
 30
0.0
 11
1059.999896414972
 21
1824.499953407798
 31
0.0
  0
LINE
  5
11E1C
330
1F
100
AcDbEntity
  8
破線
100
AcDbLine
 10
939.9999162281037
 20
1805.499953407798
 30
0.0
 11
1059.999896414972
 21
1805.499953407798
 31
0.0
  0
LINE
  5
11E1D
330
1F
100
AcDbEntity
  8
破線
100
AcDbLine
 10
939.9999162281037
 20
1824.499953407798
 30
0.0
 11
939.9999162281037
 21
1805.499953407798
 31
0.0
  0
LINE
  5
11E1E
330
1F
100
AcDbEntity
  8
破線
100
AcDbLine
 10
939.9999162281037
 20
1465.499953407798
 30
0.0
 11
1059.999896414972
 21
1465.499953407798
 31
0.0
  0
LINE
  5
11E1F
330
1F
100
AcDbEntity
  8
破線
100
AcDbLine
 10
939.9999162281037
 20
1484.499953407798
 30
0.0
 11
1059.999896414972
 21
1484.499953407798
 31
0.0
  0
LINE
  5
11E20
330
1F
100
AcDbEntity
  8
破線
100
AcDbLine
 10
939.9999162281037
 20
1465.499953407798
 30
0.0
 11
939.9999162281037
 21
1484.499953407798
 31
0.0
  0
LINE
  5
11E21
330
1F
100
AcDbEntity
  8
破線
100
AcDbLine
 10
528.9998964149726
 20
1841.499953407797
 30
0.0
 11
558.9999162281038
 21
1841.499953407797
 31
0.0
  0
LINE
  5
11E22
330
1F
100
AcDbEntity
  8
破線
100
AcDbLine
 10
728.9998964149726
 20
1681.499990627464
 30
0.0
 11
728.9998964149726
 21
1651.499953407798
 31
0.0
  0
LINE
  5
11E23
330
1F
100
AcDbEntity
  8
破線
100
AcDbLine
 10
558.9999162281038
 20
1841.499953407797
 30
0.0
 11
728.9998964149726
 21
1681.499990627464
 31
0.0
  0
LINE
  5
11E24
330
1F
100
AcDbEntity
  8
破線
100
AcDbLine
 10
728.9998964149726
 20
1608.499916188131
 30
0.0
 11
728.9998964149726
 21
1638.499953407798
 31
0.0
  0
LINE
  5
11E25
330
1F
100
AcDbEntity
  8
破線
100
AcDbLine
 10
558.9999162281038
 20
1448.499953407798
 30
0.0
 11
728.9998964149726
 21
1608.499916188131
 31
0.0
  0
LINE
  5
11E26
330
1F
100
AcDbEntity
  8
破線
100
AcDbLine
 10
528.9998964149726
 20
1448.499953407798
 30
0.0
 11
558.9999162281038
 21
1448.499953407798
 31
0.0
  0
LINE
  5
11E27
330
1F
100
AcDbEntity
  8
実線
100
AcDbLine
 10
509.9998964149726
 20
1444.999953407798
 30
0.0
 11
1059.999916228103
 21
1444.999953618539
 31
0.0
  0
LINE
  5
11E28
330
1F
100
AcDbEntity
  8
破線
100
AcDbLine
 10
528.9998964149726
 20
1638.499953618538
 30
0.0
 11
1059.999916228103
 21
1638.499953618538
 31
0.0
  0
LEADER
  5
11E29
330
1F
100
AcDbEntity
  8
寸法線
100
AcDbLeader
  3
STANDARD
 76
     3
 10
616.122989395617
 20
1780.897574155297
 30
0.0
 10
691.471823980858
 20
1914.999999749781
 30
0.0
 10
959.1320009156779
 20
1914.999999749781
 30
0.0
211
-1.0
221
0.0
231
0.0
1001
ACAD
1000
DSTYLE
1002
{
1070
   147
1040
0.875
1070
    77
1070
     0
1002
}
  0
TEXT
  5
11E2A
330
1F
100
AcDbEntity
  8
寸法線
100
AcDbText
 10
700.2218239808532
 20
1923.749999749781
 30
0.0
 40
25.0
  1
ｶﾊﾞｰﾌﾟﾚｰﾄ連結用孔
 72
     2
 11
948.5551573141865
 21
1948.749999749781
 31
0.0
100
AcDbText
 73
     3
  0
LINE
  5
11E2B
330
1F
100
AcDbEntity
  8
中心線
100
AcDbLine
 10
559.9998964149726
 20
1754.999953407812
 30
0.0
 11
559.9998964149726
 21
1684.999990627486
 31
0.0
  0
LINE
  5
11E2C
330
1F
100
AcDbEntity
  8
中心線
100
AcDbLine
 10
524.9999150248095
 20
1719.999972017653
 30
0.0
 11
594.9998778051358
 21
1719.999972017653
 31
0.0
  0
CIRCLE
  5
11E2D
330
1F
100
AcDbEntity
  8
実線
100
AcDbCircle
 10
559.9998964149726
 20
1719.999972017653
 30
0.0
 40
12.5
  0
LINE
  5
11E2E
330
1F
100
AcDbEntity
  8
中心線
100
AcDbLine
 10
559.9998964149726
 20
1535.00005340781
 30
0.0
 11
559.9998964149726
 21
1605.000016188136
 31
0.0
  0
LINE
  5
11E2F
330
1F
100
AcDbEntity
  8
中心線
100
AcDbLine
 10
524.9999150248095
 20
1570.000034797977
 30
0.0
 11
594.9998778051358
 21
1570.000034797977
 31
0.0
  0
CIRCLE
  5
11E30
330
1F
100
AcDbEntity
  8
実線
100
AcDbCircle
 10
559.9998964149726
 20
1570.000034797977
 30
0.0
 40
12.5
  0
LINE
  5
11E31
330
1F
100
AcDbEntity
  8
中心線
100
AcDbLine
 10
659.9998964149726
 20
1754.999953407812
 30
0.0
 11
659.9998964149726
 21
1684.999990627486
 31
0.0
  0
LINE
  5
11E32
330
1F
100
AcDbEntity
  8
中心線
100
AcDbLine
 10
624.9999150248095
 20
1719.999972017653
 30
0.0
 11
694.9998778051358
 21
1719.999972017653
 31
0.0
  0
CIRCLE
  5
11E33
330
1F
100
AcDbEntity
  8
実線
100
AcDbCircle
 10
659.9998964149726
 20
1719.999972017653
 30
0.0
 40
12.5
  0
LINE
  5
11E34
330
1F
100
AcDbEntity
  8
中心線
100
AcDbLine
 10
659.9998964149726
 20
1535.00005340781
 30
0.0
 11
659.9998964149726
 21
1605.000016188136
 31
0.0
  0
LINE
  5
11E35
330
1F
100
AcDbEntity
  8
中心線
100
AcDbLine
 10
624.9999150248095
 20
1570.000034797977
 30
0.0
 11
694.9998778051358
 21
1570.000034797977
 31
0.0
  0
CIRCLE
  5
11E36
330
1F
100
AcDbEntity
  8
実線
100
AcDbCircle
 10
659.9998964149726
 20
1570.000034797977
 30
0.0
 40
12.5
  0
LINE
  5
11E37
330
1F
100
AcDbEntity
  8
中心線
100
AcDbLine
 10
759.9998964149726
 20
1754.999953407812
 30
0.0
 11
759.9998964149726
 21
1684.999990627486
 31
0.0
  0
LINE
  5
11E38
330
1F
100
AcDbEntity
  8
中心線
100
AcDbLine
 10
724.9999150248095
 20
1719.999972017653
 30
0.0
 11
794.9998778051358
 21
1719.999972017653
 31
0.0
  0
CIRCLE
  5
11E39
330
1F
100
AcDbEntity
  8
実線
100
AcDbCircle
 10
759.9998964149726
 20
1719.999972017653
 30
0.0
 40
12.5
  0
LINE
  5
11E3A
330
1F
100
AcDbEntity
  8
中心線
100
AcDbLine
 10
759.9998964149726
 20
1535.00005340781
 30
0.0
 11
759.9998964149726
 21
1605.000016188136
 31
0.0
  0
LINE
  5
11E3B
330
1F
100
AcDbEntity
  8
中心線
100
AcDbLine
 10
724.9999150248095
 20
1570.000034797977
 30
0.0
 11
794.9998778051358
 21
1570.000034797977
 31
0.0
  0
CIRCLE
  5
11E3C
330
1F
100
AcDbEntity
  8
実線
100
AcDbCircle
 10
759.9998964149726
 20
1570.000034797977
 30
0.0
 40
12.5
  0
LINE
  5
11E3D
330
1F
100
AcDbEntity
  8
中心線
100
AcDbLine
 10
609.9998964149726
 20
1804.999953407812
 30
0.0
 11
609.9998964149726
 21
1734.999990627486
 31
0.0
  0
LINE
  5
11E3E
330
1F
100
AcDbEntity
  8
中心線
100
AcDbLine
 10
574.9999150248095
 20
1769.999972017653
 30
0.0
 11
644.9998778051358
 21
1769.999972017653
 31
0.0
  0
CIRCLE
  5
11E3F
330
1F
100
AcDbEntity
  8
実線
100
AcDbCircle
 10
609.9998964149726
 20
1769.999972017653
 30
0.0
 40
12.5
  0
LINE
  5
11E40
330
1F
100
AcDbEntity
  8
中心線
100
AcDbLine
 10
709.9998964149726
 20
1804.999953407812
 30
0.0
 11
709.9998964149726
 21
1734.999990627486
 31
0.0
  0
LINE
  5
11E41
330
1F
100
AcDbEntity
  8
中心線
100
AcDbLine
 10
674.9999150248095
 20
1769.999972017653
 30
0.0
 11
744.9998778051358
 21
1769.999972017653
 31
0.0
  0
CIRCLE
  5
11E42
330
1F
100
AcDbEntity
  8
実線
100
AcDbCircle
 10
709.9998964149726
 20
1769.999972017653
 30
0.0
 40
12.5
  0
LINE
  5
11E43
330
1F
100
AcDbEntity
  8
中心線
100
AcDbLine
 10
609.9998964149726
 20
1485.00005340781
 30
0.0
 11
609.9998964149726
 21
1555.000016188136
 31
0.0
  0
LINE
  5
11E44
330
1F
100
AcDbEntity
  8
中心線
100
AcDbLine
 10
574.9999150248095
 20
1520.000034797976
 30
0.0
 11
644.9998778051358
 21
1520.000034797976
 31
0.0
  0
CIRCLE
  5
11E45
330
1F
100
AcDbEntity
  8
実線
100
AcDbCircle
 10
609.9998964149726
 20
1520.000034797976
 30
0.0
 40
12.5
  0
LINE
  5
11E46
330
1F
100
AcDbEntity
  8
中心線
100
AcDbLine
 10
709.9998964149726
 20
1485.00005340781
 30
0.0
 11
709.9998964149726
 21
1555.000016188136
 31
0.0
  0
LINE
  5
11E47
330
1F
100
AcDbEntity
  8
中心線
100
AcDbLine
 10
674.9999150248095
 20
1520.000034797976
 30
0.0
 11
744.9998778051358
 21
1520.000034797976
 31
0.0
  0
CIRCLE
  5
11E48
330
1F
100
AcDbEntity
  8
実線
100
AcDbCircle
 10
709.9998964149726
 20
1520.000034797976
 30
0.0
 40
12.5
  0
LINE
  5
11E49
330
1F
100
AcDbEntity
  8
中心線
100
AcDbLine
 10
859.9998964149726
 20
1754.999953407812
 30
0.0
 11
859.9998964149726
 21
1684.999990627486
 31
0.0
  0
LINE
  5
11E4A
330
1F
100
AcDbEntity
  8
中心線
100
AcDbLine
 10
824.9999150248095
 20
1719.999972017653
 30
0.0
 11
894.9998778051359
 21
1719.999972017653
 31
0.0
  0
CIRCLE
  5
11E4B
330
1F
100
AcDbEntity
  8
実線
100
AcDbCircle
 10
859.9998964149726
 20
1719.999972017653
 30
0.0
 40
12.5
  0
LINE
  5
11E4C
330
1F
100
AcDbEntity
  8
中心線
100
AcDbLine
 10
859.9998964149726
 20
1535.00005340781
 30
0.0
 11
859.9998964149726
 21
1605.000016188136
 31
0.0
  0
LINE
  5
11E4D
330
1F
100
AcDbEntity
  8
中心線
100
AcDbLine
 10
824.9999150248095
 20
1570.000034797977
 30
0.0
 11
894.9998778051359
 21
1570.000034797977
 31
0.0
  0
CIRCLE
  5
11E4E
330
1F
100
AcDbEntity
  8
実線
100
AcDbCircle
 10
859.9998964149726
 20
1570.000034797977
 30
0.0
 40
12.5
  0
LINE
  5
11E4F
330
1F
100
AcDbEntity
  8
中心線
100
AcDbLine
 10
809.9998964149726
 20
1804.999953407812
 30
0.0
 11
809.9998964149726
 21
1734.999990627486
 31
0.0
  0
LINE
  5
11E50
330
1F
100
AcDbEntity
  8
中心線
100
AcDbLine
 10
774.9999150248095
 20
1769.999972017653
 30
0.0
 11
844.9998778051359
 21
1769.999972017653
 31
0.0
  0
CIRCLE
  5
11E51
330
1F
100
AcDbEntity
  8
実線
100
AcDbCircle
 10
809.9998964149726
 20
1769.999972017653
 30
0.0
 40
12.5
  0
LINE
  5
11E52
330
1F
100
AcDbEntity
  8
中心線
100
AcDbLine
 10
809.9998964149726
 20
1485.00005340781
 30
0.0
 11
809.9998964149726
 21
1555.000016188136
 31
0.0
  0
LINE
  5
11E53
330
1F
100
AcDbEntity
  8
中心線
100
AcDbLine
 10
774.9999150248095
 20
1520.000034797976
 30
0.0
 11
844.9998778051359
 21
1520.000034797976
 31
0.0
  0
CIRCLE
  5
11E54
330
1F
100
AcDbEntity
  8
実線
100
AcDbCircle
 10
809.9998964149726
 20
1520.000034797976
 30
0.0
 40
12.5
  0
LINE
  5
11E55
330
1F
100
AcDbEntity
  8
中心線
100
AcDbLine
 10
499.9999009128278
 20
1744.939053086284
 30
0.0
 11
535.999920725937
 21
1744.939053086284
 31
0.0
  0
LINE
  5
11E56
330
1F
100
AcDbEntity
  8
中心線
100
AcDbLine
 10
499.9999009128278
 20
1544.939053086284
 30
0.0
 11
535.999920725937
 21
1544.939053086284
 31
0.0
  0
LINE
  5
11E57
330
1F
100
AcDbEntity
  8
中心線
100
AcDbLine
 10
499.9999009128278
 20
1594.939053086284
 30
0.0
 11
535.999920725937
 21
1594.939053086284
 31
0.0
  0
LINE
  5
11E58
330
1F
100
AcDbEntity
  8
中心線
100
AcDbLine
 10
499.9999009128278
 20
1694.939127736365
 30
0.0
 11
535.999920725937
 21
1694.939127736365
 31
0.0
  0
LINE
  5
11E59
330
1F
100
AcDbEntity
  8
実線
100
AcDbLine
 10
2909.999896414973
 20
1844.999953407798
 30
0.0
 11
2359.999876601841
 21
1844.999953407798
 31
0.0
  0
LINE
  5
11E5A
330
1F
100
AcDbEntity
  8
実線
100
AcDbLine
 10
2890.999896414973
 20
1844.999953407798
 30
0.0
 11
2890.999896414969
 21
1444.999953407798
 31
0.0
  0
LINE
  5
11E5B
330
1F
100
AcDbEntity
  8
実線
100
AcDbLine
 10
2909.999896414973
 20
1844.999953407798
 30
0.0
 11
2909.999896414969
 21
1444.999953407798
 31
0.0
  0
LINE
  5
11E5C
330
1F
100
AcDbEntity
  8
破線
100
AcDbLine
 10
2890.999896414973
 20
1651.499953407798
 30
0.0
 11
2359.999876601841
 21
1651.499953407798
 31
0.0
  0
LINE
  5
11E5D
330
1F
100
AcDbEntity
  8
破線
100
AcDbLine
 10
2880.999896414973
 20
1651.499953407798
 30
0.0
 11
2890.999896414973
 21
1661.499953407798
 31
0.0
  0
LINE
  5
11E5E
330
1F
100
AcDbEntity
  8
仮想線
100
AcDbLine
 10
2883.999896414973
 20
1651.499953407798
 30
0.0
 11
2890.999896414973
 21
1658.499953407798
 31
0.0
  0
LINE
  5
11E5F
330
1F
100
AcDbEntity
  8
破線
100
AcDbLine
 10
2880.999896414973
 20
1638.499953407798
 30
0.0
 11
2890.999896414973
 21
1628.499953407798
 31
0.0
  0
LINE
  5
11E60
330
1F
100
AcDbEntity
  8
仮想線
100
AcDbLine
 10
2883.999896414973
 20
1638.499953407798
 30
0.0
 11
2890.999896414973
 21
1631.499953407798
 31
0.0
  0
LINE
  5
11E61
330
1F
100
AcDbEntity
  8
実線
100
AcDbLine
 10
2359.999896414973
 20
1854.999990627464
 30
0.0
 11
2359.999896414969
 21
1434.999990627464
 31
0.0
  0
LINE
  5
11E62
330
1F
100
AcDbEntity
  8
破線
100
AcDbLine
 10
2479.999876601842
 20
1824.499953407798
 30
0.0
 11
2359.999896414973
 21
1824.499953407798
 31
0.0
  0
LINE
  5
11E63
330
1F
100
AcDbEntity
  8
破線
100
AcDbLine
 10
2479.999876601842
 20
1805.499953407798
 30
0.0
 11
2359.999896414973
 21
1805.499953407798
 31
0.0
  0
LINE
  5
11E64
330
1F
100
AcDbEntity
  8
破線
100
AcDbLine
 10
2479.999876601842
 20
1824.499953407798
 30
0.0
 11
2479.999876601842
 21
1805.499953407798
 31
0.0
  0
LINE
  5
11E65
330
1F
100
AcDbEntity
  8
破線
100
AcDbLine
 10
2479.999876601838
 20
1465.499953407798
 30
0.0
 11
2359.999896414969
 21
1465.499953407798
 31
0.0
  0
LINE
  5
11E66
330
1F
100
AcDbEntity
  8
破線
100
AcDbLine
 10
2479.999876601838
 20
1484.499953407798
 30
0.0
 11
2359.999896414969
 21
1484.499953407798
 31
0.0
  0
LINE
  5
11E67
330
1F
100
AcDbEntity
  8
破線
100
AcDbLine
 10
2479.999876601838
 20
1465.499953407798
 30
0.0
 11
2479.999876601838
 21
1484.499953407798
 31
0.0
  0
LINE
  5
11E68
330
1F
100
AcDbEntity
  8
破線
100
AcDbLine
 10
2890.999896414973
 20
1841.499953407797
 30
0.0
 11
2860.999876601842
 21
1841.499953407797
 31
0.0
  0
LINE
  5
11E69
330
1F
100
AcDbEntity
  8
破線
100
AcDbLine
 10
2690.999896414973
 20
1681.499990627464
 30
0.0
 11
2690.999896414973
 21
1651.499953407798
 31
0.0
  0
LINE
  5
11E6A
330
1F
100
AcDbEntity
  8
破線
100
AcDbLine
 10
2860.999876601842
 20
1841.499953407797
 30
0.0
 11
2690.999896414973
 21
1681.499990627464
 31
0.0
  0
LINE
  5
11E6B
330
1F
100
AcDbEntity
  8
破線
100
AcDbLine
 10
2690.999896414973
 20
1608.499916188131
 30
0.0
 11
2690.999896414973
 21
1638.499953407798
 31
0.0
  0
LINE
  5
11E6C
330
1F
100
AcDbEntity
  8
破線
100
AcDbLine
 10
2860.999876601838
 20
1448.499953407798
 30
0.0
 11
2690.999896414973
 21
1608.499916188131
 31
0.0
  0
LINE
  5
11E6D
330
1F
100
AcDbEntity
  8
破線
100
AcDbLine
 10
2890.999896414969
 20
1448.499953407798
 30
0.0
 11
2860.999876601838
 21
1448.499953407798
 31
0.0
  0
LINE
  5
11E6E
330
1F
100
AcDbEntity
  8
実線
100
AcDbLine
 10
2909.999896414969
 20
1444.999953407798
 30
0.0
 11
2359.999876601838
 21
1444.999953618539
 31
0.0
  0
LINE
  5
11E6F
330
1F
100
AcDbEntity
  8
破線
100
AcDbLine
 10
2890.999896414973
 20
1638.499953618538
 30
0.0
 11
2359.999876601841
 21
1638.499953618538
 31
0.0
  0
LINE
  5
11E70
330
1F
100
AcDbEntity
  8
中心線
100
AcDbLine
 10
2859.999896414973
 20
1754.999953407812
 30
0.0
 11
2859.999896414973
 21
1684.999990627486
 31
0.0
  0
LINE
  5
11E71
330
1F
100
AcDbEntity
  8
中心線
100
AcDbLine
 10
2894.999877805135
 20
1719.999972017653
 30
0.0
 11
2824.99991502481
 21
1719.999972017653
 31
0.0
  0
CIRCLE
  5
11E72
330
1F
100
AcDbEntity
  8
実線
100
AcDbCircle
 10
2859.999896414973
 20
1719.999972017653
 30
0.0
 40
12.5
  0
LINE
  5
11E73
330
1F
100
AcDbEntity
  8
中心線
100
AcDbLine
 10
2859.999896414973
 20
1535.00005340781
 30
0.0
 11
2859.999896414973
 21
1605.000016188136
 31
0.0
  0
LINE
  5
11E74
330
1F
100
AcDbEntity
  8
中心線
100
AcDbLine
 10
2894.999877805135
 20
1570.000034797977
 30
0.0
 11
2824.99991502481
 21
1570.000034797977
 31
0.0
  0
CIRCLE
  5
11E75
330
1F
100
AcDbEntity
  8
実線
100
AcDbCircle
 10
2859.999896414973
 20
1570.000034797977
 30
0.0
 40
12.5
  0
LINE
  5
11E76
330
1F
100
AcDbEntity
  8
中心線
100
AcDbLine
 10
2759.999896414973
 20
1754.999953407812
 30
0.0
 11
2759.999896414973
 21
1684.999990627486
 31
0.0
  0
LINE
  5
11E77
330
1F
100
AcDbEntity
  8
中心線
100
AcDbLine
 10
2794.999877805136
 20
1719.999972017653
 30
0.0
 11
2724.99991502481
 21
1719.999972017653
 31
0.0
  0
CIRCLE
  5
11E78
330
1F
100
AcDbEntity
  8
実線
100
AcDbCircle
 10
2759.999896414973
 20
1719.999972017653
 30
0.0
 40
12.5
  0
LINE
  5
11E79
330
1F
100
AcDbEntity
  8
中心線
100
AcDbLine
 10
2759.999896414973
 20
1535.00005340781
 30
0.0
 11
2759.999896414973
 21
1605.000016188136
 31
0.0
  0
LINE
  5
11E7A
330
1F
100
AcDbEntity
  8
中心線
100
AcDbLine
 10
2794.999877805136
 20
1570.000034797977
 30
0.0
 11
2724.99991502481
 21
1570.000034797977
 31
0.0
  0
CIRCLE
  5
11E7B
330
1F
100
AcDbEntity
  8
実線
100
AcDbCircle
 10
2759.999896414973
 20
1570.000034797977
 30
0.0
 40
12.5
  0
LINE
  5
11E7C
330
1F
100
AcDbEntity
  8
中心線
100
AcDbLine
 10
2659.999896414973
 20
1754.999953407812
 30
0.0
 11
2659.999896414973
 21
1684.999990627486
 31
0.0
  0
LINE
  5
11E7D
330
1F
100
AcDbEntity
  8
中心線
100
AcDbLine
 10
2694.999877805136
 20
1719.999972017653
 30
0.0
 11
2624.99991502481
 21
1719.999972017653
 31
0.0
  0
CIRCLE
  5
11E7E
330
1F
100
AcDbEntity
  8
実線
100
AcDbCircle
 10
2659.999896414973
 20
1719.999972017653
 30
0.0
 40
12.5
  0
LINE
  5
11E7F
330
1F
100
AcDbEntity
  8
中心線
100
AcDbLine
 10
2659.999896414973
 20
1535.00005340781
 30
0.0
 11
2659.999896414973
 21
1605.000016188136
 31
0.0
  0
LINE
  5
11E80
330
1F
100
AcDbEntity
  8
中心線
100
AcDbLine
 10
2694.999877805136
 20
1570.000034797977
 30
0.0
 11
2624.99991502481
 21
1570.000034797977
 31
0.0
  0
CIRCLE
  5
11E81
330
1F
100
AcDbEntity
  8
実線
100
AcDbCircle
 10
2659.999896414973
 20
1570.000034797977
 30
0.0
 40
12.5
  0
LINE
  5
11E82
330
1F
100
AcDbEntity
  8
中心線
100
AcDbLine
 10
2809.999896414973
 20
1804.999953407812
 30
0.0
 11
2809.999896414973
 21
1734.999990627486
 31
0.0
  0
LINE
  5
11E83
330
1F
100
AcDbEntity
  8
中心線
100
AcDbLine
 10
2844.999877805136
 20
1769.999972017653
 30
0.0
 11
2774.99991502481
 21
1769.999972017653
 31
0.0
  0
CIRCLE
  5
11E84
330
1F
100
AcDbEntity
  8
実線
100
AcDbCircle
 10
2809.999896414973
 20
1769.999972017653
 30
0.0
 40
12.5
  0
LINE
  5
11E85
330
1F
100
AcDbEntity
  8
中心線
100
AcDbLine
 10
2709.999896414973
 20
1804.999953407812
 30
0.0
 11
2709.999896414973
 21
1734.999990627486
 31
0.0
  0
LINE
  5
11E86
330
1F
100
AcDbEntity
  8
中心線
100
AcDbLine
 10
2744.999877805136
 20
1769.999972017653
 30
0.0
 11
2674.99991502481
 21
1769.999972017653
 31
0.0
  0
CIRCLE
  5
11E87
330
1F
100
AcDbEntity
  8
実線
100
AcDbCircle
 10
2709.999896414973
 20
1769.999972017653
 30
0.0
 40
12.5
  0
LINE
  5
11E88
330
1F
100
AcDbEntity
  8
中心線
100
AcDbLine
 10
2809.999896414969
 20
1485.00005340781
 30
0.0
 11
2809.999896414973
 21
1555.000016188136
 31
0.0
  0
LINE
  5
11E89
330
1F
100
AcDbEntity
  8
中心線
100
AcDbLine
 10
2844.999877805133
 20
1520.000034797976
 30
0.0
 11
2774.999915024806
 21
1520.000034797976
 31
0.0
  0
CIRCLE
  5
11E8A
330
1F
100
AcDbEntity
  8
実線
100
AcDbCircle
 10
2809.999896414969
 20
1520.000034797976
 30
0.0
 40
12.5
  0
LINE
  5
11E8B
330
1F
100
AcDbEntity
  8
中心線
100
AcDbLine
 10
2709.999896414969
 20
1485.00005340781
 30
0.0
 11
2709.999896414973
 21
1555.000016188136
 31
0.0
  0
LINE
  5
11E8C
330
1F
100
AcDbEntity
  8
中心線
100
AcDbLine
 10
2744.999877805132
 20
1520.000034797976
 30
0.0
 11
2674.999915024806
 21
1520.000034797976
 31
0.0
  0
CIRCLE
  5
11E8D
330
1F
100
AcDbEntity
  8
実線
100
AcDbCircle
 10
2709.999896414969
 20
1520.000034797976
 30
0.0
 40
12.5
  0
LINE
  5
11E8E
330
1F
100
AcDbEntity
  8
中心線
100
AcDbLine
 10
2559.999896414973
 20
1754.999953407812
 30
0.0
 11
2559.999896414973
 21
1684.999990627486
 31
0.0
  0
LINE
  5
11E8F
330
1F
100
AcDbEntity
  8
中心線
100
AcDbLine
 10
2594.999877805136
 20
1719.999972017653
 30
0.0
 11
2524.99991502481
 21
1719.999972017653
 31
0.0
  0
CIRCLE
  5
11E90
330
1F
100
AcDbEntity
  8
実線
100
AcDbCircle
 10
2559.999896414973
 20
1719.999972017653
 30
0.0
 40
12.5
  0
LINE
  5
11E91
330
1F
100
AcDbEntity
  8
中心線
100
AcDbLine
 10
2559.999896414973
 20
1535.00005340781
 30
0.0
 11
2559.999896414973
 21
1605.000016188136
 31
0.0
  0
LINE
  5
11E92
330
1F
100
AcDbEntity
  8
中心線
100
AcDbLine
 10
2594.999877805136
 20
1570.000034797977
 30
0.0
 11
2524.99991502481
 21
1570.000034797977
 31
0.0
  0
CIRCLE
  5
11E93
330
1F
100
AcDbEntity
  8
実線
100
AcDbCircle
 10
2559.999896414973
 20
1570.000034797977
 30
0.0
 40
12.5
  0
LINE
  5
11E94
330
1F
100
AcDbEntity
  8
中心線
100
AcDbLine
 10
2609.999896414973
 20
1804.999953407812
 30
0.0
 11
2609.999896414973
 21
1734.999990627486
 31
0.0
  0
LINE
  5
11E95
330
1F
100
AcDbEntity
  8
中心線
100
AcDbLine
 10
2644.999877805136
 20
1769.999972017653
 30
0.0
 11
2574.99991502481
 21
1769.999972017653
 31
0.0
  0
CIRCLE
  5
11E96
330
1F
100
AcDbEntity
  8
実線
100
AcDbCircle
 10
2609.999896414973
 20
1769.999972017653
 30
0.0
 40
12.5
  0
LINE
  5
11E97
330
1F
100
AcDbEntity
  8
中心線
100
AcDbLine
 10
2609.999896414969
 20
1485.00005340781
 30
0.0
 11
2609.999896414973
 21
1555.000016188136
 31
0.0
  0
LINE
  5
11E98
330
1F
100
AcDbEntity
  8
中心線
100
AcDbLine
 10
2644.999877805132
 20
1520.000034797976
 30
0.0
 11
2574.999915024806
 21
1520.000034797976
 31
0.0
  0
CIRCLE
  5
11E99
330
1F
100
AcDbEntity
  8
実線
100
AcDbCircle
 10
2609.999896414969
 20
1520.000034797976
 30
0.0
 40
12.5
  0
LINE
  5
11E9A
330
1F
100
AcDbEntity
  8
中心線
100
AcDbLine
 10
2919.999891917117
 20
1744.939053086284
 30
0.0
 11
2883.999872104008
 21
1744.939053086284
 31
0.0
  0
LINE
  5
11E9B
330
1F
100
AcDbEntity
  8
中心線
100
AcDbLine
 10
2919.999891917117
 20
1544.939053086284
 30
0.0
 11
2883.999872104008
 21
1544.939053086284
 31
0.0
  0
LINE
  5
11E9C
330
1F
100
AcDbEntity
  8
中心線
100
AcDbLine
 10
2919.999891917117
 20
1594.939053086284
 30
0.0
 11
2883.999872104008
 21
1594.939053086284
 31
0.0
  0
LINE
  5
11E9D
330
1F
100
AcDbEntity
  8
中心線
100
AcDbLine
 10
2919.999891917117
 20
1694.939127736365
 30
0.0
 11
2883.999872104008
 21
1694.939127736365
 31
0.0
  0
DIMENSION
  5
11E9E
330
1F
100
AcDbEntity
  8
寸法線
100
AcDbDimension
280
     0
  2
*D18
 10
2559.99987660184
 20
1805.499953407799
 30
0.0
 11
2559.99987660184
 21
1814.999953407798
 31
0.0
 70
   160
 71
     5
 42
19.0
 73
     0
 74
     0
 75
     0
  3
STANDARD
100
AcDbAlignedDimension
 13
2479.999876601842
 23
1824.499953407798
 33
0.0
 14
2479.999876601842
 24
1805.499953407798
 34
0.0
 50
270.0
100
AcDbRotatedDimension
1001
ACAD
1000
DSTYLE
1002
{
1070
   271
1070
     1
1002
}
  0
DIMENSION
  5
11E9F
330
1F
100
AcDbEntity
  8
寸法線
100
AcDbDimension
280
     0
  2
*D19
 10
2559.99987660184
 20
1444.999953611147
 30
0.0
 11
2559.99987660184
 21
1459.999987565174
 31
0.0
 70
   160
 71
     5
 42
30.00006790805583
 73
     0
 74
     0
 75
     0
  3
STANDARD
100
AcDbAlignedDimension
 13
2487.999900181439
 23
1475.000021519202
 33
0.0
 14
2359.999896414973
 24
1444.999953611146
 34
0.0
 50
270.0
100
AcDbRotatedDimension
1001
ACAD
1000
DSTYLE
1002
{
1070
   271
1070
     1
1002
}
  0
LINE
  5
11EA0
330
1F
100
AcDbEntity
  8
実線
100
AcDbLine
 10
3810.000123398137
 20
2445.000000000003
 30
0.0
 11
3810.000123398137
 21
2045.000000000002
 31
0.0
  0
LINE
  5
11EA1
330
1F
100
AcDbEntity
  8
中心線
100
AcDbLine
 10
3610.000123398137
 20
2461.000000000003
 30
0.0
 11
3610.000123398137
 21
2028.999999999998
 31
0.0
  0
LINE
  5
11EA2
330
1F
100
AcDbEntity
  8
中心線
100
AcDbLine
 10
3385.000123398135
 20
2245.000000000002
 30
0.0
 11
3835.000123398137
 21
2245.000000000002
 31
0.0
  0
LINE
  5
11EA3
330
1F
100
AcDbEntity
  8
実線
100
AcDbLine
 10
3410.000123398137
 20
2053.999980186893
 30
0.0
 11
3810.000123398137
 21
2053.999980186893
 31
0.0
  0
LINE
  5
11EA4
330
1F
100
AcDbEntity
  8
実線
100
AcDbLine
 10
3410.000123398137
 20
2435.999980186893
 30
0.0
 11
3810.000123398137
 21
2435.999980186893
 31
0.0
  0
LINE
  5
11EA5
330
1F
100
AcDbEntity
  8
中心線
100
AcDbLine
 10
3560.0001047883
 20
2135.000018609839
 30
0.0
 11
3560.0001047883
 21
2204.999981390161
 31
0.0
  0
CIRCLE
  5
11EA6
330
1F
100
AcDbEntity
  8
実線
100
AcDbCircle
 10
3560.0001047883
 20
2169.999999999999
 30
0.0
 40
12.5
  0
LINE
  5
11EA7
330
1F
100
AcDbEntity
  8
中心線
100
AcDbLine
 10
3595.000086178463
 20
2169.999999999999
 30
0.0
 11
3525.000123398136
 21
2169.999999999999
 31
0.0
  0
LINE
  5
11EA8
330
1F
100
AcDbEntity
  8
中心線
100
AcDbLine
 10
3510.0001047883
 20
2110.000018609839
 30
0.0
 11
3510.0001047883
 21
2179.999981390166
 31
0.0
  0
CIRCLE
  5
11EA9
330
1F
100
AcDbEntity
  8
実線
100
AcDbCircle
 10
3510.0001047883
 20
2144.999999999999
 30
0.0
 40
12.5
  0
LINE
  5
11EAA
330
1F
100
AcDbEntity
  8
中心線
100
AcDbLine
 10
3545.000086178463
 20
2144.999999999999
 30
0.0
 11
3475.000123398137
 21
2144.999999999999
 31
0.0
  0
LINE
  5
11EAB
330
1F
100
AcDbEntity
  8
中心線
100
AcDbLine
 10
3560.0001047883
 20
2354.999981390164
 30
0.0
 11
3560.0001047883
 21
2285.000018609839
 31
0.0
  0
CIRCLE
  5
11EAC
330
1F
100
AcDbEntity
  8
実線
100
AcDbCircle
 10
3560.0001047883
 20
2320.000000000003
 30
0.0
 40
12.5
  0
LINE
  5
11EAD
330
1F
100
AcDbEntity
  8
中心線
100
AcDbLine
 10
3595.000086178463
 20
2320.000000000003
 30
0.0
 11
3525.000123398136
 21
2320.000000000003
 31
0.0
  0
LINE
  5
11EAE
330
1F
100
AcDbEntity
  8
中心線
100
AcDbLine
 10
3510.0001047883
 20
2379.999981390165
 30
0.0
 11
3510.0001047883
 21
2310.000018609839
 31
0.0
  0
CIRCLE
  5
11EAF
330
1F
100
AcDbEntity
  8
実線
100
AcDbCircle
 10
3510.0001047883
 20
2345.000000000002
 30
0.0
 40
12.5
  0
LINE
  5
11EB0
330
1F
100
AcDbEntity
  8
中心線
100
AcDbLine
 10
3545.000086178463
 20
2345.000000000002
 30
0.0
 11
3475.000123398137
 21
2345.000000000002
 31
0.0
  0
LINE
  5
11EB1
330
1F
100
AcDbEntity
  8
中心線
100
AcDbLine
 10
3660.000142007973
 20
2135.000018609839
 30
0.0
 11
3660.000142007973
 21
2204.999981390161
 31
0.0
  0
CIRCLE
  5
11EB2
330
1F
100
AcDbEntity
  8
実線
100
AcDbCircle
 10
3660.000142007973
 20
2169.999999999999
 30
0.0
 40
12.5
  0
LINE
  5
11EB3
330
1F
100
AcDbEntity
  8
中心線
100
AcDbLine
 10
3625.000160617811
 20
2169.999999999999
 30
0.0
 11
3695.000123398135
 21
2169.999999999999
 31
0.0
  0
LINE
  5
11EB4
330
1F
100
AcDbEntity
  8
中心線
100
AcDbLine
 10
3710.000142007974
 20
2110.000018609839
 30
0.0
 11
3710.000142007974
 21
2179.999981390166
 31
0.0
  0
CIRCLE
  5
11EB5
330
1F
100
AcDbEntity
  8
実線
100
AcDbCircle
 10
3710.000142007974
 20
2144.999999999999
 30
0.0
 40
12.5
  0
LINE
  5
11EB6
330
1F
100
AcDbEntity
  8
中心線
100
AcDbLine
 10
3675.000160617809
 20
2144.999999999999
 30
0.0
 11
3745.000123398135
 21
2144.999999999999
 31
0.0
  0
LINE
  5
11EB7
330
1F
100
AcDbEntity
  8
中心線
100
AcDbLine
 10
3660.000142007973
 20
2354.999981390164
 30
0.0
 11
3660.000142007973
 21
2285.000018609839
 31
0.0
  0
CIRCLE
  5
11EB8
330
1F
100
AcDbEntity
  8
実線
100
AcDbCircle
 10
3660.000142007973
 20
2320.000000000003
 30
0.0
 40
12.5
  0
LINE
  5
11EB9
330
1F
100
AcDbEntity
  8
中心線
100
AcDbLine
 10
3625.000160617811
 20
2320.000000000003
 30
0.0
 11
3695.000123398135
 21
2320.000000000003
 31
0.0
  0
LINE
  5
11EBA
330
1F
100
AcDbEntity
  8
中心線
100
AcDbLine
 10
3710.000142007974
 20
2379.999981390165
 30
0.0
 11
3710.000142007974
 21
2310.000018609839
 31
0.0
  0
CIRCLE
  5
11EBB
330
1F
100
AcDbEntity
  8
実線
100
AcDbCircle
 10
3710.000142007974
 20
2345.000000000002
 30
0.0
 40
12.5
  0
LINE
  5
11EBC
330
1F
100
AcDbEntity
  8
中心線
100
AcDbLine
 10
3675.000160617809
 20
2345.000000000002
 30
0.0
 11
3745.000123398135
 21
2345.000000000002
 31
0.0
  0
LINE
  5
11EBD
330
1F
100
AcDbEntity
  8
破線
100
AcDbLine
 10
3410.000123398137
 20
2065.999980186893
 30
0.0
 11
3581.500086178464
 21
2065.999980186893
 31
0.0
  0
LINE
  5
11EBE
330
1F
100
AcDbEntity
  8
破線
100
AcDbLine
 10
3810.000123398137
 20
2065.999980186893
 30
0.0
 11
3638.500160617813
 21
2065.999980186893
 31
0.0
  0
LINE
  5
11EBF
330
1F
100
AcDbEntity
  8
破線
100
AcDbLine
 10
3410.000123398137
 20
2423.999980186893
 30
0.0
 11
3581.500086178464
 21
2423.999980186893
 31
0.0
  0
LINE
  5
11EC0
330
1F
100
AcDbEntity
  8
破線
100
AcDbLine
 10
3810.000123398137
 20
2423.999980186893
 30
0.0
 11
3638.500160617813
 21
2423.999980186893
 31
0.0
  0
LINE
  5
11EC1
330
1F
100
AcDbEntity
  8
破線
100
AcDbLine
 10
3603.500123398135
 20
2402.000000000002
 30
0.0
 11
3603.500123398135
 21
2087.999999999999
 31
0.0
  0
LINE
  5
11EC2
330
1F
100
AcDbEntity
  8
破線
100
AcDbLine
 10
3616.500123398136
 20
2402.000000000002
 30
0.0
 11
3616.500123398136
 21
2087.999999999999
 31
0.0
  0
ARC
  5
11EC3
330
1F
100
AcDbEntity
  8
破線
100
AcDbCircle
 10
3581.500123398137
 20
2087.999999999999
 30
0.0
 40
22.0
100
AcDbArc
 50
269.9999030668841
 51
0.0
  0
ARC
  5
11EC4
330
1F
100
AcDbEntity
  8
破線
100
AcDbCircle
 10
3638.500123398137
 20
2087.999999999999
 30
0.0
 40
22.0
100
AcDbArc
 50
180.0
 51
270.0000969331159
  0
ARC
  5
11EC5
330
1F
100
AcDbEntity
  8
破線
100
AcDbCircle
 10
3581.500123398137
 20
2401.999999999999
 30
0.0
 40
22.0
100
AcDbArc
 50
0.0
 51
90.00009693311588
  0
ARC
  5
11EC6
330
1F
100
AcDbEntity
  8
破線
100
AcDbCircle
 10
3638.500123398137
 20
2401.999999999999
 30
0.0
 40
22.0
100
AcDbArc
 50
89.99990306688411
 51
180.0
  0
LINE
  5
11EC7
330
1F
100
AcDbEntity
  8
破線
100
AcDbLine
 10
3413.500086178463
 20
2239.000000000002
 30
0.0
 11
3603.500123398135
 21
2239.000000000002
 31
0.0
  0
LINE
  5
11EC8
330
1F
100
AcDbEntity
  8
破線
100
AcDbLine
 10
3413.500086178463
 20
2251.000000000002
 30
0.0
 11
3603.500123398135
 21
2251.000000000002
 31
0.0
  0
LINE
  5
11EC9
330
1F
100
AcDbEntity
  8
破線
100
AcDbLine
 10
3806.50016061781
 20
2239.000000000002
 30
0.0
 11
3616.500123398136
 21
2239.000000000002
 31
0.0
  0
LINE
  5
11ECA
330
1F
100
AcDbEntity
  8
破線
100
AcDbLine
 10
3806.50016061781
 20
2251.000000000002
 30
0.0
 11
3616.500123398136
 21
2251.000000000002
 31
0.0
  0
LINE
  5
11ECB
330
1F
100
AcDbEntity
  8
破線
 48
10.0
100
AcDbLine
 10
3806.50016061781
 20
2251.000000000002
 30
0.0
 11
3806.50016061781
 21
2239.000000000002
 31
0.0
  0
LINE
  5
11ECC
330
1F
100
AcDbEntity
  8
実線
100
AcDbLine
 10
3410.000123398137
 20
2445.000000000003
 30
0.0
 11
3810.000123398137
 21
2445.000000000003
 31
0.0
  0
LINE
  5
11ECD
330
1F
100
AcDbEntity
  8
実線
100
AcDbLine
 10
3410.000123398137
 20
2045.000000000002
 30
0.0
 11
3810.000123398137
 21
2045.000000000002
 31
0.0
  0
LINE
  5
11ECE
330
1F
100
AcDbEntity
  8
実線
100
AcDbLine
 10
3410.000123398137
 20
2445.000000000003
 30
0.0
 11
3410.000123398137
 21
2045.000000000002
 31
0.0
  0
LEADER
  5
11ECF
330
1F
100
AcDbEntity
  8
寸法線
100
AcDbLeader
  3
STANDARD
 76
     3
 10
3517.533039636506
 20
2354.975213911127
 30
0.0
 10
3645.929848727443
 20
2525.000000000002
 30
0.0
 10
3838.508139487707
 20
2525.000000000002
 30
0.0
211
1.0
221
0.0000000000000002
231
0.0
1001
ACAD
1000
DSTYLE
1002
{
1070
   147
1040
0.875
1070
    77
1070
     0
1002
}
  0
TEXT
  5
11ED0
330
1F
100
AcDbEntity
  8
寸法線
100
AcDbText
 10
3654.679848727442
 20
2533.750000000003
 30
0.0
 40
25.0
  1
主材連結用孔
 72
     2
 11
3828.013182060775
 21
2558.750000000003
 31
0.0
100
AcDbText
 73
     3
  0
LINE
  5
11ED1
330
1F
100
AcDbEntity
  8
破線
 48
10.0
100
AcDbLine
 10
3413.500086178463
 20
2251.000000000002
 30
0.0
 11
3413.500086178463
 21
2239.000000000002
 31
0.0
  0
DIMENSION
  5
11ED2
330
1F
100
AcDbEntity
  8
寸法線
100
AcDbDimension
280
     0
  2
*D14
 10
3410.000123398134
 20
1924.999980186892
 30
0.0
 11
3610.000123398137
 21
1924.999980186892
 31
0.0
 70
   160
 71
     5
 42
400.0
 73
     0
 74
     0
 75
     0
  3
STANDARD
100
AcDbAlignedDimension
 13
3810.000123398135
 23
2044.999980186892
 33
0.0
 14
3410.000123398134
 24
2044.999980186892
 34
0.0
100
AcDbRotatedDimension
  0
DIMENSION
  5
11ED3
330
1F
100
AcDbEntity
  8
寸法線
100
AcDbDimension
280
     0
  2
*D15
 10
3290.000123398134
 20
2045.000019813109
 30
0.0
 11
3290.000123398134
 21
2245.0
 31
0.0
 70
   160
 71
     5
 42
400.0000000000002
 73
     0
 74
     0
 75
     0
  3
STANDARD
100
AcDbAlignedDimension
 13
3410.000123398134
 23
2445.000019813109
 33
0.0
 14
3410.000123398134
 24
2045.000019813108
 34
0.0
 50
270.0
100
AcDbRotatedDimension
  0
TEXT
  5
11ED4
330
1F
100
AcDbEntity
  8
寸法線
100
AcDbText
 10
2704.125206821584
 20
2137.429275362126
 30
0.0
 40
25.0
  1
ｴﾝﾄﾞﾌﾟﾚｰﾄ
 11
2704.125206821584
 21
2137.429275362126
 31
0.0
100
AcDbText
 73
     1
  0
LINE
  5
11ED5
330
1F
100
AcDbEntity
  8
寸法線
100
AcDbLine
 10
2890.999886508387
 20
2131.499981171423
 30
0.0
 11
2696.835147233651
 21
2131.499981171423
 31
0.0
  0
INSERT
  5
11ED6
330
1F
100
AcDbEntity
  8
寸法線
100
AcDbBlockReference
  2
_OPEN
 10
2890.999886508387
 20
2131.499981171423
 30
0.0
 41
20.0
 42
20.0
 43
20.0
  0
LINE
  5
11ED7
330
1F
100
AcDbEntity
  8
実線
100
AcDbLine
 10
2909.999896414943
 20
2435.999981745051
 30
0.0
 11
2909.999896414943
 21
2053.999981745051
 31
0.0
  0
LINE
  5
11ED8
330
1F
100
AcDbEntity
  8
実線
100
AcDbLine
 10
2890.999896414943
 20
2444.99994452537
 30
0.0
 11
2890.999896414943
 21
2044.99994452537
 31
0.0
  0
LINE
  5
11ED9
330
1F
100
AcDbEntity
  8
実線
100
AcDbLine
 10
2890.999896414943
 20
2444.99994452537
 30
0.0
 11
2359.999876601841
 21
2444.99994452537
 31
0.0
  0
LINE
  5
11EDA
330
1F
100
AcDbEntity
  8
実線
100
AcDbLine
 10
2890.999896414943
 20
2423.99994452537
 30
0.0
 11
2359.999876601841
 21
2423.99994452537
 31
0.0
  0
LINE
  5
11EDB
330
1F
100
AcDbEntity
  8
実線
100
AcDbLine
 10
2479.999896414943
 20
2423.99994452537
 30
0.0
 11
2479.999896414943
 21
2393.999981745051
 31
0.0
  0
LINE
  5
11EDC
330
1F
100
AcDbEntity
  8
実線
100
AcDbLine
 10
2399.999876601841
 20
2353.99994452537
 30
0.0
 11
2359.999876601841
 21
2353.99994452537
 31
0.0
  0
LINE
  5
11EDD
330
1F
100
AcDbEntity
  8
実線
100
AcDbLine
 10
2479.999896414943
 20
2393.999981745051
 30
0.0
 11
2399.999876601841
 21
2353.99994452537
 31
0.0
  0
LINE
  5
11EDE
330
1F
100
AcDbEntity
  8
実線
100
AcDbLine
 10
2371.999872639223
 20
2423.99994452537
 30
0.0
 11
2359.999872639223
 21
2411.99994452537
 31
0.0
  0
LINE
  5
11EDF
330
1F
100
AcDbEntity
  8
仮想線
100
AcDbLine
 10
2368.999876601841
 20
2423.99994452537
 30
0.0
 11
2359.999876601841
 21
2414.99994452537
 31
0.0
  0
LINE
  5
11EE0
330
1F
100
AcDbEntity
  8
実線
100
AcDbLine
 10
2479.999896414943
 20
2065.99994452537
 30
0.0
 11
2479.999896414943
 21
2095.999907305703
 31
0.0
  0
LINE
  5
11EE1
330
1F
100
AcDbEntity
  8
実線
100
AcDbLine
 10
2399.999876601841
 20
2135.99994452537
 30
0.0
 11
2359.999876601841
 21
2135.99994452537
 31
0.0
  0
LINE
  5
11EE2
330
1F
100
AcDbEntity
  8
実線
100
AcDbLine
 10
2479.999896414943
 20
2095.999907305703
 30
0.0
 11
2399.999876601841
 21
2135.99994452537
 31
0.0
  0
LINE
  5
11EE3
330
1F
100
AcDbEntity
  8
実線
100
AcDbLine
 10
2371.999872639223
 20
2065.99994452537
 30
0.0
 11
2359.999872639223
 21
2077.99994452537
 31
0.0
  0
LINE
  5
11EE4
330
1F
100
AcDbEntity
  8
仮想線
100
AcDbLine
 10
2368.999876601841
 20
2065.99994452537
 30
0.0
 11
2359.999876601841
 21
2074.99994452537
 31
0.0
  0
LINE
  5
11EE5
330
1F
100
AcDbEntity
  8
実線
100
AcDbLine
 10
2909.999896414943
 20
2435.999981745051
 30
0.0
 11
2890.999896414943
 21
2435.999981745051
 31
0.0
  0
LINE
  5
11EE6
330
1F
100
AcDbEntity
  8
実線
100
AcDbLine
 10
2909.999896414943
 20
2054.000007305694
 30
0.0
 11
2890.999896414943
 21
2054.000007305694
 31
0.0
  0
LINE
  5
11EE7
330
1F
100
AcDbEntity
  8
仮想線
100
AcDbLine
 10
2890.999896414943
 20
2444.99994452537
 30
0.0
 11
2899.999859195276
 21
2435.999981745051
 31
0.0
  0
LINE
  5
11EE8
330
1F
100
AcDbEntity
  8
仮想線
100
AcDbLine
 10
2890.999896414943
 20
2044.99994452537
 30
0.0
 11
2899.999959195266
 21
2054.000007305694
 31
0.0
  0
LINE
  5
11EE9
330
1F
100
AcDbEntity
  8
実線
100
AcDbLine
 10
2890.999896414943
 20
2250.99994452537
 30
0.0
 11
2690.999876601841
 21
2250.99994452537
 31
0.0
  0
LINE
  5
11EEA
330
1F
100
AcDbEntity
  8
実線
100
AcDbLine
 10
2890.999896414943
 20
2238.99994452537
 30
0.0
 11
2690.999876601841
 21
2238.99994452537
 31
0.0
  0
LINE
  5
11EEB
330
1F
100
AcDbEntity
  8
実線
100
AcDbLine
 10
2690.999876601841
 20
2250.99994452537
 30
0.0
 11
2690.999876601841
 21
2238.99994452537
 31
0.0
  0
LINE
  5
11EEC
330
1F
100
AcDbEntity
  8
仮想線
100
AcDbLine
 10
2359.999894433641
 20
2453.999978023079
 30
0.0
 11
2368.99992793135
 21
2444.99994452537
 31
0.0
  0
LINE
  5
11EED
330
1F
100
AcDbEntity
  8
仮想線
100
AcDbLine
 10
2359.999894433641
 20
2035.999978023078
 30
0.0
 11
2368.999860935933
 21
2044.99994452537
 31
0.0
  0
LINE
  5
11EEE
330
1F
100
AcDbEntity
  8
実線
100
AcDbLine
 10
2890.999896414943
 20
2044.99994452537
 30
0.0
 11
2359.999813335483
 21
2045.000208763936
 31
0.0
  0
LINE
  5
11EEF
330
1F
100
AcDbEntity
  8
実線
100
AcDbLine
 10
2890.999896414943
 20
2066.00004079163
 30
0.0
 11
2359.999819978462
 21
2066.000208763936
 31
0.0
  0
LINE
  5
11EF0
330
1F
100
AcDbEntity
  8
実線
100
AcDbLine
 10
2359.999896414972
 20
2454.999981745036
 30
0.0
 11
2359.999896414972
 21
2034.999981745036
 31
0.0
  0
LINE
  5
11EF1
330
1F
100
AcDbEntity
  8
中心線
100
AcDbLine
 10
2859.999896414943
 20
2454.999981741821
 30
0.0
 11
2859.999896414943
 21
2413.999981741821
 31
0.0
  0
LINE
  5
11EF2
330
1F
100
AcDbEntity
  8
中心線
100
AcDbLine
 10
2859.999896414943
 20
2034.999981748296
 30
0.0
 11
2859.999896414943
 21
2075.999981748296
 31
0.0
  0
LINE
  5
11EF3
330
1F
100
AcDbEntity
  8
中心線
100
AcDbLine
 10
2919.999891917091
 20
2344.999944420014
 30
0.0
 11
2883.999872103986
 21
2344.999944420014
 31
0.0
  0
LINE
  5
11EF4
330
1F
100
AcDbEntity
  8
中心線
100
AcDbLine
 10
2919.999891917091
 20
2144.999944420014
 30
0.0
 11
2883.999872103986
 21
2144.999944420014
 31
0.0
  0
LINE
  5
11EF5
330
1F
100
AcDbEntity
  8
中心線
100
AcDbLine
 10
2919.999891917091
 20
2169.999944420014
 30
0.0
 11
2883.999872103986
 21
2169.999944420014
 31
0.0
  0
LINE
  5
11EF6
330
1F
100
AcDbEntity
  8
中心線
100
AcDbLine
 10
2919.999891917091
 20
2320.000019070088
 30
0.0
 11
2883.999872103986
 21
2320.000019070088
 31
0.0
  0
LINE
  5
11EF7
330
1F
100
AcDbEntity
  8
中心線
100
AcDbLine
 10
2809.999896414943
 20
2454.999981741821
 30
0.0
 11
2809.999896414943
 21
2413.999981741821
 31
0.0
  0
LINE
  5
11EF8
330
1F
100
AcDbEntity
  8
中心線
100
AcDbLine
 10
2809.999896414943
 20
2034.999981748296
 30
0.0
 11
2809.999896414943
 21
2075.999981748296
 31
0.0
  0
LINE
  5
11EF9
330
1F
100
AcDbEntity
  8
中心線
100
AcDbLine
 10
2759.999896414943
 20
2454.999981741821
 30
0.0
 11
2759.999896414943
 21
2413.999981741821
 31
0.0
  0
LINE
  5
11EFA
330
1F
100
AcDbEntity
  8
中心線
100
AcDbLine
 10
2759.999896414943
 20
2034.999981748296
 30
0.0
 11
2759.999896414943
 21
2075.999981748296
 31
0.0
  0
LINE
  5
11EFB
330
1F
100
AcDbEntity
  8
中心線
100
AcDbLine
 10
2709.999896414943
 20
2454.999981741821
 30
0.0
 11
2709.999896414943
 21
2413.999981741821
 31
0.0
  0
LINE
  5
11EFC
330
1F
100
AcDbEntity
  8
中心線
100
AcDbLine
 10
2709.999896414943
 20
2034.999981748296
 30
0.0
 11
2709.999896414943
 21
2075.999981748296
 31
0.0
  0
LINE
  5
11EFD
330
1F
100
AcDbEntity
  8
中心線
100
AcDbLine
 10
2659.999896414943
 20
2454.999981741821
 30
0.0
 11
2659.999896414943
 21
2413.999981741821
 31
0.0
  0
LINE
  5
11EFE
330
1F
100
AcDbEntity
  8
中心線
100
AcDbLine
 10
2659.999896414943
 20
2034.999981748296
 30
0.0
 11
2659.999896414943
 21
2075.999981748296
 31
0.0
  0
LINE
  5
11EFF
330
1F
100
AcDbEntity
  8
中心線
100
AcDbLine
 10
2609.999896414943
 20
2454.999981741821
 30
0.0
 11
2609.999896414943
 21
2413.999981741821
 31
0.0
  0
LINE
  5
11F00
330
1F
100
AcDbEntity
  8
中心線
100
AcDbLine
 10
2609.999896414943
 20
2034.999981748296
 30
0.0
 11
2609.999896414943
 21
2075.999981748296
 31
0.0
  0
LINE
  5
11F01
330
1F
100
AcDbEntity
  8
中心線
100
AcDbLine
 10
2559.999896414943
 20
2454.999981741821
 30
0.0
 11
2559.999896414943
 21
2413.999981741821
 31
0.0
  0
LINE
  5
11F02
330
1F
100
AcDbEntity
  8
中心線
100
AcDbLine
 10
2559.999896414943
 20
2034.999981748296
 30
0.0
 11
2559.999896414943
 21
2075.999981748296
 31
0.0
  0
DIMENSION
  5
11F03
330
1F
100
AcDbEntity
  8
寸法線
100
AcDbDimension
280
     0
  2
*D16
 10
2590.999891036831
 20
2238.999978391803
 30
0.0
 11
2590.999891036831
 21
2244.999978391802
 31
0.0
 70
   160
 71
     5
 42
12.0
 73
     0
 74
     0
 75
     0
  3
STANDARD
100
AcDbAlignedDimension
 13
2690.999876601841
 23
2250.999978391802
 33
0.0
 14
2690.999876601841
 24
2238.999978391802
 34
0.0
 50
90.0
100
AcDbRotatedDimension
1001
ACAD
1000
DSTYLE
1002
{
1070
   140
1040
2.5
1002
}
  0
TEXT
  5
11F04
330
1F
100
AcDbEntity
  8
寸法線
100
AcDbText
 10
2619.029002644234
 20
2328.749978391802
 30
0.0
 40
25.0
  1
ﾘﾌﾞﾌﾟﾚｰﾄ②
 72
     2
 11
2762.362335977567
 21
2328.749978391802
 31
0.0
100
AcDbText
 73
     1
  0
LEADER
  5
11F05
330
1F
100
AcDbEntity
  8
寸法線
100
AcDbLeader
  3
STANDARD
 76
     3
 10
2797.253618529781
 20
2250.999944525363
 30
0.0
 10
2765.166263247128
 20
2319.999978391802
 30
0.0
 10
2613.025175255041
 20
2319.999978391802
 30
0.0
1001
ACAD
1000
DSTYLE
1002
{
1070
   147
1040
0.875
1070
    77
1070
     0
1002
}
  0
TEXT
  5
11F06
330
1F
100
AcDbEntity
  8
寸法線
100
AcDbText
 10
2454.017983858026
 20
2144.267164165611
 30
0.0
 40
25.0
  1
ﾘﾌﾞﾌﾟﾚｰﾄ①
 72
     2
 11
2597.351317191359
 21
2144.267164165611
 31
0.0
100
AcDbText
 73
     1
  0
LEADER
  5
11F07
330
1F
100
AcDbEntity
  8
寸法線
100
AcDbLeader
  3
STANDARD
 76
     3
 10
2416.294134890419
 20
2103.443853995976
 30
0.0
 10
2451.294134890419
 20
2138.443853995976
 30
0.0
 10
2604.384679425137
 20
2138.443853995976
 30
0.0
211
-1.0
221
0.0
231
0.0
1001
ACAD
1000
DSTYLE
1002
{
1070
   147
1040
0.875
1070
    77
1070
     0
1002
}
  0
DIMENSION
  5
11F08
330
1F
100
AcDbEntity
  8
寸法線
100
AcDbDimension
280
     0
  2
*D17
 10
2359.999896414972
 20
2684.999981745037
 30
0.0
 11
2634.999896414972
 21
2684.999981745037
 31
0.0
 70
   160
  1
<>\XH型鋼（連結部）
 71
     5
 42
550.0
 73
     0
 74
     0
 75
     0
  3
STANDARD
100
AcDbAlignedDimension
 13
2909.999896414972
 23
2436.000018964711
 33
0.0
 14
2359.999896414972
 24
2455.000018964711
 34
0.0
 50
180.0
100
AcDbRotatedDimension
  0
LEADER
  5
11FE8
330
1F
100
AcDbEntity
  8
寸法線
100
AcDbLeader
  3
STANDARD
 76
     3
 10
2616.122989395617
 20
1780.897574155297
 30
0.0
 10
2691.471823980859
 20
1914.999999749781
 30
0.0
 10
2959.132000915678
 20
1914.999999749781
 30
0.0
211
-1.0
221
0.0
231
0.0
1001
ACAD
1000
DSTYLE
1002
{
1070
   147
1040
0.875
1070
    77
1070
     0
1002
}
  0
TEXT
  5
11FE9
330
1F
100
AcDbEntity
  8
寸法線
100
AcDbText
 10
2700.221823980853
 20
1923.749999749781
 30
0.0
 40
25.0
  1
ｶﾊﾞｰﾌﾟﾚｰﾄ連結用孔
 72
     2
 11
2948.555157314187
 21
1948.749999749781
 31
0.0
100
AcDbText
 73
     3
  0
LINE
  5
11FEA
330
1F
100
AcDbEntity
  8
実線
100
AcDbLine
 10
1501.999896414973
 20
2014.999970926859
 30
0.0
 11
1501.999896414973
 21
2474.999970926859
 31
0.0
  0
LINE
  5
11FEB
330
1F
100
AcDbEntity
  8
実線
100
AcDbLine
 10
1501.999896414973
 20
2474.999970926859
 30
0.0
 11
1517.999896414973
 21
2474.999970926859
 31
0.0
  0
LINE
  5
11FEC
330
1F
100
AcDbEntity
  8
実線
100
AcDbLine
 10
1517.999896414973
 20
2014.999970926859
 30
0.0
 11
1517.999896414973
 21
2474.999970926859
 31
0.0
  0
LINE
  5
11FED
330
1F
100
AcDbEntity
  8
実線
100
AcDbLine
 10
1501.999896414973
 20
2014.999970926859
 30
0.0
 11
1517.999896414973
 21
2014.999970926859
 31
0.0
  0
LINE
  5
11FEE
330
1F
100
AcDbEntity
  8
破線
100
AcDbLine
 10
1501.999896414973
 20
2384.999970926859
 30
0.0
 11
1517.999896414973
 21
2384.999970926859
 31
0.0
  0
LINE
  5
11FEF
330
1F
100
AcDbEntity
  8
破線
100
AcDbLine
 10
1501.999896414973
 20
2104.999970926859
 30
0.0
 11
1517.999896414973
 21
2104.999970926859
 31
0.0
  0
LINE
  5
11FF0
330
1F
100
AcDbEntity
  8
破線
100
AcDbLine
 10
1501.999896414973
 20
2044.999970926859
 30
0.0
 11
1517.999896414973
 21
2044.999970926859
 31
0.0
  0
LINE
  5
11FF1
330
1F
100
AcDbEntity
  8
実線
100
AcDbLine
 10
1501.999896414973
 20
1414.999979809287
 30
0.0
 11
1501.999896414973
 21
1874.999979809287
 31
0.0
  0
LINE
  5
11FF2
330
1F
100
AcDbEntity
  8
実線
100
AcDbLine
 10
1501.999896414973
 20
1874.999979809287
 30
0.0
 11
1517.999896414973
 21
1874.999979809287
 31
0.0
  0
LINE
  5
11FF3
330
1F
100
AcDbEntity
  8
実線
100
AcDbLine
 10
1517.999896414973
 20
1414.999979809287
 30
0.0
 11
1517.999896414973
 21
1874.999979809287
 31
0.0
  0
LINE
  5
11FF4
330
1F
100
AcDbEntity
  8
実線
100
AcDbLine
 10
1501.999896414973
 20
1414.999979809287
 30
0.0
 11
1517.999896414973
 21
1414.999979809287
 31
0.0
  0
LINE
  5
11FF5
330
1F
100
AcDbEntity
  8
破線
100
AcDbLine
 10
1501.999896414973
 20
1784.999979809287
 30
0.0
 11
1517.999896414973
 21
1784.999979809287
 31
0.0
  0
LINE
  5
11FF6
330
1F
100
AcDbEntity
  8
破線
100
AcDbLine
 10
1501.999896414973
 20
1504.999979809287
 30
0.0
 11
1517.999896414973
 21
1504.999979809287
 31
0.0
  0
LINE
  5
11FF7
330
1F
100
AcDbEntity
  8
破線
100
AcDbLine
 10
1501.999896414973
 20
1444.999979809287
 30
0.0
 11
1517.999896414973
 21
1444.999979809287
 31
0.0
  0
LINE
  5
11FF8
330
1F
100
AcDbEntity
  8
実線
100
AcDbLine
 10
1901.999896414973
 20
2014.999970926859
 30
0.0
 11
1901.999896414973
 21
2474.999970926859
 31
0.0
  0
LINE
  5
11FF9
330
1F
100
AcDbEntity
  8
実線
100
AcDbLine
 10
1901.999896414973
 20
2474.999970926859
 30
0.0
 11
1917.999896414973
 21
2474.999970926859
 31
0.0
  0
LINE
  5
11FFA
330
1F
100
AcDbEntity
  8
実線
100
AcDbLine
 10
1917.999896414973
 20
2014.999970926859
 30
0.0
 11
1917.999896414973
 21
2474.999970926859
 31
0.0
  0
LINE
  5
11FFB
330
1F
100
AcDbEntity
  8
実線
100
AcDbLine
 10
1901.999896414973
 20
2014.999970926859
 30
0.0
 11
1917.999896414973
 21
2014.999970926859
 31
0.0
  0
LINE
  5
11FFC
330
1F
100
AcDbEntity
  8
破線
100
AcDbLine
 10
1901.999896414973
 20
2384.999970926859
 30
0.0
 11
1917.999896414973
 21
2384.999970926859
 31
0.0
  0
LINE
  5
11FFD
330
1F
100
AcDbEntity
  8
破線
100
AcDbLine
 10
1901.999896414973
 20
2104.999970926859
 30
0.0
 11
1917.999896414973
 21
2104.999970926859
 31
0.0
  0
LINE
  5
11FFE
330
1F
100
AcDbEntity
  8
破線
100
AcDbLine
 10
1901.999896414973
 20
2044.999970926859
 30
0.0
 11
1917.999896414973
 21
2044.999970926859
 31
0.0
  0
LINE
  5
11FFF
330
1F
100
AcDbEntity
  8
実線
100
AcDbLine
 10
1901.999896414973
 20
1414.999979809287
 30
0.0
 11
1901.999896414973
 21
1874.999979809287
 31
0.0
  0
LINE
  5
12000
330
1F
100
AcDbEntity
  8
実線
100
AcDbLine
 10
1901.999896414973
 20
1874.999979809287
 30
0.0
 11
1917.999896414973
 21
1874.999979809287
 31
0.0
  0
LINE
  5
12001
330
1F
100
AcDbEntity
  8
実線
100
AcDbLine
 10
1917.999896414973
 20
1414.999979809287
 30
0.0
 11
1917.999896414973
 21
1874.999979809287
 31
0.0
  0
LINE
  5
12002
330
1F
100
AcDbEntity
  8
実線
100
AcDbLine
 10
1901.999896414973
 20
1414.999979809287
 30
0.0
 11
1917.999896414973
 21
1414.999979809287
 31
0.0
  0
LINE
  5
12003
330
1F
100
AcDbEntity
  8
破線
100
AcDbLine
 10
1901.999896414973
 20
1784.999979809287
 30
0.0
 11
1917.999896414973
 21
1784.999979809287
 31
0.0
  0
LINE
  5
12004
330
1F
100
AcDbEntity
  8
破線
100
AcDbLine
 10
1901.999896414973
 20
1504.999979809287
 30
0.0
 11
1917.999896414973
 21
1504.999979809287
 31
0.0
  0
LINE
  5
12005
330
1F
100
AcDbEntity
  8
破線
100
AcDbLine
 10
1901.999896414973
 20
1444.999979809287
 30
0.0
 11
1917.999896414973
 21
1444.999979809287
 31
0.0
  0
LINE
  5
12006
330
1F
100
AcDbEntity
  8
破線
100
AcDbLine
 10
1901.999896414973
 20
2444.999970926859
 30
0.0
 11
1917.999896414973
 21
2444.999970926859
 31
0.0
  0
LINE
  5
12007
330
1F
100
AcDbEntity
  8
実線
100
AcDbLine
 10
1501.999896414972
 20
1784.999990627465
 30
0.0
 11
1107.999792829947
 21
1784.999990627464
 31
0.0
  0
LINE
  5
12008
330
1F
100
AcDbEntity
  8
実線
100
AcDbLine
 10
1501.999896414972
 20
1844.999990627465
 30
0.0
 11
1075.999792829947
 21
1844.999990627465
 31
0.0
  0
LINE
  5
12009
330
1F
100
AcDbEntity
  8
実線
100
AcDbLine
 10
1501.999896414972
 20
1504.999990627465
 30
0.0
 11
1107.999792829947
 21
1504.999990627465
 31
0.0
  0
LINE
  5
1200A
330
1F
100
AcDbEntity
  8
実線
100
AcDbLine
 10
1501.999896414972
 20
1444.999990627465
 30
0.0
 11
1075.999792829947
 21
1444.999990627465
 31
0.0
  0
LINE
  5
1200B
330
1F
100
AcDbEntity
  8
実線
100
AcDbLine
 10
1501.999896414972
 20
2384.999972622721
 30
0.0
 11
1107.999792829947
 21
2384.999972622721
 31
0.0
  0
LINE
  5
1200C
330
1F
100
AcDbEntity
  8
実線
100
AcDbLine
 10
1501.999896414972
 20
2444.999972622721
 30
0.0
 11
1075.999792829947
 21
2444.999972622721
 31
0.0
  0
LINE
  5
1200D
330
1F
100
AcDbEntity
  8
実線
100
AcDbLine
 10
1501.999896414972
 20
2104.999972622721
 30
0.0
 11
1107.999792829947
 21
2104.999972622721
 31
0.0
  0
LINE
  5
1200E
330
1F
100
AcDbEntity
  8
実線
100
AcDbLine
 10
1501.999896414972
 20
2044.999972622721
 30
0.0
 11
1075.999792829947
 21
2044.999972622721
 31
0.0
  0
LINE
  5
1200F
330
1F
100
AcDbEntity
  8
破線
100
AcDbLine
 10
1501.999896414973
 20
2444.999970926859
 30
0.0
 11
1517.999896414973
 21
2444.999970926859
 31
0.0
  0
LINE
  5
12010
330
1F
100
AcDbEntity
  8
実線
100
AcDbLine
 10
1517.999896414973
 20
2444.999970926859
 30
0.0
 11
1901.999896414973
 21
2444.999970926859
 31
0.0
  0
LINE
  5
12011
330
1F
100
AcDbEntity
  8
実線
100
AcDbLine
 10
1517.999896414973
 20
2384.999970926859
 30
0.0
 11
1901.999896414973
 21
2384.999970926859
 31
0.0
  0
LINE
  5
12012
330
1F
100
AcDbEntity
  8
実線
100
AcDbLine
 10
1517.999896414973
 20
2104.999970926859
 30
0.0
 11
1901.999896414973
 21
2104.999970926859
 31
0.0
  0
LINE
  5
12013
330
1F
100
AcDbEntity
  8
実線
100
AcDbLine
 10
1901.999896414973
 20
2044.999970926859
 30
0.0
 11
1517.999896414973
 21
2044.999970926859
 31
0.0
  0
LINE
  5
12014
330
1F
100
AcDbEntity
  8
実線
100
AcDbLine
 10
1517.999896414973
 20
1784.999979809287
 30
0.0
 11
1901.999896414973
 21
1784.999979809287
 31
0.0
  0
LINE
  5
12015
330
1F
100
AcDbEntity
  8
破線
100
AcDbLine
 10
1501.999896414973
 20
1844.999979809287
 30
0.0
 11
1517.999896414973
 21
1844.999979809287
 31
0.0
  0
LINE
  5
12016
330
1F
100
AcDbEntity
  8
破線
100
AcDbLine
 10
1901.999896414973
 20
1844.999979809287
 30
0.0
 11
1917.999896414973
 21
1844.999979809287
 31
0.0
  0
LINE
  5
12017
330
1F
100
AcDbEntity
  8
実線
100
AcDbLine
 10
1517.999896414973
 20
1504.999979809287
 30
0.0
 11
1901.999896414973
 21
1504.999979809287
 31
0.0
  0
LINE
  5
12018
330
1F
100
AcDbEntity
  8
実線
100
AcDbLine
 10
1901.999896414973
 20
1444.999979809287
 30
0.0
 11
1517.999896414973
 21
1444.999979809287
 31
0.0
  0
LINE
  5
12019
330
1F
100
AcDbEntity
  8
実線
100
AcDbLine
 10
1517.999896414973
 20
1844.999979809287
 30
0.0
 11
1901.999896414973
 21
1844.999979809287
 31
0.0
  0
DIMENSION
  5
12605
330
1F
100
AcDbEntity
  8
寸法線
100
AcDbDimension
280
     0
  2
*D21
 10
2343.999948207481
 20
499.9999817553343
 30
0.0
 11
2327.999999999988
 21
499.9999817553343
 31
0.0
 70
   160
 71
     5
 42
31.99989641498542
 73
     0
 74
     0
 75
     0
  3
STANDARD
100
AcDbAlignedDimension
 13
2312.000051792495
 23
599.9999954388477
 33
0.0
 14
2343.999948207481
 24
589.9999954388476
 34
0.0
100
AcDbRotatedDimension
  0
DIMENSION
  5
12606
330
1F
100
AcDbEntity
  8
寸法線
100
AcDbDimension
280
     0
  2
*D22
 10
2359.999948207481
 20
439.9999817553343
 30
0.0
 11
2351.999948207481
 21
439.9999817553343
 31
0.0
 70
   160
 71
     5
 42
16.0
 73
     0
 74
     0
 75
     0
  3
STANDARD
100
AcDbAlignedDimension
 13
2343.999948207481
 23
589.9999954388476
 33
0.0
 14
2359.999948207481
 24
589.9999954388476
 34
0.0
100
AcDbRotatedDimension
  0
LINE
  5
12607
330
1F
100
AcDbEntity
  8
破線
100
AcDbLine
 10
476.4999482074808
 20
807.9999771942384
 30
0.0
 11
843.4999482074809
 21
807.9999771942384
 31
0.0
  0
LINE
  5
12608
330
1F
100
AcDbEntity
  8
中心線
100
AcDbLine
 10
424.9999719918878
 20
799.9999771942384
 30
0.0
 11
894.9999719918878
 21
799.9999771942384
 31
0.0
  0
LINE
  5
12609
330
1F
100
AcDbEntity
  8
実線
100
AcDbLine
 10
449.9999482074809
 20
1009.999995438848
 30
0.0
 11
869.9999482074808
 21
1009.999995438848
 31
0.0
  0
LINE
  5
1260A
330
1F
100
AcDbEntity
  8
実線
100
AcDbLine
 10
449.9999482074809
 20
589.9999954388476
 30
0.0
 11
449.9999482074809
 21
1009.999995438848
 31
0.0
  0
LINE
  5
1260B
330
1F
100
AcDbEntity
  8
破線
100
AcDbLine
 10
476.4999482074808
 20
791.9999771942384
 30
0.0
 11
476.4999482074808
 21
807.9999771942384
 31
0.0
  0
CIRCLE
  5
1260C
330
1F
100
AcDbEntity
  8
破線
100
AcDbCircle
 10
489.9998408148412
 20
969.9999771942385
 30
0.0
 40
30.0
  0
LINE
  5
1260D
330
1F
100
AcDbEntity
  8
破線
100
AcDbLine
 10
459.9998408148413
 20
942.9999954388476
 30
0.0
 11
475.9998408148412
 21
942.9999954388476
 31
0.0
  0
LINE
  5
1260E
330
1F
100
AcDbEntity
  8
破線
100
AcDbLine
 10
651.9999482074808
 20
983.4999771942385
 30
0.0
 11
651.9999482074808
 21
807.9999954388476
 31
0.0
  0
LINE
  5
1260F
330
1F
100
AcDbEntity
  8
破線
100
AcDbLine
 10
667.9999482074808
 20
983.4999771942385
 30
0.0
 11
667.9999482074808
 21
807.9999954388476
 31
0.0
  0
LINE
  5
12610
330
1F
100
AcDbEntity
  8
破線
100
AcDbLine
 10
843.4999482074809
 20
807.9999771942384
 30
0.0
 11
843.4999482074809
 21
791.9999771942384
 31
0.0
  0
LINE
  5
12611
330
1F
100
AcDbEntity
  8
破線
100
AcDbLine
 10
651.9999482074808
 20
983.4999771942385
 30
0.0
 11
667.9999482074808
 21
983.4999771942385
 31
0.0
  0
DIMENSION
  5
12612
330
1F
100
AcDbEntity
  8
寸法線
100
AcDbDimension
280
     0
  2
*D23
 10
869.9999482074808
 20
499.9999635107251
 30
0.0
 11
659.9999482074808
 21
499.9999635107251
 31
0.0
 70
   160
 71
     5
 42
420.0
 73
     0
 74
     0
 75
     0
  3
STANDARD
100
AcDbAlignedDimension
 13
449.9999482074809
 23
589.999958949571
 33
0.0
 14
869.9999482074808
 24
589.9999954388476
 34
0.0
100
AcDbRotatedDimension
  0
LINE
  5
12613
330
1F
100
AcDbEntity
  8
実線
100
AcDbLine
 10
869.9999482074808
 20
589.9999954388476
 30
0.0
 11
869.9999482074808
 21
1009.999995438848
 31
0.0
  0
CIRCLE
  5
12614
330
1F
100
AcDbEntity
  8
破線
100
AcDbCircle
 10
829.9998408148413
 20
969.9999771942385
 30
0.0
 40
30.0
  0
LINE
  5
12615
330
1F
100
AcDbEntity
  8
中心線
100
AcDbLine
 10
774.9999719918878
 20
969.9999771942385
 30
0.0
 11
884.9999719918878
 21
969.9999771942385
 31
0.0
  0
LINE
  5
12616
330
1F
100
AcDbEntity
  8
破線
100
AcDbLine
 10
459.9998408148413
 20
656.9999954388476
 30
0.0
 11
459.9998408148413
 21
942.9999954388476
 31
0.0
  0
LINE
  5
12617
330
1F
100
AcDbEntity
  8
破線
100
AcDbLine
 10
516.9999482074809
 20
615.9999771942384
 30
0.0
 11
802.9999482074808
 21
615.9999771942384
 31
0.0
  0
LINE
  5
12618
330
1F
100
AcDbEntity
  8
破線
100
AcDbLine
 10
476.4999482074808
 20
791.9999771942384
 30
0.0
 11
843.4999482074809
 21
791.9999771942384
 31
0.0
  0
LINE
  5
12619
330
1F
100
AcDbEntity
  8
実線
100
AcDbLine
 10
449.9999482074809
 20
589.999958949571
 30
0.0
 11
869.9999482074808
 21
589.999958949571
 31
0.0
  0
CIRCLE
  5
1261A
330
1F
100
AcDbEntity
  8
破線
100
AcDbCircle
 10
489.9998408148412
 20
629.9999771942384
 30
0.0
 40
30.0
  0
LINE
  5
1261B
330
1F
100
AcDbEntity
  8
破線
100
AcDbLine
 10
459.9998408148413
 20
656.9999954388476
 30
0.0
 11
475.9998408148412
 21
656.9999954388476
 31
0.0
  0
LINE
  5
1261C
330
1F
100
AcDbEntity
  8
破線
100
AcDbLine
 10
516.9999482074809
 20
599.9999771942384
 30
0.0
 11
516.9999482074809
 21
615.9999771942384
 31
0.0
  0
LINE
  5
1261D
330
1F
100
AcDbEntity
  8
破線
100
AcDbLine
 10
651.9999482074808
 20
616.4999771942384
 30
0.0
 11
651.9999482074808
 21
791.999958949571
 31
0.0
  0
LINE
  5
1261E
330
1F
100
AcDbEntity
  8
破線
100
AcDbLine
 10
667.9999482074808
 20
616.4999771942384
 30
0.0
 11
667.9999482074808
 21
791.999958949571
 31
0.0
  0
LINE
  5
1261F
330
1F
100
AcDbEntity
  8
破線
100
AcDbLine
 10
651.9999482074808
 20
616.4999771942384
 30
0.0
 11
667.9999482074808
 21
616.4999771942384
 31
0.0
  0
LINE
  5
12620
330
1F
100
AcDbEntity
  8
破線
100
AcDbLine
 10
802.9999482074808
 20
599.9999771942384
 30
0.0
 11
802.9999482074808
 21
615.9999771942384
 31
0.0
  0
CIRCLE
  5
12621
330
1F
100
AcDbEntity
  8
破線
100
AcDbCircle
 10
829.9998408148413
 20
629.9999771942384
 30
0.0
 40
30.0
  0
LINE
  5
12622
330
1F
100
AcDbEntity
  8
破線
100
AcDbLine
 10
516.9999482074809
 20
599.9999771942384
 30
0.0
 11
802.9999482074808
 21
599.9999771942384
 31
0.0
  0
LINE
  5
12623
330
1F
100
AcDbEntity
  8
破線
100
AcDbLine
 10
516.9999482074809
 20
999.9999771942384
 30
0.0
 11
802.9999482074808
 21
999.9999771942384
 31
0.0
  0
LINE
  5
12624
330
1F
100
AcDbEntity
  8
破線
100
AcDbLine
 10
516.9999482074809
 20
983.9999771942384
 30
0.0
 11
516.9999482074809
 21
999.9999771942384
 31
0.0
  0
LINE
  5
12625
330
1F
100
AcDbEntity
  8
破線
100
AcDbLine
 10
802.9999482074808
 20
983.9999771942384
 30
0.0
 11
802.9999482074808
 21
999.9999771942384
 31
0.0
  0
LINE
  5
12626
330
1F
100
AcDbEntity
  8
破線
100
AcDbLine
 10
516.9999482074809
 20
983.9999771942384
 30
0.0
 11
802.9999482074808
 21
983.9999771942384
 31
0.0
  0
LINE
  5
12627
330
1F
100
AcDbEntity
  8
破線
100
AcDbLine
 10
475.9998408148412
 20
656.9999954388476
 30
0.0
 11
475.9998408148412
 21
942.9999954388476
 31
0.0
  0
LINE
  5
12628
330
1F
100
AcDbEntity
  8
破線
100
AcDbLine
 10
843.9998408148412
 20
942.9999954388476
 30
0.0
 11
859.9998408148412
 21
942.9999954388476
 31
0.0
  0
LINE
  5
12629
330
1F
100
AcDbEntity
  8
破線
100
AcDbLine
 10
843.9998408148412
 20
656.9999954388476
 30
0.0
 11
843.9998408148412
 21
942.9999954388476
 31
0.0
  0
LINE
  5
1262A
330
1F
100
AcDbEntity
  8
破線
100
AcDbLine
 10
843.9998408148412
 20
656.9999954388476
 30
0.0
 11
859.9998408148412
 21
656.9999954388476
 31
0.0
  0
LINE
  5
1262B
330
1F
100
AcDbEntity
  8
破線
100
AcDbLine
 10
859.9998408148412
 20
656.9999954388476
 30
0.0
 11
859.9998408148412
 21
942.9999954388476
 31
0.0
  0
LINE
  5
1262C
330
1F
100
AcDbEntity
  8
中心線
100
AcDbLine
 10
659.9999719918878
 20
564.9999771942384
 30
0.0
 11
659.9999719918878
 21
1034.999977194238
 31
0.0
  0
LINE
  5
1262D
330
1F
100
AcDbEntity
  8
中心線
100
AcDbLine
 10
829.9999719918877
 20
914.9999771942384
 30
0.0
 11
829.9999719918877
 21
1024.999977194238
 31
0.0
  0
LINE
  5
1262E
330
1F
100
AcDbEntity
  8
中心線
100
AcDbLine
 10
774.9999719918878
 20
629.9999771942384
 30
0.0
 11
884.9999719918878
 21
629.9999771942384
 31
0.0
  0
LINE
  5
1262F
330
1F
100
AcDbEntity
  8
中心線
100
AcDbLine
 10
829.9999719918877
 20
574.9999771942384
 30
0.0
 11
829.9999719918877
 21
684.9999771942385
 31
0.0
  0
LINE
  5
12630
330
1F
100
AcDbEntity
  8
中心線
100
AcDbLine
 10
434.9999719918878
 20
969.9999771942385
 30
0.0
 11
544.9999719918878
 21
969.9999771942385
 31
0.0
  0
LINE
  5
12631
330
1F
100
AcDbEntity
  8
中心線
100
AcDbLine
 10
489.9999719918878
 20
914.9999771942384
 30
0.0
 11
489.9999719918878
 21
1024.999977194238
 31
0.0
  0
LINE
  5
12632
330
1F
100
AcDbEntity
  8
中心線
100
AcDbLine
 10
434.9999719918878
 20
629.9999771942384
 30
0.0
 11
544.9999719918878
 21
629.9999771942384
 31
0.0
  0
LINE
  5
12633
330
1F
100
AcDbEntity
  8
中心線
100
AcDbLine
 10
489.9999719918878
 20
574.9999771942384
 30
0.0
 11
489.9999719918878
 21
684.9999771942385
 31
0.0
  0
DIMENSION
  5
12634
330
1F
100
AcDbEntity
  8
寸法線
100
AcDbDimension
280
     0
  2
*D24
 10
329.9999957762945
 20
1009.999995438848
 30
0.0
 11
329.9999957762948
 21
799.9999954388477
 31
0.0
 70
   160
 71
     5
 42
420.0000000000001
 73
     0
 74
     0
 75
     0
  3
STANDARD
100
AcDbAlignedDimension
 13
449.9999957762947
 23
589.9999954388476
 33
0.0
 14
449.9999957762947
 24
1009.999995438848
 34
0.0
 50
90.0
100
AcDbRotatedDimension
  0
DIMENSION
  5
12635
330
1F
100
AcDbEntity
  8
寸法線
100
AcDbDimension
280
     0
  2
*D25
 10
1901.999948207481
 20
1099.999999999998
 30
0.0
 11
1709.999948207481
 21
1121.249999999998
 31
0.0
 70
    32
 71
     5
 42
384.0
 73
     0
 74
     0
 75
     0
  3
STANDARD
100
AcDbAlignedDimension
 13
1517.999948207481
 23
1029.999995438847
 33
0.0
 14
1901.999948207481
 24
1029.999995438847
 34
0.0
100
AcDbRotatedDimension
1001
ACAD
1000
DSTYLE
1002
{
1070
   279
1070
     1
1002
}
  0
DIMENSION
  5
12636
330
1F
100
AcDbEntity
  8
寸法線
100
AcDbDimension
280
     0
  2
*D26
 10
1517.999948207481
 20
1099.999999999998
 30
0.0
 11
1509.999948207481
 21
1099.999999999998
 31
0.0
 70
   160
 71
     5
 42
16.0
 73
     0
 74
     0
 75
     0
  3
STANDARD
100
AcDbAlignedDimension
 13
1501.999948207481
 23
1029.999995438847
 33
0.0
 14
1517.999948207481
 24
1029.999995438847
 34
0.0
100
AcDbRotatedDimension
  0
DIMENSION
  5
12637
330
1F
100
AcDbEntity
  8
寸法線
100
AcDbDimension
280
     0
  2
*D27
 10
2343.999948207481
 20
1099.999999999998
 30
0.0
 11
2130.999948207481
 21
1121.252460629919
 31
0.0
 70
    32
 71
     5
 42
426.0
 73
     0
 74
     0
 75
     0
  3
STANDARD
100
AcDbAlignedDimension
 13
1917.999948207481
 23
1029.999995438847
 33
0.0
 14
2343.999948207481
 24
1009.999995438848
 34
0.0
100
AcDbRotatedDimension
1001
ACAD
1000
DSTYLE
1002
{
1070
   279
1070
     1
1002
}
  0
DIMENSION
  5
12638
330
1F
100
AcDbEntity
  8
寸法線
100
AcDbDimension
280
     0
  2
*D28
 10
1917.999948207481
 20
1099.999999999998
 30
0.0
 11
1909.999948207481
 21
1099.999999999998
 31
0.0
 70
   160
 71
     5
 42
16.0
 73
     0
 74
     0
 75
     0
  3
STANDARD
100
AcDbAlignedDimension
 13
1901.999948207481
 23
1029.999995438847
 33
0.0
 14
1917.999948207481
 24
1029.999995438847
 34
0.0
100
AcDbRotatedDimension
  0
LINE
  5
12639
330
1F
100
AcDbEntity
  8
実線
100
AcDbLine
 10
1059.999948207481
 20
590.0000045611522
 30
0.0
 11
1059.999948207481
 21
1009.999995438848
 31
0.0
  0
LINE
  5
1263A
330
1F
100
AcDbEntity
  8
実線
100
AcDbLine
 10
1059.999948207481
 20
1009.999995438848
 30
0.0
 11
1075.999948207481
 21
1009.999995438848
 31
0.0
  0
LINE
  5
1263B
330
1F
100
AcDbEntity
  8
実線
100
AcDbLine
 10
1107.999948207481
 20
657.0000136834569
 30
0.0
 11
1107.999948207481
 21
943.000013683457
 31
0.0
  0
LINE
  5
1263C
330
1F
100
AcDbEntity
  8
中心線
100
AcDbLine
 10
1045.000051792495
 20
799.9999954388477
 30
0.0
 11
2375.000051792496
 21
799.9999954388477
 31
0.0
  0
LINE
  5
1263D
330
1F
100
AcDbEntity
  8
中心線
100
AcDbLine
 10
1050.000051792495
 20
969.9999954388477
 30
0.0
 11
2370.000051792496
 21
969.9999954388477
 31
0.0
  0
LINE
  5
1263E
330
1F
100
AcDbEntity
  8
実線
100
AcDbLine
 10
1107.999948207481
 20
939.9999954388476
 30
0.0
 11
1501.999948207481
 21
939.9999954388476
 31
0.0
  0
LINE
  5
1263F
330
1F
100
AcDbEntity
  8
実線
100
AcDbLine
 10
1076.000051792495
 20
999.9999954388476
 30
0.0
 11
1501.999948207481
 21
999.9999954388476
 31
0.0
  0
LINE
  5
12640
330
1F
100
AcDbEntity
  8
破線
100
AcDbLine
 10
1075.999948207481
 20
983.9999954388476
 30
0.0
 11
1107.999948207481
 21
983.9999954388476
 31
0.0
  0
LINE
  5
12641
330
1F
100
AcDbEntity
  8
破線
100
AcDbLine
 10
1107.999948207481
 20
984.000013683457
 30
0.0
 11
1107.999948207481
 21
999.9999954388476
 31
0.0
  0
LINE
  5
12642
330
1F
100
AcDbEntity
  8
破線
100
AcDbLine
 10
1084.999948207481
 20
939.9999954388476
 30
0.0
 11
1107.999948207481
 21
939.9999954388476
 31
0.0
  0
LINE
  5
12643
330
1F
100
AcDbEntity
  8
実線
100
AcDbLine
 10
1087.999948207481
 20
942.9999954388476
 30
0.0
 11
1107.999948207481
 21
942.9999954388476
 31
0.0
  0
LINE
  5
12644
330
1F
100
AcDbEntity
  8
実線
100
AcDbLine
 10
1075.999948207481
 20
930.9999954388477
 30
0.0
 11
1087.999948207481
 21
942.9999954388476
 31
0.0
  0
LINE
  5
12645
330
1F
100
AcDbEntity
  8
実線
100
AcDbLine
 10
1075.999948207481
 20
939.9999954388476
 30
0.0
 11
1084.999948207481
 21
939.9999954388476
 31
0.0
  0
LINE
  5
12646
330
1F
100
AcDbEntity
  8
破線
100
AcDbLine
 10
2311.999948207481
 20
984.000013683457
 30
0.0
 11
2311.999948207481
 21
999.9999954388476
 31
0.0
  0
LINE
  5
12647
330
1F
100
AcDbEntity
  8
破線
100
AcDbLine
 10
2343.999948207481
 20
983.9999954388476
 30
0.0
 11
2311.999948207481
 21
983.9999954388476
 31
0.0
  0
LINE
  5
12648
330
1F
100
AcDbEntity
  8
破線
100
AcDbLine
 10
1075.999948207481
 20
807.9999954388476
 30
0.0
 11
1107.999948207481
 21
807.9999954388476
 31
0.0
  0
LINE
  5
12649
330
1F
100
AcDbEntity
  8
破線
100
AcDbLine
 10
1075.999948207481
 20
791.9999954388477
 30
0.0
 11
1107.999948207481
 21
791.9999954388477
 31
0.0
  0
LINE
  5
1264A
330
1F
100
AcDbEntity
  8
破線
100
AcDbLine
 10
2311.999948207481
 20
807.9999954388476
 30
0.0
 11
2343.999948207481
 21
807.9999954388476
 31
0.0
  0
LINE
  5
1264B
330
1F
100
AcDbEntity
  8
破線
100
AcDbLine
 10
2311.999948207481
 20
791.9999954388477
 30
0.0
 11
2343.999948207481
 21
791.9999954388477
 31
0.0
  0
LINE
  5
1264C
330
1F
100
AcDbEntity
  8
仮想線
100
AcDbLine
 10
1131.463000461651
 20
540.0000136834569
 30
0.0
 11
1131.463000461651
 21
1060.000013683457
 31
0.0
  0
TEXT
  5
1264D
330
1F
100
AcDbEntity
  8
寸法線
100
AcDbText
 10
1181.118222828698
 20
1038.799995438847
 30
0.0
 40
21.0
  1
Ａ
 72
     4
 11
1190.918222828698
 21
1049.999995438847
 31
0.0
100
AcDbText
  0
TEXT
  5
1264E
330
1F
100
AcDbEntity
  8
寸法線
100
AcDbText
 10
1181.118222828698
 20
538.7999954388476
 30
0.0
 40
21.0
  1
Ａ
 72
     4
 11
1190.918222828698
 21
549.9999954388477
 31
0.0
100
AcDbText
  0
LINE
  5
1264F
330
1F
100
AcDbEntity
  8
実線
100
AcDbLine
 10
2343.999948207481
 20
1009.999995438848
 30
0.0
 11
2359.999948207481
 21
1009.999995438848
 31
0.0
  0
LINE
  5
12650
330
1F
100
AcDbEntity
  8
実線
100
AcDbLine
 10
1075.999948207481
 20
590.0000136834569
 30
0.0
 11
1075.999948207481
 21
1009.999995438848
 31
0.0
  0
LINE
  5
12651
330
1F
100
AcDbEntity
  8
実線
100
AcDbLine
 10
2343.999948207481
 20
590.0000136834569
 30
0.0
 11
2343.999948207481
 21
1009.999995438848
 31
0.0
  0
LINE
  5
12652
330
1F
100
AcDbEntity
  8
実線
100
AcDbLine
 10
2359.999948207481
 20
590.0000136834569
 30
0.0
 11
2359.999948207481
 21
1009.999995438848
 31
0.0
  0
LINE
  5
12653
330
1F
100
AcDbEntity
  8
実線
100
AcDbLine
 10
1059.999948207481
 20
589.9999954388476
 30
0.0
 11
1075.999948207481
 21
589.9999954388476
 31
0.0
  0
LINE
  5
12654
330
1F
100
AcDbEntity
  8
中心線
100
AcDbLine
 10
1050.000051792495
 20
629.9999954388477
 30
0.0
 11
2370.000051792496
 21
629.9999954388477
 31
0.0
  0
LINE
  5
12655
330
1F
100
AcDbEntity
  8
実線
100
AcDbLine
 10
1076.000051792495
 20
599.9999954388477
 30
0.0
 11
1501.999948207481
 21
599.9999954388477
 31
0.0
  0
LINE
  5
12656
330
1F
100
AcDbEntity
  8
破線
100
AcDbLine
 10
1075.999948207481
 20
615.9999954388476
 30
0.0
 11
1107.999948207481
 21
615.9999954388476
 31
0.0
  0
LINE
  5
12657
330
1F
100
AcDbEntity
  8
破線
100
AcDbLine
 10
1107.999948207481
 20
615.9999771942093
 30
0.0
 11
1107.999948207481
 21
599.9999954388477
 31
0.0
  0
LINE
  5
12658
330
1F
100
AcDbEntity
  8
破線
100
AcDbLine
 10
1084.999948207481
 20
659.9999954388477
 30
0.0
 11
1107.999948207481
 21
659.9999954388477
 31
0.0
  0
LINE
  5
12659
330
1F
100
AcDbEntity
  8
実線
100
AcDbLine
 10
1087.999948207481
 20
656.9999954388476
 30
0.0
 11
1107.999948207481
 21
656.9999954388476
 31
0.0
  0
LINE
  5
1265A
330
1F
100
AcDbEntity
  8
実線
100
AcDbLine
 10
1075.999948207481
 20
668.9999954388476
 30
0.0
 11
1087.999948207481
 21
656.9999954388476
 31
0.0
  0
LINE
  5
1265B
330
1F
100
AcDbEntity
  8
実線
100
AcDbLine
 10
1075.999948207481
 20
659.9999954388477
 30
0.0
 11
1084.999948207481
 21
659.9999954388477
 31
0.0
  0
LINE
  5
1265C
330
1F
100
AcDbEntity
  8
破線
100
AcDbLine
 10
2311.999948207481
 20
615.9999771942093
 30
0.0
 11
2311.999948207481
 21
599.9999954388477
 31
0.0
  0
LINE
  5
1265D
330
1F
100
AcDbEntity
  8
破線
100
AcDbLine
 10
2343.999948207481
 20
615.9999954388476
 30
0.0
 11
2311.999948207481
 21
615.9999954388476
 31
0.0
  0
LINE
  5
1265E
330
1F
100
AcDbEntity
  8
実線
100
AcDbLine
 10
2343.999948207481
 20
589.9999954388476
 30
0.0
 11
2359.999948207481
 21
589.9999954388476
 31
0.0
  0
LINE
  5
1265F
330
1F
100
AcDbEntity
  8
実線
100
AcDbLine
 10
2312.000051792495
 20
657.0000136834569
 30
0.0
 11
2312.000051792495
 21
943.000013683457
 31
0.0
  0
LINE
  5
12660
330
1F
100
AcDbEntity
  8
破線
100
AcDbLine
 10
2335.000051792496
 20
939.9999954388476
 30
0.0
 11
2312.000051792495
 21
939.9999954388476
 31
0.0
  0
LINE
  5
12661
330
1F
100
AcDbEntity
  8
実線
100
AcDbLine
 10
2332.000051792496
 20
942.9999954388476
 30
0.0
 11
2312.000051792495
 21
942.9999954388476
 31
0.0
  0
LINE
  5
12662
330
1F
100
AcDbEntity
  8
実線
100
AcDbLine
 10
2344.000051792495
 20
930.9999954388477
 30
0.0
 11
2332.000051792496
 21
942.9999954388476
 31
0.0
  0
LINE
  5
12663
330
1F
100
AcDbEntity
  8
実線
100
AcDbLine
 10
2344.000051792495
 20
939.9999954388476
 30
0.0
 11
2335.000051792496
 21
939.9999954388476
 31
0.0
  0
LINE
  5
12664
330
1F
100
AcDbEntity
  8
破線
100
AcDbLine
 10
2335.000051792496
 20
659.9999954388477
 30
0.0
 11
2312.000051792495
 21
659.9999954388477
 31
0.0
  0
LINE
  5
12665
330
1F
100
AcDbEntity
  8
実線
100
AcDbLine
 10
2332.000051792496
 20
656.9999954388476
 30
0.0
 11
2312.000051792495
 21
656.9999954388476
 31
0.0
  0
LINE
  5
12666
330
1F
100
AcDbEntity
  8
実線
100
AcDbLine
 10
2344.000051792495
 20
668.9999954388476
 30
0.0
 11
2332.000051792496
 21
656.9999954388476
 31
0.0
  0
LINE
  5
12667
330
1F
100
AcDbEntity
  8
実線
100
AcDbLine
 10
2344.000051792495
 20
659.9999954388477
 30
0.0
 11
2335.000051792496
 21
659.9999954388477
 31
0.0
  0
LINE
  5
12668
330
1F
100
AcDbEntity
  8
実線
100
AcDbLine
 10
1501.999948207481
 20
569.9999954388476
 30
0.0
 11
1501.999948207481
 21
1029.999995438847
 31
0.0
  0
LINE
  5
12669
330
1F
100
AcDbEntity
  8
実線
100
AcDbLine
 10
1501.999948207481
 20
1029.999995438847
 30
0.0
 11
1517.999948207481
 21
1029.999995438847
 31
0.0
  0
LINE
  5
1266A
330
1F
100
AcDbEntity
  8
実線
100
AcDbLine
 10
1517.999948207481
 20
569.9999954388476
 30
0.0
 11
1517.999948207481
 21
1029.999995438847
 31
0.0
  0
LINE
  5
1266B
330
1F
100
AcDbEntity
  8
実線
100
AcDbLine
 10
1501.999948207481
 20
569.9999954388476
 30
0.0
 11
1517.999948207481
 21
569.9999954388476
 31
0.0
  0
LINE
  5
1266C
330
1F
100
AcDbEntity
  8
破線
100
AcDbLine
 10
1501.999948207481
 20
999.9999954388476
 30
0.0
 11
1517.999948207481
 21
999.9999954388476
 31
0.0
  0
LINE
  5
1266D
330
1F
100
AcDbEntity
  8
破線
100
AcDbLine
 10
1501.999948207481
 20
939.9999954388476
 30
0.0
 11
1517.999948207481
 21
939.9999954388476
 31
0.0
  0
LINE
  5
1266E
330
1F
100
AcDbEntity
  8
破線
100
AcDbLine
 10
1501.999948207481
 20
659.9999954388477
 30
0.0
 11
1517.999948207481
 21
659.9999954388477
 31
0.0
  0
LINE
  5
1266F
330
1F
100
AcDbEntity
  8
破線
100
AcDbLine
 10
1501.999948207481
 20
599.9999954388477
 30
0.0
 11
1517.999948207481
 21
599.9999954388477
 31
0.0
  0
LINE
  5
12670
330
1F
100
AcDbEntity
  8
仮想線
100
AcDbLine
 10
1573.463000461651
 20
540.0000136834569
 30
0.0
 11
1573.463000461651
 21
1060.000013683457
 31
0.0
  0
TEXT
  5
12671
330
1F
100
AcDbEntity
  8
寸法線
100
AcDbText
 10
1622.418222828698
 20
1038.799995438847
 30
0.0
 40
21.0
  1
Ｂ
 72
     4
 11
1632.918222828698
 21
1049.999995438847
 31
0.0
100
AcDbText
  0
TEXT
  5
12672
330
1F
100
AcDbEntity
  8
寸法線
100
AcDbText
 10
1622.418222828698
 20
538.7999954388476
 30
0.0
 40
21.0
  1
Ｂ
 72
     4
 11
1632.918222828698
 21
549.9999954388477
 31
0.0
100
AcDbText
  0
LINE
  5
12673
330
1F
100
AcDbEntity
  8
実線
100
AcDbLine
 10
1901.999948207481
 20
939.9999954388476
 30
0.0
 11
1517.999948207481
 21
939.9999954388476
 31
0.0
  0
LINE
  5
12674
330
1F
100
AcDbEntity
  8
実線
100
AcDbLine
 10
1901.999948207481
 20
999.9999954388476
 30
0.0
 11
1517.999948207481
 21
999.9999954388476
 31
0.0
  0
LINE
  5
12675
330
1F
100
AcDbEntity
  8
実線
100
AcDbLine
 10
1901.999948207481
 20
569.9999954388476
 30
0.0
 11
1901.999948207481
 21
1029.999995438847
 31
0.0
  0
LINE
  5
12676
330
1F
100
AcDbEntity
  8
実線
100
AcDbLine
 10
1901.999948207481
 20
1029.999995438847
 30
0.0
 11
1917.999948207481
 21
1029.999995438847
 31
0.0
  0
LINE
  5
12677
330
1F
100
AcDbEntity
  8
実線
100
AcDbLine
 10
1917.999948207481
 20
569.9999954388476
 30
0.0
 11
1917.999948207481
 21
1029.999995438847
 31
0.0
  0
LINE
  5
12678
330
1F
100
AcDbEntity
  8
実線
100
AcDbLine
 10
1901.999948207481
 20
569.9999954388476
 30
0.0
 11
1917.999948207481
 21
569.9999954388476
 31
0.0
  0
LINE
  5
12679
330
1F
100
AcDbEntity
  8
破線
100
AcDbLine
 10
1901.999948207481
 20
999.9999954388476
 30
0.0
 11
1917.999948207481
 21
999.9999954388476
 31
0.0
  0
LINE
  5
1267A
330
1F
100
AcDbEntity
  8
破線
100
AcDbLine
 10
1901.999948207481
 20
939.9999954388476
 30
0.0
 11
1917.999948207481
 21
939.9999954388476
 31
0.0
  0
LINE
  5
1267B
330
1F
100
AcDbEntity
  8
破線
100
AcDbLine
 10
1901.999948207481
 20
659.9999954388477
 30
0.0
 11
1917.999948207481
 21
659.9999954388477
 31
0.0
  0
LINE
  5
1267C
330
1F
100
AcDbEntity
  8
破線
100
AcDbLine
 10
1901.999948207481
 20
599.9999954388477
 30
0.0
 11
1917.999948207481
 21
599.9999954388477
 31
0.0
  0
LINE
  5
1267D
330
1F
100
AcDbEntity
  8
実線
100
AcDbLine
 10
1901.999948207481
 20
599.9999954388477
 30
0.0
 11
1517.999948207481
 21
599.9999954388477
 31
0.0
  0
LINE
  5
1267E
330
1F
100
AcDbEntity
  8
実線
100
AcDbLine
 10
2311.999948207481
 20
939.9999954388476
 30
0.0
 11
1917.999948207481
 21
939.9999954388476
 31
0.0
  0
LINE
  5
1267F
330
1F
100
AcDbEntity
  8
実線
100
AcDbLine
 10
2343.999844622466
 20
999.9999954388476
 30
0.0
 11
1917.999948207481
 21
999.9999954388476
 31
0.0
  0
LINE
  5
12680
330
1F
100
AcDbEntity
  8
実線
100
AcDbLine
 10
2343.999844622466
 20
599.9999954388477
 30
0.0
 11
1917.999948207481
 21
599.9999954388477
 31
0.0
  0
LINE
  5
12681
330
1F
100
AcDbEntity
  8
仮想線
100
AcDbLine
 10
1973.463000461651
 20
540.0000136834569
 30
0.0
 11
1973.463000461651
 21
1060.000013683457
 31
0.0
  0
TEXT
  5
12682
330
1F
100
AcDbEntity
  8
寸法線
100
AcDbText
 10
2022.418222828698
 20
1038.799995438847
 30
0.0
 40
21.0
  1
Ｂ
 72
     4
 11
2032.918222828698
 21
1049.999995438847
 31
0.0
100
AcDbText
  0
TEXT
  5
12683
330
1F
100
AcDbEntity
  8
寸法線
100
AcDbText
 10
2022.418222828698
 20
538.7999954388476
 30
0.0
 40
21.0
  1
Ｂ
 72
     4
 11
2032.918222828698
 21
549.9999954388477
 31
0.0
100
AcDbText
  0
DIMENSION
  5
12684
330
1F
100
AcDbEntity
  8
寸法線
100
AcDbDimension
280
     0
  2
*D20
 10
2283.999948207481
 20
999.9999954388481
 30
0.0
 11
2283.999948207481
 21
886.240152919141
 31
0.0
 70
   160
  1
%%C<>
 71
     5
 42
60.0
 73
     0
 74
     0
 75
     0
  3
STANDARD
100
AcDbAlignedDimension
 13
2283.999948207481
 23
939.9999954388476
 33
0.0
 14
2283.999948207481
 24
999.9999954388476
 34
0.0
 50
90.0
100
AcDbRotatedDimension
  0
LEADER
  5
12685
330
1F
100
AcDbEntity
  8
寸法線
100
AcDbLeader
  3
STANDARD
 76
     2
 10
1131.463000461651
 20
1049.999977194209
 30
0.0
 10
1178.859735647495
 20
1049.999977194209
 30
0.0
1001
ACAD
1000
DSTYLE
1002
{
1070
   147
1040
0.875
1070
    77
1070
     0
1070
    49
1040
0.5
1002
}
  0
LEADER
  5
12686
330
1F
100
AcDbEntity
  8
寸法線
100
AcDbLeader
  3
STANDARD
 76
     2
 10
1131.463000461651
 20
549.9999771942093
 30
0.0
 10
1178.859735647495
 20
549.9999771942093
 30
0.0
1001
ACAD
1000
DSTYLE
1002
{
1070
   147
1040
0.875
1070
    77
1070
     0
1070
    49
1040
0.5
1002
}
  0
LEADER
  5
12687
330
1F
100
AcDbEntity
  8
寸法線
100
AcDbLeader
  3
STANDARD
 76
     2
 10
1573.463000461651
 20
1049.999977194209
 30
0.0
 10
1620.859735647496
 20
1049.999977194209
 30
0.0
1001
ACAD
1000
DSTYLE
1002
{
1070
   147
1040
0.875
1070
    77
1070
     0
1070
    49
1040
0.5
1002
}
  0
LEADER
  5
12688
330
1F
100
AcDbEntity
  8
寸法線
100
AcDbLeader
  3
STANDARD
 76
     2
 10
1573.463000461651
 20
549.9999771942093
 30
0.0
 10
1620.859735647496
 20
549.9999771942093
 30
0.0
1001
ACAD
1000
DSTYLE
1002
{
1070
   147
1040
0.875
1070
    77
1070
     0
1070
    49
1040
0.5
1002
}
  0
LEADER
  5
12689
330
1F
100
AcDbEntity
  8
寸法線
100
AcDbLeader
  3
STANDARD
 76
     2
 10
1973.463000461651
 20
1049.999995438847
 30
0.0
 10
2020.859735647496
 20
1049.999995438847
 30
0.0
1001
ACAD
1000
DSTYLE
1002
{
1070
   147
1040
0.875
1070
    77
1070
     0
1070
    49
1040
0.5
1002
}
  0
LEADER
  5
1268A
330
1F
100
AcDbEntity
  8
寸法線
100
AcDbLeader
  3
STANDARD
 76
     2
 10
1973.463000461651
 20
549.9999954388477
 30
0.0
 10
2020.859735647496
 20
549.9999954388477
 30
0.0
1001
ACAD
1000
DSTYLE
1002
{
1070
   147
1040
0.875
1070
    77
1070
     0
1070
    49
1040
0.5
1002
}
  0
LINE
  5
1268B
330
1F
100
AcDbEntity
  8
実線
100
AcDbLine
 10
1107.999948207481
 20
659.9999954388477
 30
0.0
 11
1501.999948207481
 21
659.9999954388477
 31
0.0
  0
LINE
  5
1268C
330
1F
100
AcDbEntity
  8
実線
100
AcDbLine
 10
1901.999948207481
 20
659.9999954388477
 30
0.0
 11
1517.999948207481
 21
659.9999954388477
 31
0.0
  0
LINE
  5
1268D
330
1F
100
AcDbEntity
  8
実線
100
AcDbLine
 10
2311.999948207481
 20
659.9999954388477
 30
0.0
 11
1917.999948207481
 21
659.9999954388477
 31
0.0
  0
DIMENSION
  5
126DE
330
1F
100
AcDbEntity
  8
寸法線
100
AcDbDimension
280
     0
  2
*D29
 10
1107.999948207481
 20
499.9999817553343
 30
0.0
 11
1091.999948207481
 21
499.9999817553343
 31
0.0
 70
   160
 71
     5
 42
32.0
 73
     0
 74
     0
 75
     0
  3
STANDARD
100
AcDbAlignedDimension
 13
1075.999948207481
 23
590.0000091223337
 33
0.0
 14
1107.999948207481
 24
600.0000091223337
 34
0.0
100
AcDbRotatedDimension
  0
DIMENSION
  5
126DF
330
1F
100
AcDbEntity
  8
寸法線
100
AcDbDimension
280
     0
  2
*D30
 10
2311.999948207481
 20
499.9999817553343
 30
0.0
 11
1709.999948207481
 21
521.2524423852556
 31
0.0
 70
    32
 71
     5
 42
1204.0
 73
     0
 74
     0
 75
     0
  3
STANDARD
100
AcDbAlignedDimension
 13
1107.999948207481
 23
600.0000091223337
 33
0.0
 14
2311.999948207481
 24
599.9999954388477
 34
0.0
100
AcDbRotatedDimension
  0
DIMENSION
  5
126E0
330
1F
100
AcDbEntity
  8
寸法線
100
AcDbDimension
280
     0
  2
*D31
 10
1075.999948207481
 20
439.9999817553343
 30
0.0
 11
1067.999948207481
 21
439.9999817553343
 31
0.0
 70
   160
 71
     5
 42
16.0
 73
     0
 74
     0
 75
     0
  3
STANDARD
100
AcDbAlignedDimension
 13
1059.999948207481
 23
590.0000091223337
 33
0.0
 14
1075.999948207481
 24
590.0000091223337
 34
0.0
100
AcDbRotatedDimension
  0
DIMENSION
  5
126E1
330
1F
100
AcDbEntity
  8
寸法線
100
AcDbDimension
280
     0
  2
*D32
 10
2343.999948207481
 20
439.9999817553343
 30
0.0
 11
1709.999948207481
 21
461.2524423852556
 31
0.0
 70
    32
 71
     5
 42
1268.0
 73
     0
 74
     0
 75
     0
  3
STANDARD
100
AcDbAlignedDimension
 13
1075.999948207481
 23
590.0000091223337
 33
0.0
 14
2343.999948207481
 24
590.0000136834569
 34
0.0
100
AcDbRotatedDimension
  0
DIMENSION
  5
126E2
330
1F
100
AcDbEntity
  8
寸法線
100
AcDbDimension
280
     0
  2
*D33
 10
2359.999948207481
 20
379.9999817553344
 30
0.0
 11
1709.999948207481
 21
401.2499817553344
 31
0.0
 70
    32
 71
     5
 42
1300.0
 73
     0
 74
     0
 75
     0
  3
STANDARD
100
AcDbAlignedDimension
 13
1059.999948207481
 23
590.0000273669429
 33
0.0
 14
2359.999948207481
 24
590.0000136834569
 34
0.0
100
AcDbRotatedDimension
  0
DIMENSION
  5
126E3
330
1F
100
AcDbEntity
  8
寸法線
100
AcDbDimension
280
     0
  2
*D34
 10
1501.999948207481
 20
1099.999999999998
 30
0.0
 11
1288.999948207481
 21
1121.252460629919
 31
0.0
 70
    32
 71
     5
 42
426.0
 73
     0
 74
     0
 75
     0
  3
STANDARD
100
AcDbAlignedDimension
 13
1075.999948207481
 23
1009.999995438848
 33
0.0
 14
1501.999948207481
 24
1029.999995438847
 34
0.0
100
AcDbRotatedDimension
  0
TEXT
  5
13A8C
330
1F
100
AcDbEntity
  8
寸法線
100
AcDbText
 10
2689.999948207481
 20
1083.75049166166
 30
0.0
 40
25.0
  1
断面Ａ－Ａ
 72
     1
 11
2759.999948207481
 21
1083.75049166166
 31
0.0
100
AcDbText
 73
     1
  0
DIMENSION
  5
13A8D
330
1F
100
AcDbEntity
  8
寸法線
100
AcDbDimension
280
     0
  2
*D38
 10
2930.000171991898
 20
499.9999863165162
 30
0.0
 11
2760.000172913325
 21
499.9999863165162
 31
0.0
 70
   160
 71
     5
 42
340.0
 73
     0
 74
     0
 75
     0
  3
STANDARD
100
AcDbAlignedDimension
 13
2590.000171991898
 23
575.0002572337107
 33
0.0
 14
2930.000171991898
 24
575.0002572337107
 34
0.0
100
AcDbRotatedDimension
  0
LINE
  5
13A8E
330
1F
100
AcDbEntity
  8
実線
100
AcDbLine
 10
2549.999948207481
 20
1010.00002280579
 30
0.0
 11
2969.999948207481
 21
1010.00002280579
 31
0.0
  0
LINE
  5
13A8F
330
1F
100
AcDbEntity
  8
中心線
100
AcDbLine
 10
2524.999971991888
 20
800.0002572337107
 30
0.0
 11
2994.999971991888
 21
800.0002572337107
 31
0.0
  0
LINE
  5
13A90
330
1F
100
AcDbEntity
  8
実線
100
AcDbLine
 10
2576.499948207481
 20
808.0000228057906
 30
0.0
 11
2943.499948207481
 21
808.0000228057906
 31
0.0
  0
LINE
  5
13A91
330
1F
100
AcDbEntity
  8
実線
100
AcDbLine
 10
2549.999948207481
 20
590.0000228057906
 30
0.0
 11
2549.999948207481
 21
1010.00002280579
 31
0.0
  0
DIMENSION
  5
13A92
330
1F
100
AcDbEntity
  8
寸法線
100
AcDbDimension
280
     0
  2
*D39
 10
2590.000171991898
 20
499.9999863165162
 30
0.0
 11
2570.000060099689
 21
499.9999863165162
 31
0.0
 70
   160
 71
     5
 42
40.00022378441644
 73
     0
 74
     0
 75
     0
  3
STANDARD
100
AcDbAlignedDimension
 13
2549.999948207481
 23
590.0004916616599
 33
0.0
 14
2590.000171991898
 24
575.0002572337107
 34
0.0
100
AcDbRotatedDimension
  0
LINE
  5
13A93
330
1F
100
AcDbEntity
  8
実線
100
AcDbLine
 10
2576.499948207481
 20
792.0000228057906
 30
0.0
 11
2576.499948207481
 21
808.0000228057906
 31
0.0
  0
LINE
  5
13A94
330
1F
100
AcDbEntity
  8
実線
100
AcDbLine
 10
2560.000172913325
 20
943.0000228057906
 30
0.0
 11
2576.000172913325
 21
943.0000228057906
 31
0.0
  0
LINE
  5
13A95
330
1F
100
AcDbEntity
  8
実線
100
AcDbLine
 10
2616.999948207481
 20
1000.00025723371
 30
0.0
 11
2616.999948207481
 21
984.0002572337107
 31
0.0
  0
LINE
  5
13A96
330
1F
100
AcDbEntity
  8
実線
100
AcDbLine
 10
2767.999948207481
 20
983.5002572337106
 30
0.0
 11
2767.999948207481
 21
808.0002572337107
 31
0.0
  0
LINE
  5
13A97
330
1F
100
AcDbEntity
  8
実線
100
AcDbLine
 10
2751.999948207481
 20
983.5002572337106
 30
0.0
 11
2751.999948207481
 21
808.0002572337107
 31
0.0
  0
DIMENSION
  5
13A98
330
1F
100
AcDbEntity
  8
寸法線
100
AcDbDimension
280
     0
  2
*D40
 10
3059.999948207482
 20
1010.000022805791
 30
0.0
 11
3059.999948207482
 21
990.0001400197499
 31
0.0
 70
   160
 71
     5
 42
39.99976557207992
 73
     0
 74
     0
 75
     0
  3
STANDARD
100
AcDbAlignedDimension
 13
2985.000171991897
 23
970.0002572337107
 33
0.0
 14
2969.999948207481
 24
1010.00002280579
 34
0.0
 50
90.0
100
AcDbRotatedDimension
  0
LINE
  5
13A99
330
1F
100
AcDbEntity
  8
実線
100
AcDbLine
 10
2969.999948207481
 20
590.0000228057906
 30
0.0
 11
2969.999948207481
 21
1010.00002280579
 31
0.0
  0
DIMENSION
  5
13A9A
330
1F
100
AcDbEntity
  8
寸法線
100
AcDbDimension
280
     0
  2
*D41
 10
3059.999948207482
 20
970.0002572337112
 30
0.0
 11
3059.999948207481
 21
800.0002572337107
 31
0.0
 70
   160
 71
     5
 42
340.0000000000001
 73
     0
 74
     0
 75
     0
  3
STANDARD
100
AcDbAlignedDimension
 13
2985.000171991897
 23
630.0002572337107
 33
0.0
 14
2985.000171991897
 24
970.0002572337107
 34
0.0
 50
90.0
100
AcDbRotatedDimension
  0
DIMENSION
  5
13A9B
330
1F
100
AcDbEntity
  8
寸法線
100
AcDbDimension
280
     0
  2
*D42
 10
3059.999948207482
 20
630.0002572337109
 30
0.0
 11
3059.999948207481
 21
610.0003744476845
 31
0.0
 70
   160
 71
     5
 42
39.99976557205082
 73
     0
 74
     0
 75
     0
  3
STANDARD
100
AcDbAlignedDimension
 13
2969.999948207481
 23
590.0004916616599
 33
0.0
 14
2985.000171991897
 24
630.0002572337107
 34
0.0
 50
90.0
100
AcDbRotatedDimension
  0
DIMENSION
  5
13A9C
330
1F
100
AcDbEntity
  8
寸法線
100
AcDbDimension
280
     0
  2
*D43
 10
2969.999948207481
 20
499.9999863165162
 30
0.0
 11
2950.000060099689
 21
499.9999863165162
 31
0.0
 70
   160
 71
     5
 42
39.99977621558355
 73
     0
 74
     0
 75
     0
  3
STANDARD
100
AcDbAlignedDimension
 13
2930.000171991898
 23
575.0002572337107
 33
0.0
 14
2969.999948207481
 24
590.0004916616599
 34
0.0
100
AcDbRotatedDimension
  0
LINE
  5
13A9D
330
1F
100
AcDbEntity
  8
実線
100
AcDbLine
 10
2943.499948207481
 20
808.0000228057906
 30
0.0
 11
2943.499948207481
 21
792.0000228057906
 31
0.0
  0
LINE
  5
13A9E
330
1F
100
AcDbEntity
  8
実線
100
AcDbLine
 10
2751.999948207481
 20
983.5002572337106
 30
0.0
 11
2767.999948207481
 21
983.5002572337106
 31
0.0
  0
LINE
  5
13A9F
330
1F
100
AcDbEntity
  8
実線
100
AcDbLine
 10
2902.999948207481
 20
1000.00025723371
 30
0.0
 11
2902.999948207481
 21
984.0002572337107
 31
0.0
  0
CIRCLE
  5
13AA0
330
1F
100
AcDbEntity
  8
実線
100
AcDbCircle
 10
2590.000172913325
 20
970.0002572337107
 30
0.0
 40
30.0
  0
LINE
  5
13AA1
330
1F
100
AcDbEntity
  8
実線
100
AcDbLine
 10
2576.000172913325
 20
657.0000228057907
 30
0.0
 11
2576.000172913325
 21
943.0000228057906
 31
0.0
  0
LINE
  5
13AA2
330
1F
100
AcDbEntity
  8
中心線
100
AcDbLine
 10
2875.000171991898
 20
970.0002572337107
 30
0.0
 11
2985.000171991897
 21
970.0002572337107
 31
0.0
  0
CIRCLE
  5
13AA3
330
1F
100
AcDbEntity
  8
実線
100
AcDbCircle
 10
2930.000172913325
 20
970.0002572337107
 30
0.0
 40
30.0
  0
LINE
  5
13AA4
330
1F
100
AcDbEntity
  8
実線
100
AcDbLine
 10
2616.999948207481
 20
1000.00025723371
 30
0.0
 11
2902.999948207481
 21
1000.00025723371
 31
0.0
  0
LINE
  5
13AA5
330
1F
100
AcDbEntity
  8
実線
100
AcDbLine
 10
2549.999948207481
 20
590.0004916616599
 30
0.0
 11
2969.999948207481
 21
590.0004916616599
 31
0.0
  0
LINE
  5
13AA6
330
1F
100
AcDbEntity
  8
実線
100
AcDbLine
 10
2560.000172913325
 20
657.0000228057907
 30
0.0
 11
2576.000172913325
 21
657.0000228057907
 31
0.0
  0
LINE
  5
13AA7
330
1F
100
AcDbEntity
  8
実線
100
AcDbLine
 10
2767.999948207481
 20
616.5002572337107
 30
0.0
 11
2767.999948207481
 21
792.0002572337107
 31
0.0
  0
LINE
  5
13AA8
330
1F
100
AcDbEntity
  8
実線
100
AcDbLine
 10
2751.999948207481
 20
616.5002572337107
 30
0.0
 11
2751.999948207481
 21
792.0002572337107
 31
0.0
  0
LINE
  5
13AA9
330
1F
100
AcDbEntity
  8
実線
100
AcDbLine
 10
2751.999948207481
 20
616.5002572337107
 30
0.0
 11
2767.999948207481
 21
616.5002572337107
 31
0.0
  0
CIRCLE
  5
13AAA
330
1F
100
AcDbEntity
  8
実線
100
AcDbCircle
 10
2590.000172913325
 20
630.0002572337107
 30
0.0
 40
30.0
  0
CIRCLE
  5
13AAB
330
1F
100
AcDbEntity
  8
実線
100
AcDbCircle
 10
2930.000172913325
 20
630.0002572337107
 30
0.0
 40
30.0
  0
LINE
  5
13AAC
330
1F
100
AcDbEntity
  8
実線
100
AcDbLine
 10
2576.499948207481
 20
792.0000228057906
 30
0.0
 11
2943.499948207481
 21
792.0000228057906
 31
0.0
  0
LINE
  5
13AAD
330
1F
100
AcDbEntity
  8
実線
100
AcDbLine
 10
2616.999948207481
 20
984.0002572337107
 30
0.0
 11
2902.999948207481
 21
984.0002572337107
 31
0.0
  0
LINE
  5
13AAE
330
1F
100
AcDbEntity
  8
実線
100
AcDbLine
 10
2616.999948207481
 20
616.0002572337107
 30
0.0
 11
2616.999948207481
 21
600.0002572337107
 31
0.0
  0
LINE
  5
13AAF
330
1F
100
AcDbEntity
  8
実線
100
AcDbLine
 10
2902.999948207481
 20
616.0002572337107
 30
0.0
 11
2902.999948207481
 21
600.0002572337107
 31
0.0
  0
LINE
  5
13AB0
330
1F
100
AcDbEntity
  8
実線
100
AcDbLine
 10
2616.999948207481
 20
616.0002572337107
 30
0.0
 11
2902.999948207481
 21
616.0002572337107
 31
0.0
  0
LINE
  5
13AB1
330
1F
100
AcDbEntity
  8
実線
100
AcDbLine
 10
2616.999948207481
 20
600.0002572337107
 30
0.0
 11
2902.999948207481
 21
600.0002572337107
 31
0.0
  0
LINE
  5
13AB2
330
1F
100
AcDbEntity
  8
実線
100
AcDbLine
 10
2560.000172913325
 20
657.0000228057907
 30
0.0
 11
2560.000172913325
 21
943.0000228057906
 31
0.0
  0
LINE
  5
13AB3
330
1F
100
AcDbEntity
  8
実線
100
AcDbLine
 10
2944.000172913325
 20
943.0000228057906
 30
0.0
 11
2960.000172913325
 21
943.0000228057906
 31
0.0
  0
LINE
  5
13AB4
330
1F
100
AcDbEntity
  8
実線
100
AcDbLine
 10
2960.000172913325
 20
657.0000228057907
 30
0.0
 11
2960.000172913325
 21
943.0000228057906
 31
0.0
  0
LINE
  5
13AB5
330
1F
100
AcDbEntity
  8
実線
100
AcDbLine
 10
2944.000172913325
 20
657.0000228057907
 30
0.0
 11
2960.000172913325
 21
657.0000228057907
 31
0.0
  0
LINE
  5
13AB6
330
1F
100
AcDbEntity
  8
実線
100
AcDbLine
 10
2944.000172913325
 20
657.0000228057907
 30
0.0
 11
2944.000172913325
 21
943.0000228057906
 31
0.0
  0
LINE
  5
13AB7
330
1F
100
AcDbEntity
  8
中心線
100
AcDbLine
 10
2930.000171991898
 20
915.0002572337108
 30
0.0
 11
2930.000171991898
 21
1025.000257233711
 31
0.0
  0
LINE
  5
13AB8
330
1F
100
AcDbEntity
  8
中心線
100
AcDbLine
 10
2875.000171991898
 20
630.0002572337107
 30
0.0
 11
2985.000171991897
 21
630.0002572337107
 31
0.0
  0
LINE
  5
13AB9
330
1F
100
AcDbEntity
  8
中心線
100
AcDbLine
 10
2930.000171991898
 20
575.0002572337107
 30
0.0
 11
2930.000171991898
 21
685.0002572337107
 31
0.0
  0
LINE
  5
13ABA
330
1F
100
AcDbEntity
  8
中心線
100
AcDbLine
 10
2535.000171991898
 20
970.0002572337107
 30
0.0
 11
2645.000171991898
 21
970.0002572337107
 31
0.0
  0
LINE
  5
13ABB
330
1F
100
AcDbEntity
  8
中心線
100
AcDbLine
 10
2590.000171991898
 20
915.0002572337108
 30
0.0
 11
2590.000171991898
 21
1025.000257233711
 31
0.0
  0
LINE
  5
13ABC
330
1F
100
AcDbEntity
  8
中心線
100
AcDbLine
 10
2535.000171991898
 20
630.0002572337107
 30
0.0
 11
2645.000171991898
 21
630.0002572337107
 31
0.0
  0
LINE
  5
13ABD
330
1F
100
AcDbEntity
  8
中心線
100
AcDbLine
 10
2590.000171991898
 20
575.0002572337107
 30
0.0
 11
2590.000171991898
 21
685.0002572337107
 31
0.0
  0
LINE
  5
13ABE
330
1F
100
AcDbEntity
  8
寸法線
100
AcDbLine
 10
2681.249948207481
 20
1075.00049166166
 30
0.0
 11
2838.749948207481
 21
1075.00049166166
 31
0.0
  0
LINE
  5
13ABF
330
1F
100
AcDbEntity
  8
中心線
100
AcDbLine
 10
2759.999971991888
 20
564.9999572337256
 30
0.0
 11
2759.999971991888
 21
1034.999957233725
 31
0.0
  0
LINE
  5
13AC0
330
1F
100
AcDbEntity
  8
実線
100
AcDbLine
 10
3219.999948207481
 20
570.0000228057906
 30
0.0
 11
3219.999948207481
 21
1030.000022805791
 31
0.0
  0
LINE
  5
13AC1
330
1F
100
AcDbEntity
  8
実線
100
AcDbLine
 10
3679.999948207481
 20
570.0000228057906
 30
0.0
 11
3679.999948207481
 21
1030.000022805791
 31
0.0
  0
LINE
  5
13AC2
330
1F
100
AcDbEntity
  8
実線
100
AcDbLine
 10
3219.999731100705
 20
570.0001948777935
 30
0.0
 11
3679.999731100706
 21
570.0001948777935
 31
0.0
  0
LINE
  5
13AC3
330
1F
100
AcDbEntity
  8
実線
100
AcDbLine
 10
3219.999731100705
 20
1030.000194877793
 30
0.0
 11
3679.999731100706
 21
1030.000194877793
 31
0.0
  0
LINE
  5
13AC4
330
1F
100
AcDbEntity
  8
中心線
100
AcDbLine
 10
3449.999948207481
 20
1040.000022805791
 30
0.0
 11
3449.999948207481
 21
560.0000228057906
 31
0.0
  0
LINE
  5
13AC5
330
1F
100
AcDbEntity
  8
中心線
100
AcDbLine
 10
3227.499731100706
 20
970.0001948777936
 30
0.0
 11
3332.499731100706
 21
970.0001948777936
 31
0.0
  0
CIRCLE
  5
13AC6
330
1F
100
AcDbEntity
  8
実線
100
AcDbCircle
 10
3449.999948207481
 20
800.0001948777935
 30
0.0
 40
140.0
  0
CIRCLE
  5
13AC7
330
1F
100
AcDbEntity
  8
実線
100
AcDbCircle
 10
3279.999948207481
 20
970.0001948777936
 30
0.0
 40
30.25
  0
CIRCLE
  5
13AC8
330
1F
100
AcDbEntity
  8
実線
100
AcDbCircle
 10
3619.999948207481
 20
970.0001948777936
 30
0.0
 40
30.25
  0
CIRCLE
  5
13AC9
330
1F
100
AcDbEntity
  8
実線
100
AcDbCircle
 10
3279.999948207481
 20
630.0001948777935
 30
0.0
 40
30.25
  0
CIRCLE
  5
13ACA
330
1F
100
AcDbEntity
  8
実線
100
AcDbCircle
 10
3619.999948207481
 20
630.0001948777935
 30
0.0
 40
30.25
  0
LINE
  5
13ACB
330
1F
100
AcDbEntity
  8
中心線
100
AcDbLine
 10
3209.999731100706
 20
800.0001948777935
 30
0.0
 11
3689.999731100706
 21
800.0001948777935
 31
0.0
  0
LINE
  5
13ACC
330
1F
100
AcDbEntity
  8
中心線
100
AcDbLine
 10
3279.999948207481
 20
917.499977770989
 30
0.0
 11
3279.999948207481
 21
1022.499977770989
 31
0.0
  0
LINE
  5
13ACD
330
1F
100
AcDbEntity
  8
中心線
100
AcDbLine
 10
3227.499731100706
 20
630.0001948777935
 30
0.0
 11
3332.499731100706
 21
630.0001948777935
 31
0.0
  0
LINE
  5
13ACE
330
1F
100
AcDbEntity
  8
中心線
100
AcDbLine
 10
3279.999948207481
 20
577.499977770989
 30
0.0
 11
3279.999948207481
 21
682.4999777709891
 31
0.0
  0
LINE
  5
13ACF
330
1F
100
AcDbEntity
  8
中心線
100
AcDbLine
 10
3567.499731100705
 20
970.0001948777936
 30
0.0
 11
3672.499731100706
 21
970.0001948777936
 31
0.0
  0
LINE
  5
13AD0
330
1F
100
AcDbEntity
  8
中心線
100
AcDbLine
 10
3619.999948207481
 20
917.499977770989
 30
0.0
 11
3619.999948207481
 21
1022.499977770989
 31
0.0
  0
LINE
  5
13AD1
330
1F
100
AcDbEntity
  8
中心線
100
AcDbLine
 10
3567.499731100705
 20
630.0001948777935
 30
0.0
 11
3672.499731100706
 21
630.0001948777935
 31
0.0
  0
LINE
  5
13AD2
330
1F
100
AcDbEntity
  8
中心線
100
AcDbLine
 10
3619.999948207481
 20
577.499977770989
 30
0.0
 11
3619.999948207481
 21
682.4999777709891
 31
0.0
  0
DIMENSION
  5
13AD3
330
1F
100
AcDbEntity
  8
寸法線
100
AcDbDimension
280
     0
  2
*D35
 10
3328.756276612818
 20
730.0003941763056
 30
0.0
 11
3513.625775921934
 21
836.7346353101906
 31
0.0
 70
   160
  1
φ280
 71
     5
 42
279.999999999915
 73
     0
 74
     0
 75
     0
  3
STANDARD
100
AcDbAlignedDimension
 13
3571.243511250493
 23
870.0001835965959
 33
0.0
 14
3328.756276611402
 24
730.0003941787581
 34
0.0
 50
209.9999502436335
100
AcDbRotatedDimension
  0
DIMENSION
  5
13AD4
330
1F
100
AcDbEntity
  8
寸法線
100
AcDbDimension
280
     0
  2
*D36
 10
3679.999948207481
 20
499.9999863165162
 30
0.0
 11
3449.999839654093
 21
521.2499863165162
 31
0.0
 70
    32
 71
     5
 42
460.0002171067753
 73
     0
 74
     0
 75
     0
  3
STANDARD
100
AcDbAlignedDimension
 13
3219.999731100705
 23
570.0001948777935
 33
0.0
 14
3679.999948207481
 24
570.0000228057906
 34
0.0
100
AcDbRotatedDimension
  0
LINE
  5
13AD5
330
1F
100
AcDbEntity
  8
寸法線
100
AcDbLine
 10
3369.73285983653
 20
1074.999986316516
 30
0.0
 11
3530.266819471656
 21
1074.999986316516
 31
0.0
  0
TEXT
  5
13AD6
330
1F
100
AcDbEntity
  8
寸法線
100
AcDbText
 10
3381.135127076053
 20
1081.728811153853
 30
0.0
 40
24.0
  1
断面Ｂ－Ｂ
100
AcDbText
  0
DIMENSION
  5
13AD7
330
1F
100
AcDbEntity
  8
寸法線
100
AcDbDimension
280
     0
  2
*D37
 10
3749.999948207708
 20
1030.000022805791
 30
0.0
 11
3728.749948207707
 21
800.0000228057897
 31
0.0
 70
    32
 71
     5
 42
460.0
 73
     0
 74
     0
 75
     0
  3
STANDARD
100
AcDbAlignedDimension
 13
3679.999948207481
 23
570.0000228057906
 33
0.0
 14
3679.999948207481
 24
1030.000022805791
 34
0.0
 50
90.0
100
AcDbRotatedDimension
  0
CIRCLE
  5
13AD8
330
1F
100
AcDbEntity
  8
実線
100
AcDbCircle
 10
3619.999948207481
 20
969.9999777709891
 30
0.0
 40
31.5
  0
CIRCLE
  5
13AD9
330
1F
100
AcDbEntity
  8
実線
100
AcDbCircle
 10
3279.999948207481
 20
969.9999777709891
 30
0.0
 40
31.5
  0
CIRCLE
  5
13ADA
330
1F
100
AcDbEntity
  8
実線
100
AcDbCircle
 10
3280.000165314257
 20
629.9997606642136
 30
0.0
 40
31.5
  0
CIRCLE
  5
13ADB
330
1F
100
AcDbEntity
  8
実線
100
AcDbCircle
 10
3619.999948207481
 20
629.999977770989
 30
0.0
 40
31.5
  0
TEXT
  5
13EBC
330
1F
100
AcDbEntity
  8
寸法線
100
AcDbText
 10
3152.960992024409
 20
1743.395834101175
 30
0.0
 40
25.0
  1
※　H型鋼（連結部）の長さは、切梁メーカー仕様または施工条件
 11
3152.960992024409
 21
1743.395834101175
 31
0.0
100
AcDbText
 73
     1
  0
TEXT
  5
13EBD
330
1F
100
AcDbEntity
  8
寸法線
100
AcDbText
 10
3152.960992024409
 20
1793.395834101175
 30
0.0
 40
25.0
  1
※　H型鋼（連結部）の穴開け位置は、切梁メーカー仕様による。
 11
3152.960992024409
 21
1793.395834101175
 31
0.0
100
AcDbText
 73
     1
  0
TEXT
  5
13EBE
330
1F
100
AcDbEntity
  8
寸法線
100
AcDbText
 10
3152.960992024409
 20
1693.395834101175
 30
0.0
 40
25.0
  1
　　により変更する場合がある。
 11
3152.960992024409
 21
1693.395834101175
 31
0.0
100
AcDbText
 73
     1
  0
TEXT
  5
13EBF
330
1F
100
AcDbEntity
  8
寸法線
100
AcDbText
 10
3152.960992024409
 20
1643.395834101175
 30
0.0
 40
25.0
  1
※　空洞金具部は鉄筋防錆剤塗装仕上げ。
 11
3152.960992024409
 21
1643.395834101175
 31
0.0
100
AcDbText
 73
     1
  0
TEXT
  5
13EC0
330
1F
100
AcDbEntity
  8
寸法線
100
AcDbText
 10
3152.960992024409
 20
1593.395834101175
 30
0.0
 40
25.0
  1
※　H型鋼（連結部）は赤さび塗装仕上げ。
 11
3152.960992024409
 21
1593.395834101175
 31
0.0
100
AcDbText
 73
     1
  0
VIEWPORT
  5
794
330
78D
100
AcDbEntity
 67
     1
  8
0
100
AcDbViewport
 10
212.7551777371425
 20
142.589248394887
 30
0.0
 40
568.5388333088702
 41
287.5796864262481
 68
     1
 69
     1
 12
212.7551777371425
 22
142.589248394887
 13
0.0
 23
0.0
 14
10.0
 24
10.0
 15
10.0
 25
10.0
 16
0.0
 26
0.0
 36
1.0
 17
0.0
 27
0.0
 37
0.0
 42
50.0
 43
0.0
 44
0.0
 45
287.5796864262481
 50
0.0
 51
0.0
 72
  1000
 90
    32800
  1

281
     0
 71
     1
 74
     0
110
0.0
120
0.0
130
0.0
111
1.0
121
0.0
131
0.0
112
0.0
122
1.0
132
0.0
 79
     0
146
0.0
170
     0
 61
     5
348
B3F7
292
     1
282
     1
141
0.0
142
0.0
 63
   250
421
  3355443
  0
VIEWPORT
  5
796
330
78D
100
AcDbEntity
 67
     1
  8
Defpoints
100
AcDbViewport
 10
204.099579334259
 20
142.5892481803894
 30
0.0
 40
408.1991586685178
 41
285.1784963607788
 68
     2
 69
     2
 12
2100.207206595808
 22
1486.804522350007
 13
0.0
 23
0.0
 14
10.0
 24
10.0
 15
10.0
 25
10.0
 16
0.0
 26
0.0
 36
1.0
 17
0.0
 27
0.0
 37
0.0
 42
50.0
 43
0.0
 44
0.0
 45
2851.784980677949
 50
0.0
 51
0.0
 72
  1000
 90
    32864
  1

281
     0
 71
     1
 74
     0
110
0.0
120
0.0
130
0.0
111
1.0
121
0.0
131
0.0
112
0.0
122
1.0
132
0.0
 79
     0
146
0.0
170
     0
 61
     5
348
B3F7
292
     1
282
     1
141
0.0
142
0.0
 63
   250
421
  3355443
  0
LINE
  5
9A2
330
78D
100
AcDbEntity
 67
     1
  8
図面枠
100
AcDbLine
 10
14.0996
 20
6.589249999999998
 30
0.0
 11
14.0996
 21
278.58925
 31
0.0
  0
LINE
  5
9A3
330
78D
100
AcDbEntity
 67
     1
  8
図面枠
100
AcDbLine
 10
404.0995999999998
 20
6.589249999999998
 30
0.0
 11
404.0995999999998
 21
278.58925
 31
0.0
  0
LINE
  5
9A4
330
78D
100
AcDbEntity
 67
     1
  8
図面枠
100
AcDbLine
 10
14.0996
 20
278.58925
 30
0.0
 11
404.0995999999998
 21
278.58925
 31
0.0
  0
LINE
  5
9A5
330
78D
100
AcDbEntity
 67
     1
  8
図面枠
100
AcDbLine
 10
14.0996
 20
6.589249999999998
 30
0.0
 11
404.0995999999998
 21
6.589249999999991
 31
0.0
  0
LINE
  5
B95C
330
78D
100
AcDbEntity
 67
     1
  8
図面枠
100
AcDbLine
 10
289.0996
 20
36.58925
 30
0.0
 11
404.0995999999998
 21
36.58925
 31
0.0
  0
LINE
  5
B95D
330
78D
100
AcDbEntity
 67
     1
  8
図面枠
100
AcDbLine
 10
289.0996
 20
30.58924999999999
 30
0.0
 11
404.0995999999998
 21
30.58924999999999
 31
0.0
  0
LINE
  5
B95E
330
78D
100
AcDbEntity
 67
     1
  8
図面枠
100
AcDbLine
 10
289.0996
 20
36.58930000000001
 30
0.0
 11
289.0996
 21
6.589249999999998
 31
0.0
  0
LINE
  5
B95F
330
78D
100
AcDbEntity
 67
     1
  8
図面枠
100
AcDbLine
 10
289.0996
 20
18.58924999999999
 30
0.0
 11
404.0995999999998
 21
18.58924999999999
 31
0.0
  0
LINE
  5
B960
330
78D
100
AcDbEntity
 67
     1
  8
図面枠
100
AcDbLine
 10
352.0996
 20
36.58930000000001
 30
0.0
 11
352.0996
 21
30.58924999999999
 31
0.0
  0
LINE
  5
B961
330
78D
100
AcDbEntity
 67
     1
  8
図面枠
100
AcDbLine
 10
383.0996
 20
36.58930000000001
 30
0.0
 11
383.0996
 21
30.58924999999999
 31
0.0
  0
LINE
  5
B962
330
78D
100
AcDbEntity
 67
     1
  8
図面枠
100
AcDbLine
 10
352.0996
 20
30.58924999999999
 30
0.0
 11
352.0996
 21
6.589249999999998
 31
0.0
  0
LINE
  5
B963
330
78D
100
AcDbEntity
 67
     1
  8
図面枠
100
AcDbLine
 10
312.0996
 20
36.58925
 30
0.0
 11
312.0996
 21
30.58924999999999
 31
0.0
  0
LINE
  5
B964
330
78D
100
AcDbEntity
 67
     1
  8
図面枠
100
AcDbLine
 10
304.0996
 20
24.58924999999999
 30
0.0
 11
349.0996
 21
24.58924999999999
 31
0.0
  0
TEXT
  5
B965
330
78D
100
AcDbEntity
 67
     1
  8
図面枠
100
AcDbText
 10
289.9746
 20
32.33925
 30
0.0
 40
2.5
  1
重量
 11
289.9746
 21
32.33925
 31
0.0
100
AcDbText
 73
     1
  0
TEXT
  5
B966
330
78D
100
AcDbEntity
 67
     1
  8
図面枠
100
AcDbText
 10
289.97465
 20
27.21424999999999
 30
0.0
 40
2.5
  1
名　称
 11
289.97465
 21
29.71424999999999
 31
0.0
100
AcDbText
 73
     3
  0
TEXT
  5
B967
330
78D
100
AcDbEntity
 67
     1
  8
図面枠
100
AcDbText
 10
318.5375983281357
 20
32.3393
 30
0.0
 40
2.5
  1
表面仕上げ
 41
0.8
 11
318.5375983281357
 21
32.3393
 31
0.0
100
AcDbText
 73
     1
  0
TEXT
  5
B968
330
78D
100
AcDbEntity
 67
     1
  8
図面枠
100
AcDbText
 10
352.9746
 20
32.33925
 30
0.0
 40
2.5
  1
日付
 11
352.9746
 21
32.33925
 31
0.0
100
AcDbText
 73
     1
  0
TEXT
  5
B969
330
78D
100
AcDbEntity
 67
     1
  8
図面枠
100
AcDbText
 10
383.9746
 20
32.33925
 30
0.0
 40
2.5
  1
尺度
 11
383.9746
 21
32.33925
 31
0.0
100
AcDbText
 73
     1
  0
TEXT
  5
B96A
330
78D
100
AcDbEntity
 67
     1
  8
図面枠
100
AcDbText
 10
313.5162666666667
 20
26.33925
 30
0.0
 40
2.5
  1
スルーサーＢ構造図
 72
     1
 11
326.5996
 21
26.33925
 31
0.0
100
AcDbText
 73
     1
  0
TEXT
  5
B96B
330
78D
100
AcDbEntity
 67
     1
  8
図面枠
100
AcDbText
 10
317.6611157480315
 20
20.33924999999999
 30
0.0
 40
2.5
  1
切り梁H-400
 72
     1
 11
326.5996
 21
22.83924999999999
 31
0.0
100
AcDbText
 73
     3
  0
TEXT
  5
B96C
330
78D
100
AcDbEntity
 67
     1
  8
図面枠
100
AcDbText
 10
366.5162666666667
 20
8.339249999999998
 30
0.0
 40
2.5
  1
Ｈ４０－Ｗ１３０
 72
     1
 11
378.0996
 21
8.339249999999998
 31
0.0
100
AcDbText
 73
     1
  0
TEXT
  5
B96D
330
78D
100
AcDbEntity
 67
     1
  8
図面枠
100
AcDbText
 10
300.3079
 20
32.33925
 30
0.0
 40
2.5
  1
453kg
 11
300.3079
 21
32.33925
 31
0.0
100
AcDbText
 73
     1
  0
TEXT
  5
B96E
330
78D
100
AcDbEntity
 67
     1
  8
図面枠
100
AcDbText
 10
333.8708983281357
 20
32.3393
 30
0.0
 40
2.5
  1
鉄筋防錆剤
 41
0.8
 11
333.8708983281357
 21
32.3393
 31
0.0
100
AcDbText
 73
     1
  0
TEXT
  5
B96F
330
78D
100
AcDbEntity
 67
     1
  8
図面枠
100
AcDbText
 10
394.3079
 20
32.33925
 30
0.0
 40
2.5
  1
1/10
 11
394.3079
 21
32.33925
 31
0.0
100
AcDbText
 73
     1
  0
TEXT
  5
B970
330
78D
100
AcDbEntity
 67
     1
  8
図面枠
100
AcDbText
 10
300.0162781896648
 20
10.58922126233958
 30
0.0
 40
4.0
  1
三研テクノクリエイト
 11
300.0162781896648
 21
12.58922126233958
 31
0.0
100
AcDbText
 73
     2
  0
TEXT
  5
B971
330
78D
100
AcDbEntity
 67
     1
  8
図面枠
100
AcDbText
 10
294.2496115229981
 20
12.83922126233958
 30
0.0
 40
2.0
  1
株式
 72
     2
 11
298.5162781896648
 21
12.83922126233958
 31
0.0
100
AcDbText
 73
     1
  0
TEXT
  5
B972
330
78D
100
AcDbEntity
 67
     1
  8
図面枠
100
AcDbText
 10
294.2496115229981
 20
10.33922126233958
 30
0.0
 40
2.0
  1
会社
 72
     2
 11
298.5162781896648
 21
12.33922126233958
 31
0.0
100
AcDbText
 73
     3
  0
TEXT
  5
B974
330
78D
100
AcDbEntity
 67
     1
  8
図面枠
100
AcDbText
 10
352.97465
 20
27.21425000000002
 30
0.0
 40
2.5
  1
摘　要
 11
352.97465
 21
29.71425000000002
 31
0.0
100
AcDbText
 73
     3
  0
TEXT
  5
B975
330
78D
100
AcDbEntity
 67
     1
  8
図面枠
100
AcDbText
 10
352.9746
 20
15.21425000000001
 30
0.0
 40
2.5
  1
型　式
 11
352.9746
 21
17.71425000000001
 31
0.0
100
AcDbText
 73
     3
  0
LINE
  5
B977
330
78D
100
AcDbEntity
 67
     1
  8
図面枠
100
AcDbLine
 10
234.0996
 20
15.58925000000002
 30
0.0
 11
289.0996
 21
15.58925000000002
 31
0.0
  0
LINE
  5
B978
330
78D
100
AcDbEntity
 67
     1
  8
図面枠
100
AcDbLine
 10
234.0996
 20
15.58925000000002
 30
0.0
 11
234.0996
 21
6.589249999999998
 31
0.0
  0
TEXT
  5
B979
330
78D
100
AcDbEntity
 67
     1
  8
図面枠
100
AcDbText
 10
235.3315942762782
 20
8.887940134352927
 30
0.0
 40
4.0
  1
スクラップ重量　324kg
 72
     1
 11
261.5040816496935
 21
8.887940134352927
 31
0.0
100
AcDbText
  0
LINE
  5
B97A
330
78D
100
AcDbEntity
 67
     1
  8
図面枠
100
AcDbLine
 10
289.0996
 20
15.58925000000002
 30
0.0
 11
289.0996
 21
6.589249999999998
 31
0.0
  0
LINE
  5
B97B
330
78D
100
AcDbEntity
 67
     1
  8
図面枠
100
AcDbLine
 10
234.0996
 20
6.589249999999998
 30
0.0
 11
289.0996
 21
6.589249999999998
 31
0.0
  0
TEXT
  5
BAEC
330
78D
100
AcDbEntity
 67
     1
  8
図面枠
100
AcDbText
 10
364.7662666666667
 20
20.86235908820162
 30
0.0
 40
2.5
  1
Ｈ４０－Ｗシリーズ
 72
     1
 11
378.0996
 21
20.86235908820162
 31
0.0
100
AcDbText
 73
     1
  0
TEXT
  5
141A3
330
78D
100
AcDbEntity
 67
     1
  8
図面枠
100
AcDbText
 10
363.3079
 20
32.33919999999999
 30
0.0
 40
2.5
  1
2024.01.01
 11
363.3079
 21
32.33919999999999
 31
0.0
100
AcDbText
 73
     1
  0
ENDSEC
  0
SECTION
  2
OBJECTS
  0
DICTIONARY
  5
C
330
0
100
AcDbDictionary
281
     1
  3
ACAD_CIP_PREVIOUS_PRODUCT_INFO
350
118AE
  3
ACAD_COLOR
350
6B
  3
ACAD_DETAILVIEWSTYLE
350
118A8
  3
ACAD_GROUP
350
D
  3
ACAD_LAYOUT
350
1A
  3
ACAD_MATERIAL
350
6A
  3
ACAD_MLEADERSTYLE
350
B414
  3
ACAD_MLINESTYLE
350
17
  3
ACAD_PLOTSETTINGS
350
19
  3
ACAD_PLOTSTYLENAME
350
E
  3
ACAD_SCALELIST
350
B402
  3
ACAD_SECTIONVIEWSTYLE
350
118A6
  3
ACAD_TABLESTYLE
350
7E
  3
ACAD_VISUALSTYLE
350
B3F1
  3
AcadDim
350
89BC
  3
ACDB_RECOMPOSE_DATA
350
141F4
  3
ACDBHEADERROUNDTRIPXREC
350
BAAD
  3
AcDbVariableDictionary
350
5E
  3
AcDsDecomposeData
350
141FA
  3
AEC_PROPERTY_SET_DEFS
350
B546
  0
DICTIONARY
  5
B651
330
8
100
AcDbDictionary
280
     1
281
     1
  0
DICTIONARY
  5
11D
330
2
100
AcDbDictionary
280
     1
281
     1
  3
ACAD_LAYERFILTERS
360
98AE
  3
ACAD_LAYERSTATES
360
11E
  3
ACLYDICTIONARY
360
98AD
  0
DICTIONARY
  5
B637
330
10
100
AcDbDictionary
280
     1
281
     1
  3
ADSK_XREC_LAYER_RECONCILED
360
B638
  0
DICTIONARY
  5
B63B
330
1BF
100
AcDbDictionary
280
     1
281
     1
  3
ADSK_XREC_LAYER_RECONCILED
360
B63C
  0
DICTIONARY
  5
B63F
330
1C1
100
AcDbDictionary
280
     1
281
     1
  3
ADSK_XREC_LAYER_RECONCILED
360
B640
  0
DICTIONARY
  5
B643
330
1C3
100
AcDbDictionary
280
     1
281
     1
  3
ADSK_XREC_LAYER_RECONCILED
360
B644
  0
DICTIONARY
  5
B645
330
1C4
100
AcDbDictionary
280
     1
281
     1
  3
ADSK_XREC_LAYER_RECONCILED
360
B646
  0
DICTIONARY
  5
B647
330
1C5
100
AcDbDictionary
280
     1
281
     1
  3
ADSK_XREC_LAYER_RECONCILED
360
B648
  0
DICTIONARY
  5
B649
330
82E
100
AcDbDictionary
280
     1
281
     1
  3
ADSK_XREC_LAYER_RECONCILED
360
B64A
  0
DICTIONARY
  5
5C91
330
1F
100
AcDbDictionary
280
     1
281
     1
  3
ACAD_SORTENTS
360
5C92
  0
DICTIONARY
  5
A1A8
330
78D
100
AcDbDictionary
280
     1
281
     1
  3
ACAD_SORTENTS
360
A1A9
  0
DICTIONARY
  5
B956
330
C08
100
AcDbDictionary
280
     1
281
     1
  3
ACAD_SORTENTS
360
BAA0
  0
XRECORD
  5
118AE
102
{ACAD_REACTORS
330
C
102
}
330
C
100
AcDbXrecord
280
     1
300
ACD
300
2023
300

  0
DICTIONARY
  5
6B
102
{ACAD_REACTORS
330
C
102
}
330
C
100
AcDbDictionary
281
     1
  0
DICTIONARY
  5
118A8
102
{ACAD_REACTORS
330
C
102
}
330
C
100
AcDbDictionary
281
     1
  3
Metric50
350
118A9
  0
DICTIONARY
  5
D
102
{ACAD_REACTORS
330
C
102
}
330
C
100
AcDbDictionary
281
     1
  0
DICTIONARY
  5
1A
102
{ACAD_REACTORS
330
C
102
}
330
C
100
AcDbDictionary
281
     1
  3
Model
350
22
  3
レイアウト1
350
78E
  0
DICTIONARY
  5
6A
102
{ACAD_REACTORS
330
C
102
}
330
C
100
AcDbDictionary
281
     1
  3
ByBlock
350
B3E1
  3
ByLayer
350
B3D9
  3
Global
350
B3E9
  0
DICTIONARY
  5
B414
102
{ACAD_REACTORS
330
C
102
}
330
C
100
AcDbDictionary
281
     1
  3
Standard
350
B415
  0
DICTIONARY
  5
17
102
{ACAD_REACTORS
330
C
102
}
330
C
100
AcDbDictionary
281
     1
  3
Standard
350
18
  0
DICTIONARY
  5
19
102
{ACAD_REACTORS
330
C
102
}
330
C
100
AcDbDictionary
281
     1
  0
ACDBDICTIONARYWDFLT
  5
E
102
{ACAD_REACTORS
330
C
102
}
330
C
100
AcDbDictionary
281
     1
  3
Normal
350
F
100
AcDbDictionaryWithDefault
340
F
  0
DICTIONARY
  5
B402
102
{ACAD_REACTORS
330
C
102
}
330
C
100
AcDbDictionary
281
     1
  3
A0
350
B403
  3
A1
350
B404
  3
A2
350
B405
  3
A3
350
B406
  3
A4
350
B407
  3
A5
350
B408
  3
A6
350
B409
  3
A7
350
B40A
  3
A8
350
B40B
  3
A9
350
B40C
  3
B0
350
B40D
  3
B1
350
B40E
  3
B2
350
B40F
  3
B3
350
B410
  3
B4
350
B411
  3
B5
350
B412
  3
B6
350
B413
  0
DICTIONARY
  5
118A6
102
{ACAD_REACTORS
330
C
102
}
330
C
100
AcDbDictionary
281
     1
  3
Metric50
350
118A7
  0
DICTIONARY
  5
7E
102
{ACAD_REACTORS
330
C
102
}
330
C
100
AcDbDictionary
281
     1
  3
Standard
350
7F
  0
DICTIONARY
  5
B3F1
102
{ACAD_REACTORS
330
C
102
}
330
C
100
AcDbDictionary
281
     1
  3
2dWireframe
350
B3F7
  3
3D Hidden
350
B3F9
  3
3dWireframe
350
B3F8
  3
Basic
350
B3F6
  3
Brighten
350
B3FD
  3
ColorChange
350
B401
  3
Conceptual
350
B3FA
  3
Dim
350
B3FC
  3
EdgeColorOff
350
118A5
  3
Facepattern
350
B400
  3
Flat
350
B3F2
  3
FlatWithEdges
350
B3F3
  3
Gouraud
350
B3F4
  3
GouraudWithEdges
350
B3F5
  3
Hidden
350
1189D
  3
JitterOff
350
118A3
  3
Linepattern
350
B3FF
  3
OverhangOff
350
118A4
  3
Realistic
350
B3FB
  3
Shaded
350
118A2
  3
Shaded with edges
350
118A1
  3
Shades of Gray
350
1189E
  3
Sketchy
350
1189F
  3
Thicken
350
B3FE
  3
Wireframe
350
1189C
  3
X-Ray
350
118A0
  0
XRECORD
  5
89BC
102
{ACAD_REACTORS
330
C
102
}
330
C
100
AcDbXrecord
280
     1
 90
   990106
  3

 60
     0
 61
     0
 62
     1
 63
     3
 64
     0
 65
     0
 66
     0
 67
     3
 68
     1
 69
     0
 70
     0
 71
     0
 72
     0
 40
0.0
170
     0
  0
XRECORD
  5
141F4
102
{ACAD_REACTORS
330
C
102
}
330
C
100
AcDbXrecord
280
     1
 90
        1
330
7F
  0
DICTIONARY
  5
BAAD
102
{ACAD_REACTORS
330
C
102
}
330
C
100
AcDbDictionary
281
     1
  0
DICTIONARY
  5
5E
102
{ACAD_REACTORS
330
C
102
}
330
C
100
AcDbDictionary
281
     1
  3
CANNOSCALE
350
B65F
  3
CMLEADERSTYLE
350
B65E
  3
CTABLESTYLE
350
84
  3
CVIEWDETAILSTYLE
350
139BC
  3
CVIEWSECTIONSTYLE
350
139BD
  3
DIMASSOC
350
5F
  3
HIDETEXT
350
63
  3
INDEXCTL
350
B661
  3
LAYEREVAL
350
139C0
  3
LAYERNOTIFY
350
139C1
  3
LIGHTINGUNITS
350
139BF
  3
MSLTSCALE
350
139BE
  3
PROJECTNAME
350
B981
  3
SORTENTS
350
B660
  0
DICTIONARY
  5
141FA
102
{ACAD_REACTORS
330
C
102
}
330
C
100
AcDbDictionary
281
     1
  3
AcDsRecords
350
141FC
  3
AcDsSchemas
350
141FB
1001
ACAD
1070
     2
  0
DICTIONARY
  5
B546
102
{ACAD_REACTORS
330
C
102
}
330
C
100
AcDbDictionary
281
     1
  0
DICTIONARY
  5
98AE
102
{ACAD_REACTORS
330
11D
102
}
330
11D
100
AcDbDictionary
281
     1
  0
DICTIONARY
  5
11E
102
{ACAD_REACTORS
330
11D
102
}
330
11D
100
AcDbDictionary
281
     1
  0
DICTIONARY
  5
98AD
102
{ACAD_REACTORS
330
11D
102
}
330
11D
100
AcDbDictionary
281
     1
1001
ACAD
1000
<All
  0
XRECORD
  5
B638
102
{ACAD_REACTORS
330
B637
102
}
330
B637
100
AcDbXrecord
280
     1
290
     1
  0
XRECORD
  5
B63C
102
{ACAD_REACTORS
330
B63B
102
}
330
B63B
100
AcDbXrecord
280
     1
290
     1
  0
XRECORD
  5
B640
102
{ACAD_REACTORS
330
B63F
102
}
330
B63F
100
AcDbXrecord
280
     1
290
     1
  0
XRECORD
  5
B644
102
{ACAD_REACTORS
330
B643
102
}
330
B643
100
AcDbXrecord
280
     1
290
     1
  0
XRECORD
  5
B646
102
{ACAD_REACTORS
330
B645
102
}
330
B645
100
AcDbXrecord
280
     1
290
     1
  0
XRECORD
  5
B648
102
{ACAD_REACTORS
330
B647
102
}
330
B647
100
AcDbXrecord
280
     1
290
     1
  0
XRECORD
  5
B64A
102
{ACAD_REACTORS
330
B649
102
}
330
B649
100
AcDbXrecord
280
     1
290
     1
  0
SORTENTSTABLE
  5
5C92
102
{ACAD_REACTORS
330
5C91
102
}
330
5C91
100
AcDbSortentsTable
330
1F
  0
SORTENTSTABLE
  5
A1A9
102
{ACAD_REACTORS
330
A1A8
102
}
330
A1A8
100
AcDbSortentsTable
330
78D
331
794
  5
796
331
796
  5
9A2
331
9A2
  5
9A3
331
9A3
  5
9A4
331
9A4
  5
9A5
331
9A5
  5
9A6
  0
SORTENTSTABLE
  5
BAA0
102
{ACAD_REACTORS
330
B956
102
}
330
B956
100
AcDbSortentsTable
330
C08
  0
ACDBDETAILVIEWSTYLE
  5
118A9
102
{ACAD_XDICTIONARY
360
141FF
102
}
102
{ACAD_REACTORS
330
118A8
102
}
330
118A8
100
AcDbModelDocViewStyle
 70
     0
  3
Metric50
290
     0
100
AcDbDetailViewStyle
 70
     0
 71
     0
 90
        3
 71
     1
340
11
 62
   256
 40
5.0
340
0
 62
   256
 40
5.0
300

 40
0.0
280
     1
 71
     2
340
16
 90
       25
 62
   256
 71
     3
340
11
 62
   256
 40
5.0
 90
        0
 40
15.0
 90
        1
300
%<\AcVar ViewDetailId>% (%<\AcVar ViewScale \f "%sn">%)
 71
     4
340
16
 90
       25
 62
   256
340
16
 90
       25
 62
   256
280
     0
  0
LAYOUT
  5
22
102
{ACAD_REACTORS
330
1A
102
}
330
1A
100
AcDbPlotSettings
  1

  2
none_device
  4
ISO_A4_(210.00_x_297.00_MM)
  6

 40
7.5
 41
20.0
 42
7.5
 43
20.0
 44
210.0
 45
297.0
 46
11.54999923706054
 47
-13.65000009536743
 48
0.0
 49
0.0
140
0.0
141
0.0
142
1.0
143
8.704084754739808
 70
 11952
 72
     1
 73
     0
 74
     0
  7

 75
     0
147
0.1148885871608098
 76
     0
 77
     2
 78
   300
148
0.0
149
0.0
100
AcDbLayout
  1
Model
 70
     1
 71
     0
 10
0.0
 20
0.0
 11
12.0
 21
9.0
 12
0.0
 22
0.0
 32
0.0
 14
0.0
 24
0.0
 34
0.0
 15
0.0
 25
0.0
 35
0.0
146
0.0
 13
0.0
 23
0.0
 33
0.0
 16
1.0
 26
0.0
 36
0.0
 17
0.0
 27
1.0
 37
0.0
 76
     0
330
1F
331
BAAB
1001
ACAD_PSEXT
1000
None
1000
None
1000
Not applicable
1000
The layout will not be plotted unless a new plotter configuration name is selected.
1070
     0
  0
LAYOUT
  5
78E
102
{ACAD_XDICTIONARY
360
79B
102
}
102
{ACAD_REACTORS
330
1A
102
}
330
1A
100
AcDbPlotSettings
  1

  2
RICOH MP C2503 JPN RPCS V2
  4
A3
  6

 40
5.873749732971191
 41
5.873748779296875
 42
5.873748779296875
 43
5.873748779296875
 44
296.9259948730469
 45
419.9466552734374
 46
0.0
 47
0.0
 48
0.0
 49
0.0
140
0.0
141
0.0
142
1.0
143
1.0
 70
   688
 72
     1
 73
     1
 74
     5
  7
monochrome.ctb
 75
    16
147
1.0
 76
     1
 77
     2
 78
   300
148
0.0
149
0.0
100
AcDbLayout
  1
レイアウト1
 70
     1
 71
     1
 10
-5.873748779296875
 20
-5.873749732971191
 11
414.0729064941406
 21
291.0522451400757
 12
0.0
 22
0.0
 32
0.0
 14
0.0000000000000853
 24
0.0
 34
0.0
 15
408.1991586685179
 25
285.1784963607788
 35
0.0
146
0.0
 13
0.0
 23
0.0
 33
0.0
 16
1.0
 26
0.0
 36
0.0
 17
0.0
 27
1.0
 37
0.0
 76
     0
330
78D
331
794
1001
ACAD_PSEXT
1000
RICOH MP C2503 JPN RPCS V2
1000
RICOH MP C2503 JPN RPCS V2
1000
IP_192.168.24.100
1000
RPCS Driver (For Windows)
1070
     0
  0
MATERIAL
  5
B3E1
102
{ACAD_XDICTIONARY
360
B3E2
102
}
102
{ACAD_REACTORS
330
6A
102
}
330
6A
100
AcDbMaterial
  1
ByBlock
 72
     0
 43
0.0008202099737533
 43
0.0
 43
0.0
 43
0.0
 43
0.0
 43
0.0008202099737533
 43
0.0
 43
0.0
 43
0.0
 43
0.0
 43
1.0
 43
0.0
 43
0.0
 43
0.0
 43
0.0
 43
1.0
 77
     0
 47
0.0008202099737533
 47
0.0
 47
0.0
 47
0.0
 47
0.0
 47
0.0008202099737533
 47
0.0
 47
0.0
 47
0.0
 47
0.0
 47
1.0
 47
0.0
 47
0.0
 47
0.0
 47
0.0
 47
1.0
171
     0
 49
0.0008202099737533
 49
0.0
 49
0.0
 49
0.0
 49
0.0
 49
0.0008202099737533
 49
0.0
 49
0.0
 49
0.0
 49
0.0
 49
1.0
 49
0.0
 49
0.0
 49
0.0
 49
0.0
 49
1.0
175
     0
142
0.0008202099737533
142
0.0
142
0.0
142
0.0
142
0.0
142
0.0008202099737533
142
0.0
142
0.0
142
0.0
142
0.0
142
1.0
142
0.0
142
0.0
142
0.0
142
0.0
142
1.0
179
     0
144
0.0008202099737533
144
0.0
144
0.0
144
0.0
144
0.0
144
0.0008202099737533
144
0.0
144
0.0
144
0.0
144
0.0
144
1.0
144
0.0
144
0.0
144
0.0
144
0.0
144
1.0
147
0.0008202099737533
147
0.0
147
0.0
147
0.0
147
0.0
147
0.0008202099737533
147
0.0
147
0.0
147
0.0
147
0.0
147
1.0
147
0.0
147
0.0
147
0.0
147
0.0
147
1.0
  0
MATERIAL
  5
B3D9
102
{ACAD_XDICTIONARY
360
B3DA
102
}
102
{ACAD_REACTORS
330
6A
102
}
330
6A
100
AcDbMaterial
  1
ByLayer
 72
     0
 43
0.0008202099737533
 43
0.0
 43
0.0
 43
0.0
 43
0.0
 43
0.0008202099737533
 43
0.0
 43
0.0
 43
0.0
 43
0.0
 43
1.0
 43
0.0
 43
0.0
 43
0.0
 43
0.0
 43
1.0
 77
     0
 47
0.0008202099737533
 47
0.0
 47
0.0
 47
0.0
 47
0.0
 47
0.0008202099737533
 47
0.0
 47
0.0
 47
0.0
 47
0.0
 47
1.0
 47
0.0
 47
0.0
 47
0.0
 47
0.0
 47
1.0
171
     0
 49
0.0008202099737533
 49
0.0
 49
0.0
 49
0.0
 49
0.0
 49
0.0008202099737533
 49
0.0
 49
0.0
 49
0.0
 49
0.0
 49
1.0
 49
0.0
 49
0.0
 49
0.0
 49
0.0
 49
1.0
175
     0
142
0.0008202099737533
142
0.0
142
0.0
142
0.0
142
0.0
142
0.0008202099737533
142
0.0
142
0.0
142
0.0
142
0.0
142
1.0
142
0.0
142
0.0
142
0.0
142
0.0
142
1.0
179
     0
144
0.0008202099737533
144
0.0
144
0.0
144
0.0
144
0.0
144
0.0008202099737533
144
0.0
144
0.0
144
0.0
144
0.0
144
1.0
144
0.0
144
0.0
144
0.0
144
0.0
144
1.0
147
0.0008202099737533
147
0.0
147
0.0
147
0.0
147
0.0
147
0.0008202099737533
147
0.0
147
0.0
147
0.0
147
0.0
147
1.0
147
0.0
147
0.0
147
0.0
147
0.0
147
1.0
  0
MATERIAL
  5
B3E9
102
{ACAD_XDICTIONARY
360
B3EA
102
}
102
{ACAD_REACTORS
330
6A
102
}
330
6A
100
AcDbMaterial
  1
Global
 72
     0
 43
0.0008202099737533
 43
0.0
 43
0.0
 43
0.0
 43
0.0
 43
0.0008202099737533
 43
0.0
 43
0.0
 43
0.0
 43
0.0
 43
1.0
 43
0.0
 43
0.0
 43
0.0
 43
0.0
 43
1.0
 77
     0
 47
0.0008202099737533
 47
0.0
 47
0.0
 47
0.0
 47
0.0
 47
0.0008202099737533
 47
0.0
 47
0.0
 47
0.0
 47
0.0
 47
1.0
 47
0.0
 47
0.0
 47
0.0
 47
0.0
 47
1.0
171
     0
 49
0.0008202099737533
 49
0.0
 49
0.0
 49
0.0
 49
0.0
 49
0.0008202099737533
 49
0.0
 49
0.0
 49
0.0
 49
0.0
 49
1.0
 49
0.0
 49
0.0
 49
0.0
 49
0.0
 49
1.0
175
     0
142
0.0008202099737533
142
0.0
142
0.0
142
0.0
142
0.0
142
0.0008202099737533
142
0.0
142
0.0
142
0.0
142
0.0
142
1.0
142
0.0
142
0.0
142
0.0
142
0.0
142
1.0
179
     0
144
0.0008202099737533
144
0.0
144
0.0
144
0.0
144
0.0
144
0.0008202099737533
144
0.0
144
0.0
144
0.0
144
0.0
144
1.0
144
0.0
144
0.0
144
0.0
144
0.0
144
1.0
147
0.0008202099737533
147
0.0
147
0.0
147
0.0
147
0.0
147
0.0008202099737533
147
0.0
147
0.0
147
0.0
147
0.0
147
1.0
147
0.0
147
0.0
147
0.0
147
0.0
147
1.0
  0
MLEADERSTYLE
  5
B415
102
{ACAD_REACTORS
330
B414
102
}
330
B414
100
AcDbMLeaderStyle
179
     2
170
     2
171
     1
172
     0
 90
        2
 40
0.0
 41
0.0
173
     1
 91
-1056964608
340
14
 92
       -2
290
     1
 42
2.0
291
     1
 43
0.36
  3
Standard
 44
4.0
300

342
11
174
     1
178
     6
175
     1
176
     0
 93
-1056964608
 45
4.0
292
     0
297
     0
 46
4.0
 94
-1056964608
 47
1.0
 49
1.0
140
1.0
293
     1
141
0.0
294
     1
177
     0
142
1.0
295
     0
296
     0
143
0.125
271
     0
272
     9
273
     9
298
     0
1001
ACAD
1000
AcRTDxfName
1000
MLEADERSTYLE
1000
AcRTDxfName
1000
MLEADERSTYLE
1000
AcRTDxfName
1000
MLEADERSTYLE
  0
MLINESTYLE
  5
18
102
{ACAD_REACTORS
330
17
102
}
330
17
100
AcDbMlineStyle
  2
STANDARD
 70
     0
  3

 62
   256
 51
90.0
 52
90.0
 71
     2
 49
0.5
 62
   256
  6
BYLAYER
 49
-0.5
 62
   256
  6
BYLAYER
  0
ACDBPLACEHOLDER
  5
F
102
{ACAD_REACTORS
330
E
102
}
330
E
  0
SCALE
  5
B403
102
{ACAD_REACTORS
330
B402
102
}
330
B402
100
AcDbScale
 70
     0
300
1:1
140
1.0
141
1.0
290
     1
1001
ACAD
1000
AcRTDxfName
1000
SCALE
1000
AcRTDxfName
1000
SCALE
1000
AcRTDxfName
1000
SCALE
  0
SCALE
  5
B404
102
{ACAD_REACTORS
330
B402
102
}
330
B402
100
AcDbScale
 70
     0
300
1:2
140
1.0
141
2.0
290
     0
1001
ACAD
1000
AcRTDxfName
1000
SCALE
1000
AcRTDxfName
1000
SCALE
1000
AcRTDxfName
1000
SCALE
  0
SCALE
  5
B405
102
{ACAD_REACTORS
330
B402
102
}
330
B402
100
AcDbScale
 70
     0
300
1:4
140
1.0
141
4.0
290
     0
1001
ACAD
1000
AcRTDxfName
1000
SCALE
1000
AcRTDxfName
1000
SCALE
1000
AcRTDxfName
1000
SCALE
  0
SCALE
  5
B406
102
{ACAD_REACTORS
330
B402
102
}
330
B402
100
AcDbScale
 70
     0
300
1:5
140
1.0
141
5.0
290
     0
1001
ACAD
1000
AcRTDxfName
1000
SCALE
1000
AcRTDxfName
1000
SCALE
1000
AcRTDxfName
1000
SCALE
  0
SCALE
  5
B407
102
{ACAD_REACTORS
330
B402
102
}
330
B402
100
AcDbScale
 70
     0
300
1:8
140
1.0
141
8.0
290
     0
1001
ACAD
1000
AcRTDxfName
1000
SCALE
1000
AcRTDxfName
1000
SCALE
1000
AcRTDxfName
1000
SCALE
  0
SCALE
  5
B408
102
{ACAD_REACTORS
330
B402
102
}
330
B402
100
AcDbScale
 70
     0
300
1:10
140
1.0
141
10.0
290
     0
1001
ACAD
1000
AcRTDxfName
1000
SCALE
1000
AcRTDxfName
1000
SCALE
1000
AcRTDxfName
1000
SCALE
  0
SCALE
  5
B409
102
{ACAD_REACTORS
330
B402
102
}
330
B402
100
AcDbScale
 70
     0
300
1:16
140
1.0
141
16.0
290
     0
1001
ACAD
1000
AcRTDxfName
1000
SCALE
1000
AcRTDxfName
1000
SCALE
1000
AcRTDxfName
1000
SCALE
  0
SCALE
  5
B40A
102
{ACAD_REACTORS
330
B402
102
}
330
B402
100
AcDbScale
 70
     0
300
1:20
140
1.0
141
20.0
290
     0
1001
ACAD
1000
AcRTDxfName
1000
SCALE
1000
AcRTDxfName
1000
SCALE
1000
AcRTDxfName
1000
SCALE
  0
SCALE
  5
B40B
102
{ACAD_REACTORS
330
B402
102
}
330
B402
100
AcDbScale
 70
     0
300
1:30
140
1.0
141
30.0
290
     0
1001
ACAD
1000
AcRTDxfName
1000
SCALE
1000
AcRTDxfName
1000
SCALE
1000
AcRTDxfName
1000
SCALE
  0
SCALE
  5
B40C
102
{ACAD_REACTORS
330
B402
102
}
330
B402
100
AcDbScale
 70
     0
300
1:40
140
1.0
141
40.0
290
     0
1001
ACAD
1000
AcRTDxfName
1000
SCALE
1000
AcRTDxfName
1000
SCALE
1000
AcRTDxfName
1000
SCALE
  0
SCALE
  5
B40D
102
{ACAD_REACTORS
330
B402
102
}
330
B402
100
AcDbScale
 70
     0
300
1:50
140
1.0
141
50.0
290
     0
1001
ACAD
1000
AcRTDxfName
1000
SCALE
1000
AcRTDxfName
1000
SCALE
1000
AcRTDxfName
1000
SCALE
  0
SCALE
  5
B40E
102
{ACAD_REACTORS
330
B402
102
}
330
B402
100
AcDbScale
 70
     0
300
1:100
140
1.0
141
100.0
290
     0
1001
ACAD
1000
AcRTDxfName
1000
SCALE
1000
AcRTDxfName
1000
SCALE
1000
AcRTDxfName
1000
SCALE
  0
SCALE
  5
B40F
102
{ACAD_REACTORS
330
B402
102
}
330
B402
100
AcDbScale
 70
     0
300
2:1
140
2.0
141
1.0
290
     0
1001
ACAD
1000
AcRTDxfName
1000
SCALE
1000
AcRTDxfName
1000
SCALE
1000
AcRTDxfName
1000
SCALE
  0
SCALE
  5
B410
102
{ACAD_REACTORS
330
B402
102
}
330
B402
100
AcDbScale
 70
     0
300
4:1
140
4.0
141
1.0
290
     0
1001
ACAD
1000
AcRTDxfName
1000
SCALE
1000
AcRTDxfName
1000
SCALE
1000
AcRTDxfName
1000
SCALE
  0
SCALE
  5
B411
102
{ACAD_REACTORS
330
B402
102
}
330
B402
100
AcDbScale
 70
     0
300
8:1
140
8.0
141
1.0
290
     0
1001
ACAD
1000
AcRTDxfName
1000
SCALE
1000
AcRTDxfName
1000
SCALE
1000
AcRTDxfName
1000
SCALE
  0
SCALE
  5
B412
102
{ACAD_REACTORS
330
B402
102
}
330
B402
100
AcDbScale
 70
     0
300
10:1
140
10.0
141
1.0
290
     0
1001
ACAD
1000
AcRTDxfName
1000
SCALE
1000
AcRTDxfName
1000
SCALE
1000
AcRTDxfName
1000
SCALE
  0
SCALE
  5
B413
102
{ACAD_REACTORS
330
B402
102
}
330
B402
100
AcDbScale
 70
     0
300
100:1
140
100.0
141
1.0
290
     0
1001
ACAD
1000
AcRTDxfName
1000
SCALE
1000
AcRTDxfName
1000
SCALE
1000
AcRTDxfName
1000
SCALE
  0
ACDBSECTIONVIEWSTYLE
  5
118A7
102
{ACAD_XDICTIONARY
360
141FD
102
}
102
{ACAD_REACTORS
330
118A6
102
}
330
118A6
100
AcDbModelDocViewStyle
 70
     0
  3
Metric50
290
     0
100
AcDbSectionViewStyle
 70
     0
 71
     0
 90
      102
 71
     1
340
11
 62
   256
 40
5.0
340
0
340
0
 62
   256
 40
5.0
300
I, O, Q, S, X, Z
 40
10.0
 90
        0
 40
2.5
 90
        0
 71
     2
340
16
 90
       25
 62
   256
340
16
 90
       50
 62
   256
 40
5.0
 40
2.5
 40
5.0
 71
     3
340
11
 62
   256
 40
5.0
 90
        0
 40
15.0
 90
        1
300
%<\AcVar ViewSectionStartId>%-%<\AcVar ViewSectionEndId>% (%<\AcVar ViewScale \f "%sn">%)
 71
     4
 62
   256
 62
   257
300
ANSI31
 40
1.0
 90
        0
290
     0
290
     0
 90
        6
 40
0.0
 40
1.570796326794896
 40
0.2617993877991494
 40
1.308996938995747
 40
-0.2617993877991494
 40
1.832595714594046
  0
TABLESTYLE
  5
7F
102
{ACAD_XDICTIONARY
360
B64B
102
}
102
{ACAD_REACTORS
330
7E
102
}
330
7E
100
AcDbTableStyle
280
     0
  3
Standard
 70
     0
 71
     0
 40
1.5
 41
1.5
280
     0
281
     0
  7
Standard
140
4.5
170
     2
 62
     0
 63
     7
283
     0
 90
        4
 91
        0
  1

274
    -2
284
     1
 64
     0
275
    -2
285
     1
 65
     0
276
    -2
286
     1
 66
     0
277
    -2
287
     1
 67
     0
278
    -2
288
     1
 68
     0
279
    -2
289
     1
 69
     0
  7
Standard
140
6.0
170
     5
 62
     0
 63
     7
283
     0
 90
        4
 91
        0
  1

274
    -2
284
     1
 64
     0
275
    -2
285
     1
 65
     0
276
    -2
286
     1
 66
     0
277
    -2
287
     1
 67
     0
278
    -2
288
     1
 68
     0
279
    -2
289
     1
 69
     0
  7
Standard
140
4.5
170
     5
 62
     0
 63
     7
283
     0
 90
        4
 91
        0
  1

274
    -2
284
     1
 64
     0
275
    -2
285
     1
 65
     0
276
    -2
286
     1
 66
     0
277
    -2
287
     1
 67
     0
278
    -2
288
     1
 68
     0
279
    -2
289
     1
 69
     0
  0
VISUALSTYLE
  5
B3F7
102
{ACAD_REACTORS
330
B3F1
102
}
330
B3F1
100
AcDbVisualStyle
  2
2dWireframe
 70
     4
177
     3
291
     0
 70
    58
 90
        0
176
     1
 90
        2
176
     1
 90
        0
176
     1
 90
        0
176
     1
 40
0.6
176
     1
 40
30.0
176
     1
 62
     7
176
     1
 90
        1
176
     1
 90
        4
176
     1
 62
     7
176
     1
 62
   257
176
     1
 90
        1
176
     1
 90
        1
176
     1
 40
1.0
176
     1
 90
        0
176
     1
 62
   257
176
     1
 40
1.0
176
     1
 90
        1
176
     1
 90
        6
176
     1
 90
        2
176
     1
 62
     7
176
     1
 90
        5
176
     1
 90
        0
176
     1
 90
        0
176
     1
290
     0
176
     1
 90
        1
176
     1
 40
0.0
176
     1
 90
        0
176
     1
290
     1
176
     1
290
     1
176
     1
290
     0
176
     1
290
     0
176
     1
290
     0
176
     1
290
     0
176
     1
290
     0
176
     1
290
     0
176
     1
290
     0
176
     1
 90
       50
176
     1
 40
0.0
176
     1
 40
1.0
176
     1
 90
        0
176
     1
 62
    18
420
        0
176
     1
 90
       50
176
     1
 90
        3
176
     1
 62
     5
420
      255
176
     1
290
     0
176
     1
 90
       50
176
     1
 90
       50
176
     1
 90
       50
176
     1
290
     0
176
     1
 90
       50
176
     1
 62
   256
176
     0
 40
1.0
176
     0
 90
        2
176
     1
  1
strokes_ogs.tif
176
     1
290
     0
176
     1
 40
1.0
176
     1
 40
1.0
176
     1
1001
ACAD
1000
AcRTDxfName
1000
VISUALSTYLE
1000
AcRTDxfName
1000
VISUALSTYLE
1000
AcRTDxfName
1000
VISUALSTYLE
1000
AcDbSavedByObjectVersion
1070
     0
  0
VISUALSTYLE
  5
B3F9
102
{ACAD_REACTORS
330
B3F1
102
}
330
B3F1
100
AcDbVisualStyle
  2
3D Hidden
 70
     6
177
     3
291
     0
 70
    58
 90
        1
176
     1
 90
        2
176
     1
 90
        2
176
     1
 90
        0
176
     1
 40
0.6
176
     1
 40
30.0
176
     1
 62
     7
176
     1
 90
        2
176
     1
 90
        2
176
     1
 62
     7
176
     1
 62
   257
176
     1
 90
        2
176
     1
 90
        1
176
     1
 40
40.0
176
     1
 90
        0
176
     1
 62
   257
176
     1
 40
1.0
176
     1
 90
        1
176
     1
 90
        6
176
     1
 90
        2
176
     1
 62
     7
176
     1
 90
        3
176
     1
 90
        0
176
     1
 90
        0
176
     1
290
     0
176
     1
 90
        1
176
     1
 40
0.0
176
     1
 90
        0
176
     1
290
     0
176
     1
290
     1
176
     1
290
     1
176
     1
290
     0
176
     1
290
     0
176
     1
290
     0
176
     1
290
     0
176
     1
290
     0
176
     1
290
     0
176
     1
 90
       50
176
     1
 40
0.0
176
     1
 40
1.0
176
     1
 90
        0
176
     1
 62
    18
420
        0
176
     1
 90
       50
176
     1
 90
        3
176
     1
 62
     5
420
      255
176
     1
290
     0
176
     1
 90
       50
176
     1
 90
       50
176
     1
 90
       50
176
     1
290
     0
176
     1
 90
       50
176
     1
 62
   256
176
     0
 40
1.0
176
     0
 90
        2
176
     1
  1
strokes_ogs.tif
176
     1
290
     0
176
     1
 40
1.0
176
     1
 40
1.0
176
     1
1001
ACAD
1000
AcRTDxfName
1000
VISUALSTYLE
1000
AcRTDxfName
1000
VISUALSTYLE
1000
AcRTDxfName
1000
VISUALSTYLE
1000
AcDbSavedByObjectVersion
1070
     0
  0
VISUALSTYLE
  5
B3F8
102
{ACAD_REACTORS
330
B3F1
102
}
330
B3F1
100
AcDbVisualStyle
  2
3dWireframe
 70
     5
177
     3
291
     0
 70
    58
 90
        0
176
     1
 90
        2
176
     1
 90
        0
176
     1
 90
        0
176
     1
 40
0.6
176
     1
 40
30.0
176
     1
 62
     7
176
     1
 90
        1
176
     1
 90
        4
176
     1
 62
     7
176
     1
 62
   257
176
     1
 90
        1
176
     1
 90
        1
176
     1
 40
1.0
176
     1
 90
        0
176
     1
 62
   257
176
     1
 40
1.0
176
     1
 90
        1
176
     1
 90
        6
176
     1
 90
        2
176
     1
 62
     7
176
     1
 90
        5
176
     1
 90
        0
176
     1
 90
        0
176
     1
290
     0
176
     1
 90
        1
176
     1
 40
0.0
176
     1
 90
        0
176
     1
290
     0
176
     1
290
     1
176
     1
290
     1
176
     1
290
     0
176
     1
290
     0
176
     1
290
     0
176
     1
290
     0
176
     1
290
     0
176
     1
290
     0
176
     1
 90
       50
176
     1
 40
0.0
176
     1
 40
1.0
176
     1
 90
        0
176
     1
 62
    18
420
        0
176
     1
 90
       50
176
     1
 90
        3
176
     1
 62
     5
420
      255
176
     1
290
     0
176
     1
 90
       50
176
     1
 90
       50
176
     1
 90
       50
176
     1
290
     0
176
     1
 90
       50
176
     1
 62
   256
176
     0
 40
1.0
176
     0
 90
        2
176
     1
  1
strokes_ogs.tif
176
     1
290
     0
176
     1
 40
1.0
176
     1
 40
1.0
176
     1
1001
ACAD
1000
AcRTDxfName
1000
VISUALSTYLE
1000
AcRTDxfName
1000
VISUALSTYLE
1000
AcRTDxfName
1000
VISUALSTYLE
1000
AcDbSavedByObjectVersion
1070
     0
  0
VISUALSTYLE
  5
B3F6
102
{ACAD_REACTORS
330
B3F1
102
}
330
B3F1
100
AcDbVisualStyle
  2
Basic
 70
     7
177
     3
291
     1
 70
    58
 90
        1
176
     1
 90
        0
176
     1
 90
        1
176
     1
 90
        0
176
     1
 40
0.6
176
     1
 40
30.0
176
     1
 62
     7
176
     1
 90
        0
176
     1
 90
        4
176
     1
 62
     7
176
     1
 62
   257
176
     1
 90
        1
176
     1
 90
        1
176
     1
 40
1.0
176
     1
 90
        8
176
     1
 62
     7
176
     1
 40
1.0
176
     1
 90
        1
176
     1
 90
        6
176
     1
 90
        2
176
     1
 62
     7
176
     1
 90
        5
176
     1
 90
        0
176
     1
 90
        0
176
     1
290
     0
176
     1
 90
        1
176
     1
 40
0.0
176
     1
 90
        0
176
     1
290
     0
176
     1
290
     1
176
     1
290
     1
176
     1
290
     0
176
     1
290
     0
176
     1
290
     0
176
     1
290
     0
176
     1
290
     0
176
     1
290
     0
176
     1
 90
       50
176
     1
 40
0.0
176
     1
 40
1.0
176
     1
 90
        0
176
     1
 62
    18
420
        0
176
     1
 90
       50
176
     1
 90
        3
176
     1
 62
     5
420
      255
176
     1
290
     0
176
     1
 90
       50
176
     1
 90
       50
176
     1
 90
       50
176
     1
290
     0
176
     1
 90
       50
176
     1
 62
   256
176
     0
 40
1.0
176
     0
 90
        2
176
     1
  1
strokes_ogs.tif
176
     1
290
     0
176
     1
 40
1.0
176
     1
 40
1.0
176
     1
1001
ACAD
1000
AcRTDxfName
1000
VISUALSTYLE
1000
AcRTDxfName
1000
VISUALSTYLE
1000
AcRTDxfName
1000
VISUALSTYLE
1000
AcDbSavedByObjectVersion
1070
     0
  0
VISUALSTYLE
  5
B3FD
102
{ACAD_REACTORS
330
B3F1
102
}
330
B3F1
100
AcDbVisualStyle
  2
Brighten
 70
    12
177
     3
291
     1
 70
    58
 90
        2
176
     1
 90
        2
176
     1
 90
        0
176
     1
 90
        0
176
     1
 40
0.6
176
     1
 40
30.0
176
     1
 62
     7
176
     1
 90
        1
176
     1
 90
        4
176
     1
 62
     7
176
     1
 62
   257
176
     1
 90
        1
176
     1
 90
        1
176
     1
 40
1.0
176
     1
 90
        8
176
     1
 62
     7
176
     1
 40
1.0
176
     1
 90
        1
176
     1
 90
        6
176
     1
 90
        2
176
     1
 62
     7
176
     1
 90
        5
176
     1
 90
        0
176
     1
 90
        0
176
     1
290
     0
176
     1
 90
        1
176
     1
 40
50.0
176
     1
 90
        0
176
     1
290
     0
176
     1
290
     1
176
     1
290
     1
176
     1
290
     0
176
     1
290
     0
176
     1
290
     0
176
     1
290
     0
176
     1
290
     0
176
     1
290
     0
176
     1
 90
       50
176
     1
 40
0.0
176
     1
 40
1.0
176
     1
 90
        0
176
     1
 62
    18
420
        0
176
     1
 90
       50
176
     1
 90
        3
176
     1
 62
     5
420
      255
176
     1
290
     0
176
     1
 90
       50
176
     1
 90
       50
176
     1
 90
       50
176
     1
290
     0
176
     1
 90
       50
176
     1
 62
   256
176
     0
 40
1.0
176
     0
 90
        2
176
     1
  1
strokes_ogs.tif
176
     1
290
     0
176
     1
 40
1.0
176
     1
 40
1.0
176
     1
1001
ACAD
1000
AcRTDxfName
1000
VISUALSTYLE
1000
AcRTDxfName
1000
VISUALSTYLE
1000
AcRTDxfName
1000
VISUALSTYLE
1000
AcDbSavedByObjectVersion
1070
     0
  0
VISUALSTYLE
  5
B401
102
{ACAD_REACTORS
330
B3F1
102
}
330
B3F1
100
AcDbVisualStyle
  2
ColorChange
 70
    16
177
     3
291
     1
 70
    58
 90
        2
176
     1
 90
        2
176
     1
 90
        3
176
     1
 90
        0
176
     1
 40
0.6
176
     1
 40
30.0
176
     1
 62
     8
176
     1
 90
        1
176
     1
 90
        4
176
     1
 62
     7
176
     1
 62
   257
176
     1
 90
        1
176
     1
 90
        1
176
     1
 40
1.0
176
     1
 90
        8
176
     1
 62
     8
176
     1
 40
1.0
176
     1
 90
        1
176
     1
 90
        6
176
     1
 90
        2
176
     1
 62
     7
176
     1
 90
        5
176
     1
 90
        0
176
     1
 90
        0
176
     1
290
     0
176
     1
 90
        1
176
     1
 40
0.0
176
     1
 90
        0
176
     1
290
     0
176
     1
290
     1
176
     1
290
     1
176
     1
290
     0
176
     1
290
     0
176
     1
290
     0
176
     1
290
     0
176
     1
290
     0
176
     1
290
     0
176
     1
 90
       50
176
     1
 40
0.0
176
     1
 40
1.0
176
     1
 90
        0
176
     1
 62
    18
420
        0
176
     1
 90
       50
176
     1
 90
        3
176
     1
 62
     5
420
      255
176
     1
290
     0
176
     1
 90
       50
176
     1
 90
       50
176
     1
 90
       50
176
     1
290
     0
176
     1
 90
       50
176
     1
 62
   256
176
     0
 40
1.0
176
     0
 90
        2
176
     1
  1
strokes_ogs.tif
176
     1
290
     0
176
     1
 40
1.0
176
     1
 40
1.0
176
     1
1001
ACAD
1000
AcRTDxfName
1000
VISUALSTYLE
1000
AcRTDxfName
1000
VISUALSTYLE
1000
AcRTDxfName
1000
VISUALSTYLE
1000
AcDbSavedByObjectVersion
1070
     0
  0
VISUALSTYLE
  5
B3FA
102
{ACAD_REACTORS
330
B3F1
102
}
330
B3F1
100
AcDbVisualStyle
  2
Conceptual
 70
     9
177
     3
291
     0
 70
    58
 90
        3
176
     1
 90
        2
176
     1
 90
        0
176
     1
 90
        0
176
     1
 40
0.6
176
     1
 40
30.0
176
     1
 62
     7
176
     1
 90
        2
176
     1
 90
        2
176
     1
 62
     7
176
     1
 62
   257
176
     1
 90
        1
176
     1
 90
        1
176
     1
 40
40.0
176
     1
 90
        8
176
     1
 62
     7
176
     1
 40
1.0
176
     1
 90
        1
176
     1
 90
        6
176
     1
 90
        2
176
     1
 62
     7
176
     1
 90
        3
176
     1
 90
        0
176
     1
 90
        0
176
     1
290
     0
176
     1
 90
        1
176
     1
 40
0.0
176
     1
 90
        0
176
     1
290
     0
176
     1
290
     1
176
     1
290
     1
176
     1
290
     0
176
     1
290
     0
176
     1
290
     0
176
     1
290
     0
176
     1
290
     0
176
     1
290
     0
176
     1
 90
       50
176
     1
 40
0.0
176
     1
 40
1.0
176
     1
 90
        0
176
     1
 62
    18
420
        0
176
     1
 90
       50
176
     1
 90
        3
176
     1
 62
     5
420
      255
176
     1
290
     0
176
     1
 90
       50
176
     1
 90
       50
176
     1
 90
       50
176
     1
290
     0
176
     1
 90
       50
176
     1
 62
   256
176
     0
 40
1.0
176
     0
 90
        2
176
     1
  1
strokes_ogs.tif
176
     1
290
     0
176
     1
 40
1.0
176
     1
 40
1.0
176
     1
1001
ACAD
1000
AcRTDxfName
1000
VISUALSTYLE
1000
AcRTDxfName
1000
VISUALSTYLE
1000
AcRTDxfName
1000
VISUALSTYLE
1000
AcDbSavedByObjectVersion
1070
     0
  0
VISUALSTYLE
  5
B3FC
102
{ACAD_REACTORS
330
B3F1
102
}
330
B3F1
100
AcDbVisualStyle
  2
Dim
 70
    11
177
     3
291
     1
 70
    58
 90
        2
176
     1
 90
        2
176
     1
 90
        0
176
     1
 90
        0
176
     1
 40
0.6
176
     1
 40
30.0
176
     1
 62
     7
176
     1
 90
        1
176
     1
 90
        4
176
     1
 62
     7
176
     1
 62
   257
176
     1
 90
        1
176
     1
 90
        1
176
     1
 40
1.0
176
     1
 90
        8
176
     1
 62
     7
176
     1
 40
1.0
176
     1
 90
        1
176
     1
 90
        6
176
     1
 90
        2
176
     1
 62
     7
176
     1
 90
        5
176
     1
 90
        0
176
     1
 90
        0
176
     1
290
     0
176
     1
 90
        1
176
     1
 40
-50.0
176
     1
 90
        0
176
     1
290
     0
176
     1
290
     1
176
     1
290
     1
176
     1
290
     0
176
     1
290
     0
176
     1
290
     0
176
     1
290
     0
176
     1
290
     0
176
     1
290
     0
176
     1
 90
       50
176
     1
 40
0.0
176
     1
 40
1.0
176
     1
 90
        0
176
     1
 62
    18
420
        0
176
     1
 90
       50
176
     1
 90
        3
176
     1
 62
     5
420
      255
176
     1
290
     0
176
     1
 90
       50
176
     1
 90
       50
176
     1
 90
       50
176
     1
290
     0
176
     1
 90
       50
176
     1
 62
   256
176
     0
 40
1.0
176
     0
 90
        2
176
     1
  1
strokes_ogs.tif
176
     1
290
     0
176
     1
 40
1.0
176
     1
 40
1.0
176
     1
1001
ACAD
1000
AcRTDxfName
1000
VISUALSTYLE
1000
AcRTDxfName
1000
VISUALSTYLE
1000
AcRTDxfName
1000
VISUALSTYLE
1000
AcDbSavedByObjectVersion
1070
     0
  0
VISUALSTYLE
  5
118A5
102
{ACAD_REACTORS
330
B3F1
102
}
330
B3F1
100
AcDbVisualStyle
  2
EdgeColorOff
 70
    22
177
     3
291
     1
 70
    58
 90
        2
176
     0
 90
        2
176
     0
 90
        0
176
     0
 90
        0
176
     0
 40
0.6
176
     0
 40
30.0
176
     0
 62
     7
420
 16777215
176
     0
 90
        1
176
     0
 90
        4
176
     0
 62
     7
176
     0
 62
   257
176
     0
 90
        1
176
     0
 90
        1
176
     0
 40
1.0
176
     0
 90
        8
176
     2
 62
     7
176
     0
 40
1.0
176
     0
 90
        1
176
     0
 90
        6
176
     0
 90
        2
176
     0
 62
     7
176
     0
 90
        5
176
     0
 90
        0
176
     0
 90
        0
176
     0
290
     0
176
     0
 90
        1
176
     0
 40
0.0
176
     0
 90
        0
176
     0
290
     0
176
     0
290
     1
176
     0
290
     1
176
     0
290
     0
176
     0
290
     0
176
     0
290
     0
176
     0
290
     0
176
     0
290
     0
176
     0
290
     0
176
     0
 90
       50
176
     0
 40
0.0
176
     0
 40
1.0
176
     0
 90
        0
176
     0
 62
    18
420
        0
176
     0
 90
       50
176
     0
 90
        3
176
     0
 62
     5
420
      255
176
     0
290
     0
176
     0
 90
       50
176
     0
 90
       50
176
     0
 90
       50
176
     0
290
     0
176
     0
 90
       50
176
     0
 62
   256
176
     0
 40
1.0
176
     0
 90
        2
176
     0
  1
strokes_ogs.tif
176
     0
290
     0
176
     0
 40
1.0
176
     0
 40
1.0
176
     0
1001
ACAD
1000
AcDbSavedByObjectVersion
1070
     0
  0
VISUALSTYLE
  5
B400
102
{ACAD_REACTORS
330
B3F1
102
}
330
B3F1
100
AcDbVisualStyle
  2
Facepattern
 70
    15
177
     3
291
     1
 70
    58
 90
        2
176
     1
 90
        2
176
     1
 90
        0
176
     1
 90
        0
176
     1
 40
0.6
176
     1
 40
30.0
176
     1
 62
     7
176
     1
 90
        1
176
     1
 90
        4
176
     1
 62
     7
176
     1
 62
   257
176
     1
 90
        1
176
     1
 90
        1
176
     1
 40
1.0
176
     1
 90
        8
176
     1
 62
     7
176
     1
 40
1.0
176
     1
 90
        1
176
     1
 90
        6
176
     1
 90
        2
176
     1
 62
     7
176
     1
 90
        5
176
     1
 90
        0
176
     1
 90
        0
176
     1
290
     0
176
     1
 90
        1
176
     1
 40
0.0
176
     1
 90
        0
176
     1
290
     0
176
     1
290
     1
176
     1
290
     1
176
     1
290
     0
176
     1
290
     0
176
     1
290
     0
176
     1
290
     0
176
     1
290
     0
176
     1
290
     0
176
     1
 90
       50
176
     1
 40
0.0
176
     1
 40
1.0
176
     1
 90
        0
176
     1
 62
    18
420
        0
176
     1
 90
       50
176
     1
 90
        3
176
     1
 62
     5
420
      255
176
     1
290
     0
176
     1
 90
       50
176
     1
 90
       50
176
     1
 90
       50
176
     1
290
     0
176
     1
 90
       50
176
     1
 62
   256
176
     0
 40
1.0
176
     0
 90
        2
176
     1
  1
strokes_ogs.tif
176
     1
290
     0
176
     1
 40
1.0
176
     1
 40
1.0
176
     1
1001
ACAD
1000
AcRTDxfName
1000
VISUALSTYLE
1000
AcRTDxfName
1000
VISUALSTYLE
1000
AcRTDxfName
1000
VISUALSTYLE
1000
AcDbSavedByObjectVersion
1070
     0
  0
VISUALSTYLE
  5
B3F2
102
{ACAD_REACTORS
330
B3F1
102
}
330
B3F1
100
AcDbVisualStyle
  2
Flat
 70
     0
177
     3
291
     1
 70
    58
 90
        2
176
     1
 90
        1
176
     1
 90
        1
176
     1
 90
        2
176
     1
 40
0.6
176
     1
 40
30.0
176
     1
 62
     7
176
     1
 90
        0
176
     1
 90
        4
176
     1
 62
     7
176
     1
 62
   257
176
     1
 90
        1
176
     1
 90
        1
176
     1
 40
1.0
176
     1
 90
        8
176
     1
 62
     7
176
     1
 40
1.0
176
     1
 90
        1
176
     1
 90
        6
176
     1
 90
        2
176
     1
 62
     7
176
     1
 90
        5
176
     1
 90
        0
176
     1
 90
        0
176
     1
290
     0
176
     1
 90
       13
176
     1
 40
0.0
176
     1
 90
        0
176
     1
290
     0
176
     1
290
     1
176
     1
290
     1
176
     1
290
     0
176
     1
290
     0
176
     1
290
     0
176
     1
290
     0
176
     1
290
     0
176
     1
290
     0
176
     1
 90
       50
176
     1
 40
0.0
176
     1
 40
1.0
176
     1
 90
        0
176
     1
 62
    18
420
        0
176
     1
 90
       50
176
     1
 90
        3
176
     1
 62
     5
420
      255
176
     1
290
     0
176
     1
 90
       50
176
     1
 90
       50
176
     1
 90
       50
176
     1
290
     0
176
     1
 90
       50
176
     1
 62
   256
176
     0
 40
1.0
176
     0
 90
        2
176
     1
  1
strokes_ogs.tif
176
     1
290
     0
176
     1
 40
1.0
176
     1
 40
1.0
176
     1
1001
ACAD
1000
AcRTDxfName
1000
VISUALSTYLE
1000
AcRTDxfName
1000
VISUALSTYLE
1000
AcRTDxfName
1000
VISUALSTYLE
1000
AcDbSavedByObjectVersion
1070
     0
  0
VISUALSTYLE
  5
B3F3
102
{ACAD_REACTORS
330
B3F1
102
}
330
B3F1
100
AcDbVisualStyle
  2
FlatWithEdges
 70
     1
177
     3
291
     1
 70
    58
 90
        2
176
     1
 90
        1
176
     1
 90
        1
176
     1
 90
        2
176
     1
 40
0.6
176
     1
 40
30.0
176
     1
 62
     7
176
     1
 90
        1
176
     1
 90
        4
176
     1
 62
     7
176
     1
 62
   257
176
     1
 90
        1
176
     1
 90
        1
176
     1
 40
1.0
176
     1
 90
        0
176
     1
 62
   257
176
     1
 40
1.0
176
     1
 90
        1
176
     1
 90
        6
176
     1
 90
        2
176
     1
 62
     7
176
     1
 90
        5
176
     1
 90
        0
176
     1
 90
        0
176
     1
290
     0
176
     1
 90
       13
176
     1
 40
0.0
176
     1
 90
        0
176
     1
290
     0
176
     1
290
     1
176
     1
290
     1
176
     1
290
     0
176
     1
290
     0
176
     1
290
     0
176
     1
290
     0
176
     1
290
     0
176
     1
290
     0
176
     1
 90
       50
176
     1
 40
0.0
176
     1
 40
1.0
176
     1
 90
        0
176
     1
 62
    18
420
        0
176
     1
 90
       50
176
     1
 90
        3
176
     1
 62
     5
420
      255
176
     1
290
     0
176
     1
 90
       50
176
     1
 90
       50
176
     1
 90
       50
176
     1
290
     0
176
     1
 90
       50
176
     1
 62
   256
176
     0
 40
1.0
176
     0
 90
        2
176
     1
  1
strokes_ogs.tif
176
     1
290
     0
176
     1
 40
1.0
176
     1
 40
1.0
176
     1
1001
ACAD
1000
AcRTDxfName
1000
VISUALSTYLE
1000
AcRTDxfName
1000
VISUALSTYLE
1000
AcRTDxfName
1000
VISUALSTYLE
1000
AcDbSavedByObjectVersion
1070
     0
  0
VISUALSTYLE
  5
B3F4
102
{ACAD_REACTORS
330
B3F1
102
}
330
B3F1
100
AcDbVisualStyle
  2
Gouraud
 70
     2
177
     3
291
     1
 70
    58
 90
        2
176
     1
 90
        2
176
     1
 90
        1
176
     1
 90
        2
176
     1
 40
0.6
176
     1
 40
30.0
176
     1
 62
     7
176
     1
 90
        0
176
     1
 90
        4
176
     1
 62
     7
176
     1
 62
   257
176
     1
 90
        1
176
     1
 90
        1
176
     1
 40
1.0
176
     1
 90
        0
176
     1
 62
     7
176
     1
 40
1.0
176
     1
 90
        1
176
     1
 90
        6
176
     1
 90
        2
176
     1
 62
     7
176
     1
 90
        5
176
     1
 90
        0
176
     1
 90
        0
176
     1
290
     0
176
     1
 90
       13
176
     1
 40
0.0
176
     1
 90
        0
176
     1
290
     0
176
     1
290
     1
176
     1
290
     1
176
     1
290
     0
176
     1
290
     0
176
     1
290
     0
176
     1
290
     0
176
     1
290
     0
176
     1
290
     0
176
     1
 90
       50
176
     1
 40
0.0
176
     1
 40
1.0
176
     1
 90
        0
176
     1
 62
    18
420
        0
176
     1
 90
       50
176
     1
 90
        3
176
     1
 62
     5
420
      255
176
     1
290
     0
176
     1
 90
       50
176
     1
 90
       50
176
     1
 90
       50
176
     1
290
     0
176
     1
 90
       50
176
     1
 62
   256
176
     0
 40
1.0
176
     0
 90
        2
176
     1
  1
strokes_ogs.tif
176
     1
290
     0
176
     1
 40
1.0
176
     1
 40
1.0
176
     1
1001
ACAD
1000
AcRTDxfName
1000
VISUALSTYLE
1000
AcRTDxfName
1000
VISUALSTYLE
1000
AcRTDxfName
1000
VISUALSTYLE
1000
AcDbSavedByObjectVersion
1070
     0
  0
VISUALSTYLE
  5
B3F5
102
{ACAD_REACTORS
330
B3F1
102
}
330
B3F1
100
AcDbVisualStyle
  2
GouraudWithEdges
 70
     3
177
     3
291
     1
 70
    58
 90
        2
176
     1
 90
        2
176
     1
 90
        1
176
     1
 90
        2
176
     1
 40
0.6
176
     1
 40
30.0
176
     1
 62
     7
176
     1
 90
        1
176
     1
 90
        4
176
     1
 62
     7
176
     1
 62
   257
176
     1
 90
        1
176
     1
 90
        1
176
     1
 40
1.0
176
     1
 90
        0
176
     1
 62
   257
176
     1
 40
1.0
176
     1
 90
        1
176
     1
 90
        6
176
     1
 90
        2
176
     1
 62
     7
176
     1
 90
        5
176
     1
 90
        0
176
     1
 90
        0
176
     1
290
     0
176
     1
 90
       13
176
     1
 40
0.0
176
     1
 90
        0
176
     1
290
     0
176
     1
290
     1
176
     1
290
     1
176
     1
290
     0
176
     1
290
     0
176
     1
290
     0
176
     1
290
     0
176
     1
290
     0
176
     1
290
     0
176
     1
 90
       50
176
     1
 40
0.0
176
     1
 40
1.0
176
     1
 90
        0
176
     1
 62
    18
420
        0
176
     1
 90
       50
176
     1
 90
        3
176
     1
 62
     5
420
      255
176
     1
290
     0
176
     1
 90
       50
176
     1
 90
       50
176
     1
 90
       50
176
     1
290
     0
176
     1
 90
       50
176
     1
 62
   256
176
     0
 40
1.0
176
     0
 90
        2
176
     1
  1
strokes_ogs.tif
176
     1
290
     0
176
     1
 40
1.0
176
     1
 40
1.0
176
     1
1001
ACAD
1000
AcRTDxfName
1000
VISUALSTYLE
1000
AcRTDxfName
1000
VISUALSTYLE
1000
AcRTDxfName
1000
VISUALSTYLE
1000
AcDbSavedByObjectVersion
1070
     0
  0
VISUALSTYLE
  5
1189D
102
{ACAD_REACTORS
330
B3F1
102
}
330
B3F1
100
AcDbVisualStyle
  2
Hidden
 70
     6
177
     3
291
     0
 70
    58
 90
        1
176
     1
 90
        2
176
     1
 90
        2
176
     1
 90
        0
176
     1
 40
0.6
176
     1
 40
30.0
176
     1
 62
     7
420
 16777215
176
     1
 90
        2
176
     1
 90
        2
176
     1
 62
     7
176
     1
 62
   257
176
     1
 90
        2
176
     1
 90
        1
176
     1
 40
40.0
176
     1
 90
        0
176
     1
 62
   257
176
     1
 40
1.0
176
     1
 90
        1
176
     1
 90
        6
176
     1
 90
        2
176
     1
 62
     7
176
     1
 90
        3
176
     1
 90
        0
176
     1
 90
        0
176
     1
290
     0
176
     1
 90
        1
176
     1
 40
0.0
176
     1
 90
        0
176
     1
290
     0
176
     1
290
     1
176
     1
290
     1
176
     1
290
     0
176
     1
290
     0
176
     1
290
     0
176
     1
290
     0
176
     1
290
     0
176
     1
290
     0
176
     1
 90
       50
176
     1
 40
0.0
176
     1
 40
1.0
176
     1
 90
        0
176
     1
 62
    18
420
        0
176
     1
 90
       50
176
     1
 90
        3
176
     1
 62
     5
420
      255
176
     1
290
     0
176
     1
 90
       50
176
     1
 90
       50
176
     1
 90
       50
176
     1
290
     0
176
     1
 90
       50
176
     1
 62
   256
176
     0
 40
1.0
176
     0
 90
        2
176
     1
  1
strokes_ogs.tif
176
     1
290
     0
176
     1
 40
1.0
176
     1
 40
1.0
176
     1
1001
ACAD
1000
AcDbSavedByObjectVersion
1070
     0
  0
VISUALSTYLE
  5
118A3
102
{ACAD_REACTORS
330
B3F1
102
}
330
B3F1
100
AcDbVisualStyle
  2
JitterOff
 70
    20
177
     3
291
     1
 70
    58
 90
        2
176
     0
 90
        2
176
     0
 90
        0
176
     0
 90
        0
176
     0
 40
0.6
176
     0
 40
30.0
176
     0
 62
     7
420
 16777215
176
     0
 90
        1
176
     0
 90
        4
176
     0
 62
     7
176
     0
 62
   257
176
     0
 90
        1
176
     0
 90
        1
176
     0
 40
1.0
176
     0
 90
       10
176
     2
 62
     7
176
     0
 40
1.0
176
     0
 90
        1
176
     0
 90
        6
176
     0
 90
        2
176
     0
 62
     7
176
     0
 90
        5
176
     0
 90
        0
176
     0
 90
        0
176
     0
290
     0
176
     0
 90
        1
176
     0
 40
0.0
176
     0
 90
        0
176
     0
290
     0
176
     0
290
     1
176
     0
290
     1
176
     0
290
     0
176
     0
290
     0
176
     0
290
     0
176
     0
290
     0
176
     0
290
     0
176
     0
290
     0
176
     0
 90
       50
176
     0
 40
0.0
176
     0
 40
1.0
176
     0
 90
        0
176
     0
 62
    18
420
        0
176
     0
 90
       50
176
     0
 90
        3
176
     0
 62
     5
420
      255
176
     0
290
     0
176
     0
 90
       50
176
     0
 90
       50
176
     0
 90
       50
176
     0
290
     0
176
     0
 90
       50
176
     0
 62
   256
176
     0
 40
1.0
176
     0
 90
        2
176
     0
  1
strokes_ogs.tif
176
     0
290
     0
176
     0
 40
1.0
176
     0
 40
1.0
176
     0
1001
ACAD
1000
AcDbSavedByObjectVersion
1070
     0
  0
VISUALSTYLE
  5
B3FF
102
{ACAD_REACTORS
330
B3F1
102
}
330
B3F1
100
AcDbVisualStyle
  2
Linepattern
 70
    14
177
     3
291
     1
 70
    58
 90
        2
176
     1
 90
        2
176
     1
 90
        0
176
     1
 90
        0
176
     1
 40
0.6
176
     1
 40
30.0
176
     1
 62
     7
176
     1
 90
        1
176
     1
 90
        4
176
     1
 62
     7
176
     1
 62
   257
176
     1
 90
        7
176
     1
 90
        7
176
     1
 40
1.0
176
     1
 90
        8
176
     1
 62
     7
176
     1
 40
1.0
176
     1
 90
        1
176
     1
 90
        6
176
     1
 90
        2
176
     1
 62
     7
176
     1
 90
        5
176
     1
 90
        0
176
     1
 90
        0
176
     1
290
     0
176
     1
 90
        1
176
     1
 40
0.0
176
     1
 90
        0
176
     1
290
     0
176
     1
290
     1
176
     1
290
     1
176
     1
290
     0
176
     1
290
     0
176
     1
290
     0
176
     1
290
     0
176
     1
290
     0
176
     1
290
     0
176
     1
 90
       50
176
     1
 40
0.0
176
     1
 40
1.0
176
     1
 90
        0
176
     1
 62
    18
420
        0
176
     1
 90
       50
176
     1
 90
        3
176
     1
 62
     5
420
      255
176
     1
290
     0
176
     1
 90
       50
176
     1
 90
       50
176
     1
 90
       50
176
     1
290
     0
176
     1
 90
       50
176
     1
 62
   256
176
     0
 40
1.0
176
     0
 90
        2
176
     1
  1
strokes_ogs.tif
176
     1
290
     0
176
     1
 40
1.0
176
     1
 40
1.0
176
     1
1001
ACAD
1000
AcRTDxfName
1000
VISUALSTYLE
1000
AcRTDxfName
1000
VISUALSTYLE
1000
AcRTDxfName
1000
VISUALSTYLE
1000
AcDbSavedByObjectVersion
1070
     0
  0
VISUALSTYLE
  5
118A4
102
{ACAD_REACTORS
330
B3F1
102
}
330
B3F1
100
AcDbVisualStyle
  2
OverhangOff
 70
    21
177
     3
291
     1
 70
    58
 90
        2
176
     0
 90
        2
176
     0
 90
        0
176
     0
 90
        0
176
     0
 40
0.6
176
     0
 40
30.0
176
     0
 62
     7
420
 16777215
176
     0
 90
        1
176
     0
 90
        4
176
     0
 62
     7
176
     0
 62
   257
176
     0
 90
        1
176
     0
 90
        1
176
     0
 40
1.0
176
     0
 90
        9
176
     2
 62
     7
176
     0
 40
1.0
176
     0
 90
        1
176
     0
 90
        6
176
     0
 90
        2
176
     0
 62
     7
176
     0
 90
        5
176
     0
 90
        0
176
     0
 90
        0
176
     0
290
     0
176
     0
 90
        1
176
     0
 40
0.0
176
     0
 90
        0
176
     0
290
     0
176
     0
290
     1
176
     0
290
     1
176
     0
290
     0
176
     0
290
     0
176
     0
290
     0
176
     0
290
     0
176
     0
290
     0
176
     0
290
     0
176
     0
 90
       50
176
     0
 40
0.0
176
     0
 40
1.0
176
     0
 90
        0
176
     0
 62
    18
420
        0
176
     0
 90
       50
176
     0
 90
        3
176
     0
 62
     5
420
      255
176
     0
290
     0
176
     0
 90
       50
176
     0
 90
       50
176
     0
 90
       50
176
     0
290
     0
176
     0
 90
       50
176
     0
 62
   256
176
     0
 40
1.0
176
     0
 90
        2
176
     0
  1
strokes_ogs.tif
176
     0
290
     0
176
     0
 40
1.0
176
     0
 40
1.0
176
     0
1001
ACAD
1000
AcDbSavedByObjectVersion
1070
     0
  0
VISUALSTYLE
  5
B3FB
102
{ACAD_REACTORS
330
B3F1
102
}
330
B3F1
100
AcDbVisualStyle
  2
Realistic
 70
     8
177
     3
291
     0
 70
    58
 90
        2
176
     1
 90
        2
176
     1
 90
        0
176
     1
 90
        0
176
     1
 40
0.6
176
     1
 40
30.0
176
     1
 62
     7
176
     1
 90
        1
176
     1
 90
        0
176
     1
 62
     7
176
     1
 62
   257
176
     1
 90
        1
176
     1
 90
        1
176
     1
 40
1.0
176
     1
 90
        8
176
     1
 62
     8
176
     1
 40
1.0
176
     1
 90
        1
176
     1
 90
        6
176
     1
 90
        2
176
     1
 62
     7
176
     1
 90
        5
176
     1
 90
        0
176
     1
 90
        0
176
     1
290
     0
176
     1
 90
       13
176
     1
 40
0.0
176
     1
 90
        0
176
     1
290
     0
176
     1
290
     1
176
     1
290
     1
176
     1
290
     0
176
     1
290
     0
176
     1
290
     0
176
     1
290
     0
176
     1
290
     0
176
     1
290
     0
176
     1
 90
       50
176
     1
 40
0.0
176
     1
 40
1.0
176
     1
 90
        0
176
     1
 62
    18
420
        0
176
     1
 90
       50
176
     1
 90
        3
176
     1
 62
     5
420
      255
176
     1
290
     0
176
     1
 90
       50
176
     1
 90
       50
176
     1
 90
       50
176
     1
290
     0
176
     1
 90
       50
176
     1
 62
   256
176
     0
 40
1.0
176
     0
 90
        2
176
     1
  1
strokes_ogs.tif
176
     1
290
     0
176
     1
 40
1.0
176
     1
 40
1.0
176
     1
1001
ACAD
1000
AcRTDxfName
1000
VISUALSTYLE
1000
AcRTDxfName
1000
VISUALSTYLE
1000
AcRTDxfName
1000
VISUALSTYLE
1000
AcDbSavedByObjectVersion
1070
     0
  0
VISUALSTYLE
  5
118A2
102
{ACAD_REACTORS
330
B3F1
102
}
330
B3F1
100
AcDbVisualStyle
  2
Shaded
 70
    27
177
     3
291
     0
 70
    58
 90
        2
176
     1
 90
        2
176
     1
 90
        1
176
     1
 90
        2
176
     1
 40
0.6
176
     1
 40
30.0
176
     1
 62
     7
420
 16777215
176
     1
 90
        0
176
     1
 90
        4
176
     1
 62
     7
176
     1
 62
   257
176
     1
 90
        1
176
     1
 90
        1
176
     1
 40
1.0
176
     1
 90
        8
176
     1
 62
   257
176
     1
 40
1.0
176
     1
 90
        1
176
     1
 90
        6
176
     1
 90
        2
176
     1
 62
     8
420
  7895160
176
     1
 90
        3
176
     1
 90
        0
176
     1
 90
        0
176
     1
290
     0
176
     1
 90
        5
176
     1
 40
0.0
176
     1
 90
        0
176
     1
290
     0
176
     1
290
     1
176
     1
290
     1
176
     1
290
     0
176
     1
290
     0
176
     1
290
     0
176
     1
290
     0
176
     1
290
     0
176
     1
290
     0
176
     1
 90
       50
176
     1
 40
0.0
176
     1
 40
1.0
176
     1
 90
        0
176
     1
 62
    18
420
        0
176
     1
 90
       50
176
     1
 90
        3
176
     1
 62
     5
420
      255
176
     1
290
     0
176
     1
 90
       50
176
     1
 90
       50
176
     1
 90
       50
176
     1
290
     0
176
     1
 90
       50
176
     1
 62
   256
176
     0
 40
1.0
176
     0
 90
        2
176
     1
  1
strokes_ogs.tif
176
     1
290
     0
176
     1
 40
1.0
176
     1
 40
1.0
176
     1
1001
ACAD
1000
AcDbSavedByObjectVersion
1070
     0
  0
VISUALSTYLE
  5
118A1
102
{ACAD_REACTORS
330
B3F1
102
}
330
B3F1
100
AcDbVisualStyle
  2
Shaded with edges
 70
    26
177
     3
291
     0
 70
    58
 90
        2
176
     1
 90
        2
176
     1
 90
        1
176
     1
 90
        2
176
     1
 40
0.6
176
     1
 40
30.0
176
     1
 62
     7
420
 16777215
176
     1
 90
        1
176
     1
 90
        2
176
     1
 62
     7
176
     1
 62
   257
176
     1
 90
        2
176
     1
 90
        1
176
     1
 40
1.0
176
     1
 90
        8
176
     1
 62
   257
176
     1
 40
1.0
176
     1
 90
        1
176
     1
 90
        6
176
     1
 90
        2
176
     1
 62
     7
176
     1
 90
        3
176
     1
 90
        0
176
     1
 90
        0
176
     1
290
     0
176
     1
 90
        5
176
     1
 40
0.0
176
     1
 90
        0
176
     1
290
     0
176
     1
290
     1
176
     1
290
     1
176
     1
290
     0
176
     1
290
     0
176
     1
290
     0
176
     1
290
     0
176
     1
290
     0
176
     1
290
     0
176
     1
 90
       50
176
     1
 40
0.0
176
     1
 40
1.0
176
     1
 90
        0
176
     1
 62
    18
420
        0
176
     1
 90
       50
176
     1
 90
        3
176
     1
 62
     5
420
      255
176
     1
290
     0
176
     1
 90
       50
176
     1
 90
       50
176
     1
 90
       50
176
     1
290
     0
176
     1
 90
       50
176
     1
 62
   256
176
     0
 40
1.0
176
     0
 90
        2
176
     1
  1
strokes_ogs.tif
176
     1
290
     0
176
     1
 40
1.0
176
     1
 40
1.0
176
     1
1001
ACAD
1000
AcDbSavedByObjectVersion
1070
     0
  0
VISUALSTYLE
  5
1189E
102
{ACAD_REACTORS
330
B3F1
102
}
330
B3F1
100
AcDbVisualStyle
  2
Shades of Gray
 70
    23
177
     3
291
     0
 70
    58
 90
        2
176
     1
 90
        2
176
     1
 90
        3
176
     1
 90
        0
176
     1
 40
0.6
176
     1
 40
30.0
176
     1
 62
     7
420
 16777215
176
     1
 90
        2
176
     1
 90
        2
176
     1
 62
     7
176
     1
 62
     7
176
     1
 90
        1
176
     1
 90
        1
176
     1
 40
40.0
176
     1
 90
        8
176
     1
 62
     7
176
     1
 40
1.0
176
     1
 90
        1
176
     1
 90
        6
176
     1
 90
        2
176
     1
 62
     7
176
     1
 90
        3
176
     1
 90
        0
176
     1
 90
        0
176
     1
290
     0
176
     1
 90
        1
176
     1
 40
0.0
176
     1
 90
        0
176
     1
290
     0
176
     1
290
     1
176
     1
290
     1
176
     1
290
     0
176
     1
290
     0
176
     1
290
     0
176
     1
290
     0
176
     1
290
     0
176
     1
290
     0
176
     1
 90
       50
176
     1
 40
0.0
176
     1
 40
1.0
176
     1
 90
        0
176
     1
 62
    18
420
        0
176
     1
 90
       50
176
     1
 90
        3
176
     1
 62
     5
420
      255
176
     1
290
     0
176
     1
 90
       50
176
     1
 90
       50
176
     1
 90
       50
176
     1
290
     0
176
     1
 90
       50
176
     1
 62
   256
176
     0
 40
1.0
176
     0
 90
        2
176
     1
  1
strokes_ogs.tif
176
     1
290
     0
176
     1
 40
1.0
176
     1
 40
1.0
176
     1
1001
ACAD
1000
AcDbSavedByObjectVersion
1070
     0
  0
VISUALSTYLE
  5
1189F
102
{ACAD_REACTORS
330
B3F1
102
}
330
B3F1
100
AcDbVisualStyle
  2
Sketchy
 70
    24
177
     3
291
     0
 70
    58
 90
        1
176
     1
 90
        2
176
     1
 90
        2
176
     1
 90
        0
176
     1
 40
0.6
176
     1
 40
30.0
176
     1
 62
     7
420
 16777215
176
     1
 90
        2
176
     1
 90
        2
176
     1
 62
     7
176
     1
 62
     7
176
     1
 90
        1
176
     1
 90
        1
176
     1
 40
40.0
176
     1
 90
       11
176
     1
 62
     7
176
     1
 40
1.0
176
     1
 90
        1
176
     1
 90
        6
176
     1
 90
        2
176
     1
 62
     7
176
     1
 90
        6
176
     1
 90
        0
176
     1
 90
        0
176
     1
290
     0
176
     1
 90
        1
176
     1
 40
0.0
176
     1
 90
        0
176
     1
290
     0
176
     1
290
     1
176
     1
290
     1
176
     1
290
     0
176
     1
290
     0
176
     1
290
     0
176
     1
290
     0
176
     1
290
     0
176
     1
290
     0
176
     1
 90
       50
176
     1
 40
0.0
176
     1
 40
1.0
176
     1
 90
        0
176
     1
 62
    18
420
        0
176
     1
 90
       50
176
     1
 90
        3
176
     1
 62
     5
420
      255
176
     1
290
     0
176
     1
 90
       50
176
     1
 90
       50
176
     1
 90
       50
176
     1
290
     0
176
     1
 90
       50
176
     1
 62
   256
176
     0
 40
1.0
176
     0
 90
        2
176
     1
  1
strokes_ogs.tif
176
     1
290
     0
176
     1
 40
1.0
176
     1
 40
1.0
176
     1
1001
ACAD
1000
AcDbSavedByObjectVersion
1070
     0
  0
VISUALSTYLE
  5
B3FE
102
{ACAD_REACTORS
330
B3F1
102
}
330
B3F1
100
AcDbVisualStyle
  2
Thicken
 70
    13
177
     3
291
     1
 70
    58
 90
        2
176
     1
 90
        2
176
     1
 90
        0
176
     1
 90
        0
176
     1
 40
0.6
176
     1
 40
30.0
176
     1
 62
     7
176
     1
 90
        1
176
     1
 90
        4
176
     1
 62
     7
176
     1
 62
   257
176
     1
 90
        1
176
     1
 90
        1
176
     1
 40
1.0
176
     1
 90
       12
176
     1
 62
     7
176
     1
 40
1.0
176
     1
 90
        1
176
     1
 90
        6
176
     1
 90
        2
176
     1
 62
     7
176
     1
 90
        5
176
     1
 90
        0
176
     1
 90
        0
176
     1
290
     0
176
     1
 90
        1
176
     1
 40
0.0
176
     1
 90
        0
176
     1
290
     0
176
     1
290
     1
176
     1
290
     1
176
     1
290
     0
176
     1
290
     0
176
     1
290
     0
176
     1
290
     0
176
     1
290
     0
176
     1
290
     0
176
     1
 90
       50
176
     1
 40
0.0
176
     1
 40
1.0
176
     1
 90
        0
176
     1
 62
    18
420
        0
176
     1
 90
       50
176
     1
 90
        3
176
     1
 62
     5
420
      255
176
     1
290
     0
176
     1
 90
       50
176
     1
 90
       50
176
     1
 90
       50
176
     1
290
     0
176
     1
 90
       50
176
     1
 62
   256
176
     0
 40
1.0
176
     0
 90
        2
176
     1
  1
strokes_ogs.tif
176
     1
290
     0
176
     1
 40
1.0
176
     1
 40
1.0
176
     1
1001
ACAD
1000
AcRTDxfName
1000
VISUALSTYLE
1000
AcRTDxfName
1000
VISUALSTYLE
1000
AcRTDxfName
1000
VISUALSTYLE
1000
AcDbSavedByObjectVersion
1070
     0
  0
VISUALSTYLE
  5
1189C
102
{ACAD_REACTORS
330
B3F1
102
}
330
B3F1
100
AcDbVisualStyle
  2
Wireframe
 70
     5
177
     3
291
     0
 70
    58
 90
        0
176
     1
 90
        2
176
     1
 90
        0
176
     1
 90
        0
176
     1
 40
0.6
176
     1
 40
30.0
176
     1
 62
     7
420
 16777215
176
     1
 90
        1
176
     1
 90
        4
176
     1
 62
     7
176
     1
 62
   257
176
     1
 90
        1
176
     1
 90
        1
176
     1
 40
1.0
176
     1
 90
        0
176
     1
 62
   257
176
     1
 40
1.0
176
     1
 90
        1
176
     1
 90
        6
176
     1
 90
        2
176
     1
 62
     7
176
     1
 90
        3
176
     1
 90
        0
176
     1
 90
        0
176
     1
290
     0
176
     1
 90
        1
176
     1
 40
0.0
176
     1
 90
        0
176
     1
290
     0
176
     1
290
     1
176
     1
290
     1
176
     1
290
     0
176
     1
290
     0
176
     1
290
     0
176
     1
290
     0
176
     1
290
     0
176
     1
290
     0
176
     1
 90
       50
176
     1
 40
0.0
176
     1
 40
1.0
176
     1
 90
        0
176
     1
 62
    18
420
        0
176
     1
 90
       50
176
     1
 90
        3
176
     1
 62
     5
420
      255
176
     1
290
     0
176
     1
 90
       50
176
     1
 90
       50
176
     1
 90
       50
176
     1
290
     0
176
     1
 90
       50
176
     1
 62
   256
176
     0
 40
1.0
176
     0
 90
        2
176
     1
  1
strokes_ogs.tif
176
     1
290
     0
176
     1
 40
1.0
176
     1
 40
1.0
176
     1
1001
ACAD
1000
AcDbSavedByObjectVersion
1070
     0
  0
VISUALSTYLE
  5
118A0
102
{ACAD_REACTORS
330
B3F1
102
}
330
B3F1
100
AcDbVisualStyle
  2
X-Ray
 70
    25
177
     3
291
     0
 70
    58
 90
        2
176
     1
 90
        2
176
     1
 90
        1
176
     1
 90
        1
176
     1
 40
0.5
176
     1
 40
30.0
176
     1
 62
     7
420
 16777215
176
     1
 90
        1
176
     1
 90
        0
176
     1
 62
     7
176
     1
 62
   257
176
     1
 90
        1
176
     1
 90
        1
176
     1
 40
1.0
176
     1
 90
        8
176
     1
 62
     7
176
     1
 40
1.0
176
     1
 90
        1
176
     1
 90
        6
176
     1
 90
        2
176
     1
 62
     7
176
     1
 90
        3
176
     1
 90
        0
176
     1
 90
        0
176
     1
290
     0
176
     1
 90
       13
176
     1
 40
0.0
176
     1
 90
        0
176
     1
290
     0
176
     1
290
     1
176
     1
290
     1
176
     1
290
     0
176
     1
290
     0
176
     1
290
     0
176
     1
290
     0
176
     1
290
     0
176
     1
290
     0
176
     1
 90
       50
176
     1
 40
0.0
176
     1
 40
1.0
176
     1
 90
        0
176
     1
 62
    18
420
        0
176
     1
 90
       50
176
     1
 90
        3
176
     1
 62
     5
420
      255
176
     1
290
     0
176
     1
 90
       50
176
     1
 90
       50
176
     1
 90
       50
176
     1
290
     0
176
     1
 90
       50
176
     1
 62
   256
176
     0
 40
1.0
176
     0
 90
        2
176
     1
  1
strokes_ogs.tif
176
     1
290
     0
176
     1
 40
1.0
176
     1
 40
1.0
176
     1
1001
ACAD
1000
AcDbSavedByObjectVersion
1070
     0
  0
DICTIONARYVAR
  5
B65F
102
{ACAD_REACTORS
330
5E
102
}
330
5E
100
DictionaryVariables
280
     0
  1
1:1
  0
DICTIONARYVAR
  5
B65E
102
{ACAD_REACTORS
330
5E
102
}
330
5E
100
DictionaryVariables
280
     0
  1
STANDARD
  0
DICTIONARYVAR
  5
84
102
{ACAD_REACTORS
330
5E
102
}
330
5E
100
DictionaryVariables
280
     0
  1
STANDARD
  0
DICTIONARYVAR
  5
139BC
102
{ACAD_REACTORS
330
5E
102
}
330
5E
100
DictionaryVariables
280
     0
  1
Metric50
  0
DICTIONARYVAR
  5
139BD
102
{ACAD_REACTORS
330
5E
102
}
330
5E
100
DictionaryVariables
280
     0
  1
Metric50
  0
DICTIONARYVAR
  5
5F
102
{ACAD_REACTORS
330
5E
102
}
330
5E
100
DictionaryVariables
280
     0
  1
2
  0
DICTIONARYVAR
  5
63
102
{ACAD_REACTORS
330
5E
102
}
330
5E
100
DictionaryVariables
280
     0
  1
1
  0
DICTIONARYVAR
  5
B661
102
{ACAD_REACTORS
330
5E
102
}
330
5E
100
DictionaryVariables
280
     0
  1
0
  0
DICTIONARYVAR
  5
139C0
102
{ACAD_REACTORS
330
5E
102
}
330
5E
100
DictionaryVariables
280
     0
  1
1
  0
DICTIONARYVAR
  5
139C1
102
{ACAD_REACTORS
330
5E
102
}
330
5E
100
DictionaryVariables
280
     0
  1
15
  0
DICTIONARYVAR
  5
139BF
102
{ACAD_REACTORS
330
5E
102
}
330
5E
100
DictionaryVariables
280
     0
  1
0
  0
DICTIONARYVAR
  5
139BE
102
{ACAD_REACTORS
330
5E
102
}
330
5E
100
DictionaryVariables
280
     0
  1
0
  0
DICTIONARYVAR
  5
B981
102
{ACAD_REACTORS
330
5E
102
}
330
5E
100
DictionaryVariables
280
     0
  1

  0
DICTIONARYVAR
  5
B660
102
{ACAD_REACTORS
330
5E
102
}
330
5E
100
DictionaryVariables
280
     0
  1
127
  0
DICTIONARY
  5
141FC
102
{ACAD_REACTORS
330
141FA
102
}
330
141FA
100
AcDbDictionary
281
     1
  0
DICTIONARY
  5
141FB
102
{ACAD_REACTORS
330
141FA
102
}
330
141FA
100
AcDbDictionary
281
     1
  3
2506218957392
350
141F5
  3
2506218957408
350
141F6
  3
2506218957424
350
141F7
  3
2506218957440
350
141F8
  3
2506218957456
350
141F9
  0
DICTIONARY
  5
141FF
330
118A9
100
AcDbDictionary
280
     1
281
     1
  3
ACAD_XREC_ROUNDTRIP
360
14200
  0
DICTIONARY
  5
79B
330
78E
100
AcDbDictionary
280
     1
281
     1
  0
DICTIONARY
  5
B3E2
330
B3E1
100
AcDbDictionary
280
     1
281
     1
  3
BUMPTILE
360
B3E4
  3
DIFFUSETILE
360
B3E3
  3
OPACITYTILE
360
B3E7
  3
REFLECTIONTILE
360
B3E6
  3
REFRACTIONTILE
360
B3E8
  3
SPECULARTILE
360
B3E5
  0
DICTIONARY
  5
B3DA
330
B3D9
100
AcDbDictionary
280
     1
281
     1
  3
BUMPTILE
360
B3DC
  3
DIFFUSETILE
360
B3DB
  3
OPACITYTILE
360
B3DF
  3
REFLECTIONTILE
360
B3DE
  3
REFRACTIONTILE
360
B3E0
  3
SPECULARTILE
360
B3DD
  0
DICTIONARY
  5
B3EA
330
B3E9
100
AcDbDictionary
280
     1
281
     1
  3
BUMPTILE
360
B3EC
  3
DIFFUSETILE
360
B3EB
  3
OPACITYTILE
360
B3EF
  3
REFLECTIONTILE
360
B3EE
  3
REFRACTIONTILE
360
B3F0
  3
SPECULARTILE
360
B3ED
  0
DICTIONARY
  5
141FD
330
118A7
100
AcDbDictionary
280
     1
281
     1
  3
ACAD_XREC_ROUNDTRIP
360
141FE
  0
DICTIONARY
  5
B64B
330
7F
100
AcDbDictionary
280
     1
281
     1
  3
ACAD_ROUNDTRIP_2008_TABLESTYLE_CELLSTYLEMAP
360
141F3
  0
XRECORD
  5
141F5
102
{ACAD_REACTORS
330
141FB
102
}
330
141FB
100
AcDbXrecord
280
     1
  1
AcDb_Thumbnail_Schema
102
{ATTRRECORD
341
141F6
  2
AcDbDs::TreatedAsObjectData
280
     1
291
     1
102
ATTRRECORD}
102
{ATTRRECORD
341
141F7
  2
AcDbDs::Legacy
280
     1
291
     1
102
ATTRRECORD}
  2
AcDbDs::ID
280
    10
 91
        8
102
{ATTRRECORD
341
141F8
  2
AcDs:Indexable
280
     1
291
     1
102
ATTRRECORD}
102
{ATTRRECORD
341
141F9
  2
AcDbDs::HandleAttribute
280
     7
282
     1
102
ATTRRECORD}
  2
Thumbnail_Data
280
    15
 91
        0
  0
XRECORD
  5
141F6
102
{ACAD_REACTORS
330
141FB
102
}
330
141FB
100
AcDbXrecord
280
     1
  1
AcDbDs::TreatedAsObjectDataSchema
  2
AcDbDs::TreatedAsObjectData
280
     1
 91
        0
  0
XRECORD
  5
141F7
102
{ACAD_REACTORS
330
141FB
102
}
330
141FB
100
AcDbXrecord
280
     1
  1
AcDbDs::LegacySchema
  2
AcDbDs::Legacy
280
     1
 91
        0
  0
XRECORD
  5
141F8
102
{ACAD_REACTORS
330
141FB
102
}
330
141FB
100
AcDbXrecord
280
     1
  1
AcDbDs::IndexedPropertySchema
  2
AcDs:Indexable
280
     1
 91
        0
  0
XRECORD
  5
141F9
102
{ACAD_REACTORS
330
141FB
102
}
330
141FB
100
AcDbXrecord
280
     1
  1
AcDbDs::HandleAttributeSchema
  2
AcDbDs::HandleAttribute
280
     7
 91
        1
284
     1
  0
XRECORD
  5
14200
102
{ACAD_REACTORS
330
141FF
102
}
330
141FF
100
AcDbXrecord
280
     1
102
DISPLAYNAME
  1
Metric50
102
FLAGS
 90
        0
  0
XRECORD
  5
B3E4
102
{ACAD_REACTORS
330
B3E2
102
}
330
B3E2
100
AcDbXrecord
280
     1
270
     1
271
     1
  0
XRECORD
  5
B3E3
102
{ACAD_REACTORS
330
B3E2
102
}
330
B3E2
100
AcDbXrecord
280
     1
270
     1
271
     1
  0
XRECORD
  5
B3E7
102
{ACAD_REACTORS
330
B3E2
102
}
330
B3E2
100
AcDbXrecord
280
     1
270
     1
271
     1
  0
XRECORD
  5
B3E6
102
{ACAD_REACTORS
330
B3E2
102
}
330
B3E2
100
AcDbXrecord
280
     1
270
     1
271
     1
  0
XRECORD
  5
B3E8
102
{ACAD_REACTORS
330
B3E2
102
}
330
B3E2
100
AcDbXrecord
280
     1
270
     1
271
     1
  0
XRECORD
  5
B3E5
102
{ACAD_REACTORS
330
B3E2
102
}
330
B3E2
100
AcDbXrecord
280
     1
270
     1
271
     1
  0
XRECORD
  5
B3DC
102
{ACAD_REACTORS
330
B3DA
102
}
330
B3DA
100
AcDbXrecord
280
     1
270
     1
271
     1
  0
XRECORD
  5
B3DB
102
{ACAD_REACTORS
330
B3DA
102
}
330
B3DA
100
AcDbXrecord
280
     1
270
     1
271
     1
  0
XRECORD
  5
B3DF
102
{ACAD_REACTORS
330
B3DA
102
}
330
B3DA
100
AcDbXrecord
280
     1
270
     1
271
     1
  0
XRECORD
  5
B3DE
102
{ACAD_REACTORS
330
B3DA
102
}
330
B3DA
100
AcDbXrecord
280
     1
270
     1
271
     1
  0
XRECORD
  5
B3E0
102
{ACAD_REACTORS
330
B3DA
102
}
330
B3DA
100
AcDbXrecord
280
     1
270
     1
271
     1
  0
XRECORD
  5
B3DD
102
{ACAD_REACTORS
330
B3DA
102
}
330
B3DA
100
AcDbXrecord
280
     1
270
     1
271
     1
  0
XRECORD
  5
B3EC
102
{ACAD_REACTORS
330
B3EA
102
}
330
B3EA
100
AcDbXrecord
280
     1
270
     1
271
     1
  0
XRECORD
  5
B3EB
102
{ACAD_REACTORS
330
B3EA
102
}
330
B3EA
100
AcDbXrecord
280
     1
270
     1
271
     1
  0
XRECORD
  5
B3EF
102
{ACAD_REACTORS
330
B3EA
102
}
330
B3EA
100
AcDbXrecord
280
     1
270
     1
271
     1
  0
XRECORD
  5
B3EE
102
{ACAD_REACTORS
330
B3EA
102
}
330
B3EA
100
AcDbXrecord
280
     1
270
     1
271
     1
  0
XRECORD
  5
B3F0
102
{ACAD_REACTORS
330
B3EA
102
}
330
B3EA
100
AcDbXrecord
280
     1
270
     1
271
     1
  0
XRECORD
  5
B3ED
102
{ACAD_REACTORS
330
B3EA
102
}
330
B3EA
100
AcDbXrecord
280
     1
270
     1
271
     1
  0
XRECORD
  5
141FE
102
{ACAD_REACTORS
330
141FD
102
}
330
141FD
100
AcDbXrecord
280
     1
102
DISPLAYNAME
  1
Metric50
102
FLAGS
 90
        0
  0
CELLSTYLEMAP
  5
141F3
102
{ACAD_REACTORS
330
B64B
102
}
330
B64B
100
AcDbCellStyleMap
 90
        3
300
CELLSTYLE
  1
TABLEFORMAT_BEGIN
 90
        5
170
     1
 91
        0
 92
    32768
 62
   257
 93
        1
300
CONTENTFORMAT
  1
CONTENTFORMAT_BEGIN
 90
        0
 91
        0
 92
        4
 93
        0
300

 40
0.0
140
1.0
 94
        5
 62
     0
340
11
144
6.0
309
CONTENTFORMAT_END
171
     1
301
MARGIN
  1
CELLMARGIN_BEGIN
 40
1.5
 40
1.5
 40
1.5
 40
1.5
 40
0.18
 40
0.18
309
CELLMARGIN_END
 94
        6
 95
        1
302
GRIDFORMAT
  1
GRIDFORMAT_BEGIN
 90
        0
 91
        1
 62
     0
 92
       -2
340
0
 93
        0
 40
0.045
309
GRIDFORMAT_END
 95
        2
302
GRIDFORMAT
  1
GRIDFORMAT_BEGIN
 90
        0
 91
        1
 62
     0
 92
       -2
340
0
 93
        0
 40
0.045
309
GRIDFORMAT_END
 95
        4
302
GRIDFORMAT
  1
GRIDFORMAT_BEGIN
 90
        0
 91
        1
 62
     0
 92
       -2
340
0
 93
        0
 40
0.045
309
GRIDFORMAT_END
 95
        8
302
GRIDFORMAT
  1
GRIDFORMAT_BEGIN
 90
        0
 91
        1
 62
     0
 92
       -2
340
0
 93
        0
 40
0.045
309
GRIDFORMAT_END
 95
       16
302
GRIDFORMAT
  1
GRIDFORMAT_BEGIN
 90
        0
 91
        1
 62
     0
 92
       -2
340
0
 93
        0
 40
0.045
309
GRIDFORMAT_END
 95
       32
302
GRIDFORMAT
  1
GRIDFORMAT_BEGIN
 90
        0
 91
        1
 62
     0
 92
       -2
340
0
 93
        0
 40
0.045
309
GRIDFORMAT_END
309
TABLEFORMAT_END
  1
CELLSTYLE_BEGIN
 90
        1
 91
        1
300
_TITLE
309
CELLSTYLE_END
300
CELLSTYLE
  1
TABLEFORMAT_BEGIN
 90
        5
170
     1
 91
        0
 92
        0
 62
   257
 93
        1
300
CONTENTFORMAT
  1
CONTENTFORMAT_BEGIN
 90
        0
 91
        0
 92
        4
 93
        0
300

 40
0.0
140
1.0
 94
        5
 62
     0
340
11
144
4.5
309
CONTENTFORMAT_END
171
     1
301
MARGIN
  1
CELLMARGIN_BEGIN
 40
1.5
 40
1.5
 40
1.5
 40
1.5
 40
0.18
 40
0.18
309
CELLMARGIN_END
 94
        6
 95
        1
302
GRIDFORMAT
  1
GRIDFORMAT_BEGIN
 90
        0
 91
        1
 62
     0
 92
       -2
340
0
 93
        0
 40
0.045
309
GRIDFORMAT_END
 95
        2
302
GRIDFORMAT
  1
GRIDFORMAT_BEGIN
 90
        0
 91
        1
 62
     0
 92
       -2
340
0
 93
        0
 40
0.045
309
GRIDFORMAT_END
 95
        4
302
GRIDFORMAT
  1
GRIDFORMAT_BEGIN
 90
        0
 91
        1
 62
     0
 92
       -2
340
0
 93
        0
 40
0.045
309
GRIDFORMAT_END
 95
        8
302
GRIDFORMAT
  1
GRIDFORMAT_BEGIN
 90
        0
 91
        1
 62
     0
 92
       -2
340
0
 93
        0
 40
0.045
309
GRIDFORMAT_END
 95
       16
302
GRIDFORMAT
  1
GRIDFORMAT_BEGIN
 90
        0
 91
        1
 62
     0
 92
       -2
340
0
 93
        0
 40
0.045
309
GRIDFORMAT_END
 95
       32
302
GRIDFORMAT
  1
GRIDFORMAT_BEGIN
 90
        0
 91
        1
 62
     0
 92
       -2
340
0
 93
        0
 40
0.045
309
GRIDFORMAT_END
309
TABLEFORMAT_END
  1
CELLSTYLE_BEGIN
 90
        2
 91
        1
300
_HEADER
309
CELLSTYLE_END
300
CELLSTYLE
  1
TABLEFORMAT_BEGIN
 90
        5
170
     1
 91
        0
 92
        0
 62
   257
 93
        1
300
CONTENTFORMAT
  1
CONTENTFORMAT_BEGIN
 90
        0
 91
        0
 92
        4
 93
        0
300

 40
0.0
140
1.0
 94
        2
 62
     0
340
11
144
4.5
309
CONTENTFORMAT_END
171
     1
301
MARGIN
  1
CELLMARGIN_BEGIN
 40
1.5
 40
1.5
 40
1.5
 40
1.5
 40
0.18
 40
0.18
309
CELLMARGIN_END
 94
        6
 95
        1
302
GRIDFORMAT
  1
GRIDFORMAT_BEGIN
 90
        0
 91
        1
 62
     0
 92
       -2
340
0
 93
        0
 40
0.045
309
GRIDFORMAT_END
 95
        2
302
GRIDFORMAT
  1
GRIDFORMAT_BEGIN
 90
        0
 91
        1
 62
     0
 92
       -2
340
0
 93
        0
 40
0.045
309
GRIDFORMAT_END
 95
        4
302
GRIDFORMAT
  1
GRIDFORMAT_BEGIN
 90
        0
 91
        1
 62
     0
 92
       -2
340
0
 93
        0
 40
0.045
309
GRIDFORMAT_END
 95
        8
302
GRIDFORMAT
  1
GRIDFORMAT_BEGIN
 90
        0
 91
        1
 62
     0
 92
       -2
340
0
 93
        0
 40
0.045
309
GRIDFORMAT_END
 95
       16
302
GRIDFORMAT
  1
GRIDFORMAT_BEGIN
 90
        0
 91
        1
 62
     0
 92
       -2
340
0
 93
        0
 40
0.045
309
GRIDFORMAT_END
 95
       32
302
GRIDFORMAT
  1
GRIDFORMAT_BEGIN
 90
        0
 91
        1
 62
     0
 92
       -2
340
0
 93
        0
 40
0.045
309
GRIDFORMAT_END
309
TABLEFORMAT_END
  1
CELLSTYLE_BEGIN
 90
        3
 91
        2
300
_DATA
309
CELLSTYLE_END
  0
ENDSEC
  0
SECTION
  2
ACDSDATA
 70
     2
 71
     8
  0
ACDSSCHEMA
 90
        0
  1
AcDb_Thumbnail_Schema
  2
AcDbDs::ID
280
    10
 91
        8
  2
Thumbnail_Data
280
    15
 91
        0
101
ACDSRECORD
 95
        0
 90
        1
  2
AcDbDs::TreatedAsObjectData
280
     1
291
     1
101
ACDSRECORD
 95
        0
 90
        2
  2
AcDbDs::Legacy
280
     1
291
     1
101
ACDSRECORD
  1
AcDbDs::ID
 90
        3
  2
AcDs:Indexable
280
     1
291
     1
101
ACDSRECORD
  1
AcDbDs::ID
 90
        4
  2
AcDbDs::HandleAttribute
280
     7
282
     1
  0
ACDSSCHEMA
 90
        1
  1
AcDbDs::TreatedAsObjectDataSchema
  2
AcDbDs::TreatedAsObjectData
280
     1
 91
        0
  0
ACDSSCHEMA
 90
        2
  1
AcDbDs::LegacySchema
  2
AcDbDs::Legacy
280
     1
 91
        0
  0
ACDSSCHEMA
 90
        3
  1
AcDbDs::IndexedPropertySchema
  2
AcDs:Indexable
280
     1
 91
        0
  0
ACDSSCHEMA
 90
        4
  1
AcDbDs::HandleAttributeSchema
  2
AcDbDs::HandleAttribute
280
     7
 91
        1
284
     1
  0
ACDSRECORD
 90
        0
  2
AcDbDs::ID
280
    10
320
22
  2
Thumbnail_Data
280
    15
 94
     2503
310
89504E470D0A1A0A0000000D4948445200000100000000870803000000CE6E778000000300504C5445000000FFFFFF0000000000000000000000000000000000000000000000000000000000330000660000990000CC0000FF0033000033330033660033990033CC0033FF0066000066330066660066990066CC0066FF0099
310
000099330099660099990099CC0099FF00CC0000CC3300CC6600CC9900CCCC00CCFF00FF0000FF3300FF6600FF9900FFCC00FFFF3300003300333300663300993300CC3300FF3333003333333333663333993333CC3333FF3366003366333366663366993366CC3366FF3399003399333399663399993399CC3399FF33CC00
310
33CC3333CC6633CC9933CCCC33CCFF33FF0033FF3333FF6633FF9933FFCC33FFFF6600006600336600666600996600CC6600FF6633006633336633666633996633CC6633FF6666006666336666666666996666CC6666FF6699006699336699666699996699CC6699FF66CC0066CC3366CC6666CC9966CCCC66CCFF66FF0066
310
FF3366FF6666FF9966FFCC66FFFF9900009900339900669900999900CC9900FF9933009933339933669933999933CC9933FF9966009966339966669966999966CC9966FF9999009999339999669999999999CC9999FF99CC0099CC3399CC6699CC9999CCCC99CCFF99FF0099FF3399FF6699FF9999FFCC99FFFFCC0000CC00
310
33CC0066CC0099CC00CCCC00FFCC3300CC3333CC3366CC3399CC33CCCC33FFCC6600CC6633CC6666CC6699CC66CCCC66FFCC9900CC9933CC9966CC9999CC99CCCC99FFCCCC00CCCC33CCCC66CCCC99CCCCCCCCCCFFCCFF00CCFF33CCFF66CCFF99CCFFCCCCFFFFFF0000FF0033FF0066FF0099FF00CCFF00FFFF3300FF3333
310
FF3366FF3399FF33CCFF33FFFF6600FF6633FF6666FF6699FF66CCFF66FFFF9900FF9933FF9966FF9999FF99CCFF99FFFFCC00FFCC33FFCC66FFCC99FFCCCCFFCCFFFFFF00FFFF33FFFF66FFFF99FFFFCCFFFFFF0000000D0D0D1A1A1A2828283535354343435050505D5D5D6B6B6B787878868686939393A1A1A1AEAEAEBB
310
BBBBC9C9C9D6D6D6E4E4E4F1F1F1FFFFFF0000000000000000000000000000000000000000000000000000000000003AE5ACE90000064E4944415478DAED9D4B7A84200C80B910F7DFB1F11AB946F65510096F4440EC40BF4E1D4733F89B4048C032B64AA6E0A74B0B009FBE7B0B401319DFD5FF56003E7BFB178005601A31
310
00FBEFFE2A7FE11F0080BBD76F977B274F096064995E03CAAB587C35F4B8D90114DFA4F2FB691FB74C60620DF06B091905C8B7753744BEAA01E1CA6601403980DB2DCC601308B76CF57D3C14489F05407B83ED2074880934F35A1267C2CC6DC01C00C28AF28B00E03701C0AF9BC0FC00B02858570B00063782CAD8701388E2
310
FC512FB26C5B75080FF4C625526D6CAE7D9FEFDDD3DC2078370D9035418C0040E1172CD8B3EFDBC200D4858157032E0B70C1F859C602F08FC4C8076526103D3D06406FEF17CE43428703503B9F85B13160DA29000298BAF5620A00E7E55769807D2635FB1400608701EC2F381A8088C97E0020E2DA091103205B0E09E0F83B
310
0A000C0060698007008C061C8D29E742359463009CD5C2BE1AE05B9B373E462D69D7001CD8088E0060C742E4071003C0D8D5FD8D042048E3EDF4E688557E00398F383AA0DB460F80E07EF92F1AE08EEAE6D20036B20D087783EFB6017DBBC1337978DD69487683AFF4025D01D0FEFFDA9ACD0F487982F8D013441FC0D11826
310
34E0354F1063C399476301083504C9B1009B682C80ACC16890DD1D0DF2D74683B1521F0F48CEF68BC503F8F0788036CC7040A4BA7082D00D8824234224A4343226785746414CB036862A22C1C1FF3E490A727B7E06C0651DAF00689216AD926C65D35F03D028315C23399B431EAF01D04D0360DA3600FA9BF8DBADD75D004F
310
3D412D745E00A717C2B99D966A57A48B6324EF5F54A734BD5D61EE7EA57247EB5DE133D5A54CFE92CCED6C09902133789B763EA1F760889B31281200D5C36102407AB5523A675100B93945DD011C9E3A3B7EE5863DAEAF1A0B5C5F800284962EDC56C5B9ED6A8721C306019041A8BDD60CD511D8302678893CE41F51AFFB1A
310
006C447A9CE9111BD581E7000E915AB2DCF034809D3FC4455041246B3245EFA8B0327E4E5B81661AA0A2BDE70662DA018CF5037DF3028771CAA1E81190A063D206009440AE37A8098408C49C86518911DE322C4E7BD5906B75672A69E7D4188F94FAD4188F8A9C108034FE411AC0F38E509040EFF9014E53D5BC11E426F953
310
D20D0E1C0CD9DD20EBD60DF27037A8AB00341A34D0042C4788757584B8DA707A81F787C35A032C67A56937E8B8423827003D5C71AEE7F9D30E76ADD64239B24426FE7500D205326E50C3E1F02554CC0CC0E9FF3400374355680257AF6FB7E87C3E0091BCD4F3D418E9D39A3C09E4A5C5D30DA6CB439BF8E844006E86F47E1E
310
005B00BE05008A578E96AD1DBE25721600500C004A01ACE5F3732F9FFF4059006602E0C4707E15002C00BF0520D5913DEEE4E60740D3566402BC8E7940896FF44900AD7AFB8CB5E89CF084004A76151C946E2F0A9A93F70078F5024FD5FD3DF9B600BE62026C0B0070F6A1B7277B7DFA683AA9DA4C2B0AE8421F004EC84A78
310
612BDC0104646CB93D24F417908EE60A4D6D0415370C80DAA757ED9D7F65325BD79E973D4361F366865D228403E0480D1000FA4861808534A8230019C53675306F8F6D145B2008BE65F680C97F78D2770044C74D1AC67C3C1A00727DC7AFEB261A800D34C0918E44C767D000E482A500DC6E03C001C00200D80540D0EB9687
310
FD1800DD661E33E8AE3991830170A78ABC290064091D378BCB84B58E780C00780F80D50D9E0F10215302C77483D0490376B13900C08200F4DB518E10D84BF6B8F0D6EED701B02748041C21663942482B3312803745CC0350EB07080340240118CF01C8D9E335A0B109B0BC09D81A209795538D804FF7020500EC5E00AE8FF1
310
5F74830BC05D00DA0F20EF7E0C80F604D94B009283A1A7FF13A77030749D31D970383C4B2CDB0D3A221CE9B30D879D8088A5019C57990099143E77404485C49C88105935553C836C73570B420A000D897983C5917EC0A9065E1DE862F6CDBD1DF27E7B41517B0F7D3EBB7F8560AE10027C0606459D00AEFF08FC48B85EAF70
310
73F7040198070200F9EB3D250058F201FC230080FFF082E4249874A6876C01DD884C980192601B0D209ED87A3E152697382B9E4433C404C2F725913462790DF0DB33EBBCB26709BC9719AA3501D63C4DFC0A8057A683CD04A0D13CC14F0398E4FEBF08A0F28BFE0B8079CA02B0002C000BC002B0002C000BC002B0002C004F
310
C5FCFA7F9FFF6E59005AC8F87461AB64CA1F0546AC3A199583BA0000000049454E44AE4260824260820960029800268009E0D76EBEFED7E7DFDB26801E7DBCBAC16C95F6076A47CD2D414D17DE0000000049454E44AE42608282
  0
ACDSRECORD
 90
        0
  2
AcDbDs::ID
280
    10
320
78E
  2
Thumbnail_Data
280
    15
 94
     3200
310
89504E470D0A1A0A0000000D4948445200000100000000B5080300000087DCD12600000300504C54450D0D0DFFFFFF0D0D0D0000000000000000000000000000000000000000000000000000330000660000990000CC0000FF0033000033330033660033990033CC0033FF0066000066330066660066990066CC0066FF0099
310
000099330099660099990099CC0099FF00CC0000CC3300CC6600CC9900CCCC00CCFF00FF0000FF3300FF6600FF9900FFCC00FFFF3300003300333300663300993300CC3300FF3333003333333333663333993333CC3333FF3366003366333366663366993366CC3366FF3399003399333399663399993399CC3399FF33CC00
310
33CC3333CC6633CC9933CCCC33CCFF33FF0033FF3333FF6633FF9933FFCC33FFFF6600006600336600666600996600CC6600FF6633006633336633666633996633CC6633FF6666006666336666666666996666CC6666FF6699006699336699666699996699CC6699FF66CC0066CC3366CC6666CC9966CCCC66CCFF66FF0066
310
FF3366FF6666FF9966FFCC66FFFF9900009900339900669900999900CC9900FF9933009933339933669933999933CC9933FF9966009966339966669966999966CC9966FF9999009999339999669999999999CC9999FF99CC0099CC3399CC6699CC9999CCCC99CCFF99FF0099FF3399FF6699FF9999FFCC99FFFFCC0000CC00
310
33CC0066CC0099CC00CCCC00FFCC3300CC3333CC3366CC3399CC33CCCC33FFCC6600CC6633CC6666CC6699CC66CCCC66FFCC9900CC9933CC9966CC9999CC99CCCC99FFCCCC00CCCC33CCCC66CCCC99CCCCCCCCCCFFCCFF00CCFF33CCFF66CCFF99CCFFCCCCFFFFFF0000FF0033FF0066FF0099FF00CCFF00FFFF3300FF3333
310
FF3366FF3399FF33CCFF33FFFF6600FF6633FF6666FF6699FF66CCFF66FFFF9900FF9933FF9966FF9999FF99CCFF99FFFFCC00FFCC33FFCC66FFCC99FFCCCCFFCCFFFFFF00FFFF33FFFF66FFFF99FFFFCCFFFFFF0000000D0D0D1A1A1A2828283535354343435050505D5D5D6B6B6B787878868686939393A1A1A1AEAEAEBB
310
BBBBC9C9C9D6D6D6E4E4E4F1F1F1FFFFFF000000000000000000000000000000000000000000000000000000000000D3F30D92000009374944415478DAED9D499AA5200C807321EEBF63E33572813E00FB2E27209828607078C8575DFD0A07F0378410020FFE759EE003001DA70FC00CC0759A02803E5FFF07E003B001801D
310
251E403FAFFF320018DF17FB0310CBDC2A7AAF0270B6C2F313E374230D006A04F3013C507B5D0AE089DAEB4E00F52F002B45FE59002A45B05A7899ABF05625B8A950DE736503C08CF23E25785313209D399649647ED50FCBBBB109F8FA40697DB00600C416949E6152D104368FD2B29FDCAA805B75C0754DB248E75C280187
310
C5E903383AAC54A2DA58A06913E08EDF6B07BC0D80DC6E3E005D00D8519D5D00C0DE75C0DD009C2BCBD706804ABD8005E6C7A7C1690270710D4879CBA7020068CF00F0AA6370D6313F3E0DF2D49B293D60E8FD4879CBA74100E0EBEBAFC6741EB05002968FEE1880315A1260CC210037084A7DADAF59D31F0013A56A004E6A
310
02CB458315D35F7D8BF2A7638BDC3AA109B8B55CC151141EC5808D1EDB9D0020BDDFF504F194620988EE259E920900477932D012C072A8665E5ED001666C0287D87300D8A9459855953602301F740EF424603E141F5F9B3B160198FB2E333DBD3B05606C96B08B401B006D511B4BD6D76707C0AC4D6600CBC74612B09CA02D
310
019C37B14C02DCF463D60F0D25E02A004512B0BE78E3DFFF6B2580A94F9E128C24E057002C9F97D2F0D00EF04AB0AE1BF422772B009400C8CE626D0096F6D4AC59679C9625381A08D19F897D8F8B7D6C65007FED5E4AA92E539400A3270126ED030543284302BC21546909E2E374005182F260480B003C1B00B45682770348
310
0CE0E2B1805A37789321949A3FC11CCC33845C6408BDD112C4C4008E70648F051609683C16704D06432E95806848943D16501A0DEE0258C7AEDA12303EE6497F40D40B343385BDEF42CF21B28C85719F515E2FA0D80DBED327A8E7123BF00A3BA3E91526B2C17A8505005BAF70926AE7058E01E83581349F778B3BC12D9ECE
310
0BD084B5334300D7CE0CB98399A192E930BB67535E112E5F333778363D0AC01D0973F33F001F8062004BA028B40910DC2F18730B46C19FA200A07588A44EC1D9C1957512700B8022028899D91512F0B4667DFAAE1F80220015D5386B08614BF005630136E4E68CC99F3B16984BC7EDAAFF4B24201A5DEDBE07A71C23947663
310
989C0157037020005886994ED51F10429C90730C1BD8F89F700DA2F01D04ED2EFC7FD179A51E21632C86C1854D00A88E06530073ACCB52A435200340DE0400C928287289997938CDBA171BB8C4A2CE3B2E789A82933D905E65623002318214E9B65209B0A32386FC6E3E313257612C6C729339BBFC97D90482C90EC08A41D1
310
BC809D54A15D9DCD8E0EB41B02888B5CCBB7CC2CEF9EB08B867181044C95308E56E80A0071916BF9394D205E58E43F32CB0FF3006CE59FB6825600EC56FEE7DF8EB5F4B3463F15DD603CB966583DD85602E6DFC6C4937EF260090AC66A65F30253831C4D22BB71B6B5D50173C1D11F6C69EB44221275700A4088B830C40C63
310
9FA665985C3AC3638E7A81DCA173768CD03098DDA41B2364DC7E6966F07347692F50B8CE343B44E6A042463746E83831F2269A7D7B2B7EAA82A41ED0044AC702D512C005483C4107D41842677B01DF0D9A9BBA4113FD21F602616703BAED82B4CAAAC210328F35846ADC57E5869081DB0CA1E0077187314B0D1C22933DFE94
310
C190BBC123B423FF0F180E5F014096FFC60E1152A4397088B404602C5CED1233B02E7DF2451A7B1700DEED7B915394BA846F0020C7401D9E501524051B63949E7015808398A3664152D48613B643BE726A0C336EA4393586D4D1D36EAAF00A0095F53AB8754700E003F001F8003C0D00BB21514E71B92145CC7E765D0378C2
310
A6AADF9EA27DEB809F4D1F80CBBE5FC007FA2076FEFD029707597F001E00E0828D783F25F8240049180E1E1F80BB44A21D00E4ECF8341F854BDE08A0BD9DBBAEA4C7CCBA646D3EAD0840BA6AE779E44BF61167BF8C6B01ECDA4005F9D2CDB20194F434BA00F82211F9362EE51756009FA203FEFE0D6CBB43E110EE5C721E80
310
6D04C0EE02E08F38FE9073F225F9E5077C9B35E764D589D02076018489993059177D22B3330E9D11F6D6DD5D19B3BD649E0822A02CF75C367D2C47F85802CD493A671F80BF310B804C914F4B66F8D7E90A250093B966071C8031931A19741B4E4B0A72925CE500B0D18684D3728D346FCA18A77A07791678C8CE479C0E853B
310
C7652DF96BB8049580259300B05166BD0418EB677EFDA731CF6535E84209C074F394F16587878C90BB4407B492807999440A606C160480B8BFB6820E00190064EB80D600FE2E57D20169945805003281FE2E00F33651B500C29D2D694867010003009A00400E0070004004E0D62680AE4B007E1BADF156882F0300A701B8B5
310
E1C766D28B00C03654F60C00570F205A2EF36000892598008028C6B2742C80FC6A11B2612D3585F50024A6B038C6E100AC57DAB8F58383F2C150582F9403E0EF2C255378D9573858C232006B63001B839A24A806F0E82680BC04F8E8DA134DE0254A90D301F15A7B82A5935E00E3B180EBAF1B44E81C00D950D5418700C258
310
005E3816D0000093C70C9CE26830D321A298CE3A44E25B9CF60710478B496FABED124B5FFAFD2EB13CA7E8C19299124B90DE5A708A862F9FB8C629CAB8C5A953D4A8B9C5E992995BDDE2051323A3EFA1742F31C98FEADD18774F8C84BFB8FBDA64E3CABFBF942400D3EF95B1C0968F540760CA4744550E40989BDB00904300
310
07215E81CBDF0040AE7C4CF7D9C39D49C4DA0D14B67FA108607FD392B06F119BBFC9E30170D902809D6A9F0180D272A6CC7084BCA88D0440D80E0969BCD1DE1323A21A003EE0691BE59519BB527852FA1D23E2ADD2AB80AF691580C358A666EB010AA2A9AA5617A84588E405B9E5C6C25DB857AF2280CCD68D6A381F04E0C1
310
6B622E9200CC5C0580DAE2A48059A909283E59E6EDD60D728285116FA183E470D8638D5CA8A903EE0180F1F76F01321BD0C71C92AC65F18A9E12BC58016064851303E9082536E905D475D3CB74C00D2909081764E8206CFC77005055D807809CB60067F7147D03002A1269CBD8F419F10ED33F078019A6F16212F93D7F0780
310
EF10F1B01BFC0D09E8BE1BACE92C5FA404B3B646F78A2DF8EB82AF10DF0E00B69B7A2D0FB60C6F18CD166F298D19CFF206090004FAD2E9770884AECD47B7E1AF0058F47534C04BD6C4915E2DFE6E89F01C8CB944D6B23E18006CFDEEC92B2EB4176357C101808E120BA0AFF401F80078009D260FA0DFF4011801749EBA07F0
310
1F57C692F8883095A80000000049454E44AE426082AE426082
  0
ENDSEC
  0
EOF
