  0
SECTION
  2
HEADER
  9
$ACADVER
  1
AC1027
  9
$ACADMAINTVER
 70
   125
  9
$DWGCODEPAGE
  3
ANSI_932
  9
$LASTSAVEDBY
  1
D-mishima
  9
$REQUIREDVERSIONS
160
                 0
  9
$INSBASE
 10
0.0
 20
0.0
 30
0.0
  9
$EXTMIN
 10
-0.1281640493871237
 20
-0.0906302920675444
 30
-0.0015258207003583
  9
$EXTMAX
 10
4200.128183607161
 20
2970.090644122207
 30
0.0000000349246037
  9
$LIMMIN
 10
0.0
 20
0.0
  9
$LIMMAX
 10
4200.0
 20
2970.0
  9
$ORTHOMODE
 70
     1
  9
$REGENMODE
 70
     1
  9
$FILLMODE
 70
     1
  9
$QTEXTMODE
 70
     0
  9
$MIRRTEXT
 70
     0
  9
$LTSCALE
 40
0.1
  9
$ATTMODE
 70
     1
  9
$TEXTSIZE
 40
37.5
  9
$TRACEWID
 40
1.0
  9
$TEXTSTYLE
  7
Standard
  9
$CLAYER
  8
寸法線
  9
$CELTYPE
  6
ByLayer
  9
$CECOLOR
 62
   256
  9
$CELTSCALE
 40
1.0
  9
$DISPSILH
 70
     0
  9
$DIMSCALE
 40
10.0
  9
$DIMASZ
 40
2.0
  9
$DIMEXO
 40
0.875
  9
$DIMDLI
 40
10.0
  9
$DIMRND
 40
0.0
  9
$DIMDLE
 40
0.0
  9
$DIMEXE
 40
1.0
  9
$DIMTP
 40
0.0
  9
$DIMTM
 40
0.0
  9
$DIMTXT
 40
2.5
  9
$DIMCEN
 40
0.0
  9
$DIMTSZ
 40
0.0
  9
$DIMTOL
 70
     0
  9
$DIMLIM
 70
     0
  9
$DIMTIH
 70
     0
  9
$DIMTOH
 70
     0
  9
$DIMSE1
 70
     0
  9
$DIMSE2
 70
     0
  9
$DIMTAD
 70
     1
  9
$DIMZIN
 70
     8
  9
$DIMBLK
  1

  9
$DIMASO
 70
     1
  9
$DIMSHO
 70
     1
  9
$DIMPOST
  1

  9
$DIMAPOST
  1

  9
$DIMALT
 70
     0
  9
$DIMALTD
 70
     2
  9
$DIMALTF
 40
25.4
  9
$DIMLFAC
 40
1.0
  9
$DIMTOFL
 70
     1
  9
$DIMTVP
 40
0.0
  9
$DIMTIX
 70
     0
  9
$DIMSOXD
 70
     0
  9
$DIMSAH
 70
     1
  9
$DIMBLK1
  1
OPEN
  9
$DIMBLK2
  1
OPEN
  9
$DIMSTYLE
  2
STANDARD
  9
$DIMCLRD
 70
     0
  9
$DIMCLRE
 70
     0
  9
$DIMCLRT
 70
     0
  9
$DIMTFAC
 40
1.0
  9
$DIMGAP
 40
0.875
  9
$DIMJUST
 70
     0
  9
$DIMSD1
 70
     0
  9
$DIMSD2
 70
     0
  9
$DIMTOLJ
 70
     1
  9
$DIMTZIN
 70
     0
  9
$DIMALTZ
 70
     0
  9
$DIMALTTZ
 70
     0
  9
$DIMUPT
 70
     0
  9
$DIMDEC
 70
     3
  9
$DIMTDEC
 70
     3
  9
$DIMALTU
 70
     2
  9
$DIMALTTD
 70
     2
  9
$DIMTXSTY
  7
Standard
  9
$DIMAUNIT
 70
     0
  9
$DIMADEC
 70
     0
  9
$DIMALTRND
 40
0.0
  9
$DIMAZIN
 70
     0
  9
$DIMDSEP
 70
    46
  9
$DIMATFIT
 70
     3
  9
$DIMFRAC
 70
     0
  9
$DIMLDRBLK
  1
OPEN
  9
$DIMLUNIT
 70
     2
  9
$DIMLWD
 70
    -2
  9
$DIMLWE
 70
    -2
  9
$DIMTMOVE
 70
     0
  9
$DIMFXL
 40
1.0
  9
$DIMFXLON
 70
     0
  9
$DIMJOGANG
 40
1.570796326794896
  9
$DIMTFILL
 70
     0
  9
$DIMTFILLCLR
 70
     0
  9
$DIMARCSYM
 70
     0
  9
$DIMLTYPE
  6

  9
$DIMLTEX1
  6

  9
$DIMLTEX2
  6

  9
$DIMTXTDIRECTION
 70
     0
  9
$LUNITS
 70
     2
  9
$LUPREC
 70
     4
  9
$SKETCHINC
 40
1.0
  9
$FILLETRAD
 40
0.0
  9
$AUNITS
 70
     0
  9
$AUPREC
 70
     0
  9
$MENU
  1
.
  9
$ELEVATION
 40
0.0
  9
$PELEVATION
 40
0.0
  9
$THICKNESS
 40
0.0
  9
$LIMCHECK
 70
     0
  9
$CHAMFERA
 40
0.0
  9
$CHAMFERB
 40
0.0
  9
$CHAMFERC
 40
0.0
  9
$CHAMFERD
 40
0.0
  9
$SKPOLY
 70
     0
  9
$TDCREATE
 40
2454064.449062500
  9
$TDUCREATE
 40
2454064.074062859
  9
$TDUPDATE
 40
2460315.611932871
  9
$TDUUPDATE
 40
2460315.236932871
  9
$TDINDWG
 40
3.6273126505
  9
$TDUSRTIMER
 40
3.6272906019
  9
$USRTIMER
 70
     1
  9
$ANGBASE
 50
0.0
  9
$ANGDIR
 70
     0
  9
$PDMODE
 70
     0
  9
$PDSIZE
 40
0.0
  9
$PLINEWID
 40
0.0
  9
$SPLFRAME
 70
     0
  9
$SPLINETYPE
 70
     6
  9
$SPLINESEGS
 70
     8
  9
$HANDSEED
  5
116C2
  9
$SURFTAB1
 70
     6
  9
$SURFTAB2
 70
     6
  9
$SURFTYPE
 70
     6
  9
$SURFU
 70
     6
  9
$SURFV
 70
     6
  9
$UCSBASE
  2

  9
$UCSNAME
  2

  9
$UCSORG
 10
0.0
 20
0.0
 30
0.0
  9
$UCSXDIR
 10
1.0
 20
0.0
 30
0.0
  9
$UCSYDIR
 10
0.0
 20
1.0
 30
0.0
  9
$UCSORTHOREF
  2

  9
$UCSORTHOVIEW
 70
     0
  9
$UCSORGTOP
 10
0.0
 20
0.0
 30
0.0
  9
$UCSORGBOTTOM
 10
0.0
 20
0.0
 30
0.0
  9
$UCSORGLEFT
 10
0.0
 20
0.0
 30
0.0
  9
$UCSORGRIGHT
 10
0.0
 20
0.0
 30
0.0
  9
$UCSORGFRONT
 10
0.0
 20
0.0
 30
0.0
  9
$UCSORGBACK
 10
0.0
 20
0.0
 30
0.0
  9
$PUCSBASE
  2

  9
$PUCSNAME
  2

  9
$PUCSORG
 10
0.0
 20
0.0
 30
0.0
  9
$PUCSXDIR
 10
1.0
 20
0.0
 30
0.0
  9
$PUCSYDIR
 10
0.0
 20
1.0
 30
0.0
  9
$PUCSORTHOREF
  2

  9
$PUCSORTHOVIEW
 70
     0
  9
$PUCSORGTOP
 10
0.0
 20
0.0
 30
0.0
  9
$PUCSORGBOTTOM
 10
0.0
 20
0.0
 30
0.0
  9
$PUCSORGLEFT
 10
0.0
 20
0.0
 30
0.0
  9
$PUCSORGRIGHT
 10
0.0
 20
0.0
 30
0.0
  9
$PUCSORGFRONT
 10
0.0
 20
0.0
 30
0.0
  9
$PUCSORGBACK
 10
0.0
 20
0.0
 30
0.0
  9
$USERI1
 70
     0
  9
$USERI2
 70
     0
  9
$USERI3
 70
     0
  9
$USERI4
 70
     0
  9
$USERI5
 70
     0
  9
$USERR1
 40
0.0
  9
$USERR2
 40
0.0
  9
$USERR3
 40
0.0
  9
$USERR4
 40
0.0
  9
$USERR5
 40
0.0
  9
$WORLDVIEW
 70
     1
  9
$SHADEDGE
 70
     3
  9
$SHADEDIF
 70
    70
  9
$TILEMODE
 70
     0
  9
$MAXACTVP
 70
    64
  9
$PINSBASE
 10
0.0
 20
0.0
 30
0.0
  9
$PLIMCHECK
 70
     0
  9
$PEXTMIN
 10
-0.0233557008396019
 20
-0.0155136928541424
 30
-0.0015258207003583
  9
$PEXTMAX
 10
408.2225153712125
 20
285.1940104826281
 30
0.0000000349246037
  9
$PLIMMIN
 10
-5.873748779296875
 20
-5.873749732971191
  9
$PLIMMAX
 10
414.0729064941406
 20
291.0522451400757
  9
$UNITMODE
 70
     0
  9
$VISRETAIN
 70
     1
  9
$PLINEGEN
 70
     0
  9
$PSLTSCALE
 70
     1
  9
$TREEDEPTH
 70
  3020
  9
$CMLSTYLE
  2
Standard
  9
$CMLJUST
 70
     0
  9
$CMLSCALE
 40
20.0
  9
$PROXYGRAPHICS
 70
     1
  9
$MEASUREMENT
 70
     1
  9
$CELWEIGHT
370
    -1
  9
$ENDCAPS
280
     0
  9
$JOINSTYLE
280
     0
  9
$LWDISPLAY
290
     0
  9
$INSUNITS
 70
     4
  9
$HYPERLINKBASE
  1

  9
$STYLESHEET
  1
SANKENTC.CTB
  9
$XEDIT
290
     1
  9
$CEPSNTYPE
380
     0
  9
$PSTYLEMODE
290
     1
  9
$FINGERPRINTGUID
  2
{072871F0-2771-4C56-B9BD-B27D0F751D9A}
  9
$VERSIONGUID
  2
{9759B6A8-12E9-8644-9752-87A1628FF8F0}
  9
$EXTNAMES
290
     1
  9
$PSVPSCALE
 40
0.0
  9
$OLESTARTUP
290
     0
  9
$SORTENTS
280
   127
  9
$INDEXCTL
280
     0
  9
$HIDETEXT
280
     1
  9
$XCLIPFRAME
280
     2
  9
$HALOGAP
280
     0
  9
$OBSCOLOR
 70
   257
  9
$OBSLTYPE
280
     0
  9
$INTERSECTIONDISPLAY
280
     0
  9
$INTERSECTIONCOLOR
 70
   257
  9
$DIMASSOC
280
     2
  9
$PROJECTNAME
  1

  9
$CAMERADISPLAY
290
     0
  9
$LENSLENGTH
 40
50.0
  9
$CAMERAHEIGHT
 40
0.0
  9
$STEPSPERSEC
 40
2.0
  9
$STEPSIZE
 40
6.0
  9
$3DDWFPREC
 40
2.0
  9
$PSOLWIDTH
 40
0.25
  9
$PSOLHEIGHT
 40
4.0
  9
$LOFTANG1
 40
1.570796326794896
  9
$LOFTANG2
 40
1.570796326794896
  9
$LOFTMAG1
 40
0.0
  9
$LOFTMAG2
 40
0.0
  9
$LOFTPARAM
 70
     7
  9
$LOFTNORMALS
280
     1
  9
$LATITUDE
 40
37.795
  9
$LONGITUDE
 40
-122.394
  9
$NORTHDIRECTION
 40
0.0
  9
$TIMEZONE
 70
 -8000
  9
$LIGHTGLYPHDISPLAY
280
     1
  9
$TILEMODELIGHTSYNCH
280
     1
  9
$CMATERIAL
347
D19F
  9
$SOLIDHIST
280
     0
  9
$SHOWHIST
280
     1
  9
$DWFFRAME
280
     2
  9
$DGNFRAME
280
     0
  9
$REALWORLDSCALE
290
     1
  9
$INTERFERECOLOR
 62
     1
  9
$INTERFEREOBJVS
345
D1C1
  9
$INTERFEREVPVS
346
10343
  9
$CSHADOW
280
     0
  9
$SHADOWPLANELOCATION
 40
0.0
  0
ENDSEC
  0
SECTION
  2
CLASSES
  0
CLASS
  1
ACDBDICTIONARYWDFLT
  2
AcDbDictionaryWithDefault
  3
ObjectDBX Classes
 90
        0
 91
        1
280
     0
281
     0
  0
CLASS
  1
DICTIONARYVAR
  2
AcDbDictionaryVar
  3
ObjectDBX Classes
 90
        0
 91
       15
280
     0
281
     0
  0
CLASS
  1
TABLESTYLE
  2
AcDbTableStyle
  3
ObjectDBX Classes
 90
     4095
 91
        1
280
     0
281
     0
  0
CLASS
  1
DIMASSOC
  2
AcDbDimAssoc
  3
"AcDbDimAssoc|Product Desc:     AcDim ARX App For Dimension|Company:          Autodesk, Inc.|WEB Address:      www.autodesk.com"
 90
        0
 91
        1
280
     0
281
     0
  0
CLASS
  1
SORTENTSTABLE
  2
AcDbSortentsTable
  3
ObjectDBX Classes
 90
        0
 91
        2
280
     0
281
     0
  0
CLASS
  1
MATERIAL
  2
AcDbMaterial
  3
ObjectDBX Classes
 90
     1153
 91
        3
280
     0
281
     0
  0
CLASS
  1
VISUALSTYLE
  2
AcDbVisualStyle
  3
ObjectDBX Classes
 90
     4095
 91
       26
280
     0
281
     0
  0
CLASS
  1
SCALE
  2
AcDbScale
  3
ObjectDBX Classes
 90
     1153
 91
       17
280
     0
281
     0
  0
CLASS
  1
MLEADERSTYLE
  2
AcDbMLeaderStyle
  3
ACDB_MLEADERSTYLE_CLASS
 90
     4095
 91
        1
280
     0
281
     0
  0
CLASS
  1
AEC_REFEDIT_STATUS_TRACKER
  2
AecDbRefEditStatusTracker
  3
AecArchBase80|Product Desc: Autodesk Architectural Desktop 2007 |Company: Autodesk,Inc. |WEB Address: www.autodesk.com
 90
      129
 91
        0
280
     0
281
     0
  0
CLASS
  1
NPOCOLLECTION
  2
AcDbImpNonPersistentObjectsCollection
  3
ObjectDBX Classes
 90
     1153
 91
        0
280
     0
281
     0
  0
CLASS
  1
CELLSTYLEMAP
  2
AcDbCellStyleMap
  3
ObjectDBX Classes
 90
     1152
 91
        2
280
     0
281
     0
  0
CLASS
  1
ACDBSECTIONVIEWSTYLE
  2
AcDbSectionViewStyle
  3
ObjectDBX Classes
 90
     1025
 91
        1
280
     0
281
     0
  0
CLASS
  1
ACDBDETAILVIEWSTYLE
  2
AcDbDetailViewStyle
  3
ObjectDBX Classes
 90
     1025
 91
        1
280
     0
281
     0
  0
ENDSEC
  0
SECTION
  2
TABLES
  0
TABLE
  2
VPORT
  5
8
102
{ACAD_XDICTIONARY
360
D429
102
}
330
0
100
AcDbSymbolTable
 70
     1
1001
ACAD
1000
DbSaveVer
1071
      278
  0
VPORT
  5
EF00
330
8
100
AcDbSymbolTableRecord
100
AcDbViewportTableRecord
  2
*Active
 70
     0
 10
0.0
 20
0.0
 11
1.0
 21
1.0
 12
2100.000009778887
 22
1485.000006915069
 13
0.0
 23
0.0
 14
10.0
 24
10.0
 15
10.0
 25
10.0
 16
0.0
 26
0.0
 36
1.0
 17
0.0
 27
0.0
 37
0.0
 40
2995.786285400605
 41
1.976978417266187
 42
50.0
 43
0.0
 44
0.0
 50
0.0
 51
0.0
 71
     0
 72
  1000
 73
     1
 74
     3
 75
     0
 76
     0
 77
     0
 78
     0
281
     0
 65
     1
110
0.0
120
0.0
130
0.0
111
1.0
121
0.0
131
0.0
112
0.0
122
1.0
132
0.0
 79
     0
146
0.0
348
D1BD
 60
     3
 61
     5
292
     1
282
     1
141
0.0
142
0.0
 63
   250
421
  3355443
1001
ACAD_NAV_VCDISPLAY
1070
     3
  0
ENDTAB
  0
TABLE
  2
LTYPE
  5
5
330
0
100
AcDbSymbolTable
 70
     4
  0
LTYPE
  5
14
330
5
100
AcDbSymbolTableRecord
100
AcDbLinetypeTableRecord
  2
ByBlock
 70
     0
  3

 72
    65
 73
     0
 40
0.0
  0
LTYPE
  5
15
330
5
100
AcDbSymbolTableRecord
100
AcDbLinetypeTableRecord
  2
ByLayer
 70
     0
  3

 72
    65
 73
     0
 40
0.0
  0
LTYPE
  5
16
330
5
100
AcDbSymbolTableRecord
100
AcDbLinetypeTableRecord
  2
Continuous
 70
     0
  3
Solid line
 72
    65
 73
     0
 40
0.0
  0
LTYPE
  5
1D4
330
5
100
AcDbSymbolTableRecord
100
AcDbLinetypeTableRecord
  2
PHANTOM
 70
     0
  3
Phantom ______  __  __  ______  __  __  ______
 72
    65
 73
     6
 40
63.5
 49
31.75
 74
     0
 49
-6.349999999999997
 74
     0
 49
6.349999999999997
 74
     0
 49
-6.349999999999997
 74
     0
 49
6.349999999999997
 74
     0
 49
-6.349999999999997
 74
     0
  0
LTYPE
  5
1D5
330
5
100
AcDbSymbolTableRecord
100
AcDbLinetypeTableRecord
  2
CENTER
 70
     0
  3
Center ____ _ ____ _ ____ _ ____ _ ____ _ ____
 72
    65
 73
     4
 40
50.8
 49
31.75
 74
     0
 49
-6.349999999999997
 74
     0
 49
6.349999999999997
 74
     0
 49
-6.349999999999997
 74
     0
  0
LTYPE
  5
1D7
330
5
100
AcDbSymbolTableRecord
100
AcDbLinetypeTableRecord
  2
DASHED
 70
     0
  3
Dashed __ __ __ __ __ __ __ __ __ __ __ __ __ _
 72
    65
 73
     2
 40
19.05
 49
12.7
 74
     0
 49
-6.349999999999997
 74
     0
  0
ENDTAB
  0
TABLE
  2
LAYER
  5
2
102
{ACAD_XDICTIONARY
360
11D
102
}
330
0
100
AcDbSymbolTable
 70
     8
  0
LAYER
  5
10
102
{ACAD_XDICTIONARY
360
D40F
102
}
330
2
100
AcDbSymbolTableRecord
100
AcDbLayerTableRecord
  2
0
 70
     0
 62
     7
  6
Continuous
370
    -3
390
F
347
D1AF
348
0
  0
LAYER
  5
13F
330
2
100
AcDbSymbolTableRecord
100
AcDbLayerTableRecord
  2
Defpoints
 70
     0
 62
     7
  6
Continuous
290
     0
370
    -3
390
F
347
D1AF
348
0
  0
LAYER
  5
1BF
102
{ACAD_XDICTIONARY
360
D413
102
}
330
2
100
AcDbSymbolTableRecord
100
AcDbLayerTableRecord
  2
図面枠
 70
     0
 62
     2
  6
Continuous
370
    -3
390
F
347
D1AF
348
0
1001
AcAecLayerStandard
1000

1000

  0
LAYER
  5
1C1
102
{ACAD_XDICTIONARY
360
D417
102
}
330
2
100
AcDbSymbolTableRecord
100
AcDbLayerTableRecord
  2
仮想線
 70
     0
 62
     6
  6
PHANTOM
370
    -3
390
F
347
D1AF
348
0
1001
AcAecLayerStandard
1000

1000

  0
LAYER
  5
1C3
102
{ACAD_XDICTIONARY
360
D41B
102
}
330
2
100
AcDbSymbolTableRecord
100
AcDbLayerTableRecord
  2
寸法線
 70
     0
 62
     2
  6
Continuous
370
    -3
390
F
347
D1AF
348
0
1001
AcAecLayerStandard
1000

1000

  0
LAYER
  5
1C4
102
{ACAD_XDICTIONARY
360
D41D
102
}
330
2
100
AcDbSymbolTableRecord
100
AcDbLayerTableRecord
  2
中心線
 70
     0
 62
     1
  6
CENTER
370
    -3
390
F
347
D1AF
348
0
1001
AcAecLayerStandard
1000

1000

  0
LAYER
  5
1C5
102
{ACAD_XDICTIONARY
360
D41F
102
}
330
2
100
AcDbSymbolTableRecord
100
AcDbLayerTableRecord
  2
破線
 70
     0
 62
     4
  6
DASHED
370
    -3
390
F
347
D1AF
348
0
1001
AcAecLayerStandard
1000

1000

  0
LAYER
  5
82E
102
{ACAD_XDICTIONARY
360
D421
102
}
330
2
100
AcDbSymbolTableRecord
100
AcDbLayerTableRecord
  2
実線
 70
     0
 62
     7
  6
Continuous
370
    -3
390
F
347
D1AF
348
0
1001
AcAecLayerStandard
1000

1000

  0
ENDTAB
  0
TABLE
  2
STYLE
  5
3
330
0
100
AcDbSymbolTable
 70
     1
  0
STYLE
  5
11
330
3
100
AcDbSymbolTableRecord
100
AcDbTextStyleTableRecord
  2
Standard
 70
     0
 40
0.0
 41
1.0
 50
0.0
 71
     0
 42
37.5
  3
isocp.shx
  4
extfont2.shx
  0
ENDTAB
  0
TABLE
  2
VIEW
  5
6
330
0
100
AcDbSymbolTable
 70
     2
  0
ENDTAB
  0
TABLE
  2
UCS
  5
7
330
0
100
AcDbSymbolTable
 70
     0
  0
ENDTAB
  0
TABLE
  2
APPID
  5
9
330
0
100
AcDbSymbolTable
 70
    19
  0
APPID
  5
12
330
9
100
AcDbSymbolTableRecord
100
AcDbRegAppTableRecord
  2
ACAD
 70
     0
  0
APPID
  5
9E
330
9
100
AcDbSymbolTableRecord
100
AcDbRegAppTableRecord
  2
ACAD_PSEXT
 70
     0
  0
APPID
  5
1BE
330
9
100
AcDbSymbolTableRecord
100
AcDbRegAppTableRecord
  2
AcAecLayerStandard
 70
     0
  0
APPID
  5
1FF
330
9
100
AcDbSymbolTableRecord
100
AcDbRegAppTableRecord
  2
ACAD_EXEMPT_FROM_CAD_STANDARDS
 70
     0
  0
APPID
  5
1318
330
9
100
AcDbSymbolTableRecord
100
AcDbRegAppTableRecord
  2
ACAD_DSTYLE_DIMTEXT_FILL
 70
     0
  0
APPID
  5
1319
330
9
100
AcDbSymbolTableRecord
100
AcDbRegAppTableRecord
  2
ACAD_DSTYLE_DIMEXT_LENGTH
 70
     0
  0
APPID
  5
131A
330
9
100
AcDbSymbolTableRecord
100
AcDbRegAppTableRecord
  2
ACAD_DSTYLE_DIMEXT_ENABLED
 70
     0
  0
APPID
  5
131B
330
9
100
AcDbSymbolTableRecord
100
AcDbRegAppTableRecord
  2
ACAD_DSTYLE_DIM_LINETYPE
 70
     0
  0
APPID
  5
131C
330
9
100
AcDbSymbolTableRecord
100
AcDbRegAppTableRecord
  2
ACAD_DSTYLE_DIM_EXT1_LINETYPE
 70
     0
  0
APPID
  5
131D
330
9
100
AcDbSymbolTableRecord
100
AcDbRegAppTableRecord
  2
ACAD_DSTYLE_DIM_EXT2_LINETYPE
 70
     0
  0
APPID
  5
1439
330
9
100
AcDbSymbolTableRecord
100
AcDbRegAppTableRecord
  2
ACAD_DSTYLE_DIMJOGGED_JOGANGLE_SYMBOL
 70
     0
  0
APPID
  5
1CB2
330
9
100
AcDbSymbolTableRecord
100
AcDbRegAppTableRecord
  2
ACAD_DSTYLE_DIMARC_LENGTH_SYMBOL
 70
     0
  0
APPID
  5
356E
330
9
100
AcDbSymbolTableRecord
100
AcDbRegAppTableRecord
  2
ACAD_DIMASSOC_CALC_DIMLFAC
 70
     0
  0
APPID
  5
356F
330
9
100
AcDbSymbolTableRecord
100
AcDbRegAppTableRecord
  2
ACAD_DIMASSOC_DIMLFAC
 70
     0
  0
APPID
  5
3570
330
9
100
AcDbSymbolTableRecord
100
AcDbRegAppTableRecord
  2
ACAD_DIMASSOC_OVERRIDDEN_DIMLFAC
 70
     0
  0
APPID
  5
D1DC
330
9
100
AcDbSymbolTableRecord
100
AcDbRegAppTableRecord
  2
ACAD_MLEADERVER
 70
     0
  0
APPID
  5
10577
330
9
100
AcDbSymbolTableRecord
100
AcDbRegAppTableRecord
  2
ACAD_NAV_VCDISPLAY
 70
     0
  0
APPID
  5
10ED4
330
9
100
AcDbSymbolTableRecord
100
AcDbRegAppTableRecord
  2
ACAD_DSTYLE_DIMJAG
 70
     0
  0
APPID
  5
10ED5
330
9
100
AcDbSymbolTableRecord
100
AcDbRegAppTableRecord
  2
ACAD_DSTYLE_DIMTALN
 70
     0
  0
ENDTAB
  0
TABLE
  2
DIMSTYLE
  5
A
330
0
100
AcDbSymbolTable
 70
     1
100
AcDbDimStyleTable
 71
     1
340
C0F
  0
DIMSTYLE
105
C0F
102
{ACAD_REACTORS
330
1089E
330
107C4
330
107C5
330
107C6
330
107C7
330
107C8
330
107C9
330
107CA
330
107CB
330
107CC
330
107CD
330
107CE
330
107CF
330
107D0
330
107D1
330
10830
330
10831
330
10832
330
10911
330
10912
330
11024
330
11025
330
11037
330
11038
330
11041
330
11046
330
11054
330
1105A
330
1105D
330
1105E
330
11075
330
10FCF
330
10FEE
330
10FEF
330
10FF0
330
10FF1
330
10FF2
330
10FF3
330
10FF4
330
10FF5
330
10FF6
330
10FF7
102
}
330
A
100
AcDbSymbolTableRecord
100
AcDbDimStyleTableRecord
  2
STANDARD
 70
     0
 40
10.0
 41
2.0
 42
0.875
 43
10.0
 44
1.0
 50
89.99999999999998
 73
     0
 74
     0
 77
     1
 78
     8
140
2.5
141
0.0
147
0.875
172
     1
173
     1
271
     3
272
     3
340
11
341
C08
343
C08
344
C08
1001
ACAD_DSTYLE_DIMJOGGED_JOGANGLE_SYMBOL
1070
   384
1040
1.570796326794896
  0
ENDTAB
  0
TABLE
  2
BLOCK_RECORD
  5
1
330
0
100
AcDbSymbolTable
 70
    45
  0
BLOCK_RECORD
  5
1F
102
{ACAD_XDICTIONARY
360
5C91
102
}
330
1
100
AcDbSymbolTableRecord
100
AcDbBlockTableRecord
  2
*Model_Space
340
22
 70
     0
280
     1
281
     0
  0
BLOCK_RECORD
  5
78D
330
1
100
AcDbSymbolTableRecord
100
AcDbBlockTableRecord
  2
*Paper_Space
340
78E
 70
     0
280
     1
281
     0
  0
BLOCK_RECORD
  5
C08
102
{ACAD_XDICTIONARY
360
E6A8
102
}
330
1
100
AcDbSymbolTableRecord
100
AcDbBlockTableRecord
  2
_OPEN
340
0
102
{BLKREFS
331
115BA
331
115BB
331
115C3
331
115C4
331
115CC
331
115CD
331
115D7
331
115D8
331
115E0
331
115E1
331
115E9
331
115EA
331
115F3
331
115F4
331
115FD
331
115FE
331
1160F
331
11610
331
11619
331
1161A
331
11622
331
11623
331
1162B
331
1162C
331
11634
331
11635
331
1163F
331
11640
331
1165E
331
1165F
331
1166B
331
1166C
331
11676
331
11677
331
1167F
331
11680
331
11688
331
11689
331
11691
331
11692
331
1169C
331
1169D
331
116A7
331
116A8
331
1141E
331
1141F
331
11427
331
11428
331
11430
331
11431
331
11439
331
1143A
331
11442
331
11443
331
1144B
331
1144C
331
113B1
331
113B2
331
113BC
331
113BD
331
113C7
331
113C8
331
113D0
331
113D1
331
11456
331
11457
331
1145F
331
11460
331
1146A
331
1146B
331
11475
331
11476
331
11480
331
11481
331
113DB
331
113DC
331
113E4
331
113E5
331
113ED
331
113EE
331
113F6
331
113F7
331
113FF
331
11400
331
1140A
331
1140B
331
11415
331
11416
102
}
 70
     0
280
     1
281
     0
  0
BLOCK_RECORD
  5
10A02
330
1
100
AcDbSymbolTableRecord
100
AcDbBlockTableRecord
  2
*D1
340
0
 70
     0
280
     1
281
     0
  0
BLOCK_RECORD
  5
10A9C
330
1
100
AcDbSymbolTableRecord
100
AcDbBlockTableRecord
  2
*D2
340
0
 70
     0
280
     1
281
     0
  0
BLOCK_RECORD
  5
10AA8
330
1
100
AcDbSymbolTableRecord
100
AcDbBlockTableRecord
  2
*D3
340
0
 70
     0
280
     1
281
     0
  0
BLOCK_RECORD
  5
10AB4
330
1
100
AcDbSymbolTableRecord
100
AcDbBlockTableRecord
  2
*D4
340
0
 70
     0
280
     1
281
     0
  0
BLOCK_RECORD
  5
10AC0
330
1
100
AcDbSymbolTableRecord
100
AcDbBlockTableRecord
  2
*D5
340
0
 70
     0
280
     1
281
     0
  0
BLOCK_RECORD
  5
10ACE
330
1
100
AcDbSymbolTableRecord
100
AcDbBlockTableRecord
  2
*D6
340
0
 70
     0
280
     1
281
     0
  0
BLOCK_RECORD
  5
10ADA
330
1
100
AcDbSymbolTableRecord
100
AcDbBlockTableRecord
  2
*D7
340
0
 70
     0
280
     1
281
     0
  0
BLOCK_RECORD
  5
10AE6
330
1
100
AcDbSymbolTableRecord
100
AcDbBlockTableRecord
  2
*D8
340
0
 70
     0
280
     1
281
     0
  0
BLOCK_RECORD
  5
10AF4
330
1
100
AcDbSymbolTableRecord
100
AcDbBlockTableRecord
  2
*D9
340
0
 70
     0
280
     1
281
     0
  0
BLOCK_RECORD
  5
10B00
330
1
100
AcDbSymbolTableRecord
100
AcDbBlockTableRecord
  2
*D10
340
0
 70
     0
280
     1
281
     0
  0
BLOCK_RECORD
  5
10B0D
330
1
100
AcDbSymbolTableRecord
100
AcDbBlockTableRecord
  2
*D11
340
0
 70
     0
280
     1
281
     0
  0
BLOCK_RECORD
  5
10B1A
330
1
100
AcDbSymbolTableRecord
100
AcDbBlockTableRecord
  2
*D12
340
0
 70
     0
280
     1
281
     0
  0
BLOCK_RECORD
  5
10B26
330
1
100
AcDbSymbolTableRecord
100
AcDbBlockTableRecord
  2
*D13
340
0
 70
     0
280
     1
281
     0
  0
BLOCK_RECORD
  5
10B32
330
1
100
AcDbSymbolTableRecord
100
AcDbBlockTableRecord
  2
*D14
340
0
 70
     0
280
     1
281
     0
  0
BLOCK_RECORD
  5
10B3F
330
1
100
AcDbSymbolTableRecord
100
AcDbBlockTableRecord
  2
*D15
340
0
 70
     0
280
     1
281
     0
  0
BLOCK_RECORD
  5
10B4B
330
1
100
AcDbSymbolTableRecord
100
AcDbBlockTableRecord
  2
*D16
340
0
 70
     0
280
     1
281
     0
  0
BLOCK_RECORD
  5
10B57
330
1
100
AcDbSymbolTableRecord
100
AcDbBlockTableRecord
  2
*D17
340
0
 70
     0
280
     1
281
     0
  0
BLOCK_RECORD
  5
10B63
330
1
100
AcDbSymbolTableRecord
100
AcDbBlockTableRecord
  2
*D18
340
0
 70
     0
280
     1
281
     0
  0
BLOCK_RECORD
  5
10B6F
330
1
100
AcDbSymbolTableRecord
100
AcDbBlockTableRecord
  2
*D19
340
0
 70
     0
280
     1
281
     0
  0
BLOCK_RECORD
  5
10B7D
330
1
100
AcDbSymbolTableRecord
100
AcDbBlockTableRecord
  2
*D20
340
0
 70
     0
280
     1
281
     0
  0
BLOCK_RECORD
  5
11076
330
1
100
AcDbSymbolTableRecord
100
AcDbBlockTableRecord
  2
*D21
340
0
 70
     0
280
     1
281
     0
  0
BLOCK_RECORD
  5
11082
330
1
100
AcDbSymbolTableRecord
100
AcDbBlockTableRecord
  2
*D22
340
0
 70
     0
280
     1
281
     0
  0
BLOCK_RECORD
  5
1108E
330
1
100
AcDbSymbolTableRecord
100
AcDbBlockTableRecord
  2
*D23
340
0
 70
     0
280
     1
281
     0
  0
BLOCK_RECORD
  5
1109A
330
1
100
AcDbSymbolTableRecord
100
AcDbBlockTableRecord
  2
*D24
340
0
 70
     0
280
     1
281
     0
  0
BLOCK_RECORD
  5
110A6
330
1
100
AcDbSymbolTableRecord
100
AcDbBlockTableRecord
  2
*D25
340
0
 70
     0
280
     1
281
     0
  0
BLOCK_RECORD
  5
110B2
330
1
100
AcDbSymbolTableRecord
100
AcDbBlockTableRecord
  2
*D26
340
0
 70
     0
280
     1
281
     0
  0
BLOCK_RECORD
  5
110BE
330
1
100
AcDbSymbolTableRecord
100
AcDbBlockTableRecord
  2
*D27
340
0
 70
     0
280
     1
281
     0
  0
BLOCK_RECORD
  5
110CC
330
1
100
AcDbSymbolTableRecord
100
AcDbBlockTableRecord
  2
*D28
340
0
 70
     0
280
     1
281
     0
  0
BLOCK_RECORD
  5
110D8
330
1
100
AcDbSymbolTableRecord
100
AcDbBlockTableRecord
  2
*D29
340
0
 70
     0
280
     1
281
     0
  0
BLOCK_RECORD
  5
110E6
330
1
100
AcDbSymbolTableRecord
100
AcDbBlockTableRecord
  2
*D30
340
0
 70
     0
280
     1
281
     0
  0
BLOCK_RECORD
  5
110F4
330
1
100
AcDbSymbolTableRecord
100
AcDbBlockTableRecord
  2
*D31
340
0
 70
     0
280
     1
281
     0
  0
BLOCK_RECORD
  5
11102
330
1
100
AcDbSymbolTableRecord
100
AcDbBlockTableRecord
  2
*D32
340
0
 70
     0
280
     1
281
     0
  0
BLOCK_RECORD
  5
11110
330
1
100
AcDbSymbolTableRecord
100
AcDbBlockTableRecord
  2
*D33
340
0
 70
     0
280
     1
281
     0
  0
BLOCK_RECORD
  5
1111E
330
1
100
AcDbSymbolTableRecord
100
AcDbBlockTableRecord
  2
*D34
340
0
 70
     0
280
     1
281
     0
  0
BLOCK_RECORD
  5
1112C
330
1
100
AcDbSymbolTableRecord
100
AcDbBlockTableRecord
  2
*D35
340
0
 70
     0
280
     1
281
     0
  0
BLOCK_RECORD
  5
11138
330
1
100
AcDbSymbolTableRecord
100
AcDbBlockTableRecord
  2
*D36
340
0
 70
     0
280
     1
281
     0
  0
BLOCK_RECORD
  5
11146
330
1
100
AcDbSymbolTableRecord
100
AcDbBlockTableRecord
  2
*D37
340
0
 70
     0
280
     1
281
     0
  0
BLOCK_RECORD
  5
11152
330
1
100
AcDbSymbolTableRecord
100
AcDbBlockTableRecord
  2
*D38
340
0
 70
     0
280
     1
281
     0
  0
BLOCK_RECORD
  5
1115E
330
1
100
AcDbSymbolTableRecord
100
AcDbBlockTableRecord
  2
*D39
340
0
 70
     0
280
     1
281
     0
  0
BLOCK_RECORD
  5
1116A
330
1
100
AcDbSymbolTableRecord
100
AcDbBlockTableRecord
  2
*D40
340
0
 70
     0
280
     1
281
     0
  0
BLOCK_RECORD
  5
11176
330
1
100
AcDbSymbolTableRecord
100
AcDbBlockTableRecord
  2
*D41
340
0
 70
     0
280
     1
281
     0
  0
BLOCK_RECORD
  5
11184
330
1
100
AcDbSymbolTableRecord
100
AcDbBlockTableRecord
  2
*D42
340
0
 70
     0
280
     1
281
     0
  0
BLOCK_RECORD
  5
11583
330
1
100
AcDbSymbolTableRecord
100
AcDbBlockTableRecord
  2
*D43
340
0
 70
     0
280
     1
281
     0
  0
BLOCK_RECORD
  5
11665
330
1
100
AcDbSymbolTableRecord
100
AcDbBlockTableRecord
  2
*D44
340
0
 70
     0
280
     1
281
     0
  0
ENDTAB
  0
ENDSEC
  0
SECTION
  2
BLOCKS
  0
BLOCK
  5
20
330
1F
100
AcDbEntity
  8
0
100
AcDbBlockBegin
  2
*Model_Space
 70
     0
 10
0.0
 20
0.0
 30
0.0
  3
*Model_Space
  1

  0
ENDBLK
  5
21
330
1F
100
AcDbEntity
  8
0
100
AcDbBlockEnd
  0
BLOCK
  5
78F
330
78D
100
AcDbEntity
 67
     1
  8
0
100
AcDbBlockBegin
  2
*Paper_Space
 70
     0
 10
0.0
 20
0.0
 30
0.0
  3
*Paper_Space
  1

  0
ENDBLK
  5
790
330
78D
100
AcDbEntity
 67
     1
  8
0
100
AcDbBlockEnd
  0
BLOCK
  5
C09
330
C08
100
AcDbEntity
  8
0
100
AcDbBlockBegin
  2
_OPEN
 70
     0
 10
0.0
 20
0.0
 30
0.0
  3
_OPEN
  1

  0
LINE
  5
C0A
330
C08
100
AcDbEntity
  8
0
  6
ByBlock
 62
     0
100
AcDbLine
 10
-1.0
 20
0.1666666666666666
 30
0.0
 11
0.0
 21
0.0
 31
0.0
  0
LINE
  5
C0B
330
C08
100
AcDbEntity
  8
0
  6
ByBlock
 62
     0
100
AcDbLine
 10
0.0
 20
0.0
 30
0.0
 11
-1.0
 21
-0.1666666666666666
 31
0.0
  0
LINE
  5
C0C
330
C08
100
AcDbEntity
  8
0
  6
ByBlock
 62
     0
100
AcDbLine
 10
0.0
 20
0.0
 30
0.0
 11
-1.0
 21
0.0
 31
0.0
  0
ENDBLK
  5
C0D
330
C08
100
AcDbEntity
  8
0
100
AcDbBlockEnd
  0
BLOCK
  5
10A03
330
10A02
100
AcDbEntity
  8
0
100
AcDbBlockBegin
  2
*D1
 70
     1
 10
0.0
 20
0.0
 30
0.0
  3
*D1
  1

  0
LINE
  5
1163A
330
10A02
100
AcDbEntity
  8
寸法線
 62
     0
440
 16777216
370
    -2
100
AcDbLine
 10
2297.749994172537
 20
2276.000002350013
 30
0.0
 11
2216.499994172551
 21
2276.000002350013
 31
0.0
  0
LINE
  5
1163B
330
10A02
100
AcDbEntity
  8
寸法線
 62
     0
440
 16777216
370
    -2
100
AcDbLine
 10
2297.749994172537
 20
2264.000002350013
 30
0.0
 11
2216.499994172551
 21
2264.000002350013
 31
0.0
  0
LINE
  5
1163C
330
10A02
100
AcDbEntity
  8
寸法線
 62
     0
440
 16777216
370
    -2
100
AcDbLine
 10
2226.499994172551
 20
2296.000002350013
 30
0.0
 11
2226.499994172551
 21
2316.000002350013
 31
0.0
  0
LINE
  5
1163D
330
10A02
100
AcDbEntity
  8
寸法線
 62
     0
440
 16777216
370
    -2
100
AcDbLine
 10
2226.499994172551
 20
2244.000002350013
 30
0.0
 11
2226.499994172551
 21
2224.000002350013
 31
0.0
  0
LINE
  5
1163E
330
10A02
100
AcDbEntity
  8
寸法線
 62
     0
440
 16777216
370
    -2
100
AcDbLine
 10
2226.499994172551
 20
2276.000002350013
 30
0.0
 11
2226.499994172551
 21
2264.000002350013
 31
0.0
  0
INSERT
  5
1163F
330
10A02
100
AcDbEntity
  8
寸法線
 62
     0
440
 16777216
370
    -2
100
AcDbBlockReference
  2
_OPEN
 10
2226.499994172551
 20
2276.000002350013
 30
0.0
 41
20.0
 42
20.0
 43
20.0
 50
270.0
  0
INSERT
  5
11640
330
10A02
100
AcDbEntity
  8
寸法線
 62
     0
440
 16777216
370
    -2
100
AcDbBlockReference
  2
_OPEN
 10
2226.499994172551
 20
2264.000002350013
 30
0.0
 41
20.0
 42
20.0
 43
20.0
 50
90.0
  0
MTEXT
  5
11641
330
10A02
100
AcDbEntity
  8
寸法線
 62
     0
440
 16777216
100
AcDbMText
 10
2205.24753354263
 20
2270.000002350012
 30
0.0
 40
25.0
 41
0.0
 46
0.0
 71
     5
 72
     1
  1
\A1;12
 11
0.0000000000000001
 21
1.0
 31
0.0
 73
     1
 44
1.0
  0
POINT
  5
11642
330
10A02
100
AcDbEntity
  8
Defpoints
 62
     0
440
 16777216
100
AcDbPoint
 10
2306.499994172537
 20
2276.000002350013
 30
0.0
  0
POINT
  5
11643
330
10A02
100
AcDbEntity
  8
Defpoints
 62
     0
440
 16777216
100
AcDbPoint
 10
2306.499994172537
 20
2264.000002350013
 30
0.0
  0
POINT
  5
11644
330
10A02
100
AcDbEntity
  8
Defpoints
 62
     0
440
 16777216
100
AcDbPoint
 10
2226.499994172551
 20
2264.000002350013
 30
0.0
  0
ENDBLK
  5
10A04
330
10A02
100
AcDbEntity
  8
0
100
AcDbBlockEnd
  0
BLOCK
  5
10A9D
330
10A9C
100
AcDbEntity
  8
0
100
AcDbBlockBegin
  2
*D2
 70
     1
 10
0.0
 20
0.0
 30
0.0
  3
*D2
  1

  0
LINE
  5
11673
330
10A9C
100
AcDbEntity
  8
寸法線
 62
     0
440
 16777216
370
    -2
100
AcDbLine
 10
1102.499979077721
 20
1476.250073709393
 30
0.0
 11
1102.499979077721
 21
1325.000034786938
 31
0.0
  0
LINE
  5
11674
330
10A9C
100
AcDbEntity
  8
寸法線
 62
     0
440
 16777216
370
    -2
100
AcDbLine
 10
2002.499979077721
 20
1476.250073709393
 30
0.0
 11
2002.499979077721
 21
1325.000034786938
 31
0.0
  0
LINE
  5
11675
330
10A9C
100
AcDbEntity
  8
寸法線
 62
     0
440
 16777216
370
    -2
100
AcDbLine
 10
1122.499979077721
 20
1335.000034786938
 30
0.0
 11
1982.499979077721
 21
1335.000034786938
 31
0.0
  0
INSERT
  5
11676
330
10A9C
100
AcDbEntity
  8
寸法線
 62
     0
440
 16777216
370
    -2
100
AcDbBlockReference
  2
_OPEN
 10
1102.499979077721
 20
1335.000034786938
 30
0.0
 41
20.0
 42
20.0
 43
20.0
 50
180.0
  0
INSERT
  5
11677
330
10A9C
100
AcDbEntity
  8
寸法線
 62
     0
440
 16777216
370
    -2
100
AcDbBlockReference
  2
_OPEN
 10
2002.499979077721
 20
1335.000034786938
 30
0.0
 41
20.0
 42
20.0
 43
20.0
  0
MTEXT
  5
11678
330
10A9C
100
AcDbEntity
  8
寸法線
 62
     0
440
 16777216
100
AcDbMText
 10
1552.499979077721
 20
1356.250034786938
 30
0.0
 40
25.0
 41
0.0
 46
0.0
 71
     5
 72
     1
  1
\A1;900
 73
     1
 44
1.0
  0
POINT
  5
11679
330
10A9C
100
AcDbEntity
  8
Defpoints
 62
     0
440
 16777216
100
AcDbPoint
 10
1102.499979077721
 20
1485.000073709393
 30
0.0
  0
POINT
  5
1167A
330
10A9C
100
AcDbEntity
  8
Defpoints
 62
     0
440
 16777216
100
AcDbPoint
 10
2002.499979077721
 20
1485.000073709393
 30
0.0
  0
POINT
  5
1167B
330
10A9C
100
AcDbEntity
  8
Defpoints
 62
     0
440
 16777216
100
AcDbPoint
 10
2002.499979077721
 20
1335.000034786938
 30
0.0
  0
ENDBLK
  5
10A9E
330
10A9C
100
AcDbEntity
  8
0
100
AcDbBlockEnd
  0
BLOCK
  5
10AA9
330
10AA8
100
AcDbEntity
  8
0
100
AcDbBlockBegin
  2
*D3
 70
     1
 10
0.0
 20
0.0
 30
0.0
  3
*D3
  1

  0
LINE
  5
1167C
330
10AA8
100
AcDbEntity
  8
寸法線
 62
     0
440
 16777216
370
    -2
100
AcDbLine
 10
602.4999441698055
 20
1486.250034786938
 30
0.0
 11
602.4999441698055
 21
1325.000034786938
 31
0.0
  0
LINE
  5
1167D
330
10AA8
100
AcDbEntity
  8
寸法線
 62
     0
440
 16777216
370
    -2
100
AcDbLine
 10
1102.499979077721
 20
1476.250073709393
 30
0.0
 11
1102.499979077721
 21
1325.000034786938
 31
0.0
  0
LINE
  5
1167E
330
10AA8
100
AcDbEntity
  8
寸法線
 62
     0
440
 16777216
370
    -2
100
AcDbLine
 10
622.4999441698055
 20
1335.000034786938
 30
0.0
 11
1082.499979077721
 21
1335.000034786938
 31
0.0
  0
INSERT
  5
1167F
330
10AA8
100
AcDbEntity
  8
寸法線
 62
     0
440
 16777216
370
    -2
100
AcDbBlockReference
  2
_OPEN
 10
602.4999441698055
 20
1335.000034786938
 30
0.0
 41
20.0
 42
20.0
 43
20.0
 50
180.0
  0
INSERT
  5
11680
330
10AA8
100
AcDbEntity
  8
寸法線
 62
     0
440
 16777216
370
    -2
100
AcDbBlockReference
  2
_OPEN
 10
1102.499979077721
 20
1335.000034786938
 30
0.0
 41
20.0
 42
20.0
 43
20.0
  0
MTEXT
  5
11681
330
10AA8
100
AcDbEntity
  8
寸法線
 62
     0
440
 16777216
100
AcDbMText
 10
852.4999616237632
 20
1356.250034786938
 30
0.0
 40
25.0
 41
0.0
 46
0.0
 71
     5
 72
     1
  1
\A1;500
 73
     1
 44
1.0
  0
POINT
  5
11682
330
10AA8
100
AcDbEntity
  8
Defpoints
 62
     0
440
 16777216
100
AcDbPoint
 10
602.4999441698055
 20
1495.000034786938
 30
0.0
  0
POINT
  5
11683
330
10AA8
100
AcDbEntity
  8
Defpoints
 62
     0
440
 16777216
100
AcDbPoint
 10
1102.499979077721
 20
1485.000073709393
 30
0.0
  0
POINT
  5
11684
330
10AA8
100
AcDbEntity
  8
Defpoints
 62
     0
440
 16777216
100
AcDbPoint
 10
1102.499979077721
 20
1335.000034786938
 30
0.0
  0
ENDBLK
  5
10AAA
330
10AA8
100
AcDbEntity
  8
0
100
AcDbBlockEnd
  0
BLOCK
  5
10AB5
330
10AB4
100
AcDbEntity
  8
0
100
AcDbBlockBegin
  2
*D4
 70
     1
 10
0.0
 20
0.0
 30
0.0
  3
*D4
  1

  0
LINE
  5
11685
330
10AB4
100
AcDbEntity
  8
寸法線
 62
     0
440
 16777216
370
    -2
100
AcDbLine
 10
593.7499441698057
 20
1845.000072006612
 30
0.0
 11
472.4999441698059
 21
1845.000072006612
 31
0.0
  0
LINE
  5
11686
330
10AB4
100
AcDbEntity
  8
寸法線
 62
     0
440
 16777216
370
    -2
100
AcDbLine
 10
593.7499441698057
 20
1495.000034786938
 30
0.0
 11
472.499944169806
 21
1495.000034786938
 31
0.0
  0
LINE
  5
11687
330
10AB4
100
AcDbEntity
  8
寸法線
 62
     0
440
 16777216
370
    -2
100
AcDbLine
 10
482.499944169806
 20
1825.000072006612
 30
0.0
 11
482.499944169806
 21
1515.000034786938
 31
0.0
  0
INSERT
  5
11688
330
10AB4
100
AcDbEntity
  8
寸法線
 62
     0
440
 16777216
370
    -2
100
AcDbBlockReference
  2
_OPEN
 10
482.499944169806
 20
1845.000072006612
 30
0.0
 41
20.0
 42
20.0
 43
20.0
 50
90.0
  0
INSERT
  5
11689
330
10AB4
100
AcDbEntity
  8
寸法線
 62
     0
440
 16777216
370
    -2
100
AcDbBlockReference
  2
_OPEN
 10
482.499944169806
 20
1495.000034786938
 30
0.0
 41
20.0
 42
20.0
 43
20.0
 50
270.0
  0
MTEXT
  5
1168A
330
10AB4
100
AcDbEntity
  8
寸法線
 62
     0
440
 16777216
100
AcDbMText
 10
461.2499441698063
 20
1670.000034786938
 30
0.0
 40
25.0
 41
0.0
 46
0.0
 71
     5
 72
     1
  1
\A1;350
 11
0.0000000000000001
 21
1.0
 31
0.0
 73
     1
 44
1.0
  0
POINT
  5
1168B
330
10AB4
100
AcDbEntity
  8
Defpoints
 62
     0
440
 16777216
100
AcDbPoint
 10
602.4999441698057
 20
1845.000072006612
 30
0.0
  0
POINT
  5
1168C
330
10AB4
100
AcDbEntity
  8
Defpoints
 62
     0
440
 16777216
100
AcDbPoint
 10
602.4999441698057
 20
1495.000034786938
 30
0.0
  0
POINT
  5
1168D
330
10AB4
100
AcDbEntity
  8
Defpoints
 62
     0
440
 16777216
100
AcDbPoint
 10
482.499944169806
 20
1495.000034786938
 30
0.0
  0
ENDBLK
  5
10AB6
330
10AB4
100
AcDbEntity
  8
0
100
AcDbBlockEnd
  0
BLOCK
  5
10AC1
330
10AC0
100
AcDbEntity
  8
0
100
AcDbBlockBegin
  2
*D5
 70
     1
 10
0.0
 20
0.0
 30
0.0
  3
*D5
  1

  0
LINE
  5
115B5
330
10AC0
100
AcDbEntity
  8
寸法線
 62
     0
440
 16777216
370
    -2
100
AcDbLine
 10
602.4999441698055
 20
2446.750037219678
 30
0.0
 11
602.4999441698055
 21
2614.999942832917
 31
0.0
  0
LINE
  5
115B6
330
10AC0
100
AcDbEntity
  8
寸法線
 62
     0
440
 16777216
370
    -2
100
AcDbLine
 10
618.4999639829157
 20
2453.749999999999
 30
0.0
 11
618.4999639829157
 21
2614.999942832917
 31
0.0
  0
LINE
  5
115B7
330
10AC0
100
AcDbEntity
  8
寸法線
 62
     0
440
 16777216
370
    -2
100
AcDbLine
 10
582.4999441698055
 20
2604.999942832917
 30
0.0
 11
562.4999441698055
 21
2604.999942832917
 31
0.0
  0
LINE
  5
115B8
330
10AC0
100
AcDbEntity
  8
寸法線
 62
     0
440
 16777216
370
    -2
100
AcDbLine
 10
638.4999639829157
 20
2604.999942832917
 30
0.0
 11
658.4999639829156
 21
2604.999942832917
 31
0.0
  0
LINE
  5
115B9
330
10AC0
100
AcDbEntity
  8
寸法線
 62
     0
440
 16777216
370
    -2
100
AcDbLine
 10
602.4999441698055
 20
2604.999942832917
 30
0.0
 11
618.4999639829157
 21
2604.999942832917
 31
0.0
  0
INSERT
  5
115BA
330
10AC0
100
AcDbEntity
  8
寸法線
 62
     0
440
 16777216
370
    -2
100
AcDbBlockReference
  2
_OPEN
 10
602.4999441698055
 20
2604.999942832917
 30
0.0
 41
20.0
 42
20.0
 43
20.0
  0
INSERT
  5
115BB
330
10AC0
100
AcDbEntity
  8
寸法線
 62
     0
440
 16777216
370
    -2
100
AcDbBlockReference
  2
_OPEN
 10
618.4999639829157
 20
2604.999942832917
 30
0.0
 41
20.0
 42
20.0
 43
20.0
 50
180.0
  0
MTEXT
  5
115BC
330
10AC0
100
AcDbEntity
  8
寸法線
 62
     0
440
 16777216
100
AcDbMText
 10
610.4999540763606
 20
2626.249942832917
 30
0.0
 40
25.0
 41
0.0
 46
0.0
 71
     5
 72
     1
  1
\A1;16
 73
     1
 44
1.0
  0
POINT
  5
115BD
330
10AC0
100
AcDbEntity
  8
Defpoints
 62
     0
440
 16777216
100
AcDbPoint
 10
602.4999441698055
 20
2438.000037219678
 30
0.0
  0
POINT
  5
115BE
330
10AC0
100
AcDbEntity
  8
Defpoints
 62
     0
440
 16777216
100
AcDbPoint
 10
618.4999639829157
 20
2444.999999999999
 30
0.0
  0
POINT
  5
115BF
330
10AC0
100
AcDbEntity
  8
Defpoints
 62
     0
440
 16777216
100
AcDbPoint
 10
618.4999639829157
 20
2604.999942832917
 30
0.0
  0
ENDBLK
  5
10AC2
330
10AC0
100
AcDbEntity
  8
0
100
AcDbBlockEnd
  0
BLOCK
  5
10ACF
330
10ACE
100
AcDbEntity
  8
0
100
AcDbBlockBegin
  2
*D6
 70
     1
 10
0.0
 20
0.0
 30
0.0
  3
*D6
  1

  0
LINE
  5
115C0
330
10ACE
100
AcDbEntity
  8
寸法線
 62
     0
440
 16777216
370
    -2
100
AcDbLine
 10
618.4999639829157
 20
2453.749999999999
 30
0.0
 11
618.4999639829157
 21
2614.999942832917
 31
0.0
  0
LINE
  5
115C1
330
10ACE
100
AcDbEntity
  8
寸法線
 62
     0
440
 16777216
370
    -2
100
AcDbLine
 10
1102.499979077721
 20
2463.750057167085
 30
0.0
 11
1102.499979077721
 21
2614.999942832917
 31
0.0
  0
LINE
  5
115C2
330
10ACE
100
AcDbEntity
  8
寸法線
 62
     0
440
 16777216
370
    -2
100
AcDbLine
 10
638.4999639829157
 20
2604.999942832917
 30
0.0
 11
1082.499979077721
 21
2604.999942832917
 31
0.0
  0
INSERT
  5
115C3
330
10ACE
100
AcDbEntity
  8
寸法線
 62
     0
440
 16777216
370
    -2
100
AcDbBlockReference
  2
_OPEN
 10
618.4999639829157
 20
2604.999942832917
 30
0.0
 41
20.0
 42
20.0
 43
20.0
 50
180.0
  0
INSERT
  5
115C4
330
10ACE
100
AcDbEntity
  8
寸法線
 62
     0
440
 16777216
370
    -2
100
AcDbBlockReference
  2
_OPEN
 10
1102.499979077721
 20
2604.999942832917
 30
0.0
 41
20.0
 42
20.0
 43
20.0
  0
MTEXT
  5
115C5
330
10ACE
100
AcDbEntity
  8
寸法線
 62
     0
440
 16777216
100
AcDbMText
 10
860.499971530301
 20
2626.249942832917
 30
0.0
 40
25.0
 41
0.0
 46
0.0
 71
     5
 72
     1
  1
\A1;484
 73
     1
 44
1.0
  0
POINT
  5
115C6
330
10ACE
100
AcDbEntity
  8
Defpoints
 62
     0
440
 16777216
100
AcDbPoint
 10
618.4999639829157
 20
2444.999999999999
 30
0.0
  0
POINT
  5
115C7
330
10ACE
100
AcDbEntity
  8
Defpoints
 62
     0
440
 16777216
100
AcDbPoint
 10
1102.499979077721
 20
2455.000057167085
 30
0.0
  0
POINT
  5
115C8
330
10ACE
100
AcDbEntity
  8
Defpoints
 62
     0
440
 16777216
100
AcDbPoint
 10
1102.499979077721
 20
2604.999942832917
 30
0.0
  0
ENDBLK
  5
10AD0
330
10ACE
100
AcDbEntity
  8
0
100
AcDbBlockEnd
  0
BLOCK
  5
10ADB
330
10ADA
100
AcDbEntity
  8
0
100
AcDbBlockBegin
  2
*D7
 70
     1
 10
0.0
 20
0.0
 30
0.0
  3
*D7
  1

  0
LINE
  5
115C9
330
10ADA
100
AcDbEntity
  8
寸法線
 62
     0
440
 16777216
370
    -2
100
AcDbLine
 10
609.7499639829159
 20
2445.0
 30
0.0
 11
472.4999441698058
 21
2445.0
 31
0.0
  0
LINE
  5
115CA
330
10ADA
100
AcDbEntity
  8
寸法線
 62
     0
440
 16777216
370
    -2
100
AcDbLine
 10
609.7499441698057
 20
2094.999991728965
 30
0.0
 11
472.4999441698058
 21
2094.999991728965
 31
0.0
  0
LINE
  5
115CB
330
10ADA
100
AcDbEntity
  8
寸法線
 62
     0
440
 16777216
370
    -2
100
AcDbLine
 10
482.4999441698058
 20
2425.0
 30
0.0
 11
482.4999441698059
 21
2114.999991728965
 31
0.0
  0
INSERT
  5
115CC
330
10ADA
100
AcDbEntity
  8
寸法線
 62
     0
440
 16777216
370
    -2
100
AcDbBlockReference
  2
_OPEN
 10
482.4999441698058
 20
2445.0
 30
0.0
 41
20.0
 42
20.0
 43
20.0
 50
90.0
  0
INSERT
  5
115CD
330
10ADA
100
AcDbEntity
  8
寸法線
 62
     0
440
 16777216
370
    -2
100
AcDbBlockReference
  2
_OPEN
 10
482.4999441698059
 20
2094.999991728965
 30
0.0
 41
20.0
 42
20.0
 43
20.0
 50
270.0
  0
MTEXT
  5
115CE
330
10ADA
100
AcDbEntity
  8
寸法線
 62
     0
440
 16777216
100
AcDbMText
 10
461.2499441698063
 20
2269.999999999999
 30
0.0
 40
25.0
 41
0.0
 46
0.0
 71
     5
 72
     1
  1
\A1;350
 11
0.0000000000000001
 21
1.0
 31
0.0
 73
     1
 44
1.0
  0
POINT
  5
115CF
330
10ADA
100
AcDbEntity
  8
Defpoints
 62
     0
440
 16777216
100
AcDbPoint
 10
618.4999639829158
 20
2445.0
 30
0.0
  0
POINT
  5
115D0
330
10ADA
100
AcDbEntity
  8
Defpoints
 62
     0
440
 16777216
100
AcDbPoint
 10
618.4999441698058
 20
2094.999991728965
 30
0.0
  0
POINT
  5
115D1
330
10ADA
100
AcDbEntity
  8
Defpoints
 62
     0
440
 16777216
100
AcDbPoint
 10
482.4999441698059
 20
2094.999991728965
 30
0.0
  0
ENDBLK
  5
10ADC
330
10ADA
100
AcDbEntity
  8
0
100
AcDbBlockEnd
  0
BLOCK
  5
10AE7
330
10AE6
100
AcDbEntity
  8
0
100
AcDbBlockBegin
  2
*D8
 70
     1
 10
0.0
 20
0.0
 30
0.0
  3
*D8
  1

  0
LINE
  5
115D2
330
10AE6
100
AcDbEntity
  8
寸法線
 62
     0
440
 16777216
370
    -2
100
AcDbLine
 10
2502.499944169807
 20
2446.750037219678
 30
0.0
 11
2502.499944169807
 21
2614.999942832917
 31
0.0
  0
LINE
  5
115D3
330
10AE6
100
AcDbEntity
  8
寸法線
 62
     0
440
 16777216
370
    -2
100
AcDbLine
 10
2486.499924356698
 20
2453.749999999999
 30
0.0
 11
2486.499924356698
 21
2614.999942832917
 31
0.0
  0
LINE
  5
115D4
330
10AE6
100
AcDbEntity
  8
寸法線
 62
     0
440
 16777216
370
    -2
100
AcDbLine
 10
2522.499944169807
 20
2604.999942832917
 30
0.0
 11
2542.499944169807
 21
2604.999942832917
 31
0.0
  0
LINE
  5
115D5
330
10AE6
100
AcDbEntity
  8
寸法線
 62
     0
440
 16777216
370
    -2
100
AcDbLine
 10
2466.499924356698
 20
2604.999942832917
 30
0.0
 11
2446.499924356698
 21
2604.999942832917
 31
0.0
  0
LINE
  5
115D6
330
10AE6
100
AcDbEntity
  8
寸法線
 62
     0
440
 16777216
370
    -2
100
AcDbLine
 10
2502.499944169807
 20
2604.999942832917
 30
0.0
 11
2486.499924356698
 21
2604.999942832917
 31
0.0
  0
INSERT
  5
115D7
330
10AE6
100
AcDbEntity
  8
寸法線
 62
     0
440
 16777216
370
    -2
100
AcDbBlockReference
  2
_OPEN
 10
2502.499944169807
 20
2604.999942832917
 30
0.0
 41
20.0
 42
20.0
 43
20.0
 50
180.0
  0
INSERT
  5
115D8
330
10AE6
100
AcDbEntity
  8
寸法線
 62
     0
440
 16777216
370
    -2
100
AcDbBlockReference
  2
_OPEN
 10
2486.499924356698
 20
2604.999942832917
 30
0.0
 41
20.0
 42
20.0
 43
20.0
  0
MTEXT
  5
115D9
330
10AE6
100
AcDbEntity
  8
寸法線
 62
     0
440
 16777216
100
AcDbMText
 10
2494.499934263253
 20
2626.249942832917
 30
0.0
 40
25.0
 41
0.0
 46
0.0
 71
     5
 72
     1
  1
\A1;16
 73
     1
 44
1.0
  0
POINT
  5
115DA
330
10AE6
100
AcDbEntity
  8
Defpoints
 62
     0
440
 16777216
100
AcDbPoint
 10
2502.499944169807
 20
2438.000037219678
 30
0.0
  0
POINT
  5
115DB
330
10AE6
100
AcDbEntity
  8
Defpoints
 62
     0
440
 16777216
100
AcDbPoint
 10
2486.499924356698
 20
2444.999999999999
 30
0.0
  0
POINT
  5
115DC
330
10AE6
100
AcDbEntity
  8
Defpoints
 62
     0
440
 16777216
100
AcDbPoint
 10
2486.499924356698
 20
2604.999942832917
 30
0.0
  0
ENDBLK
  5
10AE8
330
10AE6
100
AcDbEntity
  8
0
100
AcDbBlockEnd
  0
BLOCK
  5
10AF5
330
10AF4
100
AcDbEntity
  8
0
100
AcDbBlockBegin
  2
*D9
 70
     1
 10
0.0
 20
0.0
 30
0.0
  3
*D9
  1

  0
LINE
  5
115DD
330
10AF4
100
AcDbEntity
  8
寸法線
 62
     0
440
 16777216
370
    -2
100
AcDbLine
 10
2486.499924356698
 20
2453.749999999999
 30
0.0
 11
2486.499924356698
 21
2614.999942832917
 31
0.0
  0
LINE
  5
115DE
330
10AF4
100
AcDbEntity
  8
寸法線
 62
     0
440
 16777216
370
    -2
100
AcDbLine
 10
2002.499909261894
 20
2463.750057167085
 30
0.0
 11
2002.499909261894
 21
2614.999942832917
 31
0.0
  0
LINE
  5
115DF
330
10AF4
100
AcDbEntity
  8
寸法線
 62
     0
440
 16777216
370
    -2
100
AcDbLine
 10
2466.499924356698
 20
2604.999942832917
 30
0.0
 11
2022.499909261894
 21
2604.999942832917
 31
0.0
  0
INSERT
  5
115E0
330
10AF4
100
AcDbEntity
  8
寸法線
 62
     0
440
 16777216
370
    -2
100
AcDbBlockReference
  2
_OPEN
 10
2486.499924356698
 20
2604.999942832917
 30
0.0
 41
20.0
 42
20.0
 43
20.0
  0
INSERT
  5
115E1
330
10AF4
100
AcDbEntity
  8
寸法線
 62
     0
440
 16777216
370
    -2
100
AcDbBlockReference
  2
_OPEN
 10
2002.499909261894
 20
2604.999942832917
 30
0.0
 41
20.0
 42
20.0
 43
20.0
 50
180.0
  0
MTEXT
  5
115E2
330
10AF4
100
AcDbEntity
  8
寸法線
 62
     0
440
 16777216
100
AcDbMText
 10
2244.499916809296
 20
2626.249942832917
 30
0.0
 40
25.0
 41
0.0
 46
0.0
 71
     5
 72
     1
  1
\A1;484
 73
     1
 44
1.0
  0
POINT
  5
115E3
330
10AF4
100
AcDbEntity
  8
Defpoints
 62
     0
440
 16777216
100
AcDbPoint
 10
2486.499924356698
 20
2444.999999999999
 30
0.0
  0
POINT
  5
115E4
330
10AF4
100
AcDbEntity
  8
Defpoints
 62
     0
440
 16777216
100
AcDbPoint
 10
2002.499909261894
 20
2455.000057167085
 30
0.0
  0
POINT
  5
115E5
330
10AF4
100
AcDbEntity
  8
Defpoints
 62
     0
440
 16777216
100
AcDbPoint
 10
2002.499909261894
 20
2604.999942832917
 30
0.0
  0
ENDBLK
  5
10AF6
330
10AF4
100
AcDbEntity
  8
0
100
AcDbBlockEnd
  0
BLOCK
  5
10B01
330
10B00
100
AcDbEntity
  8
0
100
AcDbBlockBegin
  2
*D10
 70
     1
 10
0.0
 20
0.0
 30
0.0
  3
*D10
  1

  0
LINE
  5
115E6
330
10B00
100
AcDbEntity
  8
寸法線
 62
     0
440
 16777216
370
    -2
100
AcDbLine
 10
602.4999441698055
 20
2446.750037219678
 30
0.0
 11
602.4999441698055
 21
2694.999942832917
 31
0.0
  0
LINE
  5
115E7
330
10B00
100
AcDbEntity
  8
寸法線
 62
     0
440
 16777216
370
    -2
100
AcDbLine
 10
1102.499979077721
 20
2463.750057167085
 30
0.0
 11
1102.499979077721
 21
2694.999942832917
 31
0.0
  0
LINE
  5
115E8
330
10B00
100
AcDbEntity
  8
寸法線
 62
     0
440
 16777216
370
    -2
100
AcDbLine
 10
622.4999441698055
 20
2684.999942832917
 30
0.0
 11
1082.499979077721
 21
2684.999942832917
 31
0.0
  0
INSERT
  5
115E9
330
10B00
100
AcDbEntity
  8
寸法線
 62
     0
440
 16777216
370
    -2
100
AcDbBlockReference
  2
_OPEN
 10
602.4999441698055
 20
2684.999942832917
 30
0.0
 41
20.0
 42
20.0
 43
20.0
 50
180.0
  0
INSERT
  5
115EA
330
10B00
100
AcDbEntity
  8
寸法線
 62
     0
440
 16777216
370
    -2
100
AcDbBlockReference
  2
_OPEN
 10
1102.499979077721
 20
2684.999942832917
 30
0.0
 41
20.0
 42
20.0
 43
20.0
  0
MTEXT
  5
115EB
330
10B00
100
AcDbEntity
  8
寸法線
 62
     0
440
 16777216
100
AcDbMText
 10
852.4999616237629
 20
2706.249942832917
 30
0.0
 40
25.0
 41
0.0
 46
0.0
 71
     5
 72
     1
  1
\A1;500
 73
     1
 44
1.0
  0
MTEXT
  5
115EC
330
10B00
100
AcDbEntity
  8
寸法線
 62
     0
440
 16777216
100
AcDbMText
 10
852.4999616237629
 20
2663.749942832917
 30
0.0
 40
25.0
 41
0.0
 46
0.0
 71
     5
 72
     1
  1
\A1;H型鋼（連結部）
 73
     1
 44
1.0
  0
POINT
  5
115ED
330
10B00
100
AcDbEntity
  8
Defpoints
 62
     0
440
 16777216
100
AcDbPoint
 10
602.4999441698055
 20
2438.000037219678
 30
0.0
  0
POINT
  5
115EE
330
10B00
100
AcDbEntity
  8
Defpoints
 62
     0
440
 16777216
100
AcDbPoint
 10
1102.499979077721
 20
2455.000057167085
 30
0.0
  0
POINT
  5
115EF
330
10B00
100
AcDbEntity
  8
Defpoints
 62
     0
440
 16777216
100
AcDbPoint
 10
1102.499979077721
 20
2684.999942832917
 30
0.0
  0
ENDBLK
  5
10B02
330
10B00
100
AcDbEntity
  8
0
100
AcDbBlockEnd
  0
BLOCK
  5
10B0E
330
10B0D
100
AcDbEntity
  8
0
100
AcDbBlockBegin
  2
*D11
 70
     1
 10
0.0
 20
0.0
 30
0.0
  3
*D11
  1

  0
LINE
  5
115F0
330
10B0D
100
AcDbEntity
  8
寸法線
 62
     0
440
 16777216
370
    -2
100
AcDbLine
 10
2002.499909261894
 20
2463.750057167085
 30
0.0
 11
2002.499909261894
 21
2694.999942832917
 31
0.0
  0
LINE
  5
115F1
330
10B0D
100
AcDbEntity
  8
寸法線
 62
     0
440
 16777216
370
    -2
100
AcDbLine
 10
2502.499944169807
 20
2446.750037219678
 30
0.0
 11
2502.499944169807
 21
2694.999942832917
 31
0.0
  0
LINE
  5
115F2
330
10B0D
100
AcDbEntity
  8
寸法線
 62
     0
440
 16777216
370
    -2
100
AcDbLine
 10
2022.499909261894
 20
2684.999942832917
 30
0.0
 11
2482.499944169808
 21
2684.999942832917
 31
0.0
  0
INSERT
  5
115F3
330
10B0D
100
AcDbEntity
  8
寸法線
 62
     0
440
 16777216
370
    -2
100
AcDbBlockReference
  2
_OPEN
 10
2002.499909261894
 20
2684.999942832917
 30
0.0
 41
20.0
 42
20.0
 43
20.0
 50
180.0
  0
INSERT
  5
115F4
330
10B0D
100
AcDbEntity
  8
寸法線
 62
     0
440
 16777216
370
    -2
100
AcDbBlockReference
  2
_OPEN
 10
2502.499944169807
 20
2684.999942832917
 30
0.0
 41
20.0
 42
20.0
 43
20.0
  0
MTEXT
  5
115F5
330
10B0D
100
AcDbEntity
  8
寸法線
 62
     0
440
 16777216
100
AcDbMText
 10
2252.499926715851
 20
2706.249942832917
 30
0.0
 40
25.0
 41
0.0
 46
0.0
 71
     5
 72
     1
  1
\A1;500
 73
     1
 44
1.0
  0
MTEXT
  5
115F6
330
10B0D
100
AcDbEntity
  8
寸法線
 62
     0
440
 16777216
100
AcDbMText
 10
2252.499926715851
 20
2663.749942832917
 30
0.0
 40
25.0
 41
0.0
 46
0.0
 71
     5
 72
     1
  1
\A1;H型鋼（連結部）
 73
     1
 44
1.0
  0
POINT
  5
115F7
330
10B0D
100
AcDbEntity
  8
Defpoints
 62
     0
440
 16777216
100
AcDbPoint
 10
2002.499909261894
 20
2455.000057167085
 30
0.0
  0
POINT
  5
115F8
330
10B0D
100
AcDbEntity
  8
Defpoints
 62
     0
440
 16777216
100
AcDbPoint
 10
2502.499944169807
 20
2438.000037219678
 30
0.0
  0
POINT
  5
115F9
330
10B0D
100
AcDbEntity
  8
Defpoints
 62
     0
440
 16777216
100
AcDbPoint
 10
2502.499944169807
 20
2684.999942832917
 30
0.0
  0
ENDBLK
  5
10B0F
330
10B0D
100
AcDbEntity
  8
0
100
AcDbBlockEnd
  0
BLOCK
  5
10B1B
330
10B1A
100
AcDbEntity
  8
0
100
AcDbBlockBegin
  2
*D12
 70
     1
 10
0.0
 20
0.0
 30
0.0
  3
*D12
  1

  0
LINE
  5
115FA
330
10B1A
100
AcDbEntity
  8
寸法線
 62
     0
440
 16777216
370
    -2
100
AcDbLine
 10
2511.249944169808
 20
2438.000037219679
 30
0.0
 11
2632.499963982916
 21
2438.000037219679
 31
0.0
  0
LINE
  5
115FB
330
10B1A
100
AcDbEntity
  8
寸法線
 62
     0
440
 16777216
370
    -2
100
AcDbLine
 10
2511.249944169808
 20
2101.999962780327
 30
0.0
 11
2632.499963982916
 21
2101.999962780327
 31
0.0
  0
LINE
  5
115FC
330
10B1A
100
AcDbEntity
  8
寸法線
 62
     0
440
 16777216
370
    -2
100
AcDbLine
 10
2622.499963982916
 20
2418.000037219679
 30
0.0
 11
2622.499963982916
 21
2121.999962780327
 31
0.0
  0
INSERT
  5
115FD
330
10B1A
100
AcDbEntity
  8
寸法線
 62
     0
440
 16777216
370
    -2
100
AcDbBlockReference
  2
_OPEN
 10
2622.499963982916
 20
2438.000037219679
 30
0.0
 41
20.0
 42
20.0
 43
20.0
 50
90.0
  0
INSERT
  5
115FE
330
10B1A
100
AcDbEntity
  8
寸法線
 62
     0
440
 16777216
370
    -2
100
AcDbBlockReference
  2
_OPEN
 10
2622.499963982916
 20
2101.999962780327
 30
0.0
 41
20.0
 42
20.0
 43
20.0
 50
270.0
  0
MTEXT
  5
115FF
330
10B1A
100
AcDbEntity
  8
寸法線
 62
     0
440
 16777216
100
AcDbMText
 10
2601.249963982916
 20
2269.999999999999
 30
0.0
 40
25.0
 41
0.0
 46
0.0
 71
     5
 72
     1
  1
\A1;336
 11
0.0000000000000001
 21
1.0
 31
0.0
 73
     1
 44
1.0
  0
POINT
  5
11600
330
10B1A
100
AcDbEntity
  8
Defpoints
 62
     0
440
 16777216
100
AcDbPoint
 10
2502.499944169808
 20
2438.000037219679
 30
0.0
  0
POINT
  5
11601
330
10B1A
100
AcDbEntity
  8
Defpoints
 62
     0
440
 16777216
100
AcDbPoint
 10
2502.499944169808
 20
2101.999962780327
 30
0.0
  0
POINT
  5
11602
330
10B1A
100
AcDbEntity
  8
Defpoints
 62
     0
440
 16777216
100
AcDbPoint
 10
2622.499963982916
 20
2101.999962780327
 30
0.0
  0
ENDBLK
  5
10B1C
330
10B1A
100
AcDbEntity
  8
0
100
AcDbBlockEnd
  0
BLOCK
  5
10B27
330
10B26
100
AcDbEntity
  8
0
100
AcDbBlockBegin
  2
*D13
 70
     1
 10
0.0
 20
0.0
 30
0.0
  3
*D13
  1

  0
LINE
  5
1168E
330
10B26
100
AcDbEntity
  8
寸法線
 62
     0
440
 16777216
370
    -2
100
AcDbLine
 10
2502.49997910137
 20
1486.25000375165
 30
0.0
 11
2502.49997547486
 21
1325.00002354195
 31
0.0
  0
LINE
  5
1168F
330
10B26
100
AcDbEntity
  8
寸法線
 62
     0
440
 16777216
370
    -2
100
AcDbLine
 10
2002.499978880931
 20
1476.250036489719
 30
0.0
 11
2002.49997547932
 21
1325.000034786942
 31
0.0
  0
LINE
  5
11690
330
10B26
100
AcDbEntity
  8
寸法線
 62
     0
440
 16777216
370
    -2
100
AcDbLine
 10
2482.49997569976
 20
1335.00002399175
 30
0.0
 11
2022.49997570422
 21
1335.000034337143
 31
0.0
  0
INSERT
  5
11691
330
10B26
100
AcDbEntity
  8
寸法線
 62
     0
440
 16777216
370
    -2
100
AcDbBlockReference
  2
_OPEN
 10
2502.499975699759
 20
1335.00002354195
 30
0.0
 41
20.0
 42
20.0
 43
20.0
 50
359.9999987114188
  0
INSERT
  5
11692
330
10B26
100
AcDbEntity
  8
寸法線
 62
     0
440
 16777216
370
    -2
100
AcDbBlockReference
  2
_OPEN
 10
2002.49997570422
 20
1335.000034786942
 30
0.0
 41
20.0
 42
20.0
 43
20.0
 50
179.9999987114188
  0
MTEXT
  5
11693
330
10B26
100
AcDbEntity
  8
寸法線
 62
     0
440
 16777216
100
AcDbMText
 10
2252.499976179902
 20
1356.250029164446
 30
0.0
 40
25.0
 41
0.0
 46
0.0
 71
     5
 72
     1
  1
\A1;500
 11
0.9999999999999998
 21
-0.000000022489985
 31
0.0
 73
     1
 44
1.0
  0
POINT
  5
11694
330
10B26
100
AcDbEntity
  8
Defpoints
 62
     0
440
 16777216
100
AcDbPoint
 10
2502.499979298157
 20
1495.00000375165
 30
0.0
  0
POINT
  5
11695
330
10B26
100
AcDbEntity
  8
Defpoints
 62
     0
440
 16777216
100
AcDbPoint
 10
2002.499979077718
 20
1485.000036489719
 30
0.0
  0
POINT
  5
11696
330
10B26
100
AcDbEntity
  8
Defpoints
 62
     0
440
 16777216
100
AcDbPoint
 10
2002.49997570422
 20
1335.000034786942
 30
0.0
  0
ENDBLK
  5
10B28
330
10B26
100
AcDbEntity
  8
0
100
AcDbBlockEnd
  0
BLOCK
  5
10B33
330
10B32
100
AcDbEntity
  8
0
100
AcDbBlockBegin
  2
*D14
 70
     1
 10
0.0
 20
0.0
 30
0.0
  3
*D14
  1

  0
LINE
  5
1160C
330
10B32
100
AcDbEntity
  8
寸法線
 62
     0
440
 16777216
370
    -2
100
AcDbLine
 10
1102.499979077718
 20
2463.749999999999
 30
0.0
 11
1102.499979077718
 21
2694.999942832917
 31
0.0
  0
LINE
  5
1160D
330
10B32
100
AcDbEntity
  8
寸法線
 62
     0
440
 16777216
370
    -2
100
AcDbLine
 10
2002.499979077718
 20
2463.750001702781
 30
0.0
 11
2002.499979077718
 21
2694.999942832917
 31
0.0
  0
LINE
  5
1160E
330
10B32
100
AcDbEntity
  8
寸法線
 62
     0
440
 16777216
370
    -2
100
AcDbLine
 10
1122.499979077718
 20
2684.999942832917
 30
0.0
 11
1982.499979077718
 21
2684.999942832917
 31
0.0
  0
INSERT
  5
1160F
330
10B32
100
AcDbEntity
  8
寸法線
 62
     0
440
 16777216
370
    -2
100
AcDbBlockReference
  2
_OPEN
 10
1102.499979077718
 20
2684.999942832917
 30
0.0
 41
20.0
 42
20.0
 43
20.0
 50
180.0
  0
INSERT
  5
11610
330
10B32
100
AcDbEntity
  8
寸法線
 62
     0
440
 16777216
370
    -2
100
AcDbBlockReference
  2
_OPEN
 10
2002.499979077718
 20
2684.999942832917
 30
0.0
 41
20.0
 42
20.0
 43
20.0
  0
MTEXT
  5
11611
330
10B32
100
AcDbEntity
  8
寸法線
 62
     0
440
 16777216
100
AcDbMText
 10
1552.499979077718
 20
2706.249942832917
 30
0.0
 40
25.0
 41
0.0
 46
0.0
 71
     5
 72
     1
  1
\A1;W=900
 73
     1
 44
1.0
  0
MTEXT
  5
11612
330
10B32
100
AcDbEntity
  8
寸法線
 62
     0
440
 16777216
100
AcDbMText
 10
1552.499979077718
 20
2663.749942832917
 30
0.0
 40
25.0
 41
0.0
 46
0.0
 71
     5
 72
     1
  1
\A1;空洞金具
 73
     1
 44
1.0
  0
POINT
  5
11613
330
10B32
100
AcDbEntity
  8
Defpoints
 62
     0
440
 16777216
100
AcDbPoint
 10
1102.499979077718
 20
2454.999999999999
 30
0.0
  0
POINT
  5
11614
330
10B32
100
AcDbEntity
  8
Defpoints
 62
     0
440
 16777216
100
AcDbPoint
 10
2002.499979077718
 20
2455.000001702781
 30
0.0
  0
POINT
  5
11615
330
10B32
100
AcDbEntity
  8
Defpoints
 62
     0
440
 16777216
100
AcDbPoint
 10
2002.499979077718
 20
2684.999942832917
 30
0.0
  0
ENDBLK
  5
10B34
330
10B32
100
AcDbEntity
  8
0
100
AcDbBlockEnd
  0
BLOCK
  5
10B40
330
10B3F
100
AcDbEntity
  8
0
100
AcDbBlockBegin
  2
*D15
 70
     1
 10
0.0
 20
0.0
 30
0.0
  3
*D15
  1

  0
LINE
  5
11616
330
10B3F
100
AcDbEntity
  8
寸法線
 62
     0
440
 16777216
370
    -2
100
AcDbLine
 10
602.4999441698055
 20
2446.750037219678
 30
0.0
 11
602.4999441698055
 21
2774.999942832917
 31
0.0
  0
LINE
  5
11617
330
10B3F
100
AcDbEntity
  8
寸法線
 62
     0
440
 16777216
370
    -2
100
AcDbLine
 10
2502.499944169807
 20
2446.750037219678
 30
0.0
 11
2502.499944169807
 21
2774.999942832917
 31
0.0
  0
LINE
  5
11618
330
10B3F
100
AcDbEntity
  8
寸法線
 62
     0
440
 16777216
370
    -2
100
AcDbLine
 10
622.4999441698055
 20
2764.999942832917
 30
0.0
 11
2482.499944169808
 21
2764.999942832917
 31
0.0
  0
INSERT
  5
11619
330
10B3F
100
AcDbEntity
  8
寸法線
 62
     0
440
 16777216
370
    -2
100
AcDbBlockReference
  2
_OPEN
 10
602.4999441698055
 20
2764.999942832917
 30
0.0
 41
20.0
 42
20.0
 43
20.0
 50
180.0
  0
INSERT
  5
1161A
330
10B3F
100
AcDbEntity
  8
寸法線
 62
     0
440
 16777216
370
    -2
100
AcDbBlockReference
  2
_OPEN
 10
2502.499944169807
 20
2764.999942832917
 30
0.0
 41
20.0
 42
20.0
 43
20.0
  0
MTEXT
  5
1161B
330
10B3F
100
AcDbEntity
  8
寸法線
 62
     0
440
 16777216
100
AcDbMText
 10
1552.499944169806
 20
2786.249942832917
 30
0.0
 40
25.0
 41
0.0
 46
0.0
 71
     5
 72
     1
  1
\A1;スルーサーＢ L=1900
 73
     1
 44
1.0
  0
POINT
  5
1161C
330
10B3F
100
AcDbEntity
  8
Defpoints
 62
     0
440
 16777216
100
AcDbPoint
 10
602.4999441698055
 20
2438.000037219678
 30
0.0
  0
POINT
  5
1161D
330
10B3F
100
AcDbEntity
  8
Defpoints
 62
     0
440
 16777216
100
AcDbPoint
 10
2502.499944169807
 20
2438.000037219678
 30
0.0
  0
POINT
  5
1161E
330
10B3F
100
AcDbEntity
  8
Defpoints
 62
     0
440
 16777216
100
AcDbPoint
 10
2502.499944169807
 20
2764.999942832917
 30
0.0
  0
ENDBLK
  5
10B41
330
10B3F
100
AcDbEntity
  8
0
100
AcDbBlockEnd
  0
BLOCK
  5
10B4C
330
10B4B
100
AcDbEntity
  8
0
100
AcDbBlockBegin
  2
*D16
 70
     1
 10
0.0
 20
0.0
 30
0.0
  3
*D16
  1

  0
LINE
  5
1161F
330
10B4B
100
AcDbEntity
  8
寸法線
 62
     0
440
 16777216
370
    -2
100
AcDbLine
 10
3342.499963982916
 20
2086.249942967219
 30
0.0
 11
3342.499963982916
 21
1964.999942967219
 31
0.0
  0
LINE
  5
11620
330
10B4B
100
AcDbEntity
  8
寸法線
 62
     0
440
 16777216
370
    -2
100
AcDbLine
 10
2992.499963982914
 20
2086.249942967219
 30
0.0
 11
2992.499963982914
 21
1964.999942967219
 31
0.0
  0
LINE
  5
11621
330
10B4B
100
AcDbEntity
  8
寸法線
 62
     0
440
 16777216
370
    -2
100
AcDbLine
 10
3322.499963982917
 20
1974.999942967219
 30
0.0
 11
3012.499963982914
 21
1974.999942967219
 31
0.0
  0
INSERT
  5
11622
330
10B4B
100
AcDbEntity
  8
寸法線
 62
     0
440
 16777216
370
    -2
100
AcDbBlockReference
  2
_OPEN
 10
3342.499963982916
 20
1974.999942967219
 30
0.0
 41
20.0
 42
20.0
 43
20.0
  0
INSERT
  5
11623
330
10B4B
100
AcDbEntity
  8
寸法線
 62
     0
440
 16777216
370
    -2
100
AcDbBlockReference
  2
_OPEN
 10
2992.499963982914
 20
1974.999942967219
 30
0.0
 41
20.0
 42
20.0
 43
20.0
 50
180.0
  0
MTEXT
  5
11624
330
10B4B
100
AcDbEntity
  8
寸法線
 62
     0
440
 16777216
100
AcDbMText
 10
3167.499963982916
 20
1996.249942967219
 30
0.0
 40
25.0
 41
0.0
 46
0.0
 71
     5
 72
     1
  1
\A1;350
 73
     1
 44
1.0
  0
POINT
  5
11625
330
10B4B
100
AcDbEntity
  8
Defpoints
 62
     0
440
 16777216
100
AcDbPoint
 10
3342.499963982916
 20
2094.999942967219
 30
0.0
  0
POINT
  5
11626
330
10B4B
100
AcDbEntity
  8
Defpoints
 62
     0
440
 16777216
100
AcDbPoint
 10
2992.499963982914
 20
2094.999942967219
 30
0.0
  0
POINT
  5
11627
330
10B4B
100
AcDbEntity
  8
Defpoints
 62
     0
440
 16777216
100
AcDbPoint
 10
2992.499963982914
 20
1974.999942967219
 30
0.0
  0
ENDBLK
  5
10B4D
330
10B4B
100
AcDbEntity
  8
0
100
AcDbBlockEnd
  0
BLOCK
  5
10B58
330
10B57
100
AcDbEntity
  8
0
100
AcDbBlockBegin
  2
*D17
 70
     1
 10
0.0
 20
0.0
 30
0.0
  3
*D17
  1

  0
LINE
  5
11628
330
10B57
100
AcDbEntity
  8
寸法線
 62
     0
440
 16777216
370
    -2
100
AcDbLine
 10
2983.749963982915
 20
2444.999982593437
 30
0.0
 11
2862.499963982914
 21
2444.999982593437
 31
0.0
  0
LINE
  5
11629
330
10B57
100
AcDbEntity
  8
寸法線
 62
     0
440
 16777216
370
    -2
100
AcDbLine
 10
2983.749963982915
 20
2094.999982593437
 30
0.0
 11
2862.499963982914
 21
2094.999982593437
 31
0.0
  0
LINE
  5
1162A
330
10B57
100
AcDbEntity
  8
寸法線
 62
     0
440
 16777216
370
    -2
100
AcDbLine
 10
2872.499963982914
 20
2424.999982593437
 30
0.0
 11
2872.499963982914
 21
2114.999982593437
 31
0.0
  0
INSERT
  5
1162B
330
10B57
100
AcDbEntity
  8
寸法線
 62
     0
440
 16777216
370
    -2
100
AcDbBlockReference
  2
_OPEN
 10
2872.499963982914
 20
2444.999982593437
 30
0.0
 41
20.0
 42
20.0
 43
20.0
 50
90.0
  0
INSERT
  5
1162C
330
10B57
100
AcDbEntity
  8
寸法線
 62
     0
440
 16777216
370
    -2
100
AcDbBlockReference
  2
_OPEN
 10
2872.499963982914
 20
2094.999982593437
 30
0.0
 41
20.0
 42
20.0
 43
20.0
 50
270.0
  0
MTEXT
  5
1162D
330
10B57
100
AcDbEntity
  8
寸法線
 62
     0
440
 16777216
100
AcDbMText
 10
2851.249963982914
 20
2269.999962780327
 30
0.0
 40
25.0
 41
0.0
 46
0.0
 71
     5
 72
     1
  1
\A1;350
 11
0.0000000000000001
 21
1.0
 31
0.0
 73
     1
 44
1.0
  0
POINT
  5
1162E
330
10B57
100
AcDbEntity
  8
Defpoints
 62
     0
440
 16777216
100
AcDbPoint
 10
2992.499963982915
 20
2444.999982593437
 30
0.0
  0
POINT
  5
1162F
330
10B57
100
AcDbEntity
  8
Defpoints
 62
     0
440
 16777216
100
AcDbPoint
 10
2992.499963982915
 20
2094.999982593437
 30
0.0
  0
POINT
  5
11630
330
10B57
100
AcDbEntity
  8
Defpoints
 62
     0
440
 16777216
100
AcDbPoint
 10
2872.499963982914
 20
2094.999982593437
 30
0.0
  0
ENDBLK
  5
10B59
330
10B57
100
AcDbEntity
  8
0
100
AcDbBlockEnd
  0
BLOCK
  5
10B64
330
10B63
100
AcDbEntity
  8
0
100
AcDbBlockBegin
  2
*D18
 70
     1
 10
0.0
 20
0.0
 30
0.0
  3
*D18
  1

  0
LINE
  5
11631
330
10B63
100
AcDbEntity
  8
寸法線
 62
     0
440
 16777216
370
    -2
100
AcDbLine
 10
2511.250013985632
 20
2438.000051998484
 30
0.0
 11
2632.50003379874
 21
2438.000051998484
 31
0.0
  0
LINE
  5
11632
330
10B63
100
AcDbEntity
  8
寸法線
 62
     0
440
 16777216
370
    -2
100
AcDbLine
 10
2511.250013985632
 20
2101.999977559131
 30
0.0
 11
2632.50003379874
 21
2101.999977559131
 31
0.0
  0
LINE
  5
11633
330
10B63
100
AcDbEntity
  8
寸法線
 62
     0
440
 16777216
370
    -2
100
AcDbLine
 10
2622.50003379874
 20
2418.000051998484
 30
0.0
 11
2622.50003379874
 21
2121.999977559131
 31
0.0
  0
INSERT
  5
11634
330
10B63
100
AcDbEntity
  8
寸法線
 62
     0
440
 16777216
370
    -2
100
AcDbBlockReference
  2
_OPEN
 10
2622.50003379874
 20
2438.000051998484
 30
0.0
 41
20.0
 42
20.0
 43
20.0
 50
90.0
  0
INSERT
  5
11635
330
10B63
100
AcDbEntity
  8
寸法線
 62
     0
440
 16777216
370
    -2
100
AcDbBlockReference
  2
_OPEN
 10
2622.50003379874
 20
2101.999977559131
 30
0.0
 41
20.0
 42
20.0
 43
20.0
 50
270.0
  0
MTEXT
  5
11636
330
10B63
100
AcDbEntity
  8
寸法線
 62
     0
440
 16777216
100
AcDbMText
 10
2601.25003379874
 20
2270.000014778806
 30
0.0
 40
25.0
 41
0.0
 46
0.0
 71
     5
 72
     1
  1
\A1;336
 11
0.0000000000000001
 21
1.0
 31
0.0
 73
     1
 44
1.0
  0
POINT
  5
11637
330
10B63
100
AcDbEntity
  8
Defpoints
 62
     0
440
 16777216
100
AcDbPoint
 10
2502.500013985632
 20
2438.000051998484
 30
0.0
  0
POINT
  5
11638
330
10B63
100
AcDbEntity
  8
Defpoints
 62
     0
440
 16777216
100
AcDbPoint
 10
2502.500013985632
 20
2101.999977559131
 30
0.0
  0
POINT
  5
11639
330
10B63
100
AcDbEntity
  8
Defpoints
 62
     0
440
 16777216
100
AcDbPoint
 10
2622.50003379874
 20
2101.999977559131
 30
0.0
  0
ENDBLK
  5
10B65
330
10B63
100
AcDbEntity
  8
0
100
AcDbBlockEnd
  0
BLOCK
  5
10B70
330
10B6F
100
AcDbEntity
  8
0
100
AcDbBlockBegin
  2
*D19
 70
     1
 10
0.0
 20
0.0
 30
0.0
  3
*D19
  1

  0
LINE
  5
11697
330
10B6F
100
AcDbEntity
  8
寸法線
 62
     0
440
 16777216
370
    -2
100
AcDbLine
 10
2011.249979077719
 20
1495.000090609426
 30
0.0
 11
2192.499994172522
 21
1495.000090609426
 31
0.0
  0
LINE
  5
11698
330
10B6F
100
AcDbEntity
  8
寸法線
 62
     0
440
 16777216
370
    -2
100
AcDbLine
 10
2119.249979077719
 20
1522.50001493693
 30
0.0
 11
2192.499994172522
 21
1522.50001493693
 31
0.0
  0
LINE
  5
11699
330
10B6F
100
AcDbEntity
  8
寸法線
 62
     0
440
 16777216
370
    -2
100
AcDbLine
 10
2182.499994172522
 20
1475.000090609426
 30
0.0
 11
2182.499994172522
 21
1455.000090609425
 31
0.0
  0
LINE
  5
1169A
330
10B6F
100
AcDbEntity
  8
寸法線
 62
     0
440
 16777216
370
    -2
100
AcDbLine
 10
2182.499994172522
 20
1542.50001493693
 30
0.0
 11
2182.499994172522
 21
1562.50001493693
 31
0.0
  0
LINE
  5
1169B
330
10B6F
100
AcDbEntity
  8
寸法線
 62
     0
440
 16777216
370
    -2
100
AcDbLine
 10
2182.499994172522
 20
1495.000090609426
 30
0.0
 11
2182.499994172522
 21
1522.50001493693
 31
0.0
  0
INSERT
  5
1169C
330
10B6F
100
AcDbEntity
  8
寸法線
 62
     0
440
 16777216
370
    -2
100
AcDbBlockReference
  2
_OPEN
 10
2182.499994172522
 20
1495.000090609426
 30
0.0
 41
20.0
 42
20.0
 43
20.0
 50
90.0
  0
INSERT
  5
1169D
330
10B6F
100
AcDbEntity
  8
寸法線
 62
     0
440
 16777216
370
    -2
100
AcDbBlockReference
  2
_OPEN
 10
2182.499994172522
 20
1522.50001493693
 30
0.0
 41
20.0
 42
20.0
 43
20.0
 50
270.0
  0
MTEXT
  5
1169E
330
10B6F
100
AcDbEntity
  8
寸法線
 62
     0
440
 16777216
100
AcDbMText
 10
2161.247533542601
 20
1508.750052773177
 30
0.0
 40
25.0
 41
0.0
 46
0.0
 71
     5
 72
     1
  1
\A1;27.5
 11
0.0000000000000001
 21
1.0
 31
0.0
 73
     1
 44
1.0
  0
POINT
  5
1169F
330
10B6F
100
AcDbEntity
  8
Defpoints
 62
     0
440
 16777216
100
AcDbPoint
 10
2002.499979077719
 20
1495.000090609426
 30
0.0
  0
POINT
  5
116A0
330
10B6F
100
AcDbEntity
  8
Defpoints
 62
     0
440
 16777216
100
AcDbPoint
 10
2110.499979077719
 20
1522.50001493693
 30
0.0
  0
POINT
  5
116A1
330
10B6F
100
AcDbEntity
  8
Defpoints
 62
     0
440
 16777216
100
AcDbPoint
 10
2182.499994172522
 20
1522.50001493693
 30
0.0
  0
ENDBLK
  5
10B71
330
10B6F
100
AcDbEntity
  8
0
100
AcDbBlockEnd
  0
BLOCK
  5
10B7E
330
10B7D
100
AcDbEntity
  8
0
100
AcDbBlockBegin
  2
*D20
 70
     1
 10
0.0
 20
0.0
 30
0.0
  3
*D20
  1

  0
LINE
  5
116A2
330
10B7D
100
AcDbEntity
  8
寸法線
 62
     0
440
 16777216
370
    -2
100
AcDbLine
 10
2111.249994172523
 20
1825.500015811891
 30
0.0
 11
2192.499994172522
 21
1825.500015811891
 31
0.0
  0
LINE
  5
116A3
330
10B7D
100
AcDbEntity
  8
寸法線
 62
     0
440
 16777216
370
    -2
100
AcDbLine
 10
2111.249994172523
 20
1809.500015811891
 30
0.0
 11
2192.499994172522
 21
1809.500015811891
 31
0.0
  0
LINE
  5
116A4
330
10B7D
100
AcDbEntity
  8
寸法線
 62
     0
440
 16777216
370
    -2
100
AcDbLine
 10
2182.499994172522
 20
1845.500015811891
 30
0.0
 11
2182.499994172522
 21
1865.500015811891
 31
0.0
  0
LINE
  5
116A5
330
10B7D
100
AcDbEntity
  8
寸法線
 62
     0
440
 16777216
370
    -2
100
AcDbLine
 10
2182.499994172522
 20
1789.500015811891
 30
0.0
 11
2182.499994172522
 21
1769.500015811891
 31
0.0
  0
LINE
  5
116A6
330
10B7D
100
AcDbEntity
  8
寸法線
 62
     0
440
 16777216
370
    -2
100
AcDbLine
 10
2182.499994172522
 20
1825.500015811891
 30
0.0
 11
2182.499994172522
 21
1809.500015811891
 31
0.0
  0
INSERT
  5
116A7
330
10B7D
100
AcDbEntity
  8
寸法線
 62
     0
440
 16777216
370
    -2
100
AcDbBlockReference
  2
_OPEN
 10
2182.499994172522
 20
1825.500015811891
 30
0.0
 41
20.0
 42
20.0
 43
20.0
 50
270.0
  0
INSERT
  5
116A8
330
10B7D
100
AcDbEntity
  8
寸法線
 62
     0
440
 16777216
370
    -2
100
AcDbBlockReference
  2
_OPEN
 10
2182.499994172522
 20
1809.500015811891
 30
0.0
 41
20.0
 42
20.0
 43
20.0
 50
90.0
  0
MTEXT
  5
116A9
330
10B7D
100
AcDbEntity
  8
寸法線
 62
     0
440
 16777216
100
AcDbMText
 10
2161.249994172522
 20
1817.50001581189
 30
0.0
 40
25.0
 41
0.0
 46
0.0
 71
     5
 72
     1
  1
\A1;16
 11
0.0000000000000001
 21
1.0
 31
0.0
 73
     1
 44
1.0
  0
POINT
  5
116AA
330
10B7D
100
AcDbEntity
  8
Defpoints
 62
     0
440
 16777216
100
AcDbPoint
 10
2102.499994172523
 20
1825.500015811891
 30
0.0
  0
POINT
  5
116AB
330
10B7D
100
AcDbEntity
  8
Defpoints
 62
     0
440
 16777216
100
AcDbPoint
 10
2102.499994172523
 20
1809.500015811891
 30
0.0
  0
POINT
  5
116AC
330
10B7D
100
AcDbEntity
  8
Defpoints
 62
     0
440
 16777216
100
AcDbPoint
 10
2182.499994172522
 20
1809.500015811891
 30
0.0
  0
ENDBLK
  5
10B7F
330
10B7D
100
AcDbEntity
  8
0
100
AcDbBlockEnd
  0
BLOCK
  5
11077
330
11076
100
AcDbEntity
  8
0
100
AcDbBlockBegin
  2
*D21
 70
     1
 10
0.0
 20
0.0
 30
0.0
  3
*D21
  1

  0
LINE
  5
1141B
330
11076
100
AcDbEntity
  8
寸法線
 62
     0
440
 16777216
370
    -2
100
AcDbLine
 10
330.2538926073595
 20
564.9999635107126
 30
0.0
 11
209.0039999999989
 21
564.9999635107125
 31
0.0
  0
LINE
  5
1141C
330
11076
100
AcDbEntity
  8
寸法線
 62
     0
440
 16777216
370
    -2
100
AcDbLine
 10
330.2538926073595
 20
934.9999635107128
 30
0.0
 11
209.0039999999988
 21
934.9999635107128
 31
0.0
  0
LINE
  5
1141D
330
11076
100
AcDbEntity
  8
寸法線
 62
     0
440
 16777216
370
    -2
100
AcDbLine
 10
219.0039999999989
 20
584.9999635107125
 30
0.0
 11
219.0039999999988
 21
914.9999635107127
 31
0.0
  0
INSERT
  5
1141E
330
11076
100
AcDbEntity
  8
寸法線
 62
     0
440
 16777216
370
    -2
100
AcDbBlockReference
  2
_OPEN
 10
219.0039999999989
 20
564.9999635107125
 30
0.0
 41
20.0
 42
20.0
 43
20.0
 50
270.0
  0
INSERT
  5
1141F
330
11076
100
AcDbEntity
  8
寸法線
 62
     0
440
 16777216
370
    -2
100
AcDbBlockReference
  2
_OPEN
 10
219.0039999999988
 20
934.9999635107128
 30
0.0
 41
20.0
 42
20.0
 43
20.0
 50
90.0
  0
MTEXT
  5
11420
330
11076
100
AcDbEntity
  8
寸法線
 62
     0
440
 16777216
100
AcDbMText
 10
197.753999999999
 20
749.9999635107124
 30
0.0
 40
25.0
 41
0.0
 46
0.0
 71
     5
 72
     1
  1
\A1;370
 11
0.0000000000000001
 21
1.0
 31
0.0
 73
     1
 44
1.0
  0
POINT
  5
11421
330
11076
100
AcDbEntity
  8
Defpoints
 62
     0
440
 16777216
100
AcDbPoint
 10
339.0038926073595
 20
564.9999635107126
 30
0.0
  0
POINT
  5
11422
330
11076
100
AcDbEntity
  8
Defpoints
 62
     0
440
 16777216
100
AcDbPoint
 10
339.0038926073595
 20
934.9999635107128
 30
0.0
  0
POINT
  5
11423
330
11076
100
AcDbEntity
  8
Defpoints
 62
     0
440
 16777216
100
AcDbPoint
 10
219.0039999999988
 20
934.9999635107128
 30
0.0
  0
ENDBLK
  5
11078
330
11076
100
AcDbEntity
  8
0
100
AcDbBlockEnd
  0
BLOCK
  5
11083
330
11082
100
AcDbEntity
  8
0
100
AcDbBlockBegin
  2
*D22
 70
     1
 10
0.0
 20
0.0
 30
0.0
  3
*D22
  1

  0
LINE
  5
11424
330
11082
100
AcDbEntity
  8
寸法線
 62
     0
440
 16777216
370
    -2
100
AcDbLine
 10
339.0041073926095
 20
556.2499635107124
 30
0.0
 11
339.0041073926095
 21
434.9999635107122
 31
0.0
  0
LINE
  5
11425
330
11082
100
AcDbEntity
  8
寸法線
 62
     0
440
 16777216
370
    -2
100
AcDbLine
 10
709.0041073926093
 20
556.2499635107124
 30
0.0
 11
709.0041073926093
 21
434.9999635107122
 31
0.0
  0
LINE
  5
11426
330
11082
100
AcDbEntity
  8
寸法線
 62
     0
440
 16777216
370
    -2
100
AcDbLine
 10
359.0041073926095
 20
444.9999635107123
 30
0.0
 11
689.0041073926095
 21
444.9999635107123
 31
0.0
  0
INSERT
  5
11427
330
11082
100
AcDbEntity
  8
寸法線
 62
     0
440
 16777216
370
    -2
100
AcDbBlockReference
  2
_OPEN
 10
339.0041073926095
 20
444.9999635107123
 30
0.0
 41
20.0
 42
20.0
 43
20.0
 50
180.0
  0
INSERT
  5
11428
330
11082
100
AcDbEntity
  8
寸法線
 62
     0
440
 16777216
370
    -2
100
AcDbBlockReference
  2
_OPEN
 10
709.0041073926093
 20
444.9999635107123
 30
0.0
 41
20.0
 42
20.0
 43
20.0
  0
MTEXT
  5
11429
330
11082
100
AcDbEntity
  8
寸法線
 62
     0
440
 16777216
100
AcDbMText
 10
524.0041073926095
 20
466.2499635107122
 30
0.0
 40
25.0
 41
0.0
 46
0.0
 71
     5
 72
     1
  1
\A1;370
 73
     1
 44
1.0
  0
POINT
  5
1142A
330
11082
100
AcDbEntity
  8
Defpoints
 62
     0
440
 16777216
100
AcDbPoint
 10
339.0041073926095
 20
564.9999635107124
 30
0.0
  0
POINT
  5
1142B
330
11082
100
AcDbEntity
  8
Defpoints
 62
     0
440
 16777216
100
AcDbPoint
 10
709.0041073926093
 20
564.9999635107124
 30
0.0
  0
POINT
  5
1142C
330
11082
100
AcDbEntity
  8
Defpoints
 62
     0
440
 16777216
100
AcDbPoint
 10
709.0041073926093
 20
444.9999635107123
 30
0.0
  0
ENDBLK
  5
11084
330
11082
100
AcDbEntity
  8
0
100
AcDbBlockEnd
  0
BLOCK
  5
1108F
330
1108E
100
AcDbEntity
  8
0
100
AcDbBlockBegin
  2
*D23
 70
     1
 10
0.0
 20
0.0
 30
0.0
  3
*D23
  1

  0
LINE
  5
1142D
330
1108E
100
AcDbEntity
  8
寸法線
 62
     0
440
 16777216
370
    -2
100
AcDbLine
 10
2464.004003807595
 20
516.2499817553507
 30
0.0
 11
2464.004003807595
 21
434.9999817553507
 31
0.0
  0
LINE
  5
1142E
330
1108E
100
AcDbEntity
  8
寸法線
 62
     0
440
 16777216
370
    -2
100
AcDbLine
 10
2874.004003807595
 20
516.2499817553507
 30
0.0
 11
2874.004003807595
 21
434.9999817553507
 31
0.0
  0
LINE
  5
1142F
330
1108E
100
AcDbEntity
  8
寸法線
 62
     0
440
 16777216
370
    -2
100
AcDbLine
 10
2484.004003807595
 20
444.9999817553507
 30
0.0
 11
2854.004003807596
 21
444.9999817553507
 31
0.0
  0
INSERT
  5
11430
330
1108E
100
AcDbEntity
  8
寸法線
 62
     0
440
 16777216
370
    -2
100
AcDbBlockReference
  2
_OPEN
 10
2464.004003807595
 20
444.9999817553507
 30
0.0
 41
20.0
 42
20.0
 43
20.0
 50
180.0
  0
INSERT
  5
11431
330
1108E
100
AcDbEntity
  8
寸法線
 62
     0
440
 16777216
370
    -2
100
AcDbBlockReference
  2
_OPEN
 10
2874.004003807595
 20
444.9999817553507
 30
0.0
 41
20.0
 42
20.0
 43
20.0
  0
MTEXT
  5
11432
330
1108E
100
AcDbEntity
  8
寸法線
 62
     0
440
 16777216
100
AcDbMText
 10
2669.004003807595
 20
466.2499817553507
 30
0.0
 40
25.0
 41
0.0
 46
0.0
 71
     5
 72
     1
  1
\A1;410
 73
     1
 44
1.0
  0
POINT
  5
11433
330
1108E
100
AcDbEntity
  8
Defpoints
 62
     0
440
 16777216
100
AcDbPoint
 10
2464.004003807595
 20
524.9999817553507
 30
0.0
  0
POINT
  5
11434
330
1108E
100
AcDbEntity
  8
Defpoints
 62
     0
440
 16777216
100
AcDbPoint
 10
2874.004003807595
 20
524.9999817553507
 30
0.0
  0
POINT
  5
11435
330
1108E
100
AcDbEntity
  8
Defpoints
 62
     0
440
 16777216
100
AcDbPoint
 10
2874.004003807595
 20
444.9999817553507
 30
0.0
  0
ENDBLK
  5
11090
330
1108E
100
AcDbEntity
  8
0
100
AcDbBlockEnd
  0
BLOCK
  5
1109B
330
1109A
100
AcDbEntity
  8
0
100
AcDbBlockBegin
  2
*D24
 70
     1
 10
0.0
 20
0.0
 30
0.0
  3
*D24
  1

  0
LINE
  5
11436
330
1109A
100
AcDbEntity
  8
寸法線
 62
     0
440
 16777216
370
    -2
100
AcDbLine
 10
2882.754003807596
 20
524.999981755351
 30
0.0
 11
2964.004003807826
 21
524.999981755351
 31
0.0
  0
LINE
  5
11437
330
1109A
100
AcDbEntity
  8
寸法線
 62
     0
440
 16777216
370
    -2
100
AcDbLine
 10
2882.754003807596
 20
934.9999817553513
 30
0.0
 11
2964.004003807826
 21
934.9999817553513
 31
0.0
  0
LINE
  5
11438
330
1109A
100
AcDbEntity
  8
寸法線
 62
     0
440
 16777216
370
    -2
100
AcDbLine
 10
2954.004003807826
 20
544.999981755351
 30
0.0
 11
2954.004003807826
 21
914.9999817553513
 31
0.0
  0
INSERT
  5
11439
330
1109A
100
AcDbEntity
  8
寸法線
 62
     0
440
 16777216
370
    -2
100
AcDbBlockReference
  2
_OPEN
 10
2954.004003807826
 20
524.999981755351
 30
0.0
 41
20.0
 42
20.0
 43
20.0
 50
270.0
  0
INSERT
  5
1143A
330
1109A
100
AcDbEntity
  8
寸法線
 62
     0
440
 16777216
370
    -2
100
AcDbBlockReference
  2
_OPEN
 10
2954.004003807826
 20
934.9999817553513
 30
0.0
 41
20.0
 42
20.0
 43
20.0
 50
90.0
  0
MTEXT
  5
1143B
330
1109A
100
AcDbEntity
  8
寸法線
 62
     0
440
 16777216
100
AcDbMText
 10
2932.754003807826
 20
729.9999817553501
 30
0.0
 40
25.0
 41
0.0
 46
0.0
 71
     5
 72
     1
  1
\A1;410
 11
0.0000000000000001
 21
1.0
 31
0.0
 73
     1
 44
1.0
  0
POINT
  5
1143C
330
1109A
100
AcDbEntity
  8
Defpoints
 62
     0
440
 16777216
100
AcDbPoint
 10
2874.004003807596
 20
524.999981755351
 30
0.0
  0
POINT
  5
1143D
330
1109A
100
AcDbEntity
  8
Defpoints
 62
     0
440
 16777216
100
AcDbPoint
 10
2874.004003807596
 20
934.9999817553513
 30
0.0
  0
POINT
  5
1143E
330
1109A
100
AcDbEntity
  8
Defpoints
 62
     0
440
 16777216
100
AcDbPoint
 10
2954.004003807826
 20
934.9999817553513
 30
0.0
  0
ENDBLK
  5
1109C
330
1109A
100
AcDbEntity
  8
0
100
AcDbBlockEnd
  0
BLOCK
  5
110A7
330
110A6
100
AcDbEntity
  8
0
100
AcDbBlockBegin
  2
*D25
 70
     1
 10
0.0
 20
0.0
 30
0.0
  3
*D25
  1

  0
LINE
  5
1143F
330
110A6
100
AcDbEntity
  8
寸法線
 62
     0
440
 16777216
370
    -2
100
AcDbLine
 10
2565.12582833457
 20
659.922259472248
 30
0.0
 11
2565.750828334837
 21
658.8397277170614
 31
0.0
  0
LINE
  5
11440
330
110A6
100
AcDbEntity
  8
寸法線
 62
     0
440
 16777216
370
    -2
100
AcDbLine
 10
2772.882179280649
 20
800.077704038453
 30
0.0
 11
2772.257179280585
 21
801.1602357932881
 31
0.0
  0
LINE
  5
11441
330
110A6
100
AcDbEntity
  8
寸法線
 62
     0
440
 16777216
370
    -2
100
AcDbLine
 10
2578.071336410478
 20
677.4999817549377
 30
0.0
 11
2759.936671204944
 21
782.4999817554117
 31
0.0
  0
INSERT
  5
11442
330
110A6
100
AcDbEntity
  8
寸法線
 62
     0
440
 16777216
370
    -2
100
AcDbBlockReference
  2
_OPEN
 10
2560.750828334815
 20
667.4999817548926
 30
0.0
 41
20.0
 42
20.0
 43
20.0
 50
210.0000000001482
  0
INSERT
  5
11443
330
110A6
100
AcDbEntity
  8
寸法線
 62
     0
440
 16777216
370
    -2
100
AcDbBlockReference
  2
_OPEN
 10
2777.257179280608
 20
792.4999817554566
 30
0.0
 41
20.0
 42
20.0
 43
20.0
 50
30.00000000014825
  0
MTEXT
  5
11444
330
110A6
100
AcDbEntity
  8
寸法線
 62
     0
440
 16777216
100
AcDbMText
 10
2707.203022789233
 20
776.5944233783584
 30
0.0
 40
25.0
 41
0.0
 46
0.0
 71
     5
 72
     1
  1
\A1;%%C250
 11
0.8660254037831448
 21
0.5000000000022409
 31
0.0
 73
     1
 44
1.0
  0
POINT
  5
11445
330
110A6
100
AcDbEntity
  8
Defpoints
 62
     0
440
 16777216
100
AcDbPoint
 10
2560.750828334551
 20
667.4999817553505
 30
0.0
  0
POINT
  5
11446
330
110A6
100
AcDbEntity
  8
Defpoints
 62
     0
440
 16777216
100
AcDbPoint
 10
2777.257179280669
 20
792.4999817553506
 30
0.0
  0
POINT
  5
11447
330
110A6
100
AcDbEntity
  8
Defpoints
 62
     0
440
 16777216
100
AcDbPoint
 10
2777.257179280608
 20
792.4999817554566
 30
0.0
  0
ENDBLK
  5
110A8
330
110A6
100
AcDbEntity
  8
0
100
AcDbBlockEnd
  0
BLOCK
  5
110B3
330
110B2
100
AcDbEntity
  8
0
100
AcDbBlockBegin
  2
*D26
 70
     1
 10
0.0
 20
0.0
 30
0.0
  3
*D26
  1

  0
LINE
  5
11448
330
110B2
100
AcDbEntity
  8
寸法線
 62
     0
440
 16777216
370
    -2
100
AcDbLine
 10
1931.474384776242
 20
541.2499635107415
 30
0.0
 11
1931.474384776242
 21
434.9999817553507
 31
0.0
  0
LINE
  5
11449
330
110B2
100
AcDbEntity
  8
寸法線
 62
     0
440
 16777216
370
    -2
100
AcDbLine
 10
2226.474384776242
 20
541.2499635107415
 30
0.0
 11
2226.474384776242
 21
434.9999817553507
 31
0.0
  0
LINE
  5
1144A
330
110B2
100
AcDbEntity
  8
寸法線
 62
     0
440
 16777216
370
    -2
100
AcDbLine
 10
1951.474384776242
 20
444.9999817553507
 30
0.0
 11
2206.474384776242
 21
444.9999817553507
 31
0.0
  0
INSERT
  5
1144B
330
110B2
100
AcDbEntity
  8
寸法線
 62
     0
440
 16777216
370
    -2
100
AcDbBlockReference
  2
_OPEN
 10
1931.474384776242
 20
444.9999817553507
 30
0.0
 41
20.0
 42
20.0
 43
20.0
 50
180.0
  0
INSERT
  5
1144C
330
110B2
100
AcDbEntity
  8
寸法線
 62
     0
440
 16777216
370
    -2
100
AcDbBlockReference
  2
_OPEN
 10
2226.474384776242
 20
444.9999817553507
 30
0.0
 41
20.0
 42
20.0
 43
20.0
  0
MTEXT
  5
1144D
330
110B2
100
AcDbEntity
  8
寸法線
 62
     0
440
 16777216
100
AcDbMText
 10
2078.974692632253
 20
466.252442385272
 30
0.0
 40
25.0
 41
0.0
 46
0.0
 71
     5
 72
     1
  1
\A1;295
 73
     1
 44
1.0
  0
POINT
  5
1144E
330
110B2
100
AcDbEntity
  8
Defpoints
 62
     0
440
 16777216
100
AcDbPoint
 10
1931.474384776242
 20
549.9999635107415
 30
0.0
  0
POINT
  5
1144F
330
110B2
100
AcDbEntity
  8
Defpoints
 62
     0
440
 16777216
100
AcDbPoint
 10
2226.474384776242
 20
549.9999635107415
 30
0.0
  0
POINT
  5
11450
330
110B2
100
AcDbEntity
  8
Defpoints
 62
     0
440
 16777216
100
AcDbPoint
 10
2226.474384776242
 20
444.9999817553507
 30
0.0
  0
ENDBLK
  5
110B4
330
110B2
100
AcDbEntity
  8
0
100
AcDbBlockEnd
  0
BLOCK
  5
110BF
330
110BE
100
AcDbEntity
  8
0
100
AcDbBlockBegin
  2
*D27
 70
     1
 10
0.0
 20
0.0
 30
0.0
  3
*D27
  1

  0
LINE
  5
11451
330
110BE
100
AcDbEntity
  8
寸法線
 62
     0
440
 16777216
370
    -2
100
AcDbLine
 10
2287.724384776243
 20
897.4999635107419
 30
0.0
 11
2393.97446792641
 21
897.4999635107421
 31
0.0
  0
LINE
  5
11452
330
110BE
100
AcDbEntity
  8
寸法線
 62
     0
440
 16777216
370
    -2
100
AcDbLine
 10
2272.72446792641
 20
934.9999817553513
 30
0.0
 11
2393.97446792641
 21
934.9999817553513
 31
0.0
  0
LINE
  5
11453
330
110BE
100
AcDbEntity
  8
寸法線
 62
     0
440
 16777216
370
    -2
100
AcDbLine
 10
2383.97446792641
 20
877.499963510742
 30
0.0
 11
2383.97446792641
 21
857.499963510742
 31
0.0
  0
LINE
  5
11454
330
110BE
100
AcDbEntity
  8
寸法線
 62
     0
440
 16777216
370
    -2
100
AcDbLine
 10
2383.97446792641
 20
954.9999817553512
 30
0.0
 11
2383.97446792641
 21
974.9999817553513
 31
0.0
  0
LINE
  5
11455
330
110BE
100
AcDbEntity
  8
寸法線
 62
     0
440
 16777216
370
    -2
100
AcDbLine
 10
2383.97446792641
 20
897.4999635107421
 30
0.0
 11
2383.97446792641
 21
934.9999817553513
 31
0.0
  0
INSERT
  5
11456
330
110BE
100
AcDbEntity
  8
寸法線
 62
     0
440
 16777216
370
    -2
100
AcDbBlockReference
  2
_OPEN
 10
2383.97446792641
 20
897.4999635107421
 30
0.0
 41
20.0
 42
20.0
 43
20.0
 50
90.0
  0
INSERT
  5
11457
330
110BE
100
AcDbEntity
  8
寸法線
 62
     0
440
 16777216
370
    -2
100
AcDbBlockReference
  2
_OPEN
 10
2383.97446792641
 20
934.9999817553513
 30
0.0
 41
20.0
 42
20.0
 43
20.0
 50
270.0
  0
MTEXT
  5
11458
330
110BE
100
AcDbEntity
  8
寸法線
 62
     0
440
 16777216
100
AcDbMText
 10
2362.72446792641
 20
916.2499726330457
 30
0.0
 40
25.0
 41
0.0
 46
0.0
 71
     5
 72
     1
  1
\A1;37.5
 11
0.0000000000000001
 21
1.0
 31
0.0
 73
     1
 44
1.0
  0
POINT
  5
11459
330
110BE
100
AcDbEntity
  8
Defpoints
 62
     0
440
 16777216
100
AcDbPoint
 10
2278.974384776243
 20
897.4999635107419
 30
0.0
  0
POINT
  5
1145A
330
110BE
100
AcDbEntity
  8
Defpoints
 62
     0
440
 16777216
100
AcDbPoint
 10
2263.974467926411
 20
934.9999817553513
 30
0.0
  0
POINT
  5
1145B
330
110BE
100
AcDbEntity
  8
Defpoints
 62
     0
440
 16777216
100
AcDbPoint
 10
2383.97446792641
 20
934.9999817553513
 30
0.0
  0
ENDBLK
  5
110C0
330
110BE
100
AcDbEntity
  8
0
100
AcDbBlockEnd
  0
BLOCK
  5
110CD
330
110CC
100
AcDbEntity
  8
0
100
AcDbBlockBegin
  2
*D28
 70
     1
 10
0.0
 20
0.0
 30
0.0
  3
*D28
  1

  0
LINE
  5
1145C
330
110CC
100
AcDbEntity
  8
寸法線
 62
     0
440
 16777216
370
    -2
100
AcDbLine
 10
2287.724384776243
 20
602.4999635107417
 30
0.0
 11
2393.97446792641
 21
602.4999635107417
 31
0.0
  0
LINE
  5
1145D
330
110CC
100
AcDbEntity
  8
寸法線
 62
     0
440
 16777216
370
    -2
100
AcDbLine
 10
2287.724384776243
 20
897.4999635107419
 30
0.0
 11
2393.97446792641
 21
897.4999635107421
 31
0.0
  0
LINE
  5
1145E
330
110CC
100
AcDbEntity
  8
寸法線
 62
     0
440
 16777216
370
    -2
100
AcDbLine
 10
2383.97446792641
 20
622.4999635107417
 30
0.0
 11
2383.97446792641
 21
877.499963510742
 31
0.0
  0
INSERT
  5
1145F
330
110CC
100
AcDbEntity
  8
寸法線
 62
     0
440
 16777216
370
    -2
100
AcDbBlockReference
  2
_OPEN
 10
2383.97446792641
 20
602.4999635107417
 30
0.0
 41
20.0
 42
20.0
 43
20.0
 50
270.0
  0
INSERT
  5
11460
330
110CC
100
AcDbEntity
  8
寸法線
 62
     0
440
 16777216
370
    -2
100
AcDbBlockReference
  2
_OPEN
 10
2383.97446792641
 20
897.4999635107421
 30
0.0
 41
20.0
 42
20.0
 43
20.0
 50
90.0
  0
MTEXT
  5
11461
330
110CC
100
AcDbEntity
  8
寸法線
 62
     0
440
 16777216
100
AcDbMText
 10
2362.722007296488
 20
750.0002161832997
 30
0.0
 40
25.0
 41
0.0
 46
0.0
 71
     5
 72
     1
  1
\A1;295
 11
0.0000000000000001
 21
1.0
 31
0.0
 73
     1
 44
1.0
  0
POINT
  5
11462
330
110CC
100
AcDbEntity
  8
Defpoints
 62
     0
440
 16777216
100
AcDbPoint
 10
2278.974384776243
 20
602.4999635107417
 30
0.0
  0
POINT
  5
11463
330
110CC
100
AcDbEntity
  8
Defpoints
 62
     0
440
 16777216
100
AcDbPoint
 10
2278.974384776243
 20
897.4999635107419
 30
0.0
  0
POINT
  5
11464
330
110CC
100
AcDbEntity
  8
Defpoints
 62
     0
440
 16777216
100
AcDbPoint
 10
2383.97446792641
 20
897.4999635107421
 30
0.0
  0
ENDBLK
  5
110CE
330
110CC
100
AcDbEntity
  8
0
100
AcDbBlockEnd
  0
BLOCK
  5
110D9
330
110D8
100
AcDbEntity
  8
0
100
AcDbBlockBegin
  2
*D29
 70
     1
 10
0.0
 20
0.0
 30
0.0
  3
*D29
  1

  0
LINE
  5
11465
330
110D8
100
AcDbEntity
  8
寸法線
 62
     0
440
 16777216
370
    -2
100
AcDbLine
 10
2272.72446792641
 20
564.9999817553508
 30
0.0
 11
2393.97446792641
 21
564.9999817553511
 31
0.0
  0
LINE
  5
11466
330
110D8
100
AcDbEntity
  8
寸法線
 62
     0
440
 16777216
370
    -2
100
AcDbLine
 10
2287.724384776243
 20
602.4999635107417
 30
0.0
 11
2393.97446792641
 21
602.4999635107417
 31
0.0
  0
LINE
  5
11467
330
110D8
100
AcDbEntity
  8
寸法線
 62
     0
440
 16777216
370
    -2
100
AcDbLine
 10
2383.97446792641
 20
544.9999817553511
 30
0.0
 11
2383.97446792641
 21
524.999981755351
 31
0.0
  0
LINE
  5
11468
330
110D8
100
AcDbEntity
  8
寸法線
 62
     0
440
 16777216
370
    -2
100
AcDbLine
 10
2383.97446792641
 20
622.4999635107417
 30
0.0
 11
2383.97446792641
 21
642.4999635107417
 31
0.0
  0
LINE
  5
11469
330
110D8
100
AcDbEntity
  8
寸法線
 62
     0
440
 16777216
370
    -2
100
AcDbLine
 10
2383.97446792641
 20
564.9999817553511
 30
0.0
 11
2383.97446792641
 21
602.4999635107417
 31
0.0
  0
INSERT
  5
1146A
330
110D8
100
AcDbEntity
  8
寸法線
 62
     0
440
 16777216
370
    -2
100
AcDbBlockReference
  2
_OPEN
 10
2383.97446792641
 20
564.9999817553511
 30
0.0
 41
20.0
 42
20.0
 43
20.0
 50
90.0
  0
INSERT
  5
1146B
330
110D8
100
AcDbEntity
  8
寸法線
 62
     0
440
 16777216
370
    -2
100
AcDbBlockReference
  2
_OPEN
 10
2383.97446792641
 20
602.4999635107417
 30
0.0
 41
20.0
 42
20.0
 43
20.0
 50
270.0
  0
MTEXT
  5
1146C
330
110D8
100
AcDbEntity
  8
寸法線
 62
     0
440
 16777216
100
AcDbMText
 10
2362.72446792641
 20
583.7499726330456
 30
0.0
 40
25.0
 41
0.0
 46
0.0
 71
     5
 72
     1
  1
\A1;37.5
 11
0.0000000000000001
 21
1.0
 31
0.0
 73
     1
 44
1.0
  0
POINT
  5
1146D
330
110D8
100
AcDbEntity
  8
Defpoints
 62
     0
440
 16777216
100
AcDbPoint
 10
2263.974467926411
 20
564.9999817553508
 30
0.0
  0
POINT
  5
1146E
330
110D8
100
AcDbEntity
  8
Defpoints
 62
     0
440
 16777216
100
AcDbPoint
 10
2278.974384776243
 20
602.4999635107417
 30
0.0
  0
POINT
  5
1146F
330
110D8
100
AcDbEntity
  8
Defpoints
 62
     0
440
 16777216
100
AcDbPoint
 10
2383.97446792641
 20
602.4999635107417
 30
0.0
  0
ENDBLK
  5
110DA
330
110D8
100
AcDbEntity
  8
0
100
AcDbBlockEnd
  0
BLOCK
  5
110E7
330
110E6
100
AcDbEntity
  8
0
100
AcDbBlockBegin
  2
*D30
 70
     1
 10
0.0
 20
0.0
 30
0.0
  3
*D30
  1

  0
LINE
  5
11470
330
110E6
100
AcDbEntity
  8
寸法線
 62
     0
440
 16777216
370
    -2
100
AcDbLine
 10
2226.474384776242
 20
541.2499635107415
 30
0.0
 11
2226.474384776242
 21
434.9999817553507
 31
0.0
  0
LINE
  5
11471
330
110E6
100
AcDbEntity
  8
寸法線
 62
     0
440
 16777216
370
    -2
100
AcDbLine
 10
2263.974467926409
 20
556.2499817553507
 30
0.0
 11
2263.974467926409
 21
434.9999817553507
 31
0.0
  0
LINE
  5
11472
330
110E6
100
AcDbEntity
  8
寸法線
 62
     0
440
 16777216
370
    -2
100
AcDbLine
 10
2206.474384776242
 20
444.9999817553507
 30
0.0
 11
2186.474384776242
 21
444.9999817553507
 31
0.0
  0
LINE
  5
11473
330
110E6
100
AcDbEntity
  8
寸法線
 62
     0
440
 16777216
370
    -2
100
AcDbLine
 10
2283.974467926411
 20
444.9999817553507
 30
0.0
 11
2303.97446792641
 21
444.9999817553507
 31
0.0
  0
LINE
  5
11474
330
110E6
100
AcDbEntity
  8
寸法線
 62
     0
440
 16777216
370
    -2
100
AcDbLine
 10
2226.474384776242
 20
444.9999817553507
 30
0.0
 11
2263.974467926409
 21
444.9999817553507
 31
0.0
  0
INSERT
  5
11475
330
110E6
100
AcDbEntity
  8
寸法線
 62
     0
440
 16777216
370
    -2
100
AcDbBlockReference
  2
_OPEN
 10
2226.474384776242
 20
444.9999817553507
 30
0.0
 41
20.0
 42
20.0
 43
20.0
  0
INSERT
  5
11476
330
110E6
100
AcDbEntity
  8
寸法線
 62
     0
440
 16777216
370
    -2
100
AcDbBlockReference
  2
_OPEN
 10
2263.974467926409
 20
444.9999817553507
 30
0.0
 41
20.0
 42
20.0
 43
20.0
 50
180.0
  0
MTEXT
  5
11477
330
110E6
100
AcDbEntity
  8
寸法線
 62
     0
440
 16777216
100
AcDbMText
 10
2245.224426351326
 20
466.2499817553507
 30
0.0
 40
25.0
 41
0.0
 46
0.0
 71
     5
 72
     1
  1
\A1;37.5
 73
     1
 44
1.0
  0
POINT
  5
11478
330
110E6
100
AcDbEntity
  8
Defpoints
 62
     0
440
 16777216
100
AcDbPoint
 10
2226.474384776242
 20
549.9999635107415
 30
0.0
  0
POINT
  5
11479
330
110E6
100
AcDbEntity
  8
Defpoints
 62
     0
440
 16777216
100
AcDbPoint
 10
2263.974467926409
 20
564.9999817553507
 30
0.0
  0
POINT
  5
1147A
330
110E6
100
AcDbEntity
  8
Defpoints
 62
     0
440
 16777216
100
AcDbPoint
 10
2263.974467926409
 20
444.9999817553507
 30
0.0
  0
ENDBLK
  5
110E8
330
110E6
100
AcDbEntity
  8
0
100
AcDbBlockEnd
  0
BLOCK
  5
110F5
330
110F4
100
AcDbEntity
  8
0
100
AcDbBlockBegin
  2
*D31
 70
     1
 10
0.0
 20
0.0
 30
0.0
  3
*D31
  1

  0
LINE
  5
1147B
330
110F4
100
AcDbEntity
  8
寸法線
 62
     0
440
 16777216
370
    -2
100
AcDbLine
 10
1931.474384776242
 20
541.2499635107415
 30
0.0
 11
1931.474384776242
 21
434.9999817553507
 31
0.0
  0
LINE
  5
1147C
330
110F4
100
AcDbEntity
  8
寸法線
 62
     0
440
 16777216
370
    -2
100
AcDbLine
 10
1893.974501626084
 20
556.2499817553507
 30
0.0
 11
1893.974501626084
 21
434.9999817553507
 31
0.0
  0
LINE
  5
1147D
330
110F4
100
AcDbEntity
  8
寸法線
 62
     0
440
 16777216
370
    -2
100
AcDbLine
 10
1951.474384776242
 20
444.9999817553507
 30
0.0
 11
1971.474384776242
 21
444.9999817553507
 31
0.0
  0
LINE
  5
1147E
330
110F4
100
AcDbEntity
  8
寸法線
 62
     0
440
 16777216
370
    -2
100
AcDbLine
 10
1873.974501626084
 20
444.9999817553507
 30
0.0
 11
1853.974501626084
 21
444.9999817553507
 31
0.0
  0
LINE
  5
1147F
330
110F4
100
AcDbEntity
  8
寸法線
 62
     0
440
 16777216
370
    -2
100
AcDbLine
 10
1931.474384776242
 20
444.9999817553507
 30
0.0
 11
1893.974501626084
 21
444.9999817553507
 31
0.0
  0
INSERT
  5
11480
330
110F4
100
AcDbEntity
  8
寸法線
 62
     0
440
 16777216
370
    -2
100
AcDbBlockReference
  2
_OPEN
 10
1931.474384776242
 20
444.9999817553507
 30
0.0
 41
20.0
 42
20.0
 43
20.0
 50
180.0
  0
INSERT
  5
11481
330
110F4
100
AcDbEntity
  8
寸法線
 62
     0
440
 16777216
370
    -2
100
AcDbBlockReference
  2
_OPEN
 10
1893.974501626084
 20
444.9999817553507
 30
0.0
 41
20.0
 42
20.0
 43
20.0
  0
MTEXT
  5
11482
330
110F4
100
AcDbEntity
  8
寸法線
 62
     0
440
 16777216
100
AcDbMText
 10
1912.724443201163
 20
466.2499817553507
 30
0.0
 40
25.0
 41
0.0
 46
0.0
 71
     5
 72
     1
  1
\A1;37.5
 73
     1
 44
1.0
  0
POINT
  5
11483
330
110F4
100
AcDbEntity
  8
Defpoints
 62
     0
440
 16777216
100
AcDbPoint
 10
1931.474384776242
 20
549.9999635107415
 30
0.0
  0
POINT
  5
11484
330
110F4
100
AcDbEntity
  8
Defpoints
 62
     0
440
 16777216
100
AcDbPoint
 10
1893.974501626084
 20
564.9999817553507
 30
0.0
  0
POINT
  5
11485
330
110F4
100
AcDbEntity
  8
Defpoints
 62
     0
440
 16777216
100
AcDbPoint
 10
1893.974501626084
 20
444.9999817553507
 30
0.0
  0
ENDBLK
  5
110F6
330
110F4
100
AcDbEntity
  8
0
100
AcDbBlockEnd
  0
BLOCK
  5
11103
330
11102
100
AcDbEntity
  8
0
100
AcDbBlockBegin
  2
*D32
 70
     1
 10
0.0
 20
0.0
 30
0.0
  3
*D32
  1

  0
LINE
  5
113AC
330
11102
100
AcDbEntity
  8
寸法線
 62
     0
440
 16777216
370
    -2
100
AcDbLine
 10
1628.991086914421
 20
869.9999270214652
 30
0.0
 11
1627.741086914421
 21
869.9999270214652
 31
0.0
  0
LINE
  5
113AD
330
11102
100
AcDbEntity
  8
寸法線
 62
     0
440
 16777216
370
    -2
100
AcDbLine
 10
1628.991086914421
 20
924.9999270214653
 30
0.0
 11
1627.741086914421
 21
924.9999270214653
 31
0.0
  0
LINE
  5
113AE
330
11102
100
AcDbEntity
  8
寸法線
 62
     0
440
 16777216
370
    -2
100
AcDbLine
 10
1637.74108691442
 20
944.9999270214652
 30
0.0
 11
1637.74108691442
 21
964.9999270214653
 31
0.0
  0
LINE
  5
113AF
330
11102
100
AcDbEntity
  8
寸法線
 62
     0
440
 16777216
370
    -2
100
AcDbLine
 10
1637.74108691442
 20
849.9999270214653
 30
0.0
 11
1637.74108691442
 21
761.4643931155186
 31
0.0
  0
LINE
  5
113B0
330
11102
100
AcDbEntity
  8
寸法線
 62
     0
440
 16777216
370
    -2
100
AcDbLine
 10
1637.74108691442
 20
924.9999270214653
 30
0.0
 11
1637.74108691442
 21
869.9999270214652
 31
0.0
  0
INSERT
  5
113B1
330
11102
100
AcDbEntity
  8
寸法線
 62
     0
440
 16777216
370
    -2
100
AcDbBlockReference
  2
_OPEN
 10
1637.74108691442
 20
924.9999270214653
 30
0.0
 41
20.0
 42
20.0
 43
20.0
 50
270.0
  0
INSERT
  5
113B2
330
11102
100
AcDbEntity
  8
寸法線
 62
     0
440
 16777216
370
    -2
100
AcDbBlockReference
  2
_OPEN
 10
1637.74108691442
 20
869.9999270214652
 30
0.0
 41
20.0
 42
20.0
 43
20.0
 50
90.0
  0
MTEXT
  5
113B3
330
11102
100
AcDbEntity
  8
寸法線
 62
     0
440
 16777216
100
AcDbMText
 10
1616.49108691442
 20
795.7321600684845
 30
0.0
 40
25.0
 41
0.0
 46
0.0
 71
     5
 72
     1
  1
\A1;%%C55
 11
0.0000000000000001
 21
1.0
 31
0.0
 73
     1
 44
1.0
  0
POINT
  5
113B4
330
11102
100
AcDbEntity
  8
Defpoints
 62
     0
440
 16777216
100
AcDbPoint
 10
1637.741086914421
 20
869.9999270214652
 30
0.0
  0
POINT
  5
113B5
330
11102
100
AcDbEntity
  8
Defpoints
 62
     0
440
 16777216
100
AcDbPoint
 10
1637.741086914421
 20
924.9999270214653
 30
0.0
  0
POINT
  5
113B6
330
11102
100
AcDbEntity
  8
Defpoints
 62
     0
440
 16777216
100
AcDbPoint
 10
1637.74108691442
 20
924.9999270214653
 30
0.0
  0
ENDBLK
  5
11104
330
11102
100
AcDbEntity
  8
0
100
AcDbBlockEnd
  0
BLOCK
  5
11111
330
11110
100
AcDbEntity
  8
0
100
AcDbBlockBegin
  2
*D33
 70
     1
 10
0.0
 20
0.0
 30
0.0
  3
*D33
  1

  0
LINE
  5
113B7
330
11110
100
AcDbEntity
  8
寸法線
 62
     0
440
 16777216
370
    -2
100
AcDbLine
 10
1301.004003807595
 20
963.7499270214647
 30
0.0
 11
1301.004003807595
 21
1064.999941865164
 31
0.0
  0
LINE
  5
113B8
330
11110
100
AcDbEntity
  8
寸法線
 62
     0
440
 16777216
370
    -2
100
AcDbLine
 10
1317.004003807595
 20
963.7499270214647
 30
0.0
 11
1317.004003807595
 21
1064.999941865164
 31
0.0
  0
LINE
  5
113B9
330
11110
100
AcDbEntity
  8
寸法線
 62
     0
440
 16777216
370
    -2
100
AcDbLine
 10
1281.004003807595
 20
1054.999941865164
 30
0.0
 11
1261.004003807595
 21
1054.999941865164
 31
0.0
  0
LINE
  5
113BA
330
11110
100
AcDbEntity
  8
寸法線
 62
     0
440
 16777216
370
    -2
100
AcDbLine
 10
1337.004003807595
 20
1054.999941865164
 30
0.0
 11
1357.004003807595
 21
1054.999941865164
 31
0.0
  0
LINE
  5
113BB
330
11110
100
AcDbEntity
  8
寸法線
 62
     0
440
 16777216
370
    -2
100
AcDbLine
 10
1301.004003807595
 20
1054.999941865164
 30
0.0
 11
1317.004003807595
 21
1054.999941865164
 31
0.0
  0
INSERT
  5
113BC
330
11110
100
AcDbEntity
  8
寸法線
 62
     0
440
 16777216
370
    -2
100
AcDbBlockReference
  2
_OPEN
 10
1301.004003807595
 20
1054.999941865164
 30
0.0
 41
20.0
 42
20.0
 43
20.0
  0
INSERT
  5
113BD
330
11110
100
AcDbEntity
  8
寸法線
 62
     0
440
 16777216
370
    -2
100
AcDbBlockReference
  2
_OPEN
 10
1317.004003807595
 20
1054.999941865164
 30
0.0
 41
20.0
 42
20.0
 43
20.0
 50
180.0
  0
MTEXT
  5
113BE
330
11110
100
AcDbEntity
  8
寸法線
 62
     0
440
 16777216
100
AcDbMText
 10
1309.004003807595
 20
1076.249941865164
 30
0.0
 40
25.0
 41
0.0
 46
0.0
 71
     5
 72
     1
  1
\A1;16
 73
     1
 44
1.0
  0
POINT
  5
113BF
330
11110
100
AcDbEntity
  8
Defpoints
 62
     0
440
 16777216
100
AcDbPoint
 10
1301.004003807595
 20
954.9999270214646
 30
0.0
  0
POINT
  5
113C0
330
11110
100
AcDbEntity
  8
Defpoints
 62
     0
440
 16777216
100
AcDbPoint
 10
1317.004003807595
 20
954.9999270214646
 30
0.0
  0
POINT
  5
113C1
330
11110
100
AcDbEntity
  8
Defpoints
 62
     0
440
 16777216
100
AcDbPoint
 10
1317.004003807595
 20
1054.999941865164
 30
0.0
  0
ENDBLK
  5
11112
330
11110
100
AcDbEntity
  8
0
100
AcDbBlockEnd
  0
BLOCK
  5
1111F
330
1111E
100
AcDbEntity
  8
0
100
AcDbBlockBegin
  2
*D34
 70
     1
 10
0.0
 20
0.0
 30
0.0
  3
*D34
  1

  0
LINE
  5
113C2
330
1111E
100
AcDbEntity
  8
寸法線
 62
     0
440
 16777216
370
    -2
100
AcDbLine
 10
875.0040038075949
 20
556.2499270214939
 30
0.0
 11
875.0040038075949
 21
434.999945266103
 31
0.0
  0
LINE
  5
113C3
330
1111E
100
AcDbEntity
  8
寸法線
 62
     0
440
 16777216
370
    -2
100
AcDbLine
 10
907.004003807595
 20
566.2499270214939
 30
0.0
 11
907.004003807595
 21
434.999945266103
 31
0.0
  0
LINE
  5
113C4
330
1111E
100
AcDbEntity
  8
寸法線
 62
     0
440
 16777216
370
    -2
100
AcDbLine
 10
855.0040038075948
 20
444.9999452661031
 30
0.0
 11
835.0040038075949
 21
444.9999452661031
 31
0.0
  0
LINE
  5
113C5
330
1111E
100
AcDbEntity
  8
寸法線
 62
     0
440
 16777216
370
    -2
100
AcDbLine
 10
927.0040038075947
 20
444.9999452661031
 30
0.0
 11
947.0040038075948
 21
444.9999452661031
 31
0.0
  0
LINE
  5
113C6
330
1111E
100
AcDbEntity
  8
寸法線
 62
     0
440
 16777216
370
    -2
100
AcDbLine
 10
875.0040038075949
 20
444.9999452661031
 30
0.0
 11
907.004003807595
 21
444.9999452661031
 31
0.0
  0
INSERT
  5
113C7
330
1111E
100
AcDbEntity
  8
寸法線
 62
     0
440
 16777216
370
    -2
100
AcDbBlockReference
  2
_OPEN
 10
875.0040038075949
 20
444.9999452661031
 30
0.0
 41
20.0
 42
20.0
 43
20.0
  0
INSERT
  5
113C8
330
1111E
100
AcDbEntity
  8
寸法線
 62
     0
440
 16777216
370
    -2
100
AcDbBlockReference
  2
_OPEN
 10
907.004003807595
 20
444.9999452661031
 30
0.0
 41
20.0
 42
20.0
 43
20.0
 50
180.0
  0
MTEXT
  5
113C9
330
1111E
100
AcDbEntity
  8
寸法線
 62
     0
440
 16777216
100
AcDbMText
 10
891.0040038075949
 20
466.2524058960244
 30
0.0
 40
25.0
 41
0.0
 46
0.0
 71
     5
 72
     1
  1
\A1;32
 73
     1
 44
1.0
  0
POINT
  5
113CA
330
1111E
100
AcDbEntity
  8
Defpoints
 62
     0
440
 16777216
100
AcDbPoint
 10
875.0040038075949
 20
564.9999270214939
 30
0.0
  0
POINT
  5
113CB
330
1111E
100
AcDbEntity
  8
Defpoints
 62
     0
440
 16777216
100
AcDbPoint
 10
907.004003807595
 20
574.9999270214939
 30
0.0
  0
POINT
  5
113CC
330
1111E
100
AcDbEntity
  8
Defpoints
 62
     0
440
 16777216
100
AcDbPoint
 10
907.004003807595
 20
444.9999452661031
 30
0.0
  0
ENDBLK
  5
11120
330
1111E
100
AcDbEntity
  8
0
100
AcDbBlockEnd
  0
BLOCK
  5
1112D
330
1112C
100
AcDbEntity
  8
0
100
AcDbBlockBegin
  2
*D35
 70
     1
 10
0.0
 20
0.0
 30
0.0
  3
*D35
  1

  0
LINE
  5
113CD
330
1112C
100
AcDbEntity
  8
寸法線
 62
     0
440
 16777216
370
    -2
100
AcDbLine
 10
907.004003807595
 20
566.2499270214939
 30
0.0
 11
907.004003807595
 21
434.999945266103
 31
0.0
  0
LINE
  5
113CE
330
1112C
100
AcDbEntity
  8
寸法線
 62
     0
440
 16777216
370
    -2
100
AcDbLine
 10
1711.004003807595
 20
566.2499270214647
 30
0.0
 11
1711.004003807595
 21
434.999945266103
 31
0.0
  0
LINE
  5
113CF
330
1112C
100
AcDbEntity
  8
寸法線
 62
     0
440
 16777216
370
    -2
100
AcDbLine
 10
927.0040038075947
 20
444.9999452661031
 30
0.0
 11
1691.004003807595
 21
444.9999452661031
 31
0.0
  0
INSERT
  5
113D0
330
1112C
100
AcDbEntity
  8
寸法線
 62
     0
440
 16777216
370
    -2
100
AcDbBlockReference
  2
_OPEN
 10
907.004003807595
 20
444.9999452661031
 30
0.0
 41
20.0
 42
20.0
 43
20.0
 50
180.0
  0
INSERT
  5
113D1
330
1112C
100
AcDbEntity
  8
寸法線
 62
     0
440
 16777216
370
    -2
100
AcDbBlockReference
  2
_OPEN
 10
1711.004003807595
 20
444.9999452661031
 30
0.0
 41
20.0
 42
20.0
 43
20.0
  0
MTEXT
  5
113D2
330
1112C
100
AcDbEntity
  8
寸法線
 62
     0
440
 16777216
100
AcDbMText
 10
1309.004003807595
 20
466.249945266103
 30
0.0
 40
25.0
 41
0.0
 46
0.0
 71
     5
 72
     1
  1
\A1;804
 73
     1
 44
1.0
  0
POINT
  5
113D3
330
1112C
100
AcDbEntity
  8
Defpoints
 62
     0
440
 16777216
100
AcDbPoint
 10
907.004003807595
 20
574.9999270214939
 30
0.0
  0
POINT
  5
113D4
330
1112C
100
AcDbEntity
  8
Defpoints
 62
     0
440
 16777216
100
AcDbPoint
 10
1711.004003807595
 20
574.9999270214646
 30
0.0
  0
POINT
  5
113D5
330
1112C
100
AcDbEntity
  8
Defpoints
 62
     0
440
 16777216
100
AcDbPoint
 10
1711.004003807595
 20
444.9999452661031
 30
0.0
  0
ENDBLK
  5
1112E
330
1112C
100
AcDbEntity
  8
0
100
AcDbBlockEnd
  0
BLOCK
  5
11139
330
11138
100
AcDbEntity
  8
0
100
AcDbBlockBegin
  2
*D36
 70
     1
 10
0.0
 20
0.0
 30
0.0
  3
*D36
  1

  0
LINE
  5
113D6
330
11138
100
AcDbEntity
  8
寸法線
 62
     0
440
 16777216
370
    -2
100
AcDbLine
 10
859.0040038075949
 20
556.2499270214939
 30
0.0
 11
859.0040038075949
 21
374.9999452661032
 31
0.0
  0
LINE
  5
113D7
330
11138
100
AcDbEntity
  8
寸法線
 62
     0
440
 16777216
370
    -2
100
AcDbLine
 10
875.0040038075949
 20
556.2499270214939
 30
0.0
 11
875.0040038075949
 21
374.9999452661032
 31
0.0
  0
LINE
  5
113D8
330
11138
100
AcDbEntity
  8
寸法線
 62
     0
440
 16777216
370
    -2
100
AcDbLine
 10
839.0040038075948
 20
384.9999452661032
 30
0.0
 11
819.0040038075949
 21
384.9999452661032
 31
0.0
  0
LINE
  5
113D9
330
11138
100
AcDbEntity
  8
寸法線
 62
     0
440
 16777216
370
    -2
100
AcDbLine
 10
895.0040038075949
 20
384.9999452661032
 30
0.0
 11
915.004003807595
 21
384.9999452661032
 31
0.0
  0
LINE
  5
113DA
330
11138
100
AcDbEntity
  8
寸法線
 62
     0
440
 16777216
370
    -2
100
AcDbLine
 10
859.0040038075949
 20
384.9999452661032
 30
0.0
 11
875.0040038075949
 21
384.9999452661032
 31
0.0
  0
INSERT
  5
113DB
330
11138
100
AcDbEntity
  8
寸法線
 62
     0
440
 16777216
370
    -2
100
AcDbBlockReference
  2
_OPEN
 10
859.0040038075949
 20
384.9999452661032
 30
0.0
 41
20.0
 42
20.0
 43
20.0
  0
INSERT
  5
113DC
330
11138
100
AcDbEntity
  8
寸法線
 62
     0
440
 16777216
370
    -2
100
AcDbBlockReference
  2
_OPEN
 10
875.0040038075949
 20
384.9999452661032
 30
0.0
 41
20.0
 42
20.0
 43
20.0
 50
180.0
  0
MTEXT
  5
113DD
330
11138
100
AcDbEntity
  8
寸法線
 62
     0
440
 16777216
100
AcDbMText
 10
867.0040038075949
 20
406.2499452661032
 30
0.0
 40
25.0
 41
0.0
 46
0.0
 71
     5
 72
     1
  1
\A1;16
 73
     1
 44
1.0
  0
POINT
  5
113DE
330
11138
100
AcDbEntity
  8
Defpoints
 62
     0
440
 16777216
100
AcDbPoint
 10
859.0040038075949
 20
564.9999270214939
 30
0.0
  0
POINT
  5
113DF
330
11138
100
AcDbEntity
  8
Defpoints
 62
     0
440
 16777216
100
AcDbPoint
 10
875.0040038075949
 20
564.9999270214939
 30
0.0
  0
POINT
  5
113E0
330
11138
100
AcDbEntity
  8
Defpoints
 62
     0
440
 16777216
100
AcDbPoint
 10
875.0040038075949
 20
384.9999452661032
 30
0.0
  0
ENDBLK
  5
1113A
330
11138
100
AcDbEntity
  8
0
100
AcDbBlockEnd
  0
BLOCK
  5
11147
330
11146
100
AcDbEntity
  8
0
100
AcDbBlockBegin
  2
*D37
 70
     1
 10
0.0
 20
0.0
 30
0.0
  3
*D37
  1

  0
LINE
  5
113E1
330
11146
100
AcDbEntity
  8
寸法線
 62
     0
440
 16777216
370
    -2
100
AcDbLine
 10
875.0040038075949
 20
556.2499452661032
 30
0.0
 11
875.0040038075949
 21
374.9999452661032
 31
0.0
  0
LINE
  5
113E2
330
11146
100
AcDbEntity
  8
寸法線
 62
     0
440
 16777216
370
    -2
100
AcDbLine
 10
1743.004003807595
 20
556.2499270214648
 30
0.0
 11
1743.004003807595
 21
374.9999452661032
 31
0.0
  0
LINE
  5
113E3
330
11146
100
AcDbEntity
  8
寸法線
 62
     0
440
 16777216
370
    -2
100
AcDbLine
 10
895.0040038075949
 20
384.9999452661032
 30
0.0
 11
1723.004003807595
 21
384.9999452661032
 31
0.0
  0
INSERT
  5
113E4
330
11146
100
AcDbEntity
  8
寸法線
 62
     0
440
 16777216
370
    -2
100
AcDbBlockReference
  2
_OPEN
 10
875.0040038075949
 20
384.9999452661032
 30
0.0
 41
20.0
 42
20.0
 43
20.0
 50
180.0
  0
INSERT
  5
113E5
330
11146
100
AcDbEntity
  8
寸法線
 62
     0
440
 16777216
370
    -2
100
AcDbBlockReference
  2
_OPEN
 10
1743.004003807595
 20
384.9999452661032
 30
0.0
 41
20.0
 42
20.0
 43
20.0
  0
MTEXT
  5
113E6
330
11146
100
AcDbEntity
  8
寸法線
 62
     0
440
 16777216
100
AcDbMText
 10
1309.004003807595
 20
406.2499452661032
 30
0.0
 40
25.0
 41
0.0
 46
0.0
 71
     5
 72
     1
  1
\A1;868
 73
     1
 44
1.0
  0
POINT
  5
113E7
330
11146
100
AcDbEntity
  8
Defpoints
 62
     0
440
 16777216
100
AcDbPoint
 10
875.0040038075949
 20
564.9999452661031
 30
0.0
  0
POINT
  5
113E8
330
11146
100
AcDbEntity
  8
Defpoints
 62
     0
440
 16777216
100
AcDbPoint
 10
1743.004003807595
 20
564.9999270214647
 30
0.0
  0
POINT
  5
113E9
330
11146
100
AcDbEntity
  8
Defpoints
 62
     0
440
 16777216
100
AcDbPoint
 10
1743.004003807595
 20
384.9999452661032
 30
0.0
  0
ENDBLK
  5
11148
330
11146
100
AcDbEntity
  8
0
100
AcDbBlockEnd
  0
BLOCK
  5
11153
330
11152
100
AcDbEntity
  8
0
100
AcDbBlockBegin
  2
*D38
 70
     1
 10
0.0
 20
0.0
 30
0.0
  3
*D38
  1

  0
LINE
  5
113EA
330
11152
100
AcDbEntity
  8
寸法線
 62
     0
440
 16777216
370
    -2
100
AcDbLine
 10
859.0040038075949
 20
556.2499452661032
 30
0.0
 11
859.0040038075949
 21
314.9999452661031
 31
0.0
  0
LINE
  5
113EB
330
11152
100
AcDbEntity
  8
寸法線
 62
     0
440
 16777216
370
    -2
100
AcDbLine
 10
1759.004003807595
 20
556.2499270214648
 30
0.0
 11
1759.004003807595
 21
314.9999452661031
 31
0.0
  0
LINE
  5
113EC
330
11152
100
AcDbEntity
  8
寸法線
 62
     0
440
 16777216
370
    -2
100
AcDbLine
 10
879.0040038075948
 20
324.9999452661032
 30
0.0
 11
1739.004003807595
 21
324.9999452661032
 31
0.0
  0
INSERT
  5
113ED
330
11152
100
AcDbEntity
  8
寸法線
 62
     0
440
 16777216
370
    -2
100
AcDbBlockReference
  2
_OPEN
 10
859.0040038075949
 20
324.9999452661032
 30
0.0
 41
20.0
 42
20.0
 43
20.0
 50
180.0
  0
INSERT
  5
113EE
330
11152
100
AcDbEntity
  8
寸法線
 62
     0
440
 16777216
370
    -2
100
AcDbBlockReference
  2
_OPEN
 10
1759.004003807595
 20
324.9999452661032
 30
0.0
 41
20.0
 42
20.0
 43
20.0
  0
MTEXT
  5
113EF
330
11152
100
AcDbEntity
  8
寸法線
 62
     0
440
 16777216
100
AcDbMText
 10
1309.004003807595
 20
346.2499452661031
 30
0.0
 40
25.0
 41
0.0
 46
0.0
 71
     5
 72
     1
  1
\A1;900
 73
     1
 44
1.0
  0
POINT
  5
113F0
330
11152
100
AcDbEntity
  8
Defpoints
 62
     0
440
 16777216
100
AcDbPoint
 10
859.0040038075949
 20
564.9999452661031
 30
0.0
  0
POINT
  5
113F1
330
11152
100
AcDbEntity
  8
Defpoints
 62
     0
440
 16777216
100
AcDbPoint
 10
1759.004003807595
 20
564.9999270214647
 30
0.0
  0
POINT
  5
113F2
330
11152
100
AcDbEntity
  8
Defpoints
 62
     0
440
 16777216
100
AcDbPoint
 10
1759.004003807595
 20
324.9999452661032
 30
0.0
  0
ENDBLK
  5
11154
330
11152
100
AcDbEntity
  8
0
100
AcDbBlockEnd
  0
BLOCK
  5
1115F
330
1115E
100
AcDbEntity
  8
0
100
AcDbBlockBegin
  2
*D39
 70
     1
 10
0.0
 20
0.0
 30
0.0
  3
*D39
  1

  0
LINE
  5
113F3
330
1115E
100
AcDbEntity
  8
寸法線
 62
     0
440
 16777216
370
    -2
100
AcDbLine
 10
875.0040038075949
 20
943.7499452661031
 30
0.0
 11
875.0040038075949
 21
1064.999941865164
 31
0.0
  0
LINE
  5
113F4
330
1115E
100
AcDbEntity
  8
寸法線
 62
     0
440
 16777216
370
    -2
100
AcDbLine
 10
1301.004003807595
 20
963.7499270214647
 30
0.0
 11
1301.004003807595
 21
1064.999941865164
 31
0.0
  0
LINE
  5
113F5
330
1115E
100
AcDbEntity
  8
寸法線
 62
     0
440
 16777216
370
    -2
100
AcDbLine
 10
895.0040038075949
 20
1054.999941865164
 30
0.0
 11
1281.004003807595
 21
1054.999941865164
 31
0.0
  0
INSERT
  5
113F6
330
1115E
100
AcDbEntity
  8
寸法線
 62
     0
440
 16777216
370
    -2
100
AcDbBlockReference
  2
_OPEN
 10
875.0040038075949
 20
1054.999941865164
 30
0.0
 41
20.0
 42
20.0
 43
20.0
 50
180.0
  0
INSERT
  5
113F7
330
1115E
100
AcDbEntity
  8
寸法線
 62
     0
440
 16777216
370
    -2
100
AcDbBlockReference
  2
_OPEN
 10
1301.004003807595
 20
1054.999941865164
 30
0.0
 41
20.0
 42
20.0
 43
20.0
  0
MTEXT
  5
113F8
330
1115E
100
AcDbEntity
  8
寸法線
 62
     0
440
 16777216
100
AcDbMText
 10
1088.004003807595
 20
1076.252402495085
 30
0.0
 40
25.0
 41
0.0
 46
0.0
 71
     5
 72
     1
  1
\A1;426
 73
     1
 44
1.0
  0
POINT
  5
113F9
330
1115E
100
AcDbEntity
  8
Defpoints
 62
     0
440
 16777216
100
AcDbPoint
 10
875.0040038075949
 20
934.9999452661032
 30
0.0
  0
POINT
  5
113FA
330
1115E
100
AcDbEntity
  8
Defpoints
 62
     0
440
 16777216
100
AcDbPoint
 10
1301.004003807595
 20
954.9999270214646
 30
0.0
  0
POINT
  5
113FB
330
1115E
100
AcDbEntity
  8
Defpoints
 62
     0
440
 16777216
100
AcDbPoint
 10
1301.004003807595
 20
1054.999941865164
 30
0.0
  0
ENDBLK
  5
11160
330
1115E
100
AcDbEntity
  8
0
100
AcDbBlockEnd
  0
BLOCK
  5
1116B
330
1116A
100
AcDbEntity
  8
0
100
AcDbBlockBegin
  2
*D40
 70
     1
 10
0.0
 20
0.0
 30
0.0
  3
*D40
  1

  0
LINE
  5
113FC
330
1116A
100
AcDbEntity
  8
寸法線
 62
     0
440
 16777216
370
    -2
100
AcDbLine
 10
1743.004004427561
 20
943.7499270214647
 30
0.0
 11
1743.004013018518
 21
1064.999897511009
 31
0.0
  0
LINE
  5
113FD
330
1116A
100
AcDbEntity
  8
寸法線
 62
     0
440
 16777216
370
    -2
100
AcDbLine
 10
1317.004004427561
 20
963.7499270214647
 30
0.0
 11
1317.004011601455
 21
1064.999927694505
 31
0.0
  0
LINE
  5
113FE
330
1116A
100
AcDbEntity
  8
寸法線
 62
     0
440
 16777216
370
    -2
100
AcDbLine
 10
1723.004012309986
 20
1054.999898928075
 30
0.0
 11
1337.004010892922
 21
1054.999926277439
 31
0.0
  0
INSERT
  5
113FF
330
1116A
100
AcDbEntity
  8
寸法線
 62
     0
440
 16777216
370
    -2
100
AcDbBlockReference
  2
_OPEN
 10
1743.004012309986
 20
1054.999897511009
 30
0.0
 41
20.0
 42
20.0
 43
20.0
 50
359.9999959404063
  0
INSERT
  5
11400
330
1116A
100
AcDbEntity
  8
寸法線
 62
     0
440
 16777216
370
    -2
100
AcDbBlockReference
  2
_OPEN
 10
1317.004010892922
 20
1054.999927694505
 30
0.0
 41
20.0
 42
20.0
 43
20.0
 50
179.9999959404063
  0
MTEXT
  5
11401
330
1116A
100
AcDbEntity
  8
寸法線
 62
     0
440
 16777216
100
AcDbMText
 10
1530.00401310726
 20
1076.252373232678
 30
0.0
 40
25.0
 41
0.0
 46
0.0
 71
     5
 72
     1
  1
\A1;426
 11
0.9999999999999975
 21
-0.0000000708532752
 31
0.0
 73
     1
 44
1.0
  0
POINT
  5
11402
330
1116A
100
AcDbEntity
  8
Defpoints
 62
     0
440
 16777216
100
AcDbPoint
 10
1743.004003807595
 20
934.9999270214647
 30
0.0
  0
POINT
  5
11403
330
1116A
100
AcDbEntity
  8
Defpoints
 62
     0
440
 16777216
100
AcDbPoint
 10
1317.004003807595
 20
954.9999270214646
 30
0.0
  0
POINT
  5
11404
330
1116A
100
AcDbEntity
  8
Defpoints
 62
     0
440
 16777216
100
AcDbPoint
 10
1317.004010892922
 20
1054.999927694505
 30
0.0
  0
ENDBLK
  5
1116C
330
1116A
100
AcDbEntity
  8
0
100
AcDbBlockEnd
  0
BLOCK
  5
11177
330
11176
100
AcDbEntity
  8
0
100
AcDbBlockBegin
  2
*D41
 70
     1
 10
0.0
 20
0.0
 30
0.0
  3
*D41
  1

  0
LINE
  5
11405
330
11176
100
AcDbEntity
  8
寸法線
 62
     0
440
 16777216
370
    -2
100
AcDbLine
 10
1743.004003807595
 20
556.2499270214939
 30
0.0
 11
1743.004003807595
 21
434.999945266103
 31
0.0
  0
LINE
  5
11406
330
11176
100
AcDbEntity
  8
寸法線
 62
     0
440
 16777216
370
    -2
100
AcDbLine
 10
1711.004003807595
 20
566.2499270214939
 30
0.0
 11
1711.004003807595
 21
434.999945266103
 31
0.0
  0
LINE
  5
11407
330
11176
100
AcDbEntity
  8
寸法線
 62
     0
440
 16777216
370
    -2
100
AcDbLine
 10
1763.004003807595
 20
444.9999452661031
 30
0.0
 11
1783.004003807595
 21
444.9999452661031
 31
0.0
  0
LINE
  5
11408
330
11176
100
AcDbEntity
  8
寸法線
 62
     0
440
 16777216
370
    -2
100
AcDbLine
 10
1691.004003807595
 20
444.9999452661031
 30
0.0
 11
1671.004003807595
 21
444.9999452661031
 31
0.0
  0
LINE
  5
11409
330
11176
100
AcDbEntity
  8
寸法線
 62
     0
440
 16777216
370
    -2
100
AcDbLine
 10
1743.004003807595
 20
444.9999452661031
 30
0.0
 11
1711.004003807595
 21
444.9999452661031
 31
0.0
  0
INSERT
  5
1140A
330
11176
100
AcDbEntity
  8
寸法線
 62
     0
440
 16777216
370
    -2
100
AcDbBlockReference
  2
_OPEN
 10
1743.004003807595
 20
444.9999452661031
 30
0.0
 41
20.0
 42
20.0
 43
20.0
 50
180.0
  0
INSERT
  5
1140B
330
11176
100
AcDbEntity
  8
寸法線
 62
     0
440
 16777216
370
    -2
100
AcDbBlockReference
  2
_OPEN
 10
1711.004003807595
 20
444.9999452661031
 30
0.0
 41
20.0
 42
20.0
 43
20.0
  0
MTEXT
  5
1140C
330
11176
100
AcDbEntity
  8
寸法線
 62
     0
440
 16777216
100
AcDbMText
 10
1727.004003807595
 20
466.2524058960244
 30
0.0
 40
25.0
 41
0.0
 46
0.0
 71
     5
 72
     1
  1
\A1;32
 73
     1
 44
1.0
  0
POINT
  5
1140D
330
11176
100
AcDbEntity
  8
Defpoints
 62
     0
440
 16777216
100
AcDbPoint
 10
1743.004003807595
 20
564.9999270214939
 30
0.0
  0
POINT
  5
1140E
330
11176
100
AcDbEntity
  8
Defpoints
 62
     0
440
 16777216
100
AcDbPoint
 10
1711.004003807595
 20
574.9999270214939
 30
0.0
  0
POINT
  5
1140F
330
11176
100
AcDbEntity
  8
Defpoints
 62
     0
440
 16777216
100
AcDbPoint
 10
1711.004003807595
 20
444.9999452661031
 30
0.0
  0
ENDBLK
  5
11178
330
11176
100
AcDbEntity
  8
0
100
AcDbBlockEnd
  0
BLOCK
  5
11185
330
11184
100
AcDbEntity
  8
0
100
AcDbBlockBegin
  2
*D42
 70
     1
 10
0.0
 20
0.0
 30
0.0
  3
*D42
  1

  0
LINE
  5
11410
330
11184
100
AcDbEntity
  8
寸法線
 62
     0
440
 16777216
370
    -2
100
AcDbLine
 10
1759.004003807595
 20
556.2499270214939
 30
0.0
 11
1759.004003807595
 21
374.9999452661032
 31
0.0
  0
LINE
  5
11411
330
11184
100
AcDbEntity
  8
寸法線
 62
     0
440
 16777216
370
    -2
100
AcDbLine
 10
1743.004003807595
 20
556.2499270214939
 30
0.0
 11
1743.004003807595
 21
374.9999452661032
 31
0.0
  0
LINE
  5
11412
330
11184
100
AcDbEntity
  8
寸法線
 62
     0
440
 16777216
370
    -2
100
AcDbLine
 10
1779.004003807595
 20
384.9999452661032
 30
0.0
 11
1799.004003807595
 21
384.9999452661032
 31
0.0
  0
LINE
  5
11413
330
11184
100
AcDbEntity
  8
寸法線
 62
     0
440
 16777216
370
    -2
100
AcDbLine
 10
1723.004003807595
 20
384.9999452661032
 30
0.0
 11
1703.004003807595
 21
384.9999452661032
 31
0.0
  0
LINE
  5
11414
330
11184
100
AcDbEntity
  8
寸法線
 62
     0
440
 16777216
370
    -2
100
AcDbLine
 10
1759.004003807595
 20
384.9999452661032
 30
0.0
 11
1743.004003807595
 21
384.9999452661032
 31
0.0
  0
INSERT
  5
11415
330
11184
100
AcDbEntity
  8
寸法線
 62
     0
440
 16777216
370
    -2
100
AcDbBlockReference
  2
_OPEN
 10
1759.004003807595
 20
384.9999452661032
 30
0.0
 41
20.0
 42
20.0
 43
20.0
 50
180.0
  0
INSERT
  5
11416
330
11184
100
AcDbEntity
  8
寸法線
 62
     0
440
 16777216
370
    -2
100
AcDbBlockReference
  2
_OPEN
 10
1743.004003807595
 20
384.9999452661032
 30
0.0
 41
20.0
 42
20.0
 43
20.0
  0
MTEXT
  5
11417
330
11184
100
AcDbEntity
  8
寸法線
 62
     0
440
 16777216
100
AcDbMText
 10
1751.004003807595
 20
406.2499452661032
 30
0.0
 40
25.0
 41
0.0
 46
0.0
 71
     5
 72
     1
  1
\A1;16
 73
     1
 44
1.0
  0
POINT
  5
11418
330
11184
100
AcDbEntity
  8
Defpoints
 62
     0
440
 16777216
100
AcDbPoint
 10
1759.004003807595
 20
564.9999270214939
 30
0.0
  0
POINT
  5
11419
330
11184
100
AcDbEntity
  8
Defpoints
 62
     0
440
 16777216
100
AcDbPoint
 10
1743.004003807595
 20
564.9999270214939
 30
0.0
  0
POINT
  5
1141A
330
11184
100
AcDbEntity
  8
Defpoints
 62
     0
440
 16777216
100
AcDbPoint
 10
1743.004003807595
 20
384.9999452661032
 30
0.0
  0
ENDBLK
  5
11186
330
11184
100
AcDbEntity
  8
0
100
AcDbBlockEnd
  0
BLOCK
  5
11584
330
11583
100
AcDbEntity
  8
0
100
AcDbBlockBegin
  2
*D43
 70
     1
 10
0.0
 20
0.0
 30
0.0
  3
*D43
  1

  0
LINE
  5
1165B
330
11583
100
AcDbEntity
  8
寸法線
 62
     0
440
 16777216
370
    -2
100
AcDbLine
 10
-8.750000000000001
 20
2970.000000000001
 30
0.0
 11
-522.3063098904484
 21
2970.000000000001
 31
0.0
  0
LINE
  5
1165C
330
11583
100
AcDbEntity
  8
寸法線
 62
     0
440
 16777216
370
    -2
100
AcDbLine
 10
473.749944169806
 20
2269.999995864484
 30
0.0
 11
-522.3063098904482
 21
2269.999995864484
 31
0.0
  0
LINE
  5
1165D
330
11583
100
AcDbEntity
  8
寸法線
 62
     0
440
 16777216
370
    -2
100
AcDbLine
 10
-512.3063098904484
 20
2950.000000000001
 30
0.0
 11
-512.3063098904482
 21
2289.999995864484
 31
0.0
  0
INSERT
  5
1165E
330
11583
100
AcDbEntity
  8
寸法線
 62
     0
440
 16777216
370
    -2
100
AcDbBlockReference
  2
_OPEN
 10
-512.3063098904484
 20
2970.000000000001
 30
0.0
 41
20.0
 42
20.0
 43
20.0
 50
90.0
  0
INSERT
  5
1165F
330
11583
100
AcDbEntity
  8
寸法線
 62
     0
440
 16777216
370
    -2
100
AcDbBlockReference
  2
_OPEN
 10
-512.3063098904482
 20
2269.999995864484
 30
0.0
 41
20.0
 42
20.0
 43
20.0
 50
270.0
  0
MTEXT
  5
11660
330
11583
100
AcDbEntity
  8
寸法線
 62
     0
440
 16777216
100
AcDbMText
 10
-533.5563098904475
 20
2619.999997932242
 30
0.0
 40
25.0
 41
0.0
 46
0.0
 71
     5
 72
     1
  1
\A1;700
 11
0.0000000000000001
 21
1.0
 31
0.0
 73
     1
 44
1.0
  0
POINT
  5
11661
330
11583
100
AcDbEntity
  8
Defpoints
 62
     0
440
 16777216
100
AcDbPoint
 10
0.0
 20
2970.000000000001
 30
0.0
  0
POINT
  5
11662
330
11583
100
AcDbEntity
  8
Defpoints
 62
     0
440
 16777216
100
AcDbPoint
 10
482.4999441698061
 20
2269.999995864484
 30
0.0
  0
POINT
  5
11663
330
11583
100
AcDbEntity
  8
Defpoints
 62
     0
440
 16777216
100
AcDbPoint
 10
-512.3063098904482
 20
2269.999995864484
 30
0.0
  0
ENDBLK
  5
11585
330
11583
100
AcDbEntity
  8
0
100
AcDbBlockEnd
  0
BLOCK
  5
11666
330
11665
100
AcDbEntity
  8
0
100
AcDbBlockBegin
  2
*D44
 70
     1
 10
0.0
 20
0.0
 30
0.0
  3
*D44
  1

  0
LINE
  5
11668
330
11665
100
AcDbEntity
  8
寸法線
 62
     0
440
 16777216
370
    -2
100
AcDbLine
 10
439.9999441698065
 20
2269.999995864484
 30
0.0
 11
-532.3063098904484
 21
2269.999995864484
 31
0.0
  0
LINE
  5
11669
330
11665
100
AcDbEntity
  8
寸法線
 62
     0
440
 16777216
370
    -2
100
AcDbLine
 10
473.7499441698061
 20
1658.580428543354
 30
0.0
 11
-532.3063098904483
 21
1658.580428543353
 31
0.0
  0
LINE
  5
1166A
330
11665
100
AcDbEntity
  8
寸法線
 62
     0
440
 16777216
370
    -2
100
AcDbLine
 10
-522.3063098904484
 20
2249.999995864484
 30
0.0
 11
-522.3063098904483
 21
1678.580428543354
 31
0.0
  0
INSERT
  5
1166B
330
11665
100
AcDbEntity
  8
寸法線
 62
     0
440
 16777216
370
    -2
100
AcDbBlockReference
  2
_OPEN
 10
-522.3063098904484
 20
2269.999995864484
 30
0.0
 41
20.0
 42
20.0
 43
20.0
 50
90.0
  0
INSERT
  5
1166C
330
11665
100
AcDbEntity
  8
寸法線
 62
     0
440
 16777216
370
    -2
100
AcDbBlockReference
  2
_OPEN
 10
-522.3063098904483
 20
1658.580428543353
 30
0.0
 41
20.0
 42
20.0
 43
20.0
 50
270.0
  0
MTEXT
  5
1166D
330
11665
100
AcDbEntity
  8
寸法線
 62
     0
440
 16777216
100
AcDbMText
 10
-543.558770520369
 20
1964.290212203918
 30
0.0
 40
25.0
 41
0.0
 46
0.0
 71
     5
 72
     1
  1
\A1;611.42
 11
0.0000000000000001
 21
1.0
 31
0.0
 73
     1
 44
1.0
  0
POINT
  5
1166E
330
11665
100
AcDbEntity
  8
Defpoints
 62
     0
440
 16777216
100
AcDbPoint
 10
448.7499441698066
 20
2269.999995864484
 30
0.0
  0
POINT
  5
1166F
330
11665
100
AcDbEntity
  8
Defpoints
 62
     0
440
 16777216
100
AcDbPoint
 10
482.4999441698062
 20
1658.580428543354
 30
0.0
  0
POINT
  5
11670
330
11665
100
AcDbEntity
  8
Defpoints
 62
     0
440
 16777216
100
AcDbPoint
 10
-522.3063098904483
 20
1658.580428543353
 30
0.0
  0
ENDBLK
  5
11667
330
11665
100
AcDbEntity
  8
0
100
AcDbBlockEnd
  0
ENDSEC
  0
SECTION
  2
ENTITIES
  0
TEXT
  5
9AEE
330
1F
100
AcDbEntity
  8
寸法線
100
AcDbText
 10
1939.1365
 20
881.8039999999998
 30
0.0
 40
25.0
  1

 11
1939.1365
 21
881.8039999999998
 31
0.0
100
AcDbText
 73
     1
  0
LWPOLYLINE
  5
107C0
330
1F
100
AcDbEntity
  8
Defpoints
100
AcDbPolyline
 90
        4
 70
     1
 43
0.0
 10
0.0
 20
0.0
 10
4200.0
 20
0.0
 10
4200.0
 20
2970.0
 10
0.0
 20
2970.0
  0
LWPOLYLINE
  5
107C1
330
1F
100
AcDbEntity
  8
Defpoints
100
AcDbPolyline
 90
        4
 70
     1
 43
0.0
 10
69.00399999999989
 20
69.10750000000007
 10
4130.995999999998
 20
69.10750000000007
 10
4130.995999999998
 20
2900.8925
 10
69.00399999999989
 20
2900.8925
  0
LINE
  5
107C2
330
1F
100
AcDbEntity
  8
中心線
100
AcDbLine
 10
577.4999639829156
 20
2269.999999999999
 30
0.0
 11
2527.499963982916
 21
2269.999999999999
 31
0.0
  0
LINE
  5
107C3
330
1F
100
AcDbEntity
  8
中心線
100
AcDbLine
 10
577.4999639829156
 20
1670.000034786938
 30
0.0
 11
2527.499963982916
 21
1670.000034786938
 31
0.0
  0
DIMENSION
  5
107C4
330
1F
100
AcDbEntity
  8
寸法線
100
AcDbDimension
280
     0
  2
*D2
 10
2002.499979077721
 20
1335.000034786938
 30
0.0
 11
1552.499979077721
 21
1356.250034786938
 31
0.0
 70
    32
 71
     5
 42
900.0
 73
     0
 74
     0
 75
     0
  3
STANDARD
100
AcDbAlignedDimension
 13
1102.499979077721
 23
1485.000073709393
 33
0.0
 14
2002.499979077721
 24
1485.000073709393
 34
0.0
100
AcDbRotatedDimension
  0
DIMENSION
  5
107C5
330
1F
100
AcDbEntity
  8
寸法線
100
AcDbDimension
280
     0
  2
*D3
 10
1102.499979077721
 20
1335.000034786938
 30
0.0
 11
852.4999616237632
 21
1356.250034786938
 31
0.0
 70
    32
 71
     5
 42
500.0000349079154
 73
     0
 74
     0
 75
     0
  3
STANDARD
100
AcDbAlignedDimension
 13
602.4999441698055
 23
1495.000034786938
 33
0.0
 14
1102.499979077721
 24
1485.000073709393
 34
0.0
100
AcDbRotatedDimension
  0
DIMENSION
  5
107C6
330
1F
100
AcDbEntity
  8
寸法線
100
AcDbDimension
280
     0
  2
*D4
 10
482.499944169806
 20
1495.000034786938
 30
0.0
 11
482.4999441698063
 21
1670.000034786938
 31
0.0
 70
   160
 71
     5
 42
350.0000372196735
 73
     0
 74
     0
 75
     0
  3
STANDARD
100
AcDbAlignedDimension
 13
602.4999441698055
 23
1845.000072006611
 33
0.0
 14
602.4999441698055
 24
1495.000034786938
 34
0.0
 50
90.0
100
AcDbRotatedDimension
  0
DIMENSION
  5
107C7
330
1F
100
AcDbEntity
  8
寸法線
100
AcDbDimension
280
     0
  2
*D5
 10
618.4999639829157
 20
2604.999942832917
 30
0.0
 11
610.4999540763606
 21
2604.999942832917
 31
0.0
 70
   160
 71
     5
 42
16.00001981311016
 73
     0
 74
     0
 75
     0
  3
STANDARD
100
AcDbAlignedDimension
 13
602.4999441698055
 23
2438.000037219678
 33
0.0
 14
618.4999639829157
 24
2444.999999999999
 34
0.0
100
AcDbRotatedDimension
  0
DIMENSION
  5
107C8
330
1F
100
AcDbEntity
  8
寸法線
100
AcDbDimension
280
     0
  2
*D6
 10
1102.499979077721
 20
2604.999942832917
 30
0.0
 11
860.499971530301
 21
2604.999942832917
 31
0.0
 70
   160
 71
     5
 42
484.0000150948053
 73
     0
 74
     0
 75
     0
  3
STANDARD
100
AcDbAlignedDimension
 13
618.4999639829157
 23
2444.999999999999
 33
0.0
 14
1102.499979077721
 24
2455.000057167085
 34
0.0
100
AcDbRotatedDimension
  0
DIMENSION
  5
107C9
330
1F
100
AcDbEntity
  8
寸法線
100
AcDbDimension
280
     0
  2
*D7
 10
482.4999441698059
 20
2094.999991728965
 30
0.0
 11
482.4999441698063
 21
2269.999999999999
 31
0.0
 70
   160
 71
     5
 42
350.0000082710349
 73
     0
 74
     0
 75
     0
  3
STANDARD
100
AcDbAlignedDimension
 13
618.4999639829157
 23
2444.999999999999
 33
0.0
 14
618.4999441698055
 24
2094.999991728964
 34
0.0
 50
90.0
100
AcDbRotatedDimension
  0
DIMENSION
  5
107CA
330
1F
100
AcDbEntity
  8
寸法線
100
AcDbDimension
280
     0
  2
*D8
 10
2486.499924356698
 20
2604.999942832917
 30
0.0
 11
2494.499934263253
 21
2604.999942832917
 31
0.0
 70
   160
 71
     5
 42
16.00001981310924
 73
     0
 74
     0
 75
     0
  3
STANDARD
100
AcDbAlignedDimension
 13
2502.499944169807
 23
2438.000037219678
 33
0.0
 14
2486.499924356698
 24
2444.999999999999
 34
0.0
 50
180.0
100
AcDbRotatedDimension
  0
DIMENSION
  5
107CB
330
1F
100
AcDbEntity
  8
寸法線
100
AcDbDimension
280
     0
  2
*D9
 10
2002.499909261894
 20
2604.999942832917
 30
0.0
 11
2244.499916809296
 21
2604.999942832917
 31
0.0
 70
   160
 71
     5
 42
484.0000150948042
 73
     0
 74
     0
 75
     0
  3
STANDARD
100
AcDbAlignedDimension
 13
2486.499924356698
 23
2444.999999999999
 33
0.0
 14
2002.499909261894
 24
2455.000057167085
 34
0.0
 50
180.0
100
AcDbRotatedDimension
  0
DIMENSION
  5
107CC
330
1F
100
AcDbEntity
  8
寸法線
100
AcDbDimension
280
     0
  2
*D10
 10
1102.499979077721
 20
2684.999942832917
 30
0.0
 11
852.4999616237629
 21
2684.999942832917
 31
0.0
 70
   160
  1
<>\XH型鋼（連結部）
 71
     5
 42
500.0000349079154
 73
     0
 74
     0
 75
     0
  3
STANDARD
100
AcDbAlignedDimension
 13
602.4999441698055
 23
2438.000037219678
 33
0.0
 14
1102.499979077721
 24
2455.000057167085
 34
0.0
100
AcDbRotatedDimension
  0
DIMENSION
  5
107CD
330
1F
100
AcDbEntity
  8
寸法線
100
AcDbDimension
280
     0
  2
*D11
 10
2502.499944169807
 20
2684.999942832917
 30
0.0
 11
2252.499926715851
 21
2684.999942832917
 31
0.0
 70
   160
  1
<>\XH型鋼（連結部）
 71
     5
 42
500.0000349079134
 73
     0
 74
     0
 75
     0
  3
STANDARD
100
AcDbAlignedDimension
 13
2002.499909261894
 23
2455.000057167085
 33
0.0
 14
2502.499944169807
 24
2438.000037219678
 34
0.0
100
AcDbRotatedDimension
  0
DIMENSION
  5
107CE
330
1F
100
AcDbEntity
  8
寸法線
100
AcDbDimension
280
     0
  2
*D12
 10
2622.499963982916
 20
2101.999962780327
 30
0.0
 11
2622.499963982916
 21
2269.999999999999
 31
0.0
 70
   160
 71
     5
 42
336.0000744393515
 73
     0
 74
     0
 75
     0
  3
STANDARD
100
AcDbAlignedDimension
 13
2502.499944169807
 23
2438.000037219678
 33
0.0
 14
2502.499944169807
 24
2101.999962780326
 34
0.0
 50
90.0
100
AcDbRotatedDimension
  0
DIMENSION
  5
107CF
330
1F
100
AcDbEntity
  8
寸法線
100
AcDbDimension
280
     0
  2
*D13
 10
2002.49997570422
 20
1335.000034786942
 30
0.0
 11
2252.499976179902
 21
1356.250029164446
 31
0.0
 70
    32
 71
     5
 42
499.9999999955393
 73
     0
 74
     0
 75
     0
  3
STANDARD
100
AcDbAlignedDimension
 13
2502.499979298156
 23
1495.00000375165
 33
0.0
 14
2002.499979077718
 24
1485.000036489719
 34
0.0
 50
179.9999987114188
100
AcDbRotatedDimension
  0
DIMENSION
  5
107D0
330
1F
100
AcDbEntity
  8
寸法線
100
AcDbDimension
280
     0
  2
*D14
 10
2002.499979077718
 20
2684.999942832917
 30
0.0
 11
1552.499979077718
 21
2684.999942832917
 31
0.0
 70
    32
  1
W=<>\X空洞金具
 71
     5
 42
899.9999999999998
 73
     0
 74
     0
 75
     0
  3
STANDARD
100
AcDbAlignedDimension
 13
1102.499979077718
 23
2454.999999999999
 33
0.0
 14
2002.499979077718
 24
2455.000001702781
 34
0.0
100
AcDbRotatedDimension
  0
DIMENSION
  5
107D1
330
1F
100
AcDbEntity
  8
寸法線
100
AcDbDimension
280
     0
  2
*D15
 10
2502.499944169807
 20
2764.999942832917
 30
0.0
 11
1552.499944169806
 21
2786.249942832917
 31
0.0
 70
    32
  1
スルーサーＢ L=<>
 71
     5
 42
1900.000000000002
 73
     0
 74
     0
 75
     0
  3
STANDARD
100
AcDbAlignedDimension
 13
602.4999441698055
 23
2438.000037219678
 33
0.0
 14
2502.499944169807
 24
2438.000037219678
 34
0.0
100
AcDbRotatedDimension
  0
LINE
  5
107D2
330
1F
100
AcDbEntity
  8
実線
100
AcDbLine
 10
1118.499979077718
 20
2085.00001994741
 30
0.0
 11
1118.499979077718
 21
2455.00001994741
 31
0.0
  0
LINE
  5
107D3
330
1F
100
AcDbEntity
  8
実線
100
AcDbLine
 10
1102.499979077718
 20
2455.000001702781
 30
0.0
 11
1118.499979077718
 21
2455.000001702781
 31
0.0
  0
LINE
  5
107D4
330
1F
100
AcDbEntity
  8
実線
100
AcDbLine
 10
1102.499979077718
 20
2085.000001702781
 30
0.0
 11
1118.499979077718
 21
2085.000001702781
 31
0.0
  0
LINE
  5
107D5
330
1F
100
AcDbEntity
  8
実線
100
AcDbLine
 10
1130.499979077718
 20
2145.500001702781
 30
0.0
 11
1150.499979077718
 21
2145.500001702781
 31
0.0
  0
LINE
  5
107D6
330
1F
100
AcDbEntity
  8
実線
100
AcDbLine
 10
1150.499979077718
 20
2145.500001702781
 30
0.0
 11
1150.499979077718
 21
2394.500001702781
 31
0.0
  0
LINE
  5
107D7
330
1F
100
AcDbEntity
  8
実線
100
AcDbLine
 10
1954.499979077718
 20
2145.500001702781
 30
0.0
 11
1954.499979077718
 21
2394.500001702781
 31
0.0
  0
LINE
  5
107D8
330
1F
100
AcDbEntity
  8
実線
100
AcDbLine
 10
1954.499979077718
 20
2145.500001702781
 30
0.0
 11
1974.499979077718
 21
2145.500001702781
 31
0.0
  0
LINE
  5
107D9
330
1F
100
AcDbEntity
  8
実線
100
AcDbLine
 10
1118.499979077718
 20
2157.50000170278
 30
0.0
 11
1130.499979077718
 21
2145.500001702781
 31
0.0
  0
LINE
  5
107DA
330
1F
100
AcDbEntity
  8
実線
100
AcDbLine
 10
1974.499979077718
 20
2145.500001702781
 30
0.0
 11
1986.499979077718
 21
2157.50000170278
 31
0.0
  0
LINE
  5
107DB
330
1F
100
AcDbEntity
  8
実線
100
AcDbLine
 10
1118.499979077718
 20
2150.000001702781
 30
0.0
 11
1125.499979077718
 21
2150.000001702781
 31
0.0
  0
LINE
  5
107DC
330
1F
100
AcDbEntity
  8
実線
100
AcDbLine
 10
1118.499979077718
 20
2095.00000170278
 30
0.0
 11
1544.500030870232
 21
2095.00000170278
 31
0.0
  0
LINE
  5
107DD
330
1F
100
AcDbEntity
  8
実線
100
AcDbLine
 10
1979.499979077718
 20
2150.000001702781
 30
0.0
 11
1986.499979077718
 21
2150.000001702781
 31
0.0
  0
LINE
  5
107DE
330
1F
100
AcDbEntity
  8
実線
100
AcDbLine
 10
1150.499979077718
 20
2150.000001702781
 30
0.0
 11
1544.500030870233
 21
2150.000001702781
 31
0.0
  0
LINE
  5
107DF
330
1F
100
AcDbEntity
  8
破線
100
AcDbLine
 10
1125.499979077718
 20
2150.000001702781
 30
0.0
 11
1150.499979077718
 21
2150.000001702781
 31
0.0
  0
LINE
  5
107E0
330
1F
100
AcDbEntity
  8
破線
100
AcDbLine
 10
1954.499979077718
 20
2150.000001702781
 30
0.0
 11
1979.499979077718
 21
2150.000001702781
 31
0.0
  0
LINE
  5
107E1
330
1F
100
AcDbEntity
  8
破線
100
AcDbLine
 10
1118.499979077718
 20
2107.00000170278
 30
0.0
 11
1150.499979077718
 21
2107.00000170278
 31
0.0
  0
LINE
  5
107E2
330
1F
100
AcDbEntity
  8
破線
100
AcDbLine
 10
1150.499979077718
 20
2107.00000170278
 30
0.0
 11
1150.499979077718
 21
2095.00000170278
 31
0.0
  0
LINE
  5
107E3
330
1F
100
AcDbEntity
  8
破線
100
AcDbLine
 10
1954.499979077718
 20
2390.000001702781
 30
0.0
 11
1979.499979077718
 21
2390.000001702781
 31
0.0
  0
LINE
  5
107E4
330
1F
100
AcDbEntity
  8
実線
100
AcDbLine
 10
1150.499979077718
 20
2390.000001702781
 30
0.0
 11
1544.500030870233
 21
2390.000001702781
 31
0.0
  0
LINE
  5
107E5
330
1F
100
AcDbEntity
  8
実線
100
AcDbLine
 10
1979.499979077718
 20
2390.000001702781
 30
0.0
 11
1986.499979077718
 21
2390.000001702781
 31
0.0
  0
LINE
  5
107E6
330
1F
100
AcDbEntity
  8
実線
100
AcDbLine
 10
1118.499979077718
 20
2445.000001702781
 30
0.0
 11
1544.500030870232
 21
2445.000001702781
 31
0.0
  0
LINE
  5
107E7
330
1F
100
AcDbEntity
  8
実線
100
AcDbLine
 10
1954.499979077718
 20
2394.500001702781
 30
0.0
 11
1974.499979077718
 21
2394.500001702781
 31
0.0
  0
LINE
  5
107E8
330
1F
100
AcDbEntity
  8
実線
100
AcDbLine
 10
1974.499979077718
 20
2394.500001702781
 30
0.0
 11
1986.499979077718
 21
2382.500001702781
 31
0.0
  0
LINE
  5
107E9
330
1F
100
AcDbEntity
  8
破線
100
AcDbLine
 10
1118.499979077718
 20
2433.000001702781
 30
0.0
 11
1150.499979077718
 21
2433.000001702781
 31
0.0
  0
LINE
  5
107EA
330
1F
100
AcDbEntity
  8
破線
100
AcDbLine
 10
1150.499979077718
 20
2433.000001702781
 30
0.0
 11
1150.499979077718
 21
2445.000001702781
 31
0.0
  0
LINE
  5
107EB
330
1F
100
AcDbEntity
  8
破線
100
AcDbLine
 10
1125.499979077718
 20
2390.000001702781
 30
0.0
 11
1150.499979077718
 21
2390.000001702781
 31
0.0
  0
LINE
  5
107EC
330
1F
100
AcDbEntity
  8
実線
100
AcDbLine
 10
1130.499979077718
 20
2394.500001702781
 30
0.0
 11
1150.499979077718
 21
2394.500001702781
 31
0.0
  0
LINE
  5
107ED
330
1F
100
AcDbEntity
  8
実線
100
AcDbLine
 10
1118.499979077718
 20
2382.500001702781
 30
0.0
 11
1130.499979077718
 21
2394.500001702781
 31
0.0
  0
LINE
  5
107EE
330
1F
100
AcDbEntity
  8
実線
100
AcDbLine
 10
1118.499979077718
 20
2390.000001702781
 30
0.0
 11
1125.499979077718
 21
2390.000001702781
 31
0.0
  0
LINE
  5
107EF
330
1F
100
AcDbEntity
  8
破線
100
AcDbLine
 10
1986.499979077718
 20
2107.00000170278
 30
0.0
 11
1954.499979077718
 21
2107.00000170278
 31
0.0
  0
LINE
  5
107F0
330
1F
100
AcDbEntity
  8
破線
100
AcDbLine
 10
1954.499979077718
 20
2107.00000170278
 30
0.0
 11
1954.499979077718
 21
2095.00000170278
 31
0.0
  0
LINE
  5
107F1
330
1F
100
AcDbEntity
  8
破線
100
AcDbLine
 10
1954.499979077718
 20
2433.000001702781
 30
0.0
 11
1954.499979077718
 21
2445.000001702781
 31
0.0
  0
LINE
  5
107F2
330
1F
100
AcDbEntity
  8
破線
100
AcDbLine
 10
1986.499979077718
 20
2433.000001702781
 30
0.0
 11
1954.499979077718
 21
2433.000001702781
 31
0.0
  0
LINE
  5
107F3
330
1F
100
AcDbEntity
  8
破線
100
AcDbLine
 10
1118.499979077718
 20
2276.000001702781
 30
0.0
 11
1150.499979077718
 21
2276.000001702781
 31
0.0
  0
LINE
  5
107F4
330
1F
100
AcDbEntity
  8
破線
100
AcDbLine
 10
1118.499979077718
 20
2264.00000170278
 30
0.0
 11
1150.499979077718
 21
2264.00000170278
 31
0.0
  0
LINE
  5
107F5
330
1F
100
AcDbEntity
  8
破線
100
AcDbLine
 10
1954.499979077718
 20
2276.000001702781
 30
0.0
 11
1986.499979077718
 21
2276.000001702781
 31
0.0
  0
LINE
  5
107F6
330
1F
100
AcDbEntity
  8
破線
100
AcDbLine
 10
1954.499979077718
 20
2264.00000170278
 30
0.0
 11
1986.499979077718
 21
2264.00000170278
 31
0.0
  0
LINE
  5
107F7
330
1F
100
AcDbEntity
  8
実線
100
AcDbLine
 10
1986.499979077718
 20
2085.00001994741
 30
0.0
 11
1986.499979077718
 21
2455.00001994741
 31
0.0
  0
LINE
  5
107F8
330
1F
100
AcDbEntity
  8
実線
100
AcDbLine
 10
2002.499979077718
 20
2085.00001994741
 30
0.0
 11
2002.499979077718
 21
2455.00001994741
 31
0.0
  0
LINE
  5
107F9
330
1F
100
AcDbEntity
  8
実線
100
AcDbLine
 10
1986.499979077718
 20
2455.000001702781
 30
0.0
 11
2002.499979077718
 21
2455.000001702781
 31
0.0
  0
LINE
  5
107FA
330
1F
100
AcDbEntity
  8
実線
100
AcDbLine
 10
1986.499979077718
 20
2085.000001702781
 30
0.0
 11
2002.499979077718
 21
2085.000001702781
 31
0.0
  0
LINE
  5
107FB
330
1F
100
AcDbEntity
  8
中心線
100
AcDbLine
 10
1092.499979077718
 20
2122.500019947407
 30
0.0
 11
2012.500082662745
 21
2122.500019947407
 31
0.0
  0
LINE
  5
107FC
330
1F
100
AcDbEntity
  8
中心線
100
AcDbLine
 10
1092.499979077718
 20
2417.50001994741
 30
0.0
 11
2012.500082662745
 21
2417.50001994741
 31
0.0
  0
LINE
  5
107FD
330
1F
100
AcDbEntity
  8
実線
100
AcDbLine
 10
1118.499979077718
 20
1485.000054734349
 30
0.0
 11
1118.499979077718
 21
1855.000054734349
 31
0.0
  0
LINE
  5
107FE
330
1F
100
AcDbEntity
  8
実線
100
AcDbLine
 10
1102.499979077718
 20
1855.00003648972
 30
0.0
 11
1118.499979077718
 21
1855.00003648972
 31
0.0
  0
LINE
  5
107FF
330
1F
100
AcDbEntity
  8
実線
100
AcDbLine
 10
1102.499979077718
 20
1485.00003648972
 30
0.0
 11
1118.499979077718
 21
1485.00003648972
 31
0.0
  0
LINE
  5
10800
330
1F
100
AcDbEntity
  8
実線
100
AcDbLine
 10
1130.499979077718
 20
1545.50003648972
 30
0.0
 11
1150.499979077718
 21
1545.50003648972
 31
0.0
  0
LINE
  5
10801
330
1F
100
AcDbEntity
  8
実線
100
AcDbLine
 10
1150.499979077718
 20
1545.50003648972
 30
0.0
 11
1150.499979077718
 21
1794.50003648972
 31
0.0
  0
LINE
  5
10802
330
1F
100
AcDbEntity
  8
実線
100
AcDbLine
 10
1954.499979077718
 20
1545.50003648972
 30
0.0
 11
1954.499979077718
 21
1794.50003648972
 31
0.0
  0
LINE
  5
10803
330
1F
100
AcDbEntity
  8
実線
100
AcDbLine
 10
1954.499979077718
 20
1545.50003648972
 30
0.0
 11
1974.499979077718
 21
1545.50003648972
 31
0.0
  0
LINE
  5
10804
330
1F
100
AcDbEntity
  8
実線
100
AcDbLine
 10
1118.499979077718
 20
1557.50003648972
 30
0.0
 11
1130.499979077718
 21
1545.50003648972
 31
0.0
  0
LINE
  5
10805
330
1F
100
AcDbEntity
  8
実線
100
AcDbLine
 10
1974.499979077718
 20
1545.50003648972
 30
0.0
 11
1986.499979077718
 21
1557.50003648972
 31
0.0
  0
LINE
  5
10806
330
1F
100
AcDbEntity
  8
実線
100
AcDbLine
 10
1118.499979077718
 20
1550.00003648972
 30
0.0
 11
1125.499979077718
 21
1550.00003648972
 31
0.0
  0
LINE
  5
10807
330
1F
100
AcDbEntity
  8
実線
100
AcDbLine
 10
1118.499979077718
 20
1495.00003648972
 30
0.0
 11
1544.500030870232
 21
1495.00003648972
 31
0.0
  0
LINE
  5
10808
330
1F
100
AcDbEntity
  8
実線
100
AcDbLine
 10
1979.499979077718
 20
1550.00003648972
 30
0.0
 11
1986.499979077718
 21
1550.00003648972
 31
0.0
  0
LINE
  5
10809
330
1F
100
AcDbEntity
  8
実線
100
AcDbLine
 10
1150.499979077718
 20
1550.00003648972
 30
0.0
 11
1544.500030870233
 21
1550.00003648972
 31
0.0
  0
LINE
  5
1080A
330
1F
100
AcDbEntity
  8
破線
100
AcDbLine
 10
1125.499979077718
 20
1550.00003648972
 30
0.0
 11
1150.499979077718
 21
1550.00003648972
 31
0.0
  0
LINE
  5
1080B
330
1F
100
AcDbEntity
  8
破線
100
AcDbLine
 10
1954.499979077718
 20
1550.00003648972
 30
0.0
 11
1979.499979077718
 21
1550.00003648972
 31
0.0
  0
LINE
  5
1080C
330
1F
100
AcDbEntity
  8
破線
100
AcDbLine
 10
1118.499979077718
 20
1507.00003648972
 30
0.0
 11
1150.499979077718
 21
1507.00003648972
 31
0.0
  0
LINE
  5
1080D
330
1F
100
AcDbEntity
  8
破線
100
AcDbLine
 10
1150.499979077718
 20
1507.00003648972
 30
0.0
 11
1150.499979077718
 21
1495.00003648972
 31
0.0
  0
LINE
  5
1080E
330
1F
100
AcDbEntity
  8
破線
100
AcDbLine
 10
1954.499979077718
 20
1790.00003648972
 30
0.0
 11
1979.499979077718
 21
1790.00003648972
 31
0.0
  0
LINE
  5
1080F
330
1F
100
AcDbEntity
  8
実線
100
AcDbLine
 10
1150.499979077718
 20
1790.00003648972
 30
0.0
 11
1544.500030870233
 21
1790.00003648972
 31
0.0
  0
LINE
  5
10810
330
1F
100
AcDbEntity
  8
実線
100
AcDbLine
 10
1979.499979077718
 20
1790.00003648972
 30
0.0
 11
1986.499979077718
 21
1790.00003648972
 31
0.0
  0
LINE
  5
10811
330
1F
100
AcDbEntity
  8
実線
100
AcDbLine
 10
1118.499979077718
 20
1845.00003648972
 30
0.0
 11
1544.500030870232
 21
1845.00003648972
 31
0.0
  0
LINE
  5
10812
330
1F
100
AcDbEntity
  8
実線
100
AcDbLine
 10
1954.499979077718
 20
1794.50003648972
 30
0.0
 11
1974.499979077718
 21
1794.50003648972
 31
0.0
  0
LINE
  5
10813
330
1F
100
AcDbEntity
  8
実線
100
AcDbLine
 10
1974.499979077718
 20
1794.50003648972
 30
0.0
 11
1986.499979077718
 21
1782.50003648972
 31
0.0
  0
LINE
  5
10814
330
1F
100
AcDbEntity
  8
破線
100
AcDbLine
 10
1118.499979077718
 20
1833.00003648972
 30
0.0
 11
1150.499979077718
 21
1833.00003648972
 31
0.0
  0
LINE
  5
10815
330
1F
100
AcDbEntity
  8
破線
100
AcDbLine
 10
1150.499979077718
 20
1833.00003648972
 30
0.0
 11
1150.499979077718
 21
1845.00003648972
 31
0.0
  0
LINE
  5
10816
330
1F
100
AcDbEntity
  8
破線
100
AcDbLine
 10
1125.499979077718
 20
1790.00003648972
 30
0.0
 11
1150.499979077718
 21
1790.00003648972
 31
0.0
  0
LINE
  5
10817
330
1F
100
AcDbEntity
  8
実線
100
AcDbLine
 10
1130.499979077718
 20
1794.50003648972
 30
0.0
 11
1150.499979077718
 21
1794.50003648972
 31
0.0
  0
LINE
  5
10818
330
1F
100
AcDbEntity
  8
実線
100
AcDbLine
 10
1118.499979077718
 20
1782.50003648972
 30
0.0
 11
1130.499979077718
 21
1794.50003648972
 31
0.0
  0
LINE
  5
10819
330
1F
100
AcDbEntity
  8
実線
100
AcDbLine
 10
1118.499979077718
 20
1790.00003648972
 30
0.0
 11
1125.499979077718
 21
1790.00003648972
 31
0.0
  0
LINE
  5
1081A
330
1F
100
AcDbEntity
  8
破線
100
AcDbLine
 10
1986.499979077718
 20
1507.00003648972
 30
0.0
 11
1954.499979077718
 21
1507.00003648972
 31
0.0
  0
LINE
  5
1081B
330
1F
100
AcDbEntity
  8
破線
100
AcDbLine
 10
1954.499979077718
 20
1507.00003648972
 30
0.0
 11
1954.499979077718
 21
1495.00003648972
 31
0.0
  0
LINE
  5
1081C
330
1F
100
AcDbEntity
  8
破線
100
AcDbLine
 10
1954.499979077718
 20
1833.00003648972
 30
0.0
 11
1954.499979077718
 21
1845.00003648972
 31
0.0
  0
LINE
  5
1081D
330
1F
100
AcDbEntity
  8
破線
100
AcDbLine
 10
1986.499979077718
 20
1833.00003648972
 30
0.0
 11
1954.499979077718
 21
1833.00003648972
 31
0.0
  0
LINE
  5
1081E
330
1F
100
AcDbEntity
  8
破線
100
AcDbLine
 10
1118.499979077718
 20
1676.00003648972
 30
0.0
 11
1150.499979077718
 21
1676.00003648972
 31
0.0
  0
LINE
  5
1081F
330
1F
100
AcDbEntity
  8
破線
100
AcDbLine
 10
1118.499979077718
 20
1664.00003648972
 30
0.0
 11
1150.499979077718
 21
1664.00003648972
 31
0.0
  0
LINE
  5
10820
330
1F
100
AcDbEntity
  8
破線
100
AcDbLine
 10
1954.499979077718
 20
1676.00003648972
 30
0.0
 11
1986.499979077718
 21
1676.00003648972
 31
0.0
  0
LINE
  5
10821
330
1F
100
AcDbEntity
  8
破線
100
AcDbLine
 10
1954.499979077718
 20
1664.00003648972
 30
0.0
 11
1986.499979077718
 21
1664.00003648972
 31
0.0
  0
LINE
  5
10822
330
1F
100
AcDbEntity
  8
実線
100
AcDbLine
 10
1986.499979077718
 20
1485.000054734349
 30
0.0
 11
1986.499979077718
 21
1855.000054734349
 31
0.0
  0
LINE
  5
10823
330
1F
100
AcDbEntity
  8
実線
100
AcDbLine
 10
1986.499979077718
 20
1855.00003648972
 30
0.0
 11
2002.499979077718
 21
1855.00003648972
 31
0.0
  0
LINE
  5
10824
330
1F
100
AcDbEntity
  8
実線
100
AcDbLine
 10
1986.499979077718
 20
1485.00003648972
 30
0.0
 11
2002.499979077718
 21
1485.00003648972
 31
0.0
  0
LINE
  5
10825
330
1F
100
AcDbEntity
  8
中心線
100
AcDbLine
 10
994.4999639829157
 20
1817.500054636947
 30
0.0
 11
2110.499979077718
 21
1817.500054636947
 31
0.0
  0
LINE
  5
10826
330
1F
100
AcDbEntity
  8
中心線
100
AcDbLine
 10
994.4999639829157
 20
1522.500014936929
 30
0.0
 11
2110.499979077718
 21
1522.500014936929
 31
0.0
  0
LINE
  5
10827
330
1F
100
AcDbEntity
  8
実線
100
AcDbLine
 10
3342.499963982916
 20
2444.999982593436
 30
0.0
 11
2992.499963982914
 21
2444.999982593436
 31
0.0
  0
LINE
  5
10828
330
1F
100
AcDbEntity
  8
実線
100
AcDbLine
 10
2992.499963982914
 20
2094.999982593436
 30
0.0
 11
2992.499963982914
 21
2444.999982593436
 31
0.0
  0
LINE
  5
10829
330
1F
100
AcDbEntity
  8
実線
100
AcDbLine
 10
3342.499963982916
 20
2094.999982593436
 30
0.0
 11
2992.499963982914
 21
2094.999982593436
 31
0.0
  0
LINE
  5
1082A
330
1F
100
AcDbEntity
  8
実線
100
AcDbLine
 10
3342.499963982916
 20
2094.999982593436
 30
0.0
 11
3342.499963982916
 21
2444.999982593436
 31
0.0
  0
LINE
  5
1082B
330
1F
100
AcDbEntity
  8
破線
100
AcDbLine
 10
3342.499963982916
 20
2425.999982593437
 30
0.0
 11
3186.499963982918
 21
2425.999982593437
 31
0.0
  0
LINE
  5
1082C
330
1F
100
AcDbEntity
  8
破線
100
AcDbLine
 10
3173.499963982915
 20
2126.999942967218
 30
0.0
 11
3173.499963982915
 21
2412.999982593436
 31
0.0
  0
LINE
  5
1082D
330
1F
100
AcDbEntity
  8
中心線
100
AcDbLine
 10
3167.499963982916
 20
2069.999962780328
 30
0.0
 11
3167.499963982916
 21
2469.999962780329
 31
0.0
  0
LINE
  5
1082E
330
1F
100
AcDbEntity
  8
実線
100
AcDbLine
 10
3342.499963982916
 20
2437.999982593436
 30
0.0
 11
2992.499963982914
 21
2437.999982593436
 31
0.0
  0
LINE
  5
1082F
330
1F
100
AcDbEntity
  8
実線
100
AcDbLine
 10
3342.499963982916
 20
2101.999982593437
 30
0.0
 11
2992.499963982914
 21
2101.999982593437
 31
0.0
  0
DIMENSION
  5
10830
330
1F
100
AcDbEntity
  8
寸法線
100
AcDbDimension
280
     0
  2
*D16
 10
2992.499963982914
 20
1974.999942967219
 30
0.0
 11
3167.499963982916
 21
1974.999942967219
 31
0.0
 70
   160
 71
     5
 42
350.0000000000023
 73
     0
 74
     0
 75
     0
  3
STANDARD
100
AcDbAlignedDimension
 13
3342.499963982916
 23
2094.999942967219
 33
0.0
 14
2992.499963982914
 24
2094.999942967219
 34
0.0
100
AcDbRotatedDimension
  0
DIMENSION
  5
10831
330
1F
100
AcDbEntity
  8
寸法線
100
AcDbDimension
280
     0
  2
*D17
 10
2872.499963982914
 20
2094.999982593437
 30
0.0
 11
2872.499963982914
 21
2269.999962780327
 31
0.0
 70
   160
 71
     5
 42
350.0
 73
     0
 74
     0
 75
     0
  3
STANDARD
100
AcDbAlignedDimension
 13
2992.499963982914
 23
2444.999982593436
 33
0.0
 14
2992.499963982914
 24
2094.999982593436
 34
0.0
 50
270.0
100
AcDbRotatedDimension
  0
DIMENSION
  5
10832
330
1F
100
AcDbEntity
  8
寸法線
100
AcDbDimension
280
     0
  2
*D18
 10
2622.50003379874
 20
2101.999977559131
 30
0.0
 11
2622.50003379874
 21
2270.000014778806
 31
0.0
 70
   160
 71
     5
 42
336.0000744393528
 73
     0
 74
     0
 75
     0
  3
STANDARD
100
AcDbAlignedDimension
 13
2502.500013985631
 23
2438.000051998483
 33
0.0
 14
2502.500013985631
 24
2101.99997755913
 34
0.0
 50
90.0
100
AcDbRotatedDimension
  0
LINE
  5
10833
330
1F
100
AcDbEntity
  8
中心線
100
AcDbLine
 10
3367.499963982916
 20
2269.999962780327
 30
0.0
 11
2967.499963982917
 21
2269.999962780327
 31
0.0
  0
ARC
  5
10834
330
1F
100
AcDbEntity
  8
破線
100
AcDbCircle
 10
3186.499963982918
 20
2412.999982593436
 30
0.0
 40
13.0
100
AcDbArc
 50
90.0
 51
180.0
  0
LINE
  5
10835
330
1F
100
AcDbEntity
  8
破線
100
AcDbLine
 10
3342.499963982916
 20
2113.999942967218
 30
0.0
 11
3186.499963982918
 21
2113.999942967218
 31
0.0
  0
ARC
  5
10836
330
1F
100
AcDbEntity
  8
破線
100
AcDbCircle
 10
3186.499963982918
 20
2126.999942967218
 30
0.0
 40
13.0
100
AcDbArc
 50
180.0
 51
270.0
  0
LINE
  5
10837
330
1F
100
AcDbEntity
  8
破線
100
AcDbLine
 10
2992.499963982917
 20
2425.999982593437
 30
0.0
 11
3148.499963982915
 21
2425.999982593437
 31
0.0
  0
LINE
  5
10838
330
1F
100
AcDbEntity
  8
破線
100
AcDbLine
 10
3161.499963982916
 20
2126.999942967218
 30
0.0
 11
3161.499963982916
 21
2412.999982593436
 31
0.0
  0
ARC
  5
10839
330
1F
100
AcDbEntity
  8
破線
100
AcDbCircle
 10
3148.499963982915
 20
2412.999982593436
 30
0.0
 40
13.0
100
AcDbArc
 50
0.0
 51
90.0
  0
LINE
  5
1083A
330
1F
100
AcDbEntity
  8
破線
100
AcDbLine
 10
2992.499963982917
 20
2113.999942967219
 30
0.0
 11
3148.499963982915
 21
2113.999942967219
 31
0.0
  0
ARC
  5
1083B
330
1F
100
AcDbEntity
  8
破線
100
AcDbCircle
 10
3148.499963982915
 20
2126.999942967219
 30
0.0
 40
13.0
100
AcDbArc
 50
270.0
 51
0.0
  0
LINE
  5
1083C
330
1F
100
AcDbEntity
  8
破線
100
AcDbLine
 10
3323.500001202592
 20
2275.999962780327
 30
0.0
 11
3173.499963982915
 21
2275.999962780327
 31
0.0
  0
LINE
  5
1083D
330
1F
100
AcDbEntity
  8
破線
100
AcDbLine
 10
3323.500001202592
 20
2263.999962780328
 30
0.0
 11
3173.499963982915
 21
2263.999962780328
 31
0.0
  0
LINE
  5
1083E
330
1F
100
AcDbEntity
  8
破線
100
AcDbLine
 10
3323.500001202592
 20
2263.999962780328
 30
0.0
 11
3323.500001202592
 21
2275.999962780327
 31
0.0
  0
LINE
  5
1083F
330
1F
100
AcDbEntity
  8
破線
100
AcDbLine
 10
3011.499926763242
 20
2275.999962780327
 30
0.0
 11
3161.499963982916
 21
2275.999962780327
 31
0.0
  0
LINE
  5
10840
330
1F
100
AcDbEntity
  8
破線
100
AcDbLine
 10
3011.499926763242
 20
2263.999962780328
 30
0.0
 11
3161.499963982916
 21
2263.999962780328
 31
0.0
  0
LINE
  5
10841
330
1F
100
AcDbEntity
  8
破線
100
AcDbLine
 10
3011.499926763242
 20
2263.999962780328
 30
0.0
 11
3011.499926763242
 21
2275.999962780327
 31
0.0
  0
LINE
  5
10842
330
1F
100
AcDbEntity
  8
中心線
100
AcDbLine
 10
3067.49994537308
 20
2159.999981390165
 30
0.0
 11
3067.49994537308
 21
2229.999944170491
 31
0.0
  0
CIRCLE
  5
10843
330
1F
100
AcDbEntity
  8
実線
100
AcDbCircle
 10
3067.49994537308
 20
2194.999962780328
 30
0.0
 40
12.5
  0
LINE
  5
10844
330
1F
100
AcDbEntity
  8
中心線
100
AcDbLine
 10
3102.499926763242
 20
2194.999962780328
 30
0.0
 11
3032.499963982916
 21
2194.999962780328
 31
0.0
  0
LINE
  5
10845
330
1F
100
AcDbEntity
  8
中心線
100
AcDbLine
 10
3067.49994537308
 20
2379.999944170491
 30
0.0
 11
3067.49994537308
 21
2309.999981390168
 31
0.0
  0
CIRCLE
  5
10846
330
1F
100
AcDbEntity
  8
実線
100
AcDbCircle
 10
3067.49994537308
 20
2344.999962780328
 30
0.0
 40
12.5
  0
LINE
  5
10847
330
1F
100
AcDbEntity
  8
中心線
100
AcDbLine
 10
3102.499926763242
 20
2344.999962780328
 30
0.0
 11
3032.499963982916
 21
2344.999962780328
 31
0.0
  0
LINE
  5
10848
330
1F
100
AcDbEntity
  8
中心線
100
AcDbLine
 10
3267.499982592754
 20
2159.999981390165
 30
0.0
 11
3267.499982592754
 21
2229.999944170491
 31
0.0
  0
CIRCLE
  5
10849
330
1F
100
AcDbEntity
  8
実線
100
AcDbCircle
 10
3267.499982592754
 20
2194.999962780328
 30
0.0
 40
12.5
  0
LINE
  5
1084A
330
1F
100
AcDbEntity
  8
中心線
100
AcDbLine
 10
3232.50000120259
 20
2194.999962780328
 30
0.0
 11
3302.499963982916
 21
2194.999962780328
 31
0.0
  0
LINE
  5
1084B
330
1F
100
AcDbEntity
  8
中心線
100
AcDbLine
 10
3267.499982592754
 20
2379.999944170491
 30
0.0
 11
3267.499982592754
 21
2309.999981390168
 31
0.0
  0
CIRCLE
  5
1084C
330
1F
100
AcDbEntity
  8
実線
100
AcDbCircle
 10
3267.499982592754
 20
2344.999962780328
 30
0.0
 40
12.5
  0
LINE
  5
1084D
330
1F
100
AcDbEntity
  8
中心線
100
AcDbLine
 10
3232.50000120259
 20
2344.999962780328
 30
0.0
 11
3302.499963982916
 21
2344.999962780328
 31
0.0
  0
LEADER
  5
1084E
330
1F
100
AcDbEntity
  8
寸法線
100
AcDbLeader
  3
STANDARD
 76
     3
 10
3075.243663560377
 20
2354.812446086589
 30
0.0
 10
3209.550543247394
 20
2524.999942967215
 30
0.0
 10
3402.12883400766
 20
2524.999942967215
 30
0.0
211
1.0
221
0.0000000000000002
231
0.0
1001
ACAD
1000
DSTYLE
1002
{
1070
   147
1040
0.875
1070
    77
1070
     0
1002
}
  0
TEXT
  5
1084F
330
1F
100
AcDbEntity
  8
寸法線
100
AcDbText
 10
3218.300543247393
 20
2533.749942967215
 30
0.0
 40
25.0
  1
主材連結用孔
 72
     2
 11
3391.633876580727
 21
2558.749942967215
 31
0.0
100
AcDbText
 73
     3
  0
LINE
  5
10850
330
1F
100
AcDbEntity
  8
実線
100
AcDbLine
 10
602.4999441697982
 20
2437.99998005259
 30
0.0
 11
602.4999441697982
 21
2101.99998005259
 31
0.0
  0
LINE
  5
10851
330
1F
100
AcDbEntity
  8
実線
100
AcDbLine
 10
618.4999639829002
 20
2444.999942832916
 30
0.0
 11
618.4999441697982
 21
2094.99998005259
 31
0.0
  0
LINE
  5
10852
330
1F
100
AcDbEntity
  8
実線
100
AcDbLine
 10
618.4999639829002
 20
2444.999942832916
 30
0.0
 11
1102.4999639829
 21
2444.999942832916
 31
0.0
  0
LINE
  5
10853
330
1F
100
AcDbEntity
  8
実線
100
AcDbLine
 10
618.4999629073391
 20
2425.999942832917
 30
0.0
 11
1102.4999639829
 21
2425.999942832917
 31
0.0
  0
LINE
  5
10854
330
1F
100
AcDbEntity
  8
実線
100
AcDbLine
 10
1002.499944169798
 20
2425.999942832917
 30
0.0
 11
1002.499944169798
 21
2405.99998005259
 31
0.0
  0
LINE
  5
10855
330
1F
100
AcDbEntity
  8
実線
100
AcDbLine
 10
1072.4999639829
 20
2375.999942832917
 30
0.0
 11
1102.4999639829
 21
2375.999942832917
 31
0.0
  0
LINE
  5
10856
330
1F
100
AcDbEntity
  8
実線
100
AcDbLine
 10
1002.499944169798
 20
2405.99998005259
 30
0.0
 11
1072.4999639829
 21
2375.999942832917
 31
0.0
  0
LINE
  5
10857
330
1F
100
AcDbEntity
  8
実線
100
AcDbLine
 10
602.4999441697982
 20
2437.99998005259
 30
0.0
 11
618.4999441697982
 21
2437.99998005259
 31
0.0
  0
LINE
  5
10858
330
1F
100
AcDbEntity
  8
仮想線
100
AcDbLine
 10
618.4999441697982
 20
2444.999951103956
 30
0.0
 11
611.4999731184324
 21
2437.99998005259
 31
0.0
  0
LINE
  5
10859
330
1F
100
AcDbEntity
  8
実線
100
AcDbLine
 10
618.4999441697982
 20
2275.999942832917
 30
0.0
 11
798.4999639829002
 21
2275.999942832917
 31
0.0
  0
LINE
  5
1085A
330
1F
100
AcDbEntity
  8
実線
100
AcDbLine
 10
618.4999441697982
 20
2263.999942832916
 30
0.0
 11
798.4999639829002
 21
2263.999942832916
 31
0.0
  0
LINE
  5
1085B
330
1F
100
AcDbEntity
  8
実線
100
AcDbLine
 10
1102.499979077718
 20
2084.999999999999
 30
0.0
 11
1102.499979077718
 21
2455.00001994741
 31
0.0
  0
LINE
  5
1085C
330
1F
100
AcDbEntity
  8
実線
100
AcDbLine
 10
1092.499944169798
 20
2425.999942832917
 30
0.0
 11
1102.4999639829
 21
2415.999942832917
 31
0.0
  0
LINE
  5
1085D
330
1F
100
AcDbEntity
  8
仮想線
100
AcDbLine
 10
1095.499950113731
 20
2425.999942832917
 30
0.0
 11
1102.4999639829
 21
2418.999942832917
 31
0.0
  0
LINE
  5
1085E
330
1F
100
AcDbEntity
  8
実線
100
AcDbLine
 10
618.4999441697982
 20
2094.999932407961
 30
0.0
 11
1102.4999639829
 21
2094.999942832916
 31
0.0
  0
LINE
  5
1085F
330
1F
100
AcDbEntity
  8
実線
100
AcDbLine
 10
618.4999452453593
 20
2113.999942832916
 30
0.0
 11
1102.4999639829
 21
2113.999942832916
 31
0.0
  0
LINE
  5
10860
330
1F
100
AcDbEntity
  8
実線
100
AcDbLine
 10
1002.499944169798
 20
2113.999942832916
 30
0.0
 11
1002.499944169798
 21
2133.999905613239
 31
0.0
  0
LINE
  5
10861
330
1F
100
AcDbEntity
  8
実線
100
AcDbLine
 10
1072.4999639829
 20
2163.999942832917
 30
0.0
 11
1102.4999639829
 21
2163.999942832917
 31
0.0
  0
LINE
  5
10862
330
1F
100
AcDbEntity
  8
実線
100
AcDbLine
 10
1002.499944169798
 20
2133.999905613239
 30
0.0
 11
1072.4999639829
 21
2163.999942832917
 31
0.0
  0
LINE
  5
10863
330
1F
100
AcDbEntity
  8
実線
100
AcDbLine
 10
602.4999441697982
 20
2101.999905613239
 30
0.0
 11
618.4999441697982
 21
2101.999905613239
 31
0.0
  0
LINE
  5
10864
330
1F
100
AcDbEntity
  8
仮想線
100
AcDbLine
 10
618.4999441697982
 20
2094.999934561877
 30
0.0
 11
611.4999731184324
 21
2101.999905613239
 31
0.0
  0
LINE
  5
10865
330
1F
100
AcDbEntity
  8
実線
100
AcDbLine
 10
1092.499944169798
 20
2113.999942832916
 30
0.0
 11
1102.4999639829
 21
2123.999942832917
 31
0.0
  0
LINE
  5
10866
330
1F
100
AcDbEntity
  8
仮想線
100
AcDbLine
 10
1095.499950113731
 20
2113.999942832916
 30
0.0
 11
1102.4999639829
 21
2120.999942832917
 31
0.0
  0
LINE
  5
10867
330
1F
100
AcDbEntity
  8
仮想線
100
AcDbLine
 10
1102.499974549278
 20
2451.999970078635
 30
0.0
 11
1095.499947303553
 21
2444.999942832916
 31
0.0
  0
LINE
  5
10868
330
1F
100
AcDbEntity
  8
仮想線
100
AcDbLine
 10
1102.499974549278
 20
2087.999993432105
 30
0.0
 11
1095.499947303553
 21
2095.000020677828
 31
0.0
  0
LINE
  5
10869
330
1F
100
AcDbEntity
  8
実線
100
AcDbLine
 10
798.4999639829002
 20
2275.999942832917
 30
0.0
 11
798.4999639829002
 21
2263.999942832916
 31
0.0
  0
LINE
  5
1086A
330
1F
100
AcDbEntity
  8
中心線
100
AcDbLine
 10
652.4998795451137
 20
2454.999942832917
 30
0.0
 11
652.4998795451137
 21
2415.999942832917
 31
0.0
  0
LINE
  5
1086B
330
1F
100
AcDbEntity
  8
中心線
100
AcDbLine
 10
652.4998795451137
 20
2085.000057167081
 30
0.0
 11
652.4998795451137
 21
2124.000057167082
 31
0.0
  0
LINE
  5
1086C
330
1F
100
AcDbEntity
  8
中心線
100
AcDbLine
 10
702.4998795451137
 20
2454.999942832917
 30
0.0
 11
702.4998795451137
 21
2415.999942832917
 31
0.0
  0
LINE
  5
1086D
330
1F
100
AcDbEntity
  8
中心線
100
AcDbLine
 10
702.4998795451137
 20
2085.000057167081
 30
0.0
 11
702.4998795451137
 21
2124.000057167082
 31
0.0
  0
LINE
  5
1086E
330
1F
100
AcDbEntity
  8
中心線
100
AcDbLine
 10
752.4998795451137
 20
2454.999942832917
 30
0.0
 11
752.4998795451137
 21
2415.999942832917
 31
0.0
  0
LINE
  5
1086F
330
1F
100
AcDbEntity
  8
中心線
100
AcDbLine
 10
752.4998795451137
 20
2085.000057167081
 30
0.0
 11
752.4998795451137
 21
2124.000057167082
 31
0.0
  0
LINE
  5
10870
330
1F
100
AcDbEntity
  8
中心線
100
AcDbLine
 10
802.4998795451136
 20
2454.999942832917
 30
0.0
 11
802.4998795451136
 21
2415.999942832917
 31
0.0
  0
LINE
  5
10871
330
1F
100
AcDbEntity
  8
中心線
100
AcDbLine
 10
802.4998795451136
 20
2085.000057167081
 30
0.0
 11
802.4998795451136
 21
2124.000057167082
 31
0.0
  0
LINE
  5
10872
330
1F
100
AcDbEntity
  8
中心線
100
AcDbLine
 10
852.4998795451136
 20
2454.999942832917
 30
0.0
 11
852.4998795451136
 21
2415.999942832917
 31
0.0
  0
LINE
  5
10873
330
1F
100
AcDbEntity
  8
中心線
100
AcDbLine
 10
852.4998795451136
 20
2085.000057167081
 30
0.0
 11
852.4998795451136
 21
2124.000057167082
 31
0.0
  0
LINE
  5
10874
330
1F
100
AcDbEntity
  8
中心線
100
AcDbLine
 10
592.4999937025677
 20
2344.999904633513
 30
0.0
 11
628.500013515677
 21
2344.999904633513
 31
0.0
  0
LINE
  5
10875
330
1F
100
AcDbEntity
  8
中心線
100
AcDbLine
 10
592.4999937025677
 20
2194.999978357001
 30
0.0
 11
628.500013515677
 21
2194.999978357001
 31
0.0
  0
TEXT
  5
10876
330
1F
100
AcDbEntity
  8
寸法線
100
AcDbText
 10
2083.842392959743
 20
2179.823272949963
 30
0.0
 40
25.0
  1
ﾘﾌﾞﾌﾟﾚｰﾄ①
 72
     2
 11
2227.175726293076
 21
2179.823272949963
 31
0.0
100
AcDbText
 73
     1
  0
LEADER
  5
10877
330
1F
100
AcDbEntity
  8
寸法線
100
AcDbLeader
  3
STANDARD
 76
     3
 10
2046.118543992136
 20
2123.999962780327
 30
0.0
 10
2081.118543992134
 20
2173.999962780327
 30
0.0
 10
2234.209088526852
 20
2173.999962780327
 30
0.0
211
-1.0
221
0.0
231
0.0
1001
ACAD
1000
DSTYLE
1002
{
1070
   147
1040
0.875
1070
    77
1070
     0
1002
}
  0
TEXT
  5
10878
330
1F
100
AcDbEntity
  8
寸法線
100
AcDbText
 10
2299.625299390917
 20
2172.429219751357
 30
0.0
 40
25.0
  1
ｴﾝﾄﾞﾌﾟﾚｰﾄ
 11
2299.625299390917
 21
2172.429219751357
 31
0.0
100
AcDbText
 73
     1
  0
LINE
  5
1087B
330
1F
100
AcDbEntity
  8
実線
100
AcDbLine
 10
2502.500013985639
 20
2438.000000000001
 30
0.0
 11
2502.500013985639
 21
2102.000000000001
 31
0.0
  0
LINE
  5
1087C
330
1F
100
AcDbEntity
  8
実線
100
AcDbLine
 10
2486.499994172536
 20
2444.999962780328
 30
0.0
 11
2486.500013985639
 21
2095.000000000001
 31
0.0
  0
LINE
  5
1087D
330
1F
100
AcDbEntity
  8
実線
100
AcDbLine
 10
2486.499994172536
 20
2444.999962780328
 30
0.0
 11
2002.499994172536
 21
2444.999962780328
 31
0.0
  0
LINE
  5
1087E
330
1F
100
AcDbEntity
  8
実線
100
AcDbLine
 10
2486.499995248097
 20
2425.999962780327
 30
0.0
 11
2002.499994172536
 21
2425.999962780327
 31
0.0
  0
LINE
  5
1087F
330
1F
100
AcDbEntity
  8
実線
100
AcDbLine
 10
2102.500013985638
 20
2425.999962780327
 30
0.0
 11
2102.500013985638
 21
2406.000000000001
 31
0.0
  0
LINE
  5
10880
330
1F
100
AcDbEntity
  8
実線
100
AcDbLine
 10
2032.499994172536
 20
2375.999962780327
 30
0.0
 11
2002.499994172536
 21
2375.999962780327
 31
0.0
  0
LINE
  5
10881
330
1F
100
AcDbEntity
  8
実線
100
AcDbLine
 10
2102.500013985638
 20
2406.000000000001
 30
0.0
 11
2032.499994172536
 21
2375.999962780327
 31
0.0
  0
LINE
  5
10882
330
1F
100
AcDbEntity
  8
実線
100
AcDbLine
 10
2502.500013985639
 20
2438.000000000001
 30
0.0
 11
2486.500013985639
 21
2438.000000000001
 31
0.0
  0
LINE
  5
10883
330
1F
100
AcDbEntity
  8
仮想線
100
AcDbLine
 10
2486.500013985639
 20
2444.999971051367
 30
0.0
 11
2493.499985037004
 21
2438.000000000001
 31
0.0
  0
LINE
  5
10884
330
1F
100
AcDbEntity
  8
実線
100
AcDbLine
 10
2486.500013985639
 20
2275.999962780327
 30
0.0
 11
2306.499994172536
 21
2275.999962780327
 31
0.0
  0
LINE
  5
10885
330
1F
100
AcDbEntity
  8
実線
100
AcDbLine
 10
2486.500013985639
 20
2263.999962780328
 30
0.0
 11
2306.499994172536
 21
2263.999962780328
 31
0.0
  0
LINE
  5
10886
330
1F
100
AcDbEntity
  8
実線
100
AcDbLine
 10
2012.500013985638
 20
2425.999962780327
 30
0.0
 11
2002.499994172536
 21
2415.999962780328
 31
0.0
  0
LINE
  5
10887
330
1F
100
AcDbEntity
  8
仮想線
100
AcDbLine
 10
2009.500008041705
 20
2425.999962780327
 30
0.0
 11
2002.499994172536
 21
2418.999962780328
 31
0.0
  0
LINE
  5
10888
330
1F
100
AcDbEntity
  8
実線
100
AcDbLine
 10
2486.500013985639
 20
2094.999952355372
 30
0.0
 11
2002.499994172536
 21
2094.999962780327
 31
0.0
  0
LINE
  5
10889
330
1F
100
AcDbEntity
  8
実線
100
AcDbLine
 10
2486.500012910077
 20
2113.999962780328
 30
0.0
 11
2002.499994172536
 21
2113.999962780328
 31
0.0
  0
LINE
  5
1088A
330
1F
100
AcDbEntity
  8
実線
100
AcDbLine
 10
2102.500013985638
 20
2113.999962780328
 30
0.0
 11
2102.500013985638
 21
2133.99992556065
 31
0.0
  0
LINE
  5
1088B
330
1F
100
AcDbEntity
  8
実線
100
AcDbLine
 10
2032.499994172536
 20
2163.999962780328
 30
0.0
 11
2002.499994172536
 21
2163.999962780328
 31
0.0
  0
LINE
  5
1088C
330
1F
100
AcDbEntity
  8
実線
100
AcDbLine
 10
2102.500013985638
 20
2133.99992556065
 30
0.0
 11
2032.499994172536
 21
2163.999962780328
 31
0.0
  0
LINE
  5
1088D
330
1F
100
AcDbEntity
  8
実線
100
AcDbLine
 10
2502.500013985639
 20
2101.99992556065
 30
0.0
 11
2486.500013985639
 21
2101.99992556065
 31
0.0
  0
LINE
  5
1088E
330
1F
100
AcDbEntity
  8
仮想線
100
AcDbLine
 10
2486.500013985639
 20
2094.999954509288
 30
0.0
 11
2493.499985037004
 21
2101.99992556065
 31
0.0
  0
LINE
  5
1088F
330
1F
100
AcDbEntity
  8
実線
100
AcDbLine
 10
2012.500013985638
 20
2113.999962780328
 30
0.0
 11
2002.499994172536
 21
2123.999962780327
 31
0.0
  0
LINE
  5
10890
330
1F
100
AcDbEntity
  8
仮想線
100
AcDbLine
 10
2009.500008041705
 20
2113.999962780328
 30
0.0
 11
2002.499994172536
 21
2120.999962780327
 31
0.0
  0
LINE
  5
10891
330
1F
100
AcDbEntity
  8
仮想線
100
AcDbLine
 10
2002.499983606158
 20
2451.999990026047
 30
0.0
 11
2009.500010851883
 21
2444.999962780328
 31
0.0
  0
LINE
  5
10892
330
1F
100
AcDbEntity
  8
仮想線
100
AcDbLine
 10
2002.499983606158
 20
2088.000013379516
 30
0.0
 11
2009.500010851883
 21
2095.000040625238
 31
0.0
  0
LINE
  5
10893
330
1F
100
AcDbEntity
  8
実線
100
AcDbLine
 10
2306.499994172536
 20
2275.999962780327
 30
0.0
 11
2306.499994172536
 21
2263.999962780328
 31
0.0
  0
LINE
  5
10894
330
1F
100
AcDbEntity
  8
中心線
100
AcDbLine
 10
2452.500078610323
 20
2454.999962780328
 30
0.0
 11
2452.500078610323
 21
2415.999962780328
 31
0.0
  0
LINE
  5
10895
330
1F
100
AcDbEntity
  8
中心線
100
AcDbLine
 10
2452.500078610323
 20
2085.000077114492
 30
0.0
 11
2452.500078610323
 21
2124.000077114492
 31
0.0
  0
LINE
  5
10896
330
1F
100
AcDbEntity
  8
中心線
100
AcDbLine
 10
2402.500078610323
 20
2454.999962780328
 30
0.0
 11
2402.500078610323
 21
2415.999962780328
 31
0.0
  0
LINE
  5
10897
330
1F
100
AcDbEntity
  8
中心線
100
AcDbLine
 10
2402.500078610323
 20
2085.000077114492
 30
0.0
 11
2402.500078610323
 21
2124.000077114492
 31
0.0
  0
LINE
  5
10898
330
1F
100
AcDbEntity
  8
中心線
100
AcDbLine
 10
2352.500078610323
 20
2454.999962780328
 30
0.0
 11
2352.500078610323
 21
2415.999962780328
 31
0.0
  0
LINE
  5
10899
330
1F
100
AcDbEntity
  8
中心線
100
AcDbLine
 10
2352.500078610323
 20
2085.000077114492
 30
0.0
 11
2352.500078610323
 21
2124.000077114492
 31
0.0
  0
LINE
  5
1089A
330
1F
100
AcDbEntity
  8
中心線
100
AcDbLine
 10
2302.500078610323
 20
2454.999962780328
 30
0.0
 11
2302.500078610323
 21
2415.999962780328
 31
0.0
  0
LINE
  5
1089B
330
1F
100
AcDbEntity
  8
中心線
100
AcDbLine
 10
2302.500078610323
 20
2085.000077114492
 30
0.0
 11
2302.500078610323
 21
2124.000077114492
 31
0.0
  0
LINE
  5
1089C
330
1F
100
AcDbEntity
  8
中心線
100
AcDbLine
 10
2252.500078610323
 20
2454.999962780328
 30
0.0
 11
2252.500078610323
 21
2415.999962780328
 31
0.0
  0
LINE
  5
1089D
330
1F
100
AcDbEntity
  8
中心線
100
AcDbLine
 10
2252.500078610323
 20
2085.000077114492
 30
0.0
 11
2252.500078610323
 21
2124.000077114492
 31
0.0
  0
DIMENSION
  5
1089E
330
1F
100
AcDbEntity
  8
寸法線
100
AcDbDimension
280
     0
  2
*D1
 10
2226.499994172551
 20
2264.000002350013
 30
0.0
 11
2226.499994172551
 21
2270.000002350012
 31
0.0
 70
   160
 71
     5
 42
12.0
 73
     0
 74
     0
 75
     0
  3
STANDARD
100
AcDbAlignedDimension
 13
2306.499994172536
 23
2276.000002350012
 33
0.0
 14
2306.499994172536
 24
2264.000002350012
 34
0.0
 50
90.0
100
AcDbRotatedDimension
1001
ACAD
1000
DSTYLE
1002
{
1070
   140
1040
2.5
1002
}
  0
TEXT
  5
1089F
330
1F
100
AcDbEntity
  8
寸法線
100
AcDbText
 10
2222.578811562625
 20
2364.250002350012
 30
0.0
 40
25.0
  1
ﾘﾌﾞﾌﾟﾚｰﾄ②
 72
     2
 11
2365.912144895959
 21
2364.250002350012
 31
0.0
100
AcDbText
 73
     1
  0
LEADER
  5
108A0
330
1F
100
AcDbEntity
  8
寸法線
100
AcDbLeader
  3
STANDARD
 76
     3
 10
2395.964110952013
 20
2275.999982727736
 30
0.0
 10
2374.662144895959
 20
2355.500002350012
 30
0.0
 10
2210.495510010118
 20
2355.500002350012
 30
0.0
1001
ACAD
1000
DSTYLE
1002
{
1070
   147
1040
0.875
1070
    77
1070
     0
1002
}
  0
LINE
  5
108A1
330
1F
100
AcDbEntity
  8
中心線
100
AcDbLine
 10
2476.500053611857
 20
2344.999905971087
 30
0.0
 11
2512.500073424966
 21
2344.999905971087
 31
0.0
  0
LINE
  5
108A2
330
1F
100
AcDbEntity
  8
中心線
100
AcDbLine
 10
2476.500053611857
 20
2194.999979694575
 30
0.0
 11
2512.500073424966
 21
2194.999979694575
 31
0.0
  0
LINE
  5
108A3
330
1F
100
AcDbEntity
  8
破線
100
AcDbLine
 10
618.4999592646017
 20
1675.999995864483
 30
0.0
 11
1102.499963982914
 21
1675.999995864483
 31
0.0
  0
LINE
  5
108A4
330
1F
100
AcDbEntity
  8
破線
100
AcDbLine
 10
628.4999441698127
 20
1675.999995864483
 30
0.0
 11
618.4999441698128
 21
1685.999995864483
 31
0.0
  0
LINE
  5
108A5
330
1F
100
AcDbEntity
  8
破線
100
AcDbLine
 10
1002.499963982915
 20
1825.49999586448
 30
0.0
 11
1102.499944169813
 21
1825.49999586448
 31
0.0
  0
LINE
  5
108A6
330
1F
100
AcDbEntity
  8
破線
100
AcDbLine
 10
1002.499963982915
 20
1809.49999586448
 30
0.0
 11
1102.499944169813
 21
1809.49999586448
 31
0.0
  0
LINE
  5
108A7
330
1F
100
AcDbEntity
  8
破線
100
AcDbLine
 10
1002.499963982915
 20
1825.49999586448
 30
0.0
 11
1002.499963982915
 21
1809.49999586448
 31
0.0
  0
LINE
  5
108A8
330
1F
100
AcDbEntity
  8
破線
100
AcDbLine
 10
618.4999441698128
 20
1825.999995864483
 30
0.0
 11
648.4999639829148
 21
1825.999995864483
 31
0.0
  0
LINE
  5
108A9
330
1F
100
AcDbEntity
  8
破線
100
AcDbLine
 10
798.4999441698128
 20
1706.000033084162
 30
0.0
 11
798.4999441698128
 21
1675.999995864483
 31
0.0
  0
LINE
  5
108AA
330
1F
100
AcDbEntity
  8
破線
100
AcDbLine
 10
648.4999639829148
 20
1825.999995864483
 30
0.0
 11
798.4999441698128
 21
1706.000033084162
 31
0.0
  0
LINE
  5
108AB
330
1F
100
AcDbEntity
  8
破線
100
AcDbLine
 10
618.4999592646017
 20
1663.99999586448
 30
0.0
 11
1102.499963982914
 21
1663.99999586448
 31
0.0
  0
LINE
  5
108AC
330
1F
100
AcDbEntity
  8
破線
100
AcDbLine
 10
628.4999441698127
 20
1663.99999586448
 30
0.0
 11
618.4999441698128
 21
1653.99999586448
 31
0.0
  0
LINE
  5
108AD
330
1F
100
AcDbEntity
  8
破線
100
AcDbLine
 10
1002.499963982915
 20
1514.49999586448
 30
0.0
 11
1102.499944169813
 21
1514.49999586448
 31
0.0
  0
LINE
  5
108AE
330
1F
100
AcDbEntity
  8
破線
100
AcDbLine
 10
1002.499963982915
 20
1530.49999586448
 30
0.0
 11
1102.499944169813
 21
1530.49999586448
 31
0.0
  0
LINE
  5
108AF
330
1F
100
AcDbEntity
  8
破線
100
AcDbLine
 10
1002.499963982915
 20
1514.49999586448
 30
0.0
 11
1002.499963982915
 21
1530.49999586448
 31
0.0
  0
LINE
  5
108B0
330
1F
100
AcDbEntity
  8
破線
100
AcDbLine
 10
618.4999441698128
 20
1513.99999586448
 30
0.0
 11
648.4999639829148
 21
1513.99999586448
 31
0.0
  0
LINE
  5
108B1
330
1F
100
AcDbEntity
  8
破線
100
AcDbLine
 10
798.4999441698128
 20
1633.999958644806
 30
0.0
 11
798.4999441698128
 21
1663.99999586448
 31
0.0
  0
LINE
  5
108B2
330
1F
100
AcDbEntity
  8
破線
100
AcDbLine
 10
648.4999639829148
 20
1513.99999586448
 30
0.0
 11
798.4999441698128
 21
1633.999958644806
 31
0.0
  0
LINE
  5
108B3
330
1F
100
AcDbEntity
  8
実線
100
AcDbLine
 10
1102.499979077718
 20
1855.000054734349
 30
0.0
 11
1102.499979077718
 21
1485.000034786939
 31
0.0
  0
LINE
  5
108B4
330
1F
100
AcDbEntity
  8
実線
100
AcDbLine
 10
602.4999592646017
 20
1495.000070303835
 30
0.0
 11
1102.499963982914
 21
1495.000070303835
 31
0.0
  0
LINE
  5
108B5
330
1F
100
AcDbEntity
  8
実線
100
AcDbLine
 10
602.4999592646017
 20
1844.999921425133
 30
0.0
 11
1102.499963982914
 21
1844.999921425133
 31
0.0
  0
LINE
  5
108B6
330
1F
100
AcDbEntity
  8
実線
100
AcDbLine
 10
618.4999592646017
 20
1844.999921425133
 30
0.0
 11
618.4999592646017
 21
1495.000070303835
 31
0.0
  0
LINE
  5
108B7
330
1F
100
AcDbEntity
  8
実線
100
AcDbLine
 10
602.4999592646017
 20
1844.999921425133
 30
0.0
 11
602.4999592646017
 21
1495.000070303835
 31
0.0
  0
LINE
  5
108B8
330
1F
100
AcDbEntity
  8
仮想線
100
AcDbLine
 10
624.4999592646017
 20
1675.999884205459
 30
0.0
 11
618.4999592646017
 21
1681.999884205459
 31
0.0
  0
LINE
  5
108B9
330
1F
100
AcDbEntity
  8
仮想線
100
AcDbLine
 10
624.4999592646017
 20
1663.999884205455
 30
0.0
 11
618.4999592646017
 21
1657.999884205455
 31
0.0
  0
LEADER
  5
108BA
330
1F
100
AcDbEntity
  8
寸法線
100
AcDbLeader
  3
STANDARD
 76
     3
 10
658.7499592646017
 20
1755.825332021624
 30
0.0
 10
753.8050373729455
 20
1925.000032726275
 30
0.0
 10
1021.465214307765
 20
1925.000032726275
 30
0.0
211
-1.0
221
0.0
231
0.0
1001
ACAD
1000
DSTYLE
1002
{
1070
   147
1040
0.875
1070
    77
1070
     0
1002
}
  0
TEXT
  5
108BB
330
1F
100
AcDbEntity
  8
寸法線
100
AcDbText
 10
762.5550373729405
 20
1933.750032726275
 30
0.0
 40
25.0
  1
ｶﾊﾞｰﾌﾟﾚｰﾄ連結用孔
 72
     2
 11
1010.888370706274
 21
1958.750032726275
 31
0.0
100
AcDbText
 73
     3
  0
LINE
  5
108BC
330
1F
100
AcDbEntity
  8
中心線
100
AcDbLine
 10
652.4999592646017
 20
1779.999995864484
 30
0.0
 11
652.4999592646017
 21
1710.000033084157
 31
0.0
  0
LINE
  5
108BD
330
1F
100
AcDbEntity
  8
中心線
100
AcDbLine
 10
617.4999778744422
 20
1745.00001447432
 30
0.0
 11
687.4999406547612
 21
1745.00001447432
 31
0.0
  0
CIRCLE
  5
108BE
330
1F
100
AcDbEntity
  8
実線
100
AcDbCircle
 10
652.4999592646017
 20
1745.00001447432
 30
0.0
 40
12.5
  0
LINE
  5
108BF
330
1F
100
AcDbEntity
  8
中心線
100
AcDbLine
 10
652.4999592646017
 20
1560.000095864481
 30
0.0
 11
652.4999592646017
 21
1630.000058644807
 31
0.0
  0
LINE
  5
108C0
330
1F
100
AcDbEntity
  8
中心線
100
AcDbLine
 10
617.4999778744422
 20
1595.000077254644
 30
0.0
 11
687.4999406547612
 21
1595.000077254644
 31
0.0
  0
CIRCLE
  5
108C1
330
1F
100
AcDbEntity
  8
実線
100
AcDbCircle
 10
652.4999592646017
 20
1595.000077254644
 30
0.0
 40
12.5
  0
LINE
  5
108C2
330
1F
100
AcDbEntity
  8
中心線
100
AcDbLine
 10
852.4999592646018
 20
1560.000095864481
 30
0.0
 11
852.4999592646018
 21
1630.000058644807
 31
0.0
  0
LINE
  5
108C3
330
1F
100
AcDbEntity
  8
中心線
100
AcDbLine
 10
817.4999778744423
 20
1595.000077254644
 30
0.0
 11
887.4999406547614
 21
1595.000077254644
 31
0.0
  0
LINE
  5
108C4
330
1F
100
AcDbEntity
  8
中心線
100
AcDbLine
 10
752.4999592646017
 20
1779.999995864484
 30
0.0
 11
752.4999592646017
 21
1710.000033084157
 31
0.0
  0
LINE
  5
108C5
330
1F
100
AcDbEntity
  8
中心線
100
AcDbLine
 10
717.4999778744422
 20
1745.00001447432
 30
0.0
 11
787.4999406547612
 21
1745.00001447432
 31
0.0
  0
CIRCLE
  5
108C6
330
1F
100
AcDbEntity
  8
実線
100
AcDbCircle
 10
752.4999592646017
 20
1745.00001447432
 30
0.0
 40
12.5
  0
LINE
  5
108C7
330
1F
100
AcDbEntity
  8
中心線
100
AcDbLine
 10
752.4999592646017
 20
1560.000095864481
 30
0.0
 11
752.4999592646017
 21
1630.000058644807
 31
0.0
  0
LINE
  5
108C8
330
1F
100
AcDbEntity
  8
中心線
100
AcDbLine
 10
717.4999778744422
 20
1595.000077254644
 30
0.0
 11
787.4999406547612
 21
1595.000077254644
 31
0.0
  0
CIRCLE
  5
108C9
330
1F
100
AcDbEntity
  8
実線
100
AcDbCircle
 10
752.4999592646017
 20
1595.000077254644
 30
0.0
 40
12.5
  0
LINE
  5
108CA
330
1F
100
AcDbEntity
  8
中心線
100
AcDbLine
 10
852.4999592646018
 20
1779.999995864484
 30
0.0
 11
852.4999592646018
 21
1710.000033084157
 31
0.0
  0
LINE
  5
108CB
330
1F
100
AcDbEntity
  8
中心線
100
AcDbLine
 10
817.4999778744423
 20
1745.00001447432
 30
0.0
 11
887.4999406547614
 21
1745.00001447432
 31
0.0
  0
CIRCLE
  5
108CC
330
1F
100
AcDbEntity
  8
実線
100
AcDbCircle
 10
852.4999592646018
 20
1745.00001447432
 30
0.0
 40
12.5
  0
LINE
  5
108CD
330
1F
100
AcDbEntity
  8
中心線
100
AcDbLine
 10
702.4999592646017
 20
1829.999995864484
 30
0.0
 11
702.4999592646017
 21
1760.000033084157
 31
0.0
  0
LINE
  5
108CE
330
1F
100
AcDbEntity
  8
中心線
100
AcDbLine
 10
667.4999778744422
 20
1795.00001447432
 30
0.0
 11
737.4999406547612
 21
1795.00001447432
 31
0.0
  0
CIRCLE
  5
108CF
330
1F
100
AcDbEntity
  8
実線
100
AcDbCircle
 10
702.4999592646017
 20
1795.00001447432
 30
0.0
 40
12.5
  0
LINE
  5
108D0
330
1F
100
AcDbEntity
  8
中心線
100
AcDbLine
 10
802.4999592646018
 20
1829.999995864484
 30
0.0
 11
802.4999592646018
 21
1760.000033084157
 31
0.0
  0
LINE
  5
108D1
330
1F
100
AcDbEntity
  8
中心線
100
AcDbLine
 10
767.4999778744422
 20
1795.00001447432
 30
0.0
 11
837.4999406547612
 21
1795.00001447432
 31
0.0
  0
CIRCLE
  5
108D2
330
1F
100
AcDbEntity
  8
実線
100
AcDbCircle
 10
802.4999592646018
 20
1795.00001447432
 30
0.0
 40
12.5
  0
LINE
  5
108D3
330
1F
100
AcDbEntity
  8
中心線
100
AcDbLine
 10
702.4999592646017
 20
1510.000095864481
 30
0.0
 11
702.4999592646017
 21
1580.000058644807
 31
0.0
  0
LINE
  5
108D4
330
1F
100
AcDbEntity
  8
中心線
100
AcDbLine
 10
667.4999778744422
 20
1545.000077254644
 30
0.0
 11
737.4999406547612
 21
1545.000077254644
 31
0.0
  0
CIRCLE
  5
108D5
330
1F
100
AcDbEntity
  8
実線
100
AcDbCircle
 10
702.4999592646017
 20
1545.000077254644
 30
0.0
 40
12.5
  0
LINE
  5
108D6
330
1F
100
AcDbEntity
  8
中心線
100
AcDbLine
 10
802.4999592646018
 20
1510.000095864481
 30
0.0
 11
802.4999592646018
 21
1580.000058644807
 31
0.0
  0
LINE
  5
108D7
330
1F
100
AcDbEntity
  8
中心線
100
AcDbLine
 10
767.4999778744422
 20
1545.000077254644
 30
0.0
 11
837.4999406547612
 21
1545.000077254644
 31
0.0
  0
CIRCLE
  5
108D8
330
1F
100
AcDbEntity
  8
実線
100
AcDbCircle
 10
802.4999592646018
 20
1545.000077254644
 30
0.0
 40
12.5
  0
CIRCLE
  5
108D9
330
1F
100
AcDbEntity
  8
実線
100
AcDbCircle
 10
852.4999592646018
 20
1595.000077254644
 30
0.0
 40
12.5
  0
LINE
  5
108DA
330
1F
100
AcDbEntity
  8
中心線
100
AcDbLine
 10
592.5000087973712
 20
1769.999920445407
 30
0.0
 11
628.5000286104803
 21
1769.999920445407
 31
0.0
  0
LINE
  5
108DB
330
1F
100
AcDbEntity
  8
中心線
100
AcDbLine
 10
592.5000087973712
 20
1569.999994168894
 30
0.0
 11
628.5000286104803
 21
1569.999994168894
 31
0.0
  0
LINE
  5
108DC
330
1F
100
AcDbEntity
  8
破線
100
AcDbLine
 10
2486.499998890835
 20
1676.000015811893
 30
0.0
 11
2002.499994172522
 21
1676.000015811893
 31
0.0
  0
LINE
  5
108DD
330
1F
100
AcDbEntity
  8
破線
100
AcDbLine
 10
2476.500013985625
 20
1676.000015811893
 30
0.0
 11
2486.500013985625
 21
1686.000015811893
 31
0.0
  0
LINE
  5
108DE
330
1F
100
AcDbEntity
  8
破線
100
AcDbLine
 10
2102.499994172522
 20
1825.50001581189
 30
0.0
 11
2002.500013985624
 21
1825.50001581189
 31
0.0
  0
LINE
  5
108DF
330
1F
100
AcDbEntity
  8
破線
100
AcDbLine
 10
2102.499994172522
 20
1809.50001581189
 30
0.0
 11
2002.500013985624
 21
1809.50001581189
 31
0.0
  0
LINE
  5
108E0
330
1F
100
AcDbEntity
  8
破線
100
AcDbLine
 10
2102.499994172522
 20
1825.50001581189
 30
0.0
 11
2102.499994172522
 21
1809.50001581189
 31
0.0
  0
LINE
  5
108E1
330
1F
100
AcDbEntity
  8
破線
100
AcDbLine
 10
2486.500013985625
 20
1826.000015811893
 30
0.0
 11
2456.499994172522
 21
1826.000015811893
 31
0.0
  0
LINE
  5
108E2
330
1F
100
AcDbEntity
  8
破線
100
AcDbLine
 10
2306.500013985624
 20
1706.000053031571
 30
0.0
 11
2306.500013985624
 21
1676.000015811893
 31
0.0
  0
LINE
  5
108E3
330
1F
100
AcDbEntity
  8
破線
100
AcDbLine
 10
2456.499994172522
 20
1826.000015811893
 30
0.0
 11
2306.500013985624
 21
1706.000053031571
 31
0.0
  0
LINE
  5
108E4
330
1F
100
AcDbEntity
  8
破線
100
AcDbLine
 10
2486.499998890835
 20
1664.00001581189
 30
0.0
 11
2002.499994172522
 21
1664.00001581189
 31
0.0
  0
LINE
  5
108E5
330
1F
100
AcDbEntity
  8
破線
100
AcDbLine
 10
2476.500013985625
 20
1664.00001581189
 30
0.0
 11
2486.500013985625
 21
1654.00001581189
 31
0.0
  0
LINE
  5
108E6
330
1F
100
AcDbEntity
  8
破線
100
AcDbLine
 10
2102.499994172522
 20
1514.50001581189
 30
0.0
 11
2002.500013985624
 21
1514.50001581189
 31
0.0
  0
LINE
  5
108E7
330
1F
100
AcDbEntity
  8
破線
100
AcDbLine
 10
2102.499994172522
 20
1530.50001581189
 30
0.0
 11
2002.500013985624
 21
1530.50001581189
 31
0.0
  0
LINE
  5
108E8
330
1F
100
AcDbEntity
  8
破線
100
AcDbLine
 10
2102.499994172522
 20
1514.50001581189
 30
0.0
 11
2102.499994172522
 21
1530.50001581189
 31
0.0
  0
LINE
  5
108E9
330
1F
100
AcDbEntity
  8
破線
100
AcDbLine
 10
2486.500013985625
 20
1514.00001581189
 30
0.0
 11
2456.499994172522
 21
1514.00001581189
 31
0.0
  0
LINE
  5
108EA
330
1F
100
AcDbEntity
  8
破線
100
AcDbLine
 10
2306.500013985624
 20
1633.999978592216
 30
0.0
 11
2306.500013985624
 21
1664.00001581189
 31
0.0
  0
LINE
  5
108EB
330
1F
100
AcDbEntity
  8
破線
100
AcDbLine
 10
2456.499994172522
 20
1514.00001581189
 30
0.0
 11
2306.500013985624
 21
1633.999978592216
 31
0.0
  0
LINE
  5
108EC
330
1F
100
AcDbEntity
  8
実線
100
AcDbLine
 10
2002.499979077718
 20
1855.000054734348
 30
0.0
 11
2002.499979077718
 21
1485.000054734348
 31
0.0
  0
LINE
  5
108ED
330
1F
100
AcDbEntity
  8
実線
100
AcDbLine
 10
2502.499998890835
 20
1495.000090251244
 30
0.0
 11
2002.499994172522
 21
1495.000090251244
 31
0.0
  0
LINE
  5
108EE
330
1F
100
AcDbEntity
  8
実線
100
AcDbLine
 10
2502.499998890835
 20
1844.999941372542
 30
0.0
 11
2002.499994172522
 21
1844.999941372542
 31
0.0
  0
LINE
  5
108EF
330
1F
100
AcDbEntity
  8
実線
100
AcDbLine
 10
2486.499998890835
 20
1844.999941372542
 30
0.0
 11
2486.499998890835
 21
1495.000090251244
 31
0.0
  0
LINE
  5
108F0
330
1F
100
AcDbEntity
  8
実線
100
AcDbLine
 10
2502.499998890835
 20
1844.999941372542
 30
0.0
 11
2502.499998890835
 21
1495.000090251244
 31
0.0
  0
LINE
  5
108F1
330
1F
100
AcDbEntity
  8
仮想線
100
AcDbLine
 10
2480.499998890835
 20
1675.999904152869
 30
0.0
 11
2486.499998890835
 21
1681.999904152869
 31
0.0
  0
LINE
  5
108F2
330
1F
100
AcDbEntity
  8
仮想線
100
AcDbLine
 10
2480.499998890835
 20
1663.999904152865
 30
0.0
 11
2486.499998890835
 21
1657.999904152865
 31
0.0
  0
LINE
  5
108F3
330
1F
100
AcDbEntity
  8
中心線
100
AcDbLine
 10
2452.499998890835
 20
1780.000015811894
 30
0.0
 11
2452.499998890835
 21
1710.000053031567
 31
0.0
  0
LINE
  5
108F4
330
1F
100
AcDbEntity
  8
中心線
100
AcDbLine
 10
2487.499980280995
 20
1745.00003442173
 30
0.0
 11
2417.500017500676
 21
1745.00003442173
 31
0.0
  0
CIRCLE
  5
108F5
330
1F
100
AcDbEntity
  8
実線
100
AcDbCircle
 10
2452.499998890835
 20
1745.00003442173
 30
0.0
 40
12.5
  0
LINE
  5
108F6
330
1F
100
AcDbEntity
  8
中心線
100
AcDbLine
 10
2452.499998890835
 20
1560.000115811891
 30
0.0
 11
2452.499998890835
 21
1630.000078592217
 31
0.0
  0
LINE
  5
108F7
330
1F
100
AcDbEntity
  8
中心線
100
AcDbLine
 10
2487.499980280995
 20
1595.000097202054
 30
0.0
 11
2417.500017500676
 21
1595.000097202054
 31
0.0
  0
CIRCLE
  5
108F8
330
1F
100
AcDbEntity
  8
実線
100
AcDbCircle
 10
2452.499998890835
 20
1595.000097202054
 30
0.0
 40
12.5
  0
LINE
  5
108F9
330
1F
100
AcDbEntity
  8
中心線
100
AcDbLine
 10
2252.499998890835
 20
1560.000115811891
 30
0.0
 11
2252.499998890835
 21
1630.000078592217
 31
0.0
  0
LINE
  5
108FA
330
1F
100
AcDbEntity
  8
中心線
100
AcDbLine
 10
2287.499980280994
 20
1595.000097202054
 30
0.0
 11
2217.500017500675
 21
1595.000097202054
 31
0.0
  0
LINE
  5
108FB
330
1F
100
AcDbEntity
  8
中心線
100
AcDbLine
 10
2352.499998890835
 20
1780.000015811894
 30
0.0
 11
2352.499998890835
 21
1710.000053031567
 31
0.0
  0
LINE
  5
108FC
330
1F
100
AcDbEntity
  8
中心線
100
AcDbLine
 10
2387.499980280995
 20
1745.00003442173
 30
0.0
 11
2317.500017500675
 21
1745.00003442173
 31
0.0
  0
CIRCLE
  5
108FD
330
1F
100
AcDbEntity
  8
実線
100
AcDbCircle
 10
2352.499998890835
 20
1745.00003442173
 30
0.0
 40
12.5
  0
LINE
  5
108FE
330
1F
100
AcDbEntity
  8
中心線
100
AcDbLine
 10
2352.499998890835
 20
1560.000115811891
 30
0.0
 11
2352.499998890835
 21
1630.000078592217
 31
0.0
  0
LINE
  5
108FF
330
1F
100
AcDbEntity
  8
中心線
100
AcDbLine
 10
2387.499980280995
 20
1595.000097202054
 30
0.0
 11
2317.500017500675
 21
1595.000097202054
 31
0.0
  0
CIRCLE
  5
10900
330
1F
100
AcDbEntity
  8
実線
100
AcDbCircle
 10
2352.499998890835
 20
1595.000097202054
 30
0.0
 40
12.5
  0
LINE
  5
10901
330
1F
100
AcDbEntity
  8
中心線
100
AcDbLine
 10
2252.499998890835
 20
1780.000015811894
 30
0.0
 11
2252.499998890835
 21
1710.000053031567
 31
0.0
  0
LINE
  5
10902
330
1F
100
AcDbEntity
  8
中心線
100
AcDbLine
 10
2287.499980280994
 20
1745.00003442173
 30
0.0
 11
2217.500017500675
 21
1745.00003442173
 31
0.0
  0
CIRCLE
  5
10903
330
1F
100
AcDbEntity
  8
実線
100
AcDbCircle
 10
2252.499998890835
 20
1745.00003442173
 30
0.0
 40
12.5
  0
LINE
  5
10904
330
1F
100
AcDbEntity
  8
中心線
100
AcDbLine
 10
2402.499998890835
 20
1830.000015811894
 30
0.0
 11
2402.499998890835
 21
1760.000053031567
 31
0.0
  0
LINE
  5
10905
330
1F
100
AcDbEntity
  8
中心線
100
AcDbLine
 10
2437.499980280995
 20
1795.00003442173
 30
0.0
 11
2367.500017500676
 21
1795.00003442173
 31
0.0
  0
CIRCLE
  5
10906
330
1F
100
AcDbEntity
  8
実線
100
AcDbCircle
 10
2402.499998890835
 20
1795.00003442173
 30
0.0
 40
12.5
  0
LINE
  5
10907
330
1F
100
AcDbEntity
  8
中心線
100
AcDbLine
 10
2302.499998890835
 20
1830.000015811894
 30
0.0
 11
2302.499998890835
 21
1760.000053031567
 31
0.0
  0
LINE
  5
10908
330
1F
100
AcDbEntity
  8
中心線
100
AcDbLine
 10
2337.499980280995
 20
1795.00003442173
 30
0.0
 11
2267.500017500676
 21
1795.00003442173
 31
0.0
  0
CIRCLE
  5
10909
330
1F
100
AcDbEntity
  8
実線
100
AcDbCircle
 10
2302.499998890835
 20
1795.00003442173
 30
0.0
 40
12.5
  0
LINE
  5
1090A
330
1F
100
AcDbEntity
  8
中心線
100
AcDbLine
 10
2402.499998890835
 20
1510.000115811891
 30
0.0
 11
2402.499998890835
 21
1580.000078592217
 31
0.0
  0
LINE
  5
1090B
330
1F
100
AcDbEntity
  8
中心線
100
AcDbLine
 10
2437.499980280995
 20
1545.000097202054
 30
0.0
 11
2367.500017500676
 21
1545.000097202054
 31
0.0
  0
CIRCLE
  5
1090C
330
1F
100
AcDbEntity
  8
実線
100
AcDbCircle
 10
2402.499998890835
 20
1545.000097202054
 30
0.0
 40
12.5
  0
LINE
  5
1090D
330
1F
100
AcDbEntity
  8
中心線
100
AcDbLine
 10
2302.499998890835
 20
1510.000115811891
 30
0.0
 11
2302.499998890835
 21
1580.000078592217
 31
0.0
  0
LINE
  5
1090E
330
1F
100
AcDbEntity
  8
中心線
100
AcDbLine
 10
2337.499980280995
 20
1545.000097202054
 30
0.0
 11
2267.500017500676
 21
1545.000097202054
 31
0.0
  0
CIRCLE
  5
1090F
330
1F
100
AcDbEntity
  8
実線
100
AcDbCircle
 10
2302.499998890835
 20
1545.000097202054
 30
0.0
 40
12.5
  0
CIRCLE
  5
10910
330
1F
100
AcDbEntity
  8
実線
100
AcDbCircle
 10
2252.499998890835
 20
1595.000097202054
 30
0.0
 40
12.5
  0
DIMENSION
  5
10911
330
1F
100
AcDbEntity
  8
寸法線
100
AcDbDimension
280
     0
  2
*D19
 10
2182.499994172522
 20
1522.50001493693
 30
0.0
 11
2182.499994172522
 21
1508.750052773177
 31
0.0
 70
   160
 71
     5
 42
27.49992432750401
 73
     0
 74
     0
 75
     0
  3
STANDARD
100
AcDbAlignedDimension
 13
2002.499979077718
 23
1495.000090609425
 33
0.0
 14
2110.499979077718
 24
1522.500014936929
 34
0.0
 50
90.0
100
AcDbRotatedDimension
1001
ACAD
1000
DSTYLE
1002
{
1070
   271
1070
     1
1002
}
  0
DIMENSION
  5
10912
330
1F
100
AcDbEntity
  8
寸法線
100
AcDbDimension
280
     0
  2
*D20
 10
2182.499994172522
 20
1809.500015811891
 30
0.0
 11
2182.499994172522
 21
1817.50001581189
 31
0.0
 70
   160
 71
     5
 42
16.0
 73
     0
 74
     0
 75
     0
  3
STANDARD
100
AcDbAlignedDimension
 13
2102.499994172522
 23
1825.50001581189
 33
0.0
 14
2102.499994172522
 24
1809.50001581189
 34
0.0
 50
270.0
100
AcDbRotatedDimension
1001
ACAD
1000
DSTYLE
1002
{
1070
   271
1070
     1
1002
}
  0
LEADER
  5
10913
330
1F
100
AcDbEntity
  8
寸法線
100
AcDbLeader
  3
STANDARD
 76
     3
 10
2258.749998890835
 20
1755.825351969034
 30
0.0
 10
2353.805076999179
 20
1925.000052673685
 30
0.0
 10
2621.465253933999
 20
1925.000052673685
 30
0.0
211
-1.0
221
0.0
231
0.0
1001
ACAD
1000
DSTYLE
1002
{
1070
   147
1040
0.875
1070
    77
1070
     0
1002
}
  0
TEXT
  5
10914
330
1F
100
AcDbEntity
  8
寸法線
100
AcDbText
 10
2362.555076999174
 20
1933.750052673684
 30
0.0
 40
25.0
  1
ｶﾊﾞｰﾌﾟﾚｰﾄ連結用孔
 72
     2
 11
2610.888410332507
 21
1958.750052673684
 31
0.0
100
AcDbText
 73
     3
  0
LINE
  5
10915
330
1F
100
AcDbEntity
  8
中心線
100
AcDbLine
 10
2476.500048423604
 20
1769.999940392817
 30
0.0
 11
2512.500068236714
 21
1769.999940392817
 31
0.0
  0
LINE
  5
10916
330
1F
100
AcDbEntity
  8
中心線
100
AcDbLine
 10
2476.500048423604
 20
1570.000014116304
 30
0.0
 11
2512.500068236714
 21
1570.000014116304
 31
0.0
  0
TEXT
  5
10917
330
1F
100
AcDbEntity
  8
寸法線
100
AcDbText
 10
3056.548055533095
 20
606.7561391440013
 30
0.0
 40
25.0
  1
※　H型鋼（連結部）の長さは、切梁メーカー仕様または施工条件により
 11
3056.548055533095
 21
606.7561391440013
 31
0.0
100
AcDbText
 73
     1
  0
TEXT
  5
10918
330
1F
100
AcDbEntity
  8
寸法線
100
AcDbText
 10
3056.548055533095
 20
656.7561391440013
 30
0.0
 40
25.0
  1
※　H型鋼（連結部）の穴開け位置は、切梁メーカー仕様による。
 11
3056.548055533095
 21
656.7561391440013
 31
0.0
100
AcDbText
 73
     1
  0
TEXT
  5
10919
330
1F
100
AcDbEntity
  8
寸法線
100
AcDbText
 10
3056.548055533095
 20
556.7561391440013
 30
0.0
 40
25.0
  1
　　変更する場合がある。
 11
3056.548055533095
 21
556.7561391440013
 31
0.0
100
AcDbText
 73
     1
  0
TEXT
  5
1091A
330
1F
100
AcDbEntity
  8
寸法線
100
AcDbText
 10
3056.548055533095
 20
506.7561391440013
 30
0.0
 40
25.0
  1
※　空洞金具部は鉄筋防錆剤塗装仕上げ。
 11
3056.548055533095
 21
506.7561391440013
 31
0.0
100
AcDbText
 73
     1
  0
TEXT
  5
1091B
330
1F
100
AcDbEntity
  8
寸法線
100
AcDbText
 10
3056.548055533095
 20
456.7561391440013
 30
0.0
 40
25.0
  1
※　H型鋼（連結部）は赤さび塗装仕上げ。
 11
3056.548055533095
 21
456.7561391440013
 31
0.0
100
AcDbText
 73
     1
  0
LINE
  5
1091C
330
1F
100
AcDbEntity
  8
実線
100
AcDbLine
 10
1544.500030870233
 20
1465.000036489718
 30
0.0
 11
1544.500030870233
 21
1875.00003648972
 31
0.0
  0
LINE
  5
1091D
330
1F
100
AcDbEntity
  8
実線
100
AcDbLine
 10
1560.500030870233
 20
1465.000036489718
 30
0.0
 11
1560.500030870233
 21
1875.00003648972
 31
0.0
  0
LINE
  5
1091E
330
1F
100
AcDbEntity
  8
実線
100
AcDbLine
 10
1544.500030870233
 20
1875.00003648972
 30
0.0
 11
1560.500030870233
 21
1875.00003648972
 31
0.0
  0
LINE
  5
1091F
330
1F
100
AcDbEntity
  8
実線
100
AcDbLine
 10
1544.500030870233
 20
1465.000036489718
 30
0.0
 11
1560.500030870233
 21
1465.000036489718
 31
0.0
  0
LINE
  5
10920
330
1F
100
AcDbEntity
  8
破線
100
AcDbLine
 10
1544.500030870233
 20
1845.00003648972
 30
0.0
 11
1560.500030870233
 21
1845.00003648972
 31
0.0
  0
LINE
  5
10921
330
1F
100
AcDbEntity
  8
破線
100
AcDbLine
 10
1544.500030870233
 20
1790.00003648972
 30
0.0
 11
1560.500030870233
 21
1790.00003648972
 31
0.0
  0
LINE
  5
10922
330
1F
100
AcDbEntity
  8
破線
100
AcDbLine
 10
1544.500030870233
 20
1550.000036489716
 30
0.0
 11
1560.500030870233
 21
1550.000036489716
 31
0.0
  0
LINE
  5
10923
330
1F
100
AcDbEntity
  8
破線
100
AcDbLine
 10
1544.500030870233
 20
1495.000036489716
 30
0.0
 11
1560.500030870233
 21
1495.000036489716
 31
0.0
  0
LINE
  5
10924
330
1F
100
AcDbEntity
  8
実線
100
AcDbLine
 10
1544.500030870233
 20
2065.000001702779
 30
0.0
 11
1544.500030870233
 21
2475.000001702782
 31
0.0
  0
LINE
  5
10925
330
1F
100
AcDbEntity
  8
実線
100
AcDbLine
 10
1560.500030870233
 20
2065.000001702779
 30
0.0
 11
1560.500030870233
 21
2475.000001702782
 31
0.0
  0
LINE
  5
10926
330
1F
100
AcDbEntity
  8
実線
100
AcDbLine
 10
1544.500030870233
 20
2475.000001702782
 30
0.0
 11
1560.500030870233
 21
2475.000001702782
 31
0.0
  0
LINE
  5
10927
330
1F
100
AcDbEntity
  8
実線
100
AcDbLine
 10
1544.500030870233
 20
2065.000001702779
 30
0.0
 11
1560.500030870233
 21
2065.000001702779
 31
0.0
  0
LINE
  5
10928
330
1F
100
AcDbEntity
  8
破線
100
AcDbLine
 10
1544.500030870233
 20
2445.000001702781
 30
0.0
 11
1560.500030870233
 21
2445.000001702781
 31
0.0
  0
LINE
  5
10929
330
1F
100
AcDbEntity
  8
破線
100
AcDbLine
 10
1544.500030870233
 20
2390.000001702781
 30
0.0
 11
1560.500030870233
 21
2390.000001702781
 31
0.0
  0
LINE
  5
1092A
330
1F
100
AcDbEntity
  8
破線
100
AcDbLine
 10
1544.500030870233
 20
2150.000001702777
 30
0.0
 11
1560.500030870233
 21
2150.000001702777
 31
0.0
  0
LINE
  5
1092B
330
1F
100
AcDbEntity
  8
破線
100
AcDbLine
 10
1544.500030870233
 20
2095.000001702777
 30
0.0
 11
1560.500030870233
 21
2095.000001702777
 31
0.0
  0
LINE
  5
1092C
330
1F
100
AcDbEntity
  8
実線
100
AcDbLine
 10
1986.500082662747
 20
2095.00000170278
 30
0.0
 11
1560.500030870234
 21
2095.00000170278
 31
0.0
  0
LINE
  5
1092D
330
1F
100
AcDbEntity
  8
実線
100
AcDbLine
 10
1954.500082662747
 20
2150.000001702781
 30
0.0
 11
1560.500030870233
 21
2150.000001702781
 31
0.0
  0
LINE
  5
1092E
330
1F
100
AcDbEntity
  8
実線
100
AcDbLine
 10
1954.500082662747
 20
2390.000001702781
 30
0.0
 11
1560.500030870233
 21
2390.000001702781
 31
0.0
  0
LINE
  5
1092F
330
1F
100
AcDbEntity
  8
実線
100
AcDbLine
 10
1986.500082662747
 20
2445.000001702781
 30
0.0
 11
1560.500030870234
 21
2445.000001702781
 31
0.0
  0
LINE
  5
10930
330
1F
100
AcDbEntity
  8
実線
100
AcDbLine
 10
1986.500082662747
 20
1495.00003648972
 30
0.0
 11
1560.500030870234
 21
1495.00003648972
 31
0.0
  0
LINE
  5
10931
330
1F
100
AcDbEntity
  8
実線
100
AcDbLine
 10
1954.500082662747
 20
1550.00003648972
 30
0.0
 11
1560.500030870233
 21
1550.00003648972
 31
0.0
  0
LINE
  5
10932
330
1F
100
AcDbEntity
  8
実線
100
AcDbLine
 10
1954.500082662747
 20
1790.00003648972
 30
0.0
 11
1560.500030870233
 21
1790.00003648972
 31
0.0
  0
LINE
  5
10933
330
1F
100
AcDbEntity
  8
実線
100
AcDbLine
 10
1986.500082662747
 20
1845.00003648972
 30
0.0
 11
1560.500030870234
 21
1845.00003648972
 31
0.0
  0
LINE
  5
10934
330
1F
100
AcDbEntity
  8
寸法線
100
AcDbLine
 10
1149.004003807595
 20
1154.999999999958
 30
0.0
 11
1469.004003807595
 21
1154.999999999958
 31
0.0
  0
TEXT
  5
10935
330
1F
100
AcDbEntity
  8
寸法線
100
AcDbText
 10
1157.754003807595
 20
1163.749999999958
 30
0.0
 40
37.5
  1
空洞金具詳細図
 72
     1
 11
1309.004003807595
 21
1163.749999999958
 31
0.0
100
AcDbText
 73
     1
  0
LINE
  5
10FAA
330
1F
100
AcDbEntity
  8
実線
100
AcDbLine
 10
859.0040038075949
 20
564.9999452660741
 30
0.0
 11
859.0040038075949
 21
934.9999452660741
 31
0.0
  0
LINE
  5
10FAB
330
1F
100
AcDbEntity
  8
実線
100
AcDbLine
 10
875.0040038075949
 20
564.9999452660741
 30
0.0
 11
875.0040038075949
 21
934.9999452660741
 31
0.0
  0
LINE
  5
10FAC
330
1F
100
AcDbEntity
  8
実線
100
AcDbLine
 10
859.0040038075949
 20
934.9999270214647
 30
0.0
 11
875.0040038075949
 21
934.9999270214647
 31
0.0
  0
LINE
  5
10FAD
330
1F
100
AcDbEntity
  8
実線
100
AcDbLine
 10
859.0040038075949
 20
564.9999270214647
 30
0.0
 11
875.0040038075949
 21
564.9999270214647
 31
0.0
  0
LINE
  5
10FAE
330
1F
100
AcDbEntity
  8
実線
100
AcDbLine
 10
887.0040038075948
 20
625.4999270214646
 30
0.0
 11
907.004003807595
 21
625.4999270214646
 31
0.0
  0
LINE
  5
10FAF
330
1F
100
AcDbEntity
  8
実線
100
AcDbLine
 10
907.004003807595
 20
625.4999270214646
 30
0.0
 11
907.004003807595
 21
874.4999270214647
 31
0.0
  0
LINE
  5
10FB0
330
1F
100
AcDbEntity
  8
実線
100
AcDbLine
 10
1711.004003807595
 20
625.4999270214646
 30
0.0
 11
1711.004003807595
 21
874.4999270214647
 31
0.0
  0
LINE
  5
10FB1
330
1F
100
AcDbEntity
  8
実線
100
AcDbLine
 10
1711.004003807595
 20
625.4999270214646
 30
0.0
 11
1731.004003807595
 21
625.4999270214646
 31
0.0
  0
LINE
  5
10FB2
330
1F
100
AcDbEntity
  8
実線
100
AcDbLine
 10
875.0040038075949
 20
637.4999270214646
 30
0.0
 11
887.0040038075948
 21
625.4999270214646
 31
0.0
  0
LINE
  5
10FB3
330
1F
100
AcDbEntity
  8
実線
100
AcDbLine
 10
1731.004003807595
 20
625.4999270214646
 30
0.0
 11
1743.004003807595
 21
637.4999270214646
 31
0.0
  0
LINE
  5
10FB4
330
1F
100
AcDbEntity
  8
実線
100
AcDbLine
 10
875.0040038075949
 20
629.9999270214647
 30
0.0
 11
882.004003807595
 21
629.9999270214647
 31
0.0
  0
LINE
  5
10FB5
330
1F
100
AcDbEntity
  8
実線
100
AcDbLine
 10
1736.004003807595
 20
629.9999270214647
 30
0.0
 11
1743.004003807595
 21
629.9999270214647
 31
0.0
  0
LINE
  5
10FB6
330
1F
100
AcDbEntity
  8
破線
100
AcDbLine
 10
882.004003807595
 20
629.9999270214647
 30
0.0
 11
907.004003807595
 21
629.9999270214647
 31
0.0
  0
LINE
  5
10FB7
330
1F
100
AcDbEntity
  8
破線
100
AcDbLine
 10
1711.004003807595
 20
629.9999270214647
 30
0.0
 11
1736.004003807595
 21
629.9999270214647
 31
0.0
  0
LINE
  5
10FB8
330
1F
100
AcDbEntity
  8
中心線
100
AcDbLine
 10
849.0040038075949
 20
602.4999270214647
 30
0.0
 11
1769.004107392609
 21
602.4999270214647
 31
0.0
  0
LINE
  5
10FB9
330
1F
100
AcDbEntity
  8
破線
100
AcDbLine
 10
875.0040038075949
 20
586.9999270214647
 30
0.0
 11
907.004003807595
 21
586.9999270214647
 31
0.0
  0
LINE
  5
10FBA
330
1F
100
AcDbEntity
  8
破線
100
AcDbLine
 10
907.004003807595
 20
586.9999270214647
 30
0.0
 11
907.004003807595
 21
574.9999270214646
 31
0.0
  0
LINE
  5
10FBB
330
1F
100
AcDbEntity
  8
中心線
100
AcDbLine
 10
844.0040038075949
 20
749.9999270214646
 30
0.0
 11
1774.00410739261
 21
749.9999270214646
 31
0.0
  0
LINE
  5
10FBC
330
1F
100
AcDbEntity
  8
中心線
100
AcDbLine
 10
849.0040038075949
 20
897.4999270214649
 30
0.0
 11
1769.004107392609
 21
897.4999270214649
 31
0.0
  0
LINE
  5
10FBD
330
1F
100
AcDbEntity
  8
破線
100
AcDbLine
 10
1711.004003807595
 20
869.9999270214647
 30
0.0
 11
1736.004003807595
 21
869.9999270214647
 31
0.0
  0
LINE
  5
10FBE
330
1F
100
AcDbEntity
  8
実線
100
AcDbLine
 10
1736.004003807595
 20
869.9999270214647
 30
0.0
 11
1743.004003807595
 21
869.9999270214647
 31
0.0
  0
LINE
  5
10FBF
330
1F
100
AcDbEntity
  8
実線
100
AcDbLine
 10
1711.004003807595
 20
874.4999270214647
 30
0.0
 11
1731.004003807595
 21
874.4999270214647
 31
0.0
  0
LINE
  5
10FC0
330
1F
100
AcDbEntity
  8
実線
100
AcDbLine
 10
1731.004003807595
 20
874.4999270214647
 30
0.0
 11
1743.004003807595
 21
862.4999270214647
 31
0.0
  0
LINE
  5
10FC1
330
1F
100
AcDbEntity
  8
破線
100
AcDbLine
 10
875.0040038075949
 20
912.9999270214646
 30
0.0
 11
907.004003807595
 21
912.9999270214646
 31
0.0
  0
LINE
  5
10FC2
330
1F
100
AcDbEntity
  8
破線
100
AcDbLine
 10
907.004003807595
 20
912.9999270214646
 30
0.0
 11
907.004003807595
 21
924.9999270214647
 31
0.0
  0
LINE
  5
10FC3
330
1F
100
AcDbEntity
  8
破線
100
AcDbLine
 10
882.004003807595
 20
869.9999270214647
 30
0.0
 11
907.004003807595
 21
869.9999270214647
 31
0.0
  0
LINE
  5
10FC4
330
1F
100
AcDbEntity
  8
実線
100
AcDbLine
 10
887.0040038075948
 20
874.4999270214647
 30
0.0
 11
907.004003807595
 21
874.4999270214647
 31
0.0
  0
LINE
  5
10FC5
330
1F
100
AcDbEntity
  8
実線
100
AcDbLine
 10
875.0040038075949
 20
862.4999270214647
 30
0.0
 11
887.0040038075948
 21
874.4999270214647
 31
0.0
  0
LINE
  5
10FC6
330
1F
100
AcDbEntity
  8
実線
100
AcDbLine
 10
875.0040038075949
 20
869.9999270214647
 30
0.0
 11
882.004003807595
 21
869.9999270214647
 31
0.0
  0
LINE
  5
10FC7
330
1F
100
AcDbEntity
  8
破線
100
AcDbLine
 10
1743.004003807595
 20
586.9999270214647
 30
0.0
 11
1711.004003807595
 21
586.9999270214647
 31
0.0
  0
LINE
  5
10FC8
330
1F
100
AcDbEntity
  8
破線
100
AcDbLine
 10
1711.004003807595
 20
586.9999270214647
 30
0.0
 11
1711.004003807595
 21
574.9999270214646
 31
0.0
  0
LINE
  5
10FC9
330
1F
100
AcDbEntity
  8
破線
100
AcDbLine
 10
1711.004003807595
 20
912.9999270214646
 30
0.0
 11
1711.004003807595
 21
924.9999270214647
 31
0.0
  0
LINE
  5
10FCA
330
1F
100
AcDbEntity
  8
破線
100
AcDbLine
 10
1743.004003807595
 20
912.9999270214646
 30
0.0
 11
1711.004003807595
 21
912.9999270214646
 31
0.0
  0
LINE
  5
10FCB
330
1F
100
AcDbEntity
  8
破線
100
AcDbLine
 10
875.0040038075949
 20
755.9999270214647
 30
0.0
 11
907.004003807595
 21
755.9999270214647
 31
0.0
  0
LINE
  5
10FCC
330
1F
100
AcDbEntity
  8
破線
100
AcDbLine
 10
875.0040038075949
 20
743.9999270214647
 30
0.0
 11
907.004003807595
 21
743.9999270214647
 31
0.0
  0
LINE
  5
10FCD
330
1F
100
AcDbEntity
  8
破線
100
AcDbLine
 10
1711.004003807595
 20
755.9999270214647
 30
0.0
 11
1743.004003807595
 21
755.9999270214647
 31
0.0
  0
LINE
  5
10FCE
330
1F
100
AcDbEntity
  8
破線
100
AcDbLine
 10
1711.004003807595
 20
743.9999270214647
 30
0.0
 11
1743.004003807595
 21
743.9999270214647
 31
0.0
  0
DIMENSION
  5
10FCF
330
1F
100
AcDbEntity
  8
寸法線
100
AcDbDimension
280
     0
  2
*D32
 10
1637.74108691442
 20
924.9999270214653
 30
0.0
 11
1637.74108691442
 21
795.7321600684845
 31
0.0
 70
   160
  1
%%C<>
 71
     5
 42
55.0
 73
     0
 74
     0
 75
     0
  3
STANDARD
100
AcDbAlignedDimension
 13
1637.74108691442
 23
869.9999270214647
 33
0.0
 14
1637.74108691442
 24
924.9999270214647
 34
0.0
 50
90.0
100
AcDbRotatedDimension
  0
LINE
  5
10FD0
330
1F
100
AcDbEntity
  8
仮想線
100
AcDbLine
 10
930.4670560617653
 20
514.9999270214648
 30
0.0
 11
930.4670560617653
 21
984.9999270214647
 31
0.0
  0
TEXT
  5
10FD1
330
1F
100
AcDbEntity
  8
寸法線
100
AcDbText
 10
980.1222784288123
 20
963.7999270214647
 30
0.0
 40
21.0
  1
Ａ
 72
     4
 11
989.9222784288122
 21
974.9999270214647
 31
0.0
100
AcDbText
  0
TEXT
  5
10FD2
330
1F
100
AcDbEntity
  8
寸法線
100
AcDbText
 10
980.1222784288123
 20
513.7999270214647
 30
0.0
 40
21.0
  1
Ａ
 72
     4
 11
989.9222784288122
 21
524.9999270214648
 31
0.0
100
AcDbText
  0
LINE
  5
10FD3
330
1F
100
AcDbEntity
  8
実線
100
AcDbLine
 10
1743.004003807595
 20
564.9999452660741
 30
0.0
 11
1743.004003807595
 21
934.9999452660741
 31
0.0
  0
LINE
  5
10FD4
330
1F
100
AcDbEntity
  8
実線
100
AcDbLine
 10
1759.004003807595
 20
564.9999452660741
 30
0.0
 11
1759.004003807595
 21
934.9999452660741
 31
0.0
  0
LINE
  5
10FD5
330
1F
100
AcDbEntity
  8
実線
100
AcDbLine
 10
1743.004003807595
 20
934.9999270214647
 30
0.0
 11
1759.004003807595
 21
934.9999270214647
 31
0.0
  0
LINE
  5
10FD6
330
1F
100
AcDbEntity
  8
実線
100
AcDbLine
 10
1743.004003807595
 20
564.9999270214647
 30
0.0
 11
1759.004003807595
 21
564.9999270214647
 31
0.0
  0
LINE
  5
10FD7
330
1F
100
AcDbEntity
  8
実線
100
AcDbLine
 10
1301.004003807595
 20
544.9999270214648
 30
0.0
 11
1301.004003807595
 21
954.9999270214646
 31
0.0
  0
LINE
  5
10FD8
330
1F
100
AcDbEntity
  8
実線
100
AcDbLine
 10
1317.004003807595
 20
544.9999270214648
 30
0.0
 11
1317.004003807595
 21
954.9999270214646
 31
0.0
  0
LINE
  5
10FD9
330
1F
100
AcDbEntity
  8
実線
100
AcDbLine
 10
1301.004003807595
 20
954.9999270214646
 30
0.0
 11
1317.004003807595
 21
954.9999270214646
 31
0.0
  0
LINE
  5
10FDA
330
1F
100
AcDbEntity
  8
実線
100
AcDbLine
 10
1301.004003807595
 20
544.9999270214648
 30
0.0
 11
1317.004003807595
 21
544.9999270214648
 31
0.0
  0
LINE
  5
10FDB
330
1F
100
AcDbEntity
  8
破線
100
AcDbLine
 10
1301.004003807595
 20
924.9999270214647
 30
0.0
 11
1317.004003807595
 21
924.9999270214647
 31
0.0
  0
LINE
  5
10FDC
330
1F
100
AcDbEntity
  8
破線
100
AcDbLine
 10
1301.004003807595
 20
869.9999270214647
 30
0.0
 11
1317.004003807595
 21
869.9999270214647
 31
0.0
  0
LINE
  5
10FDD
330
1F
100
AcDbEntity
  8
破線
100
AcDbLine
 10
1301.004003807595
 20
629.9999270214647
 30
0.0
 11
1317.004003807595
 21
629.9999270214647
 31
0.0
  0
LINE
  5
10FDE
330
1F
100
AcDbEntity
  8
破線
100
AcDbLine
 10
1301.004003807595
 20
574.9999270214646
 30
0.0
 11
1317.004003807595
 21
574.9999270214646
 31
0.0
  0
LINE
  5
10FDF
330
1F
100
AcDbEntity
  8
仮想線
100
AcDbLine
 10
1372.467056061765
 20
514.9999270214648
 30
0.0
 11
1372.467056061765
 21
984.9999270214647
 31
0.0
  0
TEXT
  5
10FE0
330
1F
100
AcDbEntity
  8
寸法線
100
AcDbText
 10
1421.422278428812
 20
963.7999270214647
 30
0.0
 40
21.0
  1
Ｂ
 72
     4
 11
1431.922278428812
 21
974.9999270214647
 31
0.0
100
AcDbText
  0
TEXT
  5
10FE1
330
1F
100
AcDbEntity
  8
寸法線
100
AcDbText
 10
1421.422278428812
 20
513.7999270214647
 30
0.0
 40
21.0
  1
Ｂ
 72
     4
 11
1431.922278428812
 21
524.9999270214648
 31
0.0
100
AcDbText
  0
LINE
  5
10FE2
330
1F
100
AcDbEntity
  8
実線
100
AcDbLine
 10
875.0041073926094
 20
574.9999270214646
 30
0.0
 11
1301.004003807595
 21
574.9999270214646
 31
0.0
  0
LINE
  5
10FE3
330
1F
100
AcDbEntity
  8
実線
100
AcDbLine
 10
907.004003807595
 20
629.9999270214647
 30
0.0
 11
1301.004003807595
 21
629.9999270214647
 31
0.0
  0
LINE
  5
10FE4
330
1F
100
AcDbEntity
  8
実線
100
AcDbLine
 10
875.0041073926094
 20
924.9999635107124
 30
0.0
 11
1301.004003807595
 21
924.9999635107124
 31
0.0
  0
LINE
  5
10FE5
330
1F
100
AcDbEntity
  8
実線
100
AcDbLine
 10
907.004003807595
 20
869.9999635107124
 30
0.0
 11
1301.004003807595
 21
869.9999635107124
 31
0.0
  0
LINE
  5
10FE6
330
1F
100
AcDbEntity
  8
実線
100
AcDbLine
 10
1743.00390022258
 20
574.9999270214646
 30
0.0
 11
1317.004003807595
 21
574.9999270214646
 31
0.0
  0
LINE
  5
10FE7
330
1F
100
AcDbEntity
  8
実線
100
AcDbLine
 10
1711.004003807595
 20
629.9999270214647
 30
0.0
 11
1317.004003807595
 21
629.9999270214647
 31
0.0
  0
LINE
  5
10FE8
330
1F
100
AcDbEntity
  8
実線
100
AcDbLine
 10
1743.00390022258
 20
924.9999635107124
 30
0.0
 11
1317.004003807595
 21
924.9999635107124
 31
0.0
  0
LINE
  5
10FE9
330
1F
100
AcDbEntity
  8
実線
100
AcDbLine
 10
1711.004003807595
 20
869.9999635107124
 30
0.0
 11
1317.004003807595
 21
869.9999635107124
 31
0.0
  0
LEADER
  5
10FEA
330
1F
100
AcDbEntity
  8
寸法線
100
AcDbLeader
  3
STANDARD
 76
     2
 10
930.4670560617653
 20
974.9999270214647
 30
0.0
 10
977.8637912476098
 20
974.9999270214647
 30
0.0
1001
ACAD
1000
DSTYLE
1002
{
1070
   147
1040
0.875
1070
    77
1070
     0
1070
    49
1040
0.5
1002
}
  0
LEADER
  5
10FEB
330
1F
100
AcDbEntity
  8
寸法線
100
AcDbLeader
  3
STANDARD
 76
     2
 10
930.4670560617653
 20
524.9999270214648
 30
0.0
 10
977.8637912476098
 20
524.9999270214648
 30
0.0
1001
ACAD
1000
DSTYLE
1002
{
1070
   147
1040
0.875
1070
    77
1070
     0
1070
    49
1040
0.5
1002
}
  0
LEADER
  5
10FEC
330
1F
100
AcDbEntity
  8
寸法線
100
AcDbLeader
  3
STANDARD
 76
     2
 10
1372.467056061765
 20
974.9999270214647
 30
0.0
 10
1419.86379124761
 20
974.9999270214647
 30
0.0
1001
ACAD
1000
DSTYLE
1002
{
1070
   147
1040
0.875
1070
    77
1070
     0
1070
    49
1040
0.5
1002
}
  0
LEADER
  5
10FED
330
1F
100
AcDbEntity
  8
寸法線
100
AcDbLeader
  3
STANDARD
 76
     2
 10
1372.467056061765
 20
524.9999270214648
 30
0.0
 10
1419.86379124761
 20
524.9999270214648
 30
0.0
1001
ACAD
1000
DSTYLE
1002
{
1070
   147
1040
0.875
1070
    77
1070
     0
1070
    49
1040
0.5
1002
}
  0
DIMENSION
  5
10FEE
330
1F
100
AcDbEntity
  8
寸法線
100
AcDbDimension
280
     0
  2
*D33
 10
1317.004003807595
 20
1054.999941865164
 30
0.0
 11
1309.004003807595
 21
1054.999941865164
 31
0.0
 70
   160
 71
     5
 42
16.0
 73
     0
 74
     0
 75
     0
  3
STANDARD
100
AcDbAlignedDimension
 13
1301.004003807595
 23
954.9999270214646
 33
0.0
 14
1317.004003807595
 24
954.9999270214646
 34
0.0
100
AcDbRotatedDimension
  0
DIMENSION
  5
10FEF
330
1F
100
AcDbEntity
  8
寸法線
100
AcDbDimension
280
     0
  2
*D34
 10
907.004003807595
 20
444.9999452661031
 30
0.0
 11
891.0040038075949
 21
444.9999452661031
 31
0.0
 70
   160
 71
     5
 42
32.0
 73
     0
 74
     0
 75
     0
  3
STANDARD
100
AcDbAlignedDimension
 13
875.0040038075949
 23
564.9999270214939
 33
0.0
 14
907.004003807595
 24
574.9999270214939
 34
0.0
100
AcDbRotatedDimension
  0
DIMENSION
  5
10FF0
330
1F
100
AcDbEntity
  8
寸法線
100
AcDbDimension
280
     0
  2
*D35
 10
1711.004003807595
 20
444.9999452661031
 30
0.0
 11
1309.004003807595
 21
466.249945266103
 31
0.0
 70
    32
 71
     5
 42
804.0
 73
     0
 74
     0
 75
     0
  3
STANDARD
100
AcDbAlignedDimension
 13
907.004003807595
 23
574.9999270214939
 33
0.0
 14
1711.004003807595
 24
574.9999270214646
 34
0.0
100
AcDbRotatedDimension
  0
DIMENSION
  5
10FF1
330
1F
100
AcDbEntity
  8
寸法線
100
AcDbDimension
280
     0
  2
*D36
 10
875.0040038075949
 20
384.9999452661032
 30
0.0
 11
867.0040038075949
 21
384.9999452661032
 31
0.0
 70
   160
 71
     5
 42
16.0
 73
     0
 74
     0
 75
     0
  3
STANDARD
100
AcDbAlignedDimension
 13
859.0040038075949
 23
564.9999270214939
 33
0.0
 14
875.0040038075949
 24
564.9999270214939
 34
0.0
100
AcDbRotatedDimension
  0
DIMENSION
  5
10FF2
330
1F
100
AcDbEntity
  8
寸法線
100
AcDbDimension
280
     0
  2
*D37
 10
1743.004003807595
 20
384.9999452661032
 30
0.0
 11
1309.004003807595
 21
406.2499452661032
 31
0.0
 70
    32
 71
     5
 42
868.0
 73
     0
 74
     0
 75
     0
  3
STANDARD
100
AcDbAlignedDimension
 13
875.0040038075949
 23
564.9999452661031
 33
0.0
 14
1743.004003807595
 24
564.9999270214647
 34
0.0
100
AcDbRotatedDimension
  0
DIMENSION
  5
10FF3
330
1F
100
AcDbEntity
  8
寸法線
100
AcDbDimension
280
     0
  2
*D38
 10
1759.004003807595
 20
324.9999452661032
 30
0.0
 11
1309.004003807595
 21
346.2499452661031
 31
0.0
 70
    32
 71
     5
 42
900.0
 73
     0
 74
     0
 75
     0
  3
STANDARD
100
AcDbAlignedDimension
 13
859.0040038075949
 23
564.9999452661031
 33
0.0
 14
1759.004003807595
 24
564.9999270214647
 34
0.0
100
AcDbRotatedDimension
  0
DIMENSION
  5
10FF4
330
1F
100
AcDbEntity
  8
寸法線
100
AcDbDimension
280
     0
  2
*D39
 10
1301.004003807595
 20
1054.999941865164
 30
0.0
 11
1088.004003807595
 21
1076.252402495085
 31
0.0
 70
    32
 71
     5
 42
426.0
 73
     0
 74
     0
 75
     0
  3
STANDARD
100
AcDbAlignedDimension
 13
875.0040038075949
 23
934.9999452661032
 33
0.0
 14
1301.004003807595
 24
954.9999270214646
 34
0.0
 50
0.0000040595936363
100
AcDbRotatedDimension
  0
DIMENSION
  5
10FF5
330
1F
100
AcDbEntity
  8
寸法線
100
AcDbDimension
280
     0
  2
*D40
 10
1317.004010892922
 20
1054.999927694505
 30
0.0
 11
1530.00401310726
 21
1076.252373232678
 31
0.0
 70
    32
 71
     5
 42
426.0000014170644
 73
     0
 74
     0
 75
     0
  3
STANDARD
100
AcDbAlignedDimension
 13
1743.004003807595
 23
934.9999270214647
 33
0.0
 14
1317.004003807595
 24
954.9999270214646
 34
0.0
 50
179.9999959404063
100
AcDbRotatedDimension
  0
DIMENSION
  5
10FF6
330
1F
100
AcDbEntity
  8
寸法線
100
AcDbDimension
280
     0
  2
*D41
 10
1711.004003807595
 20
444.9999452661031
 30
0.0
 11
1727.004003807595
 21
444.9999452661031
 31
0.0
 70
   160
 71
     5
 42
32.0
 73
     0
 74
     0
 75
     0
  3
STANDARD
100
AcDbAlignedDimension
 13
1743.004003807595
 23
564.9999270214939
 33
0.0
 14
1711.004003807595
 24
574.9999270214939
 34
0.0
 50
180.0
100
AcDbRotatedDimension
  0
DIMENSION
  5
10FF7
330
1F
100
AcDbEntity
  8
寸法線
100
AcDbDimension
280
     0
  2
*D42
 10
1743.004003807595
 20
384.9999452661032
 30
0.0
 11
1751.004003807595
 21
384.9999452661032
 31
0.0
 70
   160
 71
     5
 42
16.0
 73
     0
 74
     0
 75
     0
  3
STANDARD
100
AcDbAlignedDimension
 13
1759.004003807595
 23
564.9999270214939
 33
0.0
 14
1743.004003807595
 24
564.9999270214939
 34
0.0
 50
180.0
100
AcDbRotatedDimension
  0
LINE
  5
10FF8
330
1F
100
AcDbEntity
  8
破線
100
AcDbLine
 10
399.503999999999
 20
912.999945266074
 30
0.0
 11
648.5039999999989
 21
912.999945266074
 31
0.0
  0
LINE
  5
10FF9
330
1F
100
AcDbEntity
  8
破線
100
AcDbLine
 10
361.253999999999
 20
755.999945266074
 30
0.0
 11
686.753999999999
 21
755.999945266074
 31
0.0
  0
LINE
  5
10FFA
330
1F
100
AcDbEntity
  8
破線
100
AcDbLine
 10
361.253999999999
 20
743.9999452660741
 30
0.0
 11
686.753999999999
 21
743.9999452660741
 31
0.0
  0
LINE
  5
10FFB
330
1F
100
AcDbEntity
  8
破線
100
AcDbLine
 10
648.5039999999989
 20
586.9999452660739
 30
0.0
 11
399.503999999999
 21
586.9999452660739
 31
0.0
  0
LINE
  5
10FFC
330
1F
100
AcDbEntity
  8
破線
100
AcDbLine
 10
648.5039999999989
 20
574.9999452660739
 30
0.0
 11
399.503999999999
 21
574.9999452660739
 31
0.0
  0
LINE
  5
10FFD
330
1F
100
AcDbEntity
  8
破線
100
AcDbLine
 10
399.503999999999
 20
924.9999452660741
 30
0.0
 11
648.5039999999989
 21
924.9999452660741
 31
0.0
  0
LINE
  5
10FFE
330
1F
100
AcDbEntity
  8
中心線
100
AcDbLine
 10
329.0041073926095
 20
749.999945266074
 30
0.0
 11
719.0041073926095
 21
749.999945266074
 31
0.0
  0
LINE
  5
10FFF
330
1F
100
AcDbEntity
  8
実線
100
AcDbLine
 10
339.0041073926095
 20
934.9999635107124
 30
0.0
 11
709.0041073926093
 21
934.9999635107124
 31
0.0
  0
LINE
  5
11000
330
1F
100
AcDbEntity
  8
実線
100
AcDbLine
 10
339.0041073926095
 20
564.9999635107124
 30
0.0
 11
709.0041073926093
 21
564.9999635107124
 31
0.0
  0
LINE
  5
11001
330
1F
100
AcDbEntity
  8
破線
100
AcDbLine
 10
361.003999999999
 20
625.4999452660739
 30
0.0
 11
361.003999999999
 21
874.499945266074
 31
0.0
  0
LINE
  5
11002
330
1F
100
AcDbEntity
  8
破線
100
AcDbLine
 10
349.003999999999
 20
625.4999452660739
 30
0.0
 11
349.003999999999
 21
874.499945266074
 31
0.0
  0
LINE
  5
11003
330
1F
100
AcDbEntity
  8
実線
100
AcDbLine
 10
339.0041073926095
 20
564.9999635107124
 30
0.0
 11
339.0041073926095
 21
934.9999635107124
 31
0.0
  0
LINE
  5
11004
330
1F
100
AcDbEntity
  8
中心線
100
AcDbLine
 10
376.503999999999
 20
652.4999452660741
 30
0.0
 11
376.503999999999
 21
552.4999452660741
 31
0.0
  0
LINE
  5
11005
330
1F
100
AcDbEntity
  8
中心線
100
AcDbLine
 10
326.503999999999
 20
602.4999452660741
 30
0.0
 11
426.503999999999
 21
602.4999452660741
 31
0.0
  0
CIRCLE
  5
11006
330
1F
100
AcDbEntity
  8
破線
100
AcDbCircle
 10
376.503999999999
 20
602.4999452660741
 30
0.0
 40
27.5
  0
LINE
  5
11007
330
1F
100
AcDbEntity
  8
破線
100
AcDbLine
 10
399.503999999999
 20
574.9999452660739
 30
0.0
 11
399.503999999999
 21
586.9999452660739
 31
0.0
  0
LINE
  5
11008
330
1F
100
AcDbEntity
  8
破線
100
AcDbLine
 10
349.003999999999
 20
625.4999452660739
 30
0.0
 11
361.003999999999
 21
625.4999452660739
 31
0.0
  0
LINE
  5
11009
330
1F
100
AcDbEntity
  8
破線
100
AcDbLine
 10
361.253999999999
 20
743.9999452660741
 30
0.0
 11
361.253999999999
 21
755.999945266074
 31
0.0
  0
LINE
  5
1100A
330
1F
100
AcDbEntity
  8
中心線
100
AcDbLine
 10
326.503999999999
 20
897.4999452660741
 30
0.0
 11
426.503999999999
 21
897.4999452660741
 31
0.0
  0
LINE
  5
1100B
330
1F
100
AcDbEntity
  8
中心線
100
AcDbLine
 10
376.503999999999
 20
947.4999452660741
 30
0.0
 11
376.503999999999
 21
847.4999452660741
 31
0.0
  0
CIRCLE
  5
1100C
330
1F
100
AcDbEntity
  8
破線
100
AcDbCircle
 10
376.503999999999
 20
897.4999452660741
 30
0.0
 40
27.5
  0
LINE
  5
1100D
330
1F
100
AcDbEntity
  8
破線
100
AcDbLine
 10
349.003999999999
 20
874.499945266074
 30
0.0
 11
361.003999999999
 21
874.499945266074
 31
0.0
  0
LINE
  5
1100E
330
1F
100
AcDbEntity
  8
破線
100
AcDbLine
 10
399.503999999999
 20
924.9999452660741
 30
0.0
 11
399.503999999999
 21
912.999945266074
 31
0.0
  0
LINE
  5
1100F
330
1F
100
AcDbEntity
  8
破線
100
AcDbLine
 10
687.0039999999988
 20
874.499945266074
 30
0.0
 11
687.0039999999988
 21
625.4999452660739
 31
0.0
  0
LINE
  5
11010
330
1F
100
AcDbEntity
  8
破線
100
AcDbLine
 10
518.003999999999
 20
912.4999452660741
 30
0.0
 11
518.003999999999
 21
755.999945266074
 31
0.0
  0
LINE
  5
11011
330
1F
100
AcDbEntity
  8
破線
100
AcDbLine
 10
530.003999999999
 20
912.4999452660741
 30
0.0
 11
530.003999999999
 21
755.999945266074
 31
0.0
  0
LINE
  5
11012
330
1F
100
AcDbEntity
  8
破線
100
AcDbLine
 10
699.0039999999988
 20
874.499945266074
 30
0.0
 11
699.0039999999988
 21
625.4999452660739
 31
0.0
  0
LINE
  5
11013
330
1F
100
AcDbEntity
  8
中心線
100
AcDbLine
 10
524.0039999999988
 20
944.9999635107124
 30
0.0
 11
524.0039999999988
 21
554.9999635107123
 31
0.0
  0
LINE
  5
11014
330
1F
100
AcDbEntity
  8
実線
100
AcDbLine
 10
709.0041073926093
 20
564.9999635107124
 30
0.0
 11
709.0041073926093
 21
934.9999635107124
 31
0.0
  0
LINE
  5
11015
330
1F
100
AcDbEntity
  8
破線
100
AcDbLine
 10
518.003999999999
 20
743.9999452660741
 30
0.0
 11
518.003999999999
 21
587.4999452660739
 31
0.0
  0
LINE
  5
11016
330
1F
100
AcDbEntity
  8
破線
100
AcDbLine
 10
530.003999999999
 20
743.9999452660741
 30
0.0
 11
530.003999999999
 21
587.4999452660739
 31
0.0
  0
LINE
  5
11017
330
1F
100
AcDbEntity
  8
中心線
100
AcDbLine
 10
671.503999999999
 20
652.4999452660741
 30
0.0
 11
671.503999999999
 21
552.4999452660741
 31
0.0
  0
LINE
  5
11018
330
1F
100
AcDbEntity
  8
中心線
100
AcDbLine
 10
621.503999999999
 20
602.4999452660741
 30
0.0
 11
721.5039999999988
 21
602.4999452660741
 31
0.0
  0
LINE
  5
11019
330
1F
100
AcDbEntity
  8
破線
100
AcDbLine
 10
518.003999999999
 20
587.4999452660739
 30
0.0
 11
530.003999999999
 21
587.4999452660739
 31
0.0
  0
CIRCLE
  5
1101A
330
1F
100
AcDbEntity
  8
破線
100
AcDbCircle
 10
671.503999999999
 20
602.4999452660741
 30
0.0
 40
27.5
  0
LINE
  5
1101B
330
1F
100
AcDbEntity
  8
破線
100
AcDbLine
 10
648.5039999999989
 20
574.9999452660739
 30
0.0
 11
648.5039999999989
 21
586.9999452660739
 31
0.0
  0
LINE
  5
1101C
330
1F
100
AcDbEntity
  8
破線
100
AcDbLine
 10
699.0039999999988
 20
625.4999452660739
 30
0.0
 11
687.0039999999988
 21
625.4999452660739
 31
0.0
  0
LINE
  5
1101D
330
1F
100
AcDbEntity
  8
破線
100
AcDbLine
 10
686.753999999999
 20
755.999945266074
 30
0.0
 11
686.753999999999
 21
743.9999452660741
 31
0.0
  0
LINE
  5
1101E
330
1F
100
AcDbEntity
  8
中心線
100
AcDbLine
 10
621.503999999999
 20
897.4999452660741
 30
0.0
 11
721.5039999999988
 21
897.4999452660741
 31
0.0
  0
LINE
  5
1101F
330
1F
100
AcDbEntity
  8
破線
100
AcDbLine
 10
518.003999999999
 20
912.4999452660741
 30
0.0
 11
530.003999999999
 21
912.4999452660741
 31
0.0
  0
LINE
  5
11020
330
1F
100
AcDbEntity
  8
中心線
100
AcDbLine
 10
671.503999999999
 20
947.4999452660741
 30
0.0
 11
671.503999999999
 21
847.4999452660741
 31
0.0
  0
CIRCLE
  5
11021
330
1F
100
AcDbEntity
  8
破線
100
AcDbCircle
 10
671.503999999999
 20
897.4999452660741
 30
0.0
 40
27.5
  0
LINE
  5
11022
330
1F
100
AcDbEntity
  8
破線
100
AcDbLine
 10
699.0039999999988
 20
874.499945266074
 30
0.0
 11
687.0039999999988
 21
874.499945266074
 31
0.0
  0
LINE
  5
11023
330
1F
100
AcDbEntity
  8
破線
100
AcDbLine
 10
648.5039999999989
 20
924.9999452660741
 30
0.0
 11
648.5039999999989
 21
912.999945266074
 31
0.0
  0
DIMENSION
  5
11024
330
1F
100
AcDbEntity
  8
寸法線
100
AcDbDimension
280
     0
  2
*D21
 10
219.0039999999988
 20
934.9999635107128
 30
0.0
 11
219.003999999999
 21
749.9999635107124
 31
0.0
 70
   160
 71
     5
 42
370.0000000000002
 73
     0
 74
     0
 75
     0
  3
STANDARD
100
AcDbAlignedDimension
 13
339.0038926073594
 23
564.9999635107124
 33
0.0
 14
339.0038926073594
 24
934.9999635107124
 34
0.0
 50
90.0
100
AcDbRotatedDimension
  0
DIMENSION
  5
11025
330
1F
100
AcDbEntity
  8
寸法線
100
AcDbDimension
280
     0
  2
*D22
 10
709.0041073926093
 20
444.9999635107123
 30
0.0
 11
524.0041073926095
 21
444.9999635107123
 31
0.0
 70
   160
 71
     5
 42
370.0
 73
     0
 74
     0
 75
     0
  3
STANDARD
100
AcDbAlignedDimension
 13
339.0041073926095
 23
564.9999635107124
 33
0.0
 14
709.0041073926093
 24
564.9999635107124
 34
0.0
100
AcDbRotatedDimension
  0
LINE
  5
11026
330
1F
100
AcDbEntity
  8
実線
100
AcDbLine
 10
2464.004003807595
 20
524.9999817553507
 30
0.0
 11
2874.004003807595
 21
524.9999817553507
 31
0.0
  0
LINE
  5
11027
330
1F
100
AcDbEntity
  8
実線
100
AcDbLine
 10
2464.004003807595
 20
524.9999817553507
 30
0.0
 11
2464.004003807595
 21
934.9999817553507
 31
0.0
  0
LINE
  5
11028
330
1F
100
AcDbEntity
  8
実線
100
AcDbLine
 10
2874.004003807595
 20
524.9999817553507
 30
0.0
 11
2874.004003807595
 21
934.9999817553507
 31
0.0
  0
LINE
  5
11029
330
1F
100
AcDbEntity
  8
実線
100
AcDbLine
 10
2464.004003807595
 20
934.9999817553507
 30
0.0
 11
2874.004003807595
 21
934.9999817553507
 31
0.0
  0
LINE
  5
1102A
330
1F
100
AcDbEntity
  8
中心線
100
AcDbLine
 10
2669.004003807595
 20
944.9999817553507
 30
0.0
 11
2669.004003807595
 21
514.9999817553507
 31
0.0
  0
CIRCLE
  5
1102B
330
1F
100
AcDbEntity
  8
実線
100
AcDbCircle
 10
2816.504003807596
 20
877.4999817553506
 30
0.0
 40
27.5
  0
LINE
  5
1102C
330
1F
100
AcDbEntity
  8
中心線
100
AcDbLine
 10
2816.504003807596
 20
927.4999817553506
 30
0.0
 11
2816.504003807596
 21
827.4999817553506
 31
0.0
  0
LINE
  5
1102D
330
1F
100
AcDbEntity
  8
中心線
100
AcDbLine
 10
2766.504003807595
 20
877.4999817553506
 30
0.0
 11
2866.504003807595
 21
877.4999817553506
 31
0.0
  0
LINE
  5
1102E
330
1F
100
AcDbEntity
  8
中心線
100
AcDbLine
 10
2766.504003807595
 20
582.4999817553507
 30
0.0
 11
2866.504003807595
 21
582.4999817553507
 31
0.0
  0
LINE
  5
1102F
330
1F
100
AcDbEntity
  8
中心線
100
AcDbLine
 10
2816.504003807596
 20
632.4999817553507
 30
0.0
 11
2816.504003807596
 21
532.4999817553507
 31
0.0
  0
CIRCLE
  5
11030
330
1F
100
AcDbEntity
  8
実線
100
AcDbCircle
 10
2816.504003807596
 20
582.4999817553507
 30
0.0
 40
27.5
  0
LINE
  5
11031
330
1F
100
AcDbEntity
  8
中心線
100
AcDbLine
 10
2521.504003807595
 20
632.4999817553507
 30
0.0
 11
2521.504003807595
 21
532.4999817553507
 31
0.0
  0
LINE
  5
11032
330
1F
100
AcDbEntity
  8
中心線
100
AcDbLine
 10
2471.504003807595
 20
582.4999817553507
 30
0.0
 11
2571.504003807595
 21
582.4999817553507
 31
0.0
  0
CIRCLE
  5
11033
330
1F
100
AcDbEntity
  8
実線
100
AcDbCircle
 10
2521.504003807595
 20
582.4999817553507
 30
0.0
 40
27.5
  0
LINE
  5
11034
330
1F
100
AcDbEntity
  8
中心線
100
AcDbLine
 10
2521.504003807595
 20
927.4999817553506
 30
0.0
 11
2521.504003807595
 21
827.4999817553506
 31
0.0
  0
LINE
  5
11035
330
1F
100
AcDbEntity
  8
中心線
100
AcDbLine
 10
2471.504003807595
 20
877.4999817553506
 30
0.0
 11
2571.504003807595
 21
877.4999817553506
 31
0.0
  0
CIRCLE
  5
11036
330
1F
100
AcDbEntity
  8
実線
100
AcDbCircle
 10
2521.504003807595
 20
877.4999817553506
 30
0.0
 40
27.5
  0
DIMENSION
  5
11037
330
1F
100
AcDbEntity
  8
寸法線
100
AcDbDimension
280
     0
  2
*D23
 10
2874.004003807595
 20
444.9999817553507
 30
0.0
 11
2669.004003807595
 21
466.2499817553507
 31
0.0
 70
    32
 71
     5
 42
410.0
 73
     0
 74
     0
 75
     0
  3
STANDARD
100
AcDbAlignedDimension
 13
2464.004003807595
 23
524.9999817553507
 33
0.0
 14
2874.004003807595
 24
524.9999817553507
 34
0.0
100
AcDbRotatedDimension
  0
DIMENSION
  5
11038
330
1F
100
AcDbEntity
  8
寸法線
100
AcDbDimension
280
     0
  2
*D24
 10
2954.004003807826
 20
934.9999817553513
 30
0.0
 11
2932.754003807826
 21
729.9999817553501
 31
0.0
 70
    32
 71
     5
 42
410.0000000000001
 73
     0
 74
     0
 75
     0
  3
STANDARD
100
AcDbAlignedDimension
 13
2874.004003807595
 23
524.9999817553507
 33
0.0
 14
2874.004003807595
 24
934.9999817553507
 34
0.0
 50
90.0
100
AcDbRotatedDimension
  0
CIRCLE
  5
11039
330
1F
100
AcDbEntity
  8
実線
100
AcDbCircle
 10
2669.004003807595
 20
729.9999817553507
 30
0.0
 40
125.0
  0
CIRCLE
  5
1103A
330
1F
100
AcDbEntity
  8
実線
100
AcDbCircle
 10
2521.504003807595
 20
877.4999817553506
 30
0.0
 40
28.75
  0
CIRCLE
  5
1103B
330
1F
100
AcDbEntity
  8
実線
100
AcDbCircle
 10
2521.504003807595
 20
582.4999817553507
 30
0.0
 40
28.75
  0
CIRCLE
  5
1103C
330
1F
100
AcDbEntity
  8
実線
100
AcDbCircle
 10
2816.504003807596
 20
582.4999817553507
 30
0.0
 40
28.75
  0
CIRCLE
  5
1103D
330
1F
100
AcDbEntity
  8
実線
100
AcDbCircle
 10
2816.504003807596
 20
877.4999817553506
 30
0.0
 40
28.75
  0
LINE
  5
11040
330
1F
100
AcDbEntity
  8
中心線
100
AcDbLine
 10
2454.004003807595
 20
729.9999817553507
 30
0.0
 11
2884.004003807596
 21
729.9999817553507
 31
0.0
  0
DIMENSION
  5
11041
330
1F
100
AcDbEntity
  8
寸法線
100
AcDbDimension
280
     0
  2
*D25
 10
2777.257179280608
 20
792.4999817554566
 30
0.0
 11
2717.829253104242
 21
758.1892525799455
 31
0.0
 70
   160
  1
%%C<>
 71
     5
 42
250.0000000000073
 73
     0
 74
     0
 75
     0
  3
STANDARD
100
AcDbAlignedDimension
 13
2560.750828334551
 23
667.4999817553507
 33
0.0
 14
2777.257179280669
 24
792.4999817553507
 34
0.0
 50
30.00000000014826
100
AcDbRotatedDimension
  0
LINE
  5
11042
330
1F
100
AcDbEntity
  8
実線
100
AcDbLine
 10
1954.474692632253
 20
913.0002161833001
 30
0.0
 11
2203.474692632253
 21
913.0002161833001
 31
0.0
  0
LINE
  5
11043
330
1F
100
AcDbEntity
  8
実線
100
AcDbLine
 10
1954.474692632253
 20
925.0002161832997
 30
0.0
 11
2203.474692632253
 21
925.0002161832997
 31
0.0
  0
LINE
  5
11044
330
1F
100
AcDbEntity
  8
実線
100
AcDbLine
 10
2203.474692632253
 20
575.0002161832997
 30
0.0
 11
1954.474692632253
 21
575.0002161832997
 31
0.0
  0
DIMENSION
  5
11046
330
1F
100
AcDbEntity
  8
寸法線
100
AcDbDimension
280
     0
  2
*D26
 10
2226.474384776242
 20
444.9999817553507
 30
0.0
 11
2078.974692632253
 21
444.9999817553507
 31
0.0
 70
   160
 71
     5
 42
295.0
 73
     0
 74
     0
 75
     0
  3
STANDARD
100
AcDbAlignedDimension
 13
1931.474384776242
 23
549.9999635107415
 33
0.0
 14
2226.474384776242
 24
549.9999635107415
 34
0.0
100
AcDbRotatedDimension
  0
LINE
  5
11047
330
1F
100
AcDbEntity
  8
実線
100
AcDbLine
 10
1893.974467926409
 20
564.9999817553507
 30
0.0
 11
2263.974467926409
 21
564.9999817553507
 31
0.0
  0
LINE
  5
11048
330
1F
100
AcDbEntity
  8
実線
100
AcDbLine
 10
1893.974467926409
 20
934.9999817553507
 30
0.0
 11
2263.974467926409
 21
934.9999817553507
 31
0.0
  0
LINE
  5
11049
330
1F
100
AcDbEntity
  8
中心線
100
AcDbLine
 10
1868.974484776247
 20
750.0002161832997
 30
0.0
 11
2288.974484776247
 21
750.0002161832997
 31
0.0
  0
LINE
  5
1104A
330
1F
100
AcDbEntity
  8
実線
100
AcDbLine
 10
1916.224692632253
 20
756.0002161832998
 30
0.0
 11
2241.724692632253
 21
756.0002161832998
 31
0.0
  0
LINE
  5
1104B
330
1F
100
AcDbEntity
  8
実線
100
AcDbLine
 10
1916.224692632253
 20
744.0002161832998
 30
0.0
 11
2241.724692632253
 21
744.0002161832998
 31
0.0
  0
LINE
  5
1104C
330
1F
100
AcDbEntity
  8
実線
100
AcDbLine
 10
1903.974692632253
 20
625.5002161832997
 30
0.0
 11
1903.974692632253
 21
874.5002161832998
 31
0.0
  0
LINE
  5
1104D
330
1F
100
AcDbEntity
  8
実線
100
AcDbLine
 10
1903.974692632253
 20
625.5002161832997
 30
0.0
 11
1915.974692632253
 21
625.5002161832997
 31
0.0
  0
LINE
  5
1104E
330
1F
100
AcDbEntity
  8
実線
100
AcDbLine
 10
1954.474692632253
 20
575.0002161832997
 30
0.0
 11
1954.474692632253
 21
587.0002161832997
 31
0.0
  0
LINE
  5
1104F
330
1F
100
AcDbEntity
  8
実線
100
AcDbLine
 10
1916.224692632253
 20
744.0002161832998
 30
0.0
 11
1916.224692632253
 21
756.0002161832998
 31
0.0
  0
LINE
  5
11050
330
1F
100
AcDbEntity
  8
実線
100
AcDbLine
 10
1903.974692632253
 20
874.5002161832998
 30
0.0
 11
1915.974692632253
 21
874.5002161832998
 31
0.0
  0
LINE
  5
11051
330
1F
100
AcDbEntity
  8
実線
100
AcDbLine
 10
1954.474692632253
 20
925.0002161832997
 30
0.0
 11
1954.474692632253
 21
913.0002161833001
 31
0.0
  0
LINE
  5
11052
330
1F
100
AcDbEntity
  8
実線
100
AcDbLine
 10
2083.474692632254
 20
912.5002161832997
 30
0.0
 11
2083.474692632254
 21
756.0002161832998
 31
0.0
  0
LINE
  5
11053
330
1F
100
AcDbEntity
  8
実線
100
AcDbLine
 10
2074.474692632253
 20
912.5002161832997
 30
0.0
 11
2074.474692632253
 21
756.0002161832998
 31
0.0
  0
DIMENSION
  5
11054
330
1F
100
AcDbEntity
  8
寸法線
100
AcDbDimension
280
     0
  2
*D27
 10
2383.97446792641
 20
934.9999817553513
 30
0.0
 11
2383.97446792641
 21
916.2499726330457
 31
0.0
 70
   160
 71
     5
 42
37.50001824460925
 73
     0
 74
     0
 75
     0
  3
STANDARD
100
AcDbAlignedDimension
 13
2278.974384776242
 23
897.4999635107414
 33
0.0
 14
2263.974467926409
 24
934.9999817553507
 34
0.0
 50
90.0
100
AcDbRotatedDimension
  0
LINE
  5
11055
330
1F
100
AcDbEntity
  8
実線
100
AcDbLine
 10
2263.974467926409
 20
564.9999817553507
 30
0.0
 11
2263.974467926409
 21
934.9999817553507
 31
0.0
  0
LINE
  5
11056
330
1F
100
AcDbEntity
  8
実線
100
AcDbLine
 10
2083.474692632254
 20
744.0002161832998
 30
0.0
 11
2083.474692632254
 21
587.5002161832997
 31
0.0
  0
LINE
  5
11057
330
1F
100
AcDbEntity
  8
実線
100
AcDbLine
 10
2074.474692632253
 20
744.0002161832998
 30
0.0
 11
2074.474692632253
 21
587.5002161832997
 31
0.0
  0
LINE
  5
11058
330
1F
100
AcDbEntity
  8
実線
100
AcDbLine
 10
2253.974692632253
 20
874.5002161832998
 30
0.0
 11
2253.974692632253
 21
625.5002161832997
 31
0.0
  0
LINE
  5
11059
330
1F
100
AcDbEntity
  8
実線
100
AcDbLine
 10
2241.974692632253
 20
874.5002161832998
 30
0.0
 11
2241.974692632253
 21
625.5002161832997
 31
0.0
  0
DIMENSION
  5
1105A
330
1F
100
AcDbEntity
  8
寸法線
100
AcDbDimension
280
     0
  2
*D28
 10
2383.97446792641
 20
897.4999635107421
 30
0.0
 11
2383.97446792641
 21
750.0002161832997
 31
0.0
 70
   160
 71
     5
 42
295.0000000000001
 73
     0
 74
     0
 75
     0
  3
STANDARD
100
AcDbAlignedDimension
 13
2278.974384776242
 23
602.4999635107413
 33
0.0
 14
2278.974384776242
 24
897.4999635107414
 34
0.0
 50
90.0
100
AcDbRotatedDimension
  0
LINE
  5
1105B
330
1F
100
AcDbEntity
  8
実線
100
AcDbLine
 10
2074.474692632253
 20
587.5002161832997
 30
0.0
 11
2083.474692632254
 21
587.5002161832997
 31
0.0
  0
LINE
  5
1105C
330
1F
100
AcDbEntity
  8
実線
100
AcDbLine
 10
2203.474692632253
 20
575.0002161832997
 30
0.0
 11
2203.474692632253
 21
587.0002161832997
 31
0.0
  0
DIMENSION
  5
1105D
330
1F
100
AcDbEntity
  8
寸法線
100
AcDbDimension
280
     0
  2
*D29
 10
2383.97446792641
 20
602.4999635107417
 30
0.0
 11
2383.97446792641
 21
583.7499726330456
 31
0.0
 70
   160
 71
     5
 42
37.49998175539076
 73
     0
 74
     0
 75
     0
  3
STANDARD
100
AcDbAlignedDimension
 13
2263.974467926409
 23
564.9999817553507
 33
0.0
 14
2278.974384776242
 24
602.4999635107413
 34
0.0
 50
90.0
100
AcDbRotatedDimension
  0
DIMENSION
  5
1105E
330
1F
100
AcDbEntity
  8
寸法線
100
AcDbDimension
280
     0
  2
*D30
 10
2263.974467926409
 20
444.9999817553507
 30
0.0
 11
2245.224426351326
 21
444.9999817553507
 31
0.0
 70
   160
 71
     5
 42
37.50008315016748
 73
     0
 74
     0
 75
     0
  3
STANDARD
100
AcDbAlignedDimension
 13
2226.474384776242
 23
549.9999635107415
 33
0.0
 14
2263.974467926409
 24
564.9999817553507
 34
0.0
100
AcDbRotatedDimension
  0
LINE
  5
1105F
330
1F
100
AcDbEntity
  8
実線
100
AcDbLine
 10
2253.974692632253
 20
625.5002161832997
 30
0.0
 11
2241.974692632253
 21
625.5002161832997
 31
0.0
  0
LINE
  5
11060
330
1F
100
AcDbEntity
  8
実線
100
AcDbLine
 10
2241.724692632253
 20
756.0002161832998
 30
0.0
 11
2241.724692632253
 21
744.0002161832998
 31
0.0
  0
LINE
  5
11061
330
1F
100
AcDbEntity
  8
実線
100
AcDbLine
 10
2253.974692632253
 20
874.5002161832998
 30
0.0
 11
2241.974692632253
 21
874.5002161832998
 31
0.0
  0
LINE
  5
11062
330
1F
100
AcDbEntity
  8
実線
100
AcDbLine
 10
2074.474692632253
 20
912.5002161832997
 30
0.0
 11
2083.474692632254
 21
912.5002161832997
 31
0.0
  0
LINE
  5
11063
330
1F
100
AcDbEntity
  8
実線
100
AcDbLine
 10
2203.474692632253
 20
925.0002161832997
 30
0.0
 11
2203.474692632253
 21
913.0002161833001
 31
0.0
  0
CIRCLE
  5
11064
330
1F
100
AcDbEntity
  8
実線
100
AcDbCircle
 10
1931.474692632253
 20
897.5002161833
 30
0.0
 40
27.5
  0
CIRCLE
  5
11065
330
1F
100
AcDbEntity
  8
実線
100
AcDbCircle
 10
2226.474692632253
 20
897.5002161833
 30
0.0
 40
27.5
  0
CIRCLE
  5
11066
330
1F
100
AcDbEntity
  8
実線
100
AcDbCircle
 10
1931.474692632253
 20
602.5002161832998
 30
0.0
 40
27.5
  0
CIRCLE
  5
11067
330
1F
100
AcDbEntity
  8
実線
100
AcDbCircle
 10
2226.474692632253
 20
602.5002161832998
 30
0.0
 40
27.5
  0
LINE
  5
11068
330
1F
100
AcDbEntity
  8
実線
100
AcDbLine
 10
1915.974692632253
 20
625.5002161832997
 30
0.0
 11
1915.974692632253
 21
874.5002161832998
 31
0.0
  0
LINE
  5
11069
330
1F
100
AcDbEntity
  8
実線
100
AcDbLine
 10
2203.474692632253
 20
587.0002161832997
 30
0.0
 11
1954.474692632253
 21
587.0002161832997
 31
0.0
  0
LINE
  5
1106A
330
1F
100
AcDbEntity
  8
中心線
100
AcDbLine
 10
2078.974484776247
 20
539.9999161833147
 30
0.0
 11
2078.974484776247
 21
959.9999161833148
 31
0.0
  0
LINE
  5
1106C
330
1F
100
AcDbEntity
  8
中心線
100
AcDbLine
 10
1878.974384776242
 20
897.4999635107414
 30
0.0
 11
1983.974384776242
 21
897.4999635107414
 31
0.0
  0
LINE
  5
1106D
330
1F
100
AcDbEntity
  8
中心線
100
AcDbLine
 10
1931.474384776242
 20
844.9999635107413
 30
0.0
 11
1931.474384776242
 21
949.9999635107414
 31
0.0
  0
LINE
  5
1106E
330
1F
100
AcDbEntity
  8
中心線
100
AcDbLine
 10
1878.974384776242
 20
602.4999635107413
 30
0.0
 11
1983.974384776242
 21
602.4999635107413
 31
0.0
  0
LINE
  5
1106F
330
1F
100
AcDbEntity
  8
中心線
100
AcDbLine
 10
1931.474384776242
 20
549.9999635107415
 30
0.0
 11
1931.474384776242
 21
654.9999635107415
 31
0.0
  0
LINE
  5
11070
330
1F
100
AcDbEntity
  8
中心線
100
AcDbLine
 10
2173.974384776242
 20
897.4999635107414
 30
0.0
 11
2278.974384776242
 21
897.4999635107414
 31
0.0
  0
LINE
  5
11071
330
1F
100
AcDbEntity
  8
中心線
100
AcDbLine
 10
2226.474384776242
 20
844.9999635107413
 30
0.0
 11
2226.474384776242
 21
949.9999635107414
 31
0.0
  0
LINE
  5
11072
330
1F
100
AcDbEntity
  8
中心線
100
AcDbLine
 10
2173.974384776242
 20
602.4999635107413
 30
0.0
 11
2278.974384776242
 21
602.4999635107413
 31
0.0
  0
LINE
  5
11073
330
1F
100
AcDbEntity
  8
中心線
100
AcDbLine
 10
2226.474384776242
 20
549.9999635107415
 30
0.0
 11
2226.474384776242
 21
654.9999635107415
 31
0.0
  0
LINE
  5
11074
330
1F
100
AcDbEntity
  8
実線
100
AcDbLine
 10
1893.974501626084
 20
564.9999817553507
 30
0.0
 11
1893.974501626084
 21
934.9999817553507
 31
0.0
  0
DIMENSION
  5
11075
330
1F
100
AcDbEntity
  8
寸法線
100
AcDbDimension
280
     0
  2
*D31
 10
1893.974501626084
 20
444.9999817553507
 30
0.0
 11
1912.724443201163
 21
444.9999817553507
 31
0.0
 70
   160
 71
     5
 42
37.49988315015798
 73
     0
 74
     0
 75
     0
  3
STANDARD
100
AcDbAlignedDimension
 13
1931.474384776242
 23
549.9999635107415
 33
0.0
 14
1893.974501626084
 24
564.9999817553507
 34
0.0
 50
180.0
100
AcDbRotatedDimension
  0
TEXT
  5
114F7
330
1F
100
AcDbEntity
  8
寸法線
100
AcDbText
 10
2600.139291229555
 20
391.7287701034402
 30
0.0
 40
24.0
  1
断面Ｂ－Ｂ
100
AcDbText
  0
LINE
  5
114F8
330
1F
100
AcDbEntity
  8
寸法線
100
AcDbLine
 10
2588.737023990032
 20
384.9999452661032
 30
0.0
 11
2749.270983625158
 21
384.9999452661032
 31
0.0
  0
TEXT
  5
114F9
330
1F
100
AcDbEntity
  8
寸法線
100
AcDbText
 10
2008.97446792641
 20
393.7499452661032
 30
0.0
 40
25.0
  1
断面Ａ－Ａ
 72
     1
 11
2078.974467926411
 21
393.7499452661032
 31
0.0
100
AcDbText
 73
     1
  0
LINE
  5
114FA
330
1F
100
AcDbEntity
  8
寸法線
100
AcDbLine
 10
2000.224467926409
 20
384.9999452661032
 30
0.0
 11
2157.72446792641
 21
384.9999452661032
 31
0.0
  0
LEADER
  5
11544
330
1F
100
AcDbEntity
  8
寸法線
100
AcDbLeader
  3
STANDARD
 76
     2
 10
2486.49997907772
 20
2166.499925560653
 30
0.0
 10
2292.335239802984
 20
2166.499925560653
 30
0.0
1001
ACAD
1000
DSTYLE
1002
{
1070
   147
1040
0.875
1070
    77
1070
     0
1002
}
  0
VIEWPORT
  5
794
330
78D
100
AcDbEntity
 67
     1
  8
0
348
D1BD
100
AcDbViewport
 10
204.0995798351864
 20
142.5892483948869
 30
0.0
 40
568.7138760531154
 41
287.6682269700984
 68
     1
 69
     1
 12
204.0995798351864
 22
142.5892483948869
 13
0.0
 23
0.0
 14
10.0
 24
10.0
 15
10.0
 25
10.0
 16
0.0
 26
0.0
 36
1.0
 17
0.0
 27
0.0
 37
0.0
 42
50.0
 43
0.0
 44
0.0
 45
287.6682269700984
 50
0.0
 51
0.0
 72
  1000
 90
    32800
  1

281
     0
 71
     1
 74
     0
110
0.0
120
0.0
130
0.0
111
1.0
121
0.0
131
0.0
112
0.0
122
1.0
132
0.0
 79
     0
146
0.0
170
     0
 61
     5
348
D1BD
292
     1
282
     1
141
0.0
142
0.0
 63
   250
421
  3355443
  0
VIEWPORT
  5
796
330
78D
100
AcDbEntity
 67
     1
  8
Defpoints
348
D1BD
100
AcDbViewport
 10
204.099579334259
 20
142.5892481803894
 30
0.0
 40
408.1991586685178
 41
285.1784963607788
 68
     2
 69
     2
 12
2100.207206595808
 22
1486.804522350007
 13
0.0
 23
0.0
 14
10.0
 24
10.0
 15
10.0
 25
10.0
 16
0.0
 26
0.0
 36
1.0
 17
0.0
 27
0.0
 37
0.0
 42
50.0
 43
0.0
 44
0.0
 45
2851.784980677949
 50
0.0
 51
0.0
 72
  1000
 90
    32864
  1

281
     0
 71
     1
 74
     0
110
0.0
120
0.0
130
0.0
111
1.0
121
0.0
131
0.0
112
0.0
122
1.0
132
0.0
 79
     0
146
0.0
170
     0
 61
     5
348
D1BD
292
     1
282
     1
141
0.0
142
0.0
 63
   250
421
  3355443
  0
LINE
  5
9A2
330
78D
100
AcDbEntity
 67
     1
  8
図面枠
100
AcDbLine
 10
6.513470200951007
 20
6.589249999999998
 30
0.0
 11
6.513470200951007
 21
278.58925
 31
0.0
  0
LINE
  5
9A3
330
78D
100
AcDbEntity
 67
     1
  8
図面枠
100
AcDbLine
 10
404.0995999999998
 20
6.589249999999998
 30
0.0
 11
404.0995999999998
 21
278.58925
 31
0.0
  0
LINE
  5
9A4
330
78D
100
AcDbEntity
 67
     1
  8
図面枠
100
AcDbLine
 10
6.513470200951007
 20
278.58925
 30
0.0
 11
404.0995999999998
 21
278.58925
 31
0.0
  0
LINE
  5
9A5
330
78D
100
AcDbEntity
 67
     1
  8
図面枠
100
AcDbLine
 10
6.513470200951007
 20
6.589249999999998
 30
0.0
 11
404.0995999999998
 21
6.589249999999991
 31
0.0
  0
LINE
  5
E6D4
330
78D
100
AcDbEntity
 67
     1
  8
図面枠
100
AcDbLine
 10
289.0996
 20
36.58924999999999
 30
0.0
 11
404.0995999999998
 21
36.58924999999999
 31
0.0
  0
LINE
  5
E6D5
330
78D
100
AcDbEntity
 67
     1
  8
図面枠
100
AcDbLine
 10
289.0996
 20
30.58924999999999
 30
0.0
 11
404.0995999999998
 21
30.58924999999999
 31
0.0
  0
LINE
  5
E6D6
330
78D
100
AcDbEntity
 67
     1
  8
図面枠
100
AcDbLine
 10
289.0996
 20
36.5893
 30
0.0
 11
289.0996
 21
6.589249999999991
 31
0.0
  0
LINE
  5
E6D7
330
78D
100
AcDbEntity
 67
     1
  8
図面枠
100
AcDbLine
 10
289.0996
 20
18.58924999999999
 30
0.0
 11
404.0995999999998
 21
18.58924999999999
 31
0.0
  0
LINE
  5
E6D8
330
78D
100
AcDbEntity
 67
     1
  8
図面枠
100
AcDbLine
 10
352.0996
 20
36.5893
 30
0.0
 11
352.0996
 21
30.58924999999999
 31
0.0
  0
LINE
  5
E6D9
330
78D
100
AcDbEntity
 67
     1
  8
図面枠
100
AcDbLine
 10
383.0996
 20
36.5893
 30
0.0
 11
383.0996
 21
30.58924999999999
 31
0.0
  0
LINE
  5
E6DA
330
78D
100
AcDbEntity
 67
     1
  8
図面枠
100
AcDbLine
 10
352.0996
 20
30.58924999999999
 30
0.0
 11
352.0996
 21
6.589249999999991
 31
0.0
  0
LINE
  5
E6DB
330
78D
100
AcDbEntity
 67
     1
  8
図面枠
100
AcDbLine
 10
312.0996
 20
36.58924999999999
 30
0.0
 11
312.0996
 21
30.58924999999999
 31
0.0
  0
LINE
  5
E6DC
330
78D
100
AcDbEntity
 67
     1
  8
図面枠
100
AcDbLine
 10
304.0996
 20
24.58924999999999
 30
0.0
 11
349.0996
 21
24.58924999999999
 31
0.0
  0
TEXT
  5
E6DD
330
78D
100
AcDbEntity
 67
     1
  8
図面枠
100
AcDbText
 10
289.9746
 20
32.33924999999999
 30
0.0
 40
2.5
  1
重量
 11
289.9746
 21
32.33924999999999
 31
0.0
100
AcDbText
 73
     1
  0
TEXT
  5
E6DE
330
78D
100
AcDbEntity
 67
     1
  8
図面枠
100
AcDbText
 10
289.97465
 20
27.21424999999999
 30
0.0
 40
2.5
  1
名　称
 11
289.97465
 21
29.71424999999999
 31
0.0
100
AcDbText
 73
     3
  0
TEXT
  5
E6DF
330
78D
100
AcDbEntity
 67
     1
  8
図面枠
100
AcDbText
 10
317.9746
 20
32.33929999999999
 30
0.0
 40
2.5
  1
表面仕上げ
 41
0.8
 11
317.9746
 21
32.33929999999999
 31
0.0
100
AcDbText
 73
     1
  0
TEXT
  5
E6E0
330
78D
100
AcDbEntity
 67
     1
  8
図面枠
100
AcDbText
 10
352.9746
 20
32.33924999999999
 30
0.0
 40
2.5
  1
日付
 11
352.9746
 21
32.33924999999999
 31
0.0
100
AcDbText
 73
     1
  0
TEXT
  5
E6E1
330
78D
100
AcDbEntity
 67
     1
  8
図面枠
100
AcDbText
 10
383.9746
 20
32.33924999999999
 30
0.0
 40
2.5
  1
尺度
 11
383.9746
 21
32.33924999999999
 31
0.0
100
AcDbText
 73
     1
  0
TEXT
  5
E6E2
330
78D
100
AcDbEntity
 67
     1
  8
図面枠
100
AcDbText
 10
313.5162666666667
 20
26.33925
 30
0.0
 40
2.5
  1
スルーサーＢ構造図
 72
     1
 11
326.5996
 21
26.33925
 31
0.0
100
AcDbText
 73
     1
  0
TEXT
  5
E6E3
330
78D
100
AcDbEntity
 67
     1
  8
図面枠
100
AcDbText
 10
317.7861157480315
 20
20.33924999999999
 30
0.0
 40
2.5
  1
切り梁H-350
 72
     1
 11
326.5996
 21
22.83924999999999
 31
0.0
100
AcDbText
 73
     3
  0
TEXT
  5
E6E4
330
78D
100
AcDbEntity
 67
     1
  8
図面枠
100
AcDbText
 10
368.0162666666667
 20
8.33924999999999
 30
0.0
 40
2.5
  1
Ｈ３５－Ｗ９０
 72
     1
 11
378.0996
 21
8.33924999999999
 31
0.0
100
AcDbText
 73
     1
  0
TEXT
  5
E6E5
330
78D
100
AcDbEntity
 67
     1
  8
図面枠
100
AcDbText
 10
300.3079
 20
32.33924999999999
 30
0.0
 40
2.5
  1
294kg
 11
300.3079
 21
32.33924999999999
 31
0.0
100
AcDbText
 73
     1
  0
TEXT
  5
E6E6
330
78D
100
AcDbEntity
 67
     1
  8
図面枠
100
AcDbText
 10
333.3079
 20
32.33929999999999
 30
0.0
 40
2.5
  1
鉄筋防錆剤
 41
0.8
 11
333.3079
 21
32.33929999999999
 31
0.0
100
AcDbText
 73
     1
  0
TEXT
  5
E6E8
330
78D
100
AcDbEntity
 67
     1
  8
図面枠
100
AcDbText
 10
394.3079
 20
32.33924999999999
 30
0.0
 40
2.5
  1
1/10
 11
394.3079
 21
32.33924999999999
 31
0.0
100
AcDbText
 73
     1
  0
TEXT
  5
E6E9
330
78D
100
AcDbEntity
 67
     1
  8
図面枠
100
AcDbText
 10
300.0162781896648
 20
10.58922126233957
 30
0.0
 40
4.0
  1
三研テクノクリエイト
 11
300.0162781896648
 21
12.58922126233957
 31
0.0
100
AcDbText
 73
     2
  0
TEXT
  5
E6EA
330
78D
100
AcDbEntity
 67
     1
  8
図面枠
100
AcDbText
 10
294.2496115229981
 20
12.83922126233957
 30
0.0
 40
2.0
  1
株式
 72
     2
 11
298.5162781896648
 21
12.83922126233957
 31
0.0
100
AcDbText
 73
     1
  0
TEXT
  5
E6EB
330
78D
100
AcDbEntity
 67
     1
  8
図面枠
100
AcDbText
 10
294.2496115229981
 20
10.33922126233957
 30
0.0
 40
2.0
  1
会社
 72
     2
 11
298.5162781896648
 21
12.33922126233957
 31
0.0
100
AcDbText
 73
     3
  0
TEXT
  5
E6EC
330
78D
100
AcDbEntity
 67
     1
  8
図面枠
100
AcDbText
 10
352.97465
 20
27.21425
 30
0.0
 40
2.5
  1
摘　要
 11
352.97465
 21
29.71425
 31
0.0
100
AcDbText
 73
     3
  0
TEXT
  5
E6ED
330
78D
100
AcDbEntity
 67
     1
  8
図面枠
100
AcDbText
 10
352.9746
 20
15.21425
 30
0.0
 40
2.5
  1
型　式
 11
352.9746
 21
17.71425
 31
0.0
100
AcDbText
 73
     3
  0
TEXT
  5
E6EE
330
78D
100
AcDbEntity
 67
     1
  8
図面枠
100
AcDbText
 10
364.7662666666667
 20
20.86240908820163
 30
0.0
 40
2.5
  1
Ｈ３５－Ｗシリーズ
 72
     1
 11
378.0996
 21
20.86240908820163
 31
0.0
100
AcDbText
 73
     1
  0
LINE
  5
E6EF
330
78D
100
AcDbEntity
 67
     1
  8
図面枠
100
AcDbLine
 10
227.3699773983349
 20
19.86719851721269
 30
0.0
 11
282.3699773983349
 21
19.86719851721269
 31
0.0
  0
LINE
  5
E6F0
330
78D
100
AcDbEntity
 67
     1
  8
図面枠
100
AcDbLine
 10
227.3699773983349
 20
19.86719851721269
 30
0.0
 11
227.3699773983349
 21
10.86719851721269
 31
0.0
  0
LINE
  5
E6F2
330
78D
100
AcDbEntity
 67
     1
  8
図面枠
100
AcDbLine
 10
282.3699773983349
 20
19.86719851721269
 30
0.0
 11
282.3699773983349
 21
10.86719851721269
 31
0.0
  0
LINE
  5
E6F3
330
78D
100
AcDbEntity
 67
     1
  8
図面枠
100
AcDbLine
 10
227.3699773983349
 20
10.86719851721269
 30
0.0
 11
282.3699773983349
 21
10.86719851721269
 31
0.0
  0
TEXT
  5
101FD
330
78D
100
AcDbEntity
 67
     1
  8
図面枠
100
AcDbText
 10
363.3079
 20
32.33924999999999
 30
0.0
 40
2.5
  1
2024.01.01
 11
363.3079
 21
32.33924999999999
 31
0.0
100
AcDbText
 73
     1
  0
TEXT
  5
10219
330
78D
100
AcDbEntity
 67
     1
  8
図面枠
100
AcDbText
 10
229.2019716746131
 20
13.1658886515656
 30
0.0
 40
4.0
  1
スクラップ重量　231kg
 72
     1
 11
254.7744590480284
 21
13.1658886515656
 31
0.0
100
AcDbText
  0
ENDSEC
  0
SECTION
  2
OBJECTS
  0
DICTIONARY
  5
C
330
0
100
AcDbDictionary
281
     1
  3
ACAD_CIP_PREVIOUS_PRODUCT_INFO
350
10355
  3
ACAD_COLOR
350
6B
  3
ACAD_DETAILVIEWSTYLE
350
1034F
  3
ACAD_GROUP
350
D
  3
ACAD_LAYOUT
350
1A
  3
ACAD_MATERIAL
350
6A
  3
ACAD_MLEADERSTYLE
350
D1DA
  3
ACAD_MLINESTYLE
350
17
  3
ACAD_PLOTSETTINGS
350
19
  3
ACAD_PLOTSTYLENAME
350
E
  3
ACAD_SCALELIST
350
D1C8
  3
ACAD_SECTIONVIEWSTYLE
350
1034D
  3
ACAD_TABLESTYLE
350
7E
  3
ACAD_VISUALSTYLE
350
D1B7
  3
AcadDim
350
B89D
  3
ACDB_RECOMPOSE_DATA
350
116B5
  3
AcDbVariableDictionary
350
5E
  3
AcDsDecomposeData
350
116BB
  3
AEC_PROPERTY_SET_DEFS
350
D312
  0
DICTIONARY
  5
D429
330
8
100
AcDbDictionary
280
     1
281
     1
  0
DICTIONARY
  5
11D
330
2
100
AcDbDictionary
280
     1
281
     1
  3
ACAD_LAYERFILTERS
360
98AE
  3
ACAD_LAYERSTATES
360
11E
  3
ACLYDICTIONARY
360
98AD
  0
DICTIONARY
  5
D40F
330
10
100
AcDbDictionary
280
     1
281
     1
  3
ADSK_XREC_LAYER_RECONCILED
360
D410
  0
DICTIONARY
  5
D413
330
1BF
100
AcDbDictionary
280
     1
281
     1
  3
ADSK_XREC_LAYER_RECONCILED
360
D414
  0
DICTIONARY
  5
D417
330
1C1
100
AcDbDictionary
280
     1
281
     1
  3
ADSK_XREC_LAYER_RECONCILED
360
D418
  0
DICTIONARY
  5
D41B
330
1C3
100
AcDbDictionary
280
     1
281
     1
  3
ADSK_XREC_LAYER_RECONCILED
360
D41C
  0
DICTIONARY
  5
D41D
330
1C4
100
AcDbDictionary
280
     1
281
     1
  3
ADSK_XREC_LAYER_RECONCILED
360
D41E
  0
DICTIONARY
  5
D41F
330
1C5
100
AcDbDictionary
280
     1
281
     1
  3
ADSK_XREC_LAYER_RECONCILED
360
D420
  0
DICTIONARY
  5
D421
330
82E
100
AcDbDictionary
280
     1
281
     1
  3
ADSK_XREC_LAYER_RECONCILED
360
D422
  0
DICTIONARY
  5
5C91
330
1F
100
AcDbDictionary
280
     1
281
     1
  3
ACAD_SORTENTS
360
5C92
  0
DICTIONARY
  5
E6A8
330
C08
100
AcDbDictionary
280
     1
281
     1
  3
ACAD_SORTENTS
360
ED19
  0
XRECORD
  5
10355
102
{ACAD_REACTORS
330
C
102
}
330
C
100
AcDbXrecord
280
     1
300
ACD
300
2023
300

  0
DICTIONARY
  5
6B
102
{ACAD_REACTORS
330
C
102
}
330
C
100
AcDbDictionary
281
     1
  0
DICTIONARY
  5
1034F
102
{ACAD_REACTORS
330
C
102
}
330
C
100
AcDbDictionary
281
     1
  3
Metric50
350
10350
  0
DICTIONARY
  5
D
102
{ACAD_REACTORS
330
C
102
}
330
C
100
AcDbDictionary
281
     1
  0
DICTIONARY
  5
1A
102
{ACAD_REACTORS
330
C
102
}
330
C
100
AcDbDictionary
281
     1
  3
Model
350
22
  3
レイアウト1
350
78E
  0
DICTIONARY
  5
6A
102
{ACAD_REACTORS
330
C
102
}
330
C
100
AcDbDictionary
281
     1
  3
ByBlock
350
D1A7
  3
ByLayer
350
D19F
  3
Global
350
D1AF
  0
DICTIONARY
  5
D1DA
102
{ACAD_REACTORS
330
C
102
}
330
C
100
AcDbDictionary
281
     1
  3
Standard
350
D1DB
  0
DICTIONARY
  5
17
102
{ACAD_REACTORS
330
C
102
}
330
C
100
AcDbDictionary
281
     1
  3
Standard
350
18
  0
DICTIONARY
  5
19
102
{ACAD_REACTORS
330
C
102
}
330
C
100
AcDbDictionary
281
     1
  0
ACDBDICTIONARYWDFLT
  5
E
102
{ACAD_REACTORS
330
C
102
}
330
C
100
AcDbDictionary
281
     1
  3
Normal
350
F
100
AcDbDictionaryWithDefault
340
F
  0
DICTIONARY
  5
D1C8
102
{ACAD_REACTORS
330
C
102
}
330
C
100
AcDbDictionary
281
     1
  3
A0
350
D1C9
  3
A1
350
D1CA
  3
A2
350
D1CB
  3
A3
350
D1CC
  3
A4
350
D1CD
  3
A5
350
D1CE
  3
A6
350
D1CF
  3
A7
350
D1D0
  3
A8
350
D1D1
  3
A9
350
D1D2
  3
B0
350
D1D3
  3
B1
350
D1D4
  3
B2
350
D1D5
  3
B3
350
D1D6
  3
B4
350
D1D7
  3
B5
350
D1D8
  3
B6
350
D1D9
  0
DICTIONARY
  5
1034D
102
{ACAD_REACTORS
330
C
102
}
330
C
100
AcDbDictionary
281
     1
  3
Metric50
350
1034E
  0
DICTIONARY
  5
7E
102
{ACAD_REACTORS
330
C
102
}
330
C
100
AcDbDictionary
281
     1
  3
Standard
350
7F
  0
DICTIONARY
  5
D1B7
102
{ACAD_REACTORS
330
C
102
}
330
C
100
AcDbDictionary
281
     1
  3
2dWireframe
350
D1BD
  3
3D Hidden
350
D1BF
  3
3dWireframe
350
D1BE
  3
Basic
350
D1BC
  3
Brighten
350
D1C3
  3
ColorChange
350
D1C7
  3
Conceptual
350
D1C0
  3
Dim
350
D1C2
  3
EdgeColorOff
350
1034C
  3
Facepattern
350
D1C6
  3
Flat
350
D1B8
  3
FlatWithEdges
350
D1B9
  3
Gouraud
350
D1BA
  3
GouraudWithEdges
350
D1BB
  3
Hidden
350
10344
  3
JitterOff
350
1034A
  3
Linepattern
350
D1C5
  3
OverhangOff
350
1034B
  3
Realistic
350
D1C1
  3
Shaded
350
10349
  3
Shaded with edges
350
10348
  3
Shades of Gray
350
10345
  3
Sketchy
350
10346
  3
Thicken
350
D1C4
  3
Wireframe
350
10343
  3
X-Ray
350
10347
  0
XRECORD
  5
B89D
102
{ACAD_REACTORS
330
C
102
}
330
C
100
AcDbXrecord
280
     1
 90
   990106
  3

 60
     0
 61
     0
 62
     1
 63
     3
 64
     0
 65
     0
 66
     0
 67
     3
 68
     1
 69
     0
 70
     0
 71
     0
 72
     0
 40
0.0
170
     0
  0
XRECORD
  5
116B5
102
{ACAD_REACTORS
330
C
102
}
330
C
100
AcDbXrecord
280
     1
 90
        1
330
7F
  0
DICTIONARY
  5
5E
102
{ACAD_REACTORS
330
C
102
}
330
C
100
AcDbDictionary
281
     1
  3
CANNOSCALE
350
D437
  3
CMLEADERSTYLE
350
D436
  3
CTABLESTYLE
350
84
  3
CVIEWDETAILSTYLE
350
114BE
  3
CVIEWSECTIONSTYLE
350
114BF
  3
DIMASSOC
350
5F
  3
HIDETEXT
350
63
  3
INDEXCTL
350
D439
  3
LAYEREVAL
350
114C2
  3
LAYERNOTIFY
350
114C3
  3
LIGHTINGUNITS
350
114C1
  3
MSLTSCALE
350
114C0
  3
PROJECTNAME
350
C791
  3
SORTENTS
350
D438
  0
DICTIONARY
  5
116BB
102
{ACAD_REACTORS
330
C
102
}
330
C
100
AcDbDictionary
281
     1
  3
AcDsRecords
350
116BD
  3
AcDsSchemas
350
116BC
1001
ACAD
1070
     2
  0
DICTIONARY
  5
D312
102
{ACAD_REACTORS
330
C
102
}
330
C
100
AcDbDictionary
281
     1
  0
DICTIONARY
  5
98AE
102
{ACAD_REACTORS
330
11D
102
}
330
11D
100
AcDbDictionary
281
     1
  0
DICTIONARY
  5
11E
102
{ACAD_REACTORS
330
11D
102
}
330
11D
100
AcDbDictionary
281
     1
  0
DICTIONARY
  5
98AD
102
{ACAD_REACTORS
330
11D
102
}
330
11D
100
AcDbDictionary
281
     1
1001
ACAD
1000
<All
  0
XRECORD
  5
D410
102
{ACAD_REACTORS
330
D40F
102
}
330
D40F
100
AcDbXrecord
280
     1
290
     1
  0
XRECORD
  5
D414
102
{ACAD_REACTORS
330
D413
102
}
330
D413
100
AcDbXrecord
280
     1
290
     1
  0
XRECORD
  5
D418
102
{ACAD_REACTORS
330
D417
102
}
330
D417
100
AcDbXrecord
280
     1
290
     1
  0
XRECORD
  5
D41C
102
{ACAD_REACTORS
330
D41B
102
}
330
D41B
100
AcDbXrecord
280
     1
290
     1
  0
XRECORD
  5
D41E
102
{ACAD_REACTORS
330
D41D
102
}
330
D41D
100
AcDbXrecord
280
     1
290
     1
  0
XRECORD
  5
D420
102
{ACAD_REACTORS
330
D41F
102
}
330
D41F
100
AcDbXrecord
280
     1
290
     1
  0
XRECORD
  5
D422
102
{ACAD_REACTORS
330
D421
102
}
330
D421
100
AcDbXrecord
280
     1
290
     1
  0
SORTENTSTABLE
  5
5C92
102
{ACAD_REACTORS
330
5C91
102
}
330
5C91
100
AcDbSortentsTable
330
1F
331
9AEE
  5
9D87
  0
SORTENTSTABLE
  5
ED19
102
{ACAD_REACTORS
330
E6A8
102
}
330
E6A8
100
AcDbSortentsTable
330
C08
  0
ACDBDETAILVIEWSTYLE
  5
10350
102
{ACAD_XDICTIONARY
360
116C0
102
}
102
{ACAD_REACTORS
330
1034F
102
}
330
1034F
100
AcDbModelDocViewStyle
 70
     0
  3
Metric50
290
     0
100
AcDbDetailViewStyle
 70
     0
 71
     0
 90
        3
 71
     1
340
11
 62
   256
 40
5.0
340
0
 62
   256
 40
5.0
300

 40
0.0
280
     1
 71
     2
340
16
 90
       25
 62
   256
 71
     3
340
11
 62
   256
 40
5.0
 90
        0
 40
15.0
 90
        1
300
%<\AcVar ViewDetailId>% (%<\AcVar ViewScale \f "%sn">%)
 71
     4
340
16
 90
       25
 62
   256
340
16
 90
       25
 62
   256
280
     0
  0
LAYOUT
  5
22
102
{ACAD_REACTORS
330
1A
102
}
330
1A
100
AcDbPlotSettings
  1

  2
none_device
  4
ISO_A4_(210.00_x_297.00_MM)
  6

 40
7.5
 41
20.0
 42
7.5
 43
20.0
 44
210.0
 45
297.0
 46
11.54999923706054
 47
-13.65000009536743
 48
0.0
 49
0.0
140
0.0
141
0.0
142
1.0
143
8.704084754739808
 70
 11952
 72
     1
 73
     0
 74
     0
  7

 75
     0
147
0.1148885871608098
 76
     0
 77
     2
 78
   300
148
0.0
149
0.0
100
AcDbLayout
  1
Model
 70
     1
 71
     0
 10
0.0
 20
0.0
 11
12.0
 21
9.0
 12
0.0
 22
0.0
 32
0.0
 14
0.0
 24
0.0
 34
0.0
 15
0.0
 25
0.0
 35
0.0
146
0.0
 13
0.0
 23
0.0
 33
0.0
 16
1.0
 26
0.0
 36
0.0
 17
0.0
 27
1.0
 37
0.0
 76
     0
330
1F
331
EF00
1001
ACAD_PSEXT
1000
None
1000
None
1000
Not applicable
1000
The layout will not be plotted unless a new plotter configuration name is selected.
1070
     0
  0
LAYOUT
  5
78E
102
{ACAD_XDICTIONARY
360
79B
102
}
102
{ACAD_REACTORS
330
1A
102
}
330
1A
100
AcDbPlotSettings
  1

  2
RICOH MP C2503 JPN RPCS V2
  4
A3
  6

 40
5.873749732971191
 41
5.873748779296875
 42
5.873748779296875
 43
5.873748779296875
 44
296.9259948730469
 45
419.9466552734373
 46
0.0
 47
0.0
 48
0.0
 49
0.0
140
0.0
141
0.0
142
1.0
143
1.0
 70
   688
 72
     1
 73
     1
 74
     5
  7
monochrome.ctb
 75
    16
147
1.0
 76
     1
 77
     2
 78
   300
148
0.0
149
0.0
100
AcDbLayout
  1
レイアウト1
 70
     1
 71
     1
 10
-5.873748779296875
 20
-5.873749732971191
 11
414.0729064941406
 21
291.0522451400757
 12
0.0
 22
0.0
 32
0.0
 14
-0.0233557008396019
 24
-0.0155136928541424
 34
-0.0015258207003583
 15
408.2225153712125
 25
285.1940104826281
 35
0.0000000349246037
146
0.0
 13
0.0
 23
0.0
 33
0.0
 16
1.0
 26
0.0
 36
0.0
 17
0.0
 27
1.0
 37
0.0
 76
     0
330
78D
331
794
1001
ACAD_PSEXT
1000
RICOH MP C2503 JPN RPCS V2
1000
RICOH MP C2503 JPN RPCS V2
1000
IP_192.168.24.100
1000
RPCS Driver (For Windows)
1070
     0
  0
MATERIAL
  5
D1A7
102
{ACAD_XDICTIONARY
360
D1A8
102
}
102
{ACAD_REACTORS
330
6A
102
}
330
6A
100
AcDbMaterial
  1
ByBlock
 72
     0
 43
0.0008202099737533
 43
0.0
 43
0.0
 43
0.0
 43
0.0
 43
0.0008202099737533
 43
0.0
 43
0.0
 43
0.0
 43
0.0
 43
1.0
 43
0.0
 43
0.0
 43
0.0
 43
0.0
 43
1.0
 77
     0
 47
0.0008202099737533
 47
0.0
 47
0.0
 47
0.0
 47
0.0
 47
0.0008202099737533
 47
0.0
 47
0.0
 47
0.0
 47
0.0
 47
1.0
 47
0.0
 47
0.0
 47
0.0
 47
0.0
 47
1.0
171
     0
 49
0.0008202099737533
 49
0.0
 49
0.0
 49
0.0
 49
0.0
 49
0.0008202099737533
 49
0.0
 49
0.0
 49
0.0
 49
0.0
 49
1.0
 49
0.0
 49
0.0
 49
0.0
 49
0.0
 49
1.0
175
     0
142
0.0008202099737533
142
0.0
142
0.0
142
0.0
142
0.0
142
0.0008202099737533
142
0.0
142
0.0
142
0.0
142
0.0
142
1.0
142
0.0
142
0.0
142
0.0
142
0.0
142
1.0
179
     0
144
0.0008202099737533
144
0.0
144
0.0
144
0.0
144
0.0
144
0.0008202099737533
144
0.0
144
0.0
144
0.0
144
0.0
144
1.0
144
0.0
144
0.0
144
0.0
144
0.0
144
1.0
147
0.0008202099737533
147
0.0
147
0.0
147
0.0
147
0.0
147
0.0008202099737533
147
0.0
147
0.0
147
0.0
147
0.0
147
1.0
147
0.0
147
0.0
147
0.0
147
0.0
147
1.0
  0
MATERIAL
  5
D19F
102
{ACAD_XDICTIONARY
360
D1A0
102
}
102
{ACAD_REACTORS
330
6A
102
}
330
6A
100
AcDbMaterial
  1
ByLayer
 72
     0
 43
0.0008202099737533
 43
0.0
 43
0.0
 43
0.0
 43
0.0
 43
0.0008202099737533
 43
0.0
 43
0.0
 43
0.0
 43
0.0
 43
1.0
 43
0.0
 43
0.0
 43
0.0
 43
0.0
 43
1.0
 77
     0
 47
0.0008202099737533
 47
0.0
 47
0.0
 47
0.0
 47
0.0
 47
0.0008202099737533
 47
0.0
 47
0.0
 47
0.0
 47
0.0
 47
1.0
 47
0.0
 47
0.0
 47
0.0
 47
0.0
 47
1.0
171
     0
 49
0.0008202099737533
 49
0.0
 49
0.0
 49
0.0
 49
0.0
 49
0.0008202099737533
 49
0.0
 49
0.0
 49
0.0
 49
0.0
 49
1.0
 49
0.0
 49
0.0
 49
0.0
 49
0.0
 49
1.0
175
     0
142
0.0008202099737533
142
0.0
142
0.0
142
0.0
142
0.0
142
0.0008202099737533
142
0.0
142
0.0
142
0.0
142
0.0
142
1.0
142
0.0
142
0.0
142
0.0
142
0.0
142
1.0
179
     0
144
0.0008202099737533
144
0.0
144
0.0
144
0.0
144
0.0
144
0.0008202099737533
144
0.0
144
0.0
144
0.0
144
0.0
144
1.0
144
0.0
144
0.0
144
0.0
144
0.0
144
1.0
147
0.0008202099737533
147
0.0
147
0.0
147
0.0
147
0.0
147
0.0008202099737533
147
0.0
147
0.0
147
0.0
147
0.0
147
1.0
147
0.0
147
0.0
147
0.0
147
0.0
147
1.0
  0
MATERIAL
  5
D1AF
102
{ACAD_XDICTIONARY
360
D1B0
102
}
102
{ACAD_REACTORS
330
6A
102
}
330
6A
100
AcDbMaterial
  1
Global
 72
     0
 43
0.0008202099737533
 43
0.0
 43
0.0
 43
0.0
 43
0.0
 43
0.0008202099737533
 43
0.0
 43
0.0
 43
0.0
 43
0.0
 43
1.0
 43
0.0
 43
0.0
 43
0.0
 43
0.0
 43
1.0
 77
     0
 47
0.0008202099737533
 47
0.0
 47
0.0
 47
0.0
 47
0.0
 47
0.0008202099737533
 47
0.0
 47
0.0
 47
0.0
 47
0.0
 47
1.0
 47
0.0
 47
0.0
 47
0.0
 47
0.0
 47
1.0
171
     0
 49
0.0008202099737533
 49
0.0
 49
0.0
 49
0.0
 49
0.0
 49
0.0008202099737533
 49
0.0
 49
0.0
 49
0.0
 49
0.0
 49
1.0
 49
0.0
 49
0.0
 49
0.0
 49
0.0
 49
1.0
175
     0
142
0.0008202099737533
142
0.0
142
0.0
142
0.0
142
0.0
142
0.0008202099737533
142
0.0
142
0.0
142
0.0
142
0.0
142
1.0
142
0.0
142
0.0
142
0.0
142
0.0
142
1.0
179
     0
144
0.0008202099737533
144
0.0
144
0.0
144
0.0
144
0.0
144
0.0008202099737533
144
0.0
144
0.0
144
0.0
144
0.0
144
1.0
144
0.0
144
0.0
144
0.0
144
0.0
144
1.0
147
0.0008202099737533
147
0.0
147
0.0
147
0.0
147
0.0
147
0.0008202099737533
147
0.0
147
0.0
147
0.0
147
0.0
147
1.0
147
0.0
147
0.0
147
0.0
147
0.0
147
1.0
  0
MLEADERSTYLE
  5
D1DB
102
{ACAD_REACTORS
330
D1DA
102
}
330
D1DA
100
AcDbMLeaderStyle
179
     2
170
     2
171
     1
172
     0
 90
        2
 40
0.0
 41
0.0
173
     1
 91
-1056964608
340
14
 92
       -2
290
     1
 42
2.0
291
     1
 43
0.36
  3
Standard
 44
4.0
300

342
11
174
     1
178
     6
175
     1
176
     0
 93
-1056964608
 45
4.0
292
     0
297
     0
 46
4.0
 94
-1056964608
 47
1.0
 49
1.0
140
1.0
293
     1
141
0.0
294
     1
177
     0
142
1.0
295
     0
296
     0
143
0.125
271
     0
272
     9
273
     9
298
     0
1001
ACAD
1000
AcRTDxfName
1000
MLEADERSTYLE
1000
AcRTDxfName
1000
MLEADERSTYLE
1000
AcRTDxfName
1000
MLEADERSTYLE
1000
AcRTDxfName
1000
MLEADERSTYLE
1000
AcRTDxfName
1000
MLEADERSTYLE
1000
AcRTDxfName
1000
MLEADERSTYLE
1000
AcRTDxfName
1000
MLEADERSTYLE
1000
AcRTDxfName
1000
MLEADERSTYLE
1000
AcRTDxfName
1000
MLEADERSTYLE
1000
AcRTDxfName
1000
MLEADERSTYLE
1000
AcRTDxfName
1000
MLEADERSTYLE
1000
AcRTDxfName
1000
MLEADERSTYLE
  0
MLINESTYLE
  5
18
102
{ACAD_REACTORS
330
17
102
}
330
17
100
AcDbMlineStyle
  2
STANDARD
 70
     0
  3

 62
   256
 51
90.0
 52
90.0
 71
     2
 49
0.5
 62
   256
  6
BYLAYER
 49
-0.5
 62
   256
  6
BYLAYER
  0
ACDBPLACEHOLDER
  5
F
102
{ACAD_REACTORS
330
E
102
}
330
E
  0
SCALE
  5
D1C9
102
{ACAD_REACTORS
330
D1C8
102
}
330
D1C8
100
AcDbScale
 70
     0
300
1:1
140
1.0
141
1.0
290
     1
1001
ACAD
1000
AcRTDxfName
1000
SCALE
1000
AcRTDxfName
1000
SCALE
1000
AcRTDxfName
1000
SCALE
1000
AcRTDxfName
1000
SCALE
1000
AcRTDxfName
1000
SCALE
1000
AcRTDxfName
1000
SCALE
1000
AcRTDxfName
1000
SCALE
1000
AcRTDxfName
1000
SCALE
1000
AcRTDxfName
1000
SCALE
1000
AcRTDxfName
1000
SCALE
1000
AcRTDxfName
1000
SCALE
1000
AcRTDxfName
1000
SCALE
  0
SCALE
  5
D1CA
102
{ACAD_REACTORS
330
D1C8
102
}
330
D1C8
100
AcDbScale
 70
     0
300
1:2
140
1.0
141
2.0
290
     0
1001
ACAD
1000
AcRTDxfName
1000
SCALE
1000
AcRTDxfName
1000
SCALE
1000
AcRTDxfName
1000
SCALE
1000
AcRTDxfName
1000
SCALE
1000
AcRTDxfName
1000
SCALE
1000
AcRTDxfName
1000
SCALE
1000
AcRTDxfName
1000
SCALE
1000
AcRTDxfName
1000
SCALE
1000
AcRTDxfName
1000
SCALE
1000
AcRTDxfName
1000
SCALE
1000
AcRTDxfName
1000
SCALE
1000
AcRTDxfName
1000
SCALE
  0
SCALE
  5
D1CB
102
{ACAD_REACTORS
330
D1C8
102
}
330
D1C8
100
AcDbScale
 70
     0
300
1:4
140
1.0
141
4.0
290
     0
1001
ACAD
1000
AcRTDxfName
1000
SCALE
1000
AcRTDxfName
1000
SCALE
1000
AcRTDxfName
1000
SCALE
1000
AcRTDxfName
1000
SCALE
1000
AcRTDxfName
1000
SCALE
1000
AcRTDxfName
1000
SCALE
1000
AcRTDxfName
1000
SCALE
1000
AcRTDxfName
1000
SCALE
1000
AcRTDxfName
1000
SCALE
1000
AcRTDxfName
1000
SCALE
1000
AcRTDxfName
1000
SCALE
1000
AcRTDxfName
1000
SCALE
  0
SCALE
  5
D1CC
102
{ACAD_REACTORS
330
D1C8
102
}
330
D1C8
100
AcDbScale
 70
     0
300
1:5
140
1.0
141
5.0
290
     0
1001
ACAD
1000
AcRTDxfName
1000
SCALE
1000
AcRTDxfName
1000
SCALE
1000
AcRTDxfName
1000
SCALE
1000
AcRTDxfName
1000
SCALE
1000
AcRTDxfName
1000
SCALE
1000
AcRTDxfName
1000
SCALE
1000
AcRTDxfName
1000
SCALE
1000
AcRTDxfName
1000
SCALE
1000
AcRTDxfName
1000
SCALE
1000
AcRTDxfName
1000
SCALE
1000
AcRTDxfName
1000
SCALE
1000
AcRTDxfName
1000
SCALE
  0
SCALE
  5
D1CD
102
{ACAD_REACTORS
330
D1C8
102
}
330
D1C8
100
AcDbScale
 70
     0
300
1:8
140
1.0
141
8.0
290
     0
1001
ACAD
1000
AcRTDxfName
1000
SCALE
1000
AcRTDxfName
1000
SCALE
1000
AcRTDxfName
1000
SCALE
1000
AcRTDxfName
1000
SCALE
1000
AcRTDxfName
1000
SCALE
1000
AcRTDxfName
1000
SCALE
1000
AcRTDxfName
1000
SCALE
1000
AcRTDxfName
1000
SCALE
1000
AcRTDxfName
1000
SCALE
1000
AcRTDxfName
1000
SCALE
1000
AcRTDxfName
1000
SCALE
1000
AcRTDxfName
1000
SCALE
  0
SCALE
  5
D1CE
102
{ACAD_REACTORS
330
D1C8
102
}
330
D1C8
100
AcDbScale
 70
     0
300
1:10
140
1.0
141
10.0
290
     0
1001
ACAD
1000
AcRTDxfName
1000
SCALE
1000
AcRTDxfName
1000
SCALE
1000
AcRTDxfName
1000
SCALE
1000
AcRTDxfName
1000
SCALE
1000
AcRTDxfName
1000
SCALE
1000
AcRTDxfName
1000
SCALE
1000
AcRTDxfName
1000
SCALE
1000
AcRTDxfName
1000
SCALE
1000
AcRTDxfName
1000
SCALE
1000
AcRTDxfName
1000
SCALE
1000
AcRTDxfName
1000
SCALE
1000
AcRTDxfName
1000
SCALE
  0
SCALE
  5
D1CF
102
{ACAD_REACTORS
330
D1C8
102
}
330
D1C8
100
AcDbScale
 70
     0
300
1:16
140
1.0
141
16.0
290
     0
1001
ACAD
1000
AcRTDxfName
1000
SCALE
1000
AcRTDxfName
1000
SCALE
1000
AcRTDxfName
1000
SCALE
1000
AcRTDxfName
1000
SCALE
1000
AcRTDxfName
1000
SCALE
1000
AcRTDxfName
1000
SCALE
1000
AcRTDxfName
1000
SCALE
1000
AcRTDxfName
1000
SCALE
1000
AcRTDxfName
1000
SCALE
1000
AcRTDxfName
1000
SCALE
1000
AcRTDxfName
1000
SCALE
1000
AcRTDxfName
1000
SCALE
  0
SCALE
  5
D1D0
102
{ACAD_REACTORS
330
D1C8
102
}
330
D1C8
100
AcDbScale
 70
     0
300
1:20
140
1.0
141
20.0
290
     0
1001
ACAD
1000
AcRTDxfName
1000
SCALE
1000
AcRTDxfName
1000
SCALE
1000
AcRTDxfName
1000
SCALE
1000
AcRTDxfName
1000
SCALE
1000
AcRTDxfName
1000
SCALE
1000
AcRTDxfName
1000
SCALE
1000
AcRTDxfName
1000
SCALE
1000
AcRTDxfName
1000
SCALE
1000
AcRTDxfName
1000
SCALE
1000
AcRTDxfName
1000
SCALE
1000
AcRTDxfName
1000
SCALE
1000
AcRTDxfName
1000
SCALE
  0
SCALE
  5
D1D1
102
{ACAD_REACTORS
330
D1C8
102
}
330
D1C8
100
AcDbScale
 70
     0
300
1:30
140
1.0
141
30.0
290
     0
1001
ACAD
1000
AcRTDxfName
1000
SCALE
1000
AcRTDxfName
1000
SCALE
1000
AcRTDxfName
1000
SCALE
1000
AcRTDxfName
1000
SCALE
1000
AcRTDxfName
1000
SCALE
1000
AcRTDxfName
1000
SCALE
1000
AcRTDxfName
1000
SCALE
1000
AcRTDxfName
1000
SCALE
1000
AcRTDxfName
1000
SCALE
1000
AcRTDxfName
1000
SCALE
1000
AcRTDxfName
1000
SCALE
1000
AcRTDxfName
1000
SCALE
  0
SCALE
  5
D1D2
102
{ACAD_REACTORS
330
D1C8
102
}
330
D1C8
100
AcDbScale
 70
     0
300
1:40
140
1.0
141
40.0
290
     0
1001
ACAD
1000
AcRTDxfName
1000
SCALE
1000
AcRTDxfName
1000
SCALE
1000
AcRTDxfName
1000
SCALE
1000
AcRTDxfName
1000
SCALE
1000
AcRTDxfName
1000
SCALE
1000
AcRTDxfName
1000
SCALE
1000
AcRTDxfName
1000
SCALE
1000
AcRTDxfName
1000
SCALE
1000
AcRTDxfName
1000
SCALE
1000
AcRTDxfName
1000
SCALE
1000
AcRTDxfName
1000
SCALE
1000
AcRTDxfName
1000
SCALE
  0
SCALE
  5
D1D3
102
{ACAD_REACTORS
330
D1C8
102
}
330
D1C8
100
AcDbScale
 70
     0
300
1:50
140
1.0
141
50.0
290
     0
1001
ACAD
1000
AcRTDxfName
1000
SCALE
1000
AcRTDxfName
1000
SCALE
1000
AcRTDxfName
1000
SCALE
1000
AcRTDxfName
1000
SCALE
1000
AcRTDxfName
1000
SCALE
1000
AcRTDxfName
1000
SCALE
1000
AcRTDxfName
1000
SCALE
1000
AcRTDxfName
1000
SCALE
1000
AcRTDxfName
1000
SCALE
1000
AcRTDxfName
1000
SCALE
1000
AcRTDxfName
1000
SCALE
1000
AcRTDxfName
1000
SCALE
  0
SCALE
  5
D1D4
102
{ACAD_REACTORS
330
D1C8
102
}
330
D1C8
100
AcDbScale
 70
     0
300
1:100
140
1.0
141
100.0
290
     0
1001
ACAD
1000
AcRTDxfName
1000
SCALE
1000
AcRTDxfName
1000
SCALE
1000
AcRTDxfName
1000
SCALE
1000
AcRTDxfName
1000
SCALE
1000
AcRTDxfName
1000
SCALE
1000
AcRTDxfName
1000
SCALE
1000
AcRTDxfName
1000
SCALE
1000
AcRTDxfName
1000
SCALE
1000
AcRTDxfName
1000
SCALE
1000
AcRTDxfName
1000
SCALE
1000
AcRTDxfName
1000
SCALE
1000
AcRTDxfName
1000
SCALE
  0
SCALE
  5
D1D5
102
{ACAD_REACTORS
330
D1C8
102
}
330
D1C8
100
AcDbScale
 70
     0
300
2:1
140
2.0
141
1.0
290
     0
1001
ACAD
1000
AcRTDxfName
1000
SCALE
1000
AcRTDxfName
1000
SCALE
1000
AcRTDxfName
1000
SCALE
1000
AcRTDxfName
1000
SCALE
1000
AcRTDxfName
1000
SCALE
1000
AcRTDxfName
1000
SCALE
1000
AcRTDxfName
1000
SCALE
1000
AcRTDxfName
1000
SCALE
1000
AcRTDxfName
1000
SCALE
1000
AcRTDxfName
1000
SCALE
1000
AcRTDxfName
1000
SCALE
1000
AcRTDxfName
1000
SCALE
  0
SCALE
  5
D1D6
102
{ACAD_REACTORS
330
D1C8
102
}
330
D1C8
100
AcDbScale
 70
     0
300
4:1
140
4.0
141
1.0
290
     0
1001
ACAD
1000
AcRTDxfName
1000
SCALE
1000
AcRTDxfName
1000
SCALE
1000
AcRTDxfName
1000
SCALE
1000
AcRTDxfName
1000
SCALE
1000
AcRTDxfName
1000
SCALE
1000
AcRTDxfName
1000
SCALE
1000
AcRTDxfName
1000
SCALE
1000
AcRTDxfName
1000
SCALE
1000
AcRTDxfName
1000
SCALE
1000
AcRTDxfName
1000
SCALE
1000
AcRTDxfName
1000
SCALE
1000
AcRTDxfName
1000
SCALE
  0
SCALE
  5
D1D7
102
{ACAD_REACTORS
330
D1C8
102
}
330
D1C8
100
AcDbScale
 70
     0
300
8:1
140
8.0
141
1.0
290
     0
1001
ACAD
1000
AcRTDxfName
1000
SCALE
1000
AcRTDxfName
1000
SCALE
1000
AcRTDxfName
1000
SCALE
1000
AcRTDxfName
1000
SCALE
1000
AcRTDxfName
1000
SCALE
1000
AcRTDxfName
1000
SCALE
1000
AcRTDxfName
1000
SCALE
1000
AcRTDxfName
1000
SCALE
1000
AcRTDxfName
1000
SCALE
1000
AcRTDxfName
1000
SCALE
1000
AcRTDxfName
1000
SCALE
1000
AcRTDxfName
1000
SCALE
  0
SCALE
  5
D1D8
102
{ACAD_REACTORS
330
D1C8
102
}
330
D1C8
100
AcDbScale
 70
     0
300
10:1
140
10.0
141
1.0
290
     0
1001
ACAD
1000
AcRTDxfName
1000
SCALE
1000
AcRTDxfName
1000
SCALE
1000
AcRTDxfName
1000
SCALE
1000
AcRTDxfName
1000
SCALE
1000
AcRTDxfName
1000
SCALE
1000
AcRTDxfName
1000
SCALE
1000
AcRTDxfName
1000
SCALE
1000
AcRTDxfName
1000
SCALE
1000
AcRTDxfName
1000
SCALE
1000
AcRTDxfName
1000
SCALE
1000
AcRTDxfName
1000
SCALE
1000
AcRTDxfName
1000
SCALE
  0
SCALE
  5
D1D9
102
{ACAD_REACTORS
330
D1C8
102
}
330
D1C8
100
AcDbScale
 70
     0
300
100:1
140
100.0
141
1.0
290
     0
1001
ACAD
1000
AcRTDxfName
1000
SCALE
1000
AcRTDxfName
1000
SCALE
1000
AcRTDxfName
1000
SCALE
1000
AcRTDxfName
1000
SCALE
1000
AcRTDxfName
1000
SCALE
1000
AcRTDxfName
1000
SCALE
1000
AcRTDxfName
1000
SCALE
1000
AcRTDxfName
1000
SCALE
1000
AcRTDxfName
1000
SCALE
1000
AcRTDxfName
1000
SCALE
1000
AcRTDxfName
1000
SCALE
1000
AcRTDxfName
1000
SCALE
  0
ACDBSECTIONVIEWSTYLE
  5
1034E
102
{ACAD_XDICTIONARY
360
116BE
102
}
102
{ACAD_REACTORS
330
1034D
102
}
330
1034D
100
AcDbModelDocViewStyle
 70
     0
  3
Metric50
290
     0
100
AcDbSectionViewStyle
 70
     0
 71
     0
 90
      102
 71
     1
340
11
 62
   256
 40
5.0
340
0
340
0
 62
   256
 40
5.0
300
I, O, Q, S, X, Z
 40
10.0
 90
        0
 40
2.5
 90
        0
 71
     2
340
16
 90
       25
 62
   256
340
16
 90
       50
 62
   256
 40
5.0
 40
2.5
 40
5.0
 71
     3
340
11
 62
   256
 40
5.0
 90
        0
 40
15.0
 90
        1
300
%<\AcVar ViewSectionStartId>%-%<\AcVar ViewSectionEndId>% (%<\AcVar ViewScale \f "%sn">%)
 71
     4
 62
   256
 62
   257
300
ANSI31
 40
1.0
 90
        0
290
     0
290
     0
 90
        6
 40
0.0
 40
1.570796326794896
 40
0.2617993877991494
 40
1.308996938995747
 40
-0.2617993877991494
 40
1.832595714594045
  0
TABLESTYLE
  5
7F
102
{ACAD_XDICTIONARY
360
D423
102
}
102
{ACAD_REACTORS
330
7E
102
}
330
7E
100
AcDbTableStyle
280
     0
  3
Standard
 70
     0
 71
     0
 40
1.5
 41
1.5
280
     0
281
     0
  7
Standard
140
4.5
170
     2
 62
     0
 63
     7
283
     0
 90
        4
 91
        0
  1

274
    -2
284
     1
 64
     0
275
    -2
285
     1
 65
     0
276
    -2
286
     1
 66
     0
277
    -2
287
     1
 67
     0
278
    -2
288
     1
 68
     0
279
    -2
289
     1
 69
     0
  7
Standard
140
6.0
170
     5
 62
     0
 63
     7
283
     0
 90
        4
 91
        0
  1

274
    -2
284
     1
 64
     0
275
    -2
285
     1
 65
     0
276
    -2
286
     1
 66
     0
277
    -2
287
     1
 67
     0
278
    -2
288
     1
 68
     0
279
    -2
289
     1
 69
     0
  7
Standard
140
4.5
170
     5
 62
     0
 63
     7
283
     0
 90
        4
 91
        0
  1

274
    -2
284
     1
 64
     0
275
    -2
285
     1
 65
     0
276
    -2
286
     1
 66
     0
277
    -2
287
     1
 67
     0
278
    -2
288
     1
 68
     0
279
    -2
289
     1
 69
     0
  0
VISUALSTYLE
  5
D1BD
102
{ACAD_REACTORS
330
D1B7
102
}
330
D1B7
100
AcDbVisualStyle
  2
2dWireframe
 70
     4
177
     3
291
     0
 70
    58
 90
        0
176
     1
 90
        2
176
     1
 90
        0
176
     1
 90
        0
176
     1
 40
0.6
176
     1
 40
30.0
176
     1
 62
     7
176
     1
 90
        1
176
     1
 90
        4
176
     1
 62
     7
176
     1
 62
   257
176
     1
 90
        1
176
     1
 90
        1
176
     1
 40
1.0
176
     1
 90
        0
176
     1
 62
   257
176
     1
 40
1.0
176
     1
 90
        1
176
     1
 90
        6
176
     1
 90
        2
176
     1
 62
     7
176
     1
 90
        5
176
     1
 90
        0
176
     1
 90
        0
176
     1
290
     0
176
     1
 90
        1
176
     1
 40
0.0
176
     1
 90
        0
176
     1
290
     1
176
     1
290
     1
176
     1
290
     0
176
     1
290
     0
176
     1
290
     0
176
     1
290
     0
176
     1
290
     0
176
     1
290
     0
176
     1
290
     0
176
     1
 90
       50
176
     1
 40
0.0
176
     1
 40
1.0
176
     1
 90
        0
176
     1
 62
    18
176
     1
 90
       50
176
     1
 90
        3
176
     1
 62
     5
420
      255
176
     1
290
     0
176
     1
 90
       50
176
     1
 90
       50
176
     1
 90
       50
176
     1
290
     0
176
     1
 90
       50
176
     1
 62
   256
176
     0
 40
1.0
176
     0
 90
        2
176
     1
  1
strokes_ogs.tif
176
     1
290
     0
176
     1
 40
1.0
176
     1
 40
1.0
176
     1
1001
ACAD
1000
AcRTDxfName
1000
VISUALSTYLE
1000
AcRTDxfName
1000
VISUALSTYLE
1000
AcRTDxfName
1000
VISUALSTYLE
1000
AcRTDxfName
1000
VISUALSTYLE
1000
AcRTDxfName
1000
VISUALSTYLE
1000
AcRTDxfName
1000
VISUALSTYLE
1000
AcRTDxfName
1000
VISUALSTYLE
1000
AcRTDxfName
1000
VISUALSTYLE
1000
AcRTDxfName
1000
VISUALSTYLE
1000
AcRTDxfName
1000
VISUALSTYLE
1000
AcRTDxfName
1000
VISUALSTYLE
1000
AcRTDxfName
1000
VISUALSTYLE
1000
AcDbSavedByObjectVersion
1070
     0
  0
VISUALSTYLE
  5
D1BF
102
{ACAD_REACTORS
330
D1B7
102
}
330
D1B7
100
AcDbVisualStyle
  2
3D Hidden
 70
     6
177
     3
291
     0
 70
    58
 90
        1
176
     1
 90
        2
176
     1
 90
        2
176
     1
 90
        0
176
     1
 40
0.6
176
     1
 40
30.0
176
     1
 62
     7
176
     1
 90
        2
176
     1
 90
        2
176
     1
 62
     7
176
     1
 62
   257
176
     1
 90
        2
176
     1
 90
        1
176
     1
 40
40.0
176
     1
 90
        0
176
     1
 62
   257
176
     1
 40
1.0
176
     1
 90
        1
176
     1
 90
        6
176
     1
 90
        2
176
     1
 62
     7
176
     1
 90
        3
176
     1
 90
        0
176
     1
 90
        0
176
     1
290
     0
176
     1
 90
        1
176
     1
 40
0.0
176
     1
 90
        0
176
     1
290
     0
176
     1
290
     1
176
     1
290
     1
176
     1
290
     0
176
     1
290
     0
176
     1
290
     0
176
     1
290
     0
176
     1
290
     0
176
     1
290
     0
176
     1
 90
       50
176
     1
 40
0.0
176
     1
 40
1.0
176
     1
 90
        0
176
     1
 62
    18
176
     1
 90
       50
176
     1
 90
        3
176
     1
 62
     5
420
      255
176
     1
290
     0
176
     1
 90
       50
176
     1
 90
       50
176
     1
 90
       50
176
     1
290
     0
176
     1
 90
       50
176
     1
 62
   256
176
     0
 40
1.0
176
     0
 90
        2
176
     1
  1
strokes_ogs.tif
176
     1
290
     0
176
     1
 40
1.0
176
     1
 40
1.0
176
     1
1001
ACAD
1000
AcRTDxfName
1000
VISUALSTYLE
1000
AcRTDxfName
1000
VISUALSTYLE
1000
AcRTDxfName
1000
VISUALSTYLE
1000
AcRTDxfName
1000
VISUALSTYLE
1000
AcRTDxfName
1000
VISUALSTYLE
1000
AcRTDxfName
1000
VISUALSTYLE
1000
AcRTDxfName
1000
VISUALSTYLE
1000
AcRTDxfName
1000
VISUALSTYLE
1000
AcRTDxfName
1000
VISUALSTYLE
1000
AcRTDxfName
1000
VISUALSTYLE
1000
AcRTDxfName
1000
VISUALSTYLE
1000
AcRTDxfName
1000
VISUALSTYLE
1000
AcDbSavedByObjectVersion
1070
     0
  0
VISUALSTYLE
  5
D1BE
102
{ACAD_REACTORS
330
D1B7
102
}
330
D1B7
100
AcDbVisualStyle
  2
3dWireframe
 70
     5
177
     3
291
     0
 70
    58
 90
        0
176
     1
 90
        2
176
     1
 90
        0
176
     1
 90
        0
176
     1
 40
0.6
176
     1
 40
30.0
176
     1
 62
     7
176
     1
 90
        1
176
     1
 90
        4
176
     1
 62
     7
176
     1
 62
   257
176
     1
 90
        1
176
     1
 90
        1
176
     1
 40
1.0
176
     1
 90
        0
176
     1
 62
   257
176
     1
 40
1.0
176
     1
 90
        1
176
     1
 90
        6
176
     1
 90
        2
176
     1
 62
     7
176
     1
 90
        5
176
     1
 90
        0
176
     1
 90
        0
176
     1
290
     0
176
     1
 90
        1
176
     1
 40
0.0
176
     1
 90
        0
176
     1
290
     0
176
     1
290
     1
176
     1
290
     1
176
     1
290
     0
176
     1
290
     0
176
     1
290
     0
176
     1
290
     0
176
     1
290
     0
176
     1
290
     0
176
     1
 90
       50
176
     1
 40
0.0
176
     1
 40
1.0
176
     1
 90
        0
176
     1
 62
    18
176
     1
 90
       50
176
     1
 90
        3
176
     1
 62
     5
420
      255
176
     1
290
     0
176
     1
 90
       50
176
     1
 90
       50
176
     1
 90
       50
176
     1
290
     0
176
     1
 90
       50
176
     1
 62
   256
176
     0
 40
1.0
176
     0
 90
        2
176
     1
  1
strokes_ogs.tif
176
     1
290
     0
176
     1
 40
1.0
176
     1
 40
1.0
176
     1
1001
ACAD
1000
AcRTDxfName
1000
VISUALSTYLE
1000
AcRTDxfName
1000
VISUALSTYLE
1000
AcRTDxfName
1000
VISUALSTYLE
1000
AcRTDxfName
1000
VISUALSTYLE
1000
AcRTDxfName
1000
VISUALSTYLE
1000
AcRTDxfName
1000
VISUALSTYLE
1000
AcRTDxfName
1000
VISUALSTYLE
1000
AcRTDxfName
1000
VISUALSTYLE
1000
AcRTDxfName
1000
VISUALSTYLE
1000
AcRTDxfName
1000
VISUALSTYLE
1000
AcRTDxfName
1000
VISUALSTYLE
1000
AcRTDxfName
1000
VISUALSTYLE
1000
AcDbSavedByObjectVersion
1070
     0
  0
VISUALSTYLE
  5
D1BC
102
{ACAD_REACTORS
330
D1B7
102
}
330
D1B7
100
AcDbVisualStyle
  2
Basic
 70
     7
177
     3
291
     1
 70
    58
 90
        1
176
     1
 90
        0
176
     1
 90
        1
176
     1
 90
        0
176
     1
 40
0.6
176
     1
 40
30.0
176
     1
 62
     7
176
     1
 90
        0
176
     1
 90
        4
176
     1
 62
     7
176
     1
 62
   257
176
     1
 90
        1
176
     1
 90
        1
176
     1
 40
1.0
176
     1
 90
        8
176
     1
 62
     7
176
     1
 40
1.0
176
     1
 90
        1
176
     1
 90
        6
176
     1
 90
        2
176
     1
 62
     7
176
     1
 90
        5
176
     1
 90
        0
176
     1
 90
        0
176
     1
290
     0
176
     1
 90
        1
176
     1
 40
0.0
176
     1
 90
        0
176
     1
290
     0
176
     1
290
     1
176
     1
290
     1
176
     1
290
     0
176
     1
290
     0
176
     1
290
     0
176
     1
290
     0
176
     1
290
     0
176
     1
290
     0
176
     1
 90
       50
176
     1
 40
0.0
176
     1
 40
1.0
176
     1
 90
        0
176
     1
 62
    18
176
     1
 90
       50
176
     1
 90
        3
176
     1
 62
     5
420
      255
176
     1
290
     0
176
     1
 90
       50
176
     1
 90
       50
176
     1
 90
       50
176
     1
290
     0
176
     1
 90
       50
176
     1
 62
   256
176
     0
 40
1.0
176
     0
 90
        2
176
     1
  1
strokes_ogs.tif
176
     1
290
     0
176
     1
 40
1.0
176
     1
 40
1.0
176
     1
1001
ACAD
1000
AcRTDxfName
1000
VISUALSTYLE
1000
AcRTDxfName
1000
VISUALSTYLE
1000
AcRTDxfName
1000
VISUALSTYLE
1000
AcRTDxfName
1000
VISUALSTYLE
1000
AcRTDxfName
1000
VISUALSTYLE
1000
AcRTDxfName
1000
VISUALSTYLE
1000
AcRTDxfName
1000
VISUALSTYLE
1000
AcRTDxfName
1000
VISUALSTYLE
1000
AcRTDxfName
1000
VISUALSTYLE
1000
AcRTDxfName
1000
VISUALSTYLE
1000
AcRTDxfName
1000
VISUALSTYLE
1000
AcRTDxfName
1000
VISUALSTYLE
1000
AcDbSavedByObjectVersion
1070
     0
  0
VISUALSTYLE
  5
D1C3
102
{ACAD_REACTORS
330
D1B7
102
}
330
D1B7
100
AcDbVisualStyle
  2
Brighten
 70
    12
177
     3
291
     1
 70
    58
 90
        2
176
     1
 90
        2
176
     1
 90
        0
176
     1
 90
        0
176
     1
 40
0.6
176
     1
 40
30.0
176
     1
 62
     7
176
     1
 90
        1
176
     1
 90
        4
176
     1
 62
     7
176
     1
 62
   257
176
     1
 90
        1
176
     1
 90
        1
176
     1
 40
1.0
176
     1
 90
        8
176
     1
 62
     7
176
     1
 40
1.0
176
     1
 90
        1
176
     1
 90
        6
176
     1
 90
        2
176
     1
 62
     7
176
     1
 90
        5
176
     1
 90
        0
176
     1
 90
        0
176
     1
290
     0
176
     1
 90
        1
176
     1
 40
50.0
176
     1
 90
        0
176
     1
290
     0
176
     1
290
     1
176
     1
290
     1
176
     1
290
     0
176
     1
290
     0
176
     1
290
     0
176
     1
290
     0
176
     1
290
     0
176
     1
290
     0
176
     1
 90
       50
176
     1
 40
0.0
176
     1
 40
1.0
176
     1
 90
        0
176
     1
 62
    18
176
     1
 90
       50
176
     1
 90
        3
176
     1
 62
     5
420
      255
176
     1
290
     0
176
     1
 90
       50
176
     1
 90
       50
176
     1
 90
       50
176
     1
290
     0
176
     1
 90
       50
176
     1
 62
   256
176
     0
 40
1.0
176
     0
 90
        2
176
     1
  1
strokes_ogs.tif
176
     1
290
     0
176
     1
 40
1.0
176
     1
 40
1.0
176
     1
1001
ACAD
1000
AcRTDxfName
1000
VISUALSTYLE
1000
AcRTDxfName
1000
VISUALSTYLE
1000
AcRTDxfName
1000
VISUALSTYLE
1000
AcRTDxfName
1000
VISUALSTYLE
1000
AcRTDxfName
1000
VISUALSTYLE
1000
AcRTDxfName
1000
VISUALSTYLE
1000
AcRTDxfName
1000
VISUALSTYLE
1000
AcRTDxfName
1000
VISUALSTYLE
1000
AcRTDxfName
1000
VISUALSTYLE
1000
AcRTDxfName
1000
VISUALSTYLE
1000
AcRTDxfName
1000
VISUALSTYLE
1000
AcRTDxfName
1000
VISUALSTYLE
1000
AcDbSavedByObjectVersion
1070
     0
  0
VISUALSTYLE
  5
D1C7
102
{ACAD_REACTORS
330
D1B7
102
}
330
D1B7
100
AcDbVisualStyle
  2
ColorChange
 70
    16
177
     3
291
     1
 70
    58
 90
        2
176
     1
 90
        2
176
     1
 90
        3
176
     1
 90
        0
176
     1
 40
0.6
176
     1
 40
30.0
176
     1
 62
     8
176
     1
 90
        1
176
     1
 90
        4
176
     1
 62
     7
176
     1
 62
   257
176
     1
 90
        1
176
     1
 90
        1
176
     1
 40
1.0
176
     1
 90
        8
176
     1
 62
     8
176
     1
 40
1.0
176
     1
 90
        1
176
     1
 90
        6
176
     1
 90
        2
176
     1
 62
     7
176
     1
 90
        5
176
     1
 90
        0
176
     1
 90
        0
176
     1
290
     0
176
     1
 90
        1
176
     1
 40
0.0
176
     1
 90
        0
176
     1
290
     0
176
     1
290
     1
176
     1
290
     1
176
     1
290
     0
176
     1
290
     0
176
     1
290
     0
176
     1
290
     0
176
     1
290
     0
176
     1
290
     0
176
     1
 90
       50
176
     1
 40
0.0
176
     1
 40
1.0
176
     1
 90
        0
176
     1
 62
    18
176
     1
 90
       50
176
     1
 90
        3
176
     1
 62
     5
420
      255
176
     1
290
     0
176
     1
 90
       50
176
     1
 90
       50
176
     1
 90
       50
176
     1
290
     0
176
     1
 90
       50
176
     1
 62
   256
176
     0
 40
1.0
176
     0
 90
        2
176
     1
  1
strokes_ogs.tif
176
     1
290
     0
176
     1
 40
1.0
176
     1
 40
1.0
176
     1
1001
ACAD
1000
AcRTDxfName
1000
VISUALSTYLE
1000
AcRTDxfName
1000
VISUALSTYLE
1000
AcRTDxfName
1000
VISUALSTYLE
1000
AcRTDxfName
1000
VISUALSTYLE
1000
AcRTDxfName
1000
VISUALSTYLE
1000
AcRTDxfName
1000
VISUALSTYLE
1000
AcRTDxfName
1000
VISUALSTYLE
1000
AcRTDxfName
1000
VISUALSTYLE
1000
AcRTDxfName
1000
VISUALSTYLE
1000
AcRTDxfName
1000
VISUALSTYLE
1000
AcRTDxfName
1000
VISUALSTYLE
1000
AcRTDxfName
1000
VISUALSTYLE
1000
AcDbSavedByObjectVersion
1070
     0
  0
VISUALSTYLE
  5
D1C0
102
{ACAD_REACTORS
330
D1B7
102
}
330
D1B7
100
AcDbVisualStyle
  2
Conceptual
 70
     9
177
     3
291
     0
 70
    58
 90
        3
176
     1
 90
        2
176
     1
 90
        0
176
     1
 90
        0
176
     1
 40
0.6
176
     1
 40
30.0
176
     1
 62
     7
176
     1
 90
        2
176
     1
 90
        2
176
     1
 62
     7
176
     1
 62
   257
176
     1
 90
        1
176
     1
 90
        1
176
     1
 40
40.0
176
     1
 90
        8
176
     1
 62
     7
176
     1
 40
1.0
176
     1
 90
        1
176
     1
 90
        6
176
     1
 90
        2
176
     1
 62
     7
176
     1
 90
        3
176
     1
 90
        0
176
     1
 90
        0
176
     1
290
     0
176
     1
 90
        1
176
     1
 40
0.0
176
     1
 90
        0
176
     1
290
     0
176
     1
290
     1
176
     1
290
     1
176
     1
290
     0
176
     1
290
     0
176
     1
290
     0
176
     1
290
     0
176
     1
290
     0
176
     1
290
     0
176
     1
 90
       50
176
     1
 40
0.0
176
     1
 40
1.0
176
     1
 90
        0
176
     1
 62
    18
176
     1
 90
       50
176
     1
 90
        3
176
     1
 62
     5
420
      255
176
     1
290
     0
176
     1
 90
       50
176
     1
 90
       50
176
     1
 90
       50
176
     1
290
     0
176
     1
 90
       50
176
     1
 62
   256
176
     0
 40
1.0
176
     0
 90
        2
176
     1
  1
strokes_ogs.tif
176
     1
290
     0
176
     1
 40
1.0
176
     1
 40
1.0
176
     1
1001
ACAD
1000
AcRTDxfName
1000
VISUALSTYLE
1000
AcRTDxfName
1000
VISUALSTYLE
1000
AcRTDxfName
1000
VISUALSTYLE
1000
AcRTDxfName
1000
VISUALSTYLE
1000
AcRTDxfName
1000
VISUALSTYLE
1000
AcRTDxfName
1000
VISUALSTYLE
1000
AcRTDxfName
1000
VISUALSTYLE
1000
AcRTDxfName
1000
VISUALSTYLE
1000
AcRTDxfName
1000
VISUALSTYLE
1000
AcRTDxfName
1000
VISUALSTYLE
1000
AcRTDxfName
1000
VISUALSTYLE
1000
AcRTDxfName
1000
VISUALSTYLE
1000
AcDbSavedByObjectVersion
1070
     0
  0
VISUALSTYLE
  5
D1C2
102
{ACAD_REACTORS
330
D1B7
102
}
330
D1B7
100
AcDbVisualStyle
  2
Dim
 70
    11
177
     3
291
     1
 70
    58
 90
        2
176
     1
 90
        2
176
     1
 90
        0
176
     1
 90
        0
176
     1
 40
0.6
176
     1
 40
30.0
176
     1
 62
     7
176
     1
 90
        1
176
     1
 90
        4
176
     1
 62
     7
176
     1
 62
   257
176
     1
 90
        1
176
     1
 90
        1
176
     1
 40
1.0
176
     1
 90
        8
176
     1
 62
     7
176
     1
 40
1.0
176
     1
 90
        1
176
     1
 90
        6
176
     1
 90
        2
176
     1
 62
     7
176
     1
 90
        5
176
     1
 90
        0
176
     1
 90
        0
176
     1
290
     0
176
     1
 90
        1
176
     1
 40
-50.0
176
     1
 90
        0
176
     1
290
     0
176
     1
290
     1
176
     1
290
     1
176
     1
290
     0
176
     1
290
     0
176
     1
290
     0
176
     1
290
     0
176
     1
290
     0
176
     1
290
     0
176
     1
 90
       50
176
     1
 40
0.0
176
     1
 40
1.0
176
     1
 90
        0
176
     1
 62
    18
176
     1
 90
       50
176
     1
 90
        3
176
     1
 62
     5
420
      255
176
     1
290
     0
176
     1
 90
       50
176
     1
 90
       50
176
     1
 90
       50
176
     1
290
     0
176
     1
 90
       50
176
     1
 62
   256
176
     0
 40
1.0
176
     0
 90
        2
176
     1
  1
strokes_ogs.tif
176
     1
290
     0
176
     1
 40
1.0
176
     1
 40
1.0
176
     1
1001
ACAD
1000
AcRTDxfName
1000
VISUALSTYLE
1000
AcRTDxfName
1000
VISUALSTYLE
1000
AcRTDxfName
1000
VISUALSTYLE
1000
AcRTDxfName
1000
VISUALSTYLE
1000
AcRTDxfName
1000
VISUALSTYLE
1000
AcRTDxfName
1000
VISUALSTYLE
1000
AcRTDxfName
1000
VISUALSTYLE
1000
AcRTDxfName
1000
VISUALSTYLE
1000
AcRTDxfName
1000
VISUALSTYLE
1000
AcRTDxfName
1000
VISUALSTYLE
1000
AcRTDxfName
1000
VISUALSTYLE
1000
AcRTDxfName
1000
VISUALSTYLE
1000
AcDbSavedByObjectVersion
1070
     0
  0
VISUALSTYLE
  5
1034C
102
{ACAD_REACTORS
330
D1B7
102
}
330
D1B7
100
AcDbVisualStyle
  2
EdgeColorOff
 70
    22
177
     3
291
     1
 70
    58
 90
        2
176
     0
 90
        2
176
     0
 90
        0
176
     0
 90
        0
176
     0
 40
0.6
176
     0
 40
30.0
176
     0
 62
     7
420
 16777215
176
     0
 90
        1
176
     0
 90
        4
176
     0
 62
     7
176
     0
 62
   257
176
     0
 90
        1
176
     0
 90
        1
176
     0
 40
1.0
176
     0
 90
        8
176
     2
 62
     7
176
     0
 40
1.0
176
     0
 90
        1
176
     0
 90
        6
176
     0
 90
        2
176
     0
 62
     7
176
     0
 90
        5
176
     0
 90
        0
176
     0
 90
        0
176
     0
290
     0
176
     0
 90
        1
176
     0
 40
0.0
176
     0
 90
        0
176
     0
290
     0
176
     0
290
     1
176
     0
290
     1
176
     0
290
     0
176
     0
290
     0
176
     0
290
     0
176
     0
290
     0
176
     0
290
     0
176
     0
290
     0
176
     0
 90
       50
176
     0
 40
0.0
176
     0
 40
1.0
176
     0
 90
        0
176
     0
 62
    18
176
     0
 90
       50
176
     0
 90
        3
176
     0
 62
     5
420
      255
176
     0
290
     0
176
     0
 90
       50
176
     0
 90
       50
176
     0
 90
       50
176
     0
290
     0
176
     0
 90
       50
176
     0
 62
   256
176
     0
 40
1.0
176
     0
 90
        2
176
     0
  1
strokes_ogs.tif
176
     0
290
     0
176
     0
 40
1.0
176
     0
 40
1.0
176
     0
1001
ACAD
1000
AcDbSavedByObjectVersion
1070
     0
  0
VISUALSTYLE
  5
D1C6
102
{ACAD_REACTORS
330
D1B7
102
}
330
D1B7
100
AcDbVisualStyle
  2
Facepattern
 70
    15
177
     3
291
     1
 70
    58
 90
        2
176
     1
 90
        2
176
     1
 90
        0
176
     1
 90
        0
176
     1
 40
0.6
176
     1
 40
30.0
176
     1
 62
     7
176
     1
 90
        1
176
     1
 90
        4
176
     1
 62
     7
176
     1
 62
   257
176
     1
 90
        1
176
     1
 90
        1
176
     1
 40
1.0
176
     1
 90
        8
176
     1
 62
     7
176
     1
 40
1.0
176
     1
 90
        1
176
     1
 90
        6
176
     1
 90
        2
176
     1
 62
     7
176
     1
 90
        5
176
     1
 90
        0
176
     1
 90
        0
176
     1
290
     0
176
     1
 90
        1
176
     1
 40
0.0
176
     1
 90
        0
176
     1
290
     0
176
     1
290
     1
176
     1
290
     1
176
     1
290
     0
176
     1
290
     0
176
     1
290
     0
176
     1
290
     0
176
     1
290
     0
176
     1
290
     0
176
     1
 90
       50
176
     1
 40
0.0
176
     1
 40
1.0
176
     1
 90
        0
176
     1
 62
    18
176
     1
 90
       50
176
     1
 90
        3
176
     1
 62
     5
420
      255
176
     1
290
     0
176
     1
 90
       50
176
     1
 90
       50
176
     1
 90
       50
176
     1
290
     0
176
     1
 90
       50
176
     1
 62
   256
176
     0
 40
1.0
176
     0
 90
        2
176
     1
  1
strokes_ogs.tif
176
     1
290
     0
176
     1
 40
1.0
176
     1
 40
1.0
176
     1
1001
ACAD
1000
AcRTDxfName
1000
VISUALSTYLE
1000
AcRTDxfName
1000
VISUALSTYLE
1000
AcRTDxfName
1000
VISUALSTYLE
1000
AcRTDxfName
1000
VISUALSTYLE
1000
AcRTDxfName
1000
VISUALSTYLE
1000
AcRTDxfName
1000
VISUALSTYLE
1000
AcRTDxfName
1000
VISUALSTYLE
1000
AcRTDxfName
1000
VISUALSTYLE
1000
AcRTDxfName
1000
VISUALSTYLE
1000
AcRTDxfName
1000
VISUALSTYLE
1000
AcRTDxfName
1000
VISUALSTYLE
1000
AcRTDxfName
1000
VISUALSTYLE
1000
AcDbSavedByObjectVersion
1070
     0
  0
VISUALSTYLE
  5
D1B8
102
{ACAD_REACTORS
330
D1B7
102
}
330
D1B7
100
AcDbVisualStyle
  2
Flat
 70
     0
177
     3
291
     1
 70
    58
 90
        2
176
     1
 90
        1
176
     1
 90
        1
176
     1
 90
        2
176
     1
 40
0.6
176
     1
 40
30.0
176
     1
 62
     7
176
     1
 90
        0
176
     1
 90
        4
176
     1
 62
     7
176
     1
 62
   257
176
     1
 90
        1
176
     1
 90
        1
176
     1
 40
1.0
176
     1
 90
        8
176
     1
 62
     7
176
     1
 40
1.0
176
     1
 90
        1
176
     1
 90
        6
176
     1
 90
        2
176
     1
 62
     7
176
     1
 90
        5
176
     1
 90
        0
176
     1
 90
        0
176
     1
290
     0
176
     1
 90
       13
176
     1
 40
0.0
176
     1
 90
        0
176
     1
290
     0
176
     1
290
     1
176
     1
290
     1
176
     1
290
     0
176
     1
290
     0
176
     1
290
     0
176
     1
290
     0
176
     1
290
     0
176
     1
290
     0
176
     1
 90
       50
176
     1
 40
0.0
176
     1
 40
1.0
176
     1
 90
        0
176
     1
 62
    18
176
     1
 90
       50
176
     1
 90
        3
176
     1
 62
     5
420
      255
176
     1
290
     0
176
     1
 90
       50
176
     1
 90
       50
176
     1
 90
       50
176
     1
290
     0
176
     1
 90
       50
176
     1
 62
   256
176
     0
 40
1.0
176
     0
 90
        2
176
     1
  1
strokes_ogs.tif
176
     1
290
     0
176
     1
 40
1.0
176
     1
 40
1.0
176
     1
1001
ACAD
1000
AcRTDxfName
1000
VISUALSTYLE
1000
AcRTDxfName
1000
VISUALSTYLE
1000
AcRTDxfName
1000
VISUALSTYLE
1000
AcRTDxfName
1000
VISUALSTYLE
1000
AcRTDxfName
1000
VISUALSTYLE
1000
AcRTDxfName
1000
VISUALSTYLE
1000
AcRTDxfName
1000
VISUALSTYLE
1000
AcRTDxfName
1000
VISUALSTYLE
1000
AcRTDxfName
1000
VISUALSTYLE
1000
AcRTDxfName
1000
VISUALSTYLE
1000
AcRTDxfName
1000
VISUALSTYLE
1000
AcRTDxfName
1000
VISUALSTYLE
1000
AcDbSavedByObjectVersion
1070
     0
  0
VISUALSTYLE
  5
D1B9
102
{ACAD_REACTORS
330
D1B7
102
}
330
D1B7
100
AcDbVisualStyle
  2
FlatWithEdges
 70
     1
177
     3
291
     1
 70
    58
 90
        2
176
     1
 90
        1
176
     1
 90
        1
176
     1
 90
        2
176
     1
 40
0.6
176
     1
 40
30.0
176
     1
 62
     7
176
     1
 90
        1
176
     1
 90
        4
176
     1
 62
     7
176
     1
 62
   257
176
     1
 90
        1
176
     1
 90
        1
176
     1
 40
1.0
176
     1
 90
        0
176
     1
 62
   257
176
     1
 40
1.0
176
     1
 90
        1
176
     1
 90
        6
176
     1
 90
        2
176
     1
 62
     7
176
     1
 90
        5
176
     1
 90
        0
176
     1
 90
        0
176
     1
290
     0
176
     1
 90
       13
176
     1
 40
0.0
176
     1
 90
        0
176
     1
290
     0
176
     1
290
     1
176
     1
290
     1
176
     1
290
     0
176
     1
290
     0
176
     1
290
     0
176
     1
290
     0
176
     1
290
     0
176
     1
290
     0
176
     1
 90
       50
176
     1
 40
0.0
176
     1
 40
1.0
176
     1
 90
        0
176
     1
 62
    18
176
     1
 90
       50
176
     1
 90
        3
176
     1
 62
     5
420
      255
176
     1
290
     0
176
     1
 90
       50
176
     1
 90
       50
176
     1
 90
       50
176
     1
290
     0
176
     1
 90
       50
176
     1
 62
   256
176
     0
 40
1.0
176
     0
 90
        2
176
     1
  1
strokes_ogs.tif
176
     1
290
     0
176
     1
 40
1.0
176
     1
 40
1.0
176
     1
1001
ACAD
1000
AcRTDxfName
1000
VISUALSTYLE
1000
AcRTDxfName
1000
VISUALSTYLE
1000
AcRTDxfName
1000
VISUALSTYLE
1000
AcRTDxfName
1000
VISUALSTYLE
1000
AcRTDxfName
1000
VISUALSTYLE
1000
AcRTDxfName
1000
VISUALSTYLE
1000
AcRTDxfName
1000
VISUALSTYLE
1000
AcRTDxfName
1000
VISUALSTYLE
1000
AcRTDxfName
1000
VISUALSTYLE
1000
AcRTDxfName
1000
VISUALSTYLE
1000
AcRTDxfName
1000
VISUALSTYLE
1000
AcRTDxfName
1000
VISUALSTYLE
1000
AcDbSavedByObjectVersion
1070
     0
  0
VISUALSTYLE
  5
D1BA
102
{ACAD_REACTORS
330
D1B7
102
}
330
D1B7
100
AcDbVisualStyle
  2
Gouraud
 70
     2
177
     3
291
     1
 70
    58
 90
        2
176
     1
 90
        2
176
     1
 90
        1
176
     1
 90
        2
176
     1
 40
0.6
176
     1
 40
30.0
176
     1
 62
     7
176
     1
 90
        0
176
     1
 90
        4
176
     1
 62
     7
176
     1
 62
   257
176
     1
 90
        1
176
     1
 90
        1
176
     1
 40
1.0
176
     1
 90
        0
176
     1
 62
     7
176
     1
 40
1.0
176
     1
 90
        1
176
     1
 90
        6
176
     1
 90
        2
176
     1
 62
     7
176
     1
 90
        5
176
     1
 90
        0
176
     1
 90
        0
176
     1
290
     0
176
     1
 90
       13
176
     1
 40
0.0
176
     1
 90
        0
176
     1
290
     0
176
     1
290
     1
176
     1
290
     1
176
     1
290
     0
176
     1
290
     0
176
     1
290
     0
176
     1
290
     0
176
     1
290
     0
176
     1
290
     0
176
     1
 90
       50
176
     1
 40
0.0
176
     1
 40
1.0
176
     1
 90
        0
176
     1
 62
    18
176
     1
 90
       50
176
     1
 90
        3
176
     1
 62
     5
420
      255
176
     1
290
     0
176
     1
 90
       50
176
     1
 90
       50
176
     1
 90
       50
176
     1
290
     0
176
     1
 90
       50
176
     1
 62
   256
176
     0
 40
1.0
176
     0
 90
        2
176
     1
  1
strokes_ogs.tif
176
     1
290
     0
176
     1
 40
1.0
176
     1
 40
1.0
176
     1
1001
ACAD
1000
AcRTDxfName
1000
VISUALSTYLE
1000
AcRTDxfName
1000
VISUALSTYLE
1000
AcRTDxfName
1000
VISUALSTYLE
1000
AcRTDxfName
1000
VISUALSTYLE
1000
AcRTDxfName
1000
VISUALSTYLE
1000
AcRTDxfName
1000
VISUALSTYLE
1000
AcRTDxfName
1000
VISUALSTYLE
1000
AcRTDxfName
1000
VISUALSTYLE
1000
AcRTDxfName
1000
VISUALSTYLE
1000
AcRTDxfName
1000
VISUALSTYLE
1000
AcRTDxfName
1000
VISUALSTYLE
1000
AcRTDxfName
1000
VISUALSTYLE
1000
AcDbSavedByObjectVersion
1070
     0
  0
VISUALSTYLE
  5
D1BB
102
{ACAD_REACTORS
330
D1B7
102
}
330
D1B7
100
AcDbVisualStyle
  2
GouraudWithEdges
 70
     3
177
     3
291
     1
 70
    58
 90
        2
176
     1
 90
        2
176
     1
 90
        1
176
     1
 90
        2
176
     1
 40
0.6
176
     1
 40
30.0
176
     1
 62
     7
176
     1
 90
        1
176
     1
 90
        4
176
     1
 62
     7
176
     1
 62
   257
176
     1
 90
        1
176
     1
 90
        1
176
     1
 40
1.0
176
     1
 90
        0
176
     1
 62
   257
176
     1
 40
1.0
176
     1
 90
        1
176
     1
 90
        6
176
     1
 90
        2
176
     1
 62
     7
176
     1
 90
        5
176
     1
 90
        0
176
     1
 90
        0
176
     1
290
     0
176
     1
 90
       13
176
     1
 40
0.0
176
     1
 90
        0
176
     1
290
     0
176
     1
290
     1
176
     1
290
     1
176
     1
290
     0
176
     1
290
     0
176
     1
290
     0
176
     1
290
     0
176
     1
290
     0
176
     1
290
     0
176
     1
 90
       50
176
     1
 40
0.0
176
     1
 40
1.0
176
     1
 90
        0
176
     1
 62
    18
176
     1
 90
       50
176
     1
 90
        3
176
     1
 62
     5
420
      255
176
     1
290
     0
176
     1
 90
       50
176
     1
 90
       50
176
     1
 90
       50
176
     1
290
     0
176
     1
 90
       50
176
     1
 62
   256
176
     0
 40
1.0
176
     0
 90
        2
176
     1
  1
strokes_ogs.tif
176
     1
290
     0
176
     1
 40
1.0
176
     1
 40
1.0
176
     1
1001
ACAD
1000
AcRTDxfName
1000
VISUALSTYLE
1000
AcRTDxfName
1000
VISUALSTYLE
1000
AcRTDxfName
1000
VISUALSTYLE
1000
AcRTDxfName
1000
VISUALSTYLE
1000
AcRTDxfName
1000
VISUALSTYLE
1000
AcRTDxfName
1000
VISUALSTYLE
1000
AcRTDxfName
1000
VISUALSTYLE
1000
AcRTDxfName
1000
VISUALSTYLE
1000
AcRTDxfName
1000
VISUALSTYLE
1000
AcRTDxfName
1000
VISUALSTYLE
1000
AcRTDxfName
1000
VISUALSTYLE
1000
AcRTDxfName
1000
VISUALSTYLE
1000
AcDbSavedByObjectVersion
1070
     0
  0
VISUALSTYLE
  5
10344
102
{ACAD_REACTORS
330
D1B7
102
}
330
D1B7
100
AcDbVisualStyle
  2
Hidden
 70
     6
177
     3
291
     0
 70
    58
 90
        1
176
     1
 90
        2
176
     1
 90
        2
176
     1
 90
        0
176
     1
 40
0.6
176
     1
 40
30.0
176
     1
 62
     7
420
 16777215
176
     1
 90
        2
176
     1
 90
        2
176
     1
 62
     7
176
     1
 62
   257
176
     1
 90
        2
176
     1
 90
        1
176
     1
 40
40.0
176
     1
 90
        0
176
     1
 62
   257
176
     1
 40
1.0
176
     1
 90
        1
176
     1
 90
        6
176
     1
 90
        2
176
     1
 62
     7
176
     1
 90
        3
176
     1
 90
        0
176
     1
 90
        0
176
     1
290
     0
176
     1
 90
        1
176
     1
 40
0.0
176
     1
 90
        0
176
     1
290
     0
176
     1
290
     1
176
     1
290
     1
176
     1
290
     0
176
     1
290
     0
176
     1
290
     0
176
     1
290
     0
176
     1
290
     0
176
     1
290
     0
176
     1
 90
       50
176
     1
 40
0.0
176
     1
 40
1.0
176
     1
 90
        0
176
     1
 62
    18
176
     1
 90
       50
176
     1
 90
        3
176
     1
 62
     5
420
      255
176
     1
290
     0
176
     1
 90
       50
176
     1
 90
       50
176
     1
 90
       50
176
     1
290
     0
176
     1
 90
       50
176
     1
 62
   256
176
     0
 40
1.0
176
     0
 90
        2
176
     1
  1
strokes_ogs.tif
176
     1
290
     0
176
     1
 40
1.0
176
     1
 40
1.0
176
     1
1001
ACAD
1000
AcDbSavedByObjectVersion
1070
     0
  0
VISUALSTYLE
  5
1034A
102
{ACAD_REACTORS
330
D1B7
102
}
330
D1B7
100
AcDbVisualStyle
  2
JitterOff
 70
    20
177
     3
291
     1
 70
    58
 90
        2
176
     0
 90
        2
176
     0
 90
        0
176
     0
 90
        0
176
     0
 40
0.6
176
     0
 40
30.0
176
     0
 62
     7
420
 16777215
176
     0
 90
        1
176
     0
 90
        4
176
     0
 62
     7
176
     0
 62
   257
176
     0
 90
        1
176
     0
 90
        1
176
     0
 40
1.0
176
     0
 90
       10
176
     2
 62
     7
176
     0
 40
1.0
176
     0
 90
        1
176
     0
 90
        6
176
     0
 90
        2
176
     0
 62
     7
176
     0
 90
        5
176
     0
 90
        0
176
     0
 90
        0
176
     0
290
     0
176
     0
 90
        1
176
     0
 40
0.0
176
     0
 90
        0
176
     0
290
     0
176
     0
290
     1
176
     0
290
     1
176
     0
290
     0
176
     0
290
     0
176
     0
290
     0
176
     0
290
     0
176
     0
290
     0
176
     0
290
     0
176
     0
 90
       50
176
     0
 40
0.0
176
     0
 40
1.0
176
     0
 90
        0
176
     0
 62
    18
176
     0
 90
       50
176
     0
 90
        3
176
     0
 62
     5
420
      255
176
     0
290
     0
176
     0
 90
       50
176
     0
 90
       50
176
     0
 90
       50
176
     0
290
     0
176
     0
 90
       50
176
     0
 62
   256
176
     0
 40
1.0
176
     0
 90
        2
176
     0
  1
strokes_ogs.tif
176
     0
290
     0
176
     0
 40
1.0
176
     0
 40
1.0
176
     0
1001
ACAD
1000
AcDbSavedByObjectVersion
1070
     0
  0
VISUALSTYLE
  5
D1C5
102
{ACAD_REACTORS
330
D1B7
102
}
330
D1B7
100
AcDbVisualStyle
  2
Linepattern
 70
    14
177
     3
291
     1
 70
    58
 90
        2
176
     1
 90
        2
176
     1
 90
        0
176
     1
 90
        0
176
     1
 40
0.6
176
     1
 40
30.0
176
     1
 62
     7
176
     1
 90
        1
176
     1
 90
        4
176
     1
 62
     7
176
     1
 62
   257
176
     1
 90
        7
176
     1
 90
        7
176
     1
 40
1.0
176
     1
 90
        8
176
     1
 62
     7
176
     1
 40
1.0
176
     1
 90
        1
176
     1
 90
        6
176
     1
 90
        2
176
     1
 62
     7
176
     1
 90
        5
176
     1
 90
        0
176
     1
 90
        0
176
     1
290
     0
176
     1
 90
        1
176
     1
 40
0.0
176
     1
 90
        0
176
     1
290
     0
176
     1
290
     1
176
     1
290
     1
176
     1
290
     0
176
     1
290
     0
176
     1
290
     0
176
     1
290
     0
176
     1
290
     0
176
     1
290
     0
176
     1
 90
       50
176
     1
 40
0.0
176
     1
 40
1.0
176
     1
 90
        0
176
     1
 62
    18
176
     1
 90
       50
176
     1
 90
        3
176
     1
 62
     5
420
      255
176
     1
290
     0
176
     1
 90
       50
176
     1
 90
       50
176
     1
 90
       50
176
     1
290
     0
176
     1
 90
       50
176
     1
 62
   256
176
     0
 40
1.0
176
     0
 90
        2
176
     1
  1
strokes_ogs.tif
176
     1
290
     0
176
     1
 40
1.0
176
     1
 40
1.0
176
     1
1001
ACAD
1000
AcRTDxfName
1000
VISUALSTYLE
1000
AcRTDxfName
1000
VISUALSTYLE
1000
AcRTDxfName
1000
VISUALSTYLE
1000
AcRTDxfName
1000
VISUALSTYLE
1000
AcRTDxfName
1000
VISUALSTYLE
1000
AcRTDxfName
1000
VISUALSTYLE
1000
AcRTDxfName
1000
VISUALSTYLE
1000
AcRTDxfName
1000
VISUALSTYLE
1000
AcRTDxfName
1000
VISUALSTYLE
1000
AcRTDxfName
1000
VISUALSTYLE
1000
AcRTDxfName
1000
VISUALSTYLE
1000
AcRTDxfName
1000
VISUALSTYLE
1000
AcDbSavedByObjectVersion
1070
     0
  0
VISUALSTYLE
  5
1034B
102
{ACAD_REACTORS
330
D1B7
102
}
330
D1B7
100
AcDbVisualStyle
  2
OverhangOff
 70
    21
177
     3
291
     1
 70
    58
 90
        2
176
     0
 90
        2
176
     0
 90
        0
176
     0
 90
        0
176
     0
 40
0.6
176
     0
 40
30.0
176
     0
 62
     7
420
 16777215
176
     0
 90
        1
176
     0
 90
        4
176
     0
 62
     7
176
     0
 62
   257
176
     0
 90
        1
176
     0
 90
        1
176
     0
 40
1.0
176
     0
 90
        9
176
     2
 62
     7
176
     0
 40
1.0
176
     0
 90
        1
176
     0
 90
        6
176
     0
 90
        2
176
     0
 62
     7
176
     0
 90
        5
176
     0
 90
        0
176
     0
 90
        0
176
     0
290
     0
176
     0
 90
        1
176
     0
 40
0.0
176
     0
 90
        0
176
     0
290
     0
176
     0
290
     1
176
     0
290
     1
176
     0
290
     0
176
     0
290
     0
176
     0
290
     0
176
     0
290
     0
176
     0
290
     0
176
     0
290
     0
176
     0
 90
       50
176
     0
 40
0.0
176
     0
 40
1.0
176
     0
 90
        0
176
     0
 62
    18
176
     0
 90
       50
176
     0
 90
        3
176
     0
 62
     5
420
      255
176
     0
290
     0
176
     0
 90
       50
176
     0
 90
       50
176
     0
 90
       50
176
     0
290
     0
176
     0
 90
       50
176
     0
 62
   256
176
     0
 40
1.0
176
     0
 90
        2
176
     0
  1
strokes_ogs.tif
176
     0
290
     0
176
     0
 40
1.0
176
     0
 40
1.0
176
     0
1001
ACAD
1000
AcDbSavedByObjectVersion
1070
     0
  0
VISUALSTYLE
  5
D1C1
102
{ACAD_REACTORS
330
D1B7
102
}
330
D1B7
100
AcDbVisualStyle
  2
Realistic
 70
     8
177
     3
291
     0
 70
    58
 90
        2
176
     1
 90
        2
176
     1
 90
        0
176
     1
 90
        0
176
     1
 40
0.6
176
     1
 40
30.0
176
     1
 62
     7
176
     1
 90
        1
176
     1
 90
        0
176
     1
 62
     7
176
     1
 62
   257
176
     1
 90
        1
176
     1
 90
        1
176
     1
 40
1.0
176
     1
 90
        8
176
     1
 62
     8
176
     1
 40
1.0
176
     1
 90
        1
176
     1
 90
        6
176
     1
 90
        2
176
     1
 62
     7
176
     1
 90
        5
176
     1
 90
        0
176
     1
 90
        0
176
     1
290
     0
176
     1
 90
       13
176
     1
 40
0.0
176
     1
 90
        0
176
     1
290
     0
176
     1
290
     1
176
     1
290
     1
176
     1
290
     0
176
     1
290
     0
176
     1
290
     0
176
     1
290
     0
176
     1
290
     0
176
     1
290
     0
176
     1
 90
       50
176
     1
 40
0.0
176
     1
 40
1.0
176
     1
 90
        0
176
     1
 62
    18
176
     1
 90
       50
176
     1
 90
        3
176
     1
 62
     5
420
      255
176
     1
290
     0
176
     1
 90
       50
176
     1
 90
       50
176
     1
 90
       50
176
     1
290
     0
176
     1
 90
       50
176
     1
 62
   256
176
     0
 40
1.0
176
     0
 90
        2
176
     1
  1
strokes_ogs.tif
176
     1
290
     0
176
     1
 40
1.0
176
     1
 40
1.0
176
     1
1001
ACAD
1000
AcRTDxfName
1000
VISUALSTYLE
1000
AcRTDxfName
1000
VISUALSTYLE
1000
AcRTDxfName
1000
VISUALSTYLE
1000
AcRTDxfName
1000
VISUALSTYLE
1000
AcRTDxfName
1000
VISUALSTYLE
1000
AcRTDxfName
1000
VISUALSTYLE
1000
AcRTDxfName
1000
VISUALSTYLE
1000
AcRTDxfName
1000
VISUALSTYLE
1000
AcRTDxfName
1000
VISUALSTYLE
1000
AcRTDxfName
1000
VISUALSTYLE
1000
AcRTDxfName
1000
VISUALSTYLE
1000
AcRTDxfName
1000
VISUALSTYLE
1000
AcDbSavedByObjectVersion
1070
     0
  0
VISUALSTYLE
  5
10349
102
{ACAD_REACTORS
330
D1B7
102
}
330
D1B7
100
AcDbVisualStyle
  2
Shaded
 70
    27
177
     3
291
     0
 70
    58
 90
        2
176
     1
 90
        2
176
     1
 90
        1
176
     1
 90
        2
176
     1
 40
0.6
176
     1
 40
30.0
176
     1
 62
     7
420
 16777215
176
     1
 90
        0
176
     1
 90
        4
176
     1
 62
     7
176
     1
 62
   257
176
     1
 90
        1
176
     1
 90
        1
176
     1
 40
1.0
176
     1
 90
        8
176
     1
 62
   257
176
     1
 40
1.0
176
     1
 90
        1
176
     1
 90
        6
176
     1
 90
        2
176
     1
 62
     8
420
  7895160
176
     1
 90
        3
176
     1
 90
        0
176
     1
 90
        0
176
     1
290
     0
176
     1
 90
        5
176
     1
 40
0.0
176
     1
 90
        0
176
     1
290
     0
176
     1
290
     1
176
     1
290
     1
176
     1
290
     0
176
     1
290
     0
176
     1
290
     0
176
     1
290
     0
176
     1
290
     0
176
     1
290
     0
176
     1
 90
       50
176
     1
 40
0.0
176
     1
 40
1.0
176
     1
 90
        0
176
     1
 62
    18
176
     1
 90
       50
176
     1
 90
        3
176
     1
 62
     5
420
      255
176
     1
290
     0
176
     1
 90
       50
176
     1
 90
       50
176
     1
 90
       50
176
     1
290
     0
176
     1
 90
       50
176
     1
 62
   256
176
     0
 40
1.0
176
     0
 90
        2
176
     1
  1
strokes_ogs.tif
176
     1
290
     0
176
     1
 40
1.0
176
     1
 40
1.0
176
     1
1001
ACAD
1000
AcDbSavedByObjectVersion
1070
     0
  0
VISUALSTYLE
  5
10348
102
{ACAD_REACTORS
330
D1B7
102
}
330
D1B7
100
AcDbVisualStyle
  2
Shaded with edges
 70
    26
177
     3
291
     0
 70
    58
 90
        2
176
     1
 90
        2
176
     1
 90
        1
176
     1
 90
        2
176
     1
 40
0.6
176
     1
 40
30.0
176
     1
 62
     7
420
 16777215
176
     1
 90
        1
176
     1
 90
        2
176
     1
 62
     7
176
     1
 62
   257
176
     1
 90
        2
176
     1
 90
        1
176
     1
 40
1.0
176
     1
 90
        8
176
     1
 62
   257
176
     1
 40
1.0
176
     1
 90
        1
176
     1
 90
        6
176
     1
 90
        2
176
     1
 62
     7
176
     1
 90
        3
176
     1
 90
        0
176
     1
 90
        0
176
     1
290
     0
176
     1
 90
        5
176
     1
 40
0.0
176
     1
 90
        0
176
     1
290
     0
176
     1
290
     1
176
     1
290
     1
176
     1
290
     0
176
     1
290
     0
176
     1
290
     0
176
     1
290
     0
176
     1
290
     0
176
     1
290
     0
176
     1
 90
       50
176
     1
 40
0.0
176
     1
 40
1.0
176
     1
 90
        0
176
     1
 62
    18
176
     1
 90
       50
176
     1
 90
        3
176
     1
 62
     5
420
      255
176
     1
290
     0
176
     1
 90
       50
176
     1
 90
       50
176
     1
 90
       50
176
     1
290
     0
176
     1
 90
       50
176
     1
 62
   256
176
     0
 40
1.0
176
     0
 90
        2
176
     1
  1
strokes_ogs.tif
176
     1
290
     0
176
     1
 40
1.0
176
     1
 40
1.0
176
     1
1001
ACAD
1000
AcDbSavedByObjectVersion
1070
     0
  0
VISUALSTYLE
  5
10345
102
{ACAD_REACTORS
330
D1B7
102
}
330
D1B7
100
AcDbVisualStyle
  2
Shades of Gray
 70
    23
177
     3
291
     0
 70
    58
 90
        2
176
     1
 90
        2
176
     1
 90
        3
176
     1
 90
        0
176
     1
 40
0.6
176
     1
 40
30.0
176
     1
 62
     7
420
 16777215
176
     1
 90
        2
176
     1
 90
        2
176
     1
 62
     7
176
     1
 62
     7
176
     1
 90
        1
176
     1
 90
        1
176
     1
 40
40.0
176
     1
 90
        8
176
     1
 62
     7
176
     1
 40
1.0
176
     1
 90
        1
176
     1
 90
        6
176
     1
 90
        2
176
     1
 62
     7
176
     1
 90
        3
176
     1
 90
        0
176
     1
 90
        0
176
     1
290
     0
176
     1
 90
        1
176
     1
 40
0.0
176
     1
 90
        0
176
     1
290
     0
176
     1
290
     1
176
     1
290
     1
176
     1
290
     0
176
     1
290
     0
176
     1
290
     0
176
     1
290
     0
176
     1
290
     0
176
     1
290
     0
176
     1
 90
       50
176
     1
 40
0.0
176
     1
 40
1.0
176
     1
 90
        0
176
     1
 62
    18
176
     1
 90
       50
176
     1
 90
        3
176
     1
 62
     5
420
      255
176
     1
290
     0
176
     1
 90
       50
176
     1
 90
       50
176
     1
 90
       50
176
     1
290
     0
176
     1
 90
       50
176
     1
 62
   256
176
     0
 40
1.0
176
     0
 90
        2
176
     1
  1
strokes_ogs.tif
176
     1
290
     0
176
     1
 40
1.0
176
     1
 40
1.0
176
     1
1001
ACAD
1000
AcDbSavedByObjectVersion
1070
     0
  0
VISUALSTYLE
  5
10346
102
{ACAD_REACTORS
330
D1B7
102
}
330
D1B7
100
AcDbVisualStyle
  2
Sketchy
 70
    24
177
     3
291
     0
 70
    58
 90
        1
176
     1
 90
        2
176
     1
 90
        2
176
     1
 90
        0
176
     1
 40
0.6
176
     1
 40
30.0
176
     1
 62
     7
420
 16777215
176
     1
 90
        2
176
     1
 90
        2
176
     1
 62
     7
176
     1
 62
     7
176
     1
 90
        1
176
     1
 90
        1
176
     1
 40
40.0
176
     1
 90
       11
176
     1
 62
     7
176
     1
 40
1.0
176
     1
 90
        1
176
     1
 90
        6
176
     1
 90
        2
176
     1
 62
     7
176
     1
 90
        6
176
     1
 90
        0
176
     1
 90
        0
176
     1
290
     0
176
     1
 90
        1
176
     1
 40
0.0
176
     1
 90
        0
176
     1
290
     0
176
     1
290
     1
176
     1
290
     1
176
     1
290
     0
176
     1
290
     0
176
     1
290
     0
176
     1
290
     0
176
     1
290
     0
176
     1
290
     0
176
     1
 90
       50
176
     1
 40
0.0
176
     1
 40
1.0
176
     1
 90
        0
176
     1
 62
    18
176
     1
 90
       50
176
     1
 90
        3
176
     1
 62
     5
420
      255
176
     1
290
     0
176
     1
 90
       50
176
     1
 90
       50
176
     1
 90
       50
176
     1
290
     0
176
     1
 90
       50
176
     1
 62
   256
176
     0
 40
1.0
176
     0
 90
        2
176
     1
  1
strokes_ogs.tif
176
     1
290
     0
176
     1
 40
1.0
176
     1
 40
1.0
176
     1
1001
ACAD
1000
AcDbSavedByObjectVersion
1070
     0
  0
VISUALSTYLE
  5
D1C4
102
{ACAD_REACTORS
330
D1B7
102
}
330
D1B7
100
AcDbVisualStyle
  2
Thicken
 70
    13
177
     3
291
     1
 70
    58
 90
        2
176
     1
 90
        2
176
     1
 90
        0
176
     1
 90
        0
176
     1
 40
0.6
176
     1
 40
30.0
176
     1
 62
     7
176
     1
 90
        1
176
     1
 90
        4
176
     1
 62
     7
176
     1
 62
   257
176
     1
 90
        1
176
     1
 90
        1
176
     1
 40
1.0
176
     1
 90
       12
176
     1
 62
     7
176
     1
 40
1.0
176
     1
 90
        1
176
     1
 90
        6
176
     1
 90
        2
176
     1
 62
     7
176
     1
 90
        5
176
     1
 90
        0
176
     1
 90
        0
176
     1
290
     0
176
     1
 90
        1
176
     1
 40
0.0
176
     1
 90
        0
176
     1
290
     0
176
     1
290
     1
176
     1
290
     1
176
     1
290
     0
176
     1
290
     0
176
     1
290
     0
176
     1
290
     0
176
     1
290
     0
176
     1
290
     0
176
     1
 90
       50
176
     1
 40
0.0
176
     1
 40
1.0
176
     1
 90
        0
176
     1
 62
    18
176
     1
 90
       50
176
     1
 90
        3
176
     1
 62
     5
420
      255
176
     1
290
     0
176
     1
 90
       50
176
     1
 90
       50
176
     1
 90
       50
176
     1
290
     0
176
     1
 90
       50
176
     1
 62
   256
176
     0
 40
1.0
176
     0
 90
        2
176
     1
  1
strokes_ogs.tif
176
     1
290
     0
176
     1
 40
1.0
176
     1
 40
1.0
176
     1
1001
ACAD
1000
AcRTDxfName
1000
VISUALSTYLE
1000
AcRTDxfName
1000
VISUALSTYLE
1000
AcRTDxfName
1000
VISUALSTYLE
1000
AcRTDxfName
1000
VISUALSTYLE
1000
AcRTDxfName
1000
VISUALSTYLE
1000
AcRTDxfName
1000
VISUALSTYLE
1000
AcRTDxfName
1000
VISUALSTYLE
1000
AcRTDxfName
1000
VISUALSTYLE
1000
AcRTDxfName
1000
VISUALSTYLE
1000
AcRTDxfName
1000
VISUALSTYLE
1000
AcRTDxfName
1000
VISUALSTYLE
1000
AcRTDxfName
1000
VISUALSTYLE
1000
AcDbSavedByObjectVersion
1070
     0
  0
VISUALSTYLE
  5
10343
102
{ACAD_REACTORS
330
D1B7
102
}
330
D1B7
100
AcDbVisualStyle
  2
Wireframe
 70
     5
177
     3
291
     0
 70
    58
 90
        0
176
     1
 90
        2
176
     1
 90
        0
176
     1
 90
        0
176
     1
 40
0.6
176
     1
 40
30.0
176
     1
 62
     7
420
 16777215
176
     1
 90
        1
176
     1
 90
        4
176
     1
 62
     7
176
     1
 62
   257
176
     1
 90
        1
176
     1
 90
        1
176
     1
 40
1.0
176
     1
 90
        0
176
     1
 62
   257
176
     1
 40
1.0
176
     1
 90
        1
176
     1
 90
        6
176
     1
 90
        2
176
     1
 62
     7
176
     1
 90
        3
176
     1
 90
        0
176
     1
 90
        0
176
     1
290
     0
176
     1
 90
        1
176
     1
 40
0.0
176
     1
 90
        0
176
     1
290
     0
176
     1
290
     1
176
     1
290
     1
176
     1
290
     0
176
     1
290
     0
176
     1
290
     0
176
     1
290
     0
176
     1
290
     0
176
     1
290
     0
176
     1
 90
       50
176
     1
 40
0.0
176
     1
 40
1.0
176
     1
 90
        0
176
     1
 62
    18
176
     1
 90
       50
176
     1
 90
        3
176
     1
 62
     5
420
      255
176
     1
290
     0
176
     1
 90
       50
176
     1
 90
       50
176
     1
 90
       50
176
     1
290
     0
176
     1
 90
       50
176
     1
 62
   256
176
     0
 40
1.0
176
     0
 90
        2
176
     1
  1
strokes_ogs.tif
176
     1
290
     0
176
     1
 40
1.0
176
     1
 40
1.0
176
     1
1001
ACAD
1000
AcDbSavedByObjectVersion
1070
     0
  0
VISUALSTYLE
  5
10347
102
{ACAD_REACTORS
330
D1B7
102
}
330
D1B7
100
AcDbVisualStyle
  2
X-Ray
 70
    25
177
     3
291
     0
 70
    58
 90
        2
176
     1
 90
        2
176
     1
 90
        1
176
     1
 90
        1
176
     1
 40
0.5
176
     1
 40
30.0
176
     1
 62
     7
420
 16777215
176
     1
 90
        1
176
     1
 90
        0
176
     1
 62
     7
176
     1
 62
   257
176
     1
 90
        1
176
     1
 90
        1
176
     1
 40
1.0
176
     1
 90
        8
176
     1
 62
     7
176
     1
 40
1.0
176
     1
 90
        1
176
     1
 90
        6
176
     1
 90
        2
176
     1
 62
     7
176
     1
 90
        3
176
     1
 90
        0
176
     1
 90
        0
176
     1
290
     0
176
     1
 90
       13
176
     1
 40
0.0
176
     1
 90
        0
176
     1
290
     0
176
     1
290
     1
176
     1
290
     1
176
     1
290
     0
176
     1
290
     0
176
     1
290
     0
176
     1
290
     0
176
     1
290
     0
176
     1
290
     0
176
     1
 90
       50
176
     1
 40
0.0
176
     1
 40
1.0
176
     1
 90
        0
176
     1
 62
    18
176
     1
 90
       50
176
     1
 90
        3
176
     1
 62
     5
420
      255
176
     1
290
     0
176
     1
 90
       50
176
     1
 90
       50
176
     1
 90
       50
176
     1
290
     0
176
     1
 90
       50
176
     1
 62
   256
176
     0
 40
1.0
176
     0
 90
        2
176
     1
  1
strokes_ogs.tif
176
     1
290
     0
176
     1
 40
1.0
176
     1
 40
1.0
176
     1
1001
ACAD
1000
AcDbSavedByObjectVersion
1070
     0
  0
DICTIONARYVAR
  5
D437
102
{ACAD_REACTORS
330
5E
102
}
330
5E
100
DictionaryVariables
280
     0
  1
1:1
  0
DICTIONARYVAR
  5
D436
102
{ACAD_REACTORS
330
5E
102
}
330
5E
100
DictionaryVariables
280
     0
  1
STANDARD
  0
DICTIONARYVAR
  5
84
102
{ACAD_REACTORS
330
5E
102
}
330
5E
100
DictionaryVariables
280
     0
  1
STANDARD
  0
DICTIONARYVAR
  5
114BE
102
{ACAD_REACTORS
330
5E
102
}
330
5E
100
DictionaryVariables
280
     0
  1
Metric50
  0
DICTIONARYVAR
  5
114BF
102
{ACAD_REACTORS
330
5E
102
}
330
5E
100
DictionaryVariables
280
     0
  1
Metric50
  0
DICTIONARYVAR
  5
5F
102
{ACAD_REACTORS
330
5E
102
}
330
5E
100
DictionaryVariables
280
     0
  1
2
  0
DICTIONARYVAR
  5
63
102
{ACAD_REACTORS
330
5E
102
}
330
5E
100
DictionaryVariables
280
     0
  1
1
  0
DICTIONARYVAR
  5
D439
102
{ACAD_REACTORS
330
5E
102
}
330
5E
100
DictionaryVariables
280
     0
  1
0
  0
DICTIONARYVAR
  5
114C2
102
{ACAD_REACTORS
330
5E
102
}
330
5E
100
DictionaryVariables
280
     0
  1
1
  0
DICTIONARYVAR
  5
114C3
102
{ACAD_REACTORS
330
5E
102
}
330
5E
100
DictionaryVariables
280
     0
  1
15
  0
DICTIONARYVAR
  5
114C1
102
{ACAD_REACTORS
330
5E
102
}
330
5E
100
DictionaryVariables
280
     0
  1
0
  0
DICTIONARYVAR
  5
114C0
102
{ACAD_REACTORS
330
5E
102
}
330
5E
100
DictionaryVariables
280
     0
  1
0
  0
DICTIONARYVAR
  5
C791
102
{ACAD_REACTORS
330
5E
102
}
330
5E
100
DictionaryVariables
280
     0
  1

  0
DICTIONARYVAR
  5
D438
102
{ACAD_REACTORS
330
5E
102
}
330
5E
100
DictionaryVariables
280
     0
  1
127
  0
DICTIONARY
  5
116BD
102
{ACAD_REACTORS
330
116BB
102
}
330
116BB
100
AcDbDictionary
281
     1
  0
DICTIONARY
  5
116BC
102
{ACAD_REACTORS
330
116BB
102
}
330
116BB
100
AcDbDictionary
281
     1
  3
2505979933920
350
116B6
  3
2505979933936
350
116B7
  3
2505979933952
350
116B8
  3
2505979933968
350
116B9
  3
2505979933984
350
116BA
  0
DICTIONARY
  5
116C0
330
10350
100
AcDbDictionary
280
     1
281
     1
  3
ACAD_XREC_ROUNDTRIP
360
116C1
  0
DICTIONARY
  5
79B
330
78E
100
AcDbDictionary
280
     1
281
     1
  0
DICTIONARY
  5
D1A8
330
D1A7
100
AcDbDictionary
280
     1
281
     1
  3
BUMPTILE
360
D1AA
  3
DIFFUSETILE
360
D1A9
  3
OPACITYTILE
360
D1AD
  3
REFLECTIONTILE
360
D1AC
  3
REFRACTIONTILE
360
D1AE
  3
SPECULARTILE
360
D1AB
  0
DICTIONARY
  5
D1A0
330
D19F
100
AcDbDictionary
280
     1
281
     1
  3
BUMPTILE
360
D1A2
  3
DIFFUSETILE
360
D1A1
  3
OPACITYTILE
360
D1A5
  3
REFLECTIONTILE
360
D1A4
  3
REFRACTIONTILE
360
D1A6
  3
SPECULARTILE
360
D1A3
  0
DICTIONARY
  5
D1B0
330
D1AF
100
AcDbDictionary
280
     1
281
     1
  3
BUMPTILE
360
D1B2
  3
DIFFUSETILE
360
D1B1
  3
OPACITYTILE
360
D1B5
  3
REFLECTIONTILE
360
D1B4
  3
REFRACTIONTILE
360
D1B6
  3
SPECULARTILE
360
D1B3
  0
DICTIONARY
  5
116BE
330
1034E
100
AcDbDictionary
280
     1
281
     1
  3
ACAD_XREC_ROUNDTRIP
360
116BF
  0
DICTIONARY
  5
D423
330
7F
100
AcDbDictionary
280
     1
281
     1
  3
ACAD_ROUNDTRIP_2008_TABLESTYLE_CELLSTYLEMAP
360
116B4
  0
XRECORD
  5
116B6
102
{ACAD_REACTORS
330
116BC
102
}
330
116BC
100
AcDbXrecord
280
     1
  1
AcDb_Thumbnail_Schema
102
{ATTRRECORD
341
116B7
  2
AcDbDs::TreatedAsObjectData
280
     1
291
     1
102
ATTRRECORD}
102
{ATTRRECORD
341
116B8
  2
AcDbDs::Legacy
280
     1
291
     1
102
ATTRRECORD}
  2
AcDbDs::ID
280
    10
 91
        8
102
{ATTRRECORD
341
116B9
  2
AcDs:Indexable
280
     1
291
     1
102
ATTRRECORD}
102
{ATTRRECORD
341
116BA
  2
AcDbDs::HandleAttribute
280
     7
282
     1
102
ATTRRECORD}
  2
Thumbnail_Data
280
    15
 91
        0
  0
XRECORD
  5
116B7
102
{ACAD_REACTORS
330
116BC
102
}
330
116BC
100
AcDbXrecord
280
     1
  1
AcDbDs::TreatedAsObjectDataSchema
  2
AcDbDs::TreatedAsObjectData
280
     1
 91
        0
  0
XRECORD
  5
116B8
102
{ACAD_REACTORS
330
116BC
102
}
330
116BC
100
AcDbXrecord
280
     1
  1
AcDbDs::LegacySchema
  2
AcDbDs::Legacy
280
     1
 91
        0
  0
XRECORD
  5
116B9
102
{ACAD_REACTORS
330
116BC
102
}
330
116BC
100
AcDbXrecord
280
     1
  1
AcDbDs::IndexedPropertySchema
  2
AcDs:Indexable
280
     1
 91
        0
  0
XRECORD
  5
116BA
102
{ACAD_REACTORS
330
116BC
102
}
330
116BC
100
AcDbXrecord
280
     1
  1
AcDbDs::HandleAttributeSchema
  2
AcDbDs::HandleAttribute
280
     7
 91
        1
284
     1
  0
XRECORD
  5
116C1
102
{ACAD_REACTORS
330
116C0
102
}
330
116C0
100
AcDbXrecord
280
     1
102
DISPLAYNAME
  1
Metric50
102
FLAGS
 90
        0
  0
XRECORD
  5
D1AA
102
{ACAD_REACTORS
330
D1A8
102
}
330
D1A8
100
AcDbXrecord
280
     1
270
     1
271
     1
  0
XRECORD
  5
D1A9
102
{ACAD_REACTORS
330
D1A8
102
}
330
D1A8
100
AcDbXrecord
280
     1
270
     1
271
     1
  0
XRECORD
  5
D1AD
102
{ACAD_REACTORS
330
D1A8
102
}
330
D1A8
100
AcDbXrecord
280
     1
270
     1
271
     1
  0
XRECORD
  5
D1AC
102
{ACAD_REACTORS
330
D1A8
102
}
330
D1A8
100
AcDbXrecord
280
     1
270
     1
271
     1
  0
XRECORD
  5
D1AE
102
{ACAD_REACTORS
330
D1A8
102
}
330
D1A8
100
AcDbXrecord
280
     1
270
     1
271
     1
  0
XRECORD
  5
D1AB
102
{ACAD_REACTORS
330
D1A8
102
}
330
D1A8
100
AcDbXrecord
280
     1
270
     1
271
     1
  0
XRECORD
  5
D1A2
102
{ACAD_REACTORS
330
D1A0
102
}
330
D1A0
100
AcDbXrecord
280
     1
270
     1
271
     1
  0
XRECORD
  5
D1A1
102
{ACAD_REACTORS
330
D1A0
102
}
330
D1A0
100
AcDbXrecord
280
     1
270
     1
271
     1
  0
XRECORD
  5
D1A5
102
{ACAD_REACTORS
330
D1A0
102
}
330
D1A0
100
AcDbXrecord
280
     1
270
     1
271
     1
  0
XRECORD
  5
D1A4
102
{ACAD_REACTORS
330
D1A0
102
}
330
D1A0
100
AcDbXrecord
280
     1
270
     1
271
     1
  0
XRECORD
  5
D1A6
102
{ACAD_REACTORS
330
D1A0
102
}
330
D1A0
100
AcDbXrecord
280
     1
270
     1
271
     1
  0
XRECORD
  5
D1A3
102
{ACAD_REACTORS
330
D1A0
102
}
330
D1A0
100
AcDbXrecord
280
     1
270
     1
271
     1
  0
XRECORD
  5
D1B2
102
{ACAD_REACTORS
330
D1B0
102
}
330
D1B0
100
AcDbXrecord
280
     1
270
     1
271
     1
  0
XRECORD
  5
D1B1
102
{ACAD_REACTORS
330
D1B0
102
}
330
D1B0
100
AcDbXrecord
280
     1
270
     1
271
     1
  0
XRECORD
  5
D1B5
102
{ACAD_REACTORS
330
D1B0
102
}
330
D1B0
100
AcDbXrecord
280
     1
270
     1
271
     1
  0
XRECORD
  5
D1B4
102
{ACAD_REACTORS
330
D1B0
102
}
330
D1B0
100
AcDbXrecord
280
     1
270
     1
271
     1
  0
XRECORD
  5
D1B6
102
{ACAD_REACTORS
330
D1B0
102
}
330
D1B0
100
AcDbXrecord
280
     1
270
     1
271
     1
  0
XRECORD
  5
D1B3
102
{ACAD_REACTORS
330
D1B0
102
}
330
D1B0
100
AcDbXrecord
280
     1
270
     1
271
     1
  0
XRECORD
  5
116BF
102
{ACAD_REACTORS
330
116BE
102
}
330
116BE
100
AcDbXrecord
280
     1
102
DISPLAYNAME
  1
Metric50
102
FLAGS
 90
        0
  0
CELLSTYLEMAP
  5
116B4
102
{ACAD_REACTORS
330
D423
102
}
330
D423
100
AcDbCellStyleMap
 90
        3
300
CELLSTYLE
  1
TABLEFORMAT_BEGIN
 90
        5
170
     1
 91
        0
 92
    32768
 62
   257
 93
        1
300
CONTENTFORMAT
  1
CONTENTFORMAT_BEGIN
 90
        0
 91
        0
 92
        4
 93
        0
300

 40
0.0
140
1.0
 94
        5
 62
     0
340
11
144
6.0
309
CONTENTFORMAT_END
171
     1
301
MARGIN
  1
CELLMARGIN_BEGIN
 40
1.5
 40
1.5
 40
1.5
 40
1.5
 40
0.18
 40
0.18
309
CELLMARGIN_END
 94
        6
 95
        1
302
GRIDFORMAT
  1
GRIDFORMAT_BEGIN
 90
        0
 91
        1
 62
     0
 92
       -2
340
0
 93
        0
 40
0.045
309
GRIDFORMAT_END
 95
        2
302
GRIDFORMAT
  1
GRIDFORMAT_BEGIN
 90
        0
 91
        1
 62
     0
 92
       -2
340
0
 93
        0
 40
0.045
309
GRIDFORMAT_END
 95
        4
302
GRIDFORMAT
  1
GRIDFORMAT_BEGIN
 90
        0
 91
        1
 62
     0
 92
       -2
340
0
 93
        0
 40
0.045
309
GRIDFORMAT_END
 95
        8
302
GRIDFORMAT
  1
GRIDFORMAT_BEGIN
 90
        0
 91
        1
 62
     0
 92
       -2
340
0
 93
        0
 40
0.045
309
GRIDFORMAT_END
 95
       16
302
GRIDFORMAT
  1
GRIDFORMAT_BEGIN
 90
        0
 91
        1
 62
     0
 92
       -2
340
0
 93
        0
 40
0.045
309
GRIDFORMAT_END
 95
       32
302
GRIDFORMAT
  1
GRIDFORMAT_BEGIN
 90
        0
 91
        1
 62
     0
 92
       -2
340
0
 93
        0
 40
0.045
309
GRIDFORMAT_END
309
TABLEFORMAT_END
  1
CELLSTYLE_BEGIN
 90
        1
 91
        1
300
_TITLE
309
CELLSTYLE_END
300
CELLSTYLE
  1
TABLEFORMAT_BEGIN
 90
        5
170
     1
 91
        0
 92
        0
 62
   257
 93
        1
300
CONTENTFORMAT
  1
CONTENTFORMAT_BEGIN
 90
        0
 91
        0
 92
        4
 93
        0
300

 40
0.0
140
1.0
 94
        5
 62
     0
340
11
144
4.5
309
CONTENTFORMAT_END
171
     1
301
MARGIN
  1
CELLMARGIN_BEGIN
 40
1.5
 40
1.5
 40
1.5
 40
1.5
 40
0.18
 40
0.18
309
CELLMARGIN_END
 94
        6
 95
        1
302
GRIDFORMAT
  1
GRIDFORMAT_BEGIN
 90
        0
 91
        1
 62
     0
 92
       -2
340
0
 93
        0
 40
0.045
309
GRIDFORMAT_END
 95
        2
302
GRIDFORMAT
  1
GRIDFORMAT_BEGIN
 90
        0
 91
        1
 62
     0
 92
       -2
340
0
 93
        0
 40
0.045
309
GRIDFORMAT_END
 95
        4
302
GRIDFORMAT
  1
GRIDFORMAT_BEGIN
 90
        0
 91
        1
 62
     0
 92
       -2
340
0
 93
        0
 40
0.045
309
GRIDFORMAT_END
 95
        8
302
GRIDFORMAT
  1
GRIDFORMAT_BEGIN
 90
        0
 91
        1
 62
     0
 92
       -2
340
0
 93
        0
 40
0.045
309
GRIDFORMAT_END
 95
       16
302
GRIDFORMAT
  1
GRIDFORMAT_BEGIN
 90
        0
 91
        1
 62
     0
 92
       -2
340
0
 93
        0
 40
0.045
309
GRIDFORMAT_END
 95
       32
302
GRIDFORMAT
  1
GRIDFORMAT_BEGIN
 90
        0
 91
        1
 62
     0
 92
       -2
340
0
 93
        0
 40
0.045
309
GRIDFORMAT_END
309
TABLEFORMAT_END
  1
CELLSTYLE_BEGIN
 90
        2
 91
        1
300
_HEADER
309
CELLSTYLE_END
300
CELLSTYLE
  1
TABLEFORMAT_BEGIN
 90
        5
170
     1
 91
        0
 92
        0
 62
   257
 93
        1
300
CONTENTFORMAT
  1
CONTENTFORMAT_BEGIN
 90
        0
 91
        0
 92
        4
 93
        0
300

 40
0.0
140
1.0
 94
        2
 62
     0
340
11
144
4.5
309
CONTENTFORMAT_END
171
     1
301
MARGIN
  1
CELLMARGIN_BEGIN
 40
1.5
 40
1.5
 40
1.5
 40
1.5
 40
0.18
 40
0.18
309
CELLMARGIN_END
 94
        6
 95
        1
302
GRIDFORMAT
  1
GRIDFORMAT_BEGIN
 90
        0
 91
        1
 62
     0
 92
       -2
340
0
 93
        0
 40
0.045
309
GRIDFORMAT_END
 95
        2
302
GRIDFORMAT
  1
GRIDFORMAT_BEGIN
 90
        0
 91
        1
 62
     0
 92
       -2
340
0
 93
        0
 40
0.045
309
GRIDFORMAT_END
 95
        4
302
GRIDFORMAT
  1
GRIDFORMAT_BEGIN
 90
        0
 91
        1
 62
     0
 92
       -2
340
0
 93
        0
 40
0.045
309
GRIDFORMAT_END
 95
        8
302
GRIDFORMAT
  1
GRIDFORMAT_BEGIN
 90
        0
 91
        1
 62
     0
 92
       -2
340
0
 93
        0
 40
0.045
309
GRIDFORMAT_END
 95
       16
302
GRIDFORMAT
  1
GRIDFORMAT_BEGIN
 90
        0
 91
        1
 62
     0
 92
       -2
340
0
 93
        0
 40
0.045
309
GRIDFORMAT_END
 95
       32
302
GRIDFORMAT
  1
GRIDFORMAT_BEGIN
 90
        0
 91
        1
 62
     0
 92
       -2
340
0
 93
        0
 40
0.045
309
GRIDFORMAT_END
309
TABLEFORMAT_END
  1
CELLSTYLE_BEGIN
 90
        3
 91
        2
300
_DATA
309
CELLSTYLE_END
  0
ENDSEC
  0
SECTION
  2
ACDSDATA
 70
     2
 71
     8
  0
ACDSSCHEMA
 90
        0
  1
AcDb_Thumbnail_Schema
  2
AcDbDs::ID
280
    10
 91
        8
  2
Thumbnail_Data
280
    15
 91
        0
101
ACDSRECORD
 95
        0
 90
        1
  2
AcDbDs::TreatedAsObjectData
280
     1
291
     1
101
ACDSRECORD
 95
        0
 90
        2
  2
AcDbDs::Legacy
280
     1
291
     1
101
ACDSRECORD
  1
AcDbDs::ID
 90
        3
  2
AcDs:Indexable
280
     1
291
     1
101
ACDSRECORD
  1
AcDbDs::ID
 90
        4
  2
AcDbDs::HandleAttribute
280
     7
282
     1
  0
ACDSSCHEMA
 90
        1
  1
AcDbDs::TreatedAsObjectDataSchema
  2
AcDbDs::TreatedAsObjectData
280
     1
 91
        0
  0
ACDSSCHEMA
 90
        2
  1
AcDbDs::LegacySchema
  2
AcDbDs::Legacy
280
     1
 91
        0
  0
ACDSSCHEMA
 90
        3
  1
AcDbDs::IndexedPropertySchema
  2
AcDs:Indexable
280
     1
 91
        0
  0
ACDSSCHEMA
 90
        4
  1
AcDbDs::HandleAttributeSchema
  2
AcDbDs::HandleAttribute
280
     7
 91
        1
284
     1
  0
ACDSRECORD
 90
        0
  2
AcDbDs::ID
280
    10
320
22
  2
Thumbnail_Data
280
    15
 94
     2393
310
89504E470D0A1A0A0000000D49484452000001000000008108030000001837949D00000300504C5445000000FFFFFF0000000000000000000000000000000000000000000000000000000000330000660000990000CC0000FF0033000033330033660033990033CC0033FF0066000066330066660066990066CC0066FF0099
310
000099330099660099990099CC0099FF00CC0000CC3300CC6600CC9900CCCC00CCFF00FF0000FF3300FF6600FF9900FFCC00FFFF3300003300333300663300993300CC3300FF3333003333333333663333993333CC3333FF3366003366333366663366993366CC3366FF3399003399333399663399993399CC3399FF33CC00
310
33CC3333CC6633CC9933CCCC33CCFF33FF0033FF3333FF6633FF9933FFCC33FFFF6600006600336600666600996600CC6600FF6633006633336633666633996633CC6633FF6666006666336666666666996666CC6666FF6699006699336699666699996699CC6699FF66CC0066CC3366CC6666CC9966CCCC66CCFF66FF0066
310
FF3366FF6666FF9966FFCC66FFFF9900009900339900669900999900CC9900FF9933009933339933669933999933CC9933FF9966009966339966669966999966CC9966FF9999009999339999669999999999CC9999FF99CC0099CC3399CC6699CC9999CCCC99CCFF99FF0099FF3399FF6699FF9999FFCC99FFFFCC0000CC00
310
33CC0066CC0099CC00CCCC00FFCC3300CC3333CC3366CC3399CC33CCCC33FFCC6600CC6633CC6666CC6699CC66CCCC66FFCC9900CC9933CC9966CC9999CC99CCCC99FFCCCC00CCCC33CCCC66CCCC99CCCCCCCCCCFFCCFF00CCFF33CCFF66CCFF99CCFFCCCCFFFFFF0000FF0033FF0066FF0099FF00CCFF00FFFF3300FF3333
310
FF3366FF3399FF33CCFF33FFFF6600FF6633FF6666FF6699FF66CCFF66FFFF9900FF9933FF9966FF9999FF99CCFF99FFFFCC00FFCC33FFCC66FFCC99FFCCCCFFCCFFFFFF00FFFF33FFFF66FFFF99FFFFCCFFFFFF0000000D0D0D1A1A1A2828283535354343435050505D5D5D6B6B6B787878868686939393A1A1A1AEAEAEBB
310
BBBBC9C9C9D6D6D6E4E4E4F1F1F1FFFFFF0000000000000000000000000000000000000000000000000000000000003AE5ACE9000005BF4944415478DAED9D4BBAAB200C80D950F63FCBC46D641BCC4FE56540A860518307EE773DF545E527242120556AA68AA4874C3D010C596B1340D7BCC693FFDE0086ABFE09404A7644
310
9FFFEE13D1BF0410A59701A0FE693000DDEB6E58005FEBEEA06AF9D95101D0D74264859BB26769EA80C1000411664F4F3502C06C232FFA7812C03EB58971A23FE858958803F09B185FD9086E6E02E74C19D5673801ECC46602F8A7006A15C55B01D0B83A40F700404A10002B88CB827AFD67372E2D0B405B006BCB64D1B180
310
3B81375751C85684049887E4CFBE01D0B84B9943CB9201600B47C9D78049043E4902905EAA55750435DCCFD45A1E803BE84BAE0503B0A5DF5F9E391064992BF622004DCA02D0A200A0CE5F5F052067DBB10000097105B0B6261900A82401ED0014EB449A0C2325C81E409204D08500288A95B8BBD10340490036CD1FAB7CD0
310
875600B66BBCA123AF1A2901B05ECD13A22009C859E60F80430900887500CF8976121003906D05CE37810333A80631834D0082FAF77FCB6650BDD10C0603180C61D10CA23433D8C7110A050FDDDCC124A0E00A43A52B4CF9FB87D20199D4DE194AA7F6E43B4320AA33F4B53BAC2FE90E6BDF1D261112D09CC50FC99518AB03
310
236F9B2142AD91A1B702A81E3E7B2780A01DC401581D999F4735BF65D23C78762F00521D06F6BA64F29804F418DAEC3A3E7A7B13E8AFE9DF0640DF5AFEDB75C07169CB87BACE0CB9DD15367E2C196796A7FA91219F89CDA9DB34FF1B3B43604FE910E90280BACE90897345A67DCD6C3800A61F63367148A0FE958E350C423E
310
93D100E02ABCF6BC3E1B1334E19075173E1B1C5002CC53237FF4D6A0A8EB0EE3501210C2E2BE74A725C09EB5B1EE7194603C3294C4689A017C72884262C30040BD4026558E0CE56E5D46938025AEC09F2560194E095A1D00BFEA00EF4EE8690586F303D4AF7E80DD019B09BEC31384564F508FEA096AED0DF88F7D0133F2A5
310
951AB13364AA1E2300FBB19BDCFC003BC8E3E60699CDDA8B1CAF3B9C4B50DB15DE67325640846A8F7E992A4B174486E401E87CEF0430018803108D692B95EF3A94EF1DF6CDD1F9E264A68EA94A02A21B88CAF78A0620354D0013C004F02C003EFDF3B69553A401A009E01F03F8E73A20E3D7D23F02C096D2601FE8FD006E74
310
F5A502288A82527D5D7DA1008E91DCA60B9E03403B003185770348659E6817EBE8B33CC063009C2243FF9A83DBDA8B482DFB26B0A4F2E02ED63C0B1F2267B38BD2136200985DFF0267F41E63D36AB77ACFD002F0432C61AB4F49C6654DC0CC8AF8947CFD0CE876ECB9F52DA074F04B4787C81C32D7AE23658683BD11BD890C
310
8363E8A04A04A0DC5B4B601FF2AC04280FC08E31DBCCD10FB3A37243A61201B8C77600700390EA804FB9121DB0015059004E02D8021322010007A02A01500420E2A03800F45B12A803E8060076836CE9003900E852001401086F539F729F2F05801AEC44373FE1CD6AADCFFE772BF0F11F10BC1548CDFD6606C35791DD2312
310
2801B9F50C341C28412B2D0547C8651ED1B21025014894203435017FD16113309FD1B705514DE05A004109AE758E6A53083CAAC2020B6CB35BB674680056D1A400DAC22DF73842D0E6084500CA8E10EEB694F42E5D957B1150B164D07DAE30C4AE30FCE60AF3CE90BF105B2560339E173A42086C591FD6190238E80C213383
310
E6ACB502D59DA19C0E505E08D42D12E0BEC2BD1486F6053108AF3657CD8CB31727DDE1B086CA97CE5052CD148752E23967D74684C8A92EDF670F008E75400040BB2C0E2520A7EDE89190587E95F47CD83B39940208C1345F8F2C4662B7D14243D561F68700548D1D9401E423CB07A30E0F0248D652CF4E032A00D838507C2B
310
25A08E01D0130072CFD062A5CAE52817902F39A51E0710FDA5E26FC8143542BC16065F979EF2DF510CC03FD204BE37EFA202DC5D55ACC2C36144EAF2C45D019C980A49E701881C19CACE8E7C6A70F0992690ADC743C3F02200822608CC394213C00430014C0013C00430014C00FDB2FBEFBF3B3C5E9A007AE6F5DF7F7DFEC5
310
E90F8204DBF54DAC00A40000000049454E44AE426082FAAE04505D1F002F8687DF6E0207D578FDDCB700F8F5F9019F4D0FFD0200F2D20430014C0013C00430014C001340978C7EFDFF1E1F354D007D721938C14C57E90F2BEC91DFF666FE1F0000000049454E44AE426082
  0
ACDSRECORD
 90
        0
  2
AcDbDs::ID
280
    10
320
78E
  2
Thumbnail_Data
280
    15
 94
     3172
310
89504E470D0A1A0A0000000D4948445200000100000000B408030000004C80028300000300504C54450D0D0DFFFFFF0D0D0D0000000000000000000000000000000000000000000000000000330000660000990000CC0000FF0033000033330033660033990033CC0033FF0066000066330066660066990066CC0066FF0099
310
000099330099660099990099CC0099FF00CC0000CC3300CC6600CC9900CCCC00CCFF00FF0000FF3300FF6600FF9900FFCC00FFFF3300003300333300663300993300CC3300FF3333003333333333663333993333CC3333FF3366003366333366663366993366CC3366FF3399003399333399663399993399CC3399FF33CC00
310
33CC3333CC6633CC9933CCCC33CCFF33FF0033FF3333FF6633FF9933FFCC33FFFF6600006600336600666600996600CC6600FF6633006633336633666633996633CC6633FF6666006666336666666666996666CC6666FF6699006699336699666699996699CC6699FF66CC0066CC3366CC6666CC9966CCCC66CCFF66FF0066
310
FF3366FF6666FF9966FFCC66FFFF9900009900339900669900999900CC9900FF9933009933339933669933999933CC9933FF9966009966339966669966999966CC9966FF9999009999339999669999999999CC9999FF99CC0099CC3399CC6699CC9999CCCC99CCFF99FF0099FF3399FF6699FF9999FFCC99FFFFCC0000CC00
310
33CC0066CC0099CC00CCCC00FFCC3300CC3333CC3366CC3399CC33CCCC33FFCC6600CC6633CC6666CC6699CC66CCCC66FFCC9900CC9933CC9966CC9999CC99CCCC99FFCCCC00CCCC33CCCC66CCCC99CCCCCCCCCCFFCCFF00CCFF33CCFF66CCFF99CCFFCCCCFFFFFF0000FF0033FF0066FF0099FF00CCFF00FFFF3300FF3333
310
FF3366FF3399FF33CCFF33FFFF6600FF6633FF6666FF6699FF66CCFF66FFFF9900FF9933FF9966FF9999FF99CCFF99FFFFCC00FFCC33FFCC66FFCC99FFCCCCFFCCFFFFFF00FFFF33FFFF66FFFF99FFFFCCFFFFFF0000000D0D0D1A1A1A2828283535354343435050505D5D5D6B6B6B787878868686939393A1A1A1AEAEAEBB
310
BBBBC9C9C9D6D6D6E4E4E4F1F1F1FFFFFF000000000000000000000000000000000000000000000000000000000000D3F30D92000008AC4944415478DAED9D59BAA42A0C80D910FB7FF3A5B691059C5E00EFEDC01086308AA2C8EDAF6E1D0794DF24841029F63777F9C7FED8CCE50370001073160460CAA7FF01F800580060
310
B6E20198ECF97F003E001F80AE00005709D30108D8DC6703286D00EC670042514C703400D777D36301B841420706001DDA010F02902DA005B2EC1D08031B41F766E946C60040A2CECF080EA902D61D26FD9C78532008777415385A7E7CA4F415F20030D47848ABD52D0020A1B0ED1D5DC0AEC030003AE9EBCD66A04402202E
310
91D500A270180C69034EF4DA4E1D7CCC0DA04A69DE0900A604506738DF030066B701430310A23B80DAEEA218C0C2AC7F79CD8C007077D9F56703A8EE2EF30028D3F2FB894558FF5059770A1E9E80E691C9E9ED3454ECFA7FBFA055D3B64E9D05CE74F7E900F4E38A01109CF34209E07C3B8F06A04F84A06670556031DF7957
310
006115D8EF73F92D5459DB42969F4DC8AE5F6D775541FE69F0ACCD560DEF2B013155A6C59CC713344CB52AC0E05D300A00187EF0F700389A4F5D9C3C4F304B693D4F2603C0B21393ED5F6E04B0EFAD0110F366330088FD500940F405B06A6C6700EE25F5152900EB01B01DB301386CCAB325C0BD668E04C8FEE00A09B80000
310
040140CC0660004FB701381C8C00F8C33B700D3EEAFDCF07602E1FF7B72A1D21DF0462E78E08959A2B7AA51F80C5F2FC02EECE7AF54247680380FE741CDCFD323480FD7CBF244C75A30474EF06432792E1F88B5480C11D46109F48AAC045002E3082F2A90275E218DD603F47C87200D1D71C4768798123041480073942A261
310
3024FC0941DD23A60743433842FB8EAD1B2C1D0EEF7E00C4EB4D0E87D995C3E17040A42D262853B623019104007E5D40241A13AC8B08E584C4201112E3BD43625941D11A1510F198606E501417E800800C5B5BE557A502BFECFA63C1F0A536427E4DB6B8E8F432CE6300F42AD03E47F2017807006C246704D0905AF87000ED
310
59654F07E0ABC0350064A228EB95CAD7BBFE5600BD73192F4C96AC97806B098C260177F4EF1F80710014DF5F71DACA3301342749C1B000ECE13714A782F0ACB53C82F50F02403F2EAE879E78B02E27E5EAE6068F2C2764EC41D7CF0704C0998CD4A25B935374A22A24E601D0F5AFD71A0FC03643BAFEC78E4FF73957264959
310
975900D53F2200D8E69F97FD603F53B46D6E709F0B82A3E6E32A830138269EB86EBDE80040ECD9B8821F57299BEAEE2F0187FCE3CF53013086F56BFF1C4F05F63BE29E1D3C09C05127D7F58F680394DD67E7DB00D9FBAD75AB9E765C00AC17804D00AA7DE84E00508ACC8F474A8B234494DF500056B397045091241507B08C
310
25012224A7AF57012B49AAB70D587600031B41D941F18EDDE0360618B41BB45CA0791DA185F33EAEB09400E46A0F381650C3946E832186198F3616480C876B93A42C5B6BD53FA0114416CA8B08D5C50455628F9300BBC55ED89011213F2476424488A39098EE69F93821B1484E526B50D49A008AC58B46088BC7E3D56D6171
310
08CEEB3E6A35B9C6B7C783EBA5BC0440E659D303601F800FC04B01C02B01E4AFFE184DF10022F8322780F197D4FC56949CDB08BEB07C004E0620133CD9C0CBA97705000F584FFE0370310098CB067CBDC0C400E046776604005644CB52FDFE8B038F00C0B17760BDC432B0296C0330E4F0E6520011340FB1071F800F402380
310
1F23F28AF65D010E6F0340D835207741AB700D28018C9480409BF00516F20BDC0BC0CCD62E68690BFD459D2C6800DB410400737AB8766B19216B6D0D774AB92700798B4CAFD7A6BE30B45453FDEFFCAADADDD6A9DA65EB042524E2342D4901F07237194700B65CCE3209C0390F4100221B40570990975AD6077FA429F1C5DD
310
22D7EEFAD13921EE2E907B5443C4A272A08E74237B5141386EC81C8ED9769700B9D7ACCAC317B3E93415D0698026DFCA9600FC52867A02FB96AB0008D36E738B1880B70A4E4A05705E9CD0EDF600A83555EF968001002C48DA2E34821A00F300B04A004AAB3100E6016061004796F6B16F32007ADB726C904B6E4F054048C9
310
47BFEDD61900DC0EC0F8010600FE6DBFBE00D01B2268BDBAC0CAC5658E10788E50D8CF2500A0DF8ABF0CC022B879B9C7BCE7A37BE60D4A8123A45E125267D300000350C76BDFE8F8EC381680900AF0561550B29BA302664D59BCEA34E6DB1500BB1D808AB11B09589B8FB4BFB304047B816B0138BDC0D6561700F11BC59048
310
7807F7B7739F00008C2B2CBC5E40C79E88207C68538D2BCCDB5D6156E30AEB104A120083C0FF4005E66C16CF02801650C61B622A602D47723C722DFBE6CF9CE1701C00E7C563619E0700026301111C0B0455808125188CD087B404E8D75839B20622F598A3BBEC88503C1E608F06C321314205C2EAEFECCB8C0871CB1FC411
310
A116474846849023D4181192ED0195A5E55A7D7026B0A32A10FB0D0F2B2204851A00A224269819110ACCBF42EE54434D581C2F650A852A80DF0C226A2F97809619E8F8C4080483B2A7013035B9B597478591D03B8ECE4900180120023CB48B00C0BC6D7251A9F0DC099E18891BBBA434A40044A7ED940410D7084D8E6603A0
310
A7D19C1D4900700A000803201F3E793DC02BC17A8BC2423980B0C71F7F19AF1C80D5D43480B85A780A82C49954E0C80EC70F285B90B41F00C801E0B4DB77D40B00D4E9400240B4C2A6D740B26EB8AC4D782C80B4AAB311A4AAA577A05B2B3182DE2D9CF54E4E43824451074851CB9154EDBF072E82C6F8FA2057D2A41F8CCF
310
50DAD802006A0040E0A7E3E4FDA400400480FD0B4D0100DE20B11DC049EF82E54B00D145C806137A937A21BB4D052AF69C97FE34820D28578E7301D8BFD1199432E7A8C25EA0CF3338110003A74BB28D827FD4C9002A23F12701C87B0E4DA3C1A10B5012C94226D18B84BD1800D00002EEEC9000F29CE9880424BBC1D101D0
310
3B602457B82380C0DC168AF9121290D1593EC40862C796212F9E392A60B65A03418666499F0A40F6EA52A33100E600B0A3E1FA440DE091DD60AE11C45850244063782C806C4B69CCBE23F92CF04738E6F2263F207E94130E2001CC565C00F3950FC007C00098B31800F3960FC00A60EEF201F80F18E206C8C8AD22E4000000
310
0049454E44AE426082608258AE8326808C7A34E183DF3D1680D1D541B3F79EC26A6B178E8218D273FDBAC1FE4DA0AC0411162B00AF0050AB29BD5E0D229F82AF29C8BEE8E100767D0A3FBF3703E06B2904F0BD34014C0008C0379305F0DD340128001F4F9F07F00FEA4D998172A819C00000000049454E44AE426082
  0
ENDSEC
  0
EOF
