  0
SECTION
  2
HEADER
  9
$ACADVER
  1
AC1027
  9
$ACADMAINTVER
 70
   125
  9
$DWGCODEPAGE
  3
ANSI_932
  9
$LASTSAVEDBY
  1
D-mishima
  9
$REQUIREDVERSIONS
160
                 0
  9
$INSBASE
 10
0.0
 20
0.0
 30
0.0
  9
$EXTMIN
 10
-0.1281640493871237
 20
-0.0906302920675444
 30
-0.0015258207003583
  9
$EXTMAX
 10
4200.128183607161
 20
2970.090644122207
 30
0.0000000349246037
  9
$LIMMIN
 10
0.0
 20
0.0
  9
$LIMMAX
 10
4200.0
 20
2970.0
  9
$ORTHOMODE
 70
     1
  9
$REGENMODE
 70
     1
  9
$FILLMODE
 70
     1
  9
$QTEXTMODE
 70
     0
  9
$MIRRTEXT
 70
     0
  9
$LTSCALE
 40
0.1
  9
$ATTMODE
 70
     1
  9
$TEXTSIZE
 40
25.0
  9
$TRACEWID
 40
1.0
  9
$TEXTSTYLE
  7
Standard
  9
$CLAYER
  8
寸法線
  9
$CELTYPE
  6
ByLayer
  9
$CECOLOR
 62
   256
  9
$CELTSCALE
 40
1.0
  9
$DISPSILH
 70
     0
  9
$DIMSCALE
 40
10.0
  9
$DIMASZ
 40
2.0
  9
$DIMEXO
 40
0.875
  9
$DIMDLI
 40
10.0
  9
$DIMRND
 40
0.0
  9
$DIMDLE
 40
0.0
  9
$DIMEXE
 40
1.0
  9
$DIMTP
 40
0.0
  9
$DIMTM
 40
0.0
  9
$DIMTXT
 40
2.5
  9
$DIMCEN
 40
0.0
  9
$DIMTSZ
 40
0.0
  9
$DIMTOL
 70
     0
  9
$DIMLIM
 70
     0
  9
$DIMTIH
 70
     0
  9
$DIMTOH
 70
     0
  9
$DIMSE1
 70
     0
  9
$DIMSE2
 70
     0
  9
$DIMTAD
 70
     1
  9
$DIMZIN
 70
     8
  9
$DIMBLK
  1

  9
$DIMASO
 70
     1
  9
$DIMSHO
 70
     1
  9
$DIMPOST
  1

  9
$DIMAPOST
  1

  9
$DIMALT
 70
     0
  9
$DIMALTD
 70
     2
  9
$DIMALTF
 40
25.4
  9
$DIMLFAC
 40
1.0
  9
$DIMTOFL
 70
     1
  9
$DIMTVP
 40
0.0
  9
$DIMTIX
 70
     0
  9
$DIMSOXD
 70
     0
  9
$DIMSAH
 70
     1
  9
$DIMBLK1
  1
OPEN
  9
$DIMBLK2
  1
OPEN
  9
$DIMSTYLE
  2
STANDARD
  9
$DIMCLRD
 70
     0
  9
$DIMCLRE
 70
     0
  9
$DIMCLRT
 70
     0
  9
$DIMTFAC
 40
1.0
  9
$DIMGAP
 40
0.875
  9
$DIMJUST
 70
     0
  9
$DIMSD1
 70
     0
  9
$DIMSD2
 70
     0
  9
$DIMTOLJ
 70
     1
  9
$DIMTZIN
 70
     0
  9
$DIMALTZ
 70
     0
  9
$DIMALTTZ
 70
     0
  9
$DIMUPT
 70
     0
  9
$DIMDEC
 70
     3
  9
$DIMTDEC
 70
     3
  9
$DIMALTU
 70
     2
  9
$DIMALTTD
 70
     2
  9
$DIMTXSTY
  7
Standard
  9
$DIMAUNIT
 70
     0
  9
$DIMADEC
 70
     0
  9
$DIMALTRND
 40
0.0
  9
$DIMAZIN
 70
     0
  9
$DIMDSEP
 70
    46
  9
$DIMATFIT
 70
     3
  9
$DIMFRAC
 70
     0
  9
$DIMLDRBLK
  1
OPEN
  9
$DIMLUNIT
 70
     2
  9
$DIMLWD
 70
    -2
  9
$DIMLWE
 70
    -2
  9
$DIMTMOVE
 70
     0
  9
$DIMFXL
 40
1.0
  9
$DIMFXLON
 70
     0
  9
$DIMJOGANG
 40
1.570796326794896
  9
$DIMTFILL
 70
     0
  9
$DIMTFILLCLR
 70
     0
  9
$DIMARCSYM
 70
     0
  9
$DIMLTYPE
  6

  9
$DIMLTEX1
  6

  9
$DIMLTEX2
  6

  9
$DIMTXTDIRECTION
 70
     0
  9
$LUNITS
 70
     2
  9
$LUPREC
 70
     4
  9
$SKETCHINC
 40
1.0
  9
$FILLETRAD
 40
0.0
  9
$AUNITS
 70
     0
  9
$AUPREC
 70
     0
  9
$MENU
  1
.
  9
$ELEVATION
 40
0.0
  9
$PELEVATION
 40
0.0
  9
$THICKNESS
 40
0.0
  9
$LIMCHECK
 70
     0
  9
$CHAMFERA
 40
0.0
  9
$CHAMFERB
 40
0.0
  9
$CHAMFERC
 40
0.0
  9
$CHAMFERD
 40
0.0
  9
$SKPOLY
 70
     0
  9
$TDCREATE
 40
2454064.449062500
  9
$TDUCREATE
 40
2454064.074062859
  9
$TDUPDATE
 40
2460315.611770834
  9
$TDUUPDATE
 40
2460315.236770834
  9
$TDINDWG
 40
3.8981576273
  9
$TDUSRTIMER
 40
3.8981357639
  9
$USRTIMER
 70
     1
  9
$ANGBASE
 50
0.0
  9
$ANGDIR
 70
     0
  9
$PDMODE
 70
     0
  9
$PDSIZE
 40
0.0
  9
$PLINEWID
 40
0.0
  9
$SPLFRAME
 70
     0
  9
$SPLINETYPE
 70
     6
  9
$SPLINESEGS
 70
     8
  9
$HANDSEED
  5
14A86
  9
$SURFTAB1
 70
     6
  9
$SURFTAB2
 70
     6
  9
$SURFTYPE
 70
     6
  9
$SURFU
 70
     6
  9
$SURFV
 70
     6
  9
$UCSBASE
  2

  9
$UCSNAME
  2

  9
$UCSORG
 10
0.0
 20
0.0
 30
0.0
  9
$UCSXDIR
 10
1.0
 20
0.0
 30
0.0
  9
$UCSYDIR
 10
0.0
 20
1.0
 30
0.0
  9
$UCSORTHOREF
  2

  9
$UCSORTHOVIEW
 70
     0
  9
$UCSORGTOP
 10
0.0
 20
0.0
 30
0.0
  9
$UCSORGBOTTOM
 10
0.0
 20
0.0
 30
0.0
  9
$UCSORGLEFT
 10
0.0
 20
0.0
 30
0.0
  9
$UCSORGRIGHT
 10
0.0
 20
0.0
 30
0.0
  9
$UCSORGFRONT
 10
0.0
 20
0.0
 30
0.0
  9
$UCSORGBACK
 10
0.0
 20
0.0
 30
0.0
  9
$PUCSBASE
  2

  9
$PUCSNAME
  2

  9
$PUCSORG
 10
0.0
 20
0.0
 30
0.0
  9
$PUCSXDIR
 10
1.0
 20
0.0
 30
0.0
  9
$PUCSYDIR
 10
0.0
 20
1.0
 30
0.0
  9
$PUCSORTHOREF
  2

  9
$PUCSORTHOVIEW
 70
     0
  9
$PUCSORGTOP
 10
0.0
 20
0.0
 30
0.0
  9
$PUCSORGBOTTOM
 10
0.0
 20
0.0
 30
0.0
  9
$PUCSORGLEFT
 10
0.0
 20
0.0
 30
0.0
  9
$PUCSORGRIGHT
 10
0.0
 20
0.0
 30
0.0
  9
$PUCSORGFRONT
 10
0.0
 20
0.0
 30
0.0
  9
$PUCSORGBACK
 10
0.0
 20
0.0
 30
0.0
  9
$USERI1
 70
     0
  9
$USERI2
 70
     0
  9
$USERI3
 70
     0
  9
$USERI4
 70
     0
  9
$USERI5
 70
     0
  9
$USERR1
 40
0.0
  9
$USERR2
 40
0.0
  9
$USERR3
 40
0.0
  9
$USERR4
 40
0.0
  9
$USERR5
 40
0.0
  9
$WORLDVIEW
 70
     1
  9
$SHADEDGE
 70
     3
  9
$SHADEDIF
 70
    70
  9
$TILEMODE
 70
     0
  9
$MAXACTVP
 70
    64
  9
$PINSBASE
 10
0.0
 20
0.0
 30
0.0
  9
$PLIMCHECK
 70
     0
  9
$PEXTMIN
 10
-0.0233557008396019
 20
-0.0155136928541424
 30
-0.0000000349181948
  9
$PEXTMAX
 10
408.2225153712125
 20
285.1940104826281
 30
0.0000000814935746
  9
$PLIMMIN
 10
-5.873748779296875
 20
-5.873749732971191
  9
$PLIMMAX
 10
414.0729064941406
 20
291.0522451400757
  9
$UNITMODE
 70
     0
  9
$VISRETAIN
 70
     1
  9
$PLINEGEN
 70
     0
  9
$PSLTSCALE
 70
     1
  9
$TREEDEPTH
 70
  3020
  9
$CMLSTYLE
  2
Standard
  9
$CMLJUST
 70
     0
  9
$CMLSCALE
 40
20.0
  9
$PROXYGRAPHICS
 70
     1
  9
$MEASUREMENT
 70
     1
  9
$CELWEIGHT
370
    -1
  9
$ENDCAPS
280
     0
  9
$JOINSTYLE
280
     0
  9
$LWDISPLAY
290
     0
  9
$INSUNITS
 70
     4
  9
$HYPERLINKBASE
  1

  9
$STYLESHEET
  1
SANKENTC.CTB
  9
$XEDIT
290
     1
  9
$CEPSNTYPE
380
     0
  9
$PSTYLEMODE
290
     1
  9
$FINGERPRINTGUID
  2
{072871F0-2771-4C56-B9BD-B27D0F751D9A}
  9
$VERSIONGUID
  2
{1C071735-ABE4-0B46-891F-3A677723D3D0}
  9
$EXTNAMES
290
     1
  9
$PSVPSCALE
 40
0.0
  9
$OLESTARTUP
290
     0
  9
$SORTENTS
280
   127
  9
$INDEXCTL
280
     0
  9
$HIDETEXT
280
     1
  9
$XCLIPFRAME
280
     2
  9
$HALOGAP
280
     0
  9
$OBSCOLOR
 70
   257
  9
$OBSLTYPE
280
     0
  9
$INTERSECTIONDISPLAY
280
     0
  9
$INTERSECTIONCOLOR
 70
   257
  9
$DIMASSOC
280
     2
  9
$PROJECTNAME
  1

  9
$CAMERADISPLAY
290
     0
  9
$LENSLENGTH
 40
50.0
  9
$CAMERAHEIGHT
 40
0.0
  9
$STEPSPERSEC
 40
2.0
  9
$STEPSIZE
 40
6.0
  9
$3DDWFPREC
 40
2.0
  9
$PSOLWIDTH
 40
0.25
  9
$PSOLHEIGHT
 40
4.0
  9
$LOFTANG1
 40
1.570796326794896
  9
$LOFTANG2
 40
1.570796326794896
  9
$LOFTMAG1
 40
0.0
  9
$LOFTMAG2
 40
0.0
  9
$LOFTPARAM
 70
     7
  9
$LOFTNORMALS
280
     1
  9
$LATITUDE
 40
37.795
  9
$LONGITUDE
 40
-122.394
  9
$NORTHDIRECTION
 40
0.0
  9
$TIMEZONE
 70
 -8000
  9
$LIGHTGLYPHDISPLAY
280
     1
  9
$TILEMODELIGHTSYNCH
280
     1
  9
$CMATERIAL
347
11CD7
  9
$SOLIDHIST
280
     0
  9
$SHOWHIST
280
     1
  9
$DWFFRAME
280
     2
  9
$DGNFRAME
280
     0
  9
$REALWORLDSCALE
290
     1
  9
$INTERFERECOLOR
 62
     1
  9
$INTERFEREOBJVS
345
11CF9
  9
$INTERFEREVPVS
346
13755
  9
$CSHADOW
280
     0
  9
$SHADOWPLANELOCATION
 40
0.0
  0
ENDSEC
  0
SECTION
  2
CLASSES
  0
CLASS
  1
ACDBDICTIONARYWDFLT
  2
AcDbDictionaryWithDefault
  3
ObjectDBX Classes
 90
        0
 91
        1
280
     0
281
     0
  0
CLASS
  1
DICTIONARYVAR
  2
AcDbDictionaryVar
  3
ObjectDBX Classes
 90
        0
 91
       15
280
     0
281
     0
  0
CLASS
  1
TABLESTYLE
  2
AcDbTableStyle
  3
ObjectDBX Classes
 90
     4095
 91
        1
280
     0
281
     0
  0
CLASS
  1
DIMASSOC
  2
AcDbDimAssoc
  3
"AcDbDimAssoc|Product Desc:     AcDim ARX App For Dimension|Company:          Autodesk, Inc.|WEB Address:      www.autodesk.com"
 90
        0
 91
        1
280
     0
281
     0
  0
CLASS
  1
SORTENTSTABLE
  2
AcDbSortentsTable
  3
ObjectDBX Classes
 90
        0
 91
        2
280
     0
281
     0
  0
CLASS
  1
MATERIAL
  2
AcDbMaterial
  3
ObjectDBX Classes
 90
     1153
 91
        3
280
     0
281
     0
  0
CLASS
  1
VISUALSTYLE
  2
AcDbVisualStyle
  3
ObjectDBX Classes
 90
     4095
 91
       26
280
     0
281
     0
  0
CLASS
  1
SCALE
  2
AcDbScale
  3
ObjectDBX Classes
 90
     1153
 91
       17
280
     0
281
     0
  0
CLASS
  1
MLEADERSTYLE
  2
AcDbMLeaderStyle
  3
ACDB_MLEADERSTYLE_CLASS
 90
     4095
 91
        1
280
     0
281
     0
  0
CLASS
  1
CELLSTYLEMAP
  2
AcDbCellStyleMap
  3
ObjectDBX Classes
 90
     1152
 91
        2
280
     0
281
     0
  0
CLASS
  1
AEC_REFEDIT_STATUS_TRACKER
  2
AecDbRefEditStatusTracker
  3
AecArchBase80|Product Desc: Autodesk Architectural Desktop 2007 |Company: Autodesk,Inc. |WEB Address: www.autodesk.com
 90
      129
 91
        0
280
     0
281
     0
  0
CLASS
  1
NPOCOLLECTION
  2
AcDbImpNonPersistentObjectsCollection
  3
ObjectDBX Classes
 90
     1153
 91
        0
280
     0
281
     0
  0
CLASS
  1
ACDBSECTIONVIEWSTYLE
  2
AcDbSectionViewStyle
  3
ObjectDBX Classes
 90
     1025
 91
        1
280
     0
281
     0
  0
CLASS
  1
ACDBDETAILVIEWSTYLE
  2
AcDbDetailViewStyle
  3
ObjectDBX Classes
 90
     1025
 91
        1
280
     0
281
     0
  0
ENDSEC
  0
SECTION
  2
TABLES
  0
TABLE
  2
VPORT
  5
8
102
{ACAD_XDICTIONARY
360
1221D
102
}
330
0
100
AcDbSymbolTable
 70
     1
1001
ACAD
1000
DbSaveVer
1071
      278
  0
VPORT
  5
1235C
330
8
100
AcDbSymbolTableRecord
100
AcDbViewportTableRecord
  2
*Active
 70
     0
 10
0.0
 20
0.0
 11
1.0
 21
1.0
 12
2100.000009778887
 22
1485.000006915069
 13
0.0
 23
0.0
 14
10.0
 24
10.0
 15
10.0
 25
10.0
 16
0.0
 26
0.0
 36
1.0
 17
0.0
 27
0.0
 37
0.0
 40
2995.786285400605
 41
1.976978417266187
 42
50.0
 43
0.0
 44
0.0
 50
0.0
 51
0.0
 71
     0
 72
  1000
 73
     1
 74
     3
 75
     0
 76
     0
 77
     0
 78
     0
281
     0
 65
     1
110
0.0
120
0.0
130
0.0
111
1.0
121
0.0
131
0.0
112
0.0
122
1.0
132
0.0
 79
     0
146
0.0
348
11CF5
 60
     3
 61
     5
292
     1
282
     1
141
0.0
142
0.0
 63
   250
421
  3355443
1001
ACAD_NAV_VCDISPLAY
1070
     3
  0
ENDTAB
  0
TABLE
  2
LTYPE
  5
5
330
0
100
AcDbSymbolTable
 70
     4
  0
LTYPE
  5
14
330
5
100
AcDbSymbolTableRecord
100
AcDbLinetypeTableRecord
  2
ByBlock
 70
     0
  3

 72
    65
 73
     0
 40
0.0
  0
LTYPE
  5
15
330
5
100
AcDbSymbolTableRecord
100
AcDbLinetypeTableRecord
  2
ByLayer
 70
     0
  3

 72
    65
 73
     0
 40
0.0
  0
LTYPE
  5
16
330
5
100
AcDbSymbolTableRecord
100
AcDbLinetypeTableRecord
  2
Continuous
 70
     0
  3
Solid line
 72
    65
 73
     0
 40
0.0
  0
LTYPE
  5
1D4
330
5
100
AcDbSymbolTableRecord
100
AcDbLinetypeTableRecord
  2
PHANTOM
 70
     0
  3
Phantom ______  __  __  ______  __  __  ______
 72
    65
 73
     6
 40
63.5
 49
31.75
 74
     0
 49
-6.349999999999997
 74
     0
 49
6.349999999999997
 74
     0
 49
-6.349999999999997
 74
     0
 49
6.349999999999997
 74
     0
 49
-6.349999999999997
 74
     0
  0
LTYPE
  5
1D5
330
5
100
AcDbSymbolTableRecord
100
AcDbLinetypeTableRecord
  2
CENTER
 70
     0
  3
Center ____ _ ____ _ ____ _ ____ _ ____ _ ____
 72
    65
 73
     4
 40
50.8
 49
31.75
 74
     0
 49
-6.349999999999997
 74
     0
 49
6.349999999999997
 74
     0
 49
-6.349999999999997
 74
     0
  0
LTYPE
  5
1D7
330
5
100
AcDbSymbolTableRecord
100
AcDbLinetypeTableRecord
  2
DASHED
 70
     0
  3
Dashed __ __ __ __ __ __ __ __ __ __ __ __ __ _
 72
    65
 73
     2
 40
19.05
 49
12.7
 74
     0
 49
-6.349999999999997
 74
     0
  0
ENDTAB
  0
TABLE
  2
LAYER
  5
2
102
{ACAD_XDICTIONARY
360
11D
102
}
330
0
100
AcDbSymbolTable
 70
     8
  0
LAYER
  5
10
102
{ACAD_XDICTIONARY
360
11D19
102
}
330
2
100
AcDbSymbolTableRecord
100
AcDbLayerTableRecord
  2
0
 70
     0
 62
     7
  6
Continuous
370
    -3
390
F
347
11CE7
348
0
  0
LAYER
  5
13F
330
2
100
AcDbSymbolTableRecord
100
AcDbLayerTableRecord
  2
Defpoints
 70
     0
 62
     7
  6
Continuous
290
     0
370
    -3
390
F
347
11CE7
348
0
  0
LAYER
  5
1BF
102
{ACAD_XDICTIONARY
360
11D1D
102
}
330
2
100
AcDbSymbolTableRecord
100
AcDbLayerTableRecord
  2
図面枠
 70
     0
 62
     2
  6
Continuous
370
    -3
390
F
347
11CE7
348
0
1001
AcAecLayerStandard
1000

1000

  0
LAYER
  5
1C1
102
{ACAD_XDICTIONARY
360
11D21
102
}
330
2
100
AcDbSymbolTableRecord
100
AcDbLayerTableRecord
  2
仮想線
 70
     0
 62
     6
  6
PHANTOM
370
    -3
390
F
347
11CE7
348
0
1001
AcAecLayerStandard
1000

1000

  0
LAYER
  5
1C3
102
{ACAD_XDICTIONARY
360
11D25
102
}
330
2
100
AcDbSymbolTableRecord
100
AcDbLayerTableRecord
  2
寸法線
 70
     0
 62
     2
  6
Continuous
370
    -3
390
F
347
11CE7
348
0
1001
AcAecLayerStandard
1000

1000

  0
LAYER
  5
1C4
102
{ACAD_XDICTIONARY
360
11D27
102
}
330
2
100
AcDbSymbolTableRecord
100
AcDbLayerTableRecord
  2
中心線
 70
     0
 62
     1
  6
CENTER
370
    -3
390
F
347
11CE7
348
0
1001
AcAecLayerStandard
1000

1000

  0
LAYER
  5
1C5
102
{ACAD_XDICTIONARY
360
11D29
102
}
330
2
100
AcDbSymbolTableRecord
100
AcDbLayerTableRecord
  2
破線
 70
     0
 62
     4
  6
DASHED
370
    -3
390
F
347
11CE7
348
0
1001
AcAecLayerStandard
1000

1000

  0
LAYER
  5
82E
102
{ACAD_XDICTIONARY
360
11D2B
102
}
330
2
100
AcDbSymbolTableRecord
100
AcDbLayerTableRecord
  2
実線
 70
     0
 62
     7
  6
Continuous
370
    -3
390
F
347
11CE7
348
0
1001
AcAecLayerStandard
1000

1000

  0
ENDTAB
  0
TABLE
  2
STYLE
  5
3
330
0
100
AcDbSymbolTable
 70
     1
  0
STYLE
  5
11
330
3
100
AcDbSymbolTableRecord
100
AcDbTextStyleTableRecord
  2
Standard
 70
     0
 40
0.0
 41
1.0
 50
0.0
 71
     0
 42
25.0
  3
isocp.shx
  4
extfont2.shx
  0
ENDTAB
  0
TABLE
  2
VIEW
  5
6
330
0
100
AcDbSymbolTable
 70
     4
  0
ENDTAB
  0
TABLE
  2
UCS
  5
7
330
0
100
AcDbSymbolTable
 70
     0
  0
ENDTAB
  0
TABLE
  2
APPID
  5
9
330
0
100
AcDbSymbolTable
 70
    19
  0
APPID
  5
12
330
9
100
AcDbSymbolTableRecord
100
AcDbRegAppTableRecord
  2
ACAD
 70
     0
  0
APPID
  5
9E
330
9
100
AcDbSymbolTableRecord
100
AcDbRegAppTableRecord
  2
ACAD_PSEXT
 70
     0
  0
APPID
  5
1BE
330
9
100
AcDbSymbolTableRecord
100
AcDbRegAppTableRecord
  2
AcAecLayerStandard
 70
     0
  0
APPID
  5
1FF
330
9
100
AcDbSymbolTableRecord
100
AcDbRegAppTableRecord
  2
ACAD_EXEMPT_FROM_CAD_STANDARDS
 70
     0
  0
APPID
  5
1318
330
9
100
AcDbSymbolTableRecord
100
AcDbRegAppTableRecord
  2
ACAD_DSTYLE_DIMTEXT_FILL
 70
     0
  0
APPID
  5
1319
330
9
100
AcDbSymbolTableRecord
100
AcDbRegAppTableRecord
  2
ACAD_DSTYLE_DIMEXT_LENGTH
 70
     0
  0
APPID
  5
131A
330
9
100
AcDbSymbolTableRecord
100
AcDbRegAppTableRecord
  2
ACAD_DSTYLE_DIMEXT_ENABLED
 70
     0
  0
APPID
  5
131B
330
9
100
AcDbSymbolTableRecord
100
AcDbRegAppTableRecord
  2
ACAD_DSTYLE_DIM_LINETYPE
 70
     0
  0
APPID
  5
131C
330
9
100
AcDbSymbolTableRecord
100
AcDbRegAppTableRecord
  2
ACAD_DSTYLE_DIM_EXT1_LINETYPE
 70
     0
  0
APPID
  5
131D
330
9
100
AcDbSymbolTableRecord
100
AcDbRegAppTableRecord
  2
ACAD_DSTYLE_DIM_EXT2_LINETYPE
 70
     0
  0
APPID
  5
1439
330
9
100
AcDbSymbolTableRecord
100
AcDbRegAppTableRecord
  2
ACAD_DSTYLE_DIMJOGGED_JOGANGLE_SYMBOL
 70
     0
  0
APPID
  5
1CB2
330
9
100
AcDbSymbolTableRecord
100
AcDbRegAppTableRecord
  2
ACAD_DSTYLE_DIMARC_LENGTH_SYMBOL
 70
     0
  0
APPID
  5
356E
330
9
100
AcDbSymbolTableRecord
100
AcDbRegAppTableRecord
  2
ACAD_DIMASSOC_CALC_DIMLFAC
 70
     0
  0
APPID
  5
356F
330
9
100
AcDbSymbolTableRecord
100
AcDbRegAppTableRecord
  2
ACAD_DIMASSOC_DIMLFAC
 70
     0
  0
APPID
  5
3570
330
9
100
AcDbSymbolTableRecord
100
AcDbRegAppTableRecord
  2
ACAD_DIMASSOC_OVERRIDDEN_DIMLFAC
 70
     0
  0
APPID
  5
11D14
330
9
100
AcDbSymbolTableRecord
100
AcDbRegAppTableRecord
  2
ACAD_MLEADERVER
 70
     0
  0
APPID
  5
13989
330
9
100
AcDbSymbolTableRecord
100
AcDbRegAppTableRecord
  2
ACAD_NAV_VCDISPLAY
 70
     0
  0
APPID
  5
142E8
330
9
100
AcDbSymbolTableRecord
100
AcDbRegAppTableRecord
  2
ACAD_DSTYLE_DIMJAG
 70
     0
  0
APPID
  5
142E9
330
9
100
AcDbSymbolTableRecord
100
AcDbRegAppTableRecord
  2
ACAD_DSTYLE_DIMTALN
 70
     0
  0
ENDTAB
  0
TABLE
  2
DIMSTYLE
  5
A
330
0
100
AcDbSymbolTable
 70
     1
100
AcDbDimStyleTable
 71
     1
340
C0F
  0
DIMSTYLE
105
C0F
102
{ACAD_REACTORS
330
13D24
330
13D25
330
13CB1
330
13C43
330
13C44
330
13C45
330
13BD7
330
13BD8
330
13BD9
330
13BDA
330
13BDB
330
13BDC
330
13BDD
330
13BDE
330
13BDF
330
13BE0
330
13BE1
330
13BE2
330
13BE3
330
13BE4
330
14403
330
14404
330
14405
330
14406
330
14407
330
14408
330
14409
330
1440A
330
1440B
330
14438
330
14439
330
1444B
330
1444C
330
14455
330
1445A
330
14468
330
1446E
330
14471
330
14472
330
143E3
330
14402
330
14489
102
}
330
A
100
AcDbSymbolTableRecord
100
AcDbDimStyleTableRecord
  2
STANDARD
 70
     0
 40
10.0
 41
2.0
 42
0.875
 43
10.0
 44
1.0
 50
89.99999999999998
 73
     0
 74
     0
 77
     1
 78
     8
140
2.5
141
0.0
147
0.875
172
     1
173
     1
271
     3
272
     3
340
11
341
C08
343
C08
344
C08
1001
ACAD_DSTYLE_DIMJOGGED_JOGANGLE_SYMBOL
1070
   384
1040
1.570796326794896
  0
ENDTAB
  0
TABLE
  2
BLOCK_RECORD
  5
1
330
0
100
AcDbSymbolTable
 70
    44
  0
BLOCK_RECORD
  5
1F
102
{ACAD_XDICTIONARY
360
5C91
102
}
330
1
100
AcDbSymbolTableRecord
100
AcDbBlockTableRecord
  2
*Model_Space
340
22
 70
     0
280
     1
281
     0
  0
BLOCK_RECORD
  5
78D
330
1
100
AcDbSymbolTableRecord
100
AcDbBlockTableRecord
  2
*Paper_Space
340
78E
 70
     0
280
     1
281
     0
  0
BLOCK_RECORD
  5
C08
102
{ACAD_XDICTIONARY
360
117C7
102
}
330
1
100
AcDbSymbolTableRecord
100
AcDbBlockTableRecord
  2
_OPEN
340
0
102
{BLKREFS
331
14823
331
14824
331
1482C
331
1482D
331
14835
331
14836
331
14840
331
14841
331
14849
331
1484A
331
14854
331
14855
331
1485F
331
14860
331
1486A
331
1486B
331
1479B
331
1479C
331
147A6
331
147A7
331
149A3
331
149A4
331
149AC
331
149AD
331
149B6
331
149B7
331
149C0
331
149C1
331
149D2
331
149D3
331
149DC
331
149DD
331
149E5
331
149E6
331
149EE
331
149EF
331
149F7
331
149F8
331
14A02
331
14A03
331
1497D
331
1497E
331
14986
331
14987
331
1498F
331
14990
331
1499A
331
1499B
331
14A21
331
14A22
331
14A2C
331
14A2D
331
14A35
331
14A36
331
14A3E
331
14A3F
331
14A47
331
14A48
331
14A52
331
14A53
331
14A5D
331
14A5E
331
14800
331
14808
331
14809
331
14811
331
14812
331
1481A
331
1481B
331
147B1
331
147B2
331
147BA
331
147BB
331
147C5
331
147C6
331
147CE
331
147CF
331
147D7
331
147D8
331
147E0
331
147E1
331
147E9
331
147EA
331
147F4
331
147F5
331
147FF
102
}
 70
     0
280
     1
281
     0
  0
BLOCK_RECORD
  5
13F24
330
1
100
AcDbSymbolTableRecord
100
AcDbBlockTableRecord
  2
*D1
340
0
 70
     0
280
     1
281
     0
  0
BLOCK_RECORD
  5
13F32
330
1
100
AcDbSymbolTableRecord
100
AcDbBlockTableRecord
  2
*D2
340
0
 70
     0
280
     1
281
     0
  0
BLOCK_RECORD
  5
13F4E
330
1
100
AcDbSymbolTableRecord
100
AcDbBlockTableRecord
  2
*D3
340
0
 70
     0
280
     1
281
     0
  0
BLOCK_RECORD
  5
13F5C
330
1
100
AcDbSymbolTableRecord
100
AcDbBlockTableRecord
  2
*D4
340
0
 70
     0
280
     1
281
     0
  0
BLOCK_RECORD
  5
13F68
330
1
100
AcDbSymbolTableRecord
100
AcDbBlockTableRecord
  2
*D5
340
0
 70
     0
280
     1
281
     0
  0
BLOCK_RECORD
  5
13F74
330
1
100
AcDbSymbolTableRecord
100
AcDbBlockTableRecord
  2
*D6
340
0
 70
     0
280
     1
281
     0
  0
BLOCK_RECORD
  5
13F80
330
1
100
AcDbSymbolTableRecord
100
AcDbBlockTableRecord
  2
*D7
340
0
 70
     0
280
     1
281
     0
  0
BLOCK_RECORD
  5
13F8C
330
1
100
AcDbSymbolTableRecord
100
AcDbBlockTableRecord
  2
*D8
340
0
 70
     0
280
     1
281
     0
  0
BLOCK_RECORD
  5
13F98
330
1
100
AcDbSymbolTableRecord
100
AcDbBlockTableRecord
  2
*D9
340
0
 70
     0
280
     1
281
     0
  0
BLOCK_RECORD
  5
13FA4
330
1
100
AcDbSymbolTableRecord
100
AcDbBlockTableRecord
  2
*D10
340
0
 70
     0
280
     1
281
     0
  0
BLOCK_RECORD
  5
13FB2
330
1
100
AcDbSymbolTableRecord
100
AcDbBlockTableRecord
  2
*D11
340
0
 70
     0
280
     1
281
     0
  0
BLOCK_RECORD
  5
13FBE
330
1
100
AcDbSymbolTableRecord
100
AcDbBlockTableRecord
  2
*D12
340
0
 70
     0
280
     1
281
     0
  0
BLOCK_RECORD
  5
13FCA
330
1
100
AcDbSymbolTableRecord
100
AcDbBlockTableRecord
  2
*D13
340
0
 70
     0
280
     1
281
     0
  0
BLOCK_RECORD
  5
13FD8
330
1
100
AcDbSymbolTableRecord
100
AcDbBlockTableRecord
  2
*D14
340
0
 70
     0
280
     1
281
     0
  0
BLOCK_RECORD
  5
13FE4
330
1
100
AcDbSymbolTableRecord
100
AcDbBlockTableRecord
  2
*D15
340
0
 70
     0
280
     1
281
     0
  0
BLOCK_RECORD
  5
13FF1
330
1
100
AcDbSymbolTableRecord
100
AcDbBlockTableRecord
  2
*D16
340
0
 70
     0
280
     1
281
     0
  0
BLOCK_RECORD
  5
13FFE
330
1
100
AcDbSymbolTableRecord
100
AcDbBlockTableRecord
  2
*D17
340
0
 70
     0
280
     1
281
     0
  0
BLOCK_RECORD
  5
1400A
330
1
100
AcDbSymbolTableRecord
100
AcDbBlockTableRecord
  2
*D18
340
0
 70
     0
280
     1
281
     0
  0
BLOCK_RECORD
  5
14016
330
1
100
AcDbSymbolTableRecord
100
AcDbBlockTableRecord
  2
*D19
340
0
 70
     0
280
     1
281
     0
  0
BLOCK_RECORD
  5
14023
330
1
100
AcDbSymbolTableRecord
100
AcDbBlockTableRecord
  2
*D20
340
0
 70
     0
280
     1
281
     0
  0
BLOCK_RECORD
  5
1448A
330
1
100
AcDbSymbolTableRecord
100
AcDbBlockTableRecord
  2
*D21
340
0
 70
     0
280
     1
281
     0
  0
BLOCK_RECORD
  5
14498
330
1
100
AcDbSymbolTableRecord
100
AcDbBlockTableRecord
  2
*D22
340
0
 70
     0
280
     1
281
     0
  0
BLOCK_RECORD
  5
144A4
330
1
100
AcDbSymbolTableRecord
100
AcDbBlockTableRecord
  2
*D23
340
0
 70
     0
280
     1
281
     0
  0
BLOCK_RECORD
  5
144B2
330
1
100
AcDbSymbolTableRecord
100
AcDbBlockTableRecord
  2
*D24
340
0
 70
     0
280
     1
281
     0
  0
BLOCK_RECORD
  5
144BE
330
1
100
AcDbSymbolTableRecord
100
AcDbBlockTableRecord
  2
*D25
340
0
 70
     0
280
     1
281
     0
  0
BLOCK_RECORD
  5
144CA
330
1
100
AcDbSymbolTableRecord
100
AcDbBlockTableRecord
  2
*D26
340
0
 70
     0
280
     1
281
     0
  0
BLOCK_RECORD
  5
144D6
330
1
100
AcDbSymbolTableRecord
100
AcDbBlockTableRecord
  2
*D27
340
0
 70
     0
280
     1
281
     0
  0
BLOCK_RECORD
  5
144E2
330
1
100
AcDbSymbolTableRecord
100
AcDbBlockTableRecord
  2
*D28
340
0
 70
     0
280
     1
281
     0
  0
BLOCK_RECORD
  5
144F0
330
1
100
AcDbSymbolTableRecord
100
AcDbBlockTableRecord
  2
*D29
340
0
 70
     0
280
     1
281
     0
  0
BLOCK_RECORD
  5
144FE
330
1
100
AcDbSymbolTableRecord
100
AcDbBlockTableRecord
  2
*D30
340
0
 70
     0
280
     1
281
     0
  0
BLOCK_RECORD
  5
1450A
330
1
100
AcDbSymbolTableRecord
100
AcDbBlockTableRecord
  2
*D31
340
0
 70
     0
280
     1
281
     0
  0
BLOCK_RECORD
  5
14516
330
1
100
AcDbSymbolTableRecord
100
AcDbBlockTableRecord
  2
*D32
340
0
 70
     0
280
     1
281
     0
  0
BLOCK_RECORD
  5
14522
330
1
100
AcDbSymbolTableRecord
100
AcDbBlockTableRecord
  2
*D33
340
0
 70
     0
280
     1
281
     0
  0
BLOCK_RECORD
  5
1452E
330
1
100
AcDbSymbolTableRecord
100
AcDbBlockTableRecord
  2
*D34
340
0
 70
     0
280
     1
281
     0
  0
BLOCK_RECORD
  5
1453A
330
1
100
AcDbSymbolTableRecord
100
AcDbBlockTableRecord
  2
*D35
340
0
 70
     0
280
     1
281
     0
  0
BLOCK_RECORD
  5
14546
330
1
100
AcDbSymbolTableRecord
100
AcDbBlockTableRecord
  2
*D36
340
0
 70
     0
280
     1
281
     0
  0
BLOCK_RECORD
  5
14554
330
1
100
AcDbSymbolTableRecord
100
AcDbBlockTableRecord
  2
*D37
340
0
 70
     0
280
     1
281
     0
  0
BLOCK_RECORD
  5
14560
330
1
100
AcDbSymbolTableRecord
100
AcDbBlockTableRecord
  2
*D38
340
0
 70
     0
280
     1
281
     0
  0
BLOCK_RECORD
  5
1456E
330
1
100
AcDbSymbolTableRecord
100
AcDbBlockTableRecord
  2
*D39
340
0
 70
     0
280
     1
281
     0
  0
BLOCK_RECORD
  5
1457C
330
1
100
AcDbSymbolTableRecord
100
AcDbBlockTableRecord
  2
*D40
340
0
 70
     0
280
     1
281
     0
  0
BLOCK_RECORD
  5
1458A
330
1
100
AcDbSymbolTableRecord
100
AcDbBlockTableRecord
  2
*D41
340
0
 70
     0
280
     1
281
     0
  0
BLOCK_RECORD
  5
14598
330
1
100
AcDbSymbolTableRecord
100
AcDbBlockTableRecord
  2
*D42
340
0
 70
     0
280
     1
281
     0
  0
BLOCK_RECORD
  5
14946
330
1
100
AcDbSymbolTableRecord
100
AcDbBlockTableRecord
  2
*D43
340
0
 70
     0
280
     1
281
     0
  0
ENDTAB
  0
ENDSEC
  0
SECTION
  2
BLOCKS
  0
BLOCK
  5
20
330
1F
100
AcDbEntity
  8
0
100
AcDbBlockBegin
  2
*Model_Space
 70
     0
 10
0.0
 20
0.0
 30
0.0
  3
*Model_Space
  1

  0
ENDBLK
  5
21
330
1F
100
AcDbEntity
  8
0
100
AcDbBlockEnd
  0
BLOCK
  5
78F
330
78D
100
AcDbEntity
 67
     1
  8
0
100
AcDbBlockBegin
  2
*Paper_Space
 70
     0
 10
0.0
 20
0.0
 30
0.0
  3
*Paper_Space
  1

  0
ENDBLK
  5
790
330
78D
100
AcDbEntity
 67
     1
  8
0
100
AcDbBlockEnd
  0
BLOCK
  5
C09
330
C08
100
AcDbEntity
  8
0
100
AcDbBlockBegin
  2
_OPEN
 70
     0
 10
0.0
 20
0.0
 30
0.0
  3
_OPEN
  1

  0
LINE
  5
C0A
330
C08
100
AcDbEntity
  8
0
  6
ByBlock
 62
     0
100
AcDbLine
 10
-1.0
 20
0.1666666666666666
 30
0.0
 11
0.0
 21
0.0
 31
0.0
  0
LINE
  5
C0B
330
C08
100
AcDbEntity
  8
0
  6
ByBlock
 62
     0
100
AcDbLine
 10
0.0
 20
0.0
 30
0.0
 11
-1.0
 21
-0.1666666666666666
 31
0.0
  0
LINE
  5
C0C
330
C08
100
AcDbEntity
  8
0
  6
ByBlock
 62
     0
100
AcDbLine
 10
0.0
 20
0.0
 30
0.0
 11
-1.0
 21
0.0
 31
0.0
  0
ENDBLK
  5
C0D
330
C08
100
AcDbEntity
  8
0
100
AcDbBlockEnd
  0
BLOCK
  5
13F25
330
13F24
100
AcDbEntity
  8
0
100
AcDbBlockBegin
  2
*D1
 70
     1
 10
0.0
 20
0.0
 30
0.0
  3
*D1
  1

  0
LINE
  5
14A4D
330
13F24
100
AcDbEntity
  8
寸法線
 62
     0
440
 16777216
370
    -2
100
AcDbLine
 10
2011.249979077719
 20
1495.000090609424
 30
0.0
 11
2192.499994172522
 21
1495.000090609424
 31
0.0
  0
LINE
  5
14A4E
330
13F24
100
AcDbEntity
  8
寸法線
 62
     0
440
 16777216
370
    -2
100
AcDbLine
 10
2119.249979077719
 20
1522.500014936928
 30
0.0
 11
2192.499994172522
 21
1522.500014936928
 31
0.0
  0
LINE
  5
14A4F
330
13F24
100
AcDbEntity
  8
寸法線
 62
     0
440
 16777216
370
    -2
100
AcDbLine
 10
2182.499994172522
 20
1475.000090609424
 30
0.0
 11
2182.499994172522
 21
1455.000090609424
 31
0.0
  0
LINE
  5
14A50
330
13F24
100
AcDbEntity
  8
寸法線
 62
     0
440
 16777216
370
    -2
100
AcDbLine
 10
2182.499994172522
 20
1542.500014936928
 30
0.0
 11
2182.499994172522
 21
1562.500014936928
 31
0.0
  0
LINE
  5
14A51
330
13F24
100
AcDbEntity
  8
寸法線
 62
     0
440
 16777216
370
    -2
100
AcDbLine
 10
2182.499994172522
 20
1495.000090609424
 30
0.0
 11
2182.499994172522
 21
1522.500014936928
 31
0.0
  0
INSERT
  5
14A52
330
13F24
100
AcDbEntity
  8
寸法線
 62
     0
440
 16777216
370
    -2
100
AcDbBlockReference
  2
_OPEN
 10
2182.499994172522
 20
1495.000090609424
 30
0.0
 41
20.0
 42
20.0
 43
20.0
 50
90.0
  0
INSERT
  5
14A53
330
13F24
100
AcDbEntity
  8
寸法線
 62
     0
440
 16777216
370
    -2
100
AcDbBlockReference
  2
_OPEN
 10
2182.499994172522
 20
1522.500014936928
 30
0.0
 41
20.0
 42
20.0
 43
20.0
 50
270.0
  0
MTEXT
  5
14A54
330
13F24
100
AcDbEntity
  8
寸法線
 62
     0
440
 16777216
100
AcDbMText
 10
2161.247533542601
 20
1508.750052773175
 30
0.0
 40
25.0
 41
0.0
 46
0.0
 71
     5
 72
     1
  1
\A1;27.5
 11
0.0000000000000001
 21
1.0
 31
0.0
 73
     1
 44
1.0
  0
POINT
  5
14A55
330
13F24
100
AcDbEntity
  8
Defpoints
 62
     0
440
 16777216
100
AcDbPoint
 10
2002.499979077719
 20
1495.000090609424
 30
0.0
  0
POINT
  5
14A56
330
13F24
100
AcDbEntity
  8
Defpoints
 62
     0
440
 16777216
100
AcDbPoint
 10
2110.499979077719
 20
1522.500014936928
 30
0.0
  0
POINT
  5
14A57
330
13F24
100
AcDbEntity
  8
Defpoints
 62
     0
440
 16777216
100
AcDbPoint
 10
2182.499994172522
 20
1522.500014936928
 30
0.0
  0
ENDBLK
  5
13F26
330
13F24
100
AcDbEntity
  8
0
100
AcDbBlockEnd
  0
BLOCK
  5
13F33
330
13F32
100
AcDbEntity
  8
0
100
AcDbBlockBegin
  2
*D2
 70
     1
 10
0.0
 20
0.0
 30
0.0
  3
*D2
  1

  0
LINE
  5
14A58
330
13F32
100
AcDbEntity
  8
寸法線
 62
     0
440
 16777216
370
    -2
100
AcDbLine
 10
2111.249994172523
 20
1825.500015811889
 30
0.0
 11
2192.499994172522
 21
1825.500015811889
 31
0.0
  0
LINE
  5
14A59
330
13F32
100
AcDbEntity
  8
寸法線
 62
     0
440
 16777216
370
    -2
100
AcDbLine
 10
2111.249994172523
 20
1809.500015811889
 30
0.0
 11
2192.499994172522
 21
1809.500015811889
 31
0.0
  0
LINE
  5
14A5A
330
13F32
100
AcDbEntity
  8
寸法線
 62
     0
440
 16777216
370
    -2
100
AcDbLine
 10
2182.499994172522
 20
1845.500015811889
 30
0.0
 11
2182.499994172522
 21
1865.500015811889
 31
0.0
  0
LINE
  5
14A5B
330
13F32
100
AcDbEntity
  8
寸法線
 62
     0
440
 16777216
370
    -2
100
AcDbLine
 10
2182.499994172522
 20
1789.500015811889
 30
0.0
 11
2182.499994172522
 21
1769.500015811889
 31
0.0
  0
LINE
  5
14A5C
330
13F32
100
AcDbEntity
  8
寸法線
 62
     0
440
 16777216
370
    -2
100
AcDbLine
 10
2182.499994172522
 20
1825.500015811889
 30
0.0
 11
2182.499994172522
 21
1809.500015811889
 31
0.0
  0
INSERT
  5
14A5D
330
13F32
100
AcDbEntity
  8
寸法線
 62
     0
440
 16777216
370
    -2
100
AcDbBlockReference
  2
_OPEN
 10
2182.499994172522
 20
1825.500015811889
 30
0.0
 41
20.0
 42
20.0
 43
20.0
 50
270.0
  0
INSERT
  5
14A5E
330
13F32
100
AcDbEntity
  8
寸法線
 62
     0
440
 16777216
370
    -2
100
AcDbBlockReference
  2
_OPEN
 10
2182.499994172522
 20
1809.500015811889
 30
0.0
 41
20.0
 42
20.0
 43
20.0
 50
90.0
  0
MTEXT
  5
14A5F
330
13F32
100
AcDbEntity
  8
寸法線
 62
     0
440
 16777216
100
AcDbMText
 10
2161.249994172522
 20
1817.500015811888
 30
0.0
 40
25.0
 41
0.0
 46
0.0
 71
     5
 72
     1
  1
\A1;16
 11
0.0000000000000001
 21
1.0
 31
0.0
 73
     1
 44
1.0
  0
POINT
  5
14A60
330
13F32
100
AcDbEntity
  8
Defpoints
 62
     0
440
 16777216
100
AcDbPoint
 10
2102.499994172523
 20
1825.500015811889
 30
0.0
  0
POINT
  5
14A61
330
13F32
100
AcDbEntity
  8
Defpoints
 62
     0
440
 16777216
100
AcDbPoint
 10
2102.499994172523
 20
1809.500015811889
 30
0.0
  0
POINT
  5
14A62
330
13F32
100
AcDbEntity
  8
Defpoints
 62
     0
440
 16777216
100
AcDbPoint
 10
2182.499994172522
 20
1809.500015811889
 30
0.0
  0
ENDBLK
  5
13F34
330
13F32
100
AcDbEntity
  8
0
100
AcDbBlockEnd
  0
BLOCK
  5
13F4F
330
13F4E
100
AcDbEntity
  8
0
100
AcDbBlockBegin
  2
*D3
 70
     1
 10
0.0
 20
0.0
 30
0.0
  3
*D3
  1

  0
LINE
  5
149FD
330
13F4E
100
AcDbEntity
  8
寸法線
 62
     0
440
 16777216
370
    -2
100
AcDbLine
 10
2297.749994172537
 20
2276.000002350013
 30
0.0
 11
2216.499994172551
 21
2276.000002350013
 31
0.0
  0
LINE
  5
149FE
330
13F4E
100
AcDbEntity
  8
寸法線
 62
     0
440
 16777216
370
    -2
100
AcDbLine
 10
2297.749994172537
 20
2264.000002350013
 30
0.0
 11
2216.499994172551
 21
2264.000002350013
 31
0.0
  0
LINE
  5
149FF
330
13F4E
100
AcDbEntity
  8
寸法線
 62
     0
440
 16777216
370
    -2
100
AcDbLine
 10
2226.499994172551
 20
2296.000002350013
 30
0.0
 11
2226.499994172551
 21
2316.000002350013
 31
0.0
  0
LINE
  5
14A00
330
13F4E
100
AcDbEntity
  8
寸法線
 62
     0
440
 16777216
370
    -2
100
AcDbLine
 10
2226.499994172551
 20
2244.000002350013
 30
0.0
 11
2226.499994172551
 21
2224.000002350013
 31
0.0
  0
LINE
  5
14A01
330
13F4E
100
AcDbEntity
  8
寸法線
 62
     0
440
 16777216
370
    -2
100
AcDbLine
 10
2226.499994172551
 20
2276.000002350013
 30
0.0
 11
2226.499994172551
 21
2264.000002350013
 31
0.0
  0
INSERT
  5
14A02
330
13F4E
100
AcDbEntity
  8
寸法線
 62
     0
440
 16777216
370
    -2
100
AcDbBlockReference
  2
_OPEN
 10
2226.499994172551
 20
2276.000002350013
 30
0.0
 41
20.0
 42
20.0
 43
20.0
 50
270.0
  0
INSERT
  5
14A03
330
13F4E
100
AcDbEntity
  8
寸法線
 62
     0
440
 16777216
370
    -2
100
AcDbBlockReference
  2
_OPEN
 10
2226.499994172551
 20
2264.000002350013
 30
0.0
 41
20.0
 42
20.0
 43
20.0
 50
90.0
  0
MTEXT
  5
14A04
330
13F4E
100
AcDbEntity
  8
寸法線
 62
     0
440
 16777216
100
AcDbMText
 10
2205.24753354263
 20
2270.000002350012
 30
0.0
 40
25.0
 41
0.0
 46
0.0
 71
     5
 72
     1
  1
\A1;12
 11
0.0000000000000001
 21
1.0
 31
0.0
 73
     1
 44
1.0
  0
POINT
  5
14A05
330
13F4E
100
AcDbEntity
  8
Defpoints
 62
     0
440
 16777216
100
AcDbPoint
 10
2306.499994172537
 20
2276.000002350013
 30
0.0
  0
POINT
  5
14A06
330
13F4E
100
AcDbEntity
  8
Defpoints
 62
     0
440
 16777216
100
AcDbPoint
 10
2306.499994172537
 20
2264.000002350013
 30
0.0
  0
POINT
  5
14A07
330
13F4E
100
AcDbEntity
  8
Defpoints
 62
     0
440
 16777216
100
AcDbPoint
 10
2226.499994172551
 20
2264.000002350013
 30
0.0
  0
ENDBLK
  5
13F50
330
13F4E
100
AcDbEntity
  8
0
100
AcDbBlockEnd
  0
BLOCK
  5
13F5D
330
13F5C
100
AcDbEntity
  8
0
100
AcDbBlockBegin
  2
*D4
 70
     1
 10
0.0
 20
0.0
 30
0.0
  3
*D4
  1

  0
LINE
  5
149E2
330
13F5C
100
AcDbEntity
  8
寸法線
 62
     0
440
 16777216
370
    -2
100
AcDbLine
 10
3342.499963982916
 20
2086.249942967219
 30
0.0
 11
3342.499963982916
 21
1964.999942967219
 31
0.0
  0
LINE
  5
149E3
330
13F5C
100
AcDbEntity
  8
寸法線
 62
     0
440
 16777216
370
    -2
100
AcDbLine
 10
2992.499963982914
 20
2086.249942967219
 30
0.0
 11
2992.499963982914
 21
1964.999942967219
 31
0.0
  0
LINE
  5
149E4
330
13F5C
100
AcDbEntity
  8
寸法線
 62
     0
440
 16777216
370
    -2
100
AcDbLine
 10
3322.499963982917
 20
1974.999942967219
 30
0.0
 11
3012.499963982914
 21
1974.999942967219
 31
0.0
  0
INSERT
  5
149E5
330
13F5C
100
AcDbEntity
  8
寸法線
 62
     0
440
 16777216
370
    -2
100
AcDbBlockReference
  2
_OPEN
 10
3342.499963982916
 20
1974.999942967219
 30
0.0
 41
20.0
 42
20.0
 43
20.0
  0
INSERT
  5
149E6
330
13F5C
100
AcDbEntity
  8
寸法線
 62
     0
440
 16777216
370
    -2
100
AcDbBlockReference
  2
_OPEN
 10
2992.499963982914
 20
1974.999942967219
 30
0.0
 41
20.0
 42
20.0
 43
20.0
 50
180.0
  0
MTEXT
  5
149E7
330
13F5C
100
AcDbEntity
  8
寸法線
 62
     0
440
 16777216
100
AcDbMText
 10
3167.499963982916
 20
1996.249942967219
 30
0.0
 40
25.0
 41
0.0
 46
0.0
 71
     5
 72
     1
  1
\A1;350
 73
     1
 44
1.0
  0
POINT
  5
149E8
330
13F5C
100
AcDbEntity
  8
Defpoints
 62
     0
440
 16777216
100
AcDbPoint
 10
3342.499963982916
 20
2094.999942967219
 30
0.0
  0
POINT
  5
149E9
330
13F5C
100
AcDbEntity
  8
Defpoints
 62
     0
440
 16777216
100
AcDbPoint
 10
2992.499963982914
 20
2094.999942967219
 30
0.0
  0
POINT
  5
149EA
330
13F5C
100
AcDbEntity
  8
Defpoints
 62
     0
440
 16777216
100
AcDbPoint
 10
2992.499963982914
 20
1974.999942967219
 30
0.0
  0
ENDBLK
  5
13F5E
330
13F5C
100
AcDbEntity
  8
0
100
AcDbBlockEnd
  0
BLOCK
  5
13F69
330
13F68
100
AcDbEntity
  8
0
100
AcDbBlockBegin
  2
*D5
 70
     1
 10
0.0
 20
0.0
 30
0.0
  3
*D5
  1

  0
LINE
  5
149EB
330
13F68
100
AcDbEntity
  8
寸法線
 62
     0
440
 16777216
370
    -2
100
AcDbLine
 10
2983.749963982915
 20
2444.999982593437
 30
0.0
 11
2862.499963982914
 21
2444.999982593437
 31
0.0
  0
LINE
  5
149EC
330
13F68
100
AcDbEntity
  8
寸法線
 62
     0
440
 16777216
370
    -2
100
AcDbLine
 10
2983.749963982915
 20
2094.999982593437
 30
0.0
 11
2862.499963982914
 21
2094.999982593437
 31
0.0
  0
LINE
  5
149ED
330
13F68
100
AcDbEntity
  8
寸法線
 62
     0
440
 16777216
370
    -2
100
AcDbLine
 10
2872.499963982914
 20
2424.999982593437
 30
0.0
 11
2872.499963982914
 21
2114.999982593437
 31
0.0
  0
INSERT
  5
149EE
330
13F68
100
AcDbEntity
  8
寸法線
 62
     0
440
 16777216
370
    -2
100
AcDbBlockReference
  2
_OPEN
 10
2872.499963982914
 20
2444.999982593437
 30
0.0
 41
20.0
 42
20.0
 43
20.0
 50
90.0
  0
INSERT
  5
149EF
330
13F68
100
AcDbEntity
  8
寸法線
 62
     0
440
 16777216
370
    -2
100
AcDbBlockReference
  2
_OPEN
 10
2872.499963982914
 20
2094.999982593437
 30
0.0
 41
20.0
 42
20.0
 43
20.0
 50
270.0
  0
MTEXT
  5
149F0
330
13F68
100
AcDbEntity
  8
寸法線
 62
     0
440
 16777216
100
AcDbMText
 10
2851.249963982914
 20
2269.999962780327
 30
0.0
 40
25.0
 41
0.0
 46
0.0
 71
     5
 72
     1
  1
\A1;350
 11
0.0000000000000001
 21
1.0
 31
0.0
 73
     1
 44
1.0
  0
POINT
  5
149F1
330
13F68
100
AcDbEntity
  8
Defpoints
 62
     0
440
 16777216
100
AcDbPoint
 10
2992.499963982915
 20
2444.999982593437
 30
0.0
  0
POINT
  5
149F2
330
13F68
100
AcDbEntity
  8
Defpoints
 62
     0
440
 16777216
100
AcDbPoint
 10
2992.499963982915
 20
2094.999982593437
 30
0.0
  0
POINT
  5
149F3
330
13F68
100
AcDbEntity
  8
Defpoints
 62
     0
440
 16777216
100
AcDbPoint
 10
2872.499963982914
 20
2094.999982593437
 30
0.0
  0
ENDBLK
  5
13F6A
330
13F68
100
AcDbEntity
  8
0
100
AcDbBlockEnd
  0
BLOCK
  5
13F75
330
13F74
100
AcDbEntity
  8
0
100
AcDbBlockBegin
  2
*D6
 70
     1
 10
0.0
 20
0.0
 30
0.0
  3
*D6
  1

  0
LINE
  5
149F4
330
13F74
100
AcDbEntity
  8
寸法線
 62
     0
440
 16777216
370
    -2
100
AcDbLine
 10
2511.250013985632
 20
2438.000051998484
 30
0.0
 11
2632.50003379874
 21
2438.000051998484
 31
0.0
  0
LINE
  5
149F5
330
13F74
100
AcDbEntity
  8
寸法線
 62
     0
440
 16777216
370
    -2
100
AcDbLine
 10
2511.250013985632
 20
2101.999977559131
 30
0.0
 11
2632.50003379874
 21
2101.999977559131
 31
0.0
  0
LINE
  5
149F6
330
13F74
100
AcDbEntity
  8
寸法線
 62
     0
440
 16777216
370
    -2
100
AcDbLine
 10
2622.50003379874
 20
2418.000051998484
 30
0.0
 11
2622.50003379874
 21
2121.999977559131
 31
0.0
  0
INSERT
  5
149F7
330
13F74
100
AcDbEntity
  8
寸法線
 62
     0
440
 16777216
370
    -2
100
AcDbBlockReference
  2
_OPEN
 10
2622.50003379874
 20
2438.000051998484
 30
0.0
 41
20.0
 42
20.0
 43
20.0
 50
90.0
  0
INSERT
  5
149F8
330
13F74
100
AcDbEntity
  8
寸法線
 62
     0
440
 16777216
370
    -2
100
AcDbBlockReference
  2
_OPEN
 10
2622.50003379874
 20
2101.999977559131
 30
0.0
 41
20.0
 42
20.0
 43
20.0
 50
270.0
  0
MTEXT
  5
149F9
330
13F74
100
AcDbEntity
  8
寸法線
 62
     0
440
 16777216
100
AcDbMText
 10
2601.25003379874
 20
2270.000014778806
 30
0.0
 40
25.0
 41
0.0
 46
0.0
 71
     5
 72
     1
  1
\A1;336
 11
0.0000000000000001
 21
1.0
 31
0.0
 73
     1
 44
1.0
  0
POINT
  5
149FA
330
13F74
100
AcDbEntity
  8
Defpoints
 62
     0
440
 16777216
100
AcDbPoint
 10
2502.500013985632
 20
2438.000051998484
 30
0.0
  0
POINT
  5
149FB
330
13F74
100
AcDbEntity
  8
Defpoints
 62
     0
440
 16777216
100
AcDbPoint
 10
2502.500013985632
 20
2101.999977559131
 30
0.0
  0
POINT
  5
149FC
330
13F74
100
AcDbEntity
  8
Defpoints
 62
     0
440
 16777216
100
AcDbPoint
 10
2622.50003379874
 20
2101.999977559131
 30
0.0
  0
ENDBLK
  5
13F76
330
13F74
100
AcDbEntity
  8
0
100
AcDbBlockEnd
  0
BLOCK
  5
13F81
330
13F80
100
AcDbEntity
  8
0
100
AcDbBlockBegin
  2
*D7
 70
     1
 10
0.0
 20
0.0
 30
0.0
  3
*D7
  1

  0
LINE
  5
14A29
330
13F80
100
AcDbEntity
  8
寸法線
 62
     0
440
 16777216
370
    -2
100
AcDbLine
 10
1202.499979077721
 20
1476.250073709391
 30
0.0
 11
1202.499979077721
 21
1325.000034786936
 31
0.0
  0
LINE
  5
14A2A
330
13F80
100
AcDbEntity
  8
寸法線
 62
     0
440
 16777216
370
    -2
100
AcDbLine
 10
2002.499979077721
 20
1476.250073709391
 30
0.0
 11
2002.499979077721
 21
1325.000034786936
 31
0.0
  0
LINE
  5
14A2B
330
13F80
100
AcDbEntity
  8
寸法線
 62
     0
440
 16777216
370
    -2
100
AcDbLine
 10
1222.499979077721
 20
1335.000034786936
 30
0.0
 11
1982.499979077721
 21
1335.000034786936
 31
0.0
  0
INSERT
  5
14A2C
330
13F80
100
AcDbEntity
  8
寸法線
 62
     0
440
 16777216
370
    -2
100
AcDbBlockReference
  2
_OPEN
 10
1202.499979077721
 20
1335.000034786936
 30
0.0
 41
20.0
 42
20.0
 43
20.0
 50
180.0
  0
INSERT
  5
14A2D
330
13F80
100
AcDbEntity
  8
寸法線
 62
     0
440
 16777216
370
    -2
100
AcDbBlockReference
  2
_OPEN
 10
2002.499979077721
 20
1335.000034786936
 30
0.0
 41
20.0
 42
20.0
 43
20.0
  0
MTEXT
  5
14A2E
330
13F80
100
AcDbEntity
  8
寸法線
 62
     0
440
 16777216
100
AcDbMText
 10
1602.499979077721
 20
1356.250034786936
 30
0.0
 40
25.0
 41
0.0
 46
0.0
 71
     5
 72
     1
  1
\A1;800
 73
     1
 44
1.0
  0
POINT
  5
14A2F
330
13F80
100
AcDbEntity
  8
Defpoints
 62
     0
440
 16777216
100
AcDbPoint
 10
1202.499979077721
 20
1485.000073709391
 30
0.0
  0
POINT
  5
14A30
330
13F80
100
AcDbEntity
  8
Defpoints
 62
     0
440
 16777216
100
AcDbPoint
 10
2002.499979077721
 20
1485.000073709391
 30
0.0
  0
POINT
  5
14A31
330
13F80
100
AcDbEntity
  8
Defpoints
 62
     0
440
 16777216
100
AcDbPoint
 10
2002.499979077721
 20
1335.000034786936
 30
0.0
  0
ENDBLK
  5
13F82
330
13F80
100
AcDbEntity
  8
0
100
AcDbBlockEnd
  0
BLOCK
  5
13F8D
330
13F8C
100
AcDbEntity
  8
0
100
AcDbBlockBegin
  2
*D8
 70
     1
 10
0.0
 20
0.0
 30
0.0
  3
*D8
  1

  0
LINE
  5
14A32
330
13F8C
100
AcDbEntity
  8
寸法線
 62
     0
440
 16777216
370
    -2
100
AcDbLine
 10
702.4999441698054
 20
1486.250034786936
 30
0.0
 11
702.4999441698054
 21
1325.000034786936
 31
0.0
  0
LINE
  5
14A33
330
13F8C
100
AcDbEntity
  8
寸法線
 62
     0
440
 16777216
370
    -2
100
AcDbLine
 10
1202.499979077721
 20
1476.250073709391
 30
0.0
 11
1202.499979077721
 21
1325.000034786936
 31
0.0
  0
LINE
  5
14A34
330
13F8C
100
AcDbEntity
  8
寸法線
 62
     0
440
 16777216
370
    -2
100
AcDbLine
 10
722.4999441698054
 20
1335.000034786936
 30
0.0
 11
1182.499979077721
 21
1335.000034786936
 31
0.0
  0
INSERT
  5
14A35
330
13F8C
100
AcDbEntity
  8
寸法線
 62
     0
440
 16777216
370
    -2
100
AcDbBlockReference
  2
_OPEN
 10
702.4999441698054
 20
1335.000034786936
 30
0.0
 41
20.0
 42
20.0
 43
20.0
 50
180.0
  0
INSERT
  5
14A36
330
13F8C
100
AcDbEntity
  8
寸法線
 62
     0
440
 16777216
370
    -2
100
AcDbBlockReference
  2
_OPEN
 10
1202.499979077721
 20
1335.000034786936
 30
0.0
 41
20.0
 42
20.0
 43
20.0
  0
MTEXT
  5
14A37
330
13F8C
100
AcDbEntity
  8
寸法線
 62
     0
440
 16777216
100
AcDbMText
 10
952.4999616237632
 20
1356.250034786936
 30
0.0
 40
25.0
 41
0.0
 46
0.0
 71
     5
 72
     1
  1
\A1;500
 73
     1
 44
1.0
  0
POINT
  5
14A38
330
13F8C
100
AcDbEntity
  8
Defpoints
 62
     0
440
 16777216
100
AcDbPoint
 10
702.4999441698054
 20
1495.000034786936
 30
0.0
  0
POINT
  5
14A39
330
13F8C
100
AcDbEntity
  8
Defpoints
 62
     0
440
 16777216
100
AcDbPoint
 10
1202.499979077721
 20
1485.000073709391
 30
0.0
  0
POINT
  5
14A3A
330
13F8C
100
AcDbEntity
  8
Defpoints
 62
     0
440
 16777216
100
AcDbPoint
 10
1202.499979077721
 20
1335.000034786936
 30
0.0
  0
ENDBLK
  5
13F8E
330
13F8C
100
AcDbEntity
  8
0
100
AcDbBlockEnd
  0
BLOCK
  5
13F99
330
13F98
100
AcDbEntity
  8
0
100
AcDbBlockBegin
  2
*D9
 70
     1
 10
0.0
 20
0.0
 30
0.0
  3
*D9
  1

  0
LINE
  5
14A3B
330
13F98
100
AcDbEntity
  8
寸法線
 62
     0
440
 16777216
370
    -2
100
AcDbLine
 10
693.7499441698056
 20
1845.00007200661
 30
0.0
 11
572.4999441698058
 21
1845.00007200661
 31
0.0
  0
LINE
  5
14A3C
330
13F98
100
AcDbEntity
  8
寸法線
 62
     0
440
 16777216
370
    -2
100
AcDbLine
 10
693.7499441698056
 20
1495.000034786937
 30
0.0
 11
572.4999441698059
 21
1495.000034786937
 31
0.0
  0
LINE
  5
14A3D
330
13F98
100
AcDbEntity
  8
寸法線
 62
     0
440
 16777216
370
    -2
100
AcDbLine
 10
582.4999441698058
 20
1825.00007200661
 30
0.0
 11
582.499944169806
 21
1515.000034786937
 31
0.0
  0
INSERT
  5
14A3E
330
13F98
100
AcDbEntity
  8
寸法線
 62
     0
440
 16777216
370
    -2
100
AcDbBlockReference
  2
_OPEN
 10
582.4999441698058
 20
1845.00007200661
 30
0.0
 41
20.0
 42
20.0
 43
20.0
 50
90.0
  0
INSERT
  5
14A3F
330
13F98
100
AcDbEntity
  8
寸法線
 62
     0
440
 16777216
370
    -2
100
AcDbBlockReference
  2
_OPEN
 10
582.499944169806
 20
1495.000034786937
 30
0.0
 41
20.0
 42
20.0
 43
20.0
 50
270.0
  0
MTEXT
  5
14A40
330
13F98
100
AcDbEntity
  8
寸法線
 62
     0
440
 16777216
100
AcDbMText
 10
561.2499441698063
 20
1670.000034786936
 30
0.0
 40
25.0
 41
0.0
 46
0.0
 71
     5
 72
     1
  1
\A1;350
 11
0.0000000000000001
 21
1.0
 31
0.0
 73
     1
 44
1.0
  0
POINT
  5
14A41
330
13F98
100
AcDbEntity
  8
Defpoints
 62
     0
440
 16777216
100
AcDbPoint
 10
702.4999441698057
 20
1845.00007200661
 30
0.0
  0
POINT
  5
14A42
330
13F98
100
AcDbEntity
  8
Defpoints
 62
     0
440
 16777216
100
AcDbPoint
 10
702.4999441698057
 20
1495.000034786937
 30
0.0
  0
POINT
  5
14A43
330
13F98
100
AcDbEntity
  8
Defpoints
 62
     0
440
 16777216
100
AcDbPoint
 10
582.499944169806
 20
1495.000034786937
 30
0.0
  0
ENDBLK
  5
13F9A
330
13F98
100
AcDbEntity
  8
0
100
AcDbBlockEnd
  0
BLOCK
  5
13FA5
330
13FA4
100
AcDbEntity
  8
0
100
AcDbBlockBegin
  2
*D10
 70
     1
 10
0.0
 20
0.0
 30
0.0
  3
*D10
  1

  0
LINE
  5
14978
330
13FA4
100
AcDbEntity
  8
寸法線
 62
     0
440
 16777216
370
    -2
100
AcDbLine
 10
702.4999441698054
 20
2446.750037219678
 30
0.0
 11
702.4999441698054
 21
2614.999942832917
 31
0.0
  0
LINE
  5
14979
330
13FA4
100
AcDbEntity
  8
寸法線
 62
     0
440
 16777216
370
    -2
100
AcDbLine
 10
718.4999639829158
 20
2453.749999999999
 30
0.0
 11
718.4999639829158
 21
2614.999942832917
 31
0.0
  0
LINE
  5
1497A
330
13FA4
100
AcDbEntity
  8
寸法線
 62
     0
440
 16777216
370
    -2
100
AcDbLine
 10
682.4999441698054
 20
2604.999942832917
 30
0.0
 11
662.4999441698053
 21
2604.999942832917
 31
0.0
  0
LINE
  5
1497B
330
13FA4
100
AcDbEntity
  8
寸法線
 62
     0
440
 16777216
370
    -2
100
AcDbLine
 10
738.4999639829158
 20
2604.999942832917
 30
0.0
 11
758.4999639829158
 21
2604.999942832917
 31
0.0
  0
LINE
  5
1497C
330
13FA4
100
AcDbEntity
  8
寸法線
 62
     0
440
 16777216
370
    -2
100
AcDbLine
 10
702.4999441698054
 20
2604.999942832917
 30
0.0
 11
718.4999639829158
 21
2604.999942832917
 31
0.0
  0
INSERT
  5
1497D
330
13FA4
100
AcDbEntity
  8
寸法線
 62
     0
440
 16777216
370
    -2
100
AcDbBlockReference
  2
_OPEN
 10
702.4999441698054
 20
2604.999942832917
 30
0.0
 41
20.0
 42
20.0
 43
20.0
  0
INSERT
  5
1497E
330
13FA4
100
AcDbEntity
  8
寸法線
 62
     0
440
 16777216
370
    -2
100
AcDbBlockReference
  2
_OPEN
 10
718.4999639829158
 20
2604.999942832917
 30
0.0
 41
20.0
 42
20.0
 43
20.0
 50
180.0
  0
MTEXT
  5
1497F
330
13FA4
100
AcDbEntity
  8
寸法線
 62
     0
440
 16777216
100
AcDbMText
 10
710.4999540763606
 20
2626.249942832917
 30
0.0
 40
25.0
 41
0.0
 46
0.0
 71
     5
 72
     1
  1
\A1;16
 73
     1
 44
1.0
  0
POINT
  5
14980
330
13FA4
100
AcDbEntity
  8
Defpoints
 62
     0
440
 16777216
100
AcDbPoint
 10
702.4999441698054
 20
2438.000037219678
 30
0.0
  0
POINT
  5
14981
330
13FA4
100
AcDbEntity
  8
Defpoints
 62
     0
440
 16777216
100
AcDbPoint
 10
718.4999639829158
 20
2444.999999999999
 30
0.0
  0
POINT
  5
14982
330
13FA4
100
AcDbEntity
  8
Defpoints
 62
     0
440
 16777216
100
AcDbPoint
 10
718.4999639829158
 20
2604.999942832917
 30
0.0
  0
ENDBLK
  5
13FA6
330
13FA4
100
AcDbEntity
  8
0
100
AcDbBlockEnd
  0
BLOCK
  5
13FB3
330
13FB2
100
AcDbEntity
  8
0
100
AcDbBlockBegin
  2
*D11
 70
     1
 10
0.0
 20
0.0
 30
0.0
  3
*D11
  1

  0
LINE
  5
14983
330
13FB2
100
AcDbEntity
  8
寸法線
 62
     0
440
 16777216
370
    -2
100
AcDbLine
 10
718.4999639829158
 20
2453.749999999999
 30
0.0
 11
718.4999639829158
 21
2614.999942832917
 31
0.0
  0
LINE
  5
14984
330
13FB2
100
AcDbEntity
  8
寸法線
 62
     0
440
 16777216
370
    -2
100
AcDbLine
 10
1202.499979077721
 20
2463.750057167085
 30
0.0
 11
1202.499979077721
 21
2614.999942832917
 31
0.0
  0
LINE
  5
14985
330
13FB2
100
AcDbEntity
  8
寸法線
 62
     0
440
 16777216
370
    -2
100
AcDbLine
 10
738.4999639829158
 20
2604.999942832917
 30
0.0
 11
1182.499979077721
 21
2604.999942832917
 31
0.0
  0
INSERT
  5
14986
330
13FB2
100
AcDbEntity
  8
寸法線
 62
     0
440
 16777216
370
    -2
100
AcDbBlockReference
  2
_OPEN
 10
718.4999639829158
 20
2604.999942832917
 30
0.0
 41
20.0
 42
20.0
 43
20.0
 50
180.0
  0
INSERT
  5
14987
330
13FB2
100
AcDbEntity
  8
寸法線
 62
     0
440
 16777216
370
    -2
100
AcDbBlockReference
  2
_OPEN
 10
1202.499979077721
 20
2604.999942832917
 30
0.0
 41
20.0
 42
20.0
 43
20.0
  0
MTEXT
  5
14988
330
13FB2
100
AcDbEntity
  8
寸法線
 62
     0
440
 16777216
100
AcDbMText
 10
960.499971530301
 20
2626.249942832917
 30
0.0
 40
25.0
 41
0.0
 46
0.0
 71
     5
 72
     1
  1
\A1;484
 73
     1
 44
1.0
  0
POINT
  5
14989
330
13FB2
100
AcDbEntity
  8
Defpoints
 62
     0
440
 16777216
100
AcDbPoint
 10
718.4999639829158
 20
2444.999999999999
 30
0.0
  0
POINT
  5
1498A
330
13FB2
100
AcDbEntity
  8
Defpoints
 62
     0
440
 16777216
100
AcDbPoint
 10
1202.499979077721
 20
2455.000057167085
 30
0.0
  0
POINT
  5
1498B
330
13FB2
100
AcDbEntity
  8
Defpoints
 62
     0
440
 16777216
100
AcDbPoint
 10
1202.499979077721
 20
2604.999942832917
 30
0.0
  0
ENDBLK
  5
13FB4
330
13FB2
100
AcDbEntity
  8
0
100
AcDbBlockEnd
  0
BLOCK
  5
13FBF
330
13FBE
100
AcDbEntity
  8
0
100
AcDbBlockBegin
  2
*D12
 70
     1
 10
0.0
 20
0.0
 30
0.0
  3
*D12
  1

  0
LINE
  5
1498C
330
13FBE
100
AcDbEntity
  8
寸法線
 62
     0
440
 16777216
370
    -2
100
AcDbLine
 10
709.749963982916
 20
2445.0
 30
0.0
 11
572.4999441698058
 21
2445.0
 31
0.0
  0
LINE
  5
1498D
330
13FBE
100
AcDbEntity
  8
寸法線
 62
     0
440
 16777216
370
    -2
100
AcDbLine
 10
709.7499441698056
 20
2094.999991728965
 30
0.0
 11
572.4999441698058
 21
2094.999991728965
 31
0.0
  0
LINE
  5
1498E
330
13FBE
100
AcDbEntity
  8
寸法線
 62
     0
440
 16777216
370
    -2
100
AcDbLine
 10
582.4999441698057
 20
2425.0
 30
0.0
 11
582.4999441698058
 21
2114.999991728965
 31
0.0
  0
INSERT
  5
1498F
330
13FBE
100
AcDbEntity
  8
寸法線
 62
     0
440
 16777216
370
    -2
100
AcDbBlockReference
  2
_OPEN
 10
582.4999441698057
 20
2445.0
 30
0.0
 41
20.0
 42
20.0
 43
20.0
 50
90.0
  0
INSERT
  5
14990
330
13FBE
100
AcDbEntity
  8
寸法線
 62
     0
440
 16777216
370
    -2
100
AcDbBlockReference
  2
_OPEN
 10
582.4999441698058
 20
2094.999991728965
 30
0.0
 41
20.0
 42
20.0
 43
20.0
 50
270.0
  0
MTEXT
  5
14991
330
13FBE
100
AcDbEntity
  8
寸法線
 62
     0
440
 16777216
100
AcDbMText
 10
561.2499441698063
 20
2269.999999999999
 30
0.0
 40
25.0
 41
0.0
 46
0.0
 71
     5
 72
     1
  1
\A1;350
 11
0.0000000000000001
 21
1.0
 31
0.0
 73
     1
 44
1.0
  0
POINT
  5
14992
330
13FBE
100
AcDbEntity
  8
Defpoints
 62
     0
440
 16777216
100
AcDbPoint
 10
718.499963982916
 20
2445.0
 30
0.0
  0
POINT
  5
14993
330
13FBE
100
AcDbEntity
  8
Defpoints
 62
     0
440
 16777216
100
AcDbPoint
 10
718.4999441698056
 20
2094.999991728965
 30
0.0
  0
POINT
  5
14994
330
13FBE
100
AcDbEntity
  8
Defpoints
 62
     0
440
 16777216
100
AcDbPoint
 10
582.4999441698058
 20
2094.999991728965
 30
0.0
  0
ENDBLK
  5
13FC0
330
13FBE
100
AcDbEntity
  8
0
100
AcDbBlockEnd
  0
BLOCK
  5
13FCB
330
13FCA
100
AcDbEntity
  8
0
100
AcDbBlockBegin
  2
*D13
 70
     1
 10
0.0
 20
0.0
 30
0.0
  3
*D13
  1

  0
LINE
  5
14995
330
13FCA
100
AcDbEntity
  8
寸法線
 62
     0
440
 16777216
370
    -2
100
AcDbLine
 10
2502.499944169807
 20
2446.750037219678
 30
0.0
 11
2502.499944169807
 21
2614.999942832917
 31
0.0
  0
LINE
  5
14996
330
13FCA
100
AcDbEntity
  8
寸法線
 62
     0
440
 16777216
370
    -2
100
AcDbLine
 10
2486.499924356698
 20
2453.749999999999
 30
0.0
 11
2486.499924356698
 21
2614.999942832917
 31
0.0
  0
LINE
  5
14997
330
13FCA
100
AcDbEntity
  8
寸法線
 62
     0
440
 16777216
370
    -2
100
AcDbLine
 10
2522.499944169807
 20
2604.999942832917
 30
0.0
 11
2542.499944169807
 21
2604.999942832917
 31
0.0
  0
LINE
  5
14998
330
13FCA
100
AcDbEntity
  8
寸法線
 62
     0
440
 16777216
370
    -2
100
AcDbLine
 10
2466.499924356698
 20
2604.999942832917
 30
0.0
 11
2446.499924356698
 21
2604.999942832917
 31
0.0
  0
LINE
  5
14999
330
13FCA
100
AcDbEntity
  8
寸法線
 62
     0
440
 16777216
370
    -2
100
AcDbLine
 10
2502.499944169807
 20
2604.999942832917
 30
0.0
 11
2486.499924356698
 21
2604.999942832917
 31
0.0
  0
INSERT
  5
1499A
330
13FCA
100
AcDbEntity
  8
寸法線
 62
     0
440
 16777216
370
    -2
100
AcDbBlockReference
  2
_OPEN
 10
2502.499944169807
 20
2604.999942832917
 30
0.0
 41
20.0
 42
20.0
 43
20.0
 50
180.0
  0
INSERT
  5
1499B
330
13FCA
100
AcDbEntity
  8
寸法線
 62
     0
440
 16777216
370
    -2
100
AcDbBlockReference
  2
_OPEN
 10
2486.499924356698
 20
2604.999942832917
 30
0.0
 41
20.0
 42
20.0
 43
20.0
  0
MTEXT
  5
1499C
330
13FCA
100
AcDbEntity
  8
寸法線
 62
     0
440
 16777216
100
AcDbMText
 10
2494.499934263253
 20
2626.249942832917
 30
0.0
 40
25.0
 41
0.0
 46
0.0
 71
     5
 72
     1
  1
\A1;16
 73
     1
 44
1.0
  0
POINT
  5
1499D
330
13FCA
100
AcDbEntity
  8
Defpoints
 62
     0
440
 16777216
100
AcDbPoint
 10
2502.499944169807
 20
2438.000037219678
 30
0.0
  0
POINT
  5
1499E
330
13FCA
100
AcDbEntity
  8
Defpoints
 62
     0
440
 16777216
100
AcDbPoint
 10
2486.499924356698
 20
2444.999999999999
 30
0.0
  0
POINT
  5
1499F
330
13FCA
100
AcDbEntity
  8
Defpoints
 62
     0
440
 16777216
100
AcDbPoint
 10
2486.499924356698
 20
2604.999942832917
 30
0.0
  0
ENDBLK
  5
13FCC
330
13FCA
100
AcDbEntity
  8
0
100
AcDbBlockEnd
  0
BLOCK
  5
13FD9
330
13FD8
100
AcDbEntity
  8
0
100
AcDbBlockBegin
  2
*D14
 70
     1
 10
0.0
 20
0.0
 30
0.0
  3
*D14
  1

  0
LINE
  5
149A0
330
13FD8
100
AcDbEntity
  8
寸法線
 62
     0
440
 16777216
370
    -2
100
AcDbLine
 10
2486.499924356698
 20
2453.749999999999
 30
0.0
 11
2486.499924356698
 21
2614.999942832917
 31
0.0
  0
LINE
  5
149A1
330
13FD8
100
AcDbEntity
  8
寸法線
 62
     0
440
 16777216
370
    -2
100
AcDbLine
 10
2002.499909261894
 20
2463.750057167085
 30
0.0
 11
2002.499909261894
 21
2614.999942832917
 31
0.0
  0
LINE
  5
149A2
330
13FD8
100
AcDbEntity
  8
寸法線
 62
     0
440
 16777216
370
    -2
100
AcDbLine
 10
2466.499924356698
 20
2604.999942832917
 30
0.0
 11
2022.499909261894
 21
2604.999942832917
 31
0.0
  0
INSERT
  5
149A3
330
13FD8
100
AcDbEntity
  8
寸法線
 62
     0
440
 16777216
370
    -2
100
AcDbBlockReference
  2
_OPEN
 10
2486.499924356698
 20
2604.999942832917
 30
0.0
 41
20.0
 42
20.0
 43
20.0
  0
INSERT
  5
149A4
330
13FD8
100
AcDbEntity
  8
寸法線
 62
     0
440
 16777216
370
    -2
100
AcDbBlockReference
  2
_OPEN
 10
2002.499909261894
 20
2604.999942832917
 30
0.0
 41
20.0
 42
20.0
 43
20.0
 50
180.0
  0
MTEXT
  5
149A5
330
13FD8
100
AcDbEntity
  8
寸法線
 62
     0
440
 16777216
100
AcDbMText
 10
2244.499916809296
 20
2626.249942832917
 30
0.0
 40
25.0
 41
0.0
 46
0.0
 71
     5
 72
     1
  1
\A1;484
 73
     1
 44
1.0
  0
POINT
  5
149A6
330
13FD8
100
AcDbEntity
  8
Defpoints
 62
     0
440
 16777216
100
AcDbPoint
 10
2486.499924356698
 20
2444.999999999999
 30
0.0
  0
POINT
  5
149A7
330
13FD8
100
AcDbEntity
  8
Defpoints
 62
     0
440
 16777216
100
AcDbPoint
 10
2002.499909261894
 20
2455.000057167085
 30
0.0
  0
POINT
  5
149A8
330
13FD8
100
AcDbEntity
  8
Defpoints
 62
     0
440
 16777216
100
AcDbPoint
 10
2002.499909261894
 20
2604.999942832917
 30
0.0
  0
ENDBLK
  5
13FDA
330
13FD8
100
AcDbEntity
  8
0
100
AcDbBlockEnd
  0
BLOCK
  5
13FE5
330
13FE4
100
AcDbEntity
  8
0
100
AcDbBlockBegin
  2
*D15
 70
     1
 10
0.0
 20
0.0
 30
0.0
  3
*D15
  1

  0
LINE
  5
149A9
330
13FE4
100
AcDbEntity
  8
寸法線
 62
     0
440
 16777216
370
    -2
100
AcDbLine
 10
702.4999441698054
 20
2446.750037219678
 30
0.0
 11
702.4999441698054
 21
2694.999942832917
 31
0.0
  0
LINE
  5
149AA
330
13FE4
100
AcDbEntity
  8
寸法線
 62
     0
440
 16777216
370
    -2
100
AcDbLine
 10
1202.499979077721
 20
2463.750057167085
 30
0.0
 11
1202.499979077721
 21
2694.999942832917
 31
0.0
  0
LINE
  5
149AB
330
13FE4
100
AcDbEntity
  8
寸法線
 62
     0
440
 16777216
370
    -2
100
AcDbLine
 10
722.4999441698054
 20
2684.999942832917
 30
0.0
 11
1182.499979077721
 21
2684.999942832917
 31
0.0
  0
INSERT
  5
149AC
330
13FE4
100
AcDbEntity
  8
寸法線
 62
     0
440
 16777216
370
    -2
100
AcDbBlockReference
  2
_OPEN
 10
702.4999441698054
 20
2684.999942832917
 30
0.0
 41
20.0
 42
20.0
 43
20.0
 50
180.0
  0
INSERT
  5
149AD
330
13FE4
100
AcDbEntity
  8
寸法線
 62
     0
440
 16777216
370
    -2
100
AcDbBlockReference
  2
_OPEN
 10
1202.499979077721
 20
2684.999942832917
 30
0.0
 41
20.0
 42
20.0
 43
20.0
  0
MTEXT
  5
149AE
330
13FE4
100
AcDbEntity
  8
寸法線
 62
     0
440
 16777216
100
AcDbMText
 10
952.4999616237629
 20
2706.249942832917
 30
0.0
 40
25.0
 41
0.0
 46
0.0
 71
     5
 72
     1
  1
\A1;500
 73
     1
 44
1.0
  0
MTEXT
  5
149AF
330
13FE4
100
AcDbEntity
  8
寸法線
 62
     0
440
 16777216
100
AcDbMText
 10
952.4999616237629
 20
2663.749942832917
 30
0.0
 40
25.0
 41
0.0
 46
0.0
 71
     5
 72
     1
  1
\A1;H型鋼（連結部）
 73
     1
 44
1.0
  0
POINT
  5
149B0
330
13FE4
100
AcDbEntity
  8
Defpoints
 62
     0
440
 16777216
100
AcDbPoint
 10
702.4999441698054
 20
2438.000037219678
 30
0.0
  0
POINT
  5
149B1
330
13FE4
100
AcDbEntity
  8
Defpoints
 62
     0
440
 16777216
100
AcDbPoint
 10
1202.499979077721
 20
2455.000057167085
 30
0.0
  0
POINT
  5
149B2
330
13FE4
100
AcDbEntity
  8
Defpoints
 62
     0
440
 16777216
100
AcDbPoint
 10
1202.499979077721
 20
2684.999942832917
 30
0.0
  0
ENDBLK
  5
13FE6
330
13FE4
100
AcDbEntity
  8
0
100
AcDbBlockEnd
  0
BLOCK
  5
13FF2
330
13FF1
100
AcDbEntity
  8
0
100
AcDbBlockBegin
  2
*D16
 70
     1
 10
0.0
 20
0.0
 30
0.0
  3
*D16
  1

  0
LINE
  5
149B3
330
13FF1
100
AcDbEntity
  8
寸法線
 62
     0
440
 16777216
370
    -2
100
AcDbLine
 10
2002.499909261894
 20
2463.750057167085
 30
0.0
 11
2002.499909261894
 21
2694.999942832917
 31
0.0
  0
LINE
  5
149B4
330
13FF1
100
AcDbEntity
  8
寸法線
 62
     0
440
 16777216
370
    -2
100
AcDbLine
 10
2502.499944169807
 20
2446.750037219678
 30
0.0
 11
2502.499944169807
 21
2694.999942832917
 31
0.0
  0
LINE
  5
149B5
330
13FF1
100
AcDbEntity
  8
寸法線
 62
     0
440
 16777216
370
    -2
100
AcDbLine
 10
2022.499909261894
 20
2684.999942832917
 30
0.0
 11
2482.499944169808
 21
2684.999942832917
 31
0.0
  0
INSERT
  5
149B6
330
13FF1
100
AcDbEntity
  8
寸法線
 62
     0
440
 16777216
370
    -2
100
AcDbBlockReference
  2
_OPEN
 10
2002.499909261894
 20
2684.999942832917
 30
0.0
 41
20.0
 42
20.0
 43
20.0
 50
180.0
  0
INSERT
  5
149B7
330
13FF1
100
AcDbEntity
  8
寸法線
 62
     0
440
 16777216
370
    -2
100
AcDbBlockReference
  2
_OPEN
 10
2502.499944169807
 20
2684.999942832917
 30
0.0
 41
20.0
 42
20.0
 43
20.0
  0
MTEXT
  5
149B8
330
13FF1
100
AcDbEntity
  8
寸法線
 62
     0
440
 16777216
100
AcDbMText
 10
2252.499926715851
 20
2706.249942832917
 30
0.0
 40
25.0
 41
0.0
 46
0.0
 71
     5
 72
     1
  1
\A1;500
 73
     1
 44
1.0
  0
MTEXT
  5
149B9
330
13FF1
100
AcDbEntity
  8
寸法線
 62
     0
440
 16777216
100
AcDbMText
 10
2252.499926715851
 20
2663.749942832917
 30
0.0
 40
25.0
 41
0.0
 46
0.0
 71
     5
 72
     1
  1
\A1;H型鋼（連結部）
 73
     1
 44
1.0
  0
POINT
  5
149BA
330
13FF1
100
AcDbEntity
  8
Defpoints
 62
     0
440
 16777216
100
AcDbPoint
 10
2002.499909261894
 20
2455.000057167085
 30
0.0
  0
POINT
  5
149BB
330
13FF1
100
AcDbEntity
  8
Defpoints
 62
     0
440
 16777216
100
AcDbPoint
 10
2502.499944169807
 20
2438.000037219678
 30
0.0
  0
POINT
  5
149BC
330
13FF1
100
AcDbEntity
  8
Defpoints
 62
     0
440
 16777216
100
AcDbPoint
 10
2502.499944169807
 20
2684.999942832917
 30
0.0
  0
ENDBLK
  5
13FF3
330
13FF1
100
AcDbEntity
  8
0
100
AcDbBlockEnd
  0
BLOCK
  5
13FFF
330
13FFE
100
AcDbEntity
  8
0
100
AcDbBlockBegin
  2
*D17
 70
     1
 10
0.0
 20
0.0
 30
0.0
  3
*D17
  1

  0
LINE
  5
149BD
330
13FFE
100
AcDbEntity
  8
寸法線
 62
     0
440
 16777216
370
    -2
100
AcDbLine
 10
2511.249944169808
 20
2438.000037219679
 30
0.0
 11
2632.499963982916
 21
2438.000037219679
 31
0.0
  0
LINE
  5
149BE
330
13FFE
100
AcDbEntity
  8
寸法線
 62
     0
440
 16777216
370
    -2
100
AcDbLine
 10
2511.249944169808
 20
2101.999962780327
 30
0.0
 11
2632.499963982916
 21
2101.999962780327
 31
0.0
  0
LINE
  5
149BF
330
13FFE
100
AcDbEntity
  8
寸法線
 62
     0
440
 16777216
370
    -2
100
AcDbLine
 10
2622.499963982916
 20
2418.000037219679
 30
0.0
 11
2622.499963982916
 21
2121.999962780327
 31
0.0
  0
INSERT
  5
149C0
330
13FFE
100
AcDbEntity
  8
寸法線
 62
     0
440
 16777216
370
    -2
100
AcDbBlockReference
  2
_OPEN
 10
2622.499963982916
 20
2438.000037219679
 30
0.0
 41
20.0
 42
20.0
 43
20.0
 50
90.0
  0
INSERT
  5
149C1
330
13FFE
100
AcDbEntity
  8
寸法線
 62
     0
440
 16777216
370
    -2
100
AcDbBlockReference
  2
_OPEN
 10
2622.499963982916
 20
2101.999962780327
 30
0.0
 41
20.0
 42
20.0
 43
20.0
 50
270.0
  0
MTEXT
  5
149C2
330
13FFE
100
AcDbEntity
  8
寸法線
 62
     0
440
 16777216
100
AcDbMText
 10
2601.249963982916
 20
2269.999999999999
 30
0.0
 40
25.0
 41
0.0
 46
0.0
 71
     5
 72
     1
  1
\A1;336
 11
0.0000000000000001
 21
1.0
 31
0.0
 73
     1
 44
1.0
  0
POINT
  5
149C3
330
13FFE
100
AcDbEntity
  8
Defpoints
 62
     0
440
 16777216
100
AcDbPoint
 10
2502.499944169808
 20
2438.000037219679
 30
0.0
  0
POINT
  5
149C4
330
13FFE
100
AcDbEntity
  8
Defpoints
 62
     0
440
 16777216
100
AcDbPoint
 10
2502.499944169808
 20
2101.999962780327
 30
0.0
  0
POINT
  5
149C5
330
13FFE
100
AcDbEntity
  8
Defpoints
 62
     0
440
 16777216
100
AcDbPoint
 10
2622.499963982916
 20
2101.999962780327
 30
0.0
  0
ENDBLK
  5
14000
330
13FFE
100
AcDbEntity
  8
0
100
AcDbBlockEnd
  0
BLOCK
  5
1400B
330
1400A
100
AcDbEntity
  8
0
100
AcDbBlockBegin
  2
*D18
 70
     1
 10
0.0
 20
0.0
 30
0.0
  3
*D18
  1

  0
LINE
  5
14A44
330
1400A
100
AcDbEntity
  8
寸法線
 62
     0
440
 16777216
370
    -2
100
AcDbLine
 10
2502.49997910137
 20
1486.250003751649
 30
0.0
 11
2502.49997547486
 21
1325.000023541948
 31
0.0
  0
LINE
  5
14A45
330
1400A
100
AcDbEntity
  8
寸法線
 62
     0
440
 16777216
370
    -2
100
AcDbLine
 10
2002.499978880931
 20
1476.250036489718
 30
0.0
 11
2002.49997547932
 21
1325.00003478694
 31
0.0
  0
LINE
  5
14A46
330
1400A
100
AcDbEntity
  8
寸法線
 62
     0
440
 16777216
370
    -2
100
AcDbLine
 10
2482.49997569976
 20
1335.000023991748
 30
0.0
 11
2022.49997570422
 21
1335.000034337141
 31
0.0
  0
INSERT
  5
14A47
330
1400A
100
AcDbEntity
  8
寸法線
 62
     0
440
 16777216
370
    -2
100
AcDbBlockReference
  2
_OPEN
 10
2502.499975699759
 20
1335.000023541948
 30
0.0
 41
20.0
 42
20.0
 43
20.0
 50
359.9999987114188
  0
INSERT
  5
14A48
330
1400A
100
AcDbEntity
  8
寸法線
 62
     0
440
 16777216
370
    -2
100
AcDbBlockReference
  2
_OPEN
 10
2002.49997570422
 20
1335.000034786941
 30
0.0
 41
20.0
 42
20.0
 43
20.0
 50
179.9999987114188
  0
MTEXT
  5
14A49
330
1400A
100
AcDbEntity
  8
寸法線
 62
     0
440
 16777216
100
AcDbMText
 10
2252.499976179902
 20
1356.250029164444
 30
0.0
 40
25.0
 41
0.0
 46
0.0
 71
     5
 72
     1
  1
\A1;500
 11
0.9999999999999998
 21
-0.000000022489985
 31
0.0
 73
     1
 44
1.0
  0
POINT
  5
14A4A
330
1400A
100
AcDbEntity
  8
Defpoints
 62
     0
440
 16777216
100
AcDbPoint
 10
2502.499979298157
 20
1495.000003751649
 30
0.0
  0
POINT
  5
14A4B
330
1400A
100
AcDbEntity
  8
Defpoints
 62
     0
440
 16777216
100
AcDbPoint
 10
2002.499979077718
 20
1485.000036489717
 30
0.0
  0
POINT
  5
14A4C
330
1400A
100
AcDbEntity
  8
Defpoints
 62
     0
440
 16777216
100
AcDbPoint
 10
2002.49997570422
 20
1335.000034786941
 30
0.0
  0
ENDBLK
  5
1400C
330
1400A
100
AcDbEntity
  8
0
100
AcDbBlockEnd
  0
BLOCK
  5
14017
330
14016
100
AcDbEntity
  8
0
100
AcDbBlockBegin
  2
*D19
 70
     1
 10
0.0
 20
0.0
 30
0.0
  3
*D19
  1

  0
LINE
  5
149CF
330
14016
100
AcDbEntity
  8
寸法線
 62
     0
440
 16777216
370
    -2
100
AcDbLine
 10
1202.499979077718
 20
2463.749999999999
 30
0.0
 11
1202.499979077718
 21
2694.999942832917
 31
0.0
  0
LINE
  5
149D0
330
14016
100
AcDbEntity
  8
寸法線
 62
     0
440
 16777216
370
    -2
100
AcDbLine
 10
2002.499979077718
 20
2463.750001702781
 30
0.0
 11
2002.499979077718
 21
2694.999942832917
 31
0.0
  0
LINE
  5
149D1
330
14016
100
AcDbEntity
  8
寸法線
 62
     0
440
 16777216
370
    -2
100
AcDbLine
 10
1222.499979077718
 20
2684.999942832917
 30
0.0
 11
1982.499979077718
 21
2684.999942832917
 31
0.0
  0
INSERT
  5
149D2
330
14016
100
AcDbEntity
  8
寸法線
 62
     0
440
 16777216
370
    -2
100
AcDbBlockReference
  2
_OPEN
 10
1202.499979077718
 20
2684.999942832917
 30
0.0
 41
20.0
 42
20.0
 43
20.0
 50
180.0
  0
INSERT
  5
149D3
330
14016
100
AcDbEntity
  8
寸法線
 62
     0
440
 16777216
370
    -2
100
AcDbBlockReference
  2
_OPEN
 10
2002.499979077718
 20
2684.999942832917
 30
0.0
 41
20.0
 42
20.0
 43
20.0
  0
MTEXT
  5
149D4
330
14016
100
AcDbEntity
  8
寸法線
 62
     0
440
 16777216
100
AcDbMText
 10
1602.499979077718
 20
2706.249942832917
 30
0.0
 40
25.0
 41
0.0
 46
0.0
 71
     5
 72
     1
  1
\A1;W=800
 73
     1
 44
1.0
  0
MTEXT
  5
149D5
330
14016
100
AcDbEntity
  8
寸法線
 62
     0
440
 16777216
100
AcDbMText
 10
1602.499979077718
 20
2663.749942832917
 30
0.0
 40
25.0
 41
0.0
 46
0.0
 71
     5
 72
     1
  1
\A1;空洞金具
 73
     1
 44
1.0
  0
POINT
  5
149D6
330
14016
100
AcDbEntity
  8
Defpoints
 62
     0
440
 16777216
100
AcDbPoint
 10
1202.499979077718
 20
2454.999999999999
 30
0.0
  0
POINT
  5
149D7
330
14016
100
AcDbEntity
  8
Defpoints
 62
     0
440
 16777216
100
AcDbPoint
 10
2002.499979077718
 20
2455.000001702781
 30
0.0
  0
POINT
  5
149D8
330
14016
100
AcDbEntity
  8
Defpoints
 62
     0
440
 16777216
100
AcDbPoint
 10
2002.499979077718
 20
2684.999942832917
 30
0.0
  0
ENDBLK
  5
14018
330
14016
100
AcDbEntity
  8
0
100
AcDbBlockEnd
  0
BLOCK
  5
14024
330
14023
100
AcDbEntity
  8
0
100
AcDbBlockBegin
  2
*D20
 70
     1
 10
0.0
 20
0.0
 30
0.0
  3
*D20
  1

  0
LINE
  5
149D9
330
14023
100
AcDbEntity
  8
寸法線
 62
     0
440
 16777216
370
    -2
100
AcDbLine
 10
702.4999441698054
 20
2446.750037219678
 30
0.0
 11
702.4999441698054
 21
2774.999942832917
 31
0.0
  0
LINE
  5
149DA
330
14023
100
AcDbEntity
  8
寸法線
 62
     0
440
 16777216
370
    -2
100
AcDbLine
 10
2502.499944169807
 20
2446.750037219678
 30
0.0
 11
2502.499944169807
 21
2774.999942832917
 31
0.0
  0
LINE
  5
149DB
330
14023
100
AcDbEntity
  8
寸法線
 62
     0
440
 16777216
370
    -2
100
AcDbLine
 10
722.4999441698054
 20
2764.999942832917
 30
0.0
 11
2482.499944169808
 21
2764.999942832917
 31
0.0
  0
INSERT
  5
149DC
330
14023
100
AcDbEntity
  8
寸法線
 62
     0
440
 16777216
370
    -2
100
AcDbBlockReference
  2
_OPEN
 10
702.4999441698054
 20
2764.999942832917
 30
0.0
 41
20.0
 42
20.0
 43
20.0
 50
180.0
  0
INSERT
  5
149DD
330
14023
100
AcDbEntity
  8
寸法線
 62
     0
440
 16777216
370
    -2
100
AcDbBlockReference
  2
_OPEN
 10
2502.499944169807
 20
2764.999942832917
 30
0.0
 41
20.0
 42
20.0
 43
20.0
  0
MTEXT
  5
149DE
330
14023
100
AcDbEntity
  8
寸法線
 62
     0
440
 16777216
100
AcDbMText
 10
1602.499944169806
 20
2786.249942832917
 30
0.0
 40
25.0
 41
0.0
 46
0.0
 71
     5
 72
     1
  1
\A1;スルーサーＢ L=1800
 73
     1
 44
1.0
  0
POINT
  5
149DF
330
14023
100
AcDbEntity
  8
Defpoints
 62
     0
440
 16777216
100
AcDbPoint
 10
702.4999441698054
 20
2438.000037219678
 30
0.0
  0
POINT
  5
149E0
330
14023
100
AcDbEntity
  8
Defpoints
 62
     0
440
 16777216
100
AcDbPoint
 10
2502.499944169807
 20
2438.000037219678
 30
0.0
  0
POINT
  5
149E1
330
14023
100
AcDbEntity
  8
Defpoints
 62
     0
440
 16777216
100
AcDbPoint
 10
2502.499944169807
 20
2764.999942832917
 30
0.0
  0
ENDBLK
  5
14025
330
14023
100
AcDbEntity
  8
0
100
AcDbBlockEnd
  0
BLOCK
  5
1448B
330
1448A
100
AcDbEntity
  8
0
100
AcDbBlockBegin
  2
*D21
 70
     1
 10
0.0
 20
0.0
 30
0.0
  3
*D21
  1

  0
LINE
  5
147AC
330
1448A
100
AcDbEntity
  8
寸法線
 62
     0
440
 16777216
370
    -2
100
AcDbLine
 10
925.0040038075947
 20
556.2499999999871
 30
0.0
 11
925.0040038075947
 21
435.0000182445965
 31
0.0
  0
LINE
  5
147AD
330
1448A
100
AcDbEntity
  8
寸法線
 62
     0
440
 16777216
370
    -2
100
AcDbLine
 10
957.004003807595
 20
566.2499999999872
 30
0.0
 11
957.004003807595
 21
435.0000182445965
 31
0.0
  0
LINE
  5
147AE
330
1448A
100
AcDbEntity
  8
寸法線
 62
     0
440
 16777216
370
    -2
100
AcDbLine
 10
905.0040038075948
 20
445.0000182445965
 30
0.0
 11
885.0040038075949
 21
445.0000182445965
 31
0.0
  0
LINE
  5
147AF
330
1448A
100
AcDbEntity
  8
寸法線
 62
     0
440
 16777216
370
    -2
100
AcDbLine
 10
977.0040038075947
 20
445.0000182445965
 30
0.0
 11
997.0040038075948
 21
445.0000182445965
 31
0.0
  0
LINE
  5
147B0
330
1448A
100
AcDbEntity
  8
寸法線
 62
     0
440
 16777216
370
    -2
100
AcDbLine
 10
925.0040038075947
 20
445.0000182445965
 30
0.0
 11
957.004003807595
 21
445.0000182445965
 31
0.0
  0
INSERT
  5
147B1
330
1448A
100
AcDbEntity
  8
寸法線
 62
     0
440
 16777216
370
    -2
100
AcDbBlockReference
  2
_OPEN
 10
925.0040038075947
 20
445.0000182445965
 30
0.0
 41
20.0
 42
20.0
 43
20.0
  0
INSERT
  5
147B2
330
1448A
100
AcDbEntity
  8
寸法線
 62
     0
440
 16777216
370
    -2
100
AcDbBlockReference
  2
_OPEN
 10
957.004003807595
 20
445.0000182445965
 30
0.0
 41
20.0
 42
20.0
 43
20.0
 50
180.0
  0
MTEXT
  5
147B3
330
1448A
100
AcDbEntity
  8
寸法線
 62
     0
440
 16777216
100
AcDbMText
 10
941.0040038075948
 20
466.2524788745177
 30
0.0
 40
25.0
 41
0.0
 46
0.0
 71
     5
 72
     1
  1
\A1;32
 73
     1
 44
1.0
  0
POINT
  5
147B4
330
1448A
100
AcDbEntity
  8
Defpoints
 62
     0
440
 16777216
100
AcDbPoint
 10
925.0040038075947
 20
564.9999999999872
 30
0.0
  0
POINT
  5
147B5
330
1448A
100
AcDbEntity
  8
Defpoints
 62
     0
440
 16777216
100
AcDbPoint
 10
957.004003807595
 20
574.9999999999872
 30
0.0
  0
POINT
  5
147B6
330
1448A
100
AcDbEntity
  8
Defpoints
 62
     0
440
 16777216
100
AcDbPoint
 10
957.004003807595
 20
445.0000182445965
 30
0.0
  0
ENDBLK
  5
1448C
330
1448A
100
AcDbEntity
  8
0
100
AcDbBlockEnd
  0
BLOCK
  5
14499
330
14498
100
AcDbEntity
  8
0
100
AcDbBlockBegin
  2
*D22
 70
     1
 10
0.0
 20
0.0
 30
0.0
  3
*D22
  1

  0
LINE
  5
147B7
330
14498
100
AcDbEntity
  8
寸法線
 62
     0
440
 16777216
370
    -2
100
AcDbLine
 10
957.004003807595
 20
566.2499999999872
 30
0.0
 11
957.004003807595
 21
435.0000182445965
 31
0.0
  0
LINE
  5
147B8
330
14498
100
AcDbEntity
  8
寸法線
 62
     0
440
 16777216
370
    -2
100
AcDbLine
 10
1661.004003807595
 20
566.2499999999581
 30
0.0
 11
1661.004003807595
 21
435.0000182445965
 31
0.0
  0
LINE
  5
147B9
330
14498
100
AcDbEntity
  8
寸法線
 62
     0
440
 16777216
370
    -2
100
AcDbLine
 10
977.0040038075947
 20
445.0000182445965
 30
0.0
 11
1641.004003807594
 21
445.0000182445965
 31
0.0
  0
INSERT
  5
147BA
330
14498
100
AcDbEntity
  8
寸法線
 62
     0
440
 16777216
370
    -2
100
AcDbBlockReference
  2
_OPEN
 10
957.004003807595
 20
445.0000182445965
 30
0.0
 41
20.0
 42
20.0
 43
20.0
 50
180.0
  0
INSERT
  5
147BB
330
14498
100
AcDbEntity
  8
寸法線
 62
     0
440
 16777216
370
    -2
100
AcDbBlockReference
  2
_OPEN
 10
1661.004003807595
 20
445.0000182445965
 30
0.0
 41
20.0
 42
20.0
 43
20.0
  0
MTEXT
  5
147BC
330
14498
100
AcDbEntity
  8
寸法線
 62
     0
440
 16777216
100
AcDbMText
 10
1309.004003807595
 20
466.2500182445965
 30
0.0
 40
25.0
 41
0.0
 46
0.0
 71
     5
 72
     1
  1
\A1;704
 73
     1
 44
1.0
  0
POINT
  5
147BD
330
14498
100
AcDbEntity
  8
Defpoints
 62
     0
440
 16777216
100
AcDbPoint
 10
957.004003807595
 20
574.9999999999872
 30
0.0
  0
POINT
  5
147BE
330
14498
100
AcDbEntity
  8
Defpoints
 62
     0
440
 16777216
100
AcDbPoint
 10
1661.004003807595
 20
574.9999999999581
 30
0.0
  0
POINT
  5
147BF
330
14498
100
AcDbEntity
  8
Defpoints
 62
     0
440
 16777216
100
AcDbPoint
 10
1661.004003807595
 20
445.0000182445965
 30
0.0
  0
ENDBLK
  5
1449A
330
14498
100
AcDbEntity
  8
0
100
AcDbBlockEnd
  0
BLOCK
  5
144A5
330
144A4
100
AcDbEntity
  8
0
100
AcDbBlockBegin
  2
*D23
 70
     1
 10
0.0
 20
0.0
 30
0.0
  3
*D23
  1

  0
LINE
  5
147C0
330
144A4
100
AcDbEntity
  8
寸法線
 62
     0
440
 16777216
370
    -2
100
AcDbLine
 10
909.0040038075947
 20
556.2499999999871
 30
0.0
 11
909.0040038075947
 21
375.0000182445965
 31
0.0
  0
LINE
  5
147C1
330
144A4
100
AcDbEntity
  8
寸法線
 62
     0
440
 16777216
370
    -2
100
AcDbLine
 10
925.0040038075947
 20
556.2499999999871
 30
0.0
 11
925.0040038075947
 21
375.0000182445965
 31
0.0
  0
LINE
  5
147C2
330
144A4
100
AcDbEntity
  8
寸法線
 62
     0
440
 16777216
370
    -2
100
AcDbLine
 10
889.004003807595
 20
385.0000182445965
 30
0.0
 11
869.0040038075949
 21
385.0000182445965
 31
0.0
  0
LINE
  5
147C3
330
144A4
100
AcDbEntity
  8
寸法線
 62
     0
440
 16777216
370
    -2
100
AcDbLine
 10
945.0040038075949
 20
385.0000182445965
 30
0.0
 11
965.004003807595
 21
385.0000182445965
 31
0.0
  0
LINE
  5
147C4
330
144A4
100
AcDbEntity
  8
寸法線
 62
     0
440
 16777216
370
    -2
100
AcDbLine
 10
909.0040038075947
 20
385.0000182445965
 30
0.0
 11
925.0040038075947
 21
385.0000182445965
 31
0.0
  0
INSERT
  5
147C5
330
144A4
100
AcDbEntity
  8
寸法線
 62
     0
440
 16777216
370
    -2
100
AcDbBlockReference
  2
_OPEN
 10
909.0040038075947
 20
385.0000182445965
 30
0.0
 41
20.0
 42
20.0
 43
20.0
  0
INSERT
  5
147C6
330
144A4
100
AcDbEntity
  8
寸法線
 62
     0
440
 16777216
370
    -2
100
AcDbBlockReference
  2
_OPEN
 10
925.0040038075947
 20
385.0000182445965
 30
0.0
 41
20.0
 42
20.0
 43
20.0
 50
180.0
  0
MTEXT
  5
147C7
330
144A4
100
AcDbEntity
  8
寸法線
 62
     0
440
 16777216
100
AcDbMText
 10
917.0040038075947
 20
406.2500182445965
 30
0.0
 40
25.0
 41
0.0
 46
0.0
 71
     5
 72
     1
  1
\A1;16
 73
     1
 44
1.0
  0
POINT
  5
147C8
330
144A4
100
AcDbEntity
  8
Defpoints
 62
     0
440
 16777216
100
AcDbPoint
 10
909.0040038075947
 20
564.9999999999872
 30
0.0
  0
POINT
  5
147C9
330
144A4
100
AcDbEntity
  8
Defpoints
 62
     0
440
 16777216
100
AcDbPoint
 10
925.0040038075947
 20
564.9999999999872
 30
0.0
  0
POINT
  5
147CA
330
144A4
100
AcDbEntity
  8
Defpoints
 62
     0
440
 16777216
100
AcDbPoint
 10
925.0040038075947
 20
385.0000182445965
 30
0.0
  0
ENDBLK
  5
144A6
330
144A4
100
AcDbEntity
  8
0
100
AcDbBlockEnd
  0
BLOCK
  5
144B3
330
144B2
100
AcDbEntity
  8
0
100
AcDbBlockBegin
  2
*D24
 70
     1
 10
0.0
 20
0.0
 30
0.0
  3
*D24
  1

  0
LINE
  5
147CB
330
144B2
100
AcDbEntity
  8
寸法線
 62
     0
440
 16777216
370
    -2
100
AcDbLine
 10
925.0040038075947
 20
556.2500182445965
 30
0.0
 11
925.0040038075947
 21
375.0000182445965
 31
0.0
  0
LINE
  5
147CC
330
144B2
100
AcDbEntity
  8
寸法線
 62
     0
440
 16777216
370
    -2
100
AcDbLine
 10
1693.004003807595
 20
556.2499999999581
 30
0.0
 11
1693.004003807595
 21
375.0000182445965
 31
0.0
  0
LINE
  5
147CD
330
144B2
100
AcDbEntity
  8
寸法線
 62
     0
440
 16777216
370
    -2
100
AcDbLine
 10
945.0040038075949
 20
385.0000182445965
 30
0.0
 11
1673.004003807595
 21
385.0000182445965
 31
0.0
  0
INSERT
  5
147CE
330
144B2
100
AcDbEntity
  8
寸法線
 62
     0
440
 16777216
370
    -2
100
AcDbBlockReference
  2
_OPEN
 10
925.0040038075947
 20
385.0000182445965
 30
0.0
 41
20.0
 42
20.0
 43
20.0
 50
180.0
  0
INSERT
  5
147CF
330
144B2
100
AcDbEntity
  8
寸法線
 62
     0
440
 16777216
370
    -2
100
AcDbBlockReference
  2
_OPEN
 10
1693.004003807595
 20
385.0000182445965
 30
0.0
 41
20.0
 42
20.0
 43
20.0
  0
MTEXT
  5
147D0
330
144B2
100
AcDbEntity
  8
寸法線
 62
     0
440
 16777216
100
AcDbMText
 10
1309.004003807595
 20
406.2500182445965
 30
0.0
 40
25.0
 41
0.0
 46
0.0
 71
     5
 72
     1
  1
\A1;768
 73
     1
 44
1.0
  0
POINT
  5
147D1
330
144B2
100
AcDbEntity
  8
Defpoints
 62
     0
440
 16777216
100
AcDbPoint
 10
925.0040038075947
 20
565.0000182445965
 30
0.0
  0
POINT
  5
147D2
330
144B2
100
AcDbEntity
  8
Defpoints
 62
     0
440
 16777216
100
AcDbPoint
 10
1693.004003807595
 20
564.9999999999582
 30
0.0
  0
POINT
  5
147D3
330
144B2
100
AcDbEntity
  8
Defpoints
 62
     0
440
 16777216
100
AcDbPoint
 10
1693.004003807595
 20
385.0000182445965
 30
0.0
  0
ENDBLK
  5
144B4
330
144B2
100
AcDbEntity
  8
0
100
AcDbBlockEnd
  0
BLOCK
  5
144BF
330
144BE
100
AcDbEntity
  8
0
100
AcDbBlockBegin
  2
*D25
 70
     1
 10
0.0
 20
0.0
 30
0.0
  3
*D25
  1

  0
LINE
  5
147D4
330
144BE
100
AcDbEntity
  8
寸法線
 62
     0
440
 16777216
370
    -2
100
AcDbLine
 10
909.0040038075947
 20
556.2500182445965
 30
0.0
 11
909.0040038075947
 21
315.0000182445965
 31
0.0
  0
LINE
  5
147D5
330
144BE
100
AcDbEntity
  8
寸法線
 62
     0
440
 16777216
370
    -2
100
AcDbLine
 10
1709.004003807595
 20
556.2500182445672
 30
0.0
 11
1709.004003807595
 21
315.0000182445965
 31
0.0
  0
LINE
  5
147D6
330
144BE
100
AcDbEntity
  8
寸法線
 62
     0
440
 16777216
370
    -2
100
AcDbLine
 10
929.0040038075948
 20
325.0000182445965
 30
0.0
 11
1689.004003807595
 21
325.0000182445965
 31
0.0
  0
INSERT
  5
147D7
330
144BE
100
AcDbEntity
  8
寸法線
 62
     0
440
 16777216
370
    -2
100
AcDbBlockReference
  2
_OPEN
 10
909.0040038075947
 20
325.0000182445965
 30
0.0
 41
20.0
 42
20.0
 43
20.0
 50
180.0
  0
INSERT
  5
147D8
330
144BE
100
AcDbEntity
  8
寸法線
 62
     0
440
 16777216
370
    -2
100
AcDbBlockReference
  2
_OPEN
 10
1709.004003807595
 20
325.0000182445965
 30
0.0
 41
20.0
 42
20.0
 43
20.0
  0
MTEXT
  5
147D9
330
144BE
100
AcDbEntity
  8
寸法線
 62
     0
440
 16777216
100
AcDbMText
 10
1309.004003807595
 20
346.2500182445965
 30
0.0
 40
25.0
 41
0.0
 46
0.0
 71
     5
 72
     1
  1
\A1;800
 73
     1
 44
1.0
  0
POINT
  5
147DA
330
144BE
100
AcDbEntity
  8
Defpoints
 62
     0
440
 16777216
100
AcDbPoint
 10
909.0040038075947
 20
565.0000182445965
 30
0.0
  0
POINT
  5
147DB
330
144BE
100
AcDbEntity
  8
Defpoints
 62
     0
440
 16777216
100
AcDbPoint
 10
1709.004003807595
 20
565.0000182445673
 30
0.0
  0
POINT
  5
147DC
330
144BE
100
AcDbEntity
  8
Defpoints
 62
     0
440
 16777216
100
AcDbPoint
 10
1709.004003807595
 20
325.0000182445965
 30
0.0
  0
ENDBLK
  5
144C0
330
144BE
100
AcDbEntity
  8
0
100
AcDbBlockEnd
  0
BLOCK
  5
144CB
330
144CA
100
AcDbEntity
  8
0
100
AcDbBlockBegin
  2
*D26
 70
     1
 10
0.0
 20
0.0
 30
0.0
  3
*D26
  1

  0
LINE
  5
147DD
330
144CA
100
AcDbEntity
  8
寸法線
 62
     0
440
 16777216
370
    -2
100
AcDbLine
 10
925.0040038075947
 20
943.7500182445964
 30
0.0
 11
925.0040038075947
 21
1065.000014843657
 31
0.0
  0
LINE
  5
147DE
330
144CA
100
AcDbEntity
  8
寸法線
 62
     0
440
 16777216
370
    -2
100
AcDbLine
 10
1301.004003807595
 20
963.749999999958
 30
0.0
 11
1301.004003807595
 21
1065.000014843657
 31
0.0
  0
LINE
  5
147DF
330
144CA
100
AcDbEntity
  8
寸法線
 62
     0
440
 16777216
370
    -2
100
AcDbLine
 10
945.0040038075949
 20
1055.000014843657
 30
0.0
 11
1281.004003807595
 21
1055.000014843657
 31
0.0
  0
INSERT
  5
147E0
330
144CA
100
AcDbEntity
  8
寸法線
 62
     0
440
 16777216
370
    -2
100
AcDbBlockReference
  2
_OPEN
 10
925.0040038075947
 20
1055.000014843657
 30
0.0
 41
20.0
 42
20.0
 43
20.0
 50
180.0
  0
INSERT
  5
147E1
330
144CA
100
AcDbEntity
  8
寸法線
 62
     0
440
 16777216
370
    -2
100
AcDbBlockReference
  2
_OPEN
 10
1301.004003807595
 20
1055.000014843657
 30
0.0
 41
20.0
 42
20.0
 43
20.0
  0
MTEXT
  5
147E2
330
144CA
100
AcDbEntity
  8
寸法線
 62
     0
440
 16777216
100
AcDbMText
 10
1113.004003807595
 20
1076.250014843657
 30
0.0
 40
25.0
 41
0.0
 46
0.0
 71
     5
 72
     1
  1
\A1;376
 73
     1
 44
1.0
  0
POINT
  5
147E3
330
144CA
100
AcDbEntity
  8
Defpoints
 62
     0
440
 16777216
100
AcDbPoint
 10
925.0040038075947
 20
935.0000182445963
 30
0.0
  0
POINT
  5
147E4
330
144CA
100
AcDbEntity
  8
Defpoints
 62
     0
440
 16777216
100
AcDbPoint
 10
1301.004003807595
 20
954.9999999999581
 30
0.0
  0
POINT
  5
147E5
330
144CA
100
AcDbEntity
  8
Defpoints
 62
     0
440
 16777216
100
AcDbPoint
 10
1301.004003807595
 20
1055.000014843657
 30
0.0
  0
ENDBLK
  5
144CC
330
144CA
100
AcDbEntity
  8
0
100
AcDbBlockEnd
  0
BLOCK
  5
144D7
330
144D6
100
AcDbEntity
  8
0
100
AcDbBlockBegin
  2
*D27
 70
     1
 10
0.0
 20
0.0
 30
0.0
  3
*D27
  1

  0
LINE
  5
147E6
330
144D6
100
AcDbEntity
  8
寸法線
 62
     0
440
 16777216
370
    -2
100
AcDbLine
 10
1693.00400442756
 20
943.749999999958
 30
0.0
 11
1693.004013018519
 21
1064.99997757483
 31
0.0
  0
LINE
  5
147E7
330
144D6
100
AcDbEntity
  8
寸法線
 62
     0
440
 16777216
370
    -2
100
AcDbLine
 10
1317.004004427561
 20
963.749999999958
 30
0.0
 11
1317.004011601455
 21
1065.000004215661
 31
0.0
  0
LINE
  5
147E8
330
144D6
100
AcDbEntity
  8
寸法線
 62
     0
440
 16777216
370
    -2
100
AcDbLine
 10
1673.004012309986
 20
1054.999978991896
 30
0.0
 11
1337.004010892922
 21
1055.000002798596
 31
0.0
  0
INSERT
  5
147E9
330
144D6
100
AcDbEntity
  8
寸法線
 62
     0
440
 16777216
370
    -2
100
AcDbBlockReference
  2
_OPEN
 10
1693.004012309986
 20
1054.99997757483
 30
0.0
 41
20.0
 42
20.0
 43
20.0
 50
359.9999959404063
  0
INSERT
  5
147EA
330
144D6
100
AcDbEntity
  8
寸法線
 62
     0
440
 16777216
370
    -2
100
AcDbBlockReference
  2
_OPEN
 10
1317.004010892922
 20
1055.000004215662
 30
0.0
 41
20.0
 42
20.0
 43
20.0
 50
179.9999959404063
  0
MTEXT
  5
147EB
330
144D6
100
AcDbEntity
  8
寸法線
 62
     0
440
 16777216
100
AcDbMText
 10
1505.004013107086
 20
1076.249990895246
 30
0.0
 40
25.0
 41
0.0
 46
0.0
 71
     5
 72
     1
  1
\A1;376
 11
0.9999999999999975
 21
-0.0000000708532752
 31
0.0
 73
     1
 44
1.0
  0
POINT
  5
147EC
330
144D6
100
AcDbEntity
  8
Defpoints
 62
     0
440
 16777216
100
AcDbPoint
 10
1693.004003807595
 20
934.999999999958
 30
0.0
  0
POINT
  5
147ED
330
144D6
100
AcDbEntity
  8
Defpoints
 62
     0
440
 16777216
100
AcDbPoint
 10
1317.004003807595
 20
954.9999999999581
 30
0.0
  0
POINT
  5
147EE
330
144D6
100
AcDbEntity
  8
Defpoints
 62
     0
440
 16777216
100
AcDbPoint
 10
1317.004010892922
 20
1055.000004215662
 30
0.0
  0
ENDBLK
  5
144D8
330
144D6
100
AcDbEntity
  8
0
100
AcDbBlockEnd
  0
BLOCK
  5
144E3
330
144E2
100
AcDbEntity
  8
0
100
AcDbBlockBegin
  2
*D28
 70
     1
 10
0.0
 20
0.0
 30
0.0
  3
*D28
  1

  0
LINE
  5
147EF
330
144E2
100
AcDbEntity
  8
寸法線
 62
     0
440
 16777216
370
    -2
100
AcDbLine
 10
1693.004003807595
 20
556.2499999999871
 30
0.0
 11
1693.004003807595
 21
435.0000182445965
 31
0.0
  0
LINE
  5
147F0
330
144E2
100
AcDbEntity
  8
寸法線
 62
     0
440
 16777216
370
    -2
100
AcDbLine
 10
1661.004003807595
 20
566.2499999999872
 30
0.0
 11
1661.004003807595
 21
435.0000182445965
 31
0.0
  0
LINE
  5
147F1
330
144E2
100
AcDbEntity
  8
寸法線
 62
     0
440
 16777216
370
    -2
100
AcDbLine
 10
1713.004003807595
 20
445.0000182445965
 30
0.0
 11
1733.004003807595
 21
445.0000182445965
 31
0.0
  0
LINE
  5
147F2
330
144E2
100
AcDbEntity
  8
寸法線
 62
     0
440
 16777216
370
    -2
100
AcDbLine
 10
1641.004003807594
 20
445.0000182445965
 30
0.0
 11
1621.004003807595
 21
445.0000182445965
 31
0.0
  0
LINE
  5
147F3
330
144E2
100
AcDbEntity
  8
寸法線
 62
     0
440
 16777216
370
    -2
100
AcDbLine
 10
1693.004003807595
 20
445.0000182445965
 30
0.0
 11
1661.004003807595
 21
445.0000182445965
 31
0.0
  0
INSERT
  5
147F4
330
144E2
100
AcDbEntity
  8
寸法線
 62
     0
440
 16777216
370
    -2
100
AcDbBlockReference
  2
_OPEN
 10
1693.004003807595
 20
445.0000182445965
 30
0.0
 41
20.0
 42
20.0
 43
20.0
 50
180.0
  0
INSERT
  5
147F5
330
144E2
100
AcDbEntity
  8
寸法線
 62
     0
440
 16777216
370
    -2
100
AcDbBlockReference
  2
_OPEN
 10
1661.004003807595
 20
445.0000182445965
 30
0.0
 41
20.0
 42
20.0
 43
20.0
  0
MTEXT
  5
147F6
330
144E2
100
AcDbEntity
  8
寸法線
 62
     0
440
 16777216
100
AcDbMText
 10
1677.004003807595
 20
466.2524788745177
 30
0.0
 40
25.0
 41
0.0
 46
0.0
 71
     5
 72
     1
  1
\A1;32
 73
     1
 44
1.0
  0
POINT
  5
147F7
330
144E2
100
AcDbEntity
  8
Defpoints
 62
     0
440
 16777216
100
AcDbPoint
 10
1693.004003807595
 20
564.9999999999872
 30
0.0
  0
POINT
  5
147F8
330
144E2
100
AcDbEntity
  8
Defpoints
 62
     0
440
 16777216
100
AcDbPoint
 10
1661.004003807595
 20
574.9999999999872
 30
0.0
  0
POINT
  5
147F9
330
144E2
100
AcDbEntity
  8
Defpoints
 62
     0
440
 16777216
100
AcDbPoint
 10
1661.004003807595
 20
445.0000182445965
 30
0.0
  0
ENDBLK
  5
144E4
330
144E2
100
AcDbEntity
  8
0
100
AcDbBlockEnd
  0
BLOCK
  5
144F1
330
144F0
100
AcDbEntity
  8
0
100
AcDbBlockBegin
  2
*D29
 70
     1
 10
0.0
 20
0.0
 30
0.0
  3
*D29
  1

  0
LINE
  5
147FA
330
144F0
100
AcDbEntity
  8
寸法線
 62
     0
440
 16777216
370
    -2
100
AcDbLine
 10
1709.004003807595
 20
556.2499999999871
 30
0.0
 11
1709.004003807595
 21
375.0000182445965
 31
0.0
  0
LINE
  5
147FB
330
144F0
100
AcDbEntity
  8
寸法線
 62
     0
440
 16777216
370
    -2
100
AcDbLine
 10
1693.004003807595
 20
556.2499999999871
 30
0.0
 11
1693.004003807595
 21
375.0000182445965
 31
0.0
  0
LINE
  5
147FC
330
144F0
100
AcDbEntity
  8
寸法線
 62
     0
440
 16777216
370
    -2
100
AcDbLine
 10
1729.004003807595
 20
385.0000182445965
 30
0.0
 11
1749.004003807595
 21
385.0000182445965
 31
0.0
  0
LINE
  5
147FD
330
144F0
100
AcDbEntity
  8
寸法線
 62
     0
440
 16777216
370
    -2
100
AcDbLine
 10
1673.004003807595
 20
385.0000182445965
 30
0.0
 11
1653.004003807595
 21
385.0000182445965
 31
0.0
  0
LINE
  5
147FE
330
144F0
100
AcDbEntity
  8
寸法線
 62
     0
440
 16777216
370
    -2
100
AcDbLine
 10
1709.004003807595
 20
385.0000182445965
 30
0.0
 11
1693.004003807595
 21
385.0000182445965
 31
0.0
  0
INSERT
  5
147FF
330
144F0
100
AcDbEntity
  8
寸法線
 62
     0
440
 16777216
370
    -2
100
AcDbBlockReference
  2
_OPEN
 10
1709.004003807595
 20
385.0000182445965
 30
0.0
 41
20.0
 42
20.0
 43
20.0
 50
180.0
  0
INSERT
  5
14800
330
144F0
100
AcDbEntity
  8
寸法線
 62
     0
440
 16777216
370
    -2
100
AcDbBlockReference
  2
_OPEN
 10
1693.004003807595
 20
385.0000182445965
 30
0.0
 41
20.0
 42
20.0
 43
20.0
  0
MTEXT
  5
14801
330
144F0
100
AcDbEntity
  8
寸法線
 62
     0
440
 16777216
100
AcDbMText
 10
1701.004003807595
 20
406.2500182445965
 30
0.0
 40
25.0
 41
0.0
 46
0.0
 71
     5
 72
     1
  1
\A1;16
 73
     1
 44
1.0
  0
POINT
  5
14802
330
144F0
100
AcDbEntity
  8
Defpoints
 62
     0
440
 16777216
100
AcDbPoint
 10
1709.004003807595
 20
564.9999999999872
 30
0.0
  0
POINT
  5
14803
330
144F0
100
AcDbEntity
  8
Defpoints
 62
     0
440
 16777216
100
AcDbPoint
 10
1693.004003807595
 20
564.9999999999872
 30
0.0
  0
POINT
  5
14804
330
144F0
100
AcDbEntity
  8
Defpoints
 62
     0
440
 16777216
100
AcDbPoint
 10
1693.004003807595
 20
385.0000182445965
 30
0.0
  0
ENDBLK
  5
144F2
330
144F0
100
AcDbEntity
  8
0
100
AcDbBlockEnd
  0
BLOCK
  5
144FF
330
144FE
100
AcDbEntity
  8
0
100
AcDbBlockBegin
  2
*D30
 70
     1
 10
0.0
 20
0.0
 30
0.0
  3
*D30
  1

  0
LINE
  5
14805
330
144FE
100
AcDbEntity
  8
寸法線
 62
     0
440
 16777216
370
    -2
100
AcDbLine
 10
380.2538926073595
 20
565.000036489206
 30
0.0
 11
259.0039999999989
 21
565.000036489206
 31
0.0
  0
LINE
  5
14806
330
144FE
100
AcDbEntity
  8
寸法線
 62
     0
440
 16777216
370
    -2
100
AcDbLine
 10
380.2538926073595
 20
935.0000364892062
 30
0.0
 11
259.0039999999988
 21
935.0000364892062
 31
0.0
  0
LINE
  5
14807
330
144FE
100
AcDbEntity
  8
寸法線
 62
     0
440
 16777216
370
    -2
100
AcDbLine
 10
269.0039999999989
 20
585.000036489206
 30
0.0
 11
269.0039999999988
 21
915.000036489206
 31
0.0
  0
INSERT
  5
14808
330
144FE
100
AcDbEntity
  8
寸法線
 62
     0
440
 16777216
370
    -2
100
AcDbBlockReference
  2
_OPEN
 10
269.0039999999989
 20
565.000036489206
 30
0.0
 41
20.0
 42
20.0
 43
20.0
 50
270.0
  0
INSERT
  5
14809
330
144FE
100
AcDbEntity
  8
寸法線
 62
     0
440
 16777216
370
    -2
100
AcDbBlockReference
  2
_OPEN
 10
269.0039999999988
 20
935.0000364892062
 30
0.0
 41
20.0
 42
20.0
 43
20.0
 50
90.0
  0
MTEXT
  5
1480A
330
144FE
100
AcDbEntity
  8
寸法線
 62
     0
440
 16777216
100
AcDbMText
 10
247.753999999999
 20
750.0000364892057
 30
0.0
 40
25.0
 41
0.0
 46
0.0
 71
     5
 72
     1
  1
\A1;370
 11
0.0000000000000001
 21
1.0
 31
0.0
 73
     1
 44
1.0
  0
POINT
  5
1480B
330
144FE
100
AcDbEntity
  8
Defpoints
 62
     0
440
 16777216
100
AcDbPoint
 10
389.0038926073596
 20
565.000036489206
 30
0.0
  0
POINT
  5
1480C
330
144FE
100
AcDbEntity
  8
Defpoints
 62
     0
440
 16777216
100
AcDbPoint
 10
389.0038926073596
 20
935.0000364892062
 30
0.0
  0
POINT
  5
1480D
330
144FE
100
AcDbEntity
  8
Defpoints
 62
     0
440
 16777216
100
AcDbPoint
 10
269.0039999999988
 20
935.0000364892062
 30
0.0
  0
ENDBLK
  5
14500
330
144FE
100
AcDbEntity
  8
0
100
AcDbBlockEnd
  0
BLOCK
  5
1450B
330
1450A
100
AcDbEntity
  8
0
100
AcDbBlockBegin
  2
*D31
 70
     1
 10
0.0
 20
0.0
 30
0.0
  3
*D31
  1

  0
LINE
  5
1480E
330
1450A
100
AcDbEntity
  8
寸法線
 62
     0
440
 16777216
370
    -2
100
AcDbLine
 10
389.0041073926095
 20
556.2500364892057
 30
0.0
 11
389.0041073926095
 21
435.0000364892056
 31
0.0
  0
LINE
  5
1480F
330
1450A
100
AcDbEntity
  8
寸法線
 62
     0
440
 16777216
370
    -2
100
AcDbLine
 10
759.0041073926093
 20
556.2500364892057
 30
0.0
 11
759.0041073926093
 21
435.0000364892056
 31
0.0
  0
LINE
  5
14810
330
1450A
100
AcDbEntity
  8
寸法線
 62
     0
440
 16777216
370
    -2
100
AcDbLine
 10
409.0041073926093
 20
445.0000364892057
 30
0.0
 11
739.0041073926095
 21
445.0000364892057
 31
0.0
  0
INSERT
  5
14811
330
1450A
100
AcDbEntity
  8
寸法線
 62
     0
440
 16777216
370
    -2
100
AcDbBlockReference
  2
_OPEN
 10
389.0041073926095
 20
445.0000364892057
 30
0.0
 41
20.0
 42
20.0
 43
20.0
 50
180.0
  0
INSERT
  5
14812
330
1450A
100
AcDbEntity
  8
寸法線
 62
     0
440
 16777216
370
    -2
100
AcDbBlockReference
  2
_OPEN
 10
759.0041073926093
 20
445.0000364892057
 30
0.0
 41
20.0
 42
20.0
 43
20.0
  0
MTEXT
  5
14813
330
1450A
100
AcDbEntity
  8
寸法線
 62
     0
440
 16777216
100
AcDbMText
 10
574.0041073926095
 20
466.2500364892056
 30
0.0
 40
25.0
 41
0.0
 46
0.0
 71
     5
 72
     1
  1
\A1;370
 73
     1
 44
1.0
  0
POINT
  5
14814
330
1450A
100
AcDbEntity
  8
Defpoints
 62
     0
440
 16777216
100
AcDbPoint
 10
389.0041073926095
 20
565.0000364892057
 30
0.0
  0
POINT
  5
14815
330
1450A
100
AcDbEntity
  8
Defpoints
 62
     0
440
 16777216
100
AcDbPoint
 10
759.0041073926093
 20
565.0000364892057
 30
0.0
  0
POINT
  5
14816
330
1450A
100
AcDbEntity
  8
Defpoints
 62
     0
440
 16777216
100
AcDbPoint
 10
759.0041073926093
 20
445.0000364892057
 30
0.0
  0
ENDBLK
  5
1450C
330
1450A
100
AcDbEntity
  8
0
100
AcDbBlockEnd
  0
BLOCK
  5
14517
330
14516
100
AcDbEntity
  8
0
100
AcDbBlockBegin
  2
*D32
 70
     1
 10
0.0
 20
0.0
 30
0.0
  3
*D32
  1

  0
LINE
  5
14817
330
14516
100
AcDbEntity
  8
寸法線
 62
     0
440
 16777216
370
    -2
100
AcDbLine
 10
2414.004003807595
 20
516.2500364892348
 30
0.0
 11
2414.004003807595
 21
435.0000364892348
 31
0.0
  0
LINE
  5
14818
330
14516
100
AcDbEntity
  8
寸法線
 62
     0
440
 16777216
370
    -2
100
AcDbLine
 10
2824.004003807596
 20
516.2500364892348
 30
0.0
 11
2824.004003807596
 21
435.0000364892348
 31
0.0
  0
LINE
  5
14819
330
14516
100
AcDbEntity
  8
寸法線
 62
     0
440
 16777216
370
    -2
100
AcDbLine
 10
2434.004003807595
 20
445.0000364892348
 30
0.0
 11
2804.004003807595
 21
445.0000364892348
 31
0.0
  0
INSERT
  5
1481A
330
14516
100
AcDbEntity
  8
寸法線
 62
     0
440
 16777216
370
    -2
100
AcDbBlockReference
  2
_OPEN
 10
2414.004003807595
 20
445.0000364892348
 30
0.0
 41
20.0
 42
20.0
 43
20.0
 50
180.0
  0
INSERT
  5
1481B
330
14516
100
AcDbEntity
  8
寸法線
 62
     0
440
 16777216
370
    -2
100
AcDbBlockReference
  2
_OPEN
 10
2824.004003807596
 20
445.0000364892348
 30
0.0
 41
20.0
 42
20.0
 43
20.0
  0
MTEXT
  5
1481C
330
14516
100
AcDbEntity
  8
寸法線
 62
     0
440
 16777216
100
AcDbMText
 10
2619.004003807595
 20
466.2500364892348
 30
0.0
 40
25.0
 41
0.0
 46
0.0
 71
     5
 72
     1
  1
\A1;410
 73
     1
 44
1.0
  0
POINT
  5
1481D
330
14516
100
AcDbEntity
  8
Defpoints
 62
     0
440
 16777216
100
AcDbPoint
 10
2414.004003807595
 20
525.0000364892348
 30
0.0
  0
POINT
  5
1481E
330
14516
100
AcDbEntity
  8
Defpoints
 62
     0
440
 16777216
100
AcDbPoint
 10
2824.004003807596
 20
525.0000364892348
 30
0.0
  0
POINT
  5
1481F
330
14516
100
AcDbEntity
  8
Defpoints
 62
     0
440
 16777216
100
AcDbPoint
 10
2824.004003807596
 20
445.0000364892348
 30
0.0
  0
ENDBLK
  5
14518
330
14516
100
AcDbEntity
  8
0
100
AcDbBlockEnd
  0
BLOCK
  5
14523
330
14522
100
AcDbEntity
  8
0
100
AcDbBlockBegin
  2
*D33
 70
     1
 10
0.0
 20
0.0
 30
0.0
  3
*D33
  1

  0
LINE
  5
14820
330
14522
100
AcDbEntity
  8
寸法線
 62
     0
440
 16777216
370
    -2
100
AcDbLine
 10
2832.754003807596
 20
525.0000364892351
 30
0.0
 11
2914.004003807826
 21
525.0000364892351
 31
0.0
  0
LINE
  5
14821
330
14522
100
AcDbEntity
  8
寸法線
 62
     0
440
 16777216
370
    -2
100
AcDbLine
 10
2832.754003807596
 20
935.0000364892352
 30
0.0
 11
2914.004003807826
 21
935.0000364892352
 31
0.0
  0
LINE
  5
14822
330
14522
100
AcDbEntity
  8
寸法線
 62
     0
440
 16777216
370
    -2
100
AcDbLine
 10
2904.004003807826
 20
545.0000364892352
 30
0.0
 11
2904.004003807826
 21
915.0000364892351
 31
0.0
  0
INSERT
  5
14823
330
14522
100
AcDbEntity
  8
寸法線
 62
     0
440
 16777216
370
    -2
100
AcDbBlockReference
  2
_OPEN
 10
2904.004003807826
 20
525.0000364892351
 30
0.0
 41
20.0
 42
20.0
 43
20.0
 50
270.0
  0
INSERT
  5
14824
330
14522
100
AcDbEntity
  8
寸法線
 62
     0
440
 16777216
370
    -2
100
AcDbBlockReference
  2
_OPEN
 10
2904.004003807826
 20
935.0000364892352
 30
0.0
 41
20.0
 42
20.0
 43
20.0
 50
90.0
  0
MTEXT
  5
14825
330
14522
100
AcDbEntity
  8
寸法線
 62
     0
440
 16777216
100
AcDbMText
 10
2882.754003807825
 20
730.0000364892341
 30
0.0
 40
25.0
 41
0.0
 46
0.0
 71
     5
 72
     1
  1
\A1;410
 11
0.0000000000000001
 21
1.0
 31
0.0
 73
     1
 44
1.0
  0
POINT
  5
14826
330
14522
100
AcDbEntity
  8
Defpoints
 62
     0
440
 16777216
100
AcDbPoint
 10
2824.004003807596
 20
525.0000364892351
 30
0.0
  0
POINT
  5
14827
330
14522
100
AcDbEntity
  8
Defpoints
 62
     0
440
 16777216
100
AcDbPoint
 10
2824.004003807596
 20
935.0000364892352
 30
0.0
  0
POINT
  5
14828
330
14522
100
AcDbEntity
  8
Defpoints
 62
     0
440
 16777216
100
AcDbPoint
 10
2904.004003807826
 20
935.0000364892352
 30
0.0
  0
ENDBLK
  5
14524
330
14522
100
AcDbEntity
  8
0
100
AcDbBlockEnd
  0
BLOCK
  5
1452F
330
1452E
100
AcDbEntity
  8
0
100
AcDbBlockBegin
  2
*D34
 70
     1
 10
0.0
 20
0.0
 30
0.0
  3
*D34
  1

  0
LINE
  5
14829
330
1452E
100
AcDbEntity
  8
寸法線
 62
     0
440
 16777216
370
    -2
100
AcDbLine
 10
2515.12582833457
 20
659.9223142061322
 30
0.0
 11
2515.750828334838
 21
658.8397824509445
 31
0.0
  0
LINE
  5
1482A
330
1452E
100
AcDbEntity
  8
寸法線
 62
     0
440
 16777216
370
    -2
100
AcDbLine
 10
2722.882179280649
 20
800.0777587723375
 30
0.0
 11
2722.257179280585
 21
801.1602905271713
 31
0.0
  0
LINE
  5
1482B
330
1452E
100
AcDbEntity
  8
寸法線
 62
     0
440
 16777216
370
    -2
100
AcDbLine
 10
2528.071336410478
 20
677.5000364888207
 30
0.0
 11
2709.936671204945
 21
782.5000364892948
 31
0.0
  0
INSERT
  5
1482C
330
1452E
100
AcDbEntity
  8
寸法線
 62
     0
440
 16777216
370
    -2
100
AcDbBlockReference
  2
_OPEN
 10
2510.750828334816
 20
667.5000364887758
 30
0.0
 41
20.0
 42
20.0
 43
20.0
 50
210.0000000001482
  0
INSERT
  5
1482D
330
1452E
100
AcDbEntity
  8
寸法線
 62
     0
440
 16777216
370
    -2
100
AcDbBlockReference
  2
_OPEN
 10
2727.257179280608
 20
792.5000364893397
 30
0.0
 41
20.0
 42
20.0
 43
20.0
 50
30.00000000014825
  0
MTEXT
  5
1482E
330
1452E
100
AcDbEntity
  8
寸法線
 62
     0
440
 16777216
100
AcDbMText
 10
2657.203022789232
 20
776.5944781122406
 30
0.0
 40
25.0
 41
0.0
 46
0.0
 71
     5
 72
     1
  1
\A1;%%C250
 11
0.8660254037831448
 21
0.5000000000022409
 31
0.0
 73
     1
 44
1.0
  0
POINT
  5
1482F
330
1452E
100
AcDbEntity
  8
Defpoints
 62
     0
440
 16777216
100
AcDbPoint
 10
2510.75082833455
 20
667.5000364892347
 30
0.0
  0
POINT
  5
14830
330
1452E
100
AcDbEntity
  8
Defpoints
 62
     0
440
 16777216
100
AcDbPoint
 10
2727.257179280668
 20
792.5000364892349
 30
0.0
  0
POINT
  5
14831
330
1452E
100
AcDbEntity
  8
Defpoints
 62
     0
440
 16777216
100
AcDbPoint
 10
2727.257179280608
 20
792.5000364893397
 30
0.0
  0
ENDBLK
  5
14530
330
1452E
100
AcDbEntity
  8
0
100
AcDbBlockEnd
  0
BLOCK
  5
1453B
330
1453A
100
AcDbEntity
  8
0
100
AcDbBlockBegin
  2
*D35
 70
     1
 10
0.0
 20
0.0
 30
0.0
  3
*D35
  1

  0
LINE
  5
14832
330
1453A
100
AcDbEntity
  8
寸法線
 62
     0
440
 16777216
370
    -2
100
AcDbLine
 10
1881.474384776242
 20
541.2500182446255
 30
0.0
 11
1881.474384776242
 21
435.0000364892348
 31
0.0
  0
LINE
  5
14833
330
1453A
100
AcDbEntity
  8
寸法線
 62
     0
440
 16777216
370
    -2
100
AcDbLine
 10
2176.474384776242
 20
541.2500182446255
 30
0.0
 11
2176.474384776242
 21
435.0000364892348
 31
0.0
  0
LINE
  5
14834
330
1453A
100
AcDbEntity
  8
寸法線
 62
     0
440
 16777216
370
    -2
100
AcDbLine
 10
1901.474384776242
 20
445.0000364892348
 30
0.0
 11
2156.474384776242
 21
445.0000364892348
 31
0.0
  0
INSERT
  5
14835
330
1453A
100
AcDbEntity
  8
寸法線
 62
     0
440
 16777216
370
    -2
100
AcDbBlockReference
  2
_OPEN
 10
1881.474384776242
 20
445.0000364892348
 30
0.0
 41
20.0
 42
20.0
 43
20.0
 50
180.0
  0
INSERT
  5
14836
330
1453A
100
AcDbEntity
  8
寸法線
 62
     0
440
 16777216
370
    -2
100
AcDbBlockReference
  2
_OPEN
 10
2176.474384776242
 20
445.0000364892348
 30
0.0
 41
20.0
 42
20.0
 43
20.0
  0
MTEXT
  5
14837
330
1453A
100
AcDbEntity
  8
寸法線
 62
     0
440
 16777216
100
AcDbMText
 10
2028.974692632253
 20
466.2524971191561
 30
0.0
 40
25.0
 41
0.0
 46
0.0
 71
     5
 72
     1
  1
\A1;295
 73
     1
 44
1.0
  0
POINT
  5
14838
330
1453A
100
AcDbEntity
  8
Defpoints
 62
     0
440
 16777216
100
AcDbPoint
 10
1881.474384776242
 20
550.0000182446256
 30
0.0
  0
POINT
  5
14839
330
1453A
100
AcDbEntity
  8
Defpoints
 62
     0
440
 16777216
100
AcDbPoint
 10
2176.474384776242
 20
550.0000182446256
 30
0.0
  0
POINT
  5
1483A
330
1453A
100
AcDbEntity
  8
Defpoints
 62
     0
440
 16777216
100
AcDbPoint
 10
2176.474384776242
 20
445.0000364892348
 30
0.0
  0
ENDBLK
  5
1453C
330
1453A
100
AcDbEntity
  8
0
100
AcDbBlockEnd
  0
BLOCK
  5
14547
330
14546
100
AcDbEntity
  8
0
100
AcDbBlockBegin
  2
*D36
 70
     1
 10
0.0
 20
0.0
 30
0.0
  3
*D36
  1

  0
LINE
  5
1483B
330
14546
100
AcDbEntity
  8
寸法線
 62
     0
440
 16777216
370
    -2
100
AcDbLine
 10
2237.724384776243
 20
897.500018244626
 30
0.0
 11
2343.974467926411
 21
897.5000182446263
 31
0.0
  0
LINE
  5
1483C
330
14546
100
AcDbEntity
  8
寸法線
 62
     0
440
 16777216
370
    -2
100
AcDbLine
 10
2222.72446792641
 20
935.0000364892352
 30
0.0
 11
2343.974467926411
 21
935.0000364892354
 31
0.0
  0
LINE
  5
1483D
330
14546
100
AcDbEntity
  8
寸法線
 62
     0
440
 16777216
370
    -2
100
AcDbLine
 10
2333.97446792641
 20
877.5000182446261
 30
0.0
 11
2333.97446792641
 21
857.5000182446261
 31
0.0
  0
LINE
  5
1483E
330
14546
100
AcDbEntity
  8
寸法線
 62
     0
440
 16777216
370
    -2
100
AcDbLine
 10
2333.97446792641
 20
955.0000364892351
 30
0.0
 11
2333.97446792641
 21
975.0000364892354
 31
0.0
  0
LINE
  5
1483F
330
14546
100
AcDbEntity
  8
寸法線
 62
     0
440
 16777216
370
    -2
100
AcDbLine
 10
2333.97446792641
 20
897.5000182446263
 30
0.0
 11
2333.97446792641
 21
935.0000364892354
 31
0.0
  0
INSERT
  5
14840
330
14546
100
AcDbEntity
  8
寸法線
 62
     0
440
 16777216
370
    -2
100
AcDbBlockReference
  2
_OPEN
 10
2333.97446792641
 20
897.5000182446263
 30
0.0
 41
20.0
 42
20.0
 43
20.0
 50
90.0
  0
INSERT
  5
14841
330
14546
100
AcDbEntity
  8
寸法線
 62
     0
440
 16777216
370
    -2
100
AcDbBlockReference
  2
_OPEN
 10
2333.97446792641
 20
935.0000364892354
 30
0.0
 41
20.0
 42
20.0
 43
20.0
 50
270.0
  0
MTEXT
  5
14842
330
14546
100
AcDbEntity
  8
寸法線
 62
     0
440
 16777216
100
AcDbMText
 10
2312.724467926409
 20
916.2500273669298
 30
0.0
 40
25.0
 41
0.0
 46
0.0
 71
     5
 72
     1
  1
\A1;37.5
 11
0.0000000000000001
 21
1.0
 31
0.0
 73
     1
 44
1.0
  0
POINT
  5
14843
330
14546
100
AcDbEntity
  8
Defpoints
 62
     0
440
 16777216
100
AcDbPoint
 10
2228.974384776243
 20
897.500018244626
 30
0.0
  0
POINT
  5
14844
330
14546
100
AcDbEntity
  8
Defpoints
 62
     0
440
 16777216
100
AcDbPoint
 10
2213.97446792641
 20
935.0000364892352
 30
0.0
  0
POINT
  5
14845
330
14546
100
AcDbEntity
  8
Defpoints
 62
     0
440
 16777216
100
AcDbPoint
 10
2333.97446792641
 20
935.0000364892354
 30
0.0
  0
ENDBLK
  5
14548
330
14546
100
AcDbEntity
  8
0
100
AcDbBlockEnd
  0
BLOCK
  5
14555
330
14554
100
AcDbEntity
  8
0
100
AcDbBlockBegin
  2
*D37
 70
     1
 10
0.0
 20
0.0
 30
0.0
  3
*D37
  1

  0
LINE
  5
14846
330
14554
100
AcDbEntity
  8
寸法線
 62
     0
440
 16777216
370
    -2
100
AcDbLine
 10
2237.724384776243
 20
602.5000182446258
 30
0.0
 11
2343.974467926411
 21
602.5000182446258
 31
0.0
  0
LINE
  5
14847
330
14554
100
AcDbEntity
  8
寸法線
 62
     0
440
 16777216
370
    -2
100
AcDbLine
 10
2237.724384776243
 20
897.500018244626
 30
0.0
 11
2343.974467926411
 21
897.5000182446263
 31
0.0
  0
LINE
  5
14848
330
14554
100
AcDbEntity
  8
寸法線
 62
     0
440
 16777216
370
    -2
100
AcDbLine
 10
2333.97446792641
 20
622.5000182446258
 30
0.0
 11
2333.97446792641
 21
877.5000182446261
 31
0.0
  0
INSERT
  5
14849
330
14554
100
AcDbEntity
  8
寸法線
 62
     0
440
 16777216
370
    -2
100
AcDbBlockReference
  2
_OPEN
 10
2333.97446792641
 20
602.5000182446258
 30
0.0
 41
20.0
 42
20.0
 43
20.0
 50
270.0
  0
INSERT
  5
1484A
330
14554
100
AcDbEntity
  8
寸法線
 62
     0
440
 16777216
370
    -2
100
AcDbBlockReference
  2
_OPEN
 10
2333.97446792641
 20
897.5000182446263
 30
0.0
 41
20.0
 42
20.0
 43
20.0
 50
90.0
  0
MTEXT
  5
1484B
330
14554
100
AcDbEntity
  8
寸法線
 62
     0
440
 16777216
100
AcDbMText
 10
2312.722007296489
 20
750.000270917184
 30
0.0
 40
25.0
 41
0.0
 46
0.0
 71
     5
 72
     1
  1
\A1;295
 11
0.0000000000000001
 21
1.0
 31
0.0
 73
     1
 44
1.0
  0
POINT
  5
1484C
330
14554
100
AcDbEntity
  8
Defpoints
 62
     0
440
 16777216
100
AcDbPoint
 10
2228.974384776243
 20
602.5000182446258
 30
0.0
  0
POINT
  5
1484D
330
14554
100
AcDbEntity
  8
Defpoints
 62
     0
440
 16777216
100
AcDbPoint
 10
2228.974384776243
 20
897.500018244626
 30
0.0
  0
POINT
  5
1484E
330
14554
100
AcDbEntity
  8
Defpoints
 62
     0
440
 16777216
100
AcDbPoint
 10
2333.97446792641
 20
897.5000182446263
 30
0.0
  0
ENDBLK
  5
14556
330
14554
100
AcDbEntity
  8
0
100
AcDbBlockEnd
  0
BLOCK
  5
14561
330
14560
100
AcDbEntity
  8
0
100
AcDbBlockBegin
  2
*D38
 70
     1
 10
0.0
 20
0.0
 30
0.0
  3
*D38
  1

  0
LINE
  5
1484F
330
14560
100
AcDbEntity
  8
寸法線
 62
     0
440
 16777216
370
    -2
100
AcDbLine
 10
2222.72446792641
 20
565.0000364892349
 30
0.0
 11
2343.974467926411
 21
565.0000364892352
 31
0.0
  0
LINE
  5
14850
330
14560
100
AcDbEntity
  8
寸法線
 62
     0
440
 16777216
370
    -2
100
AcDbLine
 10
2237.724384776243
 20
602.5000182446258
 30
0.0
 11
2343.974467926411
 21
602.5000182446258
 31
0.0
  0
LINE
  5
14851
330
14560
100
AcDbEntity
  8
寸法線
 62
     0
440
 16777216
370
    -2
100
AcDbLine
 10
2333.97446792641
 20
545.0000364892352
 30
0.0
 11
2333.97446792641
 21
525.0000364892351
 31
0.0
  0
LINE
  5
14852
330
14560
100
AcDbEntity
  8
寸法線
 62
     0
440
 16777216
370
    -2
100
AcDbLine
 10
2333.97446792641
 20
622.5000182446258
 30
0.0
 11
2333.97446792641
 21
642.5000182446258
 31
0.0
  0
LINE
  5
14853
330
14560
100
AcDbEntity
  8
寸法線
 62
     0
440
 16777216
370
    -2
100
AcDbLine
 10
2333.97446792641
 20
565.0000364892352
 30
0.0
 11
2333.97446792641
 21
602.5000182446258
 31
0.0
  0
INSERT
  5
14854
330
14560
100
AcDbEntity
  8
寸法線
 62
     0
440
 16777216
370
    -2
100
AcDbBlockReference
  2
_OPEN
 10
2333.97446792641
 20
565.0000364892352
 30
0.0
 41
20.0
 42
20.0
 43
20.0
 50
90.0
  0
INSERT
  5
14855
330
14560
100
AcDbEntity
  8
寸法線
 62
     0
440
 16777216
370
    -2
100
AcDbBlockReference
  2
_OPEN
 10
2333.97446792641
 20
602.5000182446258
 30
0.0
 41
20.0
 42
20.0
 43
20.0
 50
270.0
  0
MTEXT
  5
14856
330
14560
100
AcDbEntity
  8
寸法線
 62
     0
440
 16777216
100
AcDbMText
 10
2312.724467926409
 20
583.7500273669298
 30
0.0
 40
25.0
 41
0.0
 46
0.0
 71
     5
 72
     1
  1
\A1;37.5
 11
0.0000000000000001
 21
1.0
 31
0.0
 73
     1
 44
1.0
  0
POINT
  5
14857
330
14560
100
AcDbEntity
  8
Defpoints
 62
     0
440
 16777216
100
AcDbPoint
 10
2213.97446792641
 20
565.0000364892349
 30
0.0
  0
POINT
  5
14858
330
14560
100
AcDbEntity
  8
Defpoints
 62
     0
440
 16777216
100
AcDbPoint
 10
2228.974384776243
 20
602.5000182446258
 30
0.0
  0
POINT
  5
14859
330
14560
100
AcDbEntity
  8
Defpoints
 62
     0
440
 16777216
100
AcDbPoint
 10
2333.97446792641
 20
602.5000182446258
 30
0.0
  0
ENDBLK
  5
14562
330
14560
100
AcDbEntity
  8
0
100
AcDbBlockEnd
  0
BLOCK
  5
1456F
330
1456E
100
AcDbEntity
  8
0
100
AcDbBlockBegin
  2
*D39
 70
     1
 10
0.0
 20
0.0
 30
0.0
  3
*D39
  1

  0
LINE
  5
1485A
330
1456E
100
AcDbEntity
  8
寸法線
 62
     0
440
 16777216
370
    -2
100
AcDbLine
 10
2176.474384776242
 20
541.2500182446255
 30
0.0
 11
2176.474384776242
 21
435.0000364892348
 31
0.0
  0
LINE
  5
1485B
330
1456E
100
AcDbEntity
  8
寸法線
 62
     0
440
 16777216
370
    -2
100
AcDbLine
 10
2213.974467926409
 20
556.2500364892348
 30
0.0
 11
2213.974467926409
 21
435.0000364892348
 31
0.0
  0
LINE
  5
1485C
330
1456E
100
AcDbEntity
  8
寸法線
 62
     0
440
 16777216
370
    -2
100
AcDbLine
 10
2156.474384776242
 20
445.0000364892348
 30
0.0
 11
2136.474384776242
 21
445.0000364892348
 31
0.0
  0
LINE
  5
1485D
330
1456E
100
AcDbEntity
  8
寸法線
 62
     0
440
 16777216
370
    -2
100
AcDbLine
 10
2233.97446792641
 20
445.0000364892348
 30
0.0
 11
2253.974467926409
 21
445.0000364892348
 31
0.0
  0
LINE
  5
1485E
330
1456E
100
AcDbEntity
  8
寸法線
 62
     0
440
 16777216
370
    -2
100
AcDbLine
 10
2176.474384776242
 20
445.0000364892348
 30
0.0
 11
2213.974467926409
 21
445.0000364892348
 31
0.0
  0
INSERT
  5
1485F
330
1456E
100
AcDbEntity
  8
寸法線
 62
     0
440
 16777216
370
    -2
100
AcDbBlockReference
  2
_OPEN
 10
2176.474384776242
 20
445.0000364892348
 30
0.0
 41
20.0
 42
20.0
 43
20.0
  0
INSERT
  5
14860
330
1456E
100
AcDbEntity
  8
寸法線
 62
     0
440
 16777216
370
    -2
100
AcDbBlockReference
  2
_OPEN
 10
2213.974467926409
 20
445.0000364892348
 30
0.0
 41
20.0
 42
20.0
 43
20.0
 50
180.0
  0
MTEXT
  5
14861
330
1456E
100
AcDbEntity
  8
寸法線
 62
     0
440
 16777216
100
AcDbMText
 10
2195.224426351326
 20
466.2500364892348
 30
0.0
 40
25.0
 41
0.0
 46
0.0
 71
     5
 72
     1
  1
\A1;37.5
 73
     1
 44
1.0
  0
POINT
  5
14862
330
1456E
100
AcDbEntity
  8
Defpoints
 62
     0
440
 16777216
100
AcDbPoint
 10
2176.474384776242
 20
550.0000182446256
 30
0.0
  0
POINT
  5
14863
330
1456E
100
AcDbEntity
  8
Defpoints
 62
     0
440
 16777216
100
AcDbPoint
 10
2213.974467926409
 20
565.0000364892347
 30
0.0
  0
POINT
  5
14864
330
1456E
100
AcDbEntity
  8
Defpoints
 62
     0
440
 16777216
100
AcDbPoint
 10
2213.974467926409
 20
445.0000364892348
 30
0.0
  0
ENDBLK
  5
14570
330
1456E
100
AcDbEntity
  8
0
100
AcDbBlockEnd
  0
BLOCK
  5
1457D
330
1457C
100
AcDbEntity
  8
0
100
AcDbBlockBegin
  2
*D40
 70
     1
 10
0.0
 20
0.0
 30
0.0
  3
*D40
  1

  0
LINE
  5
14796
330
1457C
100
AcDbEntity
  8
寸法線
 62
     0
440
 16777216
370
    -2
100
AcDbLine
 10
1624.254003807596
 20
869.9999999999588
 30
0.0
 11
1623.004003807595
 21
869.9999999999588
 31
0.0
  0
LINE
  5
14797
330
1457C
100
AcDbEntity
  8
寸法線
 62
     0
440
 16777216
370
    -2
100
AcDbLine
 10
1624.254003807596
 20
924.9999999999586
 30
0.0
 11
1623.004003807595
 21
924.9999999999586
 31
0.0
  0
LINE
  5
14798
330
1457C
100
AcDbEntity
  8
寸法線
 62
     0
440
 16777216
370
    -2
100
AcDbLine
 10
1633.004003807595
 20
944.9999999999588
 30
0.0
 11
1633.004003807595
 21
964.9999999999586
 31
0.0
  0
LINE
  5
14799
330
1457C
100
AcDbEntity
  8
寸法線
 62
     0
440
 16777216
370
    -2
100
AcDbLine
 10
1633.004003807595
 20
849.9999999999586
 30
0.0
 11
1633.004003807595
 21
761.4644660940118
 31
0.0
  0
LINE
  5
1479A
330
1457C
100
AcDbEntity
  8
寸法線
 62
     0
440
 16777216
370
    -2
100
AcDbLine
 10
1633.004003807595
 20
924.9999999999586
 30
0.0
 11
1633.004003807595
 21
869.9999999999588
 31
0.0
  0
INSERT
  5
1479B
330
1457C
100
AcDbEntity
  8
寸法線
 62
     0
440
 16777216
370
    -2
100
AcDbBlockReference
  2
_OPEN
 10
1633.004003807595
 20
924.9999999999586
 30
0.0
 41
20.0
 42
20.0
 43
20.0
 50
270.0
  0
INSERT
  5
1479C
330
1457C
100
AcDbEntity
  8
寸法線
 62
     0
440
 16777216
370
    -2
100
AcDbBlockReference
  2
_OPEN
 10
1633.004003807595
 20
869.9999999999588
 30
0.0
 41
20.0
 42
20.0
 43
20.0
 50
90.0
  0
MTEXT
  5
1479D
330
1457C
100
AcDbEntity
  8
寸法線
 62
     0
440
 16777216
100
AcDbMText
 10
1611.754003807595
 20
795.7322330469779
 30
0.0
 40
25.0
 41
0.0
 46
0.0
 71
     5
 72
     1
  1
\A1;%%C55
 11
0.0000000000000001
 21
1.0
 31
0.0
 73
     1
 44
1.0
  0
POINT
  5
1479E
330
1457C
100
AcDbEntity
  8
Defpoints
 62
     0
440
 16777216
100
AcDbPoint
 10
1633.004003807595
 20
869.9999999999588
 30
0.0
  0
POINT
  5
1479F
330
1457C
100
AcDbEntity
  8
Defpoints
 62
     0
440
 16777216
100
AcDbPoint
 10
1633.004003807595
 20
924.9999999999586
 30
0.0
  0
POINT
  5
147A0
330
1457C
100
AcDbEntity
  8
Defpoints
 62
     0
440
 16777216
100
AcDbPoint
 10
1633.004003807595
 20
924.9999999999586
 30
0.0
  0
ENDBLK
  5
1457E
330
1457C
100
AcDbEntity
  8
0
100
AcDbBlockEnd
  0
BLOCK
  5
1458B
330
1458A
100
AcDbEntity
  8
0
100
AcDbBlockBegin
  2
*D41
 70
     1
 10
0.0
 20
0.0
 30
0.0
  3
*D41
  1

  0
LINE
  5
147A1
330
1458A
100
AcDbEntity
  8
寸法線
 62
     0
440
 16777216
370
    -2
100
AcDbLine
 10
1301.004003807595
 20
963.749999999958
 30
0.0
 11
1301.004003807595
 21
1065.000014843657
 31
0.0
  0
LINE
  5
147A2
330
1458A
100
AcDbEntity
  8
寸法線
 62
     0
440
 16777216
370
    -2
100
AcDbLine
 10
1317.004003807595
 20
963.749999999958
 30
0.0
 11
1317.004003807595
 21
1065.000014843657
 31
0.0
  0
LINE
  5
147A3
330
1458A
100
AcDbEntity
  8
寸法線
 62
     0
440
 16777216
370
    -2
100
AcDbLine
 10
1281.004003807595
 20
1055.000014843657
 30
0.0
 11
1261.004003807595
 21
1055.000014843657
 31
0.0
  0
LINE
  5
147A4
330
1458A
100
AcDbEntity
  8
寸法線
 62
     0
440
 16777216
370
    -2
100
AcDbLine
 10
1337.004003807595
 20
1055.000014843657
 30
0.0
 11
1357.004003807595
 21
1055.000014843657
 31
0.0
  0
LINE
  5
147A5
330
1458A
100
AcDbEntity
  8
寸法線
 62
     0
440
 16777216
370
    -2
100
AcDbLine
 10
1301.004003807595
 20
1055.000014843657
 30
0.0
 11
1317.004003807595
 21
1055.000014843657
 31
0.0
  0
INSERT
  5
147A6
330
1458A
100
AcDbEntity
  8
寸法線
 62
     0
440
 16777216
370
    -2
100
AcDbBlockReference
  2
_OPEN
 10
1301.004003807595
 20
1055.000014843657
 30
0.0
 41
20.0
 42
20.0
 43
20.0
  0
INSERT
  5
147A7
330
1458A
100
AcDbEntity
  8
寸法線
 62
     0
440
 16777216
370
    -2
100
AcDbBlockReference
  2
_OPEN
 10
1317.004003807595
 20
1055.000014843657
 30
0.0
 41
20.0
 42
20.0
 43
20.0
 50
180.0
  0
MTEXT
  5
147A8
330
1458A
100
AcDbEntity
  8
寸法線
 62
     0
440
 16777216
100
AcDbMText
 10
1309.004003807595
 20
1076.250014843657
 30
0.0
 40
25.0
 41
0.0
 46
0.0
 71
     5
 72
     1
  1
\A1;16
 73
     1
 44
1.0
  0
POINT
  5
147A9
330
1458A
100
AcDbEntity
  8
Defpoints
 62
     0
440
 16777216
100
AcDbPoint
 10
1301.004003807595
 20
954.9999999999581
 30
0.0
  0
POINT
  5
147AA
330
1458A
100
AcDbEntity
  8
Defpoints
 62
     0
440
 16777216
100
AcDbPoint
 10
1317.004003807595
 20
954.9999999999581
 30
0.0
  0
POINT
  5
147AB
330
1458A
100
AcDbEntity
  8
Defpoints
 62
     0
440
 16777216
100
AcDbPoint
 10
1317.004003807595
 20
1055.000014843657
 30
0.0
  0
ENDBLK
  5
1458C
330
1458A
100
AcDbEntity
  8
0
100
AcDbBlockEnd
  0
BLOCK
  5
14599
330
14598
100
AcDbEntity
  8
0
100
AcDbBlockBegin
  2
*D42
 70
     1
 10
0.0
 20
0.0
 30
0.0
  3
*D42
  1

  0
LINE
  5
14865
330
14598
100
AcDbEntity
  8
寸法線
 62
     0
440
 16777216
370
    -2
100
AcDbLine
 10
1881.474384776242
 20
541.2500182446255
 30
0.0
 11
1881.474384776242
 21
435.0000364892348
 31
0.0
  0
LINE
  5
14866
330
14598
100
AcDbEntity
  8
寸法線
 62
     0
440
 16777216
370
    -2
100
AcDbLine
 10
1843.974501626084
 20
556.2500364892348
 30
0.0
 11
1843.974501626084
 21
435.0000364892348
 31
0.0
  0
LINE
  5
14867
330
14598
100
AcDbEntity
  8
寸法線
 62
     0
440
 16777216
370
    -2
100
AcDbLine
 10
1901.474384776242
 20
445.0000364892348
 30
0.0
 11
1921.474384776242
 21
445.0000364892348
 31
0.0
  0
LINE
  5
14868
330
14598
100
AcDbEntity
  8
寸法線
 62
     0
440
 16777216
370
    -2
100
AcDbLine
 10
1823.974501626084
 20
445.0000364892348
 30
0.0
 11
1803.974501626084
 21
445.0000364892348
 31
0.0
  0
LINE
  5
14869
330
14598
100
AcDbEntity
  8
寸法線
 62
     0
440
 16777216
370
    -2
100
AcDbLine
 10
1881.474384776242
 20
445.0000364892348
 30
0.0
 11
1843.974501626084
 21
445.0000364892348
 31
0.0
  0
INSERT
  5
1486A
330
14598
100
AcDbEntity
  8
寸法線
 62
     0
440
 16777216
370
    -2
100
AcDbBlockReference
  2
_OPEN
 10
1881.474384776242
 20
445.0000364892348
 30
0.0
 41
20.0
 42
20.0
 43
20.0
 50
180.0
  0
INSERT
  5
1486B
330
14598
100
AcDbEntity
  8
寸法線
 62
     0
440
 16777216
370
    -2
100
AcDbBlockReference
  2
_OPEN
 10
1843.974501626084
 20
445.0000364892348
 30
0.0
 41
20.0
 42
20.0
 43
20.0
  0
MTEXT
  5
1486C
330
14598
100
AcDbEntity
  8
寸法線
 62
     0
440
 16777216
100
AcDbMText
 10
1862.724443201163
 20
466.2500364892348
 30
0.0
 40
25.0
 41
0.0
 46
0.0
 71
     5
 72
     1
  1
\A1;37.5
 73
     1
 44
1.0
  0
POINT
  5
1486D
330
14598
100
AcDbEntity
  8
Defpoints
 62
     0
440
 16777216
100
AcDbPoint
 10
1881.474384776242
 20
550.0000182446256
 30
0.0
  0
POINT
  5
1486E
330
14598
100
AcDbEntity
  8
Defpoints
 62
     0
440
 16777216
100
AcDbPoint
 10
1843.974501626084
 20
565.0000364892347
 30
0.0
  0
POINT
  5
1486F
330
14598
100
AcDbEntity
  8
Defpoints
 62
     0
440
 16777216
100
AcDbPoint
 10
1843.974501626084
 20
445.0000364892348
 30
0.0
  0
ENDBLK
  5
1459A
330
14598
100
AcDbEntity
  8
0
100
AcDbBlockEnd
  0
BLOCK
  5
14947
330
14946
100
AcDbEntity
  8
0
100
AcDbBlockBegin
  2
*D43
 70
     1
 10
0.0
 20
0.0
 30
0.0
  3
*D43
  1

  0
LINE
  5
14A1E
330
14946
100
AcDbEntity
  8
寸法線
 62
     0
440
 16777216
370
    -2
100
AcDbLine
 10
-8.750000000000001
 20
2970.000000000001
 30
0.0
 11
-1440.307214051759
 21
2970.0
 31
0.0
  0
LINE
  5
14A1F
330
14946
100
AcDbEntity
  8
寸法線
 62
     0
440
 16777216
370
    -2
100
AcDbLine
 10
573.749944169806
 20
2269.999995864484
 30
0.0
 11
-1440.307214051759
 21
2269.999995864483
 31
0.0
  0
LINE
  5
14A20
330
14946
100
AcDbEntity
  8
寸法線
 62
     0
440
 16777216
370
    -2
100
AcDbLine
 10
-1430.307214051759
 20
2950.000000000001
 30
0.0
 11
-1430.307214051759
 21
2289.999995864483
 31
0.0
  0
INSERT
  5
14A21
330
14946
100
AcDbEntity
  8
寸法線
 62
     0
440
 16777216
370
    -2
100
AcDbBlockReference
  2
_OPEN
 10
-1430.307214051759
 20
2970.0
 30
0.0
 41
20.0
 42
20.0
 43
20.0
 50
90.0
  0
INSERT
  5
14A22
330
14946
100
AcDbEntity
  8
寸法線
 62
     0
440
 16777216
370
    -2
100
AcDbBlockReference
  2
_OPEN
 10
-1430.307214051759
 20
2269.999995864483
 30
0.0
 41
20.0
 42
20.0
 43
20.0
 50
270.0
  0
MTEXT
  5
14A23
330
14946
100
AcDbEntity
  8
寸法線
 62
     0
440
 16777216
100
AcDbMText
 10
-1451.557214051758
 20
2619.999997932242
 30
0.0
 40
25.0
 41
0.0
 46
0.0
 71
     5
 72
     1
  1
\A1;700
 11
0.0000000000000001
 21
1.0
 31
0.0
 73
     1
 44
1.0
  0
POINT
  5
14A24
330
14946
100
AcDbEntity
  8
Defpoints
 62
     0
440
 16777216
100
AcDbPoint
 10
0.0
 20
2970.000000000001
 30
0.0
  0
POINT
  5
14A25
330
14946
100
AcDbEntity
  8
Defpoints
 62
     0
440
 16777216
100
AcDbPoint
 10
582.499944169806
 20
2269.999995864484
 30
0.0
  0
POINT
  5
14A26
330
14946
100
AcDbEntity
  8
Defpoints
 62
     0
440
 16777216
100
AcDbPoint
 10
-1430.307214051759
 20
2269.999995864483
 30
0.0
  0
ENDBLK
  5
14948
330
14946
100
AcDbEntity
  8
0
100
AcDbBlockEnd
  0
ENDSEC
  0
SECTION
  2
ENTITIES
  0
LWPOLYLINE
  5
13BD3
330
1F
100
AcDbEntity
  8
Defpoints
100
AcDbPolyline
 90
        4
 70
     1
 43
0.0
 10
0.0
 20
0.0
 10
4200.0
 20
0.0
 10
4200.0
 20
2970.0
 10
0.0
 20
2970.0
  0
LWPOLYLINE
  5
13BD4
330
1F
100
AcDbEntity
  8
Defpoints
100
AcDbPolyline
 90
        4
 70
     1
 43
0.0
 10
69.00399999999989
 20
69.10750000000007
 10
4130.995999999998
 20
69.10750000000007
 10
4130.995999999998
 20
2900.8925
 10
69.00399999999989
 20
2900.8925
  0
LINE
  5
13BD5
330
1F
100
AcDbEntity
  8
中心線
100
AcDbLine
 10
677.4999639829156
 20
2269.999999999999
 30
0.0
 11
2527.499963982916
 21
2269.999999999999
 31
0.0
  0
LINE
  5
13BD6
330
1F
100
AcDbEntity
  8
中心線
100
AcDbLine
 10
677.4999639829156
 20
1670.000034786936
 30
0.0
 11
2527.499963982916
 21
1670.000034786936
 31
0.0
  0
DIMENSION
  5
13BD7
330
1F
100
AcDbEntity
  8
寸法線
100
AcDbDimension
280
     0
  2
*D7
 10
2002.499979077721
 20
1335.000034786936
 30
0.0
 11
1602.499979077721
 21
1356.250034786936
 31
0.0
 70
    32
 71
     5
 42
800.0
 73
     0
 74
     0
 75
     0
  3
STANDARD
100
AcDbAlignedDimension
 13
1202.499979077721
 23
1485.000073709391
 33
0.0
 14
2002.499979077721
 24
1485.000073709391
 34
0.0
100
AcDbRotatedDimension
  0
DIMENSION
  5
13BD8
330
1F
100
AcDbEntity
  8
寸法線
100
AcDbDimension
280
     0
  2
*D8
 10
1202.499979077721
 20
1335.000034786936
 30
0.0
 11
952.4999616237632
 21
1356.250034786936
 31
0.0
 70
    32
 71
     5
 42
500.0000349079156
 73
     0
 74
     0
 75
     0
  3
STANDARD
100
AcDbAlignedDimension
 13
702.4999441698054
 23
1495.000034786936
 33
0.0
 14
1202.499979077721
 24
1485.000073709391
 34
0.0
100
AcDbRotatedDimension
  0
DIMENSION
  5
13BD9
330
1F
100
AcDbEntity
  8
寸法線
100
AcDbDimension
280
     0
  2
*D9
 10
582.499944169806
 20
1495.000034786937
 30
0.0
 11
582.4999441698063
 21
1670.000034786936
 31
0.0
 70
   160
 71
     5
 42
350.0000372196735
 73
     0
 74
     0
 75
     0
  3
STANDARD
100
AcDbAlignedDimension
 13
702.4999441698054
 23
1845.00007200661
 33
0.0
 14
702.4999441698054
 24
1495.000034786936
 34
0.0
 50
90.0
100
AcDbRotatedDimension
  0
DIMENSION
  5
13BDA
330
1F
100
AcDbEntity
  8
寸法線
100
AcDbDimension
280
     0
  2
*D10
 10
718.4999639829158
 20
2604.999942832917
 30
0.0
 11
710.4999540763606
 21
2604.999942832917
 31
0.0
 70
   160
 71
     5
 42
16.00001981311038
 73
     0
 74
     0
 75
     0
  3
STANDARD
100
AcDbAlignedDimension
 13
702.4999441698054
 23
2438.000037219678
 33
0.0
 14
718.4999639829158
 24
2444.999999999999
 34
0.0
100
AcDbRotatedDimension
  0
DIMENSION
  5
13BDB
330
1F
100
AcDbEntity
  8
寸法線
100
AcDbDimension
280
     0
  2
*D11
 10
1202.499979077721
 20
2604.999942832917
 30
0.0
 11
960.499971530301
 21
2604.999942832917
 31
0.0
 70
   160
 71
     5
 42
484.0000150948052
 73
     0
 74
     0
 75
     0
  3
STANDARD
100
AcDbAlignedDimension
 13
718.4999639829158
 23
2444.999999999999
 33
0.0
 14
1202.499979077721
 24
2455.000057167085
 34
0.0
100
AcDbRotatedDimension
  0
DIMENSION
  5
13BDC
330
1F
100
AcDbEntity
  8
寸法線
100
AcDbDimension
280
     0
  2
*D12
 10
582.4999441698058
 20
2094.999991728965
 30
0.0
 11
582.4999441698063
 21
2269.999999999999
 31
0.0
 70
   160
 71
     5
 42
350.0000082710349
 73
     0
 74
     0
 75
     0
  3
STANDARD
100
AcDbAlignedDimension
 13
718.4999639829158
 23
2444.999999999999
 33
0.0
 14
718.4999441698054
 24
2094.999991728964
 34
0.0
 50
90.0
100
AcDbRotatedDimension
  0
DIMENSION
  5
13BDD
330
1F
100
AcDbEntity
  8
寸法線
100
AcDbDimension
280
     0
  2
*D13
 10
2486.499924356698
 20
2604.999942832917
 30
0.0
 11
2494.499934263253
 21
2604.999942832917
 31
0.0
 70
   160
 71
     5
 42
16.00001981310924
 73
     0
 74
     0
 75
     0
  3
STANDARD
100
AcDbAlignedDimension
 13
2502.499944169807
 23
2438.000037219678
 33
0.0
 14
2486.499924356698
 24
2444.999999999999
 34
0.0
 50
180.0
100
AcDbRotatedDimension
  0
DIMENSION
  5
13BDE
330
1F
100
AcDbEntity
  8
寸法線
100
AcDbDimension
280
     0
  2
*D14
 10
2002.499909261894
 20
2604.999942832917
 30
0.0
 11
2244.499916809296
 21
2604.999942832917
 31
0.0
 70
   160
 71
     5
 42
484.0000150948042
 73
     0
 74
     0
 75
     0
  3
STANDARD
100
AcDbAlignedDimension
 13
2486.499924356698
 23
2444.999999999999
 33
0.0
 14
2002.499909261894
 24
2455.000057167085
 34
0.0
 50
180.0
100
AcDbRotatedDimension
  0
DIMENSION
  5
13BDF
330
1F
100
AcDbEntity
  8
寸法線
100
AcDbDimension
280
     0
  2
*D15
 10
1202.499979077721
 20
2684.999942832917
 30
0.0
 11
952.4999616237629
 21
2684.999942832917
 31
0.0
 70
   160
  1
<>\XH型鋼（連結部）
 71
     5
 42
500.0000349079156
 73
     0
 74
     0
 75
     0
  3
STANDARD
100
AcDbAlignedDimension
 13
702.4999441698054
 23
2438.000037219678
 33
0.0
 14
1202.499979077721
 24
2455.000057167085
 34
0.0
100
AcDbRotatedDimension
  0
DIMENSION
  5
13BE0
330
1F
100
AcDbEntity
  8
寸法線
100
AcDbDimension
280
     0
  2
*D16
 10
2502.499944169807
 20
2684.999942832917
 30
0.0
 11
2252.499926715851
 21
2684.999942832917
 31
0.0
 70
   160
  1
<>\XH型鋼（連結部）
 71
     5
 42
500.0000349079134
 73
     0
 74
     0
 75
     0
  3
STANDARD
100
AcDbAlignedDimension
 13
2002.499909261894
 23
2455.000057167085
 33
0.0
 14
2502.499944169807
 24
2438.000037219678
 34
0.0
100
AcDbRotatedDimension
  0
DIMENSION
  5
13BE1
330
1F
100
AcDbEntity
  8
寸法線
100
AcDbDimension
280
     0
  2
*D17
 10
2622.499963982916
 20
2101.999962780327
 30
0.0
 11
2622.499963982916
 21
2269.999999999999
 31
0.0
 70
   160
 71
     5
 42
336.0000744393515
 73
     0
 74
     0
 75
     0
  3
STANDARD
100
AcDbAlignedDimension
 13
2502.499944169807
 23
2438.000037219678
 33
0.0
 14
2502.499944169807
 24
2101.999962780326
 34
0.0
 50
90.0
100
AcDbRotatedDimension
  0
DIMENSION
  5
13BE2
330
1F
100
AcDbEntity
  8
寸法線
100
AcDbDimension
280
     0
  2
*D18
 10
2002.49997570422
 20
1335.000034786941
 30
0.0
 11
2252.499976179902
 21
1356.250029164444
 31
0.0
 70
    32
 71
     5
 42
499.9999999955393
 73
     0
 74
     0
 75
     0
  3
STANDARD
100
AcDbAlignedDimension
 13
2502.499979298156
 23
1495.000003751649
 33
0.0
 14
2002.499979077718
 24
1485.000036489717
 34
0.0
 50
179.9999987114188
100
AcDbRotatedDimension
  0
DIMENSION
  5
13BE3
330
1F
100
AcDbEntity
  8
寸法線
100
AcDbDimension
280
     0
  2
*D19
 10
2002.499979077718
 20
2684.999942832917
 30
0.0
 11
1602.499979077718
 21
2684.999942832917
 31
0.0
 70
    32
  1
W=<>\X空洞金具
 71
     5
 42
799.9999999999998
 73
     0
 74
     0
 75
     0
  3
STANDARD
100
AcDbAlignedDimension
 13
1202.499979077718
 23
2454.999999999999
 33
0.0
 14
2002.499979077718
 24
2455.000001702781
 34
0.0
100
AcDbRotatedDimension
  0
DIMENSION
  5
13BE4
330
1F
100
AcDbEntity
  8
寸法線
100
AcDbDimension
280
     0
  2
*D20
 10
2502.499944169807
 20
2764.999942832917
 30
0.0
 11
1602.499944169806
 21
2786.249942832917
 31
0.0
 70
    32
  1
スルーサーＢ L=<>
 71
     5
 42
1800.000000000002
 73
     0
 74
     0
 75
     0
  3
STANDARD
100
AcDbAlignedDimension
 13
702.4999441698054
 23
2438.000037219678
 33
0.0
 14
2502.499944169807
 24
2438.000037219678
 34
0.0
100
AcDbRotatedDimension
  0
LINE
  5
13BE5
330
1F
100
AcDbEntity
  8
実線
100
AcDbLine
 10
1218.499979077718
 20
2085.00001994741
 30
0.0
 11
1218.499979077718
 21
2455.00001994741
 31
0.0
  0
LINE
  5
13BE6
330
1F
100
AcDbEntity
  8
実線
100
AcDbLine
 10
1202.499979077718
 20
2455.000001702781
 30
0.0
 11
1218.499979077718
 21
2455.000001702781
 31
0.0
  0
LINE
  5
13BE7
330
1F
100
AcDbEntity
  8
実線
100
AcDbLine
 10
1202.499979077718
 20
2085.000001702781
 30
0.0
 11
1218.499979077718
 21
2085.000001702781
 31
0.0
  0
LINE
  5
13BE8
330
1F
100
AcDbEntity
  8
実線
100
AcDbLine
 10
1230.499979077718
 20
2145.500001702781
 30
0.0
 11
1250.499979077718
 21
2145.500001702781
 31
0.0
  0
LINE
  5
13BE9
330
1F
100
AcDbEntity
  8
実線
100
AcDbLine
 10
1250.499979077718
 20
2145.500001702781
 30
0.0
 11
1250.499979077718
 21
2394.500001702781
 31
0.0
  0
LINE
  5
13BEA
330
1F
100
AcDbEntity
  8
実線
100
AcDbLine
 10
1954.499979077718
 20
2145.500001702781
 30
0.0
 11
1954.499979077718
 21
2394.500001702781
 31
0.0
  0
LINE
  5
13BEB
330
1F
100
AcDbEntity
  8
実線
100
AcDbLine
 10
1954.499979077718
 20
2145.500001702781
 30
0.0
 11
1974.499979077718
 21
2145.500001702781
 31
0.0
  0
LINE
  5
13BEC
330
1F
100
AcDbEntity
  8
実線
100
AcDbLine
 10
1218.499979077718
 20
2157.50000170278
 30
0.0
 11
1230.499979077718
 21
2145.500001702781
 31
0.0
  0
LINE
  5
13BED
330
1F
100
AcDbEntity
  8
実線
100
AcDbLine
 10
1974.499979077718
 20
2145.500001702781
 30
0.0
 11
1986.499979077718
 21
2157.50000170278
 31
0.0
  0
LINE
  5
13BEE
330
1F
100
AcDbEntity
  8
実線
100
AcDbLine
 10
1218.499979077718
 20
2150.000001702781
 30
0.0
 11
1225.499979077718
 21
2150.000001702781
 31
0.0
  0
LINE
  5
13BEF
330
1F
100
AcDbEntity
  8
実線
100
AcDbLine
 10
1218.499979077718
 20
2095.00000170278
 30
0.0
 11
1594.500030870232
 21
2095.00000170278
 31
0.0
  0
LINE
  5
13BF0
330
1F
100
AcDbEntity
  8
実線
100
AcDbLine
 10
1979.499979077718
 20
2150.000001702781
 30
0.0
 11
1986.499979077718
 21
2150.000001702781
 31
0.0
  0
LINE
  5
13BF1
330
1F
100
AcDbEntity
  8
実線
100
AcDbLine
 10
1250.499979077718
 20
2150.000001702781
 30
0.0
 11
1594.500030870233
 21
2150.000001702781
 31
0.0
  0
LINE
  5
13BF2
330
1F
100
AcDbEntity
  8
破線
100
AcDbLine
 10
1225.499979077718
 20
2150.000001702781
 30
0.0
 11
1250.499979077718
 21
2150.000001702781
 31
0.0
  0
LINE
  5
13BF3
330
1F
100
AcDbEntity
  8
破線
100
AcDbLine
 10
1954.499979077718
 20
2150.000001702781
 30
0.0
 11
1979.499979077718
 21
2150.000001702781
 31
0.0
  0
LINE
  5
13BF4
330
1F
100
AcDbEntity
  8
破線
100
AcDbLine
 10
1218.499979077718
 20
2107.00000170278
 30
0.0
 11
1250.499979077718
 21
2107.00000170278
 31
0.0
  0
LINE
  5
13BF5
330
1F
100
AcDbEntity
  8
破線
100
AcDbLine
 10
1250.499979077718
 20
2107.00000170278
 30
0.0
 11
1250.499979077718
 21
2095.00000170278
 31
0.0
  0
LINE
  5
13BF6
330
1F
100
AcDbEntity
  8
破線
100
AcDbLine
 10
1954.499979077718
 20
2390.000001702781
 30
0.0
 11
1979.499979077718
 21
2390.000001702781
 31
0.0
  0
LINE
  5
13BF7
330
1F
100
AcDbEntity
  8
実線
100
AcDbLine
 10
1250.499979077718
 20
2390.000001702781
 30
0.0
 11
1594.500030870233
 21
2390.000001702781
 31
0.0
  0
LINE
  5
13BF8
330
1F
100
AcDbEntity
  8
実線
100
AcDbLine
 10
1979.499979077718
 20
2390.000001702781
 30
0.0
 11
1986.499979077718
 21
2390.000001702781
 31
0.0
  0
LINE
  5
13BF9
330
1F
100
AcDbEntity
  8
実線
100
AcDbLine
 10
1218.499979077718
 20
2445.000001702781
 30
0.0
 11
1594.500030870232
 21
2445.000001702781
 31
0.0
  0
LINE
  5
13BFA
330
1F
100
AcDbEntity
  8
実線
100
AcDbLine
 10
1954.499979077718
 20
2394.500001702781
 30
0.0
 11
1974.499979077718
 21
2394.500001702781
 31
0.0
  0
LINE
  5
13BFB
330
1F
100
AcDbEntity
  8
実線
100
AcDbLine
 10
1974.499979077718
 20
2394.500001702781
 30
0.0
 11
1986.499979077718
 21
2382.500001702781
 31
0.0
  0
LINE
  5
13BFC
330
1F
100
AcDbEntity
  8
破線
100
AcDbLine
 10
1218.499979077718
 20
2433.000001702781
 30
0.0
 11
1250.499979077718
 21
2433.000001702781
 31
0.0
  0
LINE
  5
13BFD
330
1F
100
AcDbEntity
  8
破線
100
AcDbLine
 10
1250.499979077718
 20
2433.000001702781
 30
0.0
 11
1250.499979077718
 21
2445.000001702781
 31
0.0
  0
LINE
  5
13BFE
330
1F
100
AcDbEntity
  8
破線
100
AcDbLine
 10
1225.499979077718
 20
2390.000001702781
 30
0.0
 11
1250.499979077718
 21
2390.000001702781
 31
0.0
  0
LINE
  5
13BFF
330
1F
100
AcDbEntity
  8
実線
100
AcDbLine
 10
1230.499979077718
 20
2394.500001702781
 30
0.0
 11
1250.499979077718
 21
2394.500001702781
 31
0.0
  0
LINE
  5
13C00
330
1F
100
AcDbEntity
  8
実線
100
AcDbLine
 10
1218.499979077718
 20
2382.500001702781
 30
0.0
 11
1230.499979077718
 21
2394.500001702781
 31
0.0
  0
LINE
  5
13C01
330
1F
100
AcDbEntity
  8
実線
100
AcDbLine
 10
1218.499979077718
 20
2390.000001702781
 30
0.0
 11
1225.499979077718
 21
2390.000001702781
 31
0.0
  0
LINE
  5
13C02
330
1F
100
AcDbEntity
  8
破線
100
AcDbLine
 10
1986.499979077718
 20
2107.00000170278
 30
0.0
 11
1954.499979077718
 21
2107.00000170278
 31
0.0
  0
LINE
  5
13C03
330
1F
100
AcDbEntity
  8
破線
100
AcDbLine
 10
1954.499979077718
 20
2107.00000170278
 30
0.0
 11
1954.499979077718
 21
2095.00000170278
 31
0.0
  0
LINE
  5
13C04
330
1F
100
AcDbEntity
  8
破線
100
AcDbLine
 10
1954.499979077718
 20
2433.000001702781
 30
0.0
 11
1954.499979077718
 21
2445.000001702781
 31
0.0
  0
LINE
  5
13C05
330
1F
100
AcDbEntity
  8
破線
100
AcDbLine
 10
1986.499979077718
 20
2433.000001702781
 30
0.0
 11
1954.499979077718
 21
2433.000001702781
 31
0.0
  0
LINE
  5
13C06
330
1F
100
AcDbEntity
  8
破線
100
AcDbLine
 10
1218.499979077718
 20
2276.000001702781
 30
0.0
 11
1250.499979077718
 21
2276.000001702781
 31
0.0
  0
LINE
  5
13C07
330
1F
100
AcDbEntity
  8
破線
100
AcDbLine
 10
1218.499979077718
 20
2264.00000170278
 30
0.0
 11
1250.499979077718
 21
2264.00000170278
 31
0.0
  0
LINE
  5
13C08
330
1F
100
AcDbEntity
  8
破線
100
AcDbLine
 10
1954.499979077718
 20
2276.000001702781
 30
0.0
 11
1986.499979077718
 21
2276.000001702781
 31
0.0
  0
LINE
  5
13C09
330
1F
100
AcDbEntity
  8
破線
100
AcDbLine
 10
1954.499979077718
 20
2264.00000170278
 30
0.0
 11
1986.499979077718
 21
2264.00000170278
 31
0.0
  0
LINE
  5
13C0A
330
1F
100
AcDbEntity
  8
実線
100
AcDbLine
 10
1986.499979077718
 20
2085.00001994741
 30
0.0
 11
1986.499979077718
 21
2455.00001994741
 31
0.0
  0
LINE
  5
13C0B
330
1F
100
AcDbEntity
  8
実線
100
AcDbLine
 10
2002.499979077718
 20
2085.00001994741
 30
0.0
 11
2002.499979077718
 21
2455.00001994741
 31
0.0
  0
LINE
  5
13C0C
330
1F
100
AcDbEntity
  8
実線
100
AcDbLine
 10
1986.499979077718
 20
2455.000001702781
 30
0.0
 11
2002.499979077718
 21
2455.000001702781
 31
0.0
  0
LINE
  5
13C0D
330
1F
100
AcDbEntity
  8
実線
100
AcDbLine
 10
1986.499979077718
 20
2085.000001702781
 30
0.0
 11
2002.499979077718
 21
2085.000001702781
 31
0.0
  0
LINE
  5
13C0E
330
1F
100
AcDbEntity
  8
中心線
100
AcDbLine
 10
1192.499979077718
 20
2122.500019947407
 30
0.0
 11
2012.500082662745
 21
2122.500019947407
 31
0.0
  0
LINE
  5
13C0F
330
1F
100
AcDbEntity
  8
中心線
100
AcDbLine
 10
1192.499979077718
 20
2417.50001994741
 30
0.0
 11
2012.500082662745
 21
2417.50001994741
 31
0.0
  0
LINE
  5
13C10
330
1F
100
AcDbEntity
  8
実線
100
AcDbLine
 10
1218.499979077718
 20
1485.000054734347
 30
0.0
 11
1218.499979077718
 21
1855.000054734347
 31
0.0
  0
LINE
  5
13C11
330
1F
100
AcDbEntity
  8
実線
100
AcDbLine
 10
1202.499979077718
 20
1855.000036489718
 30
0.0
 11
1218.499979077718
 21
1855.000036489718
 31
0.0
  0
LINE
  5
13C12
330
1F
100
AcDbEntity
  8
実線
100
AcDbLine
 10
1202.499979077718
 20
1485.000036489718
 30
0.0
 11
1218.499979077718
 21
1485.000036489718
 31
0.0
  0
LINE
  5
13C13
330
1F
100
AcDbEntity
  8
実線
100
AcDbLine
 10
1230.499979077718
 20
1545.500036489718
 30
0.0
 11
1250.499979077718
 21
1545.500036489718
 31
0.0
  0
LINE
  5
13C14
330
1F
100
AcDbEntity
  8
実線
100
AcDbLine
 10
1250.499979077718
 20
1545.500036489718
 30
0.0
 11
1250.499979077718
 21
1794.500036489718
 31
0.0
  0
LINE
  5
13C15
330
1F
100
AcDbEntity
  8
実線
100
AcDbLine
 10
1954.499979077718
 20
1545.500036489718
 30
0.0
 11
1954.499979077718
 21
1794.500036489718
 31
0.0
  0
LINE
  5
13C16
330
1F
100
AcDbEntity
  8
実線
100
AcDbLine
 10
1954.499979077718
 20
1545.500036489718
 30
0.0
 11
1974.499979077718
 21
1545.500036489718
 31
0.0
  0
LINE
  5
13C17
330
1F
100
AcDbEntity
  8
実線
100
AcDbLine
 10
1218.499979077718
 20
1557.500036489718
 30
0.0
 11
1230.499979077718
 21
1545.500036489718
 31
0.0
  0
LINE
  5
13C18
330
1F
100
AcDbEntity
  8
実線
100
AcDbLine
 10
1974.499979077718
 20
1545.500036489718
 30
0.0
 11
1986.499979077718
 21
1557.500036489718
 31
0.0
  0
LINE
  5
13C19
330
1F
100
AcDbEntity
  8
実線
100
AcDbLine
 10
1218.499979077718
 20
1550.000036489718
 30
0.0
 11
1225.499979077718
 21
1550.000036489718
 31
0.0
  0
LINE
  5
13C1A
330
1F
100
AcDbEntity
  8
実線
100
AcDbLine
 10
1218.499979077718
 20
1495.000036489718
 30
0.0
 11
1594.500030870232
 21
1495.000036489718
 31
0.0
  0
LINE
  5
13C1B
330
1F
100
AcDbEntity
  8
実線
100
AcDbLine
 10
1979.499979077718
 20
1550.000036489718
 30
0.0
 11
1986.499979077718
 21
1550.000036489718
 31
0.0
  0
LINE
  5
13C1C
330
1F
100
AcDbEntity
  8
実線
100
AcDbLine
 10
1250.499979077718
 20
1550.000036489718
 30
0.0
 11
1594.500030870233
 21
1550.000036489718
 31
0.0
  0
LINE
  5
13C1D
330
1F
100
AcDbEntity
  8
破線
100
AcDbLine
 10
1225.499979077718
 20
1550.000036489718
 30
0.0
 11
1250.499979077718
 21
1550.000036489718
 31
0.0
  0
LINE
  5
13C1E
330
1F
100
AcDbEntity
  8
破線
100
AcDbLine
 10
1954.499979077718
 20
1550.000036489718
 30
0.0
 11
1979.499979077718
 21
1550.000036489718
 31
0.0
  0
LINE
  5
13C1F
330
1F
100
AcDbEntity
  8
破線
100
AcDbLine
 10
1218.499979077718
 20
1507.000036489718
 30
0.0
 11
1250.499979077718
 21
1507.000036489718
 31
0.0
  0
LINE
  5
13C20
330
1F
100
AcDbEntity
  8
破線
100
AcDbLine
 10
1250.499979077718
 20
1507.000036489718
 30
0.0
 11
1250.499979077718
 21
1495.000036489718
 31
0.0
  0
LINE
  5
13C21
330
1F
100
AcDbEntity
  8
破線
100
AcDbLine
 10
1954.499979077718
 20
1790.000036489718
 30
0.0
 11
1979.499979077718
 21
1790.000036489718
 31
0.0
  0
LINE
  5
13C22
330
1F
100
AcDbEntity
  8
実線
100
AcDbLine
 10
1250.499979077718
 20
1790.000036489718
 30
0.0
 11
1594.500030870233
 21
1790.000036489718
 31
0.0
  0
LINE
  5
13C23
330
1F
100
AcDbEntity
  8
実線
100
AcDbLine
 10
1979.499979077718
 20
1790.000036489718
 30
0.0
 11
1986.499979077718
 21
1790.000036489718
 31
0.0
  0
LINE
  5
13C24
330
1F
100
AcDbEntity
  8
実線
100
AcDbLine
 10
1218.499979077718
 20
1845.000036489718
 30
0.0
 11
1594.500030870232
 21
1845.000036489718
 31
0.0
  0
LINE
  5
13C25
330
1F
100
AcDbEntity
  8
実線
100
AcDbLine
 10
1954.499979077718
 20
1794.500036489718
 30
0.0
 11
1974.499979077718
 21
1794.500036489718
 31
0.0
  0
LINE
  5
13C26
330
1F
100
AcDbEntity
  8
実線
100
AcDbLine
 10
1974.499979077718
 20
1794.500036489718
 30
0.0
 11
1986.499979077718
 21
1782.500036489718
 31
0.0
  0
LINE
  5
13C27
330
1F
100
AcDbEntity
  8
破線
100
AcDbLine
 10
1218.499979077718
 20
1833.000036489718
 30
0.0
 11
1250.499979077718
 21
1833.000036489718
 31
0.0
  0
LINE
  5
13C28
330
1F
100
AcDbEntity
  8
破線
100
AcDbLine
 10
1250.499979077718
 20
1833.000036489718
 30
0.0
 11
1250.499979077718
 21
1845.000036489718
 31
0.0
  0
LINE
  5
13C29
330
1F
100
AcDbEntity
  8
破線
100
AcDbLine
 10
1225.499979077718
 20
1790.000036489718
 30
0.0
 11
1250.499979077718
 21
1790.000036489718
 31
0.0
  0
LINE
  5
13C2A
330
1F
100
AcDbEntity
  8
実線
100
AcDbLine
 10
1230.499979077718
 20
1794.500036489718
 30
0.0
 11
1250.499979077718
 21
1794.500036489718
 31
0.0
  0
LINE
  5
13C2B
330
1F
100
AcDbEntity
  8
実線
100
AcDbLine
 10
1218.499979077718
 20
1782.500036489718
 30
0.0
 11
1230.499979077718
 21
1794.500036489718
 31
0.0
  0
LINE
  5
13C2C
330
1F
100
AcDbEntity
  8
実線
100
AcDbLine
 10
1218.499979077718
 20
1790.000036489718
 30
0.0
 11
1225.499979077718
 21
1790.000036489718
 31
0.0
  0
LINE
  5
13C2D
330
1F
100
AcDbEntity
  8
破線
100
AcDbLine
 10
1986.499979077718
 20
1507.000036489718
 30
0.0
 11
1954.499979077718
 21
1507.000036489718
 31
0.0
  0
LINE
  5
13C2E
330
1F
100
AcDbEntity
  8
破線
100
AcDbLine
 10
1954.499979077718
 20
1507.000036489718
 30
0.0
 11
1954.499979077718
 21
1495.000036489718
 31
0.0
  0
LINE
  5
13C2F
330
1F
100
AcDbEntity
  8
破線
100
AcDbLine
 10
1954.499979077718
 20
1833.000036489718
 30
0.0
 11
1954.499979077718
 21
1845.000036489718
 31
0.0
  0
LINE
  5
13C30
330
1F
100
AcDbEntity
  8
破線
100
AcDbLine
 10
1986.499979077718
 20
1833.000036489718
 30
0.0
 11
1954.499979077718
 21
1833.000036489718
 31
0.0
  0
LINE
  5
13C31
330
1F
100
AcDbEntity
  8
破線
100
AcDbLine
 10
1218.499979077718
 20
1676.000036489718
 30
0.0
 11
1250.499979077718
 21
1676.000036489718
 31
0.0
  0
LINE
  5
13C32
330
1F
100
AcDbEntity
  8
破線
100
AcDbLine
 10
1218.499979077718
 20
1664.000036489718
 30
0.0
 11
1250.499979077718
 21
1664.000036489718
 31
0.0
  0
LINE
  5
13C33
330
1F
100
AcDbEntity
  8
破線
100
AcDbLine
 10
1954.499979077718
 20
1676.000036489718
 30
0.0
 11
1986.499979077718
 21
1676.000036489718
 31
0.0
  0
LINE
  5
13C34
330
1F
100
AcDbEntity
  8
破線
100
AcDbLine
 10
1954.499979077718
 20
1664.000036489718
 30
0.0
 11
1986.499979077718
 21
1664.000036489718
 31
0.0
  0
LINE
  5
13C35
330
1F
100
AcDbEntity
  8
実線
100
AcDbLine
 10
1986.499979077718
 20
1485.000054734347
 30
0.0
 11
1986.499979077718
 21
1855.000054734347
 31
0.0
  0
LINE
  5
13C36
330
1F
100
AcDbEntity
  8
実線
100
AcDbLine
 10
1986.499979077718
 20
1855.000036489718
 30
0.0
 11
2002.499979077718
 21
1855.000036489718
 31
0.0
  0
LINE
  5
13C37
330
1F
100
AcDbEntity
  8
実線
100
AcDbLine
 10
1986.499979077718
 20
1485.000036489718
 30
0.0
 11
2002.499979077718
 21
1485.000036489718
 31
0.0
  0
LINE
  5
13C38
330
1F
100
AcDbEntity
  8
中心線
100
AcDbLine
 10
1094.499963982916
 20
1817.500054636945
 30
0.0
 11
2110.499979077718
 21
1817.500054636945
 31
0.0
  0
LINE
  5
13C39
330
1F
100
AcDbEntity
  8
中心線
100
AcDbLine
 10
1094.499963982916
 20
1522.500014936927
 30
0.0
 11
2110.499979077718
 21
1522.500014936927
 31
0.0
  0
LINE
  5
13C3A
330
1F
100
AcDbEntity
  8
実線
100
AcDbLine
 10
3342.499963982916
 20
2444.999982593436
 30
0.0
 11
2992.499963982914
 21
2444.999982593436
 31
0.0
  0
LINE
  5
13C3B
330
1F
100
AcDbEntity
  8
実線
100
AcDbLine
 10
2992.499963982914
 20
2094.999982593436
 30
0.0
 11
2992.499963982914
 21
2444.999982593436
 31
0.0
  0
LINE
  5
13C3C
330
1F
100
AcDbEntity
  8
実線
100
AcDbLine
 10
3342.499963982916
 20
2094.999982593436
 30
0.0
 11
2992.499963982914
 21
2094.999982593436
 31
0.0
  0
LINE
  5
13C3D
330
1F
100
AcDbEntity
  8
実線
100
AcDbLine
 10
3342.499963982916
 20
2094.999982593436
 30
0.0
 11
3342.499963982916
 21
2444.999982593436
 31
0.0
  0
LINE
  5
13C3E
330
1F
100
AcDbEntity
  8
破線
100
AcDbLine
 10
3342.499963982916
 20
2425.999982593437
 30
0.0
 11
3186.499963982918
 21
2425.999982593437
 31
0.0
  0
LINE
  5
13C3F
330
1F
100
AcDbEntity
  8
破線
100
AcDbLine
 10
3173.499963982915
 20
2126.999942967218
 30
0.0
 11
3173.499963982915
 21
2412.999982593436
 31
0.0
  0
LINE
  5
13C40
330
1F
100
AcDbEntity
  8
中心線
100
AcDbLine
 10
3167.499963982916
 20
2069.999962780328
 30
0.0
 11
3167.499963982916
 21
2469.999962780329
 31
0.0
  0
LINE
  5
13C41
330
1F
100
AcDbEntity
  8
実線
100
AcDbLine
 10
3342.499963982916
 20
2437.999982593436
 30
0.0
 11
2992.499963982914
 21
2437.999982593436
 31
0.0
  0
LINE
  5
13C42
330
1F
100
AcDbEntity
  8
実線
100
AcDbLine
 10
3342.499963982916
 20
2101.999982593437
 30
0.0
 11
2992.499963982914
 21
2101.999982593437
 31
0.0
  0
DIMENSION
  5
13C43
330
1F
100
AcDbEntity
  8
寸法線
100
AcDbDimension
280
     0
  2
*D4
 10
2992.499963982914
 20
1974.999942967219
 30
0.0
 11
3167.499963982916
 21
1974.999942967219
 31
0.0
 70
   160
 71
     5
 42
350.0000000000023
 73
     0
 74
     0
 75
     0
  3
STANDARD
100
AcDbAlignedDimension
 13
3342.499963982916
 23
2094.999942967219
 33
0.0
 14
2992.499963982914
 24
2094.999942967219
 34
0.0
100
AcDbRotatedDimension
  0
DIMENSION
  5
13C44
330
1F
100
AcDbEntity
  8
寸法線
100
AcDbDimension
280
     0
  2
*D5
 10
2872.499963982914
 20
2094.999982593437
 30
0.0
 11
2872.499963982914
 21
2269.999962780327
 31
0.0
 70
   160
 71
     5
 42
350.0
 73
     0
 74
     0
 75
     0
  3
STANDARD
100
AcDbAlignedDimension
 13
2992.499963982914
 23
2444.999982593436
 33
0.0
 14
2992.499963982914
 24
2094.999982593436
 34
0.0
 50
270.0
100
AcDbRotatedDimension
  0
DIMENSION
  5
13C45
330
1F
100
AcDbEntity
  8
寸法線
100
AcDbDimension
280
     0
  2
*D6
 10
2622.50003379874
 20
2101.999977559131
 30
0.0
 11
2622.50003379874
 21
2270.000014778806
 31
0.0
 70
   160
 71
     5
 42
336.0000744393528
 73
     0
 74
     0
 75
     0
  3
STANDARD
100
AcDbAlignedDimension
 13
2502.500013985631
 23
2438.000051998483
 33
0.0
 14
2502.500013985631
 24
2101.99997755913
 34
0.0
 50
90.0
100
AcDbRotatedDimension
  0
LINE
  5
13C46
330
1F
100
AcDbEntity
  8
中心線
100
AcDbLine
 10
3367.499963982916
 20
2269.999962780327
 30
0.0
 11
2967.499963982917
 21
2269.999962780327
 31
0.0
  0
ARC
  5
13C47
330
1F
100
AcDbEntity
  8
破線
100
AcDbCircle
 10
3186.499963982918
 20
2412.999982593436
 30
0.0
 40
13.0
100
AcDbArc
 50
90.0
 51
180.0
  0
LINE
  5
13C48
330
1F
100
AcDbEntity
  8
破線
100
AcDbLine
 10
3342.499963982916
 20
2113.999942967218
 30
0.0
 11
3186.499963982918
 21
2113.999942967218
 31
0.0
  0
ARC
  5
13C49
330
1F
100
AcDbEntity
  8
破線
100
AcDbCircle
 10
3186.499963982918
 20
2126.999942967218
 30
0.0
 40
13.0
100
AcDbArc
 50
180.0
 51
270.0
  0
LINE
  5
13C4A
330
1F
100
AcDbEntity
  8
破線
100
AcDbLine
 10
2992.499963982917
 20
2425.999982593437
 30
0.0
 11
3148.499963982915
 21
2425.999982593437
 31
0.0
  0
LINE
  5
13C4B
330
1F
100
AcDbEntity
  8
破線
100
AcDbLine
 10
3161.499963982916
 20
2126.999942967218
 30
0.0
 11
3161.499963982916
 21
2412.999982593436
 31
0.0
  0
ARC
  5
13C4C
330
1F
100
AcDbEntity
  8
破線
100
AcDbCircle
 10
3148.499963982915
 20
2412.999982593436
 30
0.0
 40
13.0
100
AcDbArc
 50
0.0
 51
90.0
  0
LINE
  5
13C4D
330
1F
100
AcDbEntity
  8
破線
100
AcDbLine
 10
2992.499963982917
 20
2113.999942967219
 30
0.0
 11
3148.499963982915
 21
2113.999942967219
 31
0.0
  0
ARC
  5
13C4E
330
1F
100
AcDbEntity
  8
破線
100
AcDbCircle
 10
3148.499963982915
 20
2126.999942967219
 30
0.0
 40
13.0
100
AcDbArc
 50
270.0
 51
0.0
  0
LINE
  5
13C4F
330
1F
100
AcDbEntity
  8
破線
100
AcDbLine
 10
3323.500001202592
 20
2275.999962780327
 30
0.0
 11
3173.499963982915
 21
2275.999962780327
 31
0.0
  0
LINE
  5
13C50
330
1F
100
AcDbEntity
  8
破線
100
AcDbLine
 10
3323.500001202592
 20
2263.999962780328
 30
0.0
 11
3173.499963982915
 21
2263.999962780328
 31
0.0
  0
LINE
  5
13C51
330
1F
100
AcDbEntity
  8
破線
100
AcDbLine
 10
3323.500001202592
 20
2263.999962780328
 30
0.0
 11
3323.500001202592
 21
2275.999962780327
 31
0.0
  0
LINE
  5
13C52
330
1F
100
AcDbEntity
  8
破線
100
AcDbLine
 10
3011.499926763242
 20
2275.999962780327
 30
0.0
 11
3161.499963982916
 21
2275.999962780327
 31
0.0
  0
LINE
  5
13C53
330
1F
100
AcDbEntity
  8
破線
100
AcDbLine
 10
3011.499926763242
 20
2263.999962780328
 30
0.0
 11
3161.499963982916
 21
2263.999962780328
 31
0.0
  0
LINE
  5
13C54
330
1F
100
AcDbEntity
  8
破線
100
AcDbLine
 10
3011.499926763242
 20
2263.999962780328
 30
0.0
 11
3011.499926763242
 21
2275.999962780327
 31
0.0
  0
LINE
  5
13C55
330
1F
100
AcDbEntity
  8
中心線
100
AcDbLine
 10
3067.49994537308
 20
2159.999981390165
 30
0.0
 11
3067.49994537308
 21
2229.999944170491
 31
0.0
  0
CIRCLE
  5
13C56
330
1F
100
AcDbEntity
  8
実線
100
AcDbCircle
 10
3067.49994537308
 20
2194.999962780328
 30
0.0
 40
12.5
  0
LINE
  5
13C57
330
1F
100
AcDbEntity
  8
中心線
100
AcDbLine
 10
3102.499926763242
 20
2194.999962780328
 30
0.0
 11
3032.499963982916
 21
2194.999962780328
 31
0.0
  0
LINE
  5
13C58
330
1F
100
AcDbEntity
  8
中心線
100
AcDbLine
 10
3067.49994537308
 20
2379.999944170491
 30
0.0
 11
3067.49994537308
 21
2309.999981390168
 31
0.0
  0
CIRCLE
  5
13C59
330
1F
100
AcDbEntity
  8
実線
100
AcDbCircle
 10
3067.49994537308
 20
2344.999962780328
 30
0.0
 40
12.5
  0
LINE
  5
13C5A
330
1F
100
AcDbEntity
  8
中心線
100
AcDbLine
 10
3102.499926763242
 20
2344.999962780328
 30
0.0
 11
3032.499963982916
 21
2344.999962780328
 31
0.0
  0
LINE
  5
13C5B
330
1F
100
AcDbEntity
  8
中心線
100
AcDbLine
 10
3267.499982592754
 20
2159.999981390165
 30
0.0
 11
3267.499982592754
 21
2229.999944170491
 31
0.0
  0
CIRCLE
  5
13C5C
330
1F
100
AcDbEntity
  8
実線
100
AcDbCircle
 10
3267.499982592754
 20
2194.999962780328
 30
0.0
 40
12.5
  0
LINE
  5
13C5D
330
1F
100
AcDbEntity
  8
中心線
100
AcDbLine
 10
3232.50000120259
 20
2194.999962780328
 30
0.0
 11
3302.499963982916
 21
2194.999962780328
 31
0.0
  0
LINE
  5
13C5E
330
1F
100
AcDbEntity
  8
中心線
100
AcDbLine
 10
3267.499982592754
 20
2379.999944170491
 30
0.0
 11
3267.499982592754
 21
2309.999981390168
 31
0.0
  0
CIRCLE
  5
13C5F
330
1F
100
AcDbEntity
  8
実線
100
AcDbCircle
 10
3267.499982592754
 20
2344.999962780328
 30
0.0
 40
12.5
  0
LINE
  5
13C60
330
1F
100
AcDbEntity
  8
中心線
100
AcDbLine
 10
3232.50000120259
 20
2344.999962780328
 30
0.0
 11
3302.499963982916
 21
2344.999962780328
 31
0.0
  0
LEADER
  5
13C61
330
1F
100
AcDbEntity
  8
寸法線
100
AcDbLeader
  3
STANDARD
 76
     3
 10
3075.243663560377
 20
2354.812446086589
 30
0.0
 10
3209.550543247394
 20
2524.999942967215
 30
0.0
 10
3402.12883400766
 20
2524.999942967215
 30
0.0
211
1.0
221
0.0000000000000002
231
0.0
1001
ACAD
1000
DSTYLE
1002
{
1070
   147
1040
0.875
1070
    77
1070
     0
1002
}
  0
TEXT
  5
13C62
330
1F
100
AcDbEntity
  8
寸法線
100
AcDbText
 10
3218.300543247393
 20
2533.749942967215
 30
0.0
 40
25.0
  1
主材連結用孔
 72
     2
 11
3391.633876580727
 21
2558.749942967215
 31
0.0
100
AcDbText
 73
     3
  0
LINE
  5
13C63
330
1F
100
AcDbEntity
  8
実線
100
AcDbLine
 10
702.4999441697982
 20
2437.99998005259
 30
0.0
 11
702.4999441697982
 21
2101.99998005259
 31
0.0
  0
LINE
  5
13C64
330
1F
100
AcDbEntity
  8
実線
100
AcDbLine
 10
718.4999639829002
 20
2444.999942832916
 30
0.0
 11
718.4999441697982
 21
2094.99998005259
 31
0.0
  0
LINE
  5
13C65
330
1F
100
AcDbEntity
  8
実線
100
AcDbLine
 10
718.4999639829002
 20
2444.999942832916
 30
0.0
 11
1202.4999639829
 21
2444.999942832916
 31
0.0
  0
LINE
  5
13C66
330
1F
100
AcDbEntity
  8
実線
100
AcDbLine
 10
718.4999629073391
 20
2425.999942832917
 30
0.0
 11
1202.4999639829
 21
2425.999942832917
 31
0.0
  0
LINE
  5
13C67
330
1F
100
AcDbEntity
  8
実線
100
AcDbLine
 10
1102.499944169798
 20
2425.999942832917
 30
0.0
 11
1102.499944169798
 21
2405.99998005259
 31
0.0
  0
LINE
  5
13C68
330
1F
100
AcDbEntity
  8
実線
100
AcDbLine
 10
1172.4999639829
 20
2375.999942832917
 30
0.0
 11
1202.4999639829
 21
2375.999942832917
 31
0.0
  0
LINE
  5
13C69
330
1F
100
AcDbEntity
  8
実線
100
AcDbLine
 10
1102.499944169798
 20
2405.99998005259
 30
0.0
 11
1172.4999639829
 21
2375.999942832917
 31
0.0
  0
LINE
  5
13C6A
330
1F
100
AcDbEntity
  8
実線
100
AcDbLine
 10
702.4999441697982
 20
2437.99998005259
 30
0.0
 11
718.4999441697982
 21
2437.99998005259
 31
0.0
  0
LINE
  5
13C6B
330
1F
100
AcDbEntity
  8
仮想線
100
AcDbLine
 10
718.4999441697982
 20
2444.999951103956
 30
0.0
 11
711.4999731184324
 21
2437.99998005259
 31
0.0
  0
LINE
  5
13C6C
330
1F
100
AcDbEntity
  8
実線
100
AcDbLine
 10
718.4999441697982
 20
2275.999942832917
 30
0.0
 11
898.4999639829002
 21
2275.999942832917
 31
0.0
  0
LINE
  5
13C6D
330
1F
100
AcDbEntity
  8
実線
100
AcDbLine
 10
718.4999441697982
 20
2263.999942832916
 30
0.0
 11
898.4999639829002
 21
2263.999942832916
 31
0.0
  0
LINE
  5
13C6E
330
1F
100
AcDbEntity
  8
実線
100
AcDbLine
 10
1202.499979077718
 20
2084.999999999999
 30
0.0
 11
1202.499979077718
 21
2455.00001994741
 31
0.0
  0
LINE
  5
13C6F
330
1F
100
AcDbEntity
  8
実線
100
AcDbLine
 10
1192.499944169798
 20
2425.999942832917
 30
0.0
 11
1202.4999639829
 21
2415.999942832917
 31
0.0
  0
LINE
  5
13C70
330
1F
100
AcDbEntity
  8
仮想線
100
AcDbLine
 10
1195.499950113732
 20
2425.999942832917
 30
0.0
 11
1202.4999639829
 21
2418.999942832917
 31
0.0
  0
LINE
  5
13C71
330
1F
100
AcDbEntity
  8
実線
100
AcDbLine
 10
718.4999441697982
 20
2094.999932407961
 30
0.0
 11
1202.4999639829
 21
2094.999942832916
 31
0.0
  0
LINE
  5
13C72
330
1F
100
AcDbEntity
  8
実線
100
AcDbLine
 10
718.4999452453593
 20
2113.999942832916
 30
0.0
 11
1202.4999639829
 21
2113.999942832916
 31
0.0
  0
LINE
  5
13C73
330
1F
100
AcDbEntity
  8
実線
100
AcDbLine
 10
1102.499944169798
 20
2113.999942832916
 30
0.0
 11
1102.499944169798
 21
2133.999905613239
 31
0.0
  0
LINE
  5
13C74
330
1F
100
AcDbEntity
  8
実線
100
AcDbLine
 10
1172.4999639829
 20
2163.999942832917
 30
0.0
 11
1202.4999639829
 21
2163.999942832917
 31
0.0
  0
LINE
  5
13C75
330
1F
100
AcDbEntity
  8
実線
100
AcDbLine
 10
1102.499944169798
 20
2133.999905613239
 30
0.0
 11
1172.4999639829
 21
2163.999942832917
 31
0.0
  0
LINE
  5
13C76
330
1F
100
AcDbEntity
  8
実線
100
AcDbLine
 10
702.4999441697982
 20
2101.999905613239
 30
0.0
 11
718.4999441697982
 21
2101.999905613239
 31
0.0
  0
LINE
  5
13C77
330
1F
100
AcDbEntity
  8
仮想線
100
AcDbLine
 10
718.4999441697982
 20
2094.999934561877
 30
0.0
 11
711.4999731184324
 21
2101.999905613239
 31
0.0
  0
LINE
  5
13C78
330
1F
100
AcDbEntity
  8
実線
100
AcDbLine
 10
1192.499944169798
 20
2113.999942832916
 30
0.0
 11
1202.4999639829
 21
2123.999942832917
 31
0.0
  0
LINE
  5
13C79
330
1F
100
AcDbEntity
  8
仮想線
100
AcDbLine
 10
1195.499950113732
 20
2113.999942832916
 30
0.0
 11
1202.4999639829
 21
2120.999942832917
 31
0.0
  0
LINE
  5
13C7A
330
1F
100
AcDbEntity
  8
仮想線
100
AcDbLine
 10
1202.499974549279
 20
2451.999970078635
 30
0.0
 11
1195.499947303553
 21
2444.999942832916
 31
0.0
  0
LINE
  5
13C7B
330
1F
100
AcDbEntity
  8
仮想線
100
AcDbLine
 10
1202.499974549279
 20
2087.999993432105
 30
0.0
 11
1195.499947303553
 21
2095.000020677828
 31
0.0
  0
LINE
  5
13C7C
330
1F
100
AcDbEntity
  8
実線
100
AcDbLine
 10
898.4999639829002
 20
2275.999942832917
 30
0.0
 11
898.4999639829002
 21
2263.999942832916
 31
0.0
  0
LINE
  5
13C7D
330
1F
100
AcDbEntity
  8
中心線
100
AcDbLine
 10
752.4998795451137
 20
2454.999942832917
 30
0.0
 11
752.4998795451137
 21
2415.999942832917
 31
0.0
  0
LINE
  5
13C7E
330
1F
100
AcDbEntity
  8
中心線
100
AcDbLine
 10
752.4998795451137
 20
2085.000057167081
 30
0.0
 11
752.4998795451137
 21
2124.000057167082
 31
0.0
  0
LINE
  5
13C7F
330
1F
100
AcDbEntity
  8
中心線
100
AcDbLine
 10
802.4998795451136
 20
2454.999942832917
 30
0.0
 11
802.4998795451136
 21
2415.999942832917
 31
0.0
  0
LINE
  5
13C80
330
1F
100
AcDbEntity
  8
中心線
100
AcDbLine
 10
802.4998795451136
 20
2085.000057167081
 30
0.0
 11
802.4998795451136
 21
2124.000057167082
 31
0.0
  0
LINE
  5
13C81
330
1F
100
AcDbEntity
  8
中心線
100
AcDbLine
 10
852.4998795451136
 20
2454.999942832917
 30
0.0
 11
852.4998795451136
 21
2415.999942832917
 31
0.0
  0
LINE
  5
13C82
330
1F
100
AcDbEntity
  8
中心線
100
AcDbLine
 10
852.4998795451136
 20
2085.000057167081
 30
0.0
 11
852.4998795451136
 21
2124.000057167082
 31
0.0
  0
LINE
  5
13C83
330
1F
100
AcDbEntity
  8
中心線
100
AcDbLine
 10
902.4998795451137
 20
2454.999942832917
 30
0.0
 11
902.4998795451137
 21
2415.999942832917
 31
0.0
  0
LINE
  5
13C84
330
1F
100
AcDbEntity
  8
中心線
100
AcDbLine
 10
902.4998795451137
 20
2085.000057167081
 30
0.0
 11
902.4998795451137
 21
2124.000057167082
 31
0.0
  0
LINE
  5
13C85
330
1F
100
AcDbEntity
  8
中心線
100
AcDbLine
 10
952.4998795451137
 20
2454.999942832917
 30
0.0
 11
952.4998795451137
 21
2415.999942832917
 31
0.0
  0
LINE
  5
13C86
330
1F
100
AcDbEntity
  8
中心線
100
AcDbLine
 10
952.4998795451137
 20
2085.000057167081
 30
0.0
 11
952.4998795451137
 21
2124.000057167082
 31
0.0
  0
LINE
  5
13C87
330
1F
100
AcDbEntity
  8
中心線
100
AcDbLine
 10
692.4999937025677
 20
2344.999904633513
 30
0.0
 11
728.500013515677
 21
2344.999904633513
 31
0.0
  0
LINE
  5
13C88
330
1F
100
AcDbEntity
  8
中心線
100
AcDbLine
 10
692.4999937025677
 20
2194.999978357001
 30
0.0
 11
728.500013515677
 21
2194.999978357001
 31
0.0
  0
TEXT
  5
13C89
330
1F
100
AcDbEntity
  8
寸法線
100
AcDbText
 10
2083.842392959743
 20
2179.823272949963
 30
0.0
 40
25.0
  1
ﾘﾌﾞﾌﾟﾚｰﾄ①
 72
     2
 11
2227.175726293076
 21
2179.823272949963
 31
0.0
100
AcDbText
 73
     1
  0
LEADER
  5
13C8A
330
1F
100
AcDbEntity
  8
寸法線
100
AcDbLeader
  3
STANDARD
 76
     3
 10
2046.118543992136
 20
2123.999962780327
 30
0.0
 10
2081.118543992134
 20
2173.999962780327
 30
0.0
 10
2234.209088526852
 20
2173.999962780327
 30
0.0
211
-1.0
221
0.0
231
0.0
1001
ACAD
1000
DSTYLE
1002
{
1070
   147
1040
0.875
1070
    77
1070
     0
1002
}
  0
TEXT
  5
13C8B
330
1F
100
AcDbEntity
  8
寸法線
100
AcDbText
 10
2299.625299390917
 20
2172.429219751357
 30
0.0
 40
25.0
  1
ｴﾝﾄﾞﾌﾟﾚｰﾄ
 11
2299.625299390917
 21
2172.429219751357
 31
0.0
100
AcDbText
 73
     1
  0
LINE
  5
13C8E
330
1F
100
AcDbEntity
  8
実線
100
AcDbLine
 10
2502.500013985639
 20
2438.000000000001
 30
0.0
 11
2502.500013985639
 21
2102.000000000001
 31
0.0
  0
LINE
  5
13C8F
330
1F
100
AcDbEntity
  8
実線
100
AcDbLine
 10
2486.499994172536
 20
2444.999962780328
 30
0.0
 11
2486.500013985639
 21
2095.000000000001
 31
0.0
  0
LINE
  5
13C90
330
1F
100
AcDbEntity
  8
実線
100
AcDbLine
 10
2486.499994172536
 20
2444.999962780328
 30
0.0
 11
2002.499994172536
 21
2444.999962780328
 31
0.0
  0
LINE
  5
13C91
330
1F
100
AcDbEntity
  8
実線
100
AcDbLine
 10
2486.499995248097
 20
2425.999962780327
 30
0.0
 11
2002.499994172536
 21
2425.999962780327
 31
0.0
  0
LINE
  5
13C92
330
1F
100
AcDbEntity
  8
実線
100
AcDbLine
 10
2102.500013985638
 20
2425.999962780327
 30
0.0
 11
2102.500013985638
 21
2406.000000000001
 31
0.0
  0
LINE
  5
13C93
330
1F
100
AcDbEntity
  8
実線
100
AcDbLine
 10
2032.499994172536
 20
2375.999962780327
 30
0.0
 11
2002.499994172536
 21
2375.999962780327
 31
0.0
  0
LINE
  5
13C94
330
1F
100
AcDbEntity
  8
実線
100
AcDbLine
 10
2102.500013985638
 20
2406.000000000001
 30
0.0
 11
2032.499994172536
 21
2375.999962780327
 31
0.0
  0
LINE
  5
13C95
330
1F
100
AcDbEntity
  8
実線
100
AcDbLine
 10
2502.500013985639
 20
2438.000000000001
 30
0.0
 11
2486.500013985639
 21
2438.000000000001
 31
0.0
  0
LINE
  5
13C96
330
1F
100
AcDbEntity
  8
仮想線
100
AcDbLine
 10
2486.500013985639
 20
2444.999971051367
 30
0.0
 11
2493.499985037004
 21
2438.000000000001
 31
0.0
  0
LINE
  5
13C97
330
1F
100
AcDbEntity
  8
実線
100
AcDbLine
 10
2486.500013985639
 20
2275.999962780327
 30
0.0
 11
2306.499994172536
 21
2275.999962780327
 31
0.0
  0
LINE
  5
13C98
330
1F
100
AcDbEntity
  8
実線
100
AcDbLine
 10
2486.500013985639
 20
2263.999962780328
 30
0.0
 11
2306.499994172536
 21
2263.999962780328
 31
0.0
  0
LINE
  5
13C99
330
1F
100
AcDbEntity
  8
実線
100
AcDbLine
 10
2012.500013985638
 20
2425.999962780327
 30
0.0
 11
2002.499994172536
 21
2415.999962780328
 31
0.0
  0
LINE
  5
13C9A
330
1F
100
AcDbEntity
  8
仮想線
100
AcDbLine
 10
2009.500008041705
 20
2425.999962780327
 30
0.0
 11
2002.499994172536
 21
2418.999962780328
 31
0.0
  0
LINE
  5
13C9B
330
1F
100
AcDbEntity
  8
実線
100
AcDbLine
 10
2486.500013985639
 20
2094.999952355372
 30
0.0
 11
2002.499994172536
 21
2094.999962780327
 31
0.0
  0
LINE
  5
13C9C
330
1F
100
AcDbEntity
  8
実線
100
AcDbLine
 10
2486.500012910077
 20
2113.999962780328
 30
0.0
 11
2002.499994172536
 21
2113.999962780328
 31
0.0
  0
LINE
  5
13C9D
330
1F
100
AcDbEntity
  8
実線
100
AcDbLine
 10
2102.500013985638
 20
2113.999962780328
 30
0.0
 11
2102.500013985638
 21
2133.99992556065
 31
0.0
  0
LINE
  5
13C9E
330
1F
100
AcDbEntity
  8
実線
100
AcDbLine
 10
2032.499994172536
 20
2163.999962780328
 30
0.0
 11
2002.499994172536
 21
2163.999962780328
 31
0.0
  0
LINE
  5
13C9F
330
1F
100
AcDbEntity
  8
実線
100
AcDbLine
 10
2102.500013985638
 20
2133.99992556065
 30
0.0
 11
2032.499994172536
 21
2163.999962780328
 31
0.0
  0
LINE
  5
13CA0
330
1F
100
AcDbEntity
  8
実線
100
AcDbLine
 10
2502.500013985639
 20
2101.99992556065
 30
0.0
 11
2486.500013985639
 21
2101.99992556065
 31
0.0
  0
LINE
  5
13CA1
330
1F
100
AcDbEntity
  8
仮想線
100
AcDbLine
 10
2486.500013985639
 20
2094.999954509288
 30
0.0
 11
2493.499985037004
 21
2101.99992556065
 31
0.0
  0
LINE
  5
13CA2
330
1F
100
AcDbEntity
  8
実線
100
AcDbLine
 10
2012.500013985638
 20
2113.999962780328
 30
0.0
 11
2002.499994172536
 21
2123.999962780327
 31
0.0
  0
LINE
  5
13CA3
330
1F
100
AcDbEntity
  8
仮想線
100
AcDbLine
 10
2009.500008041705
 20
2113.999962780328
 30
0.0
 11
2002.499994172536
 21
2120.999962780327
 31
0.0
  0
LINE
  5
13CA4
330
1F
100
AcDbEntity
  8
仮想線
100
AcDbLine
 10
2002.499983606158
 20
2451.999990026047
 30
0.0
 11
2009.500010851883
 21
2444.999962780328
 31
0.0
  0
LINE
  5
13CA5
330
1F
100
AcDbEntity
  8
仮想線
100
AcDbLine
 10
2002.499983606158
 20
2088.000013379516
 30
0.0
 11
2009.500010851883
 21
2095.000040625238
 31
0.0
  0
LINE
  5
13CA6
330
1F
100
AcDbEntity
  8
実線
100
AcDbLine
 10
2306.499994172536
 20
2275.999962780327
 30
0.0
 11
2306.499994172536
 21
2263.999962780328
 31
0.0
  0
LINE
  5
13CA7
330
1F
100
AcDbEntity
  8
中心線
100
AcDbLine
 10
2452.500078610323
 20
2454.999962780328
 30
0.0
 11
2452.500078610323
 21
2415.999962780328
 31
0.0
  0
LINE
  5
13CA8
330
1F
100
AcDbEntity
  8
中心線
100
AcDbLine
 10
2452.500078610323
 20
2085.000077114492
 30
0.0
 11
2452.500078610323
 21
2124.000077114492
 31
0.0
  0
LINE
  5
13CA9
330
1F
100
AcDbEntity
  8
中心線
100
AcDbLine
 10
2402.500078610323
 20
2454.999962780328
 30
0.0
 11
2402.500078610323
 21
2415.999962780328
 31
0.0
  0
LINE
  5
13CAA
330
1F
100
AcDbEntity
  8
中心線
100
AcDbLine
 10
2402.500078610323
 20
2085.000077114492
 30
0.0
 11
2402.500078610323
 21
2124.000077114492
 31
0.0
  0
LINE
  5
13CAB
330
1F
100
AcDbEntity
  8
中心線
100
AcDbLine
 10
2352.500078610323
 20
2454.999962780328
 30
0.0
 11
2352.500078610323
 21
2415.999962780328
 31
0.0
  0
LINE
  5
13CAC
330
1F
100
AcDbEntity
  8
中心線
100
AcDbLine
 10
2352.500078610323
 20
2085.000077114492
 30
0.0
 11
2352.500078610323
 21
2124.000077114492
 31
0.0
  0
LINE
  5
13CAD
330
1F
100
AcDbEntity
  8
中心線
100
AcDbLine
 10
2302.500078610323
 20
2454.999962780328
 30
0.0
 11
2302.500078610323
 21
2415.999962780328
 31
0.0
  0
LINE
  5
13CAE
330
1F
100
AcDbEntity
  8
中心線
100
AcDbLine
 10
2302.500078610323
 20
2085.000077114492
 30
0.0
 11
2302.500078610323
 21
2124.000077114492
 31
0.0
  0
LINE
  5
13CAF
330
1F
100
AcDbEntity
  8
中心線
100
AcDbLine
 10
2252.500078610323
 20
2454.999962780328
 30
0.0
 11
2252.500078610323
 21
2415.999962780328
 31
0.0
  0
LINE
  5
13CB0
330
1F
100
AcDbEntity
  8
中心線
100
AcDbLine
 10
2252.500078610323
 20
2085.000077114492
 30
0.0
 11
2252.500078610323
 21
2124.000077114492
 31
0.0
  0
DIMENSION
  5
13CB1
330
1F
100
AcDbEntity
  8
寸法線
100
AcDbDimension
280
     0
  2
*D3
 10
2226.499994172551
 20
2264.000002350013
 30
0.0
 11
2226.499994172551
 21
2270.000002350012
 31
0.0
 70
   160
 71
     5
 42
12.0
 73
     0
 74
     0
 75
     0
  3
STANDARD
100
AcDbAlignedDimension
 13
2306.499994172536
 23
2276.000002350012
 33
0.0
 14
2306.499994172536
 24
2264.000002350012
 34
0.0
 50
90.0
100
AcDbRotatedDimension
1001
ACAD
1000
DSTYLE
1002
{
1070
   140
1040
2.5
1002
}
  0
TEXT
  5
13CB2
330
1F
100
AcDbEntity
  8
寸法線
100
AcDbText
 10
2222.578811562625
 20
2364.250002350012
 30
0.0
 40
25.0
  1
ﾘﾌﾞﾌﾟﾚｰﾄ②
 72
     2
 11
2365.912144895959
 21
2364.250002350012
 31
0.0
100
AcDbText
 73
     1
  0
LEADER
  5
13CB3
330
1F
100
AcDbEntity
  8
寸法線
100
AcDbLeader
  3
STANDARD
 76
     3
 10
2395.964110952013
 20
2275.999982727736
 30
0.0
 10
2374.662144895959
 20
2355.500002350012
 30
0.0
 10
2210.495510010118
 20
2355.500002350012
 30
0.0
1001
ACAD
1000
DSTYLE
1002
{
1070
   147
1040
0.875
1070
    77
1070
     0
1002
}
  0
LINE
  5
13CB4
330
1F
100
AcDbEntity
  8
中心線
100
AcDbLine
 10
2476.500053611857
 20
2344.999905971087
 30
0.0
 11
2512.500073424966
 21
2344.999905971087
 31
0.0
  0
LINE
  5
13CB5
330
1F
100
AcDbEntity
  8
中心線
100
AcDbLine
 10
2476.500053611857
 20
2194.999979694575
 30
0.0
 11
2512.500073424966
 21
2194.999979694575
 31
0.0
  0
LINE
  5
13CB6
330
1F
100
AcDbEntity
  8
破線
100
AcDbLine
 10
718.4999592646017
 20
1675.999995864481
 30
0.0
 11
1202.499963982915
 21
1675.999995864481
 31
0.0
  0
LINE
  5
13CB7
330
1F
100
AcDbEntity
  8
破線
100
AcDbLine
 10
728.4999441698127
 20
1675.999995864481
 30
0.0
 11
718.4999441698128
 21
1685.999995864481
 31
0.0
  0
LINE
  5
13CB8
330
1F
100
AcDbEntity
  8
破線
100
AcDbLine
 10
1102.499963982914
 20
1825.499995864478
 30
0.0
 11
1202.499944169813
 21
1825.499995864478
 31
0.0
  0
LINE
  5
13CB9
330
1F
100
AcDbEntity
  8
破線
100
AcDbLine
 10
1102.499963982914
 20
1809.499995864478
 30
0.0
 11
1202.499944169813
 21
1809.499995864478
 31
0.0
  0
LINE
  5
13CBA
330
1F
100
AcDbEntity
  8
破線
100
AcDbLine
 10
1102.499963982914
 20
1825.499995864478
 30
0.0
 11
1102.499963982914
 21
1809.499995864478
 31
0.0
  0
LINE
  5
13CBB
330
1F
100
AcDbEntity
  8
破線
100
AcDbLine
 10
718.4999441698128
 20
1825.999995864481
 30
0.0
 11
748.4999639829148
 21
1825.999995864481
 31
0.0
  0
LINE
  5
13CBC
330
1F
100
AcDbEntity
  8
破線
100
AcDbLine
 10
898.4999441698128
 20
1706.00003308416
 30
0.0
 11
898.4999441698128
 21
1675.999995864481
 31
0.0
  0
LINE
  5
13CBD
330
1F
100
AcDbEntity
  8
破線
100
AcDbLine
 10
748.4999639829148
 20
1825.999995864481
 30
0.0
 11
898.4999441698128
 21
1706.00003308416
 31
0.0
  0
LINE
  5
13CBE
330
1F
100
AcDbEntity
  8
破線
100
AcDbLine
 10
718.4999592646017
 20
1663.999995864478
 30
0.0
 11
1202.499963982915
 21
1663.999995864478
 31
0.0
  0
LINE
  5
13CBF
330
1F
100
AcDbEntity
  8
破線
100
AcDbLine
 10
728.4999441698127
 20
1663.999995864478
 30
0.0
 11
718.4999441698128
 21
1653.999995864478
 31
0.0
  0
LINE
  5
13CC0
330
1F
100
AcDbEntity
  8
破線
100
AcDbLine
 10
1102.499963982914
 20
1514.499995864478
 30
0.0
 11
1202.499944169813
 21
1514.499995864478
 31
0.0
  0
LINE
  5
13CC1
330
1F
100
AcDbEntity
  8
破線
100
AcDbLine
 10
1102.499963982914
 20
1530.499995864478
 30
0.0
 11
1202.499944169813
 21
1530.499995864478
 31
0.0
  0
LINE
  5
13CC2
330
1F
100
AcDbEntity
  8
破線
100
AcDbLine
 10
1102.499963982914
 20
1514.499995864478
 30
0.0
 11
1102.499963982914
 21
1530.499995864478
 31
0.0
  0
LINE
  5
13CC3
330
1F
100
AcDbEntity
  8
破線
100
AcDbLine
 10
718.4999441698128
 20
1513.999995864478
 30
0.0
 11
748.4999639829148
 21
1513.999995864478
 31
0.0
  0
LINE
  5
13CC4
330
1F
100
AcDbEntity
  8
破線
100
AcDbLine
 10
898.4999441698128
 20
1633.999958644804
 30
0.0
 11
898.4999441698128
 21
1663.999995864478
 31
0.0
  0
LINE
  5
13CC5
330
1F
100
AcDbEntity
  8
破線
100
AcDbLine
 10
748.4999639829148
 20
1513.999995864478
 30
0.0
 11
898.4999441698128
 21
1633.999958644804
 31
0.0
  0
LINE
  5
13CC6
330
1F
100
AcDbEntity
  8
実線
100
AcDbLine
 10
1202.499979077718
 20
1855.000054734347
 30
0.0
 11
1202.499979077718
 21
1485.000034786937
 31
0.0
  0
LINE
  5
13CC7
330
1F
100
AcDbEntity
  8
実線
100
AcDbLine
 10
702.4999592646017
 20
1495.000070303833
 30
0.0
 11
1202.499963982915
 21
1495.000070303833
 31
0.0
  0
LINE
  5
13CC8
330
1F
100
AcDbEntity
  8
実線
100
AcDbLine
 10
702.4999592646017
 20
1844.999921425132
 30
0.0
 11
1202.499963982915
 21
1844.999921425132
 31
0.0
  0
LINE
  5
13CC9
330
1F
100
AcDbEntity
  8
実線
100
AcDbLine
 10
718.4999592646017
 20
1844.999921425132
 30
0.0
 11
718.4999592646017
 21
1495.000070303833
 31
0.0
  0
LINE
  5
13CCA
330
1F
100
AcDbEntity
  8
実線
100
AcDbLine
 10
702.4999592646017
 20
1844.999921425132
 30
0.0
 11
702.4999592646017
 21
1495.000070303833
 31
0.0
  0
LINE
  5
13CCB
330
1F
100
AcDbEntity
  8
仮想線
100
AcDbLine
 10
724.4999592646017
 20
1675.999884205457
 30
0.0
 11
718.4999592646017
 21
1681.999884205457
 31
0.0
  0
LINE
  5
13CCC
330
1F
100
AcDbEntity
  8
仮想線
100
AcDbLine
 10
724.4999592646017
 20
1663.999884205453
 30
0.0
 11
718.4999592646017
 21
1657.999884205453
 31
0.0
  0
LEADER
  5
13CCD
330
1F
100
AcDbEntity
  8
寸法線
100
AcDbLeader
  3
STANDARD
 76
     3
 10
758.7499592646017
 20
1755.825332021622
 30
0.0
 10
853.8050373729456
 20
1925.000032726273
 30
0.0
 10
1121.465214307765
 20
1925.000032726273
 30
0.0
211
-1.0
221
0.0
231
0.0
1001
ACAD
1000
DSTYLE
1002
{
1070
   147
1040
0.875
1070
    77
1070
     0
1002
}
  0
TEXT
  5
13CCE
330
1F
100
AcDbEntity
  8
寸法線
100
AcDbText
 10
862.5550373729405
 20
1933.750032726273
 30
0.0
 40
25.0
  1
ｶﾊﾞｰﾌﾟﾚｰﾄ連結用孔
 72
     2
 11
1110.888370706274
 21
1958.750032726273
 31
0.0
100
AcDbText
 73
     3
  0
LINE
  5
13CCF
330
1F
100
AcDbEntity
  8
中心線
100
AcDbLine
 10
752.4999592646017
 20
1779.999995864482
 30
0.0
 11
752.4999592646017
 21
1710.000033084155
 31
0.0
  0
LINE
  5
13CD0
330
1F
100
AcDbEntity
  8
中心線
100
AcDbLine
 10
717.4999778744422
 20
1745.000014474318
 30
0.0
 11
787.4999406547612
 21
1745.000014474318
 31
0.0
  0
CIRCLE
  5
13CD1
330
1F
100
AcDbEntity
  8
実線
100
AcDbCircle
 10
752.4999592646017
 20
1745.000014474318
 30
0.0
 40
12.5
  0
LINE
  5
13CD2
330
1F
100
AcDbEntity
  8
中心線
100
AcDbLine
 10
752.4999592646017
 20
1560.000095864479
 30
0.0
 11
752.4999592646017
 21
1630.000058644805
 31
0.0
  0
LINE
  5
13CD3
330
1F
100
AcDbEntity
  8
中心線
100
AcDbLine
 10
717.4999778744422
 20
1595.000077254642
 30
0.0
 11
787.4999406547612
 21
1595.000077254642
 31
0.0
  0
CIRCLE
  5
13CD4
330
1F
100
AcDbEntity
  8
実線
100
AcDbCircle
 10
752.4999592646017
 20
1595.000077254642
 30
0.0
 40
12.5
  0
LINE
  5
13CD5
330
1F
100
AcDbEntity
  8
中心線
100
AcDbLine
 10
952.4999592646018
 20
1560.000095864479
 30
0.0
 11
952.4999592646018
 21
1630.000058644805
 31
0.0
  0
LINE
  5
13CD6
330
1F
100
AcDbEntity
  8
中心線
100
AcDbLine
 10
917.4999778744425
 20
1595.000077254642
 30
0.0
 11
987.4999406547614
 21
1595.000077254642
 31
0.0
  0
LINE
  5
13CD7
330
1F
100
AcDbEntity
  8
中心線
100
AcDbLine
 10
852.4999592646018
 20
1779.999995864482
 30
0.0
 11
852.4999592646018
 21
1710.000033084155
 31
0.0
  0
LINE
  5
13CD8
330
1F
100
AcDbEntity
  8
中心線
100
AcDbLine
 10
817.4999778744423
 20
1745.000014474318
 30
0.0
 11
887.4999406547614
 21
1745.000014474318
 31
0.0
  0
CIRCLE
  5
13CD9
330
1F
100
AcDbEntity
  8
実線
100
AcDbCircle
 10
852.4999592646018
 20
1745.000014474318
 30
0.0
 40
12.5
  0
LINE
  5
13CDA
330
1F
100
AcDbEntity
  8
中心線
100
AcDbLine
 10
852.4999592646018
 20
1560.000095864479
 30
0.0
 11
852.4999592646018
 21
1630.000058644805
 31
0.0
  0
LINE
  5
13CDB
330
1F
100
AcDbEntity
  8
中心線
100
AcDbLine
 10
817.4999778744423
 20
1595.000077254642
 30
0.0
 11
887.4999406547614
 21
1595.000077254642
 31
0.0
  0
CIRCLE
  5
13CDC
330
1F
100
AcDbEntity
  8
実線
100
AcDbCircle
 10
852.4999592646018
 20
1595.000077254642
 30
0.0
 40
12.5
  0
LINE
  5
13CDD
330
1F
100
AcDbEntity
  8
中心線
100
AcDbLine
 10
952.4999592646018
 20
1779.999995864482
 30
0.0
 11
952.4999592646018
 21
1710.000033084155
 31
0.0
  0
LINE
  5
13CDE
330
1F
100
AcDbEntity
  8
中心線
100
AcDbLine
 10
917.4999778744425
 20
1745.000014474318
 30
0.0
 11
987.4999406547614
 21
1745.000014474318
 31
0.0
  0
CIRCLE
  5
13CDF
330
1F
100
AcDbEntity
  8
実線
100
AcDbCircle
 10
952.4999592646018
 20
1745.000014474318
 30
0.0
 40
12.5
  0
LINE
  5
13CE0
330
1F
100
AcDbEntity
  8
中心線
100
AcDbLine
 10
802.4999592646018
 20
1829.999995864482
 30
0.0
 11
802.4999592646018
 21
1760.000033084155
 31
0.0
  0
LINE
  5
13CE1
330
1F
100
AcDbEntity
  8
中心線
100
AcDbLine
 10
767.4999778744422
 20
1795.000014474318
 30
0.0
 11
837.4999406547612
 21
1795.000014474318
 31
0.0
  0
CIRCLE
  5
13CE2
330
1F
100
AcDbEntity
  8
実線
100
AcDbCircle
 10
802.4999592646018
 20
1795.000014474318
 30
0.0
 40
12.5
  0
LINE
  5
13CE3
330
1F
100
AcDbEntity
  8
中心線
100
AcDbLine
 10
902.4999592646018
 20
1829.999995864482
 30
0.0
 11
902.4999592646018
 21
1760.000033084155
 31
0.0
  0
LINE
  5
13CE4
330
1F
100
AcDbEntity
  8
中心線
100
AcDbLine
 10
867.4999778744423
 20
1795.000014474318
 30
0.0
 11
937.4999406547614
 21
1795.000014474318
 31
0.0
  0
CIRCLE
  5
13CE5
330
1F
100
AcDbEntity
  8
実線
100
AcDbCircle
 10
902.4999592646018
 20
1795.000014474318
 30
0.0
 40
12.5
  0
LINE
  5
13CE6
330
1F
100
AcDbEntity
  8
中心線
100
AcDbLine
 10
802.4999592646018
 20
1510.000095864479
 30
0.0
 11
802.4999592646018
 21
1580.000058644805
 31
0.0
  0
LINE
  5
13CE7
330
1F
100
AcDbEntity
  8
中心線
100
AcDbLine
 10
767.4999778744422
 20
1545.000077254642
 30
0.0
 11
837.4999406547612
 21
1545.000077254642
 31
0.0
  0
CIRCLE
  5
13CE8
330
1F
100
AcDbEntity
  8
実線
100
AcDbCircle
 10
802.4999592646018
 20
1545.000077254642
 30
0.0
 40
12.5
  0
LINE
  5
13CE9
330
1F
100
AcDbEntity
  8
中心線
100
AcDbLine
 10
902.4999592646018
 20
1510.000095864479
 30
0.0
 11
902.4999592646018
 21
1580.000058644805
 31
0.0
  0
LINE
  5
13CEA
330
1F
100
AcDbEntity
  8
中心線
100
AcDbLine
 10
867.4999778744423
 20
1545.000077254642
 30
0.0
 11
937.4999406547614
 21
1545.000077254642
 31
0.0
  0
CIRCLE
  5
13CEB
330
1F
100
AcDbEntity
  8
実線
100
AcDbCircle
 10
902.4999592646018
 20
1545.000077254642
 30
0.0
 40
12.5
  0
CIRCLE
  5
13CEC
330
1F
100
AcDbEntity
  8
実線
100
AcDbCircle
 10
952.4999592646018
 20
1595.000077254642
 30
0.0
 40
12.5
  0
LINE
  5
13CED
330
1F
100
AcDbEntity
  8
中心線
100
AcDbLine
 10
692.5000087973712
 20
1769.999920445405
 30
0.0
 11
728.5000286104803
 21
1769.999920445405
 31
0.0
  0
LINE
  5
13CEE
330
1F
100
AcDbEntity
  8
中心線
100
AcDbLine
 10
692.5000087973712
 20
1569.999994168892
 30
0.0
 11
728.5000286104803
 21
1569.999994168892
 31
0.0
  0
LINE
  5
13CEF
330
1F
100
AcDbEntity
  8
破線
100
AcDbLine
 10
2486.499998890835
 20
1676.000015811891
 30
0.0
 11
2002.499994172522
 21
1676.000015811891
 31
0.0
  0
LINE
  5
13CF0
330
1F
100
AcDbEntity
  8
破線
100
AcDbLine
 10
2476.500013985625
 20
1676.000015811891
 30
0.0
 11
2486.500013985625
 21
1686.000015811891
 31
0.0
  0
LINE
  5
13CF1
330
1F
100
AcDbEntity
  8
破線
100
AcDbLine
 10
2102.499994172522
 20
1825.500015811888
 30
0.0
 11
2002.500013985624
 21
1825.500015811888
 31
0.0
  0
LINE
  5
13CF2
330
1F
100
AcDbEntity
  8
破線
100
AcDbLine
 10
2102.499994172522
 20
1809.500015811888
 30
0.0
 11
2002.500013985624
 21
1809.500015811888
 31
0.0
  0
LINE
  5
13CF3
330
1F
100
AcDbEntity
  8
破線
100
AcDbLine
 10
2102.499994172522
 20
1825.500015811888
 30
0.0
 11
2102.499994172522
 21
1809.500015811888
 31
0.0
  0
LINE
  5
13CF4
330
1F
100
AcDbEntity
  8
破線
100
AcDbLine
 10
2486.500013985625
 20
1826.000015811891
 30
0.0
 11
2456.499994172522
 21
1826.000015811891
 31
0.0
  0
LINE
  5
13CF5
330
1F
100
AcDbEntity
  8
破線
100
AcDbLine
 10
2306.500013985624
 20
1706.000053031569
 30
0.0
 11
2306.500013985624
 21
1676.000015811891
 31
0.0
  0
LINE
  5
13CF6
330
1F
100
AcDbEntity
  8
破線
100
AcDbLine
 10
2456.499994172522
 20
1826.000015811891
 30
0.0
 11
2306.500013985624
 21
1706.000053031569
 31
0.0
  0
LINE
  5
13CF7
330
1F
100
AcDbEntity
  8
破線
100
AcDbLine
 10
2486.499998890835
 20
1664.000015811888
 30
0.0
 11
2002.499994172522
 21
1664.000015811888
 31
0.0
  0
LINE
  5
13CF8
330
1F
100
AcDbEntity
  8
破線
100
AcDbLine
 10
2476.500013985625
 20
1664.000015811888
 30
0.0
 11
2486.500013985625
 21
1654.000015811888
 31
0.0
  0
LINE
  5
13CF9
330
1F
100
AcDbEntity
  8
破線
100
AcDbLine
 10
2102.499994172522
 20
1514.500015811888
 30
0.0
 11
2002.500013985624
 21
1514.500015811888
 31
0.0
  0
LINE
  5
13CFA
330
1F
100
AcDbEntity
  8
破線
100
AcDbLine
 10
2102.499994172522
 20
1530.500015811888
 30
0.0
 11
2002.500013985624
 21
1530.500015811888
 31
0.0
  0
LINE
  5
13CFB
330
1F
100
AcDbEntity
  8
破線
100
AcDbLine
 10
2102.499994172522
 20
1514.500015811888
 30
0.0
 11
2102.499994172522
 21
1530.500015811888
 31
0.0
  0
LINE
  5
13CFC
330
1F
100
AcDbEntity
  8
破線
100
AcDbLine
 10
2486.500013985625
 20
1514.000015811888
 30
0.0
 11
2456.499994172522
 21
1514.000015811888
 31
0.0
  0
LINE
  5
13CFD
330
1F
100
AcDbEntity
  8
破線
100
AcDbLine
 10
2306.500013985624
 20
1633.999978592214
 30
0.0
 11
2306.500013985624
 21
1664.000015811888
 31
0.0
  0
LINE
  5
13CFE
330
1F
100
AcDbEntity
  8
破線
100
AcDbLine
 10
2456.499994172522
 20
1514.000015811888
 30
0.0
 11
2306.500013985624
 21
1633.999978592214
 31
0.0
  0
LINE
  5
13CFF
330
1F
100
AcDbEntity
  8
実線
100
AcDbLine
 10
2002.499979077718
 20
1855.000054734346
 30
0.0
 11
2002.499979077718
 21
1485.000054734346
 31
0.0
  0
LINE
  5
13D00
330
1F
100
AcDbEntity
  8
実線
100
AcDbLine
 10
2502.499998890835
 20
1495.000090251242
 30
0.0
 11
2002.499994172522
 21
1495.000090251242
 31
0.0
  0
LINE
  5
13D01
330
1F
100
AcDbEntity
  8
実線
100
AcDbLine
 10
2502.499998890835
 20
1844.99994137254
 30
0.0
 11
2002.499994172522
 21
1844.99994137254
 31
0.0
  0
LINE
  5
13D02
330
1F
100
AcDbEntity
  8
実線
100
AcDbLine
 10
2486.499998890835
 20
1844.99994137254
 30
0.0
 11
2486.499998890835
 21
1495.000090251242
 31
0.0
  0
LINE
  5
13D03
330
1F
100
AcDbEntity
  8
実線
100
AcDbLine
 10
2502.499998890835
 20
1844.99994137254
 30
0.0
 11
2502.499998890835
 21
1495.000090251242
 31
0.0
  0
LINE
  5
13D04
330
1F
100
AcDbEntity
  8
仮想線
100
AcDbLine
 10
2480.499998890835
 20
1675.999904152867
 30
0.0
 11
2486.499998890835
 21
1681.999904152867
 31
0.0
  0
LINE
  5
13D05
330
1F
100
AcDbEntity
  8
仮想線
100
AcDbLine
 10
2480.499998890835
 20
1663.999904152863
 30
0.0
 11
2486.499998890835
 21
1657.999904152863
 31
0.0
  0
LINE
  5
13D06
330
1F
100
AcDbEntity
  8
中心線
100
AcDbLine
 10
2452.499998890835
 20
1780.000015811892
 30
0.0
 11
2452.499998890835
 21
1710.000053031565
 31
0.0
  0
LINE
  5
13D07
330
1F
100
AcDbEntity
  8
中心線
100
AcDbLine
 10
2487.499980280995
 20
1745.000034421728
 30
0.0
 11
2417.500017500676
 21
1745.000034421728
 31
0.0
  0
CIRCLE
  5
13D08
330
1F
100
AcDbEntity
  8
実線
100
AcDbCircle
 10
2452.499998890835
 20
1745.000034421728
 30
0.0
 40
12.5
  0
LINE
  5
13D09
330
1F
100
AcDbEntity
  8
中心線
100
AcDbLine
 10
2452.499998890835
 20
1560.000115811889
 30
0.0
 11
2452.499998890835
 21
1630.000078592215
 31
0.0
  0
LINE
  5
13D0A
330
1F
100
AcDbEntity
  8
中心線
100
AcDbLine
 10
2487.499980280995
 20
1595.000097202052
 30
0.0
 11
2417.500017500676
 21
1595.000097202052
 31
0.0
  0
CIRCLE
  5
13D0B
330
1F
100
AcDbEntity
  8
実線
100
AcDbCircle
 10
2452.499998890835
 20
1595.000097202052
 30
0.0
 40
12.5
  0
LINE
  5
13D0C
330
1F
100
AcDbEntity
  8
中心線
100
AcDbLine
 10
2252.499998890835
 20
1560.000115811889
 30
0.0
 11
2252.499998890835
 21
1630.000078592215
 31
0.0
  0
LINE
  5
13D0D
330
1F
100
AcDbEntity
  8
中心線
100
AcDbLine
 10
2287.499980280994
 20
1595.000097202052
 30
0.0
 11
2217.500017500675
 21
1595.000097202052
 31
0.0
  0
LINE
  5
13D0E
330
1F
100
AcDbEntity
  8
中心線
100
AcDbLine
 10
2352.499998890835
 20
1780.000015811892
 30
0.0
 11
2352.499998890835
 21
1710.000053031565
 31
0.0
  0
LINE
  5
13D0F
330
1F
100
AcDbEntity
  8
中心線
100
AcDbLine
 10
2387.499980280995
 20
1745.000034421728
 30
0.0
 11
2317.500017500675
 21
1745.000034421728
 31
0.0
  0
CIRCLE
  5
13D10
330
1F
100
AcDbEntity
  8
実線
100
AcDbCircle
 10
2352.499998890835
 20
1745.000034421728
 30
0.0
 40
12.5
  0
LINE
  5
13D11
330
1F
100
AcDbEntity
  8
中心線
100
AcDbLine
 10
2352.499998890835
 20
1560.000115811889
 30
0.0
 11
2352.499998890835
 21
1630.000078592215
 31
0.0
  0
LINE
  5
13D12
330
1F
100
AcDbEntity
  8
中心線
100
AcDbLine
 10
2387.499980280995
 20
1595.000097202052
 30
0.0
 11
2317.500017500675
 21
1595.000097202052
 31
0.0
  0
CIRCLE
  5
13D13
330
1F
100
AcDbEntity
  8
実線
100
AcDbCircle
 10
2352.499998890835
 20
1595.000097202052
 30
0.0
 40
12.5
  0
LINE
  5
13D14
330
1F
100
AcDbEntity
  8
中心線
100
AcDbLine
 10
2252.499998890835
 20
1780.000015811892
 30
0.0
 11
2252.499998890835
 21
1710.000053031565
 31
0.0
  0
LINE
  5
13D15
330
1F
100
AcDbEntity
  8
中心線
100
AcDbLine
 10
2287.499980280994
 20
1745.000034421728
 30
0.0
 11
2217.500017500675
 21
1745.000034421728
 31
0.0
  0
CIRCLE
  5
13D16
330
1F
100
AcDbEntity
  8
実線
100
AcDbCircle
 10
2252.499998890835
 20
1745.000034421728
 30
0.0
 40
12.5
  0
LINE
  5
13D17
330
1F
100
AcDbEntity
  8
中心線
100
AcDbLine
 10
2402.499998890835
 20
1830.000015811892
 30
0.0
 11
2402.499998890835
 21
1760.000053031566
 31
0.0
  0
LINE
  5
13D18
330
1F
100
AcDbEntity
  8
中心線
100
AcDbLine
 10
2437.499980280995
 20
1795.000034421728
 30
0.0
 11
2367.500017500676
 21
1795.000034421728
 31
0.0
  0
CIRCLE
  5
13D19
330
1F
100
AcDbEntity
  8
実線
100
AcDbCircle
 10
2402.499998890835
 20
1795.000034421728
 30
0.0
 40
12.5
  0
LINE
  5
13D1A
330
1F
100
AcDbEntity
  8
中心線
100
AcDbLine
 10
2302.499998890835
 20
1830.000015811892
 30
0.0
 11
2302.499998890835
 21
1760.000053031566
 31
0.0
  0
LINE
  5
13D1B
330
1F
100
AcDbEntity
  8
中心線
100
AcDbLine
 10
2337.499980280995
 20
1795.000034421728
 30
0.0
 11
2267.500017500676
 21
1795.000034421728
 31
0.0
  0
CIRCLE
  5
13D1C
330
1F
100
AcDbEntity
  8
実線
100
AcDbCircle
 10
2302.499998890835
 20
1795.000034421728
 30
0.0
 40
12.5
  0
LINE
  5
13D1D
330
1F
100
AcDbEntity
  8
中心線
100
AcDbLine
 10
2402.499998890835
 20
1510.000115811889
 30
0.0
 11
2402.499998890835
 21
1580.000078592215
 31
0.0
  0
LINE
  5
13D1E
330
1F
100
AcDbEntity
  8
中心線
100
AcDbLine
 10
2437.499980280995
 20
1545.000097202052
 30
0.0
 11
2367.500017500676
 21
1545.000097202052
 31
0.0
  0
CIRCLE
  5
13D1F
330
1F
100
AcDbEntity
  8
実線
100
AcDbCircle
 10
2402.499998890835
 20
1545.000097202052
 30
0.0
 40
12.5
  0
LINE
  5
13D20
330
1F
100
AcDbEntity
  8
中心線
100
AcDbLine
 10
2302.499998890835
 20
1510.000115811889
 30
0.0
 11
2302.499998890835
 21
1580.000078592215
 31
0.0
  0
LINE
  5
13D21
330
1F
100
AcDbEntity
  8
中心線
100
AcDbLine
 10
2337.499980280995
 20
1545.000097202052
 30
0.0
 11
2267.500017500676
 21
1545.000097202052
 31
0.0
  0
CIRCLE
  5
13D22
330
1F
100
AcDbEntity
  8
実線
100
AcDbCircle
 10
2302.499998890835
 20
1545.000097202052
 30
0.0
 40
12.5
  0
CIRCLE
  5
13D23
330
1F
100
AcDbEntity
  8
実線
100
AcDbCircle
 10
2252.499998890835
 20
1595.000097202052
 30
0.0
 40
12.5
  0
DIMENSION
  5
13D24
330
1F
100
AcDbEntity
  8
寸法線
100
AcDbDimension
280
     0
  2
*D1
 10
2182.499994172522
 20
1522.500014936928
 30
0.0
 11
2182.499994172522
 21
1508.750052773175
 31
0.0
 70
   160
 71
     5
 42
27.49992432750401
 73
     0
 74
     0
 75
     0
  3
STANDARD
100
AcDbAlignedDimension
 13
2002.499979077718
 23
1495.000090609423
 33
0.0
 14
2110.499979077718
 24
1522.500014936927
 34
0.0
 50
90.0
100
AcDbRotatedDimension
1001
ACAD
1000
DSTYLE
1002
{
1070
   271
1070
     1
1002
}
  0
DIMENSION
  5
13D25
330
1F
100
AcDbEntity
  8
寸法線
100
AcDbDimension
280
     0
  2
*D2
 10
2182.499994172522
 20
1809.500015811889
 30
0.0
 11
2182.499994172522
 21
1817.500015811888
 31
0.0
 70
   160
 71
     5
 42
16.0
 73
     0
 74
     0
 75
     0
  3
STANDARD
100
AcDbAlignedDimension
 13
2102.499994172522
 23
1825.500015811888
 33
0.0
 14
2102.499994172522
 24
1809.500015811888
 34
0.0
 50
270.0
100
AcDbRotatedDimension
1001
ACAD
1000
DSTYLE
1002
{
1070
   271
1070
     1
1002
}
  0
LEADER
  5
13D26
330
1F
100
AcDbEntity
  8
寸法線
100
AcDbLeader
  3
STANDARD
 76
     3
 10
2258.749998890835
 20
1755.825351969032
 30
0.0
 10
2353.805076999179
 20
1925.000052673684
 30
0.0
 10
2621.465253933999
 20
1925.000052673684
 30
0.0
211
-1.0
221
0.0
231
0.0
1001
ACAD
1000
DSTYLE
1002
{
1070
   147
1040
0.875
1070
    77
1070
     0
1002
}
  0
TEXT
  5
13D27
330
1F
100
AcDbEntity
  8
寸法線
100
AcDbText
 10
2362.555076999174
 20
1933.750052673682
 30
0.0
 40
25.0
  1
ｶﾊﾞｰﾌﾟﾚｰﾄ連結用孔
 72
     2
 11
2610.888410332507
 21
1958.750052673682
 31
0.0
100
AcDbText
 73
     3
  0
LINE
  5
13D28
330
1F
100
AcDbEntity
  8
中心線
100
AcDbLine
 10
2476.500048423604
 20
1769.999940392815
 30
0.0
 11
2512.500068236714
 21
1769.999940392815
 31
0.0
  0
LINE
  5
13D29
330
1F
100
AcDbEntity
  8
中心線
100
AcDbLine
 10
2476.500048423604
 20
1570.000014116302
 30
0.0
 11
2512.500068236714
 21
1570.000014116302
 31
0.0
  0
TEXT
  5
13D2A
330
1F
100
AcDbEntity
  8
寸法線
100
AcDbText
 10
2956.548055533095
 20
606.7561391440013
 30
0.0
 40
25.0
  1
※　H型鋼（連結部）の長さは、切梁メーカー仕様または施工条件により
 11
2956.548055533095
 21
606.7561391440013
 31
0.0
100
AcDbText
 73
     1
  0
TEXT
  5
13D2B
330
1F
100
AcDbEntity
  8
寸法線
100
AcDbText
 10
2956.548055533095
 20
656.7561391440013
 30
0.0
 40
25.0
  1
※　H型鋼（連結部）の穴開け位置は、切梁メーカー仕様による。
 11
2956.548055533095
 21
656.7561391440013
 31
0.0
100
AcDbText
 73
     1
  0
TEXT
  5
13D2C
330
1F
100
AcDbEntity
  8
寸法線
100
AcDbText
 10
2956.548055533095
 20
556.7561391440013
 30
0.0
 40
25.0
  1
　　変更する場合がある。
 11
2956.548055533095
 21
556.7561391440013
 31
0.0
100
AcDbText
 73
     1
  0
TEXT
  5
13D2D
330
1F
100
AcDbEntity
  8
寸法線
100
AcDbText
 10
2956.548055533095
 20
506.7561391440013
 30
0.0
 40
25.0
  1
※　空洞金具部は鉄筋防錆剤塗装仕上げ。
 11
2956.548055533095
 21
506.7561391440013
 31
0.0
100
AcDbText
 73
     1
  0
TEXT
  5
13D2E
330
1F
100
AcDbEntity
  8
寸法線
100
AcDbText
 10
2956.548055533095
 20
456.7561391440013
 30
0.0
 40
25.0
  1
※　H型鋼（連結部）は赤さび塗装仕上げ。
 11
2956.548055533095
 21
456.7561391440013
 31
0.0
100
AcDbText
 73
     1
  0
LINE
  5
13D2F
330
1F
100
AcDbEntity
  8
実線
100
AcDbLine
 10
1594.500030870233
 20
1465.000036489716
 30
0.0
 11
1594.500030870233
 21
1875.000036489718
 31
0.0
  0
LINE
  5
13D30
330
1F
100
AcDbEntity
  8
実線
100
AcDbLine
 10
1610.500030870233
 20
1465.000036489716
 30
0.0
 11
1610.500030870233
 21
1875.000036489718
 31
0.0
  0
LINE
  5
13D31
330
1F
100
AcDbEntity
  8
実線
100
AcDbLine
 10
1594.500030870233
 20
1875.000036489718
 30
0.0
 11
1610.500030870233
 21
1875.000036489718
 31
0.0
  0
LINE
  5
13D32
330
1F
100
AcDbEntity
  8
実線
100
AcDbLine
 10
1594.500030870233
 20
1465.000036489716
 30
0.0
 11
1610.500030870233
 21
1465.000036489716
 31
0.0
  0
LINE
  5
13D33
330
1F
100
AcDbEntity
  8
破線
100
AcDbLine
 10
1594.500030870233
 20
1845.000036489718
 30
0.0
 11
1610.500030870233
 21
1845.000036489718
 31
0.0
  0
LINE
  5
13D34
330
1F
100
AcDbEntity
  8
破線
100
AcDbLine
 10
1594.500030870233
 20
1790.000036489718
 30
0.0
 11
1610.500030870233
 21
1790.000036489718
 31
0.0
  0
LINE
  5
13D35
330
1F
100
AcDbEntity
  8
破線
100
AcDbLine
 10
1594.500030870233
 20
1550.000036489714
 30
0.0
 11
1610.500030870233
 21
1550.000036489714
 31
0.0
  0
LINE
  5
13D36
330
1F
100
AcDbEntity
  8
破線
100
AcDbLine
 10
1594.500030870233
 20
1495.000036489714
 30
0.0
 11
1610.500030870233
 21
1495.000036489714
 31
0.0
  0
LINE
  5
13D37
330
1F
100
AcDbEntity
  8
実線
100
AcDbLine
 10
1594.500030870233
 20
2065.000001702779
 30
0.0
 11
1594.500030870233
 21
2475.000001702782
 31
0.0
  0
LINE
  5
13D38
330
1F
100
AcDbEntity
  8
実線
100
AcDbLine
 10
1610.500030870233
 20
2065.000001702779
 30
0.0
 11
1610.500030870233
 21
2475.000001702782
 31
0.0
  0
LINE
  5
13D39
330
1F
100
AcDbEntity
  8
実線
100
AcDbLine
 10
1594.500030870233
 20
2475.000001702782
 30
0.0
 11
1610.500030870233
 21
2475.000001702782
 31
0.0
  0
LINE
  5
13D3A
330
1F
100
AcDbEntity
  8
実線
100
AcDbLine
 10
1594.500030870233
 20
2065.000001702779
 30
0.0
 11
1610.500030870233
 21
2065.000001702779
 31
0.0
  0
LINE
  5
13D3B
330
1F
100
AcDbEntity
  8
破線
100
AcDbLine
 10
1594.500030870233
 20
2445.000001702781
 30
0.0
 11
1610.500030870233
 21
2445.000001702781
 31
0.0
  0
LINE
  5
13D3C
330
1F
100
AcDbEntity
  8
破線
100
AcDbLine
 10
1594.500030870233
 20
2390.000001702781
 30
0.0
 11
1610.500030870233
 21
2390.000001702781
 31
0.0
  0
LINE
  5
13D3D
330
1F
100
AcDbEntity
  8
破線
100
AcDbLine
 10
1594.500030870233
 20
2150.000001702777
 30
0.0
 11
1610.500030870233
 21
2150.000001702777
 31
0.0
  0
LINE
  5
13D3E
330
1F
100
AcDbEntity
  8
破線
100
AcDbLine
 10
1594.500030870233
 20
2095.000001702777
 30
0.0
 11
1610.500030870233
 21
2095.000001702777
 31
0.0
  0
LINE
  5
13D3F
330
1F
100
AcDbEntity
  8
実線
100
AcDbLine
 10
1986.500082662747
 20
2095.00000170278
 30
0.0
 11
1610.500030870233
 21
2095.00000170278
 31
0.0
  0
LINE
  5
13D40
330
1F
100
AcDbEntity
  8
実線
100
AcDbLine
 10
1954.500082662747
 20
2150.000001702781
 30
0.0
 11
1610.500030870233
 21
2150.000001702781
 31
0.0
  0
LINE
  5
13D41
330
1F
100
AcDbEntity
  8
実線
100
AcDbLine
 10
1954.500082662747
 20
2390.000001702781
 30
0.0
 11
1610.500030870233
 21
2390.000001702781
 31
0.0
  0
LINE
  5
13D42
330
1F
100
AcDbEntity
  8
実線
100
AcDbLine
 10
1986.500082662747
 20
2445.000001702781
 30
0.0
 11
1610.500030870233
 21
2445.000001702781
 31
0.0
  0
LINE
  5
13D43
330
1F
100
AcDbEntity
  8
実線
100
AcDbLine
 10
1986.500082662747
 20
1495.000036489718
 30
0.0
 11
1610.500030870233
 21
1495.000036489718
 31
0.0
  0
LINE
  5
13D44
330
1F
100
AcDbEntity
  8
実線
100
AcDbLine
 10
1954.500082662747
 20
1550.000036489718
 30
0.0
 11
1610.500030870233
 21
1550.000036489718
 31
0.0
  0
LINE
  5
13D45
330
1F
100
AcDbEntity
  8
実線
100
AcDbLine
 10
1954.500082662747
 20
1790.000036489718
 30
0.0
 11
1610.500030870233
 21
1790.000036489718
 31
0.0
  0
LINE
  5
13D46
330
1F
100
AcDbEntity
  8
実線
100
AcDbLine
 10
1986.500082662747
 20
1845.000036489718
 30
0.0
 11
1610.500030870233
 21
1845.000036489718
 31
0.0
  0
LINE
  5
13D47
330
1F
100
AcDbEntity
  8
寸法線
100
AcDbLine
 10
1149.004003807595
 20
1154.999999999958
 30
0.0
 11
1469.004003807595
 21
1154.999999999958
 31
0.0
  0
TEXT
  5
13D48
330
1F
100
AcDbEntity
  8
寸法線
100
AcDbText
 10
1157.754003807595
 20
1163.749999999958
 30
0.0
 40
37.5
  1
空洞金具詳細図
 72
     1
 11
1309.004003807595
 21
1163.749999999958
 31
0.0
100
AcDbText
 73
     1
  0
LINE
  5
143BE
330
1F
100
AcDbEntity
  8
実線
100
AcDbLine
 10
909.0040038075947
 20
565.0000182445673
 30
0.0
 11
909.0040038075947
 21
935.0000182445674
 31
0.0
  0
LINE
  5
143BF
330
1F
100
AcDbEntity
  8
実線
100
AcDbLine
 10
925.0040038075947
 20
565.0000182445673
 30
0.0
 11
925.0040038075947
 21
935.0000182445674
 31
0.0
  0
LINE
  5
143C0
330
1F
100
AcDbEntity
  8
実線
100
AcDbLine
 10
909.0040038075947
 20
934.9999999999582
 30
0.0
 11
925.0040038075947
 21
934.9999999999582
 31
0.0
  0
LINE
  5
143C1
330
1F
100
AcDbEntity
  8
実線
100
AcDbLine
 10
909.0040038075947
 20
564.9999999999582
 30
0.0
 11
925.0040038075947
 21
564.9999999999582
 31
0.0
  0
LINE
  5
143C2
330
1F
100
AcDbEntity
  8
実線
100
AcDbLine
 10
937.0040038075948
 20
625.4999999999581
 30
0.0
 11
957.004003807595
 21
625.4999999999581
 31
0.0
  0
LINE
  5
143C3
330
1F
100
AcDbEntity
  8
実線
100
AcDbLine
 10
957.004003807595
 20
625.4999999999581
 30
0.0
 11
957.004003807595
 21
874.4999999999581
 31
0.0
  0
LINE
  5
143C4
330
1F
100
AcDbEntity
  8
実線
100
AcDbLine
 10
1661.004003807595
 20
625.4999999999581
 30
0.0
 11
1661.004003807595
 21
874.4999999999581
 31
0.0
  0
LINE
  5
143C5
330
1F
100
AcDbEntity
  8
実線
100
AcDbLine
 10
1661.004003807595
 20
625.4999999999581
 30
0.0
 11
1681.004003807595
 21
625.4999999999581
 31
0.0
  0
LINE
  5
143C6
330
1F
100
AcDbEntity
  8
実線
100
AcDbLine
 10
925.0040038075947
 20
637.4999999999581
 30
0.0
 11
937.0040038075948
 21
625.4999999999581
 31
0.0
  0
LINE
  5
143C7
330
1F
100
AcDbEntity
  8
実線
100
AcDbLine
 10
1681.004003807595
 20
625.4999999999581
 30
0.0
 11
1693.004003807595
 21
637.4999999999581
 31
0.0
  0
LINE
  5
143C8
330
1F
100
AcDbEntity
  8
実線
100
AcDbLine
 10
925.0040038075947
 20
629.9999999999581
 30
0.0
 11
932.004003807595
 21
629.9999999999581
 31
0.0
  0
LINE
  5
143C9
330
1F
100
AcDbEntity
  8
実線
100
AcDbLine
 10
1686.004003807595
 20
629.9999999999581
 30
0.0
 11
1693.004003807595
 21
629.9999999999581
 31
0.0
  0
LINE
  5
143CA
330
1F
100
AcDbEntity
  8
破線
100
AcDbLine
 10
932.004003807595
 20
629.9999999999581
 30
0.0
 11
957.004003807595
 21
629.9999999999581
 31
0.0
  0
LINE
  5
143CB
330
1F
100
AcDbEntity
  8
破線
100
AcDbLine
 10
1661.004003807595
 20
629.9999999999581
 30
0.0
 11
1686.004003807595
 21
629.9999999999581
 31
0.0
  0
LINE
  5
143CC
330
1F
100
AcDbEntity
  8
中心線
100
AcDbLine
 10
899.0040038075949
 20
602.4999999999582
 30
0.0
 11
1719.004107392609
 21
602.4999999999582
 31
0.0
  0
LINE
  5
143CD
330
1F
100
AcDbEntity
  8
破線
100
AcDbLine
 10
925.0040038075947
 20
586.9999999999581
 30
0.0
 11
957.004003807595
 21
586.9999999999581
 31
0.0
  0
LINE
  5
143CE
330
1F
100
AcDbEntity
  8
破線
100
AcDbLine
 10
957.004003807595
 20
586.9999999999581
 30
0.0
 11
957.004003807595
 21
574.9999999999581
 31
0.0
  0
LINE
  5
143CF
330
1F
100
AcDbEntity
  8
中心線
100
AcDbLine
 10
894.0040038075949
 20
749.9999999999581
 30
0.0
 11
1724.00410739261
 21
749.9999999999581
 31
0.0
  0
LINE
  5
143D0
330
1F
100
AcDbEntity
  8
中心線
100
AcDbLine
 10
899.0040038075949
 20
897.4999999999582
 30
0.0
 11
1719.004107392609
 21
897.4999999999582
 31
0.0
  0
LINE
  5
143D1
330
1F
100
AcDbEntity
  8
破線
100
AcDbLine
 10
1661.004003807595
 20
869.9999999999581
 30
0.0
 11
1686.004003807595
 21
869.9999999999581
 31
0.0
  0
LINE
  5
143D2
330
1F
100
AcDbEntity
  8
実線
100
AcDbLine
 10
1686.004003807595
 20
869.9999999999581
 30
0.0
 11
1693.004003807595
 21
869.9999999999581
 31
0.0
  0
LINE
  5
143D3
330
1F
100
AcDbEntity
  8
実線
100
AcDbLine
 10
1661.004003807595
 20
874.4999999999581
 30
0.0
 11
1681.004003807595
 21
874.4999999999581
 31
0.0
  0
LINE
  5
143D4
330
1F
100
AcDbEntity
  8
実線
100
AcDbLine
 10
1681.004003807595
 20
874.4999999999581
 30
0.0
 11
1693.004003807595
 21
862.4999999999582
 31
0.0
  0
LINE
  5
143D5
330
1F
100
AcDbEntity
  8
破線
100
AcDbLine
 10
925.0040038075947
 20
912.9999999999581
 30
0.0
 11
957.004003807595
 21
912.9999999999581
 31
0.0
  0
LINE
  5
143D6
330
1F
100
AcDbEntity
  8
破線
100
AcDbLine
 10
957.004003807595
 20
912.9999999999581
 30
0.0
 11
957.004003807595
 21
924.9999999999582
 31
0.0
  0
LINE
  5
143D7
330
1F
100
AcDbEntity
  8
破線
100
AcDbLine
 10
932.004003807595
 20
869.9999999999581
 30
0.0
 11
957.004003807595
 21
869.9999999999581
 31
0.0
  0
LINE
  5
143D8
330
1F
100
AcDbEntity
  8
実線
100
AcDbLine
 10
937.0040038075948
 20
874.4999999999581
 30
0.0
 11
957.004003807595
 21
874.4999999999581
 31
0.0
  0
LINE
  5
143D9
330
1F
100
AcDbEntity
  8
実線
100
AcDbLine
 10
925.0040038075947
 20
862.4999999999582
 30
0.0
 11
937.0040038075948
 21
874.4999999999581
 31
0.0
  0
LINE
  5
143DA
330
1F
100
AcDbEntity
  8
実線
100
AcDbLine
 10
925.0040038075947
 20
869.9999999999581
 30
0.0
 11
932.004003807595
 21
869.9999999999581
 31
0.0
  0
LINE
  5
143DB
330
1F
100
AcDbEntity
  8
破線
100
AcDbLine
 10
1693.004003807595
 20
586.9999999999581
 30
0.0
 11
1661.004003807595
 21
586.9999999999581
 31
0.0
  0
LINE
  5
143DC
330
1F
100
AcDbEntity
  8
破線
100
AcDbLine
 10
1661.004003807595
 20
586.9999999999581
 30
0.0
 11
1661.004003807595
 21
574.9999999999581
 31
0.0
  0
LINE
  5
143DD
330
1F
100
AcDbEntity
  8
破線
100
AcDbLine
 10
1661.004003807595
 20
912.9999999999581
 30
0.0
 11
1661.004003807595
 21
924.9999999999582
 31
0.0
  0
LINE
  5
143DE
330
1F
100
AcDbEntity
  8
破線
100
AcDbLine
 10
1693.004003807595
 20
912.9999999999581
 30
0.0
 11
1661.004003807595
 21
912.9999999999581
 31
0.0
  0
LINE
  5
143DF
330
1F
100
AcDbEntity
  8
破線
100
AcDbLine
 10
925.0040038075947
 20
755.9999999999582
 30
0.0
 11
957.004003807595
 21
755.9999999999582
 31
0.0
  0
LINE
  5
143E0
330
1F
100
AcDbEntity
  8
破線
100
AcDbLine
 10
925.0040038075947
 20
743.9999999999582
 30
0.0
 11
957.004003807595
 21
743.9999999999582
 31
0.0
  0
LINE
  5
143E1
330
1F
100
AcDbEntity
  8
破線
100
AcDbLine
 10
1661.004003807595
 20
755.9999999999582
 30
0.0
 11
1693.004003807595
 21
755.9999999999582
 31
0.0
  0
LINE
  5
143E2
330
1F
100
AcDbEntity
  8
破線
100
AcDbLine
 10
1661.004003807595
 20
743.9999999999582
 30
0.0
 11
1693.004003807595
 21
743.9999999999582
 31
0.0
  0
DIMENSION
  5
143E3
330
1F
100
AcDbEntity
  8
寸法線
100
AcDbDimension
280
     0
  2
*D40
 10
1633.004003807595
 20
924.9999999999586
 30
0.0
 11
1633.004003807595
 21
795.7322330469779
 31
0.0
 70
   160
  1
%%C<>
 71
     5
 42
55.0
 73
     0
 74
     0
 75
     0
  3
STANDARD
100
AcDbAlignedDimension
 13
1633.004003807595
 23
869.9999999999581
 33
0.0
 14
1633.004003807595
 24
924.9999999999582
 34
0.0
 50
90.0
100
AcDbRotatedDimension
  0
LINE
  5
143E4
330
1F
100
AcDbEntity
  8
仮想線
100
AcDbLine
 10
980.4670560617653
 20
514.9999999999582
 30
0.0
 11
980.4670560617653
 21
984.9999999999582
 31
0.0
  0
TEXT
  5
143E5
330
1F
100
AcDbEntity
  8
寸法線
100
AcDbText
 10
1030.122278428812
 20
963.799999999958
 30
0.0
 40
21.0
  1
Ａ
 72
     4
 11
1039.922278428812
 21
974.9999999999582
 31
0.0
100
AcDbText
  0
TEXT
  5
143E6
330
1F
100
AcDbEntity
  8
寸法線
100
AcDbText
 10
1030.122278428812
 20
513.7999999999581
 30
0.0
 40
21.0
  1
Ａ
 72
     4
 11
1039.922278428812
 21
524.9999999999581
 31
0.0
100
AcDbText
  0
LINE
  5
143E7
330
1F
100
AcDbEntity
  8
実線
100
AcDbLine
 10
1693.004003807595
 20
565.0000182445673
 30
0.0
 11
1693.004003807595
 21
935.0000182445674
 31
0.0
  0
LINE
  5
143E8
330
1F
100
AcDbEntity
  8
実線
100
AcDbLine
 10
1709.004003807595
 20
565.0000182445673
 30
0.0
 11
1709.004003807595
 21
935.0000182445674
 31
0.0
  0
LINE
  5
143E9
330
1F
100
AcDbEntity
  8
実線
100
AcDbLine
 10
1693.004003807595
 20
934.9999999999582
 30
0.0
 11
1709.004003807595
 21
934.9999999999582
 31
0.0
  0
LINE
  5
143EA
330
1F
100
AcDbEntity
  8
実線
100
AcDbLine
 10
1693.004003807595
 20
564.9999999999582
 30
0.0
 11
1709.004003807595
 21
564.9999999999582
 31
0.0
  0
LINE
  5
143EB
330
1F
100
AcDbEntity
  8
実線
100
AcDbLine
 10
1301.004003807595
 20
544.9999999999581
 30
0.0
 11
1301.004003807595
 21
954.9999999999581
 31
0.0
  0
LINE
  5
143EC
330
1F
100
AcDbEntity
  8
実線
100
AcDbLine
 10
1317.004003807595
 20
544.9999999999581
 30
0.0
 11
1317.004003807595
 21
954.9999999999581
 31
0.0
  0
LINE
  5
143ED
330
1F
100
AcDbEntity
  8
実線
100
AcDbLine
 10
1301.004003807595
 20
954.9999999999581
 30
0.0
 11
1317.004003807595
 21
954.9999999999581
 31
0.0
  0
LINE
  5
143EE
330
1F
100
AcDbEntity
  8
実線
100
AcDbLine
 10
1301.004003807595
 20
544.9999999999581
 30
0.0
 11
1317.004003807595
 21
544.9999999999581
 31
0.0
  0
LINE
  5
143EF
330
1F
100
AcDbEntity
  8
破線
100
AcDbLine
 10
1301.004003807595
 20
924.9999999999582
 30
0.0
 11
1317.004003807595
 21
924.9999999999582
 31
0.0
  0
LINE
  5
143F0
330
1F
100
AcDbEntity
  8
破線
100
AcDbLine
 10
1301.004003807595
 20
869.9999999999581
 30
0.0
 11
1317.004003807595
 21
869.9999999999581
 31
0.0
  0
LINE
  5
143F1
330
1F
100
AcDbEntity
  8
破線
100
AcDbLine
 10
1301.004003807595
 20
629.9999999999581
 30
0.0
 11
1317.004003807595
 21
629.9999999999581
 31
0.0
  0
LINE
  5
143F2
330
1F
100
AcDbEntity
  8
破線
100
AcDbLine
 10
1301.004003807595
 20
574.9999999999581
 30
0.0
 11
1317.004003807595
 21
574.9999999999581
 31
0.0
  0
LINE
  5
143F3
330
1F
100
AcDbEntity
  8
仮想線
100
AcDbLine
 10
1372.467056061765
 20
514.9999999999582
 30
0.0
 11
1372.467056061765
 21
984.9999999999582
 31
0.0
  0
TEXT
  5
143F4
330
1F
100
AcDbEntity
  8
寸法線
100
AcDbText
 10
1421.422278428812
 20
963.799999999958
 30
0.0
 40
21.0
  1
Ｂ
 72
     4
 11
1431.922278428812
 21
974.9999999999582
 31
0.0
100
AcDbText
  0
TEXT
  5
143F5
330
1F
100
AcDbEntity
  8
寸法線
100
AcDbText
 10
1421.422278428812
 20
513.7999999999581
 30
0.0
 40
21.0
  1
Ｂ
 72
     4
 11
1431.922278428812
 21
524.9999999999581
 31
0.0
100
AcDbText
  0
LINE
  5
143F6
330
1F
100
AcDbEntity
  8
実線
100
AcDbLine
 10
957.004003807595
 20
869.9999817553198
 30
0.0
 11
1301.004003807595
 21
869.9999817553216
 31
0.0
  0
LINE
  5
143F7
330
1F
100
AcDbEntity
  8
実線
100
AcDbLine
 10
925.0041073926094
 20
924.9999817553199
 30
0.0
 11
1301.004003807595
 21
924.9999817553199
 31
0.0
  0
LINE
  5
143F8
330
1F
100
AcDbEntity
  8
実線
100
AcDbLine
 10
1317.004003807595
 20
869.9999817553216
 30
0.0
 11
1661.004003807595
 21
869.9999817553198
 31
0.0
  0
LINE
  5
143F9
330
1F
100
AcDbEntity
  8
実線
100
AcDbLine
 10
1317.004003807595
 20
924.9999817553199
 30
0.0
 11
1693.004107392609
 21
924.9999817553199
 31
0.0
  0
LINE
  5
143FA
330
1F
100
AcDbEntity
  8
実線
100
AcDbLine
 10
957.004003807595
 20
630.0000182445672
 30
0.0
 11
1301.004003807595
 21
630.0000182445672
 31
0.0
  0
LINE
  5
143FB
330
1F
100
AcDbEntity
  8
実線
100
AcDbLine
 10
925.0041073926094
 20
575.0000182445672
 30
0.0
 11
1301.004003807595
 21
575.0000182445672
 31
0.0
  0
LINE
  5
143FC
330
1F
100
AcDbEntity
  8
実線
100
AcDbLine
 10
1317.004003807595
 20
630.0000182445672
 30
0.0
 11
1661.004003807595
 21
630.0000182445672
 31
0.0
  0
LINE
  5
143FD
330
1F
100
AcDbEntity
  8
実線
100
AcDbLine
 10
1317.004003807595
 20
575.0000182445672
 30
0.0
 11
1693.004107392609
 21
575.0000182445672
 31
0.0
  0
LEADER
  5
143FE
330
1F
100
AcDbEntity
  8
寸法線
100
AcDbLeader
  3
STANDARD
 76
     2
 10
980.4670560617653
 20
974.9999999999582
 30
0.0
 10
1027.86379124761
 20
974.9999999999582
 30
0.0
1001
ACAD
1000
DSTYLE
1002
{
1070
   147
1040
0.875
1070
    77
1070
     0
1070
    49
1040
0.5
1002
}
  0
LEADER
  5
143FF
330
1F
100
AcDbEntity
  8
寸法線
100
AcDbLeader
  3
STANDARD
 76
     2
 10
980.4670560617653
 20
524.9999999999581
 30
0.0
 10
1027.86379124761
 20
524.9999999999581
 30
0.0
1001
ACAD
1000
DSTYLE
1002
{
1070
   147
1040
0.875
1070
    77
1070
     0
1070
    49
1040
0.5
1002
}
  0
LEADER
  5
14400
330
1F
100
AcDbEntity
  8
寸法線
100
AcDbLeader
  3
STANDARD
 76
     2
 10
1372.467056061765
 20
974.9999999999582
 30
0.0
 10
1419.86379124761
 20
974.9999999999582
 30
0.0
1001
ACAD
1000
DSTYLE
1002
{
1070
   147
1040
0.875
1070
    77
1070
     0
1070
    49
1040
0.5
1002
}
  0
LEADER
  5
14401
330
1F
100
AcDbEntity
  8
寸法線
100
AcDbLeader
  3
STANDARD
 76
     2
 10
1372.467056061765
 20
524.9999999999581
 30
0.0
 10
1419.86379124761
 20
524.9999999999581
 30
0.0
1001
ACAD
1000
DSTYLE
1002
{
1070
   147
1040
0.875
1070
    77
1070
     0
1070
    49
1040
0.5
1002
}
  0
DIMENSION
  5
14402
330
1F
100
AcDbEntity
  8
寸法線
100
AcDbDimension
280
     0
  2
*D41
 10
1317.004003807595
 20
1055.000014843657
 30
0.0
 11
1309.004003807595
 21
1055.000014843657
 31
0.0
 70
   160
 71
     5
 42
16.0
 73
     0
 74
     0
 75
     0
  3
STANDARD
100
AcDbAlignedDimension
 13
1301.004003807595
 23
954.9999999999581
 33
0.0
 14
1317.004003807595
 24
954.9999999999581
 34
0.0
100
AcDbRotatedDimension
  0
DIMENSION
  5
14403
330
1F
100
AcDbEntity
  8
寸法線
100
AcDbDimension
280
     0
  2
*D21
 10
957.004003807595
 20
445.0000182445965
 30
0.0
 11
941.0040038075948
 21
445.0000182445965
 31
0.0
 70
   160
 71
     5
 42
32.0
 73
     0
 74
     0
 75
     0
  3
STANDARD
100
AcDbAlignedDimension
 13
925.0040038075947
 23
564.9999999999872
 33
0.0
 14
957.004003807595
 24
574.9999999999872
 34
0.0
100
AcDbRotatedDimension
  0
DIMENSION
  5
14404
330
1F
100
AcDbEntity
  8
寸法線
100
AcDbDimension
280
     0
  2
*D22
 10
1661.004003807595
 20
445.0000182445965
 30
0.0
 11
1309.004003807595
 21
466.2500182445965
 31
0.0
 70
    32
 71
     5
 42
704.0
 73
     0
 74
     0
 75
     0
  3
STANDARD
100
AcDbAlignedDimension
 13
957.004003807595
 23
574.9999999999872
 33
0.0
 14
1661.004003807595
 24
574.9999999999581
 34
0.0
100
AcDbRotatedDimension
  0
DIMENSION
  5
14405
330
1F
100
AcDbEntity
  8
寸法線
100
AcDbDimension
280
     0
  2
*D23
 10
925.0040038075947
 20
385.0000182445965
 30
0.0
 11
917.0040038075947
 21
385.0000182445965
 31
0.0
 70
   160
 71
     5
 42
16.0
 73
     0
 74
     0
 75
     0
  3
STANDARD
100
AcDbAlignedDimension
 13
909.0040038075947
 23
564.9999999999872
 33
0.0
 14
925.0040038075947
 24
564.9999999999872
 34
0.0
100
AcDbRotatedDimension
  0
DIMENSION
  5
14406
330
1F
100
AcDbEntity
  8
寸法線
100
AcDbDimension
280
     0
  2
*D24
 10
1693.004003807595
 20
385.0000182445965
 30
0.0
 11
1309.004003807595
 21
406.2500182445965
 31
0.0
 70
    32
 71
     5
 42
768.0
 73
     0
 74
     0
 75
     0
  3
STANDARD
100
AcDbAlignedDimension
 13
925.0040038075947
 23
565.0000182445965
 33
0.0
 14
1693.004003807595
 24
564.9999999999582
 34
0.0
100
AcDbRotatedDimension
  0
DIMENSION
  5
14407
330
1F
100
AcDbEntity
  8
寸法線
100
AcDbDimension
280
     0
  2
*D25
 10
1709.004003807595
 20
325.0000182445965
 30
0.0
 11
1309.004003807595
 21
346.2500182445965
 31
0.0
 70
    32
 71
     5
 42
800.0
 73
     0
 74
     0
 75
     0
  3
STANDARD
100
AcDbAlignedDimension
 13
909.0040038075947
 23
565.0000182445965
 33
0.0
 14
1709.004003807595
 24
565.0000182445673
 34
0.0
100
AcDbRotatedDimension
  0
DIMENSION
  5
14408
330
1F
100
AcDbEntity
  8
寸法線
100
AcDbDimension
280
     0
  2
*D26
 10
1301.004003807595
 20
1055.000014843657
 30
0.0
 11
1113.004003807595
 21
1076.250014843657
 31
0.0
 70
    32
 71
     5
 42
376.0
 73
     0
 74
     0
 75
     0
  3
STANDARD
100
AcDbAlignedDimension
 13
925.0040038075947
 23
935.0000182445963
 33
0.0
 14
1301.004003807595
 24
954.9999999999581
 34
0.0
 50
0.0000040595936363
100
AcDbRotatedDimension
  0
DIMENSION
  5
14409
330
1F
100
AcDbEntity
  8
寸法線
100
AcDbDimension
280
     0
  2
*D27
 10
1317.004010892922
 20
1055.000004215662
 30
0.0
 11
1505.004013107086
 21
1076.249990895246
 31
0.0
 70
    32
 71
     5
 42
376.0000014170646
 73
     0
 74
     0
 75
     0
  3
STANDARD
100
AcDbAlignedDimension
 13
1693.004003807595
 23
934.9999999999582
 33
0.0
 14
1317.004003807595
 24
954.9999999999581
 34
0.0
 50
179.9999959404063
100
AcDbRotatedDimension
  0
DIMENSION
  5
1440A
330
1F
100
AcDbEntity
  8
寸法線
100
AcDbDimension
280
     0
  2
*D28
 10
1661.004003807595
 20
445.0000182445965
 30
0.0
 11
1677.004003807595
 21
445.0000182445965
 31
0.0
 70
   160
 71
     5
 42
32.0
 73
     0
 74
     0
 75
     0
  3
STANDARD
100
AcDbAlignedDimension
 13
1693.004003807595
 23
564.9999999999872
 33
0.0
 14
1661.004003807595
 24
574.9999999999872
 34
0.0
 50
180.0
100
AcDbRotatedDimension
  0
DIMENSION
  5
1440B
330
1F
100
AcDbEntity
  8
寸法線
100
AcDbDimension
280
     0
  2
*D29
 10
1693.004003807595
 20
385.0000182445965
 30
0.0
 11
1701.004003807595
 21
385.0000182445965
 31
0.0
 70
   160
 71
     5
 42
16.0
 73
     0
 74
     0
 75
     0
  3
STANDARD
100
AcDbAlignedDimension
 13
1709.004003807595
 23
564.9999999999872
 33
0.0
 14
1693.004003807595
 24
564.9999999999872
 34
0.0
 50
180.0
100
AcDbRotatedDimension
  0
LINE
  5
1440C
330
1F
100
AcDbEntity
  8
破線
100
AcDbLine
 10
449.5039999999988
 20
913.0000182445673
 30
0.0
 11
698.5039999999989
 21
913.0000182445673
 31
0.0
  0
LINE
  5
1440D
330
1F
100
AcDbEntity
  8
破線
100
AcDbLine
 10
411.253999999999
 20
756.0000182445674
 30
0.0
 11
736.7539999999989
 21
756.0000182445674
 31
0.0
  0
LINE
  5
1440E
330
1F
100
AcDbEntity
  8
破線
100
AcDbLine
 10
411.253999999999
 20
744.0000182445674
 30
0.0
 11
736.7539999999989
 21
744.0000182445674
 31
0.0
  0
LINE
  5
1440F
330
1F
100
AcDbEntity
  8
破線
100
AcDbLine
 10
698.5039999999989
 20
587.0000182445672
 30
0.0
 11
449.5039999999988
 21
587.0000182445672
 31
0.0
  0
LINE
  5
14410
330
1F
100
AcDbEntity
  8
破線
100
AcDbLine
 10
698.5039999999989
 20
575.0000182445672
 30
0.0
 11
449.5039999999988
 21
575.0000182445672
 31
0.0
  0
LINE
  5
14411
330
1F
100
AcDbEntity
  8
破線
100
AcDbLine
 10
449.5039999999988
 20
925.0000182445674
 30
0.0
 11
698.5039999999989
 21
925.0000182445674
 31
0.0
  0
LINE
  5
14412
330
1F
100
AcDbEntity
  8
中心線
100
AcDbLine
 10
379.0041073926095
 20
750.0000182445674
 30
0.0
 11
769.0041073926095
 21
750.0000182445674
 31
0.0
  0
LINE
  5
14413
330
1F
100
AcDbEntity
  8
実線
100
AcDbLine
 10
389.0041073926095
 20
935.0000364892055
 30
0.0
 11
759.0041073926093
 21
935.0000364892055
 31
0.0
  0
LINE
  5
14414
330
1F
100
AcDbEntity
  8
実線
100
AcDbLine
 10
389.0041073926095
 20
565.0000364892057
 30
0.0
 11
759.0041073926093
 21
565.0000364892057
 31
0.0
  0
LINE
  5
14415
330
1F
100
AcDbEntity
  8
破線
100
AcDbLine
 10
411.0039999999989
 20
625.5000182445672
 30
0.0
 11
411.0039999999989
 21
874.5000182445673
 31
0.0
  0
LINE
  5
14416
330
1F
100
AcDbEntity
  8
破線
100
AcDbLine
 10
399.003999999999
 20
625.5000182445672
 30
0.0
 11
399.003999999999
 21
874.5000182445673
 31
0.0
  0
LINE
  5
14417
330
1F
100
AcDbEntity
  8
実線
100
AcDbLine
 10
389.0041073926095
 20
565.0000364892057
 30
0.0
 11
389.0041073926095
 21
935.0000364892055
 31
0.0
  0
LINE
  5
14418
330
1F
100
AcDbEntity
  8
中心線
100
AcDbLine
 10
426.503999999999
 20
652.5000182445673
 30
0.0
 11
426.503999999999
 21
552.5000182445673
 31
0.0
  0
LINE
  5
14419
330
1F
100
AcDbEntity
  8
中心線
100
AcDbLine
 10
376.503999999999
 20
602.5000182445673
 30
0.0
 11
476.503999999999
 21
602.5000182445673
 31
0.0
  0
CIRCLE
  5
1441A
330
1F
100
AcDbEntity
  8
破線
100
AcDbCircle
 10
426.503999999999
 20
602.5000182445673
 30
0.0
 40
27.5
  0
LINE
  5
1441B
330
1F
100
AcDbEntity
  8
破線
100
AcDbLine
 10
449.5039999999988
 20
575.0000182445672
 30
0.0
 11
449.5039999999988
 21
587.0000182445672
 31
0.0
  0
LINE
  5
1441C
330
1F
100
AcDbEntity
  8
破線
100
AcDbLine
 10
399.003999999999
 20
625.5000182445672
 30
0.0
 11
411.0039999999989
 21
625.5000182445672
 31
0.0
  0
LINE
  5
1441D
330
1F
100
AcDbEntity
  8
破線
100
AcDbLine
 10
411.253999999999
 20
744.0000182445674
 30
0.0
 11
411.253999999999
 21
756.0000182445674
 31
0.0
  0
LINE
  5
1441E
330
1F
100
AcDbEntity
  8
中心線
100
AcDbLine
 10
376.503999999999
 20
897.5000182445674
 30
0.0
 11
476.503999999999
 21
897.5000182445674
 31
0.0
  0
LINE
  5
1441F
330
1F
100
AcDbEntity
  8
中心線
100
AcDbLine
 10
426.503999999999
 20
947.5000182445674
 30
0.0
 11
426.503999999999
 21
847.5000182445674
 31
0.0
  0
CIRCLE
  5
14420
330
1F
100
AcDbEntity
  8
破線
100
AcDbCircle
 10
426.503999999999
 20
897.5000182445674
 30
0.0
 40
27.5
  0
LINE
  5
14421
330
1F
100
AcDbEntity
  8
破線
100
AcDbLine
 10
399.003999999999
 20
874.5000182445673
 30
0.0
 11
411.0039999999989
 21
874.5000182445673
 31
0.0
  0
LINE
  5
14422
330
1F
100
AcDbEntity
  8
破線
100
AcDbLine
 10
449.5039999999988
 20
925.0000182445674
 30
0.0
 11
449.5039999999988
 21
913.0000182445673
 31
0.0
  0
LINE
  5
14423
330
1F
100
AcDbEntity
  8
破線
100
AcDbLine
 10
737.0039999999988
 20
874.5000182445673
 30
0.0
 11
737.0039999999988
 21
625.5000182445672
 31
0.0
  0
LINE
  5
14424
330
1F
100
AcDbEntity
  8
破線
100
AcDbLine
 10
568.003999999999
 20
912.5000182445674
 30
0.0
 11
568.003999999999
 21
756.0000182445674
 31
0.0
  0
LINE
  5
14425
330
1F
100
AcDbEntity
  8
破線
100
AcDbLine
 10
580.003999999999
 20
912.5000182445674
 30
0.0
 11
580.003999999999
 21
756.0000182445674
 31
0.0
  0
LINE
  5
14426
330
1F
100
AcDbEntity
  8
破線
100
AcDbLine
 10
749.0039999999988
 20
874.5000182445673
 30
0.0
 11
749.0039999999988
 21
625.5000182445672
 31
0.0
  0
LINE
  5
14427
330
1F
100
AcDbEntity
  8
中心線
100
AcDbLine
 10
574.0039999999988
 20
945.0000364892057
 30
0.0
 11
574.0039999999988
 21
555.0000364892057
 31
0.0
  0
LINE
  5
14428
330
1F
100
AcDbEntity
  8
実線
100
AcDbLine
 10
759.0041073926093
 20
565.0000364892057
 30
0.0
 11
759.0041073926093
 21
935.0000364892055
 31
0.0
  0
LINE
  5
14429
330
1F
100
AcDbEntity
  8
破線
100
AcDbLine
 10
568.003999999999
 20
744.0000182445674
 30
0.0
 11
568.003999999999
 21
587.5000182445672
 31
0.0
  0
LINE
  5
1442A
330
1F
100
AcDbEntity
  8
破線
100
AcDbLine
 10
580.003999999999
 20
744.0000182445674
 30
0.0
 11
580.003999999999
 21
587.5000182445672
 31
0.0
  0
LINE
  5
1442B
330
1F
100
AcDbEntity
  8
中心線
100
AcDbLine
 10
721.5039999999988
 20
652.5000182445673
 30
0.0
 11
721.5039999999988
 21
552.5000182445673
 31
0.0
  0
LINE
  5
1442C
330
1F
100
AcDbEntity
  8
中心線
100
AcDbLine
 10
671.503999999999
 20
602.5000182445673
 30
0.0
 11
771.5039999999988
 21
602.5000182445673
 31
0.0
  0
LINE
  5
1442D
330
1F
100
AcDbEntity
  8
破線
100
AcDbLine
 10
568.003999999999
 20
587.5000182445672
 30
0.0
 11
580.003999999999
 21
587.5000182445672
 31
0.0
  0
CIRCLE
  5
1442E
330
1F
100
AcDbEntity
  8
破線
100
AcDbCircle
 10
721.5039999999988
 20
602.5000182445673
 30
0.0
 40
27.5
  0
LINE
  5
1442F
330
1F
100
AcDbEntity
  8
破線
100
AcDbLine
 10
698.5039999999989
 20
575.0000182445672
 30
0.0
 11
698.5039999999989
 21
587.0000182445672
 31
0.0
  0
LINE
  5
14430
330
1F
100
AcDbEntity
  8
破線
100
AcDbLine
 10
749.0039999999988
 20
625.5000182445672
 30
0.0
 11
737.0039999999988
 21
625.5000182445672
 31
0.0
  0
LINE
  5
14431
330
1F
100
AcDbEntity
  8
破線
100
AcDbLine
 10
736.7539999999989
 20
756.0000182445674
 30
0.0
 11
736.7539999999989
 21
744.0000182445674
 31
0.0
  0
LINE
  5
14432
330
1F
100
AcDbEntity
  8
中心線
100
AcDbLine
 10
671.503999999999
 20
897.5000182445674
 30
0.0
 11
771.5039999999988
 21
897.5000182445674
 31
0.0
  0
LINE
  5
14433
330
1F
100
AcDbEntity
  8
破線
100
AcDbLine
 10
568.003999999999
 20
912.5000182445674
 30
0.0
 11
580.003999999999
 21
912.5000182445674
 31
0.0
  0
LINE
  5
14434
330
1F
100
AcDbEntity
  8
中心線
100
AcDbLine
 10
721.5039999999988
 20
947.5000182445674
 30
0.0
 11
721.5039999999988
 21
847.5000182445674
 31
0.0
  0
CIRCLE
  5
14435
330
1F
100
AcDbEntity
  8
破線
100
AcDbCircle
 10
721.5039999999988
 20
897.5000182445674
 30
0.0
 40
27.5
  0
LINE
  5
14436
330
1F
100
AcDbEntity
  8
破線
100
AcDbLine
 10
749.0039999999988
 20
874.5000182445673
 30
0.0
 11
737.0039999999988
 21
874.5000182445673
 31
0.0
  0
LINE
  5
14437
330
1F
100
AcDbEntity
  8
破線
100
AcDbLine
 10
698.5039999999989
 20
925.0000182445674
 30
0.0
 11
698.5039999999989
 21
913.0000182445673
 31
0.0
  0
DIMENSION
  5
14438
330
1F
100
AcDbEntity
  8
寸法線
100
AcDbDimension
280
     0
  2
*D30
 10
269.0039999999988
 20
935.0000364892062
 30
0.0
 11
269.003999999999
 21
750.0000364892057
 31
0.0
 70
   160
 71
     5
 42
370.0000000000002
 73
     0
 74
     0
 75
     0
  3
STANDARD
100
AcDbAlignedDimension
 13
389.0038926073594
 23
565.0000364892057
 33
0.0
 14
389.0038926073594
 24
935.0000364892055
 34
0.0
 50
90.0
100
AcDbRotatedDimension
  0
DIMENSION
  5
14439
330
1F
100
AcDbEntity
  8
寸法線
100
AcDbDimension
280
     0
  2
*D31
 10
759.0041073926093
 20
445.0000364892057
 30
0.0
 11
574.0041073926095
 21
445.0000364892057
 31
0.0
 70
   160
 71
     5
 42
370.0
 73
     0
 74
     0
 75
     0
  3
STANDARD
100
AcDbAlignedDimension
 13
389.0041073926095
 23
565.0000364892057
 33
0.0
 14
759.0041073926093
 24
565.0000364892057
 34
0.0
100
AcDbRotatedDimension
  0
LINE
  5
1443A
330
1F
100
AcDbEntity
  8
実線
100
AcDbLine
 10
2414.004003807595
 20
525.0000364892348
 30
0.0
 11
2824.004003807596
 21
525.0000364892348
 31
0.0
  0
LINE
  5
1443B
330
1F
100
AcDbEntity
  8
実線
100
AcDbLine
 10
2414.004003807595
 20
525.0000364892348
 30
0.0
 11
2414.004003807595
 21
935.0000364892347
 31
0.0
  0
LINE
  5
1443C
330
1F
100
AcDbEntity
  8
実線
100
AcDbLine
 10
2824.004003807596
 20
525.0000364892348
 30
0.0
 11
2824.004003807596
 21
935.0000364892347
 31
0.0
  0
LINE
  5
1443D
330
1F
100
AcDbEntity
  8
実線
100
AcDbLine
 10
2414.004003807595
 20
935.0000364892347
 30
0.0
 11
2824.004003807596
 21
935.0000364892347
 31
0.0
  0
LINE
  5
1443E
330
1F
100
AcDbEntity
  8
中心線
100
AcDbLine
 10
2619.004003807595
 20
945.0000364892346
 30
0.0
 11
2619.004003807595
 21
515.0000364892348
 31
0.0
  0
CIRCLE
  5
1443F
330
1F
100
AcDbEntity
  8
実線
100
AcDbCircle
 10
2766.504003807595
 20
877.5000364892347
 30
0.0
 40
27.5
  0
LINE
  5
14440
330
1F
100
AcDbEntity
  8
中心線
100
AcDbLine
 10
2766.504003807595
 20
927.5000364892347
 30
0.0
 11
2766.504003807595
 21
827.5000364892347
 31
0.0
  0
LINE
  5
14441
330
1F
100
AcDbEntity
  8
中心線
100
AcDbLine
 10
2716.504003807595
 20
877.5000364892347
 30
0.0
 11
2816.504003807596
 21
877.5000364892347
 31
0.0
  0
LINE
  5
14442
330
1F
100
AcDbEntity
  8
中心線
100
AcDbLine
 10
2716.504003807595
 20
582.5000364892347
 30
0.0
 11
2816.504003807596
 21
582.5000364892347
 31
0.0
  0
LINE
  5
14443
330
1F
100
AcDbEntity
  8
中心線
100
AcDbLine
 10
2766.504003807595
 20
632.5000364892347
 30
0.0
 11
2766.504003807595
 21
532.5000364892348
 31
0.0
  0
CIRCLE
  5
14444
330
1F
100
AcDbEntity
  8
実線
100
AcDbCircle
 10
2766.504003807595
 20
582.5000364892347
 30
0.0
 40
27.5
  0
LINE
  5
14445
330
1F
100
AcDbEntity
  8
中心線
100
AcDbLine
 10
2471.504003807595
 20
632.5000364892347
 30
0.0
 11
2471.504003807595
 21
532.5000364892348
 31
0.0
  0
LINE
  5
14446
330
1F
100
AcDbEntity
  8
中心線
100
AcDbLine
 10
2421.504003807595
 20
582.5000364892347
 30
0.0
 11
2521.504003807595
 21
582.5000364892347
 31
0.0
  0
CIRCLE
  5
14447
330
1F
100
AcDbEntity
  8
実線
100
AcDbCircle
 10
2471.504003807595
 20
582.5000364892347
 30
0.0
 40
27.5
  0
LINE
  5
14448
330
1F
100
AcDbEntity
  8
中心線
100
AcDbLine
 10
2471.504003807595
 20
927.5000364892347
 30
0.0
 11
2471.504003807595
 21
827.5000364892347
 31
0.0
  0
LINE
  5
14449
330
1F
100
AcDbEntity
  8
中心線
100
AcDbLine
 10
2421.504003807595
 20
877.5000364892347
 30
0.0
 11
2521.504003807595
 21
877.5000364892347
 31
0.0
  0
CIRCLE
  5
1444A
330
1F
100
AcDbEntity
  8
実線
100
AcDbCircle
 10
2471.504003807595
 20
877.5000364892347
 30
0.0
 40
27.5
  0
DIMENSION
  5
1444B
330
1F
100
AcDbEntity
  8
寸法線
100
AcDbDimension
280
     0
  2
*D32
 10
2824.004003807596
 20
445.0000364892348
 30
0.0
 11
2619.004003807595
 21
466.2500364892348
 31
0.0
 70
    32
 71
     5
 42
410.0
 73
     0
 74
     0
 75
     0
  3
STANDARD
100
AcDbAlignedDimension
 13
2414.004003807595
 23
525.0000364892348
 33
0.0
 14
2824.004003807596
 24
525.0000364892348
 34
0.0
100
AcDbRotatedDimension
  0
DIMENSION
  5
1444C
330
1F
100
AcDbEntity
  8
寸法線
100
AcDbDimension
280
     0
  2
*D33
 10
2904.004003807826
 20
935.0000364892352
 30
0.0
 11
2882.754003807825
 21
730.0000364892341
 31
0.0
 70
    32
 71
     5
 42
410.0000000000001
 73
     0
 74
     0
 75
     0
  3
STANDARD
100
AcDbAlignedDimension
 13
2824.004003807596
 23
525.0000364892348
 33
0.0
 14
2824.004003807596
 24
935.0000364892347
 34
0.0
 50
90.0
100
AcDbRotatedDimension
  0
CIRCLE
  5
1444D
330
1F
100
AcDbEntity
  8
実線
100
AcDbCircle
 10
2619.004003807595
 20
730.0000364892347
 30
0.0
 40
125.0
  0
CIRCLE
  5
1444E
330
1F
100
AcDbEntity
  8
実線
100
AcDbCircle
 10
2471.504003807595
 20
877.5000364892347
 30
0.0
 40
28.75
  0
CIRCLE
  5
1444F
330
1F
100
AcDbEntity
  8
実線
100
AcDbCircle
 10
2471.504003807595
 20
582.5000364892347
 30
0.0
 40
28.75
  0
CIRCLE
  5
14450
330
1F
100
AcDbEntity
  8
実線
100
AcDbCircle
 10
2766.504003807595
 20
582.5000364892347
 30
0.0
 40
28.75
  0
CIRCLE
  5
14451
330
1F
100
AcDbEntity
  8
実線
100
AcDbCircle
 10
2766.504003807595
 20
877.5000364892347
 30
0.0
 40
28.75
  0
LINE
  5
14454
330
1F
100
AcDbEntity
  8
中心線
100
AcDbLine
 10
2404.004003807595
 20
730.0000364892347
 30
0.0
 11
2834.004003807596
 21
730.0000364892347
 31
0.0
  0
DIMENSION
  5
14455
330
1F
100
AcDbEntity
  8
寸法線
100
AcDbDimension
280
     0
  2
*D34
 10
2727.257179280608
 20
792.5000364893397
 30
0.0
 11
2667.82925310424
 21
758.1893073138274
 31
0.0
 70
   160
  1
%%C<>
 71
     5
 42
250.0000000000073
 73
     0
 74
     0
 75
     0
  3
STANDARD
100
AcDbAlignedDimension
 13
2510.750828334551
 23
667.5000364892347
 33
0.0
 14
2727.257179280668
 24
792.5000364892349
 34
0.0
 50
30.00000000014826
100
AcDbRotatedDimension
  0
LINE
  5
14456
330
1F
100
AcDbEntity
  8
実線
100
AcDbLine
 10
1904.474692632253
 20
913.000270917184
 30
0.0
 11
2153.474692632253
 21
913.000270917184
 31
0.0
  0
LINE
  5
14457
330
1F
100
AcDbEntity
  8
実線
100
AcDbLine
 10
1904.474692632253
 20
925.0002709171839
 30
0.0
 11
2153.474692632253
 21
925.0002709171839
 31
0.0
  0
LINE
  5
14458
330
1F
100
AcDbEntity
  8
実線
100
AcDbLine
 10
2153.474692632253
 20
575.000270917184
 30
0.0
 11
1904.474692632253
 21
575.000270917184
 31
0.0
  0
DIMENSION
  5
1445A
330
1F
100
AcDbEntity
  8
寸法線
100
AcDbDimension
280
     0
  2
*D35
 10
2176.474384776242
 20
445.0000364892348
 30
0.0
 11
2028.974692632253
 21
445.0000364892348
 31
0.0
 70
   160
 71
     5
 42
295.0
 73
     0
 74
     0
 75
     0
  3
STANDARD
100
AcDbAlignedDimension
 13
1881.474384776242
 23
550.0000182446256
 33
0.0
 14
2176.474384776242
 24
550.0000182446256
 34
0.0
100
AcDbRotatedDimension
  0
LINE
  5
1445B
330
1F
100
AcDbEntity
  8
実線
100
AcDbLine
 10
1843.974467926409
 20
565.0000364892347
 30
0.0
 11
2213.974467926409
 21
565.0000364892347
 31
0.0
  0
LINE
  5
1445C
330
1F
100
AcDbEntity
  8
実線
100
AcDbLine
 10
1843.974467926409
 20
935.0000364892347
 30
0.0
 11
2213.974467926409
 21
935.0000364892347
 31
0.0
  0
LINE
  5
1445D
330
1F
100
AcDbEntity
  8
中心線
100
AcDbLine
 10
1818.974484776247
 20
750.000270917184
 30
0.0
 11
2238.974484776247
 21
750.000270917184
 31
0.0
  0
LINE
  5
1445E
330
1F
100
AcDbEntity
  8
実線
100
AcDbLine
 10
1866.224692632253
 20
756.000270917184
 30
0.0
 11
2191.724692632254
 21
756.000270917184
 31
0.0
  0
LINE
  5
1445F
330
1F
100
AcDbEntity
  8
実線
100
AcDbLine
 10
1866.224692632253
 20
744.000270917184
 30
0.0
 11
2191.724692632254
 21
744.000270917184
 31
0.0
  0
LINE
  5
14460
330
1F
100
AcDbEntity
  8
実線
100
AcDbLine
 10
1853.974692632253
 20
625.500270917184
 30
0.0
 11
1853.974692632253
 21
874.500270917184
 31
0.0
  0
LINE
  5
14461
330
1F
100
AcDbEntity
  8
実線
100
AcDbLine
 10
1853.974692632253
 20
625.500270917184
 30
0.0
 11
1865.974692632253
 21
625.500270917184
 31
0.0
  0
LINE
  5
14462
330
1F
100
AcDbEntity
  8
実線
100
AcDbLine
 10
1904.474692632253
 20
575.000270917184
 30
0.0
 11
1904.474692632253
 21
587.000270917184
 31
0.0
  0
LINE
  5
14463
330
1F
100
AcDbEntity
  8
実線
100
AcDbLine
 10
1866.224692632253
 20
744.000270917184
 30
0.0
 11
1866.224692632253
 21
756.000270917184
 31
0.0
  0
LINE
  5
14464
330
1F
100
AcDbEntity
  8
実線
100
AcDbLine
 10
1853.974692632253
 20
874.500270917184
 30
0.0
 11
1865.974692632253
 21
874.500270917184
 31
0.0
  0
LINE
  5
14465
330
1F
100
AcDbEntity
  8
実線
100
AcDbLine
 10
1904.474692632253
 20
925.0002709171839
 30
0.0
 11
1904.474692632253
 21
913.000270917184
 31
0.0
  0
LINE
  5
14466
330
1F
100
AcDbEntity
  8
実線
100
AcDbLine
 10
2033.474692632253
 20
912.5002709171839
 30
0.0
 11
2033.474692632253
 21
756.000270917184
 31
0.0
  0
LINE
  5
14467
330
1F
100
AcDbEntity
  8
実線
100
AcDbLine
 10
2024.474692632253
 20
912.5002709171839
 30
0.0
 11
2024.474692632253
 21
756.000270917184
 31
0.0
  0
DIMENSION
  5
14468
330
1F
100
AcDbEntity
  8
寸法線
100
AcDbDimension
280
     0
  2
*D36
 10
2333.97446792641
 20
935.0000364892354
 30
0.0
 11
2333.97446792641
 21
916.2500273669298
 31
0.0
 70
   160
 71
     5
 42
37.50001824460925
 73
     0
 74
     0
 75
     0
  3
STANDARD
100
AcDbAlignedDimension
 13
2228.974384776242
 23
897.5000182446255
 33
0.0
 14
2213.974467926409
 24
935.0000364892347
 34
0.0
 50
90.0
100
AcDbRotatedDimension
  0
LINE
  5
14469
330
1F
100
AcDbEntity
  8
実線
100
AcDbLine
 10
2213.974467926409
 20
565.0000364892347
 30
0.0
 11
2213.974467926409
 21
935.0000364892347
 31
0.0
  0
LINE
  5
1446A
330
1F
100
AcDbEntity
  8
実線
100
AcDbLine
 10
2033.474692632253
 20
744.000270917184
 30
0.0
 11
2033.474692632253
 21
587.500270917184
 31
0.0
  0
LINE
  5
1446B
330
1F
100
AcDbEntity
  8
実線
100
AcDbLine
 10
2024.474692632253
 20
744.000270917184
 30
0.0
 11
2024.474692632253
 21
587.500270917184
 31
0.0
  0
LINE
  5
1446C
330
1F
100
AcDbEntity
  8
実線
100
AcDbLine
 10
2203.974692632253
 20
874.500270917184
 30
0.0
 11
2203.974692632253
 21
625.500270917184
 31
0.0
  0
LINE
  5
1446D
330
1F
100
AcDbEntity
  8
実線
100
AcDbLine
 10
2191.974692632253
 20
874.500270917184
 30
0.0
 11
2191.974692632253
 21
625.500270917184
 31
0.0
  0
DIMENSION
  5
1446E
330
1F
100
AcDbEntity
  8
寸法線
100
AcDbDimension
280
     0
  2
*D37
 10
2333.97446792641
 20
897.5000182446263
 30
0.0
 11
2333.97446792641
 21
750.000270917184
 31
0.0
 70
   160
 71
     5
 42
295.0000000000001
 73
     0
 74
     0
 75
     0
  3
STANDARD
100
AcDbAlignedDimension
 13
2228.974384776242
 23
602.5000182446254
 33
0.0
 14
2228.974384776242
 24
897.5000182446255
 34
0.0
 50
90.0
100
AcDbRotatedDimension
  0
LINE
  5
1446F
330
1F
100
AcDbEntity
  8
実線
100
AcDbLine
 10
2024.474692632253
 20
587.500270917184
 30
0.0
 11
2033.474692632253
 21
587.500270917184
 31
0.0
  0
LINE
  5
14470
330
1F
100
AcDbEntity
  8
実線
100
AcDbLine
 10
2153.474692632253
 20
575.000270917184
 30
0.0
 11
2153.474692632253
 21
587.000270917184
 31
0.0
  0
DIMENSION
  5
14471
330
1F
100
AcDbEntity
  8
寸法線
100
AcDbDimension
280
     0
  2
*D38
 10
2333.97446792641
 20
602.5000182446258
 30
0.0
 11
2333.97446792641
 21
583.7500273669298
 31
0.0
 70
   160
 71
     5
 42
37.49998175539076
 73
     0
 74
     0
 75
     0
  3
STANDARD
100
AcDbAlignedDimension
 13
2213.974467926409
 23
565.0000364892347
 33
0.0
 14
2228.974384776242
 24
602.5000182446254
 34
0.0
 50
90.0
100
AcDbRotatedDimension
  0
DIMENSION
  5
14472
330
1F
100
AcDbEntity
  8
寸法線
100
AcDbDimension
280
     0
  2
*D39
 10
2213.974467926409
 20
445.0000364892348
 30
0.0
 11
2195.224426351326
 21
445.0000364892348
 31
0.0
 70
   160
 71
     5
 42
37.50008315016748
 73
     0
 74
     0
 75
     0
  3
STANDARD
100
AcDbAlignedDimension
 13
2176.474384776242
 23
550.0000182446256
 33
0.0
 14
2213.974467926409
 24
565.0000364892347
 34
0.0
100
AcDbRotatedDimension
  0
LINE
  5
14473
330
1F
100
AcDbEntity
  8
実線
100
AcDbLine
 10
2203.974692632253
 20
625.500270917184
 30
0.0
 11
2191.974692632253
 21
625.500270917184
 31
0.0
  0
LINE
  5
14474
330
1F
100
AcDbEntity
  8
実線
100
AcDbLine
 10
2191.724692632254
 20
756.000270917184
 30
0.0
 11
2191.724692632254
 21
744.000270917184
 31
0.0
  0
LINE
  5
14475
330
1F
100
AcDbEntity
  8
実線
100
AcDbLine
 10
2203.974692632253
 20
874.500270917184
 30
0.0
 11
2191.974692632253
 21
874.500270917184
 31
0.0
  0
LINE
  5
14476
330
1F
100
AcDbEntity
  8
実線
100
AcDbLine
 10
2024.474692632253
 20
912.5002709171839
 30
0.0
 11
2033.474692632253
 21
912.5002709171839
 31
0.0
  0
LINE
  5
14477
330
1F
100
AcDbEntity
  8
実線
100
AcDbLine
 10
2153.474692632253
 20
925.0002709171839
 30
0.0
 11
2153.474692632253
 21
913.000270917184
 31
0.0
  0
CIRCLE
  5
14478
330
1F
100
AcDbEntity
  8
実線
100
AcDbCircle
 10
1881.474692632253
 20
897.5002709171841
 30
0.0
 40
27.5
  0
CIRCLE
  5
14479
330
1F
100
AcDbEntity
  8
実線
100
AcDbCircle
 10
2176.474692632254
 20
897.5002709171841
 30
0.0
 40
27.5
  0
CIRCLE
  5
1447A
330
1F
100
AcDbEntity
  8
実線
100
AcDbCircle
 10
1881.474692632253
 20
602.500270917184
 30
0.0
 40
27.5
  0
CIRCLE
  5
1447B
330
1F
100
AcDbEntity
  8
実線
100
AcDbCircle
 10
2176.474692632254
 20
602.500270917184
 30
0.0
 40
27.5
  0
LINE
  5
1447C
330
1F
100
AcDbEntity
  8
実線
100
AcDbLine
 10
1865.974692632253
 20
625.500270917184
 30
0.0
 11
1865.974692632253
 21
874.500270917184
 31
0.0
  0
LINE
  5
1447D
330
1F
100
AcDbEntity
  8
実線
100
AcDbLine
 10
2153.474692632253
 20
587.000270917184
 30
0.0
 11
1904.474692632253
 21
587.000270917184
 31
0.0
  0
LINE
  5
1447E
330
1F
100
AcDbEntity
  8
中心線
100
AcDbLine
 10
2028.974484776247
 20
539.9999709171988
 30
0.0
 11
2028.974484776247
 21
959.9999709171987
 31
0.0
  0
LINE
  5
14480
330
1F
100
AcDbEntity
  8
中心線
100
AcDbLine
 10
1828.974384776242
 20
897.5000182446255
 30
0.0
 11
1933.974384776242
 21
897.5000182446255
 31
0.0
  0
LINE
  5
14481
330
1F
100
AcDbEntity
  8
中心線
100
AcDbLine
 10
1881.474384776242
 20
845.0000182446254
 30
0.0
 11
1881.474384776242
 21
950.0000182446255
 31
0.0
  0
LINE
  5
14482
330
1F
100
AcDbEntity
  8
中心線
100
AcDbLine
 10
1828.974384776242
 20
602.5000182446254
 30
0.0
 11
1933.974384776242
 21
602.5000182446254
 31
0.0
  0
LINE
  5
14483
330
1F
100
AcDbEntity
  8
中心線
100
AcDbLine
 10
1881.474384776242
 20
550.0000182446256
 30
0.0
 11
1881.474384776242
 21
655.0000182446256
 31
0.0
  0
LINE
  5
14484
330
1F
100
AcDbEntity
  8
中心線
100
AcDbLine
 10
2123.974384776242
 20
897.5000182446255
 30
0.0
 11
2228.974384776242
 21
897.5000182446255
 31
0.0
  0
LINE
  5
14485
330
1F
100
AcDbEntity
  8
中心線
100
AcDbLine
 10
2176.474384776242
 20
845.0000182446254
 30
0.0
 11
2176.474384776242
 21
950.0000182446255
 31
0.0
  0
LINE
  5
14486
330
1F
100
AcDbEntity
  8
中心線
100
AcDbLine
 10
2123.974384776242
 20
602.5000182446254
 30
0.0
 11
2228.974384776242
 21
602.5000182446254
 31
0.0
  0
LINE
  5
14487
330
1F
100
AcDbEntity
  8
中心線
100
AcDbLine
 10
2176.474384776242
 20
550.0000182446256
 30
0.0
 11
2176.474384776242
 21
655.0000182446256
 31
0.0
  0
LINE
  5
14488
330
1F
100
AcDbEntity
  8
実線
100
AcDbLine
 10
1843.974501626084
 20
565.0000364892347
 30
0.0
 11
1843.974501626084
 21
935.0000364892347
 31
0.0
  0
DIMENSION
  5
14489
330
1F
100
AcDbEntity
  8
寸法線
100
AcDbDimension
280
     0
  2
*D42
 10
1843.974501626084
 20
445.0000364892348
 30
0.0
 11
1862.724443201163
 21
445.0000364892348
 31
0.0
 70
   160
 71
     5
 42
37.49988315015798
 73
     0
 74
     0
 75
     0
  3
STANDARD
100
AcDbAlignedDimension
 13
1881.474384776242
 23
550.0000182446256
 33
0.0
 14
1843.974501626084
 24
565.0000364892347
 34
0.0
 50
180.0
100
AcDbRotatedDimension
  0
TEXT
  5
148DD
330
1F
100
AcDbEntity
  8
寸法線
100
AcDbText
 10
2550.139291229554
 20
391.7288248373243
 30
0.0
 40
24.0
  1
断面Ｂ－Ｂ
100
AcDbText
  0
LINE
  5
148DE
330
1F
100
AcDbEntity
  8
寸法線
100
AcDbLine
 10
2538.737023990032
 20
384.9999999999873
 30
0.0
 11
2699.270983625158
 21
384.9999999999873
 31
0.0
  0
TEXT
  5
148DF
330
1F
100
AcDbEntity
  8
寸法線
100
AcDbText
 10
1958.97446792641
 20
393.7499999999872
 30
0.0
 40
25.0
  1
断面Ａ－Ａ
 72
     1
 11
2028.97446792641
 21
393.7499999999872
 31
0.0
100
AcDbText
 73
     1
  0
LINE
  5
148E0
330
1F
100
AcDbEntity
  8
寸法線
100
AcDbLine
 10
1950.224467926409
 20
384.9999999999873
 30
0.0
 11
2107.724467926409
 21
384.9999999999873
 31
0.0
  0
LEADER
  5
1490F
330
1F
100
AcDbEntity
  8
寸法線
100
AcDbLeader
  3
STANDARD
 76
     2
 10
2486.49997907772
 20
2166.499925560653
 30
0.0
 10
2292.335239802984
 20
2166.499925560653
 30
0.0
1001
ACAD
1000
DSTYLE
1002
{
1070
   147
1040
0.875
1070
    77
1070
     0
1002
}
  0
VIEWPORT
  5
794
330
78D
100
AcDbEntity
 67
     1
  8
0
348
11CF5
100
AcDbViewport
 10
204.0995798351864
 20
142.5892483948869
 30
0.0
 40
568.7138760531154
 41
287.6682269700984
 68
     1
 69
     1
 12
204.0995798351864
 22
142.5892483948869
 13
0.0
 23
0.0
 14
10.0
 24
10.0
 15
10.0
 25
10.0
 16
0.0
 26
0.0
 36
1.0
 17
0.0
 27
0.0
 37
0.0
 42
50.0
 43
0.0
 44
0.0
 45
287.6682269700984
 50
0.0
 51
0.0
 72
  1000
 90
    32800
  1

281
     0
 71
     1
 74
     0
110
0.0
120
0.0
130
0.0
111
1.0
121
0.0
131
0.0
112
0.0
122
1.0
132
0.0
 79
     0
146
0.0
170
     0
 61
     5
348
11CF5
292
     1
282
     1
141
0.0
142
0.0
 63
   250
421
  3355443
  0
VIEWPORT
  5
796
330
78D
100
AcDbEntity
 67
     1
  8
Defpoints
348
11CF5
100
AcDbViewport
 10
204.099579334259
 20
142.5892481803894
 30
0.0
 40
408.1991586685178
 41
285.1784963607788
 68
     2
 69
     2
 12
2100.207206595808
 22
1486.804522350007
 13
0.0
 23
0.0
 14
10.0
 24
10.0
 15
10.0
 25
10.0
 16
0.0
 26
0.0
 36
1.0
 17
0.0
 27
0.0
 37
0.0
 42
50.0
 43
0.0
 44
0.0
 45
2851.784980677949
 50
0.0
 51
0.0
 72
  1000
 90
    32864
  1

281
     0
 71
     1
 74
     0
110
0.0
120
0.0
130
0.0
111
1.0
121
0.0
131
0.0
112
0.0
122
1.0
132
0.0
 79
     0
146
0.0
170
     0
 61
     5
348
11CF5
292
     1
282
     1
141
0.0
142
0.0
 63
   250
421
  3355443
  0
LINE
  5
9A2
330
78D
100
AcDbEntity
 67
     1
  8
図面枠
100
AcDbLine
 10
14.0996
 20
6.589249999999998
 30
0.0
 11
14.0996
 21
278.58925
 31
0.0
  0
LINE
  5
9A3
330
78D
100
AcDbEntity
 67
     1
  8
図面枠
100
AcDbLine
 10
404.0995999999998
 20
6.589249999999998
 30
0.0
 11
404.0995999999998
 21
278.58925
 31
0.0
  0
LINE
  5
9A4
330
78D
100
AcDbEntity
 67
     1
  8
図面枠
100
AcDbLine
 10
14.0996
 20
278.58925
 30
0.0
 11
404.0995999999998
 21
278.58925
 31
0.0
  0
LINE
  5
9A5
330
78D
100
AcDbEntity
 67
     1
  8
図面枠
100
AcDbLine
 10
14.0996
 20
6.589249999999998
 30
0.0
 11
404.0995999999998
 21
6.589249999999991
 31
0.0
  0
LINE
  5
9BB
330
78D
100
AcDbEntity
 67
     1
  8
図面枠
100
AcDbLine
 10
289.0996
 20
36.58924999999999
 30
0.0
 11
404.0995999999998
 21
36.58924999999999
 31
0.0
  0
LINE
  5
9BC
330
78D
100
AcDbEntity
 67
     1
  8
図面枠
100
AcDbLine
 10
289.0996
 20
30.58924999999999
 30
0.0
 11
404.0995999999998
 21
30.58924999999999
 31
0.0
  0
LINE
  5
9BE
330
78D
100
AcDbEntity
 67
     1
  8
図面枠
100
AcDbLine
 10
289.0996
 20
36.5893
 30
0.0
 11
289.0996
 21
6.589249999999991
 31
0.0
  0
LINE
  5
9C4
330
78D
100
AcDbEntity
 67
     1
  8
図面枠
100
AcDbLine
 10
289.0996
 20
18.58924999999999
 30
0.0
 11
404.0995999999998
 21
18.58924999999999
 31
0.0
  0
LINE
  5
9CD
330
78D
100
AcDbEntity
 67
     1
  8
図面枠
100
AcDbLine
 10
352.0996
 20
36.5893
 30
0.0
 11
352.0996
 21
30.58924999999999
 31
0.0
  0
LINE
  5
9CF
330
78D
100
AcDbEntity
 67
     1
  8
図面枠
100
AcDbLine
 10
383.0996
 20
36.5893
 30
0.0
 11
383.0996
 21
30.58924999999999
 31
0.0
  0
LINE
  5
9D0
330
78D
100
AcDbEntity
 67
     1
  8
図面枠
100
AcDbLine
 10
352.0996
 20
30.58924999999999
 30
0.0
 11
352.0996
 21
6.589249999999991
 31
0.0
  0
LINE
  5
9D1
330
78D
100
AcDbEntity
 67
     1
  8
図面枠
100
AcDbLine
 10
312.0996
 20
36.58924999999999
 30
0.0
 11
312.0996
 21
30.58924999999999
 31
0.0
  0
LINE
  5
9D2
330
78D
100
AcDbEntity
 67
     1
  8
図面枠
100
AcDbLine
 10
304.0996
 20
24.58924999999999
 30
0.0
 11
349.0996
 21
24.58924999999999
 31
0.0
  0
TEXT
  5
9EB
330
78D
100
AcDbEntity
 67
     1
  8
図面枠
100
AcDbText
 10
289.9746
 20
32.33924999999999
 30
0.0
 40
2.5
  1
重量
 11
289.9746
 21
32.33924999999999
 31
0.0
100
AcDbText
 73
     1
  0
TEXT
  5
9ED
330
78D
100
AcDbEntity
 67
     1
  8
図面枠
100
AcDbText
 10
289.97465
 20
27.21424999999999
 30
0.0
 40
2.5
  1
名　称
 11
289.97465
 21
29.71424999999999
 31
0.0
100
AcDbText
 73
     3
  0
TEXT
  5
9EF
330
78D
100
AcDbEntity
 67
     1
  8
図面枠
100
AcDbText
 10
317.9746
 20
32.33929999999999
 30
0.0
 40
2.5
  1
表面仕上げ
 41
0.8
 11
317.9746
 21
32.33929999999999
 31
0.0
100
AcDbText
 73
     1
  0
TEXT
  5
A20
330
78D
100
AcDbEntity
 67
     1
  8
図面枠
100
AcDbText
 10
352.9746
 20
32.33924999999999
 30
0.0
 40
2.5
  1
日付
 11
352.9746
 21
32.33924999999999
 31
0.0
100
AcDbText
 73
     1
  0
TEXT
  5
A39
330
78D
100
AcDbEntity
 67
     1
  8
図面枠
100
AcDbText
 10
383.9746
 20
32.33924999999999
 30
0.0
 40
2.5
  1
尺度
 11
383.9746
 21
32.33924999999999
 31
0.0
100
AcDbText
 73
     1
  0
TEXT
  5
A59
330
78D
100
AcDbEntity
 67
     1
  8
図面枠
100
AcDbText
 10
313.5162666666667
 20
26.33924999999999
 30
0.0
 40
2.5
  1
スルーサーＢ構造図
 72
     1
 11
326.5996
 21
26.33924999999999
 31
0.0
100
AcDbText
 73
     1
  0
TEXT
  5
A5A
330
78D
100
AcDbEntity
 67
     1
  8
図面枠
100
AcDbText
 10
317.7861157480315
 20
20.33924999999999
 30
0.0
 40
2.5
  1
切り梁H-350
 72
     1
 11
326.5996
 21
22.83924999999999
 31
0.0
100
AcDbText
 73
     3
  0
TEXT
  5
A63
330
78D
100
AcDbEntity
 67
     1
  8
図面枠
100
AcDbText
 10
368.0162666666667
 20
8.33924999999999
 30
0.0
 40
2.5
  1
Ｈ３５－Ｗ８０
 72
     1
 11
378.0996
 21
8.33924999999999
 31
0.0
100
AcDbText
 73
     1
  0
TEXT
  5
9054
330
78D
100
AcDbEntity
 67
     1
  8
図面枠
100
AcDbText
 10
300.3079
 20
32.33924999999999
 30
0.0
 40
2.5
  1
286kg
 11
300.3079
 21
32.33924999999999
 31
0.0
100
AcDbText
 73
     1
  0
TEXT
  5
9055
330
78D
100
AcDbEntity
 67
     1
  8
図面枠
100
AcDbText
 10
333.3079
 20
32.33929999999999
 30
0.0
 40
2.5
  1
鉄筋防錆剤
 41
0.8
 11
333.3079
 21
32.33929999999999
 31
0.0
100
AcDbText
 73
     1
  0
TEXT
  5
9056
330
78D
100
AcDbEntity
 67
     1
  8
図面枠
100
AcDbText
 10
363.3079
 20
32.33924999999999
 30
0.0
 40
2.5
  1
2024.01.01
 11
363.3079
 21
32.33924999999999
 31
0.0
100
AcDbText
 73
     1
  0
TEXT
  5
9057
330
78D
100
AcDbEntity
 67
     1
  8
図面枠
100
AcDbText
 10
394.3079
 20
32.33924999999999
 30
0.0
 40
2.5
  1
1/10
 11
394.3079
 21
32.33924999999999
 31
0.0
100
AcDbText
 73
     1
  0
TEXT
  5
933A
330
78D
100
AcDbEntity
 67
     1
  8
図面枠
100
AcDbText
 10
300.0162781896648
 20
10.58922126233957
 30
0.0
 40
4.0
  1
三研テクノクリエイト
 11
300.0162781896648
 21
12.58922126233957
 31
0.0
100
AcDbText
 73
     2
  0
TEXT
  5
933B
330
78D
100
AcDbEntity
 67
     1
  8
図面枠
100
AcDbText
 10
294.2496115229981
 20
12.83922126233957
 30
0.0
 40
2.0
  1
株式
 72
     2
 11
298.5162781896648
 21
12.83922126233957
 31
0.0
100
AcDbText
 73
     1
  0
TEXT
  5
933C
330
78D
100
AcDbEntity
 67
     1
  8
図面枠
100
AcDbText
 10
294.2496115229981
 20
10.33922126233957
 30
0.0
 40
2.0
  1
会社
 72
     2
 11
298.5162781896648
 21
12.33922126233957
 31
0.0
100
AcDbText
 73
     3
  0
TEXT
  5
1226F
330
78D
100
AcDbEntity
 67
     1
  8
図面枠
100
AcDbText
 10
352.97465
 20
27.21425
 30
0.0
 40
2.5
  1
摘　要
 11
352.97465
 21
29.71425
 31
0.0
100
AcDbText
 73
     3
  0
TEXT
  5
12270
330
78D
100
AcDbEntity
 67
     1
  8
図面枠
100
AcDbText
 10
352.9746
 20
15.21425
 30
0.0
 40
2.5
  1
型　式
 11
352.9746
 21
17.71425
 31
0.0
100
AcDbText
 73
     3
  0
TEXT
  5
12271
330
78D
100
AcDbEntity
 67
     1
  8
図面枠
100
AcDbText
 10
364.7662666666667
 20
20.86240908820163
 30
0.0
 40
2.5
  1
Ｈ３５－Ｗシリーズ
 72
     1
 11
378.0996
 21
20.86240908820163
 31
0.0
100
AcDbText
 73
     1
  0
LINE
  5
12272
330
78D
100
AcDbEntity
 67
     1
  8
図面枠
100
AcDbLine
 10
227.3699773983349
 20
19.86719851721269
 30
0.0
 11
282.3699773983349
 21
19.86719851721269
 31
0.0
  0
LINE
  5
12273
330
78D
100
AcDbEntity
 67
     1
  8
図面枠
100
AcDbLine
 10
227.3699773983349
 20
19.86719851721269
 30
0.0
 11
227.3699773983349
 21
10.86719851721269
 31
0.0
  0
LINE
  5
12275
330
78D
100
AcDbEntity
 67
     1
  8
図面枠
100
AcDbLine
 10
282.3699773983349
 20
19.86719851721269
 30
0.0
 11
282.3699773983349
 21
10.86719851721269
 31
0.0
  0
LINE
  5
12276
330
78D
100
AcDbEntity
 67
     1
  8
図面枠
100
AcDbLine
 10
227.3699773983349
 20
10.86719851721269
 30
0.0
 11
282.3699773983349
 21
10.86719851721269
 31
0.0
  0
TEXT
  5
13608
330
78D
100
AcDbEntity
 67
     1
  8
図面枠
100
AcDbText
 10
229.2019716746131
 20
13.1658886515656
 30
0.0
 40
4.0
  1
スクラップ重量　231kg
 72
     1
 11
254.7744590480284
 21
13.1658886515656
 31
0.0
100
AcDbText
  0
ENDSEC
  0
SECTION
  2
OBJECTS
  0
DICTIONARY
  5
C
330
0
100
AcDbDictionary
281
     1
  3
ACAD_CIP_PREVIOUS_PRODUCT_INFO
350
13767
  3
ACAD_COLOR
350
6B
  3
ACAD_DETAILVIEWSTYLE
350
13761
  3
ACAD_GROUP
350
D
  3
ACAD_LAYOUT
350
1A
  3
ACAD_MATERIAL
350
6A
  3
ACAD_MLEADERSTYLE
350
11D12
  3
ACAD_MLINESTYLE
350
17
  3
ACAD_PLOTSETTINGS
350
19
  3
ACAD_PLOTSTYLENAME
350
E
  3
ACAD_SCALELIST
350
11D00
  3
ACAD_SECTIONVIEWSTYLE
350
1375F
  3
ACAD_TABLESTYLE
350
7E
  3
ACAD_VISUALSTYLE
350
11CEF
  3
AcadDim
350
89BC
  3
ACDB_RECOMPOSE_DATA
350
14A79
  3
AcDbVariableDictionary
350
5E
  3
AcDsDecomposeData
350
14A7F
  3
AEC_PROPERTY_SET_DEFS
350
11FB9
  0
DICTIONARY
  5
1221D
330
8
100
AcDbDictionary
280
     1
281
     1
  0
DICTIONARY
  5
11D
330
2
100
AcDbDictionary
280
     1
281
     1
  3
ACAD_LAYERFILTERS
360
98AE
  3
ACAD_LAYERSTATES
360
11E
  3
ACLYDICTIONARY
360
98AD
  0
DICTIONARY
  5
11D19
330
10
100
AcDbDictionary
280
     1
281
     1
  3
ADSK_XREC_LAYER_RECONCILED
360
11D1A
  0
DICTIONARY
  5
11D1D
330
1BF
100
AcDbDictionary
280
     1
281
     1
  3
ADSK_XREC_LAYER_RECONCILED
360
11D1E
  0
DICTIONARY
  5
11D21
330
1C1
100
AcDbDictionary
280
     1
281
     1
  3
ADSK_XREC_LAYER_RECONCILED
360
11D22
  0
DICTIONARY
  5
11D25
330
1C3
100
AcDbDictionary
280
     1
281
     1
  3
ADSK_XREC_LAYER_RECONCILED
360
11D26
  0
DICTIONARY
  5
11D27
330
1C4
100
AcDbDictionary
280
     1
281
     1
  3
ADSK_XREC_LAYER_RECONCILED
360
11D28
  0
DICTIONARY
  5
11D29
330
1C5
100
AcDbDictionary
280
     1
281
     1
  3
ADSK_XREC_LAYER_RECONCILED
360
11D2A
  0
DICTIONARY
  5
11D2B
330
82E
100
AcDbDictionary
280
     1
281
     1
  3
ADSK_XREC_LAYER_RECONCILED
360
11D2C
  0
DICTIONARY
  5
5C91
330
1F
100
AcDbDictionary
280
     1
281
     1
  3
ACAD_SORTENTS
360
5C92
  0
DICTIONARY
  5
117C7
330
C08
100
AcDbDictionary
280
     1
281
     1
  3
ACAD_SORTENTS
360
12354
  0
XRECORD
  5
13767
102
{ACAD_REACTORS
330
C
102
}
330
C
100
AcDbXrecord
280
     1
300
ACD
300
2023
300

  0
DICTIONARY
  5
6B
102
{ACAD_REACTORS
330
C
102
}
330
C
100
AcDbDictionary
281
     1
  0
DICTIONARY
  5
13761
102
{ACAD_REACTORS
330
C
102
}
330
C
100
AcDbDictionary
281
     1
  3
Metric50
350
13762
  0
DICTIONARY
  5
D
102
{ACAD_REACTORS
330
C
102
}
330
C
100
AcDbDictionary
281
     1
  0
DICTIONARY
  5
1A
102
{ACAD_REACTORS
330
C
102
}
330
C
100
AcDbDictionary
281
     1
  3
Model
350
22
  3
レイアウト1
350
78E
  0
DICTIONARY
  5
6A
102
{ACAD_REACTORS
330
C
102
}
330
C
100
AcDbDictionary
281
     1
  3
ByBlock
350
11CDF
  3
ByLayer
350
11CD7
  3
Global
350
11CE7
  0
DICTIONARY
  5
11D12
102
{ACAD_REACTORS
330
C
102
}
330
C
100
AcDbDictionary
281
     1
  3
Standard
350
11D13
  0
DICTIONARY
  5
17
102
{ACAD_REACTORS
330
C
102
}
330
C
100
AcDbDictionary
281
     1
  3
Standard
350
18
  0
DICTIONARY
  5
19
102
{ACAD_REACTORS
330
C
102
}
330
C
100
AcDbDictionary
281
     1
  0
ACDBDICTIONARYWDFLT
  5
E
102
{ACAD_REACTORS
330
C
102
}
330
C
100
AcDbDictionary
281
     1
  3
Normal
350
F
100
AcDbDictionaryWithDefault
340
F
  0
DICTIONARY
  5
11D00
102
{ACAD_REACTORS
330
C
102
}
330
C
100
AcDbDictionary
281
     1
  3
A0
350
11D01
  3
A1
350
11D02
  3
A2
350
11D03
  3
A3
350
11D04
  3
A4
350
11D05
  3
A5
350
11D06
  3
A6
350
11D07
  3
A7
350
11D08
  3
A8
350
11D09
  3
A9
350
11D0A
  3
B0
350
11D0B
  3
B1
350
11D0C
  3
B2
350
11D0D
  3
B3
350
11D0E
  3
B4
350
11D0F
  3
B5
350
11D10
  3
B6
350
11D11
  0
DICTIONARY
  5
1375F
102
{ACAD_REACTORS
330
C
102
}
330
C
100
AcDbDictionary
281
     1
  3
Metric50
350
13760
  0
DICTIONARY
  5
7E
102
{ACAD_REACTORS
330
C
102
}
330
C
100
AcDbDictionary
281
     1
  3
Standard
350
7F
  0
DICTIONARY
  5
11CEF
102
{ACAD_REACTORS
330
C
102
}
330
C
100
AcDbDictionary
281
     1
  3
2dWireframe
350
11CF5
  3
3D Hidden
350
11CF7
  3
3dWireframe
350
11CF6
  3
Basic
350
11CF4
  3
Brighten
350
11CFB
  3
ColorChange
350
11CFF
  3
Conceptual
350
11CF8
  3
Dim
350
11CFA
  3
EdgeColorOff
350
1375E
  3
Facepattern
350
11CFE
  3
Flat
350
11CF0
  3
FlatWithEdges
350
11CF1
  3
Gouraud
350
11CF2
  3
GouraudWithEdges
350
11CF3
  3
Hidden
350
13756
  3
JitterOff
350
1375C
  3
Linepattern
350
11CFD
  3
OverhangOff
350
1375D
  3
Realistic
350
11CF9
  3
Shaded
350
1375B
  3
Shaded with edges
350
1375A
  3
Shades of Gray
350
13757
  3
Sketchy
350
13758
  3
Thicken
350
11CFC
  3
Wireframe
350
13755
  3
X-Ray
350
13759
  0
XRECORD
  5
89BC
102
{ACAD_REACTORS
330
C
102
}
330
C
100
AcDbXrecord
280
     1
 90
   990106
  3

 60
     0
 61
     0
 62
     1
 63
     3
 64
     0
 65
     0
 66
     0
 67
     3
 68
     1
 69
     0
 70
     0
 71
     0
 72
     0
 40
0.0
170
     0
  0
XRECORD
  5
14A79
102
{ACAD_REACTORS
330
C
102
}
330
C
100
AcDbXrecord
280
     1
 90
        1
330
7F
  0
DICTIONARY
  5
5E
102
{ACAD_REACTORS
330
C
102
}
330
C
100
AcDbDictionary
281
     1
  3
CANNOSCALE
350
1222B
  3
CMLEADERSTYLE
350
1222A
  3
CTABLESTYLE
350
84
  3
CVIEWDETAILSTYLE
350
14892
  3
CVIEWSECTIONSTYLE
350
14893
  3
DIMASSOC
350
5F
  3
HIDETEXT
350
63
  3
INDEXCTL
350
1222D
  3
LAYEREVAL
350
14896
  3
LAYERNOTIFY
350
14897
  3
LIGHTINGUNITS
350
14895
  3
MSLTSCALE
350
14894
  3
PROJECTNAME
350
11CBE
  3
SORTENTS
350
1222C
  0
DICTIONARY
  5
14A7F
102
{ACAD_REACTORS
330
C
102
}
330
C
100
AcDbDictionary
281
     1
  3
AcDsRecords
350
14A81
  3
AcDsSchemas
350
14A80
1001
ACAD
1070
     2
  0
DICTIONARY
  5
11FB9
102
{ACAD_REACTORS
330
C
102
}
330
C
100
AcDbDictionary
281
     1
  0
DICTIONARY
  5
98AE
102
{ACAD_REACTORS
330
11D
102
}
330
11D
100
AcDbDictionary
281
     1
  0
DICTIONARY
  5
11E
102
{ACAD_REACTORS
330
11D
102
}
330
11D
100
AcDbDictionary
281
     1
  0
DICTIONARY
  5
98AD
102
{ACAD_REACTORS
330
11D
102
}
330
11D
100
AcDbDictionary
281
     1
1001
ACAD
1000
<All
  0
XRECORD
  5
11D1A
102
{ACAD_REACTORS
330
11D19
102
}
330
11D19
100
AcDbXrecord
280
     1
290
     1
  0
XRECORD
  5
11D1E
102
{ACAD_REACTORS
330
11D1D
102
}
330
11D1D
100
AcDbXrecord
280
     1
290
     1
  0
XRECORD
  5
11D22
102
{ACAD_REACTORS
330
11D21
102
}
330
11D21
100
AcDbXrecord
280
     1
290
     1
  0
XRECORD
  5
11D26
102
{ACAD_REACTORS
330
11D25
102
}
330
11D25
100
AcDbXrecord
280
     1
290
     1
  0
XRECORD
  5
11D28
102
{ACAD_REACTORS
330
11D27
102
}
330
11D27
100
AcDbXrecord
280
     1
290
     1
  0
XRECORD
  5
11D2A
102
{ACAD_REACTORS
330
11D29
102
}
330
11D29
100
AcDbXrecord
280
     1
290
     1
  0
XRECORD
  5
11D2C
102
{ACAD_REACTORS
330
11D2B
102
}
330
11D2B
100
AcDbXrecord
280
     1
290
     1
  0
SORTENTSTABLE
  5
5C92
102
{ACAD_REACTORS
330
5C91
102
}
330
5C91
100
AcDbSortentsTable
330
1F
  0
SORTENTSTABLE
  5
12354
102
{ACAD_REACTORS
330
117C7
102
}
330
117C7
100
AcDbSortentsTable
330
C08
  0
ACDBDETAILVIEWSTYLE
  5
13762
102
{ACAD_XDICTIONARY
360
14A84
102
}
102
{ACAD_REACTORS
330
13761
102
}
330
13761
100
AcDbModelDocViewStyle
 70
     0
  3
Metric50
290
     0
100
AcDbDetailViewStyle
 70
     0
 71
     0
 90
        3
 71
     1
340
11
 62
   256
 40
5.0
340
0
 62
   256
 40
5.0
300

 40
0.0
280
     1
 71
     2
340
16
 90
       25
 62
   256
 71
     3
340
11
 62
   256
 40
5.0
 90
        0
 40
15.0
 90
        1
300
%<\AcVar ViewDetailId>% (%<\AcVar ViewScale \f "%sn">%)
 71
     4
340
16
 90
       25
 62
   256
340
16
 90
       25
 62
   256
280
     0
  0
LAYOUT
  5
22
102
{ACAD_REACTORS
330
1A
102
}
330
1A
100
AcDbPlotSettings
  1

  2
none_device
  4
ISO_A4_(210.00_x_297.00_MM)
  6

 40
7.5
 41
20.0
 42
7.5
 43
20.0
 44
210.0
 45
297.0
 46
11.54999923706054
 47
-13.65000009536743
 48
0.0
 49
0.0
140
0.0
141
0.0
142
1.0
143
8.704084754739808
 70
 11952
 72
     1
 73
     0
 74
     0
  7

 75
     0
147
0.1148885871608098
 76
     0
 77
     2
 78
   300
148
0.0
149
0.0
100
AcDbLayout
  1
Model
 70
     1
 71
     0
 10
0.0
 20
0.0
 11
12.0
 21
9.0
 12
0.0
 22
0.0
 32
0.0
 14
0.0
 24
0.0
 34
0.0
 15
0.0
 25
0.0
 35
0.0
146
0.0
 13
0.0
 23
0.0
 33
0.0
 16
1.0
 26
0.0
 36
0.0
 17
0.0
 27
1.0
 37
0.0
 76
     0
330
1F
331
1235C
1001
ACAD_PSEXT
1000
None
1000
None
1000
Not applicable
1000
The layout will not be plotted unless a new plotter configuration name is selected.
1070
     0
  0
LAYOUT
  5
78E
102
{ACAD_XDICTIONARY
360
79B
102
}
102
{ACAD_REACTORS
330
1A
102
}
330
1A
100
AcDbPlotSettings
  1

  2
RICOH MP C2503 JPN RPCS V2
  4
A3
  6

 40
5.873749732971191
 41
5.873748779296875
 42
5.873748779296875
 43
5.873748779296875
 44
296.9259948730469
 45
419.9466552734373
 46
0.0
 47
0.0
 48
0.0
 49
0.0
140
0.0
141
0.0
142
1.0
143
1.0
 70
   688
 72
     1
 73
     1
 74
     5
  7
monochrome.ctb
 75
    16
147
1.0
 76
     1
 77
     2
 78
   300
148
0.0
149
0.0
100
AcDbLayout
  1
レイアウト1
 70
     1
 71
     1
 10
-5.873748779296875
 20
-5.873749732971191
 11
414.0729064941406
 21
291.0522451400757
 12
0.0
 22
0.0
 32
0.0
 14
-0.0233557008396019
 24
-0.0155136928541424
 34
-0.0000000349181948
 15
408.2225153712125
 25
285.1940104826281
 35
0.0000000814935746
146
0.0
 13
0.0
 23
0.0
 33
0.0
 16
1.0
 26
0.0
 36
0.0
 17
0.0
 27
1.0
 37
0.0
 76
     0
330
78D
331
794
1001
ACAD_PSEXT
1000
RICOH MP C2503 JPN RPCS V2
1000
RICOH MP C2503 JPN RPCS V2
1000
IP_192.168.24.100
1000
RPCS Driver (For Windows)
1070
     0
  0
MATERIAL
  5
11CDF
102
{ACAD_XDICTIONARY
360
11CE0
102
}
102
{ACAD_REACTORS
330
6A
102
}
330
6A
100
AcDbMaterial
  1
ByBlock
 72
     0
 43
0.0008202099737533
 43
0.0
 43
0.0
 43
0.0
 43
0.0
 43
0.0008202099737533
 43
0.0
 43
0.0
 43
0.0
 43
0.0
 43
1.0
 43
0.0
 43
0.0
 43
0.0
 43
0.0
 43
1.0
 77
     0
 47
0.0008202099737533
 47
0.0
 47
0.0
 47
0.0
 47
0.0
 47
0.0008202099737533
 47
0.0
 47
0.0
 47
0.0
 47
0.0
 47
1.0
 47
0.0
 47
0.0
 47
0.0
 47
0.0
 47
1.0
171
     0
 49
0.0008202099737533
 49
0.0
 49
0.0
 49
0.0
 49
0.0
 49
0.0008202099737533
 49
0.0
 49
0.0
 49
0.0
 49
0.0
 49
1.0
 49
0.0
 49
0.0
 49
0.0
 49
0.0
 49
1.0
175
     0
142
0.0008202099737533
142
0.0
142
0.0
142
0.0
142
0.0
142
0.0008202099737533
142
0.0
142
0.0
142
0.0
142
0.0
142
1.0
142
0.0
142
0.0
142
0.0
142
0.0
142
1.0
179
     0
144
0.0008202099737533
144
0.0
144
0.0
144
0.0
144
0.0
144
0.0008202099737533
144
0.0
144
0.0
144
0.0
144
0.0
144
1.0
144
0.0
144
0.0
144
0.0
144
0.0
144
1.0
147
0.0008202099737533
147
0.0
147
0.0
147
0.0
147
0.0
147
0.0008202099737533
147
0.0
147
0.0
147
0.0
147
0.0
147
1.0
147
0.0
147
0.0
147
0.0
147
0.0
147
1.0
  0
MATERIAL
  5
11CD7
102
{ACAD_XDICTIONARY
360
11CD8
102
}
102
{ACAD_REACTORS
330
6A
102
}
330
6A
100
AcDbMaterial
  1
ByLayer
 72
     0
 43
0.0008202099737533
 43
0.0
 43
0.0
 43
0.0
 43
0.0
 43
0.0008202099737533
 43
0.0
 43
0.0
 43
0.0
 43
0.0
 43
1.0
 43
0.0
 43
0.0
 43
0.0
 43
0.0
 43
1.0
 77
     0
 47
0.0008202099737533
 47
0.0
 47
0.0
 47
0.0
 47
0.0
 47
0.0008202099737533
 47
0.0
 47
0.0
 47
0.0
 47
0.0
 47
1.0
 47
0.0
 47
0.0
 47
0.0
 47
0.0
 47
1.0
171
     0
 49
0.0008202099737533
 49
0.0
 49
0.0
 49
0.0
 49
0.0
 49
0.0008202099737533
 49
0.0
 49
0.0
 49
0.0
 49
0.0
 49
1.0
 49
0.0
 49
0.0
 49
0.0
 49
0.0
 49
1.0
175
     0
142
0.0008202099737533
142
0.0
142
0.0
142
0.0
142
0.0
142
0.0008202099737533
142
0.0
142
0.0
142
0.0
142
0.0
142
1.0
142
0.0
142
0.0
142
0.0
142
0.0
142
1.0
179
     0
144
0.0008202099737533
144
0.0
144
0.0
144
0.0
144
0.0
144
0.0008202099737533
144
0.0
144
0.0
144
0.0
144
0.0
144
1.0
144
0.0
144
0.0
144
0.0
144
0.0
144
1.0
147
0.0008202099737533
147
0.0
147
0.0
147
0.0
147
0.0
147
0.0008202099737533
147
0.0
147
0.0
147
0.0
147
0.0
147
1.0
147
0.0
147
0.0
147
0.0
147
0.0
147
1.0
  0
MATERIAL
  5
11CE7
102
{ACAD_XDICTIONARY
360
11CE8
102
}
102
{ACAD_REACTORS
330
6A
102
}
330
6A
100
AcDbMaterial
  1
Global
 72
     0
 43
0.0008202099737533
 43
0.0
 43
0.0
 43
0.0
 43
0.0
 43
0.0008202099737533
 43
0.0
 43
0.0
 43
0.0
 43
0.0
 43
1.0
 43
0.0
 43
0.0
 43
0.0
 43
0.0
 43
1.0
 77
     0
 47
0.0008202099737533
 47
0.0
 47
0.0
 47
0.0
 47
0.0
 47
0.0008202099737533
 47
0.0
 47
0.0
 47
0.0
 47
0.0
 47
1.0
 47
0.0
 47
0.0
 47
0.0
 47
0.0
 47
1.0
171
     0
 49
0.0008202099737533
 49
0.0
 49
0.0
 49
0.0
 49
0.0
 49
0.0008202099737533
 49
0.0
 49
0.0
 49
0.0
 49
0.0
 49
1.0
 49
0.0
 49
0.0
 49
0.0
 49
0.0
 49
1.0
175
     0
142
0.0008202099737533
142
0.0
142
0.0
142
0.0
142
0.0
142
0.0008202099737533
142
0.0
142
0.0
142
0.0
142
0.0
142
1.0
142
0.0
142
0.0
142
0.0
142
0.0
142
1.0
179
     0
144
0.0008202099737533
144
0.0
144
0.0
144
0.0
144
0.0
144
0.0008202099737533
144
0.0
144
0.0
144
0.0
144
0.0
144
1.0
144
0.0
144
0.0
144
0.0
144
0.0
144
1.0
147
0.0008202099737533
147
0.0
147
0.0
147
0.0
147
0.0
147
0.0008202099737533
147
0.0
147
0.0
147
0.0
147
0.0
147
1.0
147
0.0
147
0.0
147
0.0
147
0.0
147
1.0
  0
MLEADERSTYLE
  5
11D13
102
{ACAD_REACTORS
330
11D12
102
}
330
11D12
100
AcDbMLeaderStyle
179
     2
170
     2
171
     1
172
     0
 90
        2
 40
0.0
 41
0.0
173
     1
 91
-1056964608
340
14
 92
       -2
290
     1
 42
2.0
291
     1
 43
0.36
  3
Standard
 44
4.0
300

342
11
174
     1
178
     6
175
     1
176
     0
 93
-1056964608
 45
4.0
292
     0
297
     0
 46
4.0
 94
-1056964608
 47
1.0
 49
1.0
140
1.0
293
     1
141
0.0
294
     1
177
     0
142
1.0
295
     0
296
     0
143
0.125
271
     0
272
     9
273
     9
298
     0
1001
ACAD
1000
AcRTDxfName
1000
MLEADERSTYLE
1000
AcRTDxfName
1000
MLEADERSTYLE
1000
AcRTDxfName
1000
MLEADERSTYLE
1000
AcRTDxfName
1000
MLEADERSTYLE
  0
MLINESTYLE
  5
18
102
{ACAD_REACTORS
330
17
102
}
330
17
100
AcDbMlineStyle
  2
STANDARD
 70
     0
  3

 62
   256
 51
90.0
 52
90.0
 71
     2
 49
0.5
 62
   256
  6
BYLAYER
 49
-0.5
 62
   256
  6
BYLAYER
  0
ACDBPLACEHOLDER
  5
F
102
{ACAD_REACTORS
330
E
102
}
330
E
  0
SCALE
  5
11D01
102
{ACAD_REACTORS
330
11D00
102
}
330
11D00
100
AcDbScale
 70
     0
300
1:1
140
1.0
141
1.0
290
     1
1001
ACAD
1000
AcRTDxfName
1000
SCALE
1000
AcRTDxfName
1000
SCALE
1000
AcRTDxfName
1000
SCALE
1000
AcRTDxfName
1000
SCALE
  0
SCALE
  5
11D02
102
{ACAD_REACTORS
330
11D00
102
}
330
11D00
100
AcDbScale
 70
     0
300
1:2
140
1.0
141
2.0
290
     0
1001
ACAD
1000
AcRTDxfName
1000
SCALE
1000
AcRTDxfName
1000
SCALE
1000
AcRTDxfName
1000
SCALE
1000
AcRTDxfName
1000
SCALE
  0
SCALE
  5
11D03
102
{ACAD_REACTORS
330
11D00
102
}
330
11D00
100
AcDbScale
 70
     0
300
1:4
140
1.0
141
4.0
290
     0
1001
ACAD
1000
AcRTDxfName
1000
SCALE
1000
AcRTDxfName
1000
SCALE
1000
AcRTDxfName
1000
SCALE
1000
AcRTDxfName
1000
SCALE
  0
SCALE
  5
11D04
102
{ACAD_REACTORS
330
11D00
102
}
330
11D00
100
AcDbScale
 70
     0
300
1:5
140
1.0
141
5.0
290
     0
1001
ACAD
1000
AcRTDxfName
1000
SCALE
1000
AcRTDxfName
1000
SCALE
1000
AcRTDxfName
1000
SCALE
1000
AcRTDxfName
1000
SCALE
  0
SCALE
  5
11D05
102
{ACAD_REACTORS
330
11D00
102
}
330
11D00
100
AcDbScale
 70
     0
300
1:8
140
1.0
141
8.0
290
     0
1001
ACAD
1000
AcRTDxfName
1000
SCALE
1000
AcRTDxfName
1000
SCALE
1000
AcRTDxfName
1000
SCALE
1000
AcRTDxfName
1000
SCALE
  0
SCALE
  5
11D06
102
{ACAD_REACTORS
330
11D00
102
}
330
11D00
100
AcDbScale
 70
     0
300
1:10
140
1.0
141
10.0
290
     0
1001
ACAD
1000
AcRTDxfName
1000
SCALE
1000
AcRTDxfName
1000
SCALE
1000
AcRTDxfName
1000
SCALE
1000
AcRTDxfName
1000
SCALE
  0
SCALE
  5
11D07
102
{ACAD_REACTORS
330
11D00
102
}
330
11D00
100
AcDbScale
 70
     0
300
1:16
140
1.0
141
16.0
290
     0
1001
ACAD
1000
AcRTDxfName
1000
SCALE
1000
AcRTDxfName
1000
SCALE
1000
AcRTDxfName
1000
SCALE
1000
AcRTDxfName
1000
SCALE
  0
SCALE
  5
11D08
102
{ACAD_REACTORS
330
11D00
102
}
330
11D00
100
AcDbScale
 70
     0
300
1:20
140
1.0
141
20.0
290
     0
1001
ACAD
1000
AcRTDxfName
1000
SCALE
1000
AcRTDxfName
1000
SCALE
1000
AcRTDxfName
1000
SCALE
1000
AcRTDxfName
1000
SCALE
  0
SCALE
  5
11D09
102
{ACAD_REACTORS
330
11D00
102
}
330
11D00
100
AcDbScale
 70
     0
300
1:30
140
1.0
141
30.0
290
     0
1001
ACAD
1000
AcRTDxfName
1000
SCALE
1000
AcRTDxfName
1000
SCALE
1000
AcRTDxfName
1000
SCALE
1000
AcRTDxfName
1000
SCALE
  0
SCALE
  5
11D0A
102
{ACAD_REACTORS
330
11D00
102
}
330
11D00
100
AcDbScale
 70
     0
300
1:40
140
1.0
141
40.0
290
     0
1001
ACAD
1000
AcRTDxfName
1000
SCALE
1000
AcRTDxfName
1000
SCALE
1000
AcRTDxfName
1000
SCALE
1000
AcRTDxfName
1000
SCALE
  0
SCALE
  5
11D0B
102
{ACAD_REACTORS
330
11D00
102
}
330
11D00
100
AcDbScale
 70
     0
300
1:50
140
1.0
141
50.0
290
     0
1001
ACAD
1000
AcRTDxfName
1000
SCALE
1000
AcRTDxfName
1000
SCALE
1000
AcRTDxfName
1000
SCALE
1000
AcRTDxfName
1000
SCALE
  0
SCALE
  5
11D0C
102
{ACAD_REACTORS
330
11D00
102
}
330
11D00
100
AcDbScale
 70
     0
300
1:100
140
1.0
141
100.0
290
     0
1001
ACAD
1000
AcRTDxfName
1000
SCALE
1000
AcRTDxfName
1000
SCALE
1000
AcRTDxfName
1000
SCALE
1000
AcRTDxfName
1000
SCALE
  0
SCALE
  5
11D0D
102
{ACAD_REACTORS
330
11D00
102
}
330
11D00
100
AcDbScale
 70
     0
300
2:1
140
2.0
141
1.0
290
     0
1001
ACAD
1000
AcRTDxfName
1000
SCALE
1000
AcRTDxfName
1000
SCALE
1000
AcRTDxfName
1000
SCALE
1000
AcRTDxfName
1000
SCALE
  0
SCALE
  5
11D0E
102
{ACAD_REACTORS
330
11D00
102
}
330
11D00
100
AcDbScale
 70
     0
300
4:1
140
4.0
141
1.0
290
     0
1001
ACAD
1000
AcRTDxfName
1000
SCALE
1000
AcRTDxfName
1000
SCALE
1000
AcRTDxfName
1000
SCALE
1000
AcRTDxfName
1000
SCALE
  0
SCALE
  5
11D0F
102
{ACAD_REACTORS
330
11D00
102
}
330
11D00
100
AcDbScale
 70
     0
300
8:1
140
8.0
141
1.0
290
     0
1001
ACAD
1000
AcRTDxfName
1000
SCALE
1000
AcRTDxfName
1000
SCALE
1000
AcRTDxfName
1000
SCALE
1000
AcRTDxfName
1000
SCALE
  0
SCALE
  5
11D10
102
{ACAD_REACTORS
330
11D00
102
}
330
11D00
100
AcDbScale
 70
     0
300
10:1
140
10.0
141
1.0
290
     0
1001
ACAD
1000
AcRTDxfName
1000
SCALE
1000
AcRTDxfName
1000
SCALE
1000
AcRTDxfName
1000
SCALE
1000
AcRTDxfName
1000
SCALE
  0
SCALE
  5
11D11
102
{ACAD_REACTORS
330
11D00
102
}
330
11D00
100
AcDbScale
 70
     0
300
100:1
140
100.0
141
1.0
290
     0
1001
ACAD
1000
AcRTDxfName
1000
SCALE
1000
AcRTDxfName
1000
SCALE
1000
AcRTDxfName
1000
SCALE
1000
AcRTDxfName
1000
SCALE
  0
ACDBSECTIONVIEWSTYLE
  5
13760
102
{ACAD_XDICTIONARY
360
14A82
102
}
102
{ACAD_REACTORS
330
1375F
102
}
330
1375F
100
AcDbModelDocViewStyle
 70
     0
  3
Metric50
290
     0
100
AcDbSectionViewStyle
 70
     0
 71
     0
 90
      102
 71
     1
340
11
 62
   256
 40
5.0
340
0
340
0
 62
   256
 40
5.0
300
I, O, Q, S, X, Z
 40
10.0
 90
        0
 40
2.5
 90
        0
 71
     2
340
16
 90
       25
 62
   256
340
16
 90
       50
 62
   256
 40
5.0
 40
2.5
 40
5.0
 71
     3
340
11
 62
   256
 40
5.0
 90
        0
 40
15.0
 90
        1
300
%<\AcVar ViewSectionStartId>%-%<\AcVar ViewSectionEndId>% (%<\AcVar ViewScale \f "%sn">%)
 71
     4
 62
   256
 62
   257
300
ANSI31
 40
1.0
 90
        0
290
     0
290
     0
 90
        6
 40
0.0
 40
1.570796326794896
 40
0.2617993877991494
 40
1.308996938995747
 40
-0.2617993877991494
 40
1.832595714594045
  0
TABLESTYLE
  5
7F
102
{ACAD_XDICTIONARY
360
12217
102
}
102
{ACAD_REACTORS
330
7E
102
}
330
7E
100
AcDbTableStyle
280
     0
  3
Standard
 70
     0
 71
     0
 40
1.5
 41
1.5
280
     0
281
     0
  7
Standard
140
4.5
170
     2
 62
     0
 63
     7
283
     0
 90
        4
 91
        0
  1

274
    -2
284
     1
 64
     0
275
    -2
285
     1
 65
     0
276
    -2
286
     1
 66
     0
277
    -2
287
     1
 67
     0
278
    -2
288
     1
 68
     0
279
    -2
289
     1
 69
     0
  7
Standard
140
6.0
170
     5
 62
     0
 63
     7
283
     0
 90
        4
 91
        0
  1

274
    -2
284
     1
 64
     0
275
    -2
285
     1
 65
     0
276
    -2
286
     1
 66
     0
277
    -2
287
     1
 67
     0
278
    -2
288
     1
 68
     0
279
    -2
289
     1
 69
     0
  7
Standard
140
4.5
170
     5
 62
     0
 63
     7
283
     0
 90
        4
 91
        0
  1

274
    -2
284
     1
 64
     0
275
    -2
285
     1
 65
     0
276
    -2
286
     1
 66
     0
277
    -2
287
     1
 67
     0
278
    -2
288
     1
 68
     0
279
    -2
289
     1
 69
     0
  0
VISUALSTYLE
  5
11CF5
102
{ACAD_REACTORS
330
11CEF
102
}
330
11CEF
100
AcDbVisualStyle
  2
2dWireframe
 70
     4
177
     3
291
     0
 70
    58
 90
        0
176
     1
 90
        2
176
     1
 90
        0
176
     1
 90
        0
176
     1
 40
0.6
176
     1
 40
30.0
176
     1
 62
     7
176
     1
 90
        1
176
     1
 90
        4
176
     1
 62
     7
176
     1
 62
   257
176
     1
 90
        1
176
     1
 90
        1
176
     1
 40
1.0
176
     1
 90
        0
176
     1
 62
   257
176
     1
 40
1.0
176
     1
 90
        1
176
     1
 90
        6
176
     1
 90
        2
176
     1
 62
     7
176
     1
 90
        5
176
     1
 90
        0
176
     1
 90
        0
176
     1
290
     0
176
     1
 90
        1
176
     1
 40
0.0
176
     1
 90
        0
176
     1
290
     1
176
     1
290
     1
176
     1
290
     0
176
     1
290
     0
176
     1
290
     0
176
     1
290
     0
176
     1
290
     0
176
     1
290
     0
176
     1
290
     0
176
     1
 90
       50
176
     1
 40
0.0
176
     1
 40
1.0
176
     1
 90
        0
176
     1
 62
    18
176
     1
 90
       50
176
     1
 90
        3
176
     1
 62
     5
420
      255
176
     1
290
     0
176
     1
 90
       50
176
     1
 90
       50
176
     1
 90
       50
176
     1
290
     0
176
     1
 90
       50
176
     1
 62
   256
176
     0
 40
1.0
176
     0
 90
        2
176
     1
  1
strokes_ogs.tif
176
     1
290
     0
176
     1
 40
1.0
176
     1
 40
1.0
176
     1
1001
ACAD
1000
AcRTDxfName
1000
VISUALSTYLE
1000
AcRTDxfName
1000
VISUALSTYLE
1000
AcRTDxfName
1000
VISUALSTYLE
1000
AcRTDxfName
1000
VISUALSTYLE
1000
AcDbSavedByObjectVersion
1070
     0
  0
VISUALSTYLE
  5
11CF7
102
{ACAD_REACTORS
330
11CEF
102
}
330
11CEF
100
AcDbVisualStyle
  2
3D Hidden
 70
     6
177
     3
291
     0
 70
    58
 90
        1
176
     1
 90
        2
176
     1
 90
        2
176
     1
 90
        0
176
     1
 40
0.6
176
     1
 40
30.0
176
     1
 62
     7
176
     1
 90
        2
176
     1
 90
        2
176
     1
 62
     7
176
     1
 62
   257
176
     1
 90
        2
176
     1
 90
        1
176
     1
 40
40.0
176
     1
 90
        0
176
     1
 62
   257
176
     1
 40
1.0
176
     1
 90
        1
176
     1
 90
        6
176
     1
 90
        2
176
     1
 62
     7
176
     1
 90
        3
176
     1
 90
        0
176
     1
 90
        0
176
     1
290
     0
176
     1
 90
        1
176
     1
 40
0.0
176
     1
 90
        0
176
     1
290
     0
176
     1
290
     1
176
     1
290
     1
176
     1
290
     0
176
     1
290
     0
176
     1
290
     0
176
     1
290
     0
176
     1
290
     0
176
     1
290
     0
176
     1
 90
       50
176
     1
 40
0.0
176
     1
 40
1.0
176
     1
 90
        0
176
     1
 62
    18
176
     1
 90
       50
176
     1
 90
        3
176
     1
 62
     5
420
      255
176
     1
290
     0
176
     1
 90
       50
176
     1
 90
       50
176
     1
 90
       50
176
     1
290
     0
176
     1
 90
       50
176
     1
 62
   256
176
     0
 40
1.0
176
     0
 90
        2
176
     1
  1
strokes_ogs.tif
176
     1
290
     0
176
     1
 40
1.0
176
     1
 40
1.0
176
     1
1001
ACAD
1000
AcRTDxfName
1000
VISUALSTYLE
1000
AcRTDxfName
1000
VISUALSTYLE
1000
AcRTDxfName
1000
VISUALSTYLE
1000
AcRTDxfName
1000
VISUALSTYLE
1000
AcDbSavedByObjectVersion
1070
     0
  0
VISUALSTYLE
  5
11CF6
102
{ACAD_REACTORS
330
11CEF
102
}
330
11CEF
100
AcDbVisualStyle
  2
3dWireframe
 70
     5
177
     3
291
     0
 70
    58
 90
        0
176
     1
 90
        2
176
     1
 90
        0
176
     1
 90
        0
176
     1
 40
0.6
176
     1
 40
30.0
176
     1
 62
     7
176
     1
 90
        1
176
     1
 90
        4
176
     1
 62
     7
176
     1
 62
   257
176
     1
 90
        1
176
     1
 90
        1
176
     1
 40
1.0
176
     1
 90
        0
176
     1
 62
   257
176
     1
 40
1.0
176
     1
 90
        1
176
     1
 90
        6
176
     1
 90
        2
176
     1
 62
     7
176
     1
 90
        5
176
     1
 90
        0
176
     1
 90
        0
176
     1
290
     0
176
     1
 90
        1
176
     1
 40
0.0
176
     1
 90
        0
176
     1
290
     0
176
     1
290
     1
176
     1
290
     1
176
     1
290
     0
176
     1
290
     0
176
     1
290
     0
176
     1
290
     0
176
     1
290
     0
176
     1
290
     0
176
     1
 90
       50
176
     1
 40
0.0
176
     1
 40
1.0
176
     1
 90
        0
176
     1
 62
    18
176
     1
 90
       50
176
     1
 90
        3
176
     1
 62
     5
420
      255
176
     1
290
     0
176
     1
 90
       50
176
     1
 90
       50
176
     1
 90
       50
176
     1
290
     0
176
     1
 90
       50
176
     1
 62
   256
176
     0
 40
1.0
176
     0
 90
        2
176
     1
  1
strokes_ogs.tif
176
     1
290
     0
176
     1
 40
1.0
176
     1
 40
1.0
176
     1
1001
ACAD
1000
AcRTDxfName
1000
VISUALSTYLE
1000
AcRTDxfName
1000
VISUALSTYLE
1000
AcRTDxfName
1000
VISUALSTYLE
1000
AcRTDxfName
1000
VISUALSTYLE
1000
AcDbSavedByObjectVersion
1070
     0
  0
VISUALSTYLE
  5
11CF4
102
{ACAD_REACTORS
330
11CEF
102
}
330
11CEF
100
AcDbVisualStyle
  2
Basic
 70
     7
177
     3
291
     1
 70
    58
 90
        1
176
     1
 90
        0
176
     1
 90
        1
176
     1
 90
        0
176
     1
 40
0.6
176
     1
 40
30.0
176
     1
 62
     7
176
     1
 90
        0
176
     1
 90
        4
176
     1
 62
     7
176
     1
 62
   257
176
     1
 90
        1
176
     1
 90
        1
176
     1
 40
1.0
176
     1
 90
        8
176
     1
 62
     7
176
     1
 40
1.0
176
     1
 90
        1
176
     1
 90
        6
176
     1
 90
        2
176
     1
 62
     7
176
     1
 90
        5
176
     1
 90
        0
176
     1
 90
        0
176
     1
290
     0
176
     1
 90
        1
176
     1
 40
0.0
176
     1
 90
        0
176
     1
290
     0
176
     1
290
     1
176
     1
290
     1
176
     1
290
     0
176
     1
290
     0
176
     1
290
     0
176
     1
290
     0
176
     1
290
     0
176
     1
290
     0
176
     1
 90
       50
176
     1
 40
0.0
176
     1
 40
1.0
176
     1
 90
        0
176
     1
 62
    18
176
     1
 90
       50
176
     1
 90
        3
176
     1
 62
     5
420
      255
176
     1
290
     0
176
     1
 90
       50
176
     1
 90
       50
176
     1
 90
       50
176
     1
290
     0
176
     1
 90
       50
176
     1
 62
   256
176
     0
 40
1.0
176
     0
 90
        2
176
     1
  1
strokes_ogs.tif
176
     1
290
     0
176
     1
 40
1.0
176
     1
 40
1.0
176
     1
1001
ACAD
1000
AcRTDxfName
1000
VISUALSTYLE
1000
AcRTDxfName
1000
VISUALSTYLE
1000
AcRTDxfName
1000
VISUALSTYLE
1000
AcRTDxfName
1000
VISUALSTYLE
1000
AcDbSavedByObjectVersion
1070
     0
  0
VISUALSTYLE
  5
11CFB
102
{ACAD_REACTORS
330
11CEF
102
}
330
11CEF
100
AcDbVisualStyle
  2
Brighten
 70
    12
177
     3
291
     1
 70
    58
 90
        2
176
     1
 90
        2
176
     1
 90
        0
176
     1
 90
        0
176
     1
 40
0.6
176
     1
 40
30.0
176
     1
 62
     7
176
     1
 90
        1
176
     1
 90
        4
176
     1
 62
     7
176
     1
 62
   257
176
     1
 90
        1
176
     1
 90
        1
176
     1
 40
1.0
176
     1
 90
        8
176
     1
 62
     7
176
     1
 40
1.0
176
     1
 90
        1
176
     1
 90
        6
176
     1
 90
        2
176
     1
 62
     7
176
     1
 90
        5
176
     1
 90
        0
176
     1
 90
        0
176
     1
290
     0
176
     1
 90
        1
176
     1
 40
50.0
176
     1
 90
        0
176
     1
290
     0
176
     1
290
     1
176
     1
290
     1
176
     1
290
     0
176
     1
290
     0
176
     1
290
     0
176
     1
290
     0
176
     1
290
     0
176
     1
290
     0
176
     1
 90
       50
176
     1
 40
0.0
176
     1
 40
1.0
176
     1
 90
        0
176
     1
 62
    18
176
     1
 90
       50
176
     1
 90
        3
176
     1
 62
     5
420
      255
176
     1
290
     0
176
     1
 90
       50
176
     1
 90
       50
176
     1
 90
       50
176
     1
290
     0
176
     1
 90
       50
176
     1
 62
   256
176
     0
 40
1.0
176
     0
 90
        2
176
     1
  1
strokes_ogs.tif
176
     1
290
     0
176
     1
 40
1.0
176
     1
 40
1.0
176
     1
1001
ACAD
1000
AcRTDxfName
1000
VISUALSTYLE
1000
AcRTDxfName
1000
VISUALSTYLE
1000
AcRTDxfName
1000
VISUALSTYLE
1000
AcRTDxfName
1000
VISUALSTYLE
1000
AcDbSavedByObjectVersion
1070
     0
  0
VISUALSTYLE
  5
11CFF
102
{ACAD_REACTORS
330
11CEF
102
}
330
11CEF
100
AcDbVisualStyle
  2
ColorChange
 70
    16
177
     3
291
     1
 70
    58
 90
        2
176
     1
 90
        2
176
     1
 90
        3
176
     1
 90
        0
176
     1
 40
0.6
176
     1
 40
30.0
176
     1
 62
     8
176
     1
 90
        1
176
     1
 90
        4
176
     1
 62
     7
176
     1
 62
   257
176
     1
 90
        1
176
     1
 90
        1
176
     1
 40
1.0
176
     1
 90
        8
176
     1
 62
     8
176
     1
 40
1.0
176
     1
 90
        1
176
     1
 90
        6
176
     1
 90
        2
176
     1
 62
     7
176
     1
 90
        5
176
     1
 90
        0
176
     1
 90
        0
176
     1
290
     0
176
     1
 90
        1
176
     1
 40
0.0
176
     1
 90
        0
176
     1
290
     0
176
     1
290
     1
176
     1
290
     1
176
     1
290
     0
176
     1
290
     0
176
     1
290
     0
176
     1
290
     0
176
     1
290
     0
176
     1
290
     0
176
     1
 90
       50
176
     1
 40
0.0
176
     1
 40
1.0
176
     1
 90
        0
176
     1
 62
    18
176
     1
 90
       50
176
     1
 90
        3
176
     1
 62
     5
420
      255
176
     1
290
     0
176
     1
 90
       50
176
     1
 90
       50
176
     1
 90
       50
176
     1
290
     0
176
     1
 90
       50
176
     1
 62
   256
176
     0
 40
1.0
176
     0
 90
        2
176
     1
  1
strokes_ogs.tif
176
     1
290
     0
176
     1
 40
1.0
176
     1
 40
1.0
176
     1
1001
ACAD
1000
AcRTDxfName
1000
VISUALSTYLE
1000
AcRTDxfName
1000
VISUALSTYLE
1000
AcRTDxfName
1000
VISUALSTYLE
1000
AcRTDxfName
1000
VISUALSTYLE
1000
AcDbSavedByObjectVersion
1070
     0
  0
VISUALSTYLE
  5
11CF8
102
{ACAD_REACTORS
330
11CEF
102
}
330
11CEF
100
AcDbVisualStyle
  2
Conceptual
 70
     9
177
     3
291
     0
 70
    58
 90
        3
176
     1
 90
        2
176
     1
 90
        0
176
     1
 90
        0
176
     1
 40
0.6
176
     1
 40
30.0
176
     1
 62
     7
176
     1
 90
        2
176
     1
 90
        2
176
     1
 62
     7
176
     1
 62
   257
176
     1
 90
        1
176
     1
 90
        1
176
     1
 40
40.0
176
     1
 90
        8
176
     1
 62
     7
176
     1
 40
1.0
176
     1
 90
        1
176
     1
 90
        6
176
     1
 90
        2
176
     1
 62
     7
176
     1
 90
        3
176
     1
 90
        0
176
     1
 90
        0
176
     1
290
     0
176
     1
 90
        1
176
     1
 40
0.0
176
     1
 90
        0
176
     1
290
     0
176
     1
290
     1
176
     1
290
     1
176
     1
290
     0
176
     1
290
     0
176
     1
290
     0
176
     1
290
     0
176
     1
290
     0
176
     1
290
     0
176
     1
 90
       50
176
     1
 40
0.0
176
     1
 40
1.0
176
     1
 90
        0
176
     1
 62
    18
176
     1
 90
       50
176
     1
 90
        3
176
     1
 62
     5
420
      255
176
     1
290
     0
176
     1
 90
       50
176
     1
 90
       50
176
     1
 90
       50
176
     1
290
     0
176
     1
 90
       50
176
     1
 62
   256
176
     0
 40
1.0
176
     0
 90
        2
176
     1
  1
strokes_ogs.tif
176
     1
290
     0
176
     1
 40
1.0
176
     1
 40
1.0
176
     1
1001
ACAD
1000
AcRTDxfName
1000
VISUALSTYLE
1000
AcRTDxfName
1000
VISUALSTYLE
1000
AcRTDxfName
1000
VISUALSTYLE
1000
AcRTDxfName
1000
VISUALSTYLE
1000
AcDbSavedByObjectVersion
1070
     0
  0
VISUALSTYLE
  5
11CFA
102
{ACAD_REACTORS
330
11CEF
102
}
330
11CEF
100
AcDbVisualStyle
  2
Dim
 70
    11
177
     3
291
     1
 70
    58
 90
        2
176
     1
 90
        2
176
     1
 90
        0
176
     1
 90
        0
176
     1
 40
0.6
176
     1
 40
30.0
176
     1
 62
     7
176
     1
 90
        1
176
     1
 90
        4
176
     1
 62
     7
176
     1
 62
   257
176
     1
 90
        1
176
     1
 90
        1
176
     1
 40
1.0
176
     1
 90
        8
176
     1
 62
     7
176
     1
 40
1.0
176
     1
 90
        1
176
     1
 90
        6
176
     1
 90
        2
176
     1
 62
     7
176
     1
 90
        5
176
     1
 90
        0
176
     1
 90
        0
176
     1
290
     0
176
     1
 90
        1
176
     1
 40
-50.0
176
     1
 90
        0
176
     1
290
     0
176
     1
290
     1
176
     1
290
     1
176
     1
290
     0
176
     1
290
     0
176
     1
290
     0
176
     1
290
     0
176
     1
290
     0
176
     1
290
     0
176
     1
 90
       50
176
     1
 40
0.0
176
     1
 40
1.0
176
     1
 90
        0
176
     1
 62
    18
176
     1
 90
       50
176
     1
 90
        3
176
     1
 62
     5
420
      255
176
     1
290
     0
176
     1
 90
       50
176
     1
 90
       50
176
     1
 90
       50
176
     1
290
     0
176
     1
 90
       50
176
     1
 62
   256
176
     0
 40
1.0
176
     0
 90
        2
176
     1
  1
strokes_ogs.tif
176
     1
290
     0
176
     1
 40
1.0
176
     1
 40
1.0
176
     1
1001
ACAD
1000
AcRTDxfName
1000
VISUALSTYLE
1000
AcRTDxfName
1000
VISUALSTYLE
1000
AcRTDxfName
1000
VISUALSTYLE
1000
AcRTDxfName
1000
VISUALSTYLE
1000
AcDbSavedByObjectVersion
1070
     0
  0
VISUALSTYLE
  5
1375E
102
{ACAD_REACTORS
330
11CEF
102
}
330
11CEF
100
AcDbVisualStyle
  2
EdgeColorOff
 70
    22
177
     3
291
     1
 70
    58
 90
        2
176
     0
 90
        2
176
     0
 90
        0
176
     0
 90
        0
176
     0
 40
0.6
176
     0
 40
30.0
176
     0
 62
     7
420
 16777215
176
     0
 90
        1
176
     0
 90
        4
176
     0
 62
     7
176
     0
 62
   257
176
     0
 90
        1
176
     0
 90
        1
176
     0
 40
1.0
176
     0
 90
        8
176
     2
 62
     7
176
     0
 40
1.0
176
     0
 90
        1
176
     0
 90
        6
176
     0
 90
        2
176
     0
 62
     7
176
     0
 90
        5
176
     0
 90
        0
176
     0
 90
        0
176
     0
290
     0
176
     0
 90
        1
176
     0
 40
0.0
176
     0
 90
        0
176
     0
290
     0
176
     0
290
     1
176
     0
290
     1
176
     0
290
     0
176
     0
290
     0
176
     0
290
     0
176
     0
290
     0
176
     0
290
     0
176
     0
290
     0
176
     0
 90
       50
176
     0
 40
0.0
176
     0
 40
1.0
176
     0
 90
        0
176
     0
 62
    18
176
     0
 90
       50
176
     0
 90
        3
176
     0
 62
     5
420
      255
176
     0
290
     0
176
     0
 90
       50
176
     0
 90
       50
176
     0
 90
       50
176
     0
290
     0
176
     0
 90
       50
176
     0
 62
   256
176
     0
 40
1.0
176
     0
 90
        2
176
     0
  1
strokes_ogs.tif
176
     0
290
     0
176
     0
 40
1.0
176
     0
 40
1.0
176
     0
1001
ACAD
1000
AcDbSavedByObjectVersion
1070
     0
  0
VISUALSTYLE
  5
11CFE
102
{ACAD_REACTORS
330
11CEF
102
}
330
11CEF
100
AcDbVisualStyle
  2
Facepattern
 70
    15
177
     3
291
     1
 70
    58
 90
        2
176
     1
 90
        2
176
     1
 90
        0
176
     1
 90
        0
176
     1
 40
0.6
176
     1
 40
30.0
176
     1
 62
     7
176
     1
 90
        1
176
     1
 90
        4
176
     1
 62
     7
176
     1
 62
   257
176
     1
 90
        1
176
     1
 90
        1
176
     1
 40
1.0
176
     1
 90
        8
176
     1
 62
     7
176
     1
 40
1.0
176
     1
 90
        1
176
     1
 90
        6
176
     1
 90
        2
176
     1
 62
     7
176
     1
 90
        5
176
     1
 90
        0
176
     1
 90
        0
176
     1
290
     0
176
     1
 90
        1
176
     1
 40
0.0
176
     1
 90
        0
176
     1
290
     0
176
     1
290
     1
176
     1
290
     1
176
     1
290
     0
176
     1
290
     0
176
     1
290
     0
176
     1
290
     0
176
     1
290
     0
176
     1
290
     0
176
     1
 90
       50
176
     1
 40
0.0
176
     1
 40
1.0
176
     1
 90
        0
176
     1
 62
    18
176
     1
 90
       50
176
     1
 90
        3
176
     1
 62
     5
420
      255
176
     1
290
     0
176
     1
 90
       50
176
     1
 90
       50
176
     1
 90
       50
176
     1
290
     0
176
     1
 90
       50
176
     1
 62
   256
176
     0
 40
1.0
176
     0
 90
        2
176
     1
  1
strokes_ogs.tif
176
     1
290
     0
176
     1
 40
1.0
176
     1
 40
1.0
176
     1
1001
ACAD
1000
AcRTDxfName
1000
VISUALSTYLE
1000
AcRTDxfName
1000
VISUALSTYLE
1000
AcRTDxfName
1000
VISUALSTYLE
1000
AcRTDxfName
1000
VISUALSTYLE
1000
AcDbSavedByObjectVersion
1070
     0
  0
VISUALSTYLE
  5
11CF0
102
{ACAD_REACTORS
330
11CEF
102
}
330
11CEF
100
AcDbVisualStyle
  2
Flat
 70
     0
177
     3
291
     1
 70
    58
 90
        2
176
     1
 90
        1
176
     1
 90
        1
176
     1
 90
        2
176
     1
 40
0.6
176
     1
 40
30.0
176
     1
 62
     7
176
     1
 90
        0
176
     1
 90
        4
176
     1
 62
     7
176
     1
 62
   257
176
     1
 90
        1
176
     1
 90
        1
176
     1
 40
1.0
176
     1
 90
        8
176
     1
 62
     7
176
     1
 40
1.0
176
     1
 90
        1
176
     1
 90
        6
176
     1
 90
        2
176
     1
 62
     7
176
     1
 90
        5
176
     1
 90
        0
176
     1
 90
        0
176
     1
290
     0
176
     1
 90
       13
176
     1
 40
0.0
176
     1
 90
        0
176
     1
290
     0
176
     1
290
     1
176
     1
290
     1
176
     1
290
     0
176
     1
290
     0
176
     1
290
     0
176
     1
290
     0
176
     1
290
     0
176
     1
290
     0
176
     1
 90
       50
176
     1
 40
0.0
176
     1
 40
1.0
176
     1
 90
        0
176
     1
 62
    18
176
     1
 90
       50
176
     1
 90
        3
176
     1
 62
     5
420
      255
176
     1
290
     0
176
     1
 90
       50
176
     1
 90
       50
176
     1
 90
       50
176
     1
290
     0
176
     1
 90
       50
176
     1
 62
   256
176
     0
 40
1.0
176
     0
 90
        2
176
     1
  1
strokes_ogs.tif
176
     1
290
     0
176
     1
 40
1.0
176
     1
 40
1.0
176
     1
1001
ACAD
1000
AcRTDxfName
1000
VISUALSTYLE
1000
AcRTDxfName
1000
VISUALSTYLE
1000
AcRTDxfName
1000
VISUALSTYLE
1000
AcRTDxfName
1000
VISUALSTYLE
1000
AcDbSavedByObjectVersion
1070
     0
  0
VISUALSTYLE
  5
11CF1
102
{ACAD_REACTORS
330
11CEF
102
}
330
11CEF
100
AcDbVisualStyle
  2
FlatWithEdges
 70
     1
177
     3
291
     1
 70
    58
 90
        2
176
     1
 90
        1
176
     1
 90
        1
176
     1
 90
        2
176
     1
 40
0.6
176
     1
 40
30.0
176
     1
 62
     7
176
     1
 90
        1
176
     1
 90
        4
176
     1
 62
     7
176
     1
 62
   257
176
     1
 90
        1
176
     1
 90
        1
176
     1
 40
1.0
176
     1
 90
        0
176
     1
 62
   257
176
     1
 40
1.0
176
     1
 90
        1
176
     1
 90
        6
176
     1
 90
        2
176
     1
 62
     7
176
     1
 90
        5
176
     1
 90
        0
176
     1
 90
        0
176
     1
290
     0
176
     1
 90
       13
176
     1
 40
0.0
176
     1
 90
        0
176
     1
290
     0
176
     1
290
     1
176
     1
290
     1
176
     1
290
     0
176
     1
290
     0
176
     1
290
     0
176
     1
290
     0
176
     1
290
     0
176
     1
290
     0
176
     1
 90
       50
176
     1
 40
0.0
176
     1
 40
1.0
176
     1
 90
        0
176
     1
 62
    18
176
     1
 90
       50
176
     1
 90
        3
176
     1
 62
     5
420
      255
176
     1
290
     0
176
     1
 90
       50
176
     1
 90
       50
176
     1
 90
       50
176
     1
290
     0
176
     1
 90
       50
176
     1
 62
   256
176
     0
 40
1.0
176
     0
 90
        2
176
     1
  1
strokes_ogs.tif
176
     1
290
     0
176
     1
 40
1.0
176
     1
 40
1.0
176
     1
1001
ACAD
1000
AcRTDxfName
1000
VISUALSTYLE
1000
AcRTDxfName
1000
VISUALSTYLE
1000
AcRTDxfName
1000
VISUALSTYLE
1000
AcRTDxfName
1000
VISUALSTYLE
1000
AcDbSavedByObjectVersion
1070
     0
  0
VISUALSTYLE
  5
11CF2
102
{ACAD_REACTORS
330
11CEF
102
}
330
11CEF
100
AcDbVisualStyle
  2
Gouraud
 70
     2
177
     3
291
     1
 70
    58
 90
        2
176
     1
 90
        2
176
     1
 90
        1
176
     1
 90
        2
176
     1
 40
0.6
176
     1
 40
30.0
176
     1
 62
     7
176
     1
 90
        0
176
     1
 90
        4
176
     1
 62
     7
176
     1
 62
   257
176
     1
 90
        1
176
     1
 90
        1
176
     1
 40
1.0
176
     1
 90
        0
176
     1
 62
     7
176
     1
 40
1.0
176
     1
 90
        1
176
     1
 90
        6
176
     1
 90
        2
176
     1
 62
     7
176
     1
 90
        5
176
     1
 90
        0
176
     1
 90
        0
176
     1
290
     0
176
     1
 90
       13
176
     1
 40
0.0
176
     1
 90
        0
176
     1
290
     0
176
     1
290
     1
176
     1
290
     1
176
     1
290
     0
176
     1
290
     0
176
     1
290
     0
176
     1
290
     0
176
     1
290
     0
176
     1
290
     0
176
     1
 90
       50
176
     1
 40
0.0
176
     1
 40
1.0
176
     1
 90
        0
176
     1
 62
    18
176
     1
 90
       50
176
     1
 90
        3
176
     1
 62
     5
420
      255
176
     1
290
     0
176
     1
 90
       50
176
     1
 90
       50
176
     1
 90
       50
176
     1
290
     0
176
     1
 90
       50
176
     1
 62
   256
176
     0
 40
1.0
176
     0
 90
        2
176
     1
  1
strokes_ogs.tif
176
     1
290
     0
176
     1
 40
1.0
176
     1
 40
1.0
176
     1
1001
ACAD
1000
AcRTDxfName
1000
VISUALSTYLE
1000
AcRTDxfName
1000
VISUALSTYLE
1000
AcRTDxfName
1000
VISUALSTYLE
1000
AcRTDxfName
1000
VISUALSTYLE
1000
AcDbSavedByObjectVersion
1070
     0
  0
VISUALSTYLE
  5
11CF3
102
{ACAD_REACTORS
330
11CEF
102
}
330
11CEF
100
AcDbVisualStyle
  2
GouraudWithEdges
 70
     3
177
     3
291
     1
 70
    58
 90
        2
176
     1
 90
        2
176
     1
 90
        1
176
     1
 90
        2
176
     1
 40
0.6
176
     1
 40
30.0
176
     1
 62
     7
176
     1
 90
        1
176
     1
 90
        4
176
     1
 62
     7
176
     1
 62
   257
176
     1
 90
        1
176
     1
 90
        1
176
     1
 40
1.0
176
     1
 90
        0
176
     1
 62
   257
176
     1
 40
1.0
176
     1
 90
        1
176
     1
 90
        6
176
     1
 90
        2
176
     1
 62
     7
176
     1
 90
        5
176
     1
 90
        0
176
     1
 90
        0
176
     1
290
     0
176
     1
 90
       13
176
     1
 40
0.0
176
     1
 90
        0
176
     1
290
     0
176
     1
290
     1
176
     1
290
     1
176
     1
290
     0
176
     1
290
     0
176
     1
290
     0
176
     1
290
     0
176
     1
290
     0
176
     1
290
     0
176
     1
 90
       50
176
     1
 40
0.0
176
     1
 40
1.0
176
     1
 90
        0
176
     1
 62
    18
176
     1
 90
       50
176
     1
 90
        3
176
     1
 62
     5
420
      255
176
     1
290
     0
176
     1
 90
       50
176
     1
 90
       50
176
     1
 90
       50
176
     1
290
     0
176
     1
 90
       50
176
     1
 62
   256
176
     0
 40
1.0
176
     0
 90
        2
176
     1
  1
strokes_ogs.tif
176
     1
290
     0
176
     1
 40
1.0
176
     1
 40
1.0
176
     1
1001
ACAD
1000
AcRTDxfName
1000
VISUALSTYLE
1000
AcRTDxfName
1000
VISUALSTYLE
1000
AcRTDxfName
1000
VISUALSTYLE
1000
AcRTDxfName
1000
VISUALSTYLE
1000
AcDbSavedByObjectVersion
1070
     0
  0
VISUALSTYLE
  5
13756
102
{ACAD_REACTORS
330
11CEF
102
}
330
11CEF
100
AcDbVisualStyle
  2
Hidden
 70
     6
177
     3
291
     0
 70
    58
 90
        1
176
     1
 90
        2
176
     1
 90
        2
176
     1
 90
        0
176
     1
 40
0.6
176
     1
 40
30.0
176
     1
 62
     7
420
 16777215
176
     1
 90
        2
176
     1
 90
        2
176
     1
 62
     7
176
     1
 62
   257
176
     1
 90
        2
176
     1
 90
        1
176
     1
 40
40.0
176
     1
 90
        0
176
     1
 62
   257
176
     1
 40
1.0
176
     1
 90
        1
176
     1
 90
        6
176
     1
 90
        2
176
     1
 62
     7
176
     1
 90
        3
176
     1
 90
        0
176
     1
 90
        0
176
     1
290
     0
176
     1
 90
        1
176
     1
 40
0.0
176
     1
 90
        0
176
     1
290
     0
176
     1
290
     1
176
     1
290
     1
176
     1
290
     0
176
     1
290
     0
176
     1
290
     0
176
     1
290
     0
176
     1
290
     0
176
     1
290
     0
176
     1
 90
       50
176
     1
 40
0.0
176
     1
 40
1.0
176
     1
 90
        0
176
     1
 62
    18
176
     1
 90
       50
176
     1
 90
        3
176
     1
 62
     5
420
      255
176
     1
290
     0
176
     1
 90
       50
176
     1
 90
       50
176
     1
 90
       50
176
     1
290
     0
176
     1
 90
       50
176
     1
 62
   256
176
     0
 40
1.0
176
     0
 90
        2
176
     1
  1
strokes_ogs.tif
176
     1
290
     0
176
     1
 40
1.0
176
     1
 40
1.0
176
     1
1001
ACAD
1000
AcDbSavedByObjectVersion
1070
     0
  0
VISUALSTYLE
  5
1375C
102
{ACAD_REACTORS
330
11CEF
102
}
330
11CEF
100
AcDbVisualStyle
  2
JitterOff
 70
    20
177
     3
291
     1
 70
    58
 90
        2
176
     0
 90
        2
176
     0
 90
        0
176
     0
 90
        0
176
     0
 40
0.6
176
     0
 40
30.0
176
     0
 62
     7
420
 16777215
176
     0
 90
        1
176
     0
 90
        4
176
     0
 62
     7
176
     0
 62
   257
176
     0
 90
        1
176
     0
 90
        1
176
     0
 40
1.0
176
     0
 90
       10
176
     2
 62
     7
176
     0
 40
1.0
176
     0
 90
        1
176
     0
 90
        6
176
     0
 90
        2
176
     0
 62
     7
176
     0
 90
        5
176
     0
 90
        0
176
     0
 90
        0
176
     0
290
     0
176
     0
 90
        1
176
     0
 40
0.0
176
     0
 90
        0
176
     0
290
     0
176
     0
290
     1
176
     0
290
     1
176
     0
290
     0
176
     0
290
     0
176
     0
290
     0
176
     0
290
     0
176
     0
290
     0
176
     0
290
     0
176
     0
 90
       50
176
     0
 40
0.0
176
     0
 40
1.0
176
     0
 90
        0
176
     0
 62
    18
176
     0
 90
       50
176
     0
 90
        3
176
     0
 62
     5
420
      255
176
     0
290
     0
176
     0
 90
       50
176
     0
 90
       50
176
     0
 90
       50
176
     0
290
     0
176
     0
 90
       50
176
     0
 62
   256
176
     0
 40
1.0
176
     0
 90
        2
176
     0
  1
strokes_ogs.tif
176
     0
290
     0
176
     0
 40
1.0
176
     0
 40
1.0
176
     0
1001
ACAD
1000
AcDbSavedByObjectVersion
1070
     0
  0
VISUALSTYLE
  5
11CFD
102
{ACAD_REACTORS
330
11CEF
102
}
330
11CEF
100
AcDbVisualStyle
  2
Linepattern
 70
    14
177
     3
291
     1
 70
    58
 90
        2
176
     1
 90
        2
176
     1
 90
        0
176
     1
 90
        0
176
     1
 40
0.6
176
     1
 40
30.0
176
     1
 62
     7
176
     1
 90
        1
176
     1
 90
        4
176
     1
 62
     7
176
     1
 62
   257
176
     1
 90
        7
176
     1
 90
        7
176
     1
 40
1.0
176
     1
 90
        8
176
     1
 62
     7
176
     1
 40
1.0
176
     1
 90
        1
176
     1
 90
        6
176
     1
 90
        2
176
     1
 62
     7
176
     1
 90
        5
176
     1
 90
        0
176
     1
 90
        0
176
     1
290
     0
176
     1
 90
        1
176
     1
 40
0.0
176
     1
 90
        0
176
     1
290
     0
176
     1
290
     1
176
     1
290
     1
176
     1
290
     0
176
     1
290
     0
176
     1
290
     0
176
     1
290
     0
176
     1
290
     0
176
     1
290
     0
176
     1
 90
       50
176
     1
 40
0.0
176
     1
 40
1.0
176
     1
 90
        0
176
     1
 62
    18
176
     1
 90
       50
176
     1
 90
        3
176
     1
 62
     5
420
      255
176
     1
290
     0
176
     1
 90
       50
176
     1
 90
       50
176
     1
 90
       50
176
     1
290
     0
176
     1
 90
       50
176
     1
 62
   256
176
     0
 40
1.0
176
     0
 90
        2
176
     1
  1
strokes_ogs.tif
176
     1
290
     0
176
     1
 40
1.0
176
     1
 40
1.0
176
     1
1001
ACAD
1000
AcRTDxfName
1000
VISUALSTYLE
1000
AcRTDxfName
1000
VISUALSTYLE
1000
AcRTDxfName
1000
VISUALSTYLE
1000
AcRTDxfName
1000
VISUALSTYLE
1000
AcDbSavedByObjectVersion
1070
     0
  0
VISUALSTYLE
  5
1375D
102
{ACAD_REACTORS
330
11CEF
102
}
330
11CEF
100
AcDbVisualStyle
  2
OverhangOff
 70
    21
177
     3
291
     1
 70
    58
 90
        2
176
     0
 90
        2
176
     0
 90
        0
176
     0
 90
        0
176
     0
 40
0.6
176
     0
 40
30.0
176
     0
 62
     7
420
 16777215
176
     0
 90
        1
176
     0
 90
        4
176
     0
 62
     7
176
     0
 62
   257
176
     0
 90
        1
176
     0
 90
        1
176
     0
 40
1.0
176
     0
 90
        9
176
     2
 62
     7
176
     0
 40
1.0
176
     0
 90
        1
176
     0
 90
        6
176
     0
 90
        2
176
     0
 62
     7
176
     0
 90
        5
176
     0
 90
        0
176
     0
 90
        0
176
     0
290
     0
176
     0
 90
        1
176
     0
 40
0.0
176
     0
 90
        0
176
     0
290
     0
176
     0
290
     1
176
     0
290
     1
176
     0
290
     0
176
     0
290
     0
176
     0
290
     0
176
     0
290
     0
176
     0
290
     0
176
     0
290
     0
176
     0
 90
       50
176
     0
 40
0.0
176
     0
 40
1.0
176
     0
 90
        0
176
     0
 62
    18
176
     0
 90
       50
176
     0
 90
        3
176
     0
 62
     5
420
      255
176
     0
290
     0
176
     0
 90
       50
176
     0
 90
       50
176
     0
 90
       50
176
     0
290
     0
176
     0
 90
       50
176
     0
 62
   256
176
     0
 40
1.0
176
     0
 90
        2
176
     0
  1
strokes_ogs.tif
176
     0
290
     0
176
     0
 40
1.0
176
     0
 40
1.0
176
     0
1001
ACAD
1000
AcDbSavedByObjectVersion
1070
     0
  0
VISUALSTYLE
  5
11CF9
102
{ACAD_REACTORS
330
11CEF
102
}
330
11CEF
100
AcDbVisualStyle
  2
Realistic
 70
     8
177
     3
291
     0
 70
    58
 90
        2
176
     1
 90
        2
176
     1
 90
        0
176
     1
 90
        0
176
     1
 40
0.6
176
     1
 40
30.0
176
     1
 62
     7
176
     1
 90
        1
176
     1
 90
        0
176
     1
 62
     7
176
     1
 62
   257
176
     1
 90
        1
176
     1
 90
        1
176
     1
 40
1.0
176
     1
 90
        8
176
     1
 62
     8
176
     1
 40
1.0
176
     1
 90
        1
176
     1
 90
        6
176
     1
 90
        2
176
     1
 62
     7
176
     1
 90
        5
176
     1
 90
        0
176
     1
 90
        0
176
     1
290
     0
176
     1
 90
       13
176
     1
 40
0.0
176
     1
 90
        0
176
     1
290
     0
176
     1
290
     1
176
     1
290
     1
176
     1
290
     0
176
     1
290
     0
176
     1
290
     0
176
     1
290
     0
176
     1
290
     0
176
     1
290
     0
176
     1
 90
       50
176
     1
 40
0.0
176
     1
 40
1.0
176
     1
 90
        0
176
     1
 62
    18
176
     1
 90
       50
176
     1
 90
        3
176
     1
 62
     5
420
      255
176
     1
290
     0
176
     1
 90
       50
176
     1
 90
       50
176
     1
 90
       50
176
     1
290
     0
176
     1
 90
       50
176
     1
 62
   256
176
     0
 40
1.0
176
     0
 90
        2
176
     1
  1
strokes_ogs.tif
176
     1
290
     0
176
     1
 40
1.0
176
     1
 40
1.0
176
     1
1001
ACAD
1000
AcRTDxfName
1000
VISUALSTYLE
1000
AcRTDxfName
1000
VISUALSTYLE
1000
AcRTDxfName
1000
VISUALSTYLE
1000
AcRTDxfName
1000
VISUALSTYLE
1000
AcDbSavedByObjectVersion
1070
     0
  0
VISUALSTYLE
  5
1375B
102
{ACAD_REACTORS
330
11CEF
102
}
330
11CEF
100
AcDbVisualStyle
  2
Shaded
 70
    27
177
     3
291
     0
 70
    58
 90
        2
176
     1
 90
        2
176
     1
 90
        1
176
     1
 90
        2
176
     1
 40
0.6
176
     1
 40
30.0
176
     1
 62
     7
420
 16777215
176
     1
 90
        0
176
     1
 90
        4
176
     1
 62
     7
176
     1
 62
   257
176
     1
 90
        1
176
     1
 90
        1
176
     1
 40
1.0
176
     1
 90
        8
176
     1
 62
   257
176
     1
 40
1.0
176
     1
 90
        1
176
     1
 90
        6
176
     1
 90
        2
176
     1
 62
     8
420
  7895160
176
     1
 90
        3
176
     1
 90
        0
176
     1
 90
        0
176
     1
290
     0
176
     1
 90
        5
176
     1
 40
0.0
176
     1
 90
        0
176
     1
290
     0
176
     1
290
     1
176
     1
290
     1
176
     1
290
     0
176
     1
290
     0
176
     1
290
     0
176
     1
290
     0
176
     1
290
     0
176
     1
290
     0
176
     1
 90
       50
176
     1
 40
0.0
176
     1
 40
1.0
176
     1
 90
        0
176
     1
 62
    18
176
     1
 90
       50
176
     1
 90
        3
176
     1
 62
     5
420
      255
176
     1
290
     0
176
     1
 90
       50
176
     1
 90
       50
176
     1
 90
       50
176
     1
290
     0
176
     1
 90
       50
176
     1
 62
   256
176
     0
 40
1.0
176
     0
 90
        2
176
     1
  1
strokes_ogs.tif
176
     1
290
     0
176
     1
 40
1.0
176
     1
 40
1.0
176
     1
1001
ACAD
1000
AcDbSavedByObjectVersion
1070
     0
  0
VISUALSTYLE
  5
1375A
102
{ACAD_REACTORS
330
11CEF
102
}
330
11CEF
100
AcDbVisualStyle
  2
Shaded with edges
 70
    26
177
     3
291
     0
 70
    58
 90
        2
176
     1
 90
        2
176
     1
 90
        1
176
     1
 90
        2
176
     1
 40
0.6
176
     1
 40
30.0
176
     1
 62
     7
420
 16777215
176
     1
 90
        1
176
     1
 90
        2
176
     1
 62
     7
176
     1
 62
   257
176
     1
 90
        2
176
     1
 90
        1
176
     1
 40
1.0
176
     1
 90
        8
176
     1
 62
   257
176
     1
 40
1.0
176
     1
 90
        1
176
     1
 90
        6
176
     1
 90
        2
176
     1
 62
     7
176
     1
 90
        3
176
     1
 90
        0
176
     1
 90
        0
176
     1
290
     0
176
     1
 90
        5
176
     1
 40
0.0
176
     1
 90
        0
176
     1
290
     0
176
     1
290
     1
176
     1
290
     1
176
     1
290
     0
176
     1
290
     0
176
     1
290
     0
176
     1
290
     0
176
     1
290
     0
176
     1
290
     0
176
     1
 90
       50
176
     1
 40
0.0
176
     1
 40
1.0
176
     1
 90
        0
176
     1
 62
    18
176
     1
 90
       50
176
     1
 90
        3
176
     1
 62
     5
420
      255
176
     1
290
     0
176
     1
 90
       50
176
     1
 90
       50
176
     1
 90
       50
176
     1
290
     0
176
     1
 90
       50
176
     1
 62
   256
176
     0
 40
1.0
176
     0
 90
        2
176
     1
  1
strokes_ogs.tif
176
     1
290
     0
176
     1
 40
1.0
176
     1
 40
1.0
176
     1
1001
ACAD
1000
AcDbSavedByObjectVersion
1070
     0
  0
VISUALSTYLE
  5
13757
102
{ACAD_REACTORS
330
11CEF
102
}
330
11CEF
100
AcDbVisualStyle
  2
Shades of Gray
 70
    23
177
     3
291
     0
 70
    58
 90
        2
176
     1
 90
        2
176
     1
 90
        3
176
     1
 90
        0
176
     1
 40
0.6
176
     1
 40
30.0
176
     1
 62
     7
420
 16777215
176
     1
 90
        2
176
     1
 90
        2
176
     1
 62
     7
176
     1
 62
     7
176
     1
 90
        1
176
     1
 90
        1
176
     1
 40
40.0
176
     1
 90
        8
176
     1
 62
     7
176
     1
 40
1.0
176
     1
 90
        1
176
     1
 90
        6
176
     1
 90
        2
176
     1
 62
     7
176
     1
 90
        3
176
     1
 90
        0
176
     1
 90
        0
176
     1
290
     0
176
     1
 90
        1
176
     1
 40
0.0
176
     1
 90
        0
176
     1
290
     0
176
     1
290
     1
176
     1
290
     1
176
     1
290
     0
176
     1
290
     0
176
     1
290
     0
176
     1
290
     0
176
     1
290
     0
176
     1
290
     0
176
     1
 90
       50
176
     1
 40
0.0
176
     1
 40
1.0
176
     1
 90
        0
176
     1
 62
    18
176
     1
 90
       50
176
     1
 90
        3
176
     1
 62
     5
420
      255
176
     1
290
     0
176
     1
 90
       50
176
     1
 90
       50
176
     1
 90
       50
176
     1
290
     0
176
     1
 90
       50
176
     1
 62
   256
176
     0
 40
1.0
176
     0
 90
        2
176
     1
  1
strokes_ogs.tif
176
     1
290
     0
176
     1
 40
1.0
176
     1
 40
1.0
176
     1
1001
ACAD
1000
AcDbSavedByObjectVersion
1070
     0
  0
VISUALSTYLE
  5
13758
102
{ACAD_REACTORS
330
11CEF
102
}
330
11CEF
100
AcDbVisualStyle
  2
Sketchy
 70
    24
177
     3
291
     0
 70
    58
 90
        1
176
     1
 90
        2
176
     1
 90
        2
176
     1
 90
        0
176
     1
 40
0.6
176
     1
 40
30.0
176
     1
 62
     7
420
 16777215
176
     1
 90
        2
176
     1
 90
        2
176
     1
 62
     7
176
     1
 62
     7
176
     1
 90
        1
176
     1
 90
        1
176
     1
 40
40.0
176
     1
 90
       11
176
     1
 62
     7
176
     1
 40
1.0
176
     1
 90
        1
176
     1
 90
        6
176
     1
 90
        2
176
     1
 62
     7
176
     1
 90
        6
176
     1
 90
        0
176
     1
 90
        0
176
     1
290
     0
176
     1
 90
        1
176
     1
 40
0.0
176
     1
 90
        0
176
     1
290
     0
176
     1
290
     1
176
     1
290
     1
176
     1
290
     0
176
     1
290
     0
176
     1
290
     0
176
     1
290
     0
176
     1
290
     0
176
     1
290
     0
176
     1
 90
       50
176
     1
 40
0.0
176
     1
 40
1.0
176
     1
 90
        0
176
     1
 62
    18
176
     1
 90
       50
176
     1
 90
        3
176
     1
 62
     5
420
      255
176
     1
290
     0
176
     1
 90
       50
176
     1
 90
       50
176
     1
 90
       50
176
     1
290
     0
176
     1
 90
       50
176
     1
 62
   256
176
     0
 40
1.0
176
     0
 90
        2
176
     1
  1
strokes_ogs.tif
176
     1
290
     0
176
     1
 40
1.0
176
     1
 40
1.0
176
     1
1001
ACAD
1000
AcDbSavedByObjectVersion
1070
     0
  0
VISUALSTYLE
  5
11CFC
102
{ACAD_REACTORS
330
11CEF
102
}
330
11CEF
100
AcDbVisualStyle
  2
Thicken
 70
    13
177
     3
291
     1
 70
    58
 90
        2
176
     1
 90
        2
176
     1
 90
        0
176
     1
 90
        0
176
     1
 40
0.6
176
     1
 40
30.0
176
     1
 62
     7
176
     1
 90
        1
176
     1
 90
        4
176
     1
 62
     7
176
     1
 62
   257
176
     1
 90
        1
176
     1
 90
        1
176
     1
 40
1.0
176
     1
 90
       12
176
     1
 62
     7
176
     1
 40
1.0
176
     1
 90
        1
176
     1
 90
        6
176
     1
 90
        2
176
     1
 62
     7
176
     1
 90
        5
176
     1
 90
        0
176
     1
 90
        0
176
     1
290
     0
176
     1
 90
        1
176
     1
 40
0.0
176
     1
 90
        0
176
     1
290
     0
176
     1
290
     1
176
     1
290
     1
176
     1
290
     0
176
     1
290
     0
176
     1
290
     0
176
     1
290
     0
176
     1
290
     0
176
     1
290
     0
176
     1
 90
       50
176
     1
 40
0.0
176
     1
 40
1.0
176
     1
 90
        0
176
     1
 62
    18
176
     1
 90
       50
176
     1
 90
        3
176
     1
 62
     5
420
      255
176
     1
290
     0
176
     1
 90
       50
176
     1
 90
       50
176
     1
 90
       50
176
     1
290
     0
176
     1
 90
       50
176
     1
 62
   256
176
     0
 40
1.0
176
     0
 90
        2
176
     1
  1
strokes_ogs.tif
176
     1
290
     0
176
     1
 40
1.0
176
     1
 40
1.0
176
     1
1001
ACAD
1000
AcRTDxfName
1000
VISUALSTYLE
1000
AcRTDxfName
1000
VISUALSTYLE
1000
AcRTDxfName
1000
VISUALSTYLE
1000
AcRTDxfName
1000
VISUALSTYLE
1000
AcDbSavedByObjectVersion
1070
     0
  0
VISUALSTYLE
  5
13755
102
{ACAD_REACTORS
330
11CEF
102
}
330
11CEF
100
AcDbVisualStyle
  2
Wireframe
 70
     5
177
     3
291
     0
 70
    58
 90
        0
176
     1
 90
        2
176
     1
 90
        0
176
     1
 90
        0
176
     1
 40
0.6
176
     1
 40
30.0
176
     1
 62
     7
420
 16777215
176
     1
 90
        1
176
     1
 90
        4
176
     1
 62
     7
176
     1
 62
   257
176
     1
 90
        1
176
     1
 90
        1
176
     1
 40
1.0
176
     1
 90
        0
176
     1
 62
   257
176
     1
 40
1.0
176
     1
 90
        1
176
     1
 90
        6
176
     1
 90
        2
176
     1
 62
     7
176
     1
 90
        3
176
     1
 90
        0
176
     1
 90
        0
176
     1
290
     0
176
     1
 90
        1
176
     1
 40
0.0
176
     1
 90
        0
176
     1
290
     0
176
     1
290
     1
176
     1
290
     1
176
     1
290
     0
176
     1
290
     0
176
     1
290
     0
176
     1
290
     0
176
     1
290
     0
176
     1
290
     0
176
     1
 90
       50
176
     1
 40
0.0
176
     1
 40
1.0
176
     1
 90
        0
176
     1
 62
    18
176
     1
 90
       50
176
     1
 90
        3
176
     1
 62
     5
420
      255
176
     1
290
     0
176
     1
 90
       50
176
     1
 90
       50
176
     1
 90
       50
176
     1
290
     0
176
     1
 90
       50
176
     1
 62
   256
176
     0
 40
1.0
176
     0
 90
        2
176
     1
  1
strokes_ogs.tif
176
     1
290
     0
176
     1
 40
1.0
176
     1
 40
1.0
176
     1
1001
ACAD
1000
AcDbSavedByObjectVersion
1070
     0
  0
VISUALSTYLE
  5
13759
102
{ACAD_REACTORS
330
11CEF
102
}
330
11CEF
100
AcDbVisualStyle
  2
X-Ray
 70
    25
177
     3
291
     0
 70
    58
 90
        2
176
     1
 90
        2
176
     1
 90
        1
176
     1
 90
        1
176
     1
 40
0.5
176
     1
 40
30.0
176
     1
 62
     7
420
 16777215
176
     1
 90
        1
176
     1
 90
        0
176
     1
 62
     7
176
     1
 62
   257
176
     1
 90
        1
176
     1
 90
        1
176
     1
 40
1.0
176
     1
 90
        8
176
     1
 62
     7
176
     1
 40
1.0
176
     1
 90
        1
176
     1
 90
        6
176
     1
 90
        2
176
     1
 62
     7
176
     1
 90
        3
176
     1
 90
        0
176
     1
 90
        0
176
     1
290
     0
176
     1
 90
       13
176
     1
 40
0.0
176
     1
 90
        0
176
     1
290
     0
176
     1
290
     1
176
     1
290
     1
176
     1
290
     0
176
     1
290
     0
176
     1
290
     0
176
     1
290
     0
176
     1
290
     0
176
     1
290
     0
176
     1
 90
       50
176
     1
 40
0.0
176
     1
 40
1.0
176
     1
 90
        0
176
     1
 62
    18
176
     1
 90
       50
176
     1
 90
        3
176
     1
 62
     5
420
      255
176
     1
290
     0
176
     1
 90
       50
176
     1
 90
       50
176
     1
 90
       50
176
     1
290
     0
176
     1
 90
       50
176
     1
 62
   256
176
     0
 40
1.0
176
     0
 90
        2
176
     1
  1
strokes_ogs.tif
176
     1
290
     0
176
     1
 40
1.0
176
     1
 40
1.0
176
     1
1001
ACAD
1000
AcDbSavedByObjectVersion
1070
     0
  0
DICTIONARYVAR
  5
1222B
102
{ACAD_REACTORS
330
5E
102
}
330
5E
100
DictionaryVariables
280
     0
  1
1:1
  0
DICTIONARYVAR
  5
1222A
102
{ACAD_REACTORS
330
5E
102
}
330
5E
100
DictionaryVariables
280
     0
  1
STANDARD
  0
DICTIONARYVAR
  5
84
102
{ACAD_REACTORS
330
5E
102
}
330
5E
100
DictionaryVariables
280
     0
  1
STANDARD
  0
DICTIONARYVAR
  5
14892
102
{ACAD_REACTORS
330
5E
102
}
330
5E
100
DictionaryVariables
280
     0
  1
Metric50
  0
DICTIONARYVAR
  5
14893
102
{ACAD_REACTORS
330
5E
102
}
330
5E
100
DictionaryVariables
280
     0
  1
Metric50
  0
DICTIONARYVAR
  5
5F
102
{ACAD_REACTORS
330
5E
102
}
330
5E
100
DictionaryVariables
280
     0
  1
2
  0
DICTIONARYVAR
  5
63
102
{ACAD_REACTORS
330
5E
102
}
330
5E
100
DictionaryVariables
280
     0
  1
1
  0
DICTIONARYVAR
  5
1222D
102
{ACAD_REACTORS
330
5E
102
}
330
5E
100
DictionaryVariables
280
     0
  1
0
  0
DICTIONARYVAR
  5
14896
102
{ACAD_REACTORS
330
5E
102
}
330
5E
100
DictionaryVariables
280
     0
  1
1
  0
DICTIONARYVAR
  5
14897
102
{ACAD_REACTORS
330
5E
102
}
330
5E
100
DictionaryVariables
280
     0
  1
15
  0
DICTIONARYVAR
  5
14895
102
{ACAD_REACTORS
330
5E
102
}
330
5E
100
DictionaryVariables
280
     0
  1
0
  0
DICTIONARYVAR
  5
14894
102
{ACAD_REACTORS
330
5E
102
}
330
5E
100
DictionaryVariables
280
     0
  1
0
  0
DICTIONARYVAR
  5
11CBE
102
{ACAD_REACTORS
330
5E
102
}
330
5E
100
DictionaryVariables
280
     0
  1

  0
DICTIONARYVAR
  5
1222C
102
{ACAD_REACTORS
330
5E
102
}
330
5E
100
DictionaryVariables
280
     0
  1
127
  0
DICTIONARY
  5
14A81
102
{ACAD_REACTORS
330
14A7F
102
}
330
14A7F
100
AcDbDictionary
281
     1
  0
DICTIONARY
  5
14A80
102
{ACAD_REACTORS
330
14A7F
102
}
330
14A7F
100
AcDbDictionary
281
     1
  3
2505087886880
350
14A7A
  3
2505087886896
350
14A7B
  3
2505087886912
350
14A7C
  3
2505087886928
350
14A7D
  3
2505087886944
350
14A7E
  0
DICTIONARY
  5
14A84
330
13762
100
AcDbDictionary
280
     1
281
     1
  3
ACAD_XREC_ROUNDTRIP
360
14A85
  0
DICTIONARY
  5
79B
330
78E
100
AcDbDictionary
280
     1
281
     1
  0
DICTIONARY
  5
11CE0
330
11CDF
100
AcDbDictionary
280
     1
281
     1
  3
BUMPTILE
360
11CE2
  3
DIFFUSETILE
360
11CE1
  3
OPACITYTILE
360
11CE5
  3
REFLECTIONTILE
360
11CE4
  3
REFRACTIONTILE
360
11CE6
  3
SPECULARTILE
360
11CE3
  0
DICTIONARY
  5
11CD8
330
11CD7
100
AcDbDictionary
280
     1
281
     1
  3
BUMPTILE
360
11CDA
  3
DIFFUSETILE
360
11CD9
  3
OPACITYTILE
360
11CDD
  3
REFLECTIONTILE
360
11CDC
  3
REFRACTIONTILE
360
11CDE
  3
SPECULARTILE
360
11CDB
  0
DICTIONARY
  5
11CE8
330
11CE7
100
AcDbDictionary
280
     1
281
     1
  3
BUMPTILE
360
11CEA
  3
DIFFUSETILE
360
11CE9
  3
OPACITYTILE
360
11CED
  3
REFLECTIONTILE
360
11CEC
  3
REFRACTIONTILE
360
11CEE
  3
SPECULARTILE
360
11CEB
  0
DICTIONARY
  5
14A82
330
13760
100
AcDbDictionary
280
     1
281
     1
  3
ACAD_XREC_ROUNDTRIP
360
14A83
  0
DICTIONARY
  5
12217
330
7F
100
AcDbDictionary
280
     1
281
     1
  3
ACAD_ROUNDTRIP_2008_TABLESTYLE_CELLSTYLEMAP
360
14A78
  0
XRECORD
  5
14A7A
102
{ACAD_REACTORS
330
14A80
102
}
330
14A80
100
AcDbXrecord
280
     1
  1
AcDb_Thumbnail_Schema
102
{ATTRRECORD
341
14A7B
  2
AcDbDs::TreatedAsObjectData
280
     1
291
     1
102
ATTRRECORD}
102
{ATTRRECORD
341
14A7C
  2
AcDbDs::Legacy
280
     1
291
     1
102
ATTRRECORD}
  2
AcDbDs::ID
280
    10
 91
        8
102
{ATTRRECORD
341
14A7D
  2
AcDs:Indexable
280
     1
291
     1
102
ATTRRECORD}
102
{ATTRRECORD
341
14A7E
  2
AcDbDs::HandleAttribute
280
     7
282
     1
102
ATTRRECORD}
  2
Thumbnail_Data
280
    15
 91
        0
  0
XRECORD
  5
14A7B
102
{ACAD_REACTORS
330
14A80
102
}
330
14A80
100
AcDbXrecord
280
     1
  1
AcDbDs::TreatedAsObjectDataSchema
  2
AcDbDs::TreatedAsObjectData
280
     1
 91
        0
  0
XRECORD
  5
14A7C
102
{ACAD_REACTORS
330
14A80
102
}
330
14A80
100
AcDbXrecord
280
     1
  1
AcDbDs::LegacySchema
  2
AcDbDs::Legacy
280
     1
 91
        0
  0
XRECORD
  5
14A7D
102
{ACAD_REACTORS
330
14A80
102
}
330
14A80
100
AcDbXrecord
280
     1
  1
AcDbDs::IndexedPropertySchema
  2
AcDs:Indexable
280
     1
 91
        0
  0
XRECORD
  5
14A7E
102
{ACAD_REACTORS
330
14A80
102
}
330
14A80
100
AcDbXrecord
280
     1
  1
AcDbDs::HandleAttributeSchema
  2
AcDbDs::HandleAttribute
280
     7
 91
        1
284
     1
  0
XRECORD
  5
14A85
102
{ACAD_REACTORS
330
14A84
102
}
330
14A84
100
AcDbXrecord
280
     1
102
DISPLAYNAME
  1
Metric50
102
FLAGS
 90
        0
  0
XRECORD
  5
11CE2
102
{ACAD_REACTORS
330
11CE0
102
}
330
11CE0
100
AcDbXrecord
280
     1
270
     1
271
     1
  0
XRECORD
  5
11CE1
102
{ACAD_REACTORS
330
11CE0
102
}
330
11CE0
100
AcDbXrecord
280
     1
270
     1
271
     1
  0
XRECORD
  5
11CE5
102
{ACAD_REACTORS
330
11CE0
102
}
330
11CE0
100
AcDbXrecord
280
     1
270
     1
271
     1
  0
XRECORD
  5
11CE4
102
{ACAD_REACTORS
330
11CE0
102
}
330
11CE0
100
AcDbXrecord
280
     1
270
     1
271
     1
  0
XRECORD
  5
11CE6
102
{ACAD_REACTORS
330
11CE0
102
}
330
11CE0
100
AcDbXrecord
280
     1
270
     1
271
     1
  0
XRECORD
  5
11CE3
102
{ACAD_REACTORS
330
11CE0
102
}
330
11CE0
100
AcDbXrecord
280
     1
270
     1
271
     1
  0
XRECORD
  5
11CDA
102
{ACAD_REACTORS
330
11CD8
102
}
330
11CD8
100
AcDbXrecord
280
     1
270
     1
271
     1
  0
XRECORD
  5
11CD9
102
{ACAD_REACTORS
330
11CD8
102
}
330
11CD8
100
AcDbXrecord
280
     1
270
     1
271
     1
  0
XRECORD
  5
11CDD
102
{ACAD_REACTORS
330
11CD8
102
}
330
11CD8
100
AcDbXrecord
280
     1
270
     1
271
     1
  0
XRECORD
  5
11CDC
102
{ACAD_REACTORS
330
11CD8
102
}
330
11CD8
100
AcDbXrecord
280
     1
270
     1
271
     1
  0
XRECORD
  5
11CDE
102
{ACAD_REACTORS
330
11CD8
102
}
330
11CD8
100
AcDbXrecord
280
     1
270
     1
271
     1
  0
XRECORD
  5
11CDB
102
{ACAD_REACTORS
330
11CD8
102
}
330
11CD8
100
AcDbXrecord
280
     1
270
     1
271
     1
  0
XRECORD
  5
11CEA
102
{ACAD_REACTORS
330
11CE8
102
}
330
11CE8
100
AcDbXrecord
280
     1
270
     1
271
     1
  0
XRECORD
  5
11CE9
102
{ACAD_REACTORS
330
11CE8
102
}
330
11CE8
100
AcDbXrecord
280
     1
270
     1
271
     1
  0
XRECORD
  5
11CED
102
{ACAD_REACTORS
330
11CE8
102
}
330
11CE8
100
AcDbXrecord
280
     1
270
     1
271
     1
  0
XRECORD
  5
11CEC
102
{ACAD_REACTORS
330
11CE8
102
}
330
11CE8
100
AcDbXrecord
280
     1
270
     1
271
     1
  0
XRECORD
  5
11CEE
102
{ACAD_REACTORS
330
11CE8
102
}
330
11CE8
100
AcDbXrecord
280
     1
270
     1
271
     1
  0
XRECORD
  5
11CEB
102
{ACAD_REACTORS
330
11CE8
102
}
330
11CE8
100
AcDbXrecord
280
     1
270
     1
271
     1
  0
XRECORD
  5
14A83
102
{ACAD_REACTORS
330
14A82
102
}
330
14A82
100
AcDbXrecord
280
     1
102
DISPLAYNAME
  1
Metric50
102
FLAGS
 90
        0
  0
CELLSTYLEMAP
  5
14A78
102
{ACAD_REACTORS
330
12217
102
}
330
12217
100
AcDbCellStyleMap
 90
        3
300
CELLSTYLE
  1
TABLEFORMAT_BEGIN
 90
        5
170
     1
 91
        0
 92
    32768
 62
   257
 93
        1
300
CONTENTFORMAT
  1
CONTENTFORMAT_BEGIN
 90
        0
 91
        0
 92
        4
 93
        0
300

 40
0.0
140
1.0
 94
        5
 62
     0
340
11
144
6.0
309
CONTENTFORMAT_END
171
     1
301
MARGIN
  1
CELLMARGIN_BEGIN
 40
1.5
 40
1.5
 40
1.5
 40
1.5
 40
0.18
 40
0.18
309
CELLMARGIN_END
 94
        6
 95
        1
302
GRIDFORMAT
  1
GRIDFORMAT_BEGIN
 90
        0
 91
        1
 62
     0
 92
       -2
340
0
 93
        0
 40
0.045
309
GRIDFORMAT_END
 95
        2
302
GRIDFORMAT
  1
GRIDFORMAT_BEGIN
 90
        0
 91
        1
 62
     0
 92
       -2
340
0
 93
        0
 40
0.045
309
GRIDFORMAT_END
 95
        4
302
GRIDFORMAT
  1
GRIDFORMAT_BEGIN
 90
        0
 91
        1
 62
     0
 92
       -2
340
0
 93
        0
 40
0.045
309
GRIDFORMAT_END
 95
        8
302
GRIDFORMAT
  1
GRIDFORMAT_BEGIN
 90
        0
 91
        1
 62
     0
 92
       -2
340
0
 93
        0
 40
0.045
309
GRIDFORMAT_END
 95
       16
302
GRIDFORMAT
  1
GRIDFORMAT_BEGIN
 90
        0
 91
        1
 62
     0
 92
       -2
340
0
 93
        0
 40
0.045
309
GRIDFORMAT_END
 95
       32
302
GRIDFORMAT
  1
GRIDFORMAT_BEGIN
 90
        0
 91
        1
 62
     0
 92
       -2
340
0
 93
        0
 40
0.045
309
GRIDFORMAT_END
309
TABLEFORMAT_END
  1
CELLSTYLE_BEGIN
 90
        1
 91
        1
300
_TITLE
309
CELLSTYLE_END
300
CELLSTYLE
  1
TABLEFORMAT_BEGIN
 90
        5
170
     1
 91
        0
 92
        0
 62
   257
 93
        1
300
CONTENTFORMAT
  1
CONTENTFORMAT_BEGIN
 90
        0
 91
        0
 92
        4
 93
        0
300

 40
0.0
140
1.0
 94
        5
 62
     0
340
11
144
4.5
309
CONTENTFORMAT_END
171
     1
301
MARGIN
  1
CELLMARGIN_BEGIN
 40
1.5
 40
1.5
 40
1.5
 40
1.5
 40
0.18
 40
0.18
309
CELLMARGIN_END
 94
        6
 95
        1
302
GRIDFORMAT
  1
GRIDFORMAT_BEGIN
 90
        0
 91
        1
 62
     0
 92
       -2
340
0
 93
        0
 40
0.045
309
GRIDFORMAT_END
 95
        2
302
GRIDFORMAT
  1
GRIDFORMAT_BEGIN
 90
        0
 91
        1
 62
     0
 92
       -2
340
0
 93
        0
 40
0.045
309
GRIDFORMAT_END
 95
        4
302
GRIDFORMAT
  1
GRIDFORMAT_BEGIN
 90
        0
 91
        1
 62
     0
 92
       -2
340
0
 93
        0
 40
0.045
309
GRIDFORMAT_END
 95
        8
302
GRIDFORMAT
  1
GRIDFORMAT_BEGIN
 90
        0
 91
        1
 62
     0
 92
       -2
340
0
 93
        0
 40
0.045
309
GRIDFORMAT_END
 95
       16
302
GRIDFORMAT
  1
GRIDFORMAT_BEGIN
 90
        0
 91
        1
 62
     0
 92
       -2
340
0
 93
        0
 40
0.045
309
GRIDFORMAT_END
 95
       32
302
GRIDFORMAT
  1
GRIDFORMAT_BEGIN
 90
        0
 91
        1
 62
     0
 92
       -2
340
0
 93
        0
 40
0.045
309
GRIDFORMAT_END
309
TABLEFORMAT_END
  1
CELLSTYLE_BEGIN
 90
        2
 91
        1
300
_HEADER
309
CELLSTYLE_END
300
CELLSTYLE
  1
TABLEFORMAT_BEGIN
 90
        5
170
     1
 91
        0
 92
        0
 62
   257
 93
        1
300
CONTENTFORMAT
  1
CONTENTFORMAT_BEGIN
 90
        0
 91
        0
 92
        4
 93
        0
300

 40
0.0
140
1.0
 94
        2
 62
     0
340
11
144
4.5
309
CONTENTFORMAT_END
171
     1
301
MARGIN
  1
CELLMARGIN_BEGIN
 40
1.5
 40
1.5
 40
1.5
 40
1.5
 40
0.18
 40
0.18
309
CELLMARGIN_END
 94
        6
 95
        1
302
GRIDFORMAT
  1
GRIDFORMAT_BEGIN
 90
        0
 91
        1
 62
     0
 92
       -2
340
0
 93
        0
 40
0.045
309
GRIDFORMAT_END
 95
        2
302
GRIDFORMAT
  1
GRIDFORMAT_BEGIN
 90
        0
 91
        1
 62
     0
 92
       -2
340
0
 93
        0
 40
0.045
309
GRIDFORMAT_END
 95
        4
302
GRIDFORMAT
  1
GRIDFORMAT_BEGIN
 90
        0
 91
        1
 62
     0
 92
       -2
340
0
 93
        0
 40
0.045
309
GRIDFORMAT_END
 95
        8
302
GRIDFORMAT
  1
GRIDFORMAT_BEGIN
 90
        0
 91
        1
 62
     0
 92
       -2
340
0
 93
        0
 40
0.045
309
GRIDFORMAT_END
 95
       16
302
GRIDFORMAT
  1
GRIDFORMAT_BEGIN
 90
        0
 91
        1
 62
     0
 92
       -2
340
0
 93
        0
 40
0.045
309
GRIDFORMAT_END
 95
       32
302
GRIDFORMAT
  1
GRIDFORMAT_BEGIN
 90
        0
 91
        1
 62
     0
 92
       -2
340
0
 93
        0
 40
0.045
309
GRIDFORMAT_END
309
TABLEFORMAT_END
  1
CELLSTYLE_BEGIN
 90
        3
 91
        2
300
_DATA
309
CELLSTYLE_END
  0
ENDSEC
  0
SECTION
  2
ACDSDATA
 70
     2
 71
     8
  0
ACDSSCHEMA
 90
        0
  1
AcDb_Thumbnail_Schema
  2
AcDbDs::ID
280
    10
 91
        8
  2
Thumbnail_Data
280
    15
 91
        0
101
ACDSRECORD
 95
        0
 90
        1
  2
AcDbDs::TreatedAsObjectData
280
     1
291
     1
101
ACDSRECORD
 95
        0
 90
        2
  2
AcDbDs::Legacy
280
     1
291
     1
101
ACDSRECORD
  1
AcDbDs::ID
 90
        3
  2
AcDs:Indexable
280
     1
291
     1
101
ACDSRECORD
  1
AcDbDs::ID
 90
        4
  2
AcDbDs::HandleAttribute
280
     7
282
     1
  0
ACDSSCHEMA
 90
        1
  1
AcDbDs::TreatedAsObjectDataSchema
  2
AcDbDs::TreatedAsObjectData
280
     1
 91
        0
  0
ACDSSCHEMA
 90
        2
  1
AcDbDs::LegacySchema
  2
AcDbDs::Legacy
280
     1
 91
        0
  0
ACDSSCHEMA
 90
        3
  1
AcDbDs::IndexedPropertySchema
  2
AcDs:Indexable
280
     1
 91
        0
  0
ACDSSCHEMA
 90
        4
  1
AcDbDs::HandleAttributeSchema
  2
AcDbDs::HandleAttribute
280
     7
 91
        1
284
     1
  0
ACDSRECORD
 90
        0
  2
AcDbDs::ID
280
    10
320
22
  2
Thumbnail_Data
280
    15
 94
     2368
310
89504E470D0A1A0A0000000D49484452000001000000008108030000001837949D00000300504C5445000000FFFFFF0000000000000000000000000000000000000000000000000000000000330000660000990000CC0000FF0033000033330033660033990033CC0033FF0066000066330066660066990066CC0066FF0099
310
000099330099660099990099CC0099FF00CC0000CC3300CC6600CC9900CCCC00CCFF00FF0000FF3300FF6600FF9900FFCC00FFFF3300003300333300663300993300CC3300FF3333003333333333663333993333CC3333FF3366003366333366663366993366CC3366FF3399003399333399663399993399CC3399FF33CC00
310
33CC3333CC6633CC9933CCCC33CCFF33FF0033FF3333FF6633FF9933FFCC33FFFF6600006600336600666600996600CC6600FF6633006633336633666633996633CC6633FF6666006666336666666666996666CC6666FF6699006699336699666699996699CC6699FF66CC0066CC3366CC6666CC9966CCCC66CCFF66FF0066
310
FF3366FF6666FF9966FFCC66FFFF9900009900339900669900999900CC9900FF9933009933339933669933999933CC9933FF9966009966339966669966999966CC9966FF9999009999339999669999999999CC9999FF99CC0099CC3399CC6699CC9999CCCC99CCFF99FF0099FF3399FF6699FF9999FFCC99FFFFCC0000CC00
310
33CC0066CC0099CC00CCCC00FFCC3300CC3333CC3366CC3399CC33CCCC33FFCC6600CC6633CC6666CC6699CC66CCCC66FFCC9900CC9933CC9966CC9999CC99CCCC99FFCCCC00CCCC33CCCC66CCCC99CCCCCCCCCCFFCCFF00CCFF33CCFF66CCFF99CCFFCCCCFFFFFF0000FF0033FF0066FF0099FF00CCFF00FFFF3300FF3333
310
FF3366FF3399FF33CCFF33FFFF6600FF6633FF6666FF6699FF66CCFF66FFFF9900FF9933FF9966FF9999FF99CCFF99FFFFCC00FFCC33FFCC66FFCC99FFCCCCFFCCFFFFFF00FFFF33FFFF66FFFF99FFFFCCFFFFFF0000000D0D0D1A1A1A2828283535354343435050505D5D5D6B6B6B787878868686939393A1A1A1AEAEAEBB
310
BBBBC9C9C9D6D6D6E4E4E4F1F1F1FFFFFF0000000000000000000000000000000000000000000000000000000000003AE5ACE9000005BF4944415478DAED9D499684200C40B910F7DF65E335728DEC4B9179124A5450E8D7532974F109494890666C96824243969600861CB509A0695BE3C97F6B00C30DFF04D04F7388EBA7
310
FA113F09C029AF03806DCB80009A8EDDD0003203981D5CFBDAC8001C11C6D83CA9AF3775C010003C0C551270506F10098859FC0A7587A65E2311B813C0DFA27CE52478600AD49B332C6F6C0208C46602F828805245F1560038B20EA0F30090F5064008232D4004F2439785F3F20096ACBB7E59C8157029F0E22ED44DF60340
310
5CA52800F00AF92F2C4B04C0DE39F4FE041705B92ABD0108EE2F8BA2EABA965A8B03902FAA9E53EF0064F7B33A8098BEC556EC4900846C0740DD0180E8B5020031DB0E090080001B806D2EF5030093125005C05E3F895A8E12B4DE406F1280170140275622EB820200BD01B034BFA3F43965AD0037D795A143A539D003B0DD
310
6D1780CEA6402C1FBB02C84A00E7AE0EB01BC140025C00035881BFA6C08119642399C152005AFDABEF6933C8DE6806B501D486306906A1473378DE11D21DD7CBDC012520E10AF302571883BA63EA8058A95A0CF95B7BE28B21DEE16228B31CA6E6CB6152CB61EC064065237F17D963280E8CBC6D8708D64686DE0AA0387DF6
310
4E005A3BF40940B833A73A8998EA5A75F2EC010067B37BC85A66079F9180731D689A1F7D42021A6BFAF701A01BFBFF00006451A73E07802A4D5B8F008C9B0AF2D394B2CC906A0055233416807DAC3913AB58758F88E0D1E16248C4B91CD3BE36342600504B21F02202458F746C611004D5C88000604B5B122327CC57111314
310
E190EDD7AD11185302886D83E7BCFD9AA0A8929FE1244087C55507FF9280FDDA1EEB1E4B097A99213750530560AD9CB29EFD03806D2F44580A3243B16ACB885360F146F18C042C432A41A903F8091D20EB0EEA087DD60A683F60CF85D2090910B9D471FD809827C86B3C411AD9135CDFF39EB13EB31610992F626CD4C59008
310
D9EBF1DFCD20CF4E016506A52901496E3400CED606AFF092A570D8C07801112C8C90A4EEC00B22433D0268566F029800BA05907B02348CF697D51B01C07C70323292E17807CF4D26EA8D07A0C732014C0013C0B300ECED9F379D9BD21F009C003E0CE0EB3A2058E9E2A70098E330CC77FC04809B1CFD9E011CB9FF6F079007
310
72A32A7812007A0010BF04C0957A745EC03C8041F6094A6506A4F786914EE710B2C59F028B8B436540ADDA3A3E6EED2B72AFF42501B10719E5938CA567DD1203BB9B40CA6292CAAD80FA4A7F4AC6C50080AF1FEA8D6EBFEC57B7E780DCE417D92F204851D99264E27EDA2B81960095190309B457004C3DB7B4BFD16A099039
310
609909968F0AAA1CA9064BD02F007245D5007075C0DA5F470718002C00C08C0458C74B740B80DB005811807588350066F79C2C00C0D4B3F2D8A90EC06B01EC7F6C6D17F513937D01C0BF01E00100B401E88503FDE93E5F0C0088BB5BDEE464E6392BB03A0F7BF61F026B6FCCA03A3046E012AE05762A01513F806795E02629
310
714748356CC392087B03E029415EA103182B9A028206A8B9D0DD14B80E805682DB9803330A419F586A1F25E77D060EF3C0007625E30240569B55BDCB11E2358E900520E908193F803C3FC01CB2C0CC810B7AC1A964E16E5798BBAE30FFDF15B61743EA46A893005B0CEE580CE9437DCC6288F3DC6208809BC590B602858B21
310
F7AC112505C25FB2D4C00D1220FF947C240CF6C7C3B87E9387FBE2C47DE42D87CD092AA9C55066BA636CBFD9D51121F4D6ED1A405E07E827C4D0F62301CD14484940A4FB59FB78398068382B668FFCF3306C006EE8148D68180951925D1B647F0CC061DE200D201A16442BD6D82100238E5100B17D42F6EBE654760F80FF8A
310
9D692F23703980D85894DAA9F458A62E200BFBFE340077FA265280097DA03C96A056F043D845A9108E02E9CFE405F02835E66F8D8B8F617E74B1E53B6E0AA0721F64528A9BE4511F92802391B82F37F6D414888C65F68ED701E86683C0DC2334014C0013C00430014C0013C004D0AEB9AFFFDFE1F1CA04D0B2ADAFFFF7F917
310
971F4206806A79A090870000000049454E44AE426082DD02905606800160001800068001600018002E69E8EBFFF778AF6500B8A6958E0B8CB257FE00538F39F17F9D3E070000000049454E44AE4260826082
  0
ACDSRECORD
 90
        0
  2
AcDbDs::ID
280
    10
320
78E
  2
Thumbnail_Data
280
    15
 94
     3098
310
89504E470D0A1A0A0000000D4948445200000100000000B408030000004C80028300000300504C54450D0D0DFFFFFF0D0D0D0000000000000000000000000000000000000000000000000000330000660000990000CC0000FF0033000033330033660033990033CC0033FF0066000066330066660066990066CC0066FF0099
310
000099330099660099990099CC0099FF00CC0000CC3300CC6600CC9900CCCC00CCFF00FF0000FF3300FF6600FF9900FFCC00FFFF3300003300333300663300993300CC3300FF3333003333333333663333993333CC3333FF3366003366333366663366993366CC3366FF3399003399333399663399993399CC3399FF33CC00
310
33CC3333CC6633CC9933CCCC33CCFF33FF0033FF3333FF6633FF9933FFCC33FFFF6600006600336600666600996600CC6600FF6633006633336633666633996633CC6633FF6666006666336666666666996666CC6666FF6699006699336699666699996699CC6699FF66CC0066CC3366CC6666CC9966CCCC66CCFF66FF0066
310
FF3366FF6666FF9966FFCC66FFFF9900009900339900669900999900CC9900FF9933009933339933669933999933CC9933FF9966009966339966669966999966CC9966FF9999009999339999669999999999CC9999FF99CC0099CC3399CC6699CC9999CCCC99CCFF99FF0099FF3399FF6699FF9999FFCC99FFFFCC0000CC00
310
33CC0066CC0099CC00CCCC00FFCC3300CC3333CC3366CC3399CC33CCCC33FFCC6600CC6633CC6666CC6699CC66CCCC66FFCC9900CC9933CC9966CC9999CC99CCCC99FFCCCC00CCCC33CCCC66CCCC99CCCCCCCCCCFFCCFF00CCFF33CCFF66CCFF99CCFFCCCCFFFFFF0000FF0033FF0066FF0099FF00CCFF00FFFF3300FF3333
310
FF3366FF3399FF33CCFF33FFFF6600FF6633FF6666FF6699FF66CCFF66FFFF9900FF9933FF9966FF9999FF99CCFF99FFFFCC00FFCC33FFCC66FFCC99FFCCCCFFCCFFFFFF00FFFF33FFFF66FFFF99FFFFCCFFFFFF0000000D0D0D1A1A1A2828283535354343435050505D5D5D6B6B6B787878868686939393A1A1A1AEAEAEBB
310
BBBBC9C9C9D6D6D6E4E4E4F1F1F1FFFFFF000000000000000000000000000000000000000000000000000000000000D3F30D92000008D54944415478DAED9D5DBAA3200C86D910FBBFE3C66D7C0B98B300EEA7FE2001028202C52A679E4E6B95CA6B12428828FEFE3DB9FCFD893FF1E4F2025801E8671602E09157FF05F002
310
0800E0498505F0A0EBDF0100688D781E8050E66E0FA0A80D5876072151466F4C003D6DD48800BA4AE8F00050B529B81D803C31CD15E7602F0C6F04FD538EB4330A0007B5BD46706015E0CF140966956A1B46059633DD5EC4550082341E070AF55D003850DB2B1D1D6351301880EA5AFB6533502E0148CBE5090049380203DB
310
802ABE1BEE38161813C029A5F94D007824807386F37700E0E9366074005AB70570B6BB38094009E75F464B6300FCED6ECD40E3F617013006669AB4D2CE3F523E5F6AC94CC0C9D8CCDC7C00296ECDD3C45AB5DDD699A3E0CDF5B502602E5A0A809652664B8094F31171009A3F257326D21428FB5EB60360DBC2AAC072B66A52
310
6CF934872F938BC7ADD96CF755C15C8AFDE3A7D9A6E1BA07001157E888A4CBC4ECB4AD109BF71FFC54120004BDF0DF04B0369F3D05FE202D1CA50D3C990C006A21B6B55F7D1DC0F26D198094379B01402FBB6E00740F001FBD6D06C0FFB1FDB76200563BB202D8DEDF5A02FC5FCB9180AD3FE827014D01800580940DA000EE
310
6E0368389800088777F00D3EE9FD5B01B02791F6BA8A1DA1D00452E72E122AB5BF1594D60094E3F9311ECFE71CB21DA11900F9E839B8CB0FC4012CC787E5C04857918086DD2077543410DF550504FA1A417A545405BA026869048DEBE34F300DD90D3670845C0790BC7D8C231403703B47489F1A0C6944C3BB1983A1811CA1
310
E50B2D65C17078F10390AEF170382CFA0F87F980C8D998E096AF9A08881C00909D02225921B1E288504E480C072131D92724961514D58541515D23284A0B9A018806AF9D3215AAC0945D732A18AECE46C8BB658BEB163723DC09409382EB73242F80DF0080A334B51F077021B5F0E600AE67955D0280ED76882D68899A9776
310
FD135EE2642C444135A01F8076097D1D5305AF49C00F10B8A8025DFBB7E100FC42FB5F001700949D65CE58005FE886CF0C87B9BC9CC3A1AF3CBE8F9FAD792C00E662CA7DFC158E584F4F8DEDB61E7BCD726400DA8F3F6DF354BA3022B4CEEFD1DE6E9B1298C35C8301B017532AFDF913EBAB7FA9754154580712A0406A1E16
310
809273C05A2D87048992C55161FA034AD09A8704B0CCBE40EEADD7C1A53E3B37B84C8560AD73ADBF6CA6B79704A8453EE96B250062967C18F95F5E475501BD5A70DF0E5E06E0DA563DB00D207DA0AA0A60E9FDA4A979740052560730B7BFCC7FEC06C026484CDCB9560340FDA86920002447689289529C2394AA6CD26A3800
310
CD25400C2A014E8E903152B2851194D6BCEA91BBC179DCD3A41B9CC7004377838A0E04AA3B42FA2E8E905A1C21D5400288933DEC58E0A3FDF1C1D0A5B1C056E74677CCB1C06C04E9702008889C1C0D6E8971B4E671E301320C886C492AC5394226AFC5CBFFD4F3B66123429219085C8A08491211DAFB58396C484C348D0992
310
9A470310CF4C3A1F157666C0D8255F870120B2BE3E7DF334BB5C087E0640CEFE8F07205E002F8017C0ED00E42E8118CDF24072B79F01803C00775951F25D50F1D936E0A7CA0BE005F0027801BC002A02C0B60EE8A88F13680DE00B9ECC0B60740078960D787B810703C0B7C6338300706F5D73DEE239001802831BC2CB0006
310
8B6F7C01408CCB4DECC10BE005701DC0C41C82757B6419BC1F03C05937F0DBBF7E435E330910BC0404ACC847157D831100D89C05451678D9DF98E37504C0BC0707C01EC8D7EB2CA3E5AC2DE3A754B407B09DA8D8572D346F0459B0ECCC437E4DBD7EEB4CBD5BEB744C48744D2DC90010A4700B4900CC29DDB9124033825800
310
3A1B400709D87E507D2EFC9A0A686EE3B05BB615ECA6485298BF1DCAEACE920BB856B266DABA8B6A623D1BBB3B05DB4902B6F7766D2AA9ECA60A2AB0E701DB54635702E8FD5886FD923ED91780B6EDB6274A01046B41C5558026C6EABDDD0100B3A6F01812F055008AC8597723B8031001007106C0B23A22052002008207B0
310
DEA061D3331F0460DFB6A68DEEB7553F0980DE249F3CD5B00B00D406807C00D60FB000401E3CD70300B9458CACDAC8ACDF9DEF08C17384783F3702803C28BE3300A5A5BDC7CFDEEEB7F7CF33945C47485900CE02E51E00500066FFDD375A5F9B8F05C0A980BC6403847B834C5C05EC9ACA74D5750AB70300F14500266DDC4A
310
C0A7F944FBBB4800DB0BF402E0F502735B7D007E7A21136E08A22B608750E303807585B5DB0BEC51A748043E2B2C5FE20ACB8BAEB02876858509A1A4010830FF817C97C8D7181E0059409C6E88AA80B3160F2C27DBBFC2BB49E370389C062065C15858E601003316D0E158805501E18A8288E8438104EC77B35B003422A4F3
310
6382AEE68BA378803B1A644262111588A9BFAB19851121E9F883342274CE11DA2242C411BA121132CB7A9AFC2CDFEAC3BD210B792A907A928D131142B6064097C4047322428C9547D93CC3C9B0387D1E12B255803EA53E526FA1045C9F7E3E9C18011B9AAD00C0D6E1D75B18152642EF3E8DA73A00110110231F6C8F000895
310
73E510993BD92746D2C62E531A32002427EF8C0470BB0593A3D900CC6FF012001FFE15020500C003287936324D9C11C1A2C84014BD3A3469E112CB107501805DC03C2EFD490070DFB21A835875B4AD8E1F706639E276007008C06BB77FCAF900AEE8C0318064CD27EF03CB3AE78266D1B10051A95E4630BD87670451620445
310
AAEA5AF7E55D4B90888819A2DBC31B258F847577E1F95ED638C0E657A96290BD846729ECC2F59700A00C009847270248CF76C71879868FECC901B0E3C39A002EDF0C9A210151DD874F913DFBA345192EAB40D1E6BA0F6118C3061469466D007E52362368DE5EE5BD40EDCB50178080D71FB94621DCAB3E80E2D1673D007917
310
E1AA1F306E414C1CD9A70E79F130FC3200C40130BEEC9000F2FCE984041C7683A303887F813068F7D56EB0150066868B447E91FF5CA7D6DD602B1520024DBC78E1A980DDEA0C0785FD745B00B00FDA820B407800DC98F87EE00EE096DD60AE11A458483C60C7705B00D996D29A7D4FF205F3A16C6EF08E7E407A2F2F1C9004
310
F0A4C20178567901BC002C8067160BE0B9E505F001F0EFC96506F0F0F21F311A69192A7651FD0000000049454E44AE426082
  0
ENDSEC
  0
EOF
