  0
SECTION
  2
HEADER
  9
$ACADVER
  1
AC1027
  9
$ACADMAINTVER
 70
   125
  9
$DWGCODEPAGE
  3
ANSI_932
  9
$LASTSAVEDBY
  1
D-mishima
  9
$REQUIREDVERSIONS
160
                 0
  9
$INSBASE
 10
0.0
 20
0.0
 30
0.0
  9
$EXTMIN
 10
-0.2512013689647574
 20
-0.0906302920675444
 30
-0.0015258207003583
  9
$EXTMAX
 10
4200.152282905761
 20
2970.090644122207
 30
0.0000000349246037
  9
$LIMMIN
 10
0.0
 20
0.0
  9
$LIMMAX
 10
4200.0
 20
2970.0
  9
$ORTHOMODE
 70
     1
  9
$REGENMODE
 70
     1
  9
$FILLMODE
 70
     1
  9
$QTEXTMODE
 70
     0
  9
$MIRRTEXT
 70
     0
  9
$LTSCALE
 40
0.1
  9
$ATTMODE
 70
     1
  9
$TEXTSIZE
 40
37.5
  9
$TRACEWID
 40
1.0
  9
$TEXTSTYLE
  7
Standard
  9
$CLAYER
  8
寸法線
  9
$CELTYPE
  6
ByLayer
  9
$CECOLOR
 62
   256
  9
$CELTSCALE
 40
1.0
  9
$DISPSILH
 70
     0
  9
$DIMSCALE
 40
10.0
  9
$DIMASZ
 40
2.0
  9
$DIMEXO
 40
0.875
  9
$DIMDLI
 40
10.0
  9
$DIMRND
 40
0.0
  9
$DIMDLE
 40
0.0
  9
$DIMEXE
 40
1.0
  9
$DIMTP
 40
0.0
  9
$DIMTM
 40
0.0
  9
$DIMTXT
 40
2.5
  9
$DIMCEN
 40
0.0
  9
$DIMTSZ
 40
0.0
  9
$DIMTOL
 70
     0
  9
$DIMLIM
 70
     0
  9
$DIMTIH
 70
     0
  9
$DIMTOH
 70
     0
  9
$DIMSE1
 70
     0
  9
$DIMSE2
 70
     0
  9
$DIMTAD
 70
     1
  9
$DIMZIN
 70
     8
  9
$DIMBLK
  1

  9
$DIMASO
 70
     1
  9
$DIMSHO
 70
     1
  9
$DIMPOST
  1

  9
$DIMAPOST
  1

  9
$DIMALT
 70
     0
  9
$DIMALTD
 70
     2
  9
$DIMALTF
 40
25.4
  9
$DIMLFAC
 40
1.0
  9
$DIMTOFL
 70
     1
  9
$DIMTVP
 40
0.0
  9
$DIMTIX
 70
     0
  9
$DIMSOXD
 70
     0
  9
$DIMSAH
 70
     1
  9
$DIMBLK1
  1
OPEN
  9
$DIMBLK2
  1
OPEN
  9
$DIMSTYLE
  2
STANDARD
  9
$DIMCLRD
 70
     0
  9
$DIMCLRE
 70
     0
  9
$DIMCLRT
 70
     0
  9
$DIMTFAC
 40
1.0
  9
$DIMGAP
 40
0.875
  9
$DIMJUST
 70
     0
  9
$DIMSD1
 70
     0
  9
$DIMSD2
 70
     0
  9
$DIMTOLJ
 70
     1
  9
$DIMTZIN
 70
     0
  9
$DIMALTZ
 70
     0
  9
$DIMALTTZ
 70
     0
  9
$DIMUPT
 70
     0
  9
$DIMDEC
 70
     3
  9
$DIMTDEC
 70
     3
  9
$DIMALTU
 70
     2
  9
$DIMALTTD
 70
     2
  9
$DIMTXSTY
  7
Standard
  9
$DIMAUNIT
 70
     0
  9
$DIMADEC
 70
     0
  9
$DIMALTRND
 40
0.0
  9
$DIMAZIN
 70
     0
  9
$DIMDSEP
 70
    46
  9
$DIMATFIT
 70
     3
  9
$DIMFRAC
 70
     0
  9
$DIMLDRBLK
  1
OPEN
  9
$DIMLUNIT
 70
     2
  9
$DIMLWD
 70
    -2
  9
$DIMLWE
 70
    -2
  9
$DIMTMOVE
 70
     0
  9
$DIMFXL
 40
1.0
  9
$DIMFXLON
 70
     0
  9
$DIMJOGANG
 40
1.570796326794896
  9
$DIMTFILL
 70
     0
  9
$DIMTFILLCLR
 70
     0
  9
$DIMARCSYM
 70
     0
  9
$DIMLTYPE
  6

  9
$DIMLTEX1
  6

  9
$DIMLTEX2
  6

  9
$DIMTXTDIRECTION
 70
     0
  9
$LUNITS
 70
     2
  9
$LUPREC
 70
     4
  9
$SKETCHINC
 40
1.0
  9
$FILLETRAD
 40
0.0
  9
$AUNITS
 70
     0
  9
$AUPREC
 70
     0
  9
$MENU
  1
.
  9
$ELEVATION
 40
0.0
  9
$PELEVATION
 40
0.0
  9
$THICKNESS
 40
0.0
  9
$LIMCHECK
 70
     0
  9
$CHAMFERA
 40
0.0
  9
$CHAMFERB
 40
0.0
  9
$CHAMFERC
 40
0.0
  9
$CHAMFERD
 40
0.0
  9
$SKPOLY
 70
     0
  9
$TDCREATE
 40
2454064.449062500
  9
$TDUCREATE
 40
2454064.074062859
  9
$TDUPDATE
 40
2460315.612951389
  9
$TDUUPDATE
 40
2460315.237951389
  9
$TDINDWG
 40
3.7442764931
  9
$TDUSRTIMER
 40
3.7442533565
  9
$USRTIMER
 70
     1
  9
$ANGBASE
 50
0.0
  9
$ANGDIR
 70
     0
  9
$PDMODE
 70
     0
  9
$PDSIZE
 40
0.0
  9
$PLINEWID
 40
0.0
  9
$SPLFRAME
 70
     0
  9
$SPLINETYPE
 70
     6
  9
$SPLINESEGS
 70
     8
  9
$HANDSEED
  5
16ABC
  9
$SURFTAB1
 70
     6
  9
$SURFTAB2
 70
     6
  9
$SURFTYPE
 70
     6
  9
$SURFU
 70
     6
  9
$SURFV
 70
     6
  9
$UCSBASE
  2

  9
$UCSNAME
  2

  9
$UCSORG
 10
0.0
 20
0.0
 30
0.0
  9
$UCSXDIR
 10
1.0
 20
0.0
 30
0.0
  9
$UCSYDIR
 10
0.0
 20
1.0
 30
0.0
  9
$UCSORTHOREF
  2

  9
$UCSORTHOVIEW
 70
     0
  9
$UCSORGTOP
 10
0.0
 20
0.0
 30
0.0
  9
$UCSORGBOTTOM
 10
0.0
 20
0.0
 30
0.0
  9
$UCSORGLEFT
 10
0.0
 20
0.0
 30
0.0
  9
$UCSORGRIGHT
 10
0.0
 20
0.0
 30
0.0
  9
$UCSORGFRONT
 10
0.0
 20
0.0
 30
0.0
  9
$UCSORGBACK
 10
0.0
 20
0.0
 30
0.0
  9
$PUCSBASE
  2

  9
$PUCSNAME
  2

  9
$PUCSORG
 10
0.0
 20
0.0
 30
0.0
  9
$PUCSXDIR
 10
1.0
 20
0.0
 30
0.0
  9
$PUCSYDIR
 10
0.0
 20
1.0
 30
0.0
  9
$PUCSORTHOREF
  2

  9
$PUCSORTHOVIEW
 70
     0
  9
$PUCSORGTOP
 10
0.0
 20
0.0
 30
0.0
  9
$PUCSORGBOTTOM
 10
0.0
 20
0.0
 30
0.0
  9
$PUCSORGLEFT
 10
0.0
 20
0.0
 30
0.0
  9
$PUCSORGRIGHT
 10
0.0
 20
0.0
 30
0.0
  9
$PUCSORGFRONT
 10
0.0
 20
0.0
 30
0.0
  9
$PUCSORGBACK
 10
0.0
 20
0.0
 30
0.0
  9
$USERI1
 70
     0
  9
$USERI2
 70
     0
  9
$USERI3
 70
     0
  9
$USERI4
 70
     0
  9
$USERI5
 70
     0
  9
$USERR1
 40
0.0
  9
$USERR2
 40
0.0
  9
$USERR3
 40
0.0
  9
$USERR4
 40
0.0
  9
$USERR5
 40
0.0
  9
$WORLDVIEW
 70
     1
  9
$SHADEDGE
 70
     3
  9
$SHADEDIF
 70
    70
  9
$TILEMODE
 70
     0
  9
$MAXACTVP
 70
    64
  9
$PINSBASE
 10
0.0
 20
0.0
 30
0.0
  9
$PLIMCHECK
 70
     0
  9
$PEXTMIN
 10
-0.0233557008396019
 20
-0.0155136928541424
 30
-0.0000000000112498
  9
$PEXTMAX
 10
408.2225153712125
 20
285.1940104826281
 30
0.0000000000002956
  9
$PLIMMIN
 10
-5.873748779296875
 20
-5.873749732971191
  9
$PLIMMAX
 10
414.0729064941406
 20
291.0522451400757
  9
$UNITMODE
 70
     0
  9
$VISRETAIN
 70
     1
  9
$PLINEGEN
 70
     0
  9
$PSLTSCALE
 70
     1
  9
$TREEDEPTH
 70
  3020
  9
$CMLSTYLE
  2
Standard
  9
$CMLJUST
 70
     0
  9
$CMLSCALE
 40
20.0
  9
$PROXYGRAPHICS
 70
     1
  9
$MEASUREMENT
 70
     1
  9
$CELWEIGHT
370
    -1
  9
$ENDCAPS
280
     0
  9
$JOINSTYLE
280
     0
  9
$LWDISPLAY
290
     0
  9
$INSUNITS
 70
     4
  9
$HYPERLINKBASE
  1

  9
$STYLESHEET
  1
MONOCHROME.CTB
  9
$XEDIT
290
     1
  9
$CEPSNTYPE
380
     0
  9
$PSTYLEMODE
290
     1
  9
$FINGERPRINTGUID
  2
{072871F0-2771-4C56-B9BD-B27D0F751D9A}
  9
$VERSIONGUID
  2
{F4C9B00A-E993-4941-A8CD-70FA2A400717}
  9
$EXTNAMES
290
     1
  9
$PSVPSCALE
 40
0.0
  9
$OLESTARTUP
290
     0
  9
$SORTENTS
280
   127
  9
$INDEXCTL
280
     0
  9
$HIDETEXT
280
     1
  9
$XCLIPFRAME
280
     2
  9
$HALOGAP
280
     0
  9
$OBSCOLOR
 70
   257
  9
$OBSLTYPE
280
     0
  9
$INTERSECTIONDISPLAY
280
     0
  9
$INTERSECTIONCOLOR
 70
   257
  9
$DIMASSOC
280
     2
  9
$PROJECTNAME
  1

  9
$CAMERADISPLAY
290
     0
  9
$LENSLENGTH
 40
50.0
  9
$CAMERAHEIGHT
 40
0.0
  9
$STEPSPERSEC
 40
2.0
  9
$STEPSIZE
 40
6.0
  9
$3DDWFPREC
 40
2.0
  9
$PSOLWIDTH
 40
0.25
  9
$PSOLHEIGHT
 40
4.0
  9
$LOFTANG1
 40
1.570796326794896
  9
$LOFTANG2
 40
1.570796326794896
  9
$LOFTMAG1
 40
0.0
  9
$LOFTMAG2
 40
0.0
  9
$LOFTPARAM
 70
     7
  9
$LOFTNORMALS
280
     1
  9
$LATITUDE
 40
37.795
  9
$LONGITUDE
 40
-122.394
  9
$NORTHDIRECTION
 40
0.0
  9
$TIMEZONE
 70
 -8000
  9
$LIGHTGLYPHDISPLAY
280
     1
  9
$TILEMODELIGHTSYNCH
280
     1
  9
$CMATERIAL
347
D19F
  9
$SOLIDHIST
280
     0
  9
$SHOWHIST
280
     1
  9
$DWFFRAME
280
     2
  9
$DGNFRAME
280
     0
  9
$REALWORLDSCALE
290
     1
  9
$INTERFERECOLOR
 62
     1
  9
$INTERFEREOBJVS
345
D1C1
  9
$INTERFEREVPVS
346
1546A
  9
$CSHADOW
280
     0
  9
$SHADOWPLANELOCATION
 40
0.0
  0
ENDSEC
  0
SECTION
  2
CLASSES
  0
CLASS
  1
ACDBDICTIONARYWDFLT
  2
AcDbDictionaryWithDefault
  3
ObjectDBX Classes
 90
        0
 91
        1
280
     0
281
     0
  0
CLASS
  1
DICTIONARYVAR
  2
AcDbDictionaryVar
  3
ObjectDBX Classes
 90
        0
 91
       15
280
     0
281
     0
  0
CLASS
  1
TABLESTYLE
  2
AcDbTableStyle
  3
ObjectDBX Classes
 90
     4095
 91
        1
280
     0
281
     0
  0
CLASS
  1
DIMASSOC
  2
AcDbDimAssoc
  3
"AcDbDimAssoc|Product Desc:     AcDim ARX App For Dimension|Company:          Autodesk, Inc.|WEB Address:      www.autodesk.com"
 90
        0
 91
        3
280
     0
281
     0
  0
CLASS
  1
SORTENTSTABLE
  2
AcDbSortentsTable
  3
ObjectDBX Classes
 90
        0
 91
        2
280
     0
281
     0
  0
CLASS
  1
MATERIAL
  2
AcDbMaterial
  3
ObjectDBX Classes
 90
     1153
 91
        3
280
     0
281
     0
  0
CLASS
  1
VISUALSTYLE
  2
AcDbVisualStyle
  3
ObjectDBX Classes
 90
     4095
 91
       26
280
     0
281
     0
  0
CLASS
  1
SCALE
  2
AcDbScale
  3
ObjectDBX Classes
 90
     1153
 91
       17
280
     0
281
     0
  0
CLASS
  1
MLEADERSTYLE
  2
AcDbMLeaderStyle
  3
ACDB_MLEADERSTYLE_CLASS
 90
     4095
 91
        1
280
     0
281
     0
  0
CLASS
  1
AEC_REFEDIT_STATUS_TRACKER
  2
AecDbRefEditStatusTracker
  3
AecArchBase80|Product Desc: Autodesk Architectural Desktop 2007 |Company: Autodesk,Inc. |WEB Address: www.autodesk.com
 90
      129
 91
        0
280
     0
281
     0
  0
CLASS
  1
NPOCOLLECTION
  2
AcDbImpNonPersistentObjectsCollection
  3
ObjectDBX Classes
 90
     1153
 91
        0
280
     0
281
     0
  0
CLASS
  1
CELLSTYLEMAP
  2
AcDbCellStyleMap
  3
ObjectDBX Classes
 90
     1152
 91
        2
280
     0
281
     0
  0
CLASS
  1
ACDBSECTIONVIEWSTYLE
  2
AcDbSectionViewStyle
  3
ObjectDBX Classes
 90
     1025
 91
        1
280
     0
281
     0
  0
CLASS
  1
ACDBDETAILVIEWSTYLE
  2
AcDbDetailViewStyle
  3
ObjectDBX Classes
 90
     1025
 91
        1
280
     0
281
     0
  0
ENDSEC
  0
SECTION
  2
TABLES
  0
TABLE
  2
VPORT
  5
8
102
{ACAD_XDICTIONARY
360
D429
102
}
330
0
100
AcDbSymbolTable
 70
     1
1001
ACAD
1000
DbSaveVer
1071
      278
  0
VPORT
  5
E81D
330
8
100
AcDbSymbolTableRecord
100
AcDbViewportTableRecord
  2
*Active
 70
     0
 10
0.0
 20
0.0
 11
1.0
 21
1.0
 12
2104.261002360062
 22
1489.310494133164
 13
0.0
 23
0.0
 14
10.0
 24
10.0
 15
10.0
 25
10.0
 16
0.0
 26
0.0
 36
1.0
 17
0.0
 27
0.0
 37
0.0
 40
2995.786284083722
 41
1.976978417266187
 42
50.0
 43
0.0
 44
0.0
 50
0.0
 51
0.0
 71
     0
 72
  1000
 73
     1
 74
     3
 75
     0
 76
     0
 77
     0
 78
     0
281
     0
 65
     1
110
0.0
120
0.0
130
0.0
111
1.0
121
0.0
131
0.0
112
0.0
122
1.0
132
0.0
 79
     0
146
0.0
348
D1BD
 60
     3
 61
     5
292
     1
282
     1
141
0.0
142
0.0
 63
   250
421
  3355443
1001
ACAD_NAV_VCDISPLAY
1070
     3
  0
ENDTAB
  0
TABLE
  2
LTYPE
  5
5
330
0
100
AcDbSymbolTable
 70
     4
  0
LTYPE
  5
14
330
5
100
AcDbSymbolTableRecord
100
AcDbLinetypeTableRecord
  2
ByBlock
 70
     0
  3

 72
    65
 73
     0
 40
0.0
  0
LTYPE
  5
15
330
5
100
AcDbSymbolTableRecord
100
AcDbLinetypeTableRecord
  2
ByLayer
 70
     0
  3

 72
    65
 73
     0
 40
0.0
  0
LTYPE
  5
16
330
5
100
AcDbSymbolTableRecord
100
AcDbLinetypeTableRecord
  2
Continuous
 70
     0
  3
Solid line
 72
    65
 73
     0
 40
0.0
  0
LTYPE
  5
1D4
330
5
100
AcDbSymbolTableRecord
100
AcDbLinetypeTableRecord
  2
PHANTOM
 70
     0
  3
Phantom ______  __  __  ______  __  __  ______
 72
    65
 73
     6
 40
63.5
 49
31.75
 74
     0
 49
-6.349999999999997
 74
     0
 49
6.349999999999997
 74
     0
 49
-6.349999999999997
 74
     0
 49
6.349999999999997
 74
     0
 49
-6.349999999999997
 74
     0
  0
LTYPE
  5
1D5
330
5
100
AcDbSymbolTableRecord
100
AcDbLinetypeTableRecord
  2
CENTER
 70
     0
  3
Center ____ _ ____ _ ____ _ ____ _ ____ _ ____
 72
    65
 73
     4
 40
50.8
 49
31.75
 74
     0
 49
-6.349999999999997
 74
     0
 49
6.349999999999997
 74
     0
 49
-6.349999999999997
 74
     0
  0
LTYPE
  5
1D7
330
5
100
AcDbSymbolTableRecord
100
AcDbLinetypeTableRecord
  2
DASHED
 70
     0
  3
Dashed __ __ __ __ __ __ __ __ __ __ __ __ __ _
 72
    65
 73
     2
 40
19.05
 49
12.7
 74
     0
 49
-6.349999999999997
 74
     0
  0
ENDTAB
  0
TABLE
  2
LAYER
  5
2
102
{ACAD_XDICTIONARY
360
11D
102
}
330
0
100
AcDbSymbolTable
 70
     8
  0
LAYER
  5
10
102
{ACAD_XDICTIONARY
360
D40F
102
}
330
2
100
AcDbSymbolTableRecord
100
AcDbLayerTableRecord
  2
0
 70
     0
 62
     7
  6
Continuous
370
    -3
390
F
347
D1AF
348
0
  0
LAYER
  5
13F
330
2
100
AcDbSymbolTableRecord
100
AcDbLayerTableRecord
  2
Defpoints
 70
     0
 62
     7
  6
Continuous
290
     0
370
    -3
390
F
347
D1AF
348
0
  0
LAYER
  5
1BF
102
{ACAD_XDICTIONARY
360
D413
102
}
330
2
100
AcDbSymbolTableRecord
100
AcDbLayerTableRecord
  2
図面枠
 70
     0
 62
     2
  6
Continuous
370
    -3
390
F
347
D1AF
348
0
1001
AcAecLayerStandard
1000

1000

  0
LAYER
  5
1C1
102
{ACAD_XDICTIONARY
360
D417
102
}
330
2
100
AcDbSymbolTableRecord
100
AcDbLayerTableRecord
  2
仮想線
 70
     0
 62
     6
  6
PHANTOM
370
    -3
390
F
347
D1AF
348
0
1001
AcAecLayerStandard
1000

1000

  0
LAYER
  5
1C3
102
{ACAD_XDICTIONARY
360
D41B
102
}
330
2
100
AcDbSymbolTableRecord
100
AcDbLayerTableRecord
  2
寸法線
 70
     0
 62
     2
  6
Continuous
370
    -3
390
F
347
D1AF
348
0
1001
AcAecLayerStandard
1000

1000

  0
LAYER
  5
1C4
102
{ACAD_XDICTIONARY
360
D41D
102
}
330
2
100
AcDbSymbolTableRecord
100
AcDbLayerTableRecord
  2
中心線
 70
     0
 62
     1
  6
CENTER
370
    -3
390
F
347
D1AF
348
0
1001
AcAecLayerStandard
1000

1000

  0
LAYER
  5
1C5
102
{ACAD_XDICTIONARY
360
D41F
102
}
330
2
100
AcDbSymbolTableRecord
100
AcDbLayerTableRecord
  2
破線
 70
     0
 62
     4
  6
DASHED
370
    -3
390
F
347
D1AF
348
0
1001
AcAecLayerStandard
1000

1000

  0
LAYER
  5
82E
102
{ACAD_XDICTIONARY
360
D421
102
}
330
2
100
AcDbSymbolTableRecord
100
AcDbLayerTableRecord
  2
実線
 70
     0
 62
     7
  6
Continuous
370
    -3
390
F
347
D1AF
348
0
1001
AcAecLayerStandard
1000

1000

  0
ENDTAB
  0
TABLE
  2
STYLE
  5
3
330
0
100
AcDbSymbolTable
 70
     1
  0
STYLE
  5
11
330
3
100
AcDbSymbolTableRecord
100
AcDbTextStyleTableRecord
  2
Standard
 70
     0
 40
0.0
 41
1.0
 50
0.0
 71
     0
 42
37.5
  3
isocp.shx
  4
extfont2.shx
  0
ENDTAB
  0
TABLE
  2
VIEW
  5
6
330
0
100
AcDbSymbolTable
 70
     6
  0
ENDTAB
  0
TABLE
  2
UCS
  5
7
330
0
100
AcDbSymbolTable
 70
     0
  0
ENDTAB
  0
TABLE
  2
APPID
  5
9
330
0
100
AcDbSymbolTable
 70
    19
  0
APPID
  5
12
330
9
100
AcDbSymbolTableRecord
100
AcDbRegAppTableRecord
  2
ACAD
 70
     0
  0
APPID
  5
9E
330
9
100
AcDbSymbolTableRecord
100
AcDbRegAppTableRecord
  2
ACAD_PSEXT
 70
     0
  0
APPID
  5
1BE
330
9
100
AcDbSymbolTableRecord
100
AcDbRegAppTableRecord
  2
AcAecLayerStandard
 70
     0
  0
APPID
  5
1FF
330
9
100
AcDbSymbolTableRecord
100
AcDbRegAppTableRecord
  2
ACAD_EXEMPT_FROM_CAD_STANDARDS
 70
     0
  0
APPID
  5
1318
330
9
100
AcDbSymbolTableRecord
100
AcDbRegAppTableRecord
  2
ACAD_DSTYLE_DIMTEXT_FILL
 70
     0
  0
APPID
  5
1319
330
9
100
AcDbSymbolTableRecord
100
AcDbRegAppTableRecord
  2
ACAD_DSTYLE_DIMEXT_LENGTH
 70
     0
  0
APPID
  5
131A
330
9
100
AcDbSymbolTableRecord
100
AcDbRegAppTableRecord
  2
ACAD_DSTYLE_DIMEXT_ENABLED
 70
     0
  0
APPID
  5
131B
330
9
100
AcDbSymbolTableRecord
100
AcDbRegAppTableRecord
  2
ACAD_DSTYLE_DIM_LINETYPE
 70
     0
  0
APPID
  5
131C
330
9
100
AcDbSymbolTableRecord
100
AcDbRegAppTableRecord
  2
ACAD_DSTYLE_DIM_EXT1_LINETYPE
 70
     0
  0
APPID
  5
131D
330
9
100
AcDbSymbolTableRecord
100
AcDbRegAppTableRecord
  2
ACAD_DSTYLE_DIM_EXT2_LINETYPE
 70
     0
  0
APPID
  5
1439
330
9
100
AcDbSymbolTableRecord
100
AcDbRegAppTableRecord
  2
ACAD_DSTYLE_DIMJOGGED_JOGANGLE_SYMBOL
 70
     0
  0
APPID
  5
1CB2
330
9
100
AcDbSymbolTableRecord
100
AcDbRegAppTableRecord
  2
ACAD_DSTYLE_DIMARC_LENGTH_SYMBOL
 70
     0
  0
APPID
  5
356E
330
9
100
AcDbSymbolTableRecord
100
AcDbRegAppTableRecord
  2
ACAD_DIMASSOC_CALC_DIMLFAC
 70
     0
  0
APPID
  5
356F
330
9
100
AcDbSymbolTableRecord
100
AcDbRegAppTableRecord
  2
ACAD_DIMASSOC_DIMLFAC
 70
     0
  0
APPID
  5
3570
330
9
100
AcDbSymbolTableRecord
100
AcDbRegAppTableRecord
  2
ACAD_DIMASSOC_OVERRIDDEN_DIMLFAC
 70
     0
  0
APPID
  5
D1DC
330
9
100
AcDbSymbolTableRecord
100
AcDbRegAppTableRecord
  2
ACAD_MLEADERVER
 70
     0
  0
APPID
  5
1547E
330
9
100
AcDbSymbolTableRecord
100
AcDbRegAppTableRecord
  2
ACAD_NAV_VCDISPLAY
 70
     0
  0
APPID
  5
1620C
330
9
100
AcDbSymbolTableRecord
100
AcDbRegAppTableRecord
  2
ACAD_DSTYLE_DIMJAG
 70
     0
  0
APPID
  5
1620D
330
9
100
AcDbSymbolTableRecord
100
AcDbRegAppTableRecord
  2
ACAD_DSTYLE_DIMTALN
 70
     0
  0
ENDTAB
  0
TABLE
  2
DIMSTYLE
  5
A
330
0
100
AcDbSymbolTable
 70
     1
100
AcDbDimStyleTable
 71
     1
340
C0F
  0
DIMSTYLE
105
C0F
102
{ACAD_REACTORS
330
15A7C
330
15A7D
330
15A09
330
1592F
330
15930
330
15931
330
15932
330
15933
330
15934
330
15935
330
15936
330
15937
330
15938
330
15939
330
1593A
330
1593B
330
1593C
330
1599B
330
1599C
330
1599D
330
16343
330
1634A
330
1634B
330
1634C
330
1634D
330
1634E
330
1634F
330
16350
330
16351
330
16352
330
16353
330
16354
330
16355
330
16382
330
16383
330
16395
330
16396
330
1639F
330
163A4
330
163B2
330
163B8
330
163BB
330
163BC
330
163D3
102
}
330
A
100
AcDbSymbolTableRecord
100
AcDbDimStyleTableRecord
  2
STANDARD
 70
     0
 40
10.0
 41
2.0
 42
0.875
 43
10.0
 44
1.0
 50
89.99999999999998
 73
     0
 74
     0
 77
     1
 78
     8
140
2.5
141
0.0
147
0.875
172
     1
173
     1
271
     3
272
     3
340
11
341
C08
343
C08
344
C08
1001
ACAD_DSTYLE_DIMJOGGED_JOGANGLE_SYMBOL
1070
   384
1040
1.570796326794896
  0
ENDTAB
  0
TABLE
  2
BLOCK_RECORD
  5
1
330
0
100
AcDbSymbolTable
 70
    49
  0
BLOCK_RECORD
  5
1F
102
{ACAD_XDICTIONARY
360
5C91
102
}
330
1
100
AcDbSymbolTableRecord
100
AcDbBlockTableRecord
  2
*Model_Space
340
22
 70
     0
280
     1
281
     0
  0
BLOCK_RECORD
  5
78D
330
1
100
AcDbSymbolTableRecord
100
AcDbBlockTableRecord
  2
*Paper_Space
340
78E
 70
     0
280
     1
281
     0
  0
BLOCK_RECORD
  5
C08
102
{ACAD_XDICTIONARY
360
E6A8
102
}
330
1
100
AcDbSymbolTableRecord
100
AcDbBlockTableRecord
  2
_OPEN
340
0
102
{BLKREFS
331
169E7
331
169E8
331
169F0
331
169F1
331
169F9
331
169FA
331
16A03
331
16A04
331
16A0D
331
16A0E
331
16A16
331
16A17
331
16A1F
331
16A20
331
16A29
331
16A2A
331
16A32
331
16A33
331
16A3D
331
16A3E
331
16A48
331
16A49
331
16A53
331
16A54
331
169AD
331
169AE
331
169B6
331
169B7
331
169BF
331
169C0
331
169CA
331
169CB
331
169D3
331
169D4
331
169DC
331
169DD
331
16A5C
331
16A5D
331
16A81
331
16A82
331
16A8F
331
16A90
331
16A98
331
16A99
331
16AA1
331
16AA2
331
16942
331
16943
331
16745
331
16746
331
16750
331
16751
331
16759
331
1675A
331
16764
331
16765
331
1676D
331
1676E
331
16776
331
16777
331
1677F
331
16780
331
1678A
331
1678B
331
16793
331
16794
331
1679E
331
1679F
331
167A9
331
167AA
331
167B4
331
167B5
331
167BD
331
167BE
331
167C6
331
167C7
331
167CF
331
167D0
331
167D8
331
167D9
331
167E1
331
167E2
331
167EA
331
167EB
331
167F3
331
167F4
331
167FE
331
167FF
331
16807
331
16808
331
16812
331
16813
331
1681D
331
1681E
331
16828
331
16829
102
}
 70
     0
280
     1
281
     0
  0
BLOCK_RECORD
  5
15B98
330
1
100
AcDbSymbolTableRecord
100
AcDbBlockTableRecord
  2
*D1
340
0
 70
     0
280
     1
281
     0
  0
BLOCK_RECORD
  5
15BA6
330
1
100
AcDbSymbolTableRecord
100
AcDbBlockTableRecord
  2
*D2
340
0
 70
     0
280
     1
281
     0
  0
BLOCK_RECORD
  5
15C28
330
1
100
AcDbSymbolTableRecord
100
AcDbBlockTableRecord
  2
*D3
340
0
 70
     0
280
     1
281
     0
  0
BLOCK_RECORD
  5
15C36
330
1
100
AcDbSymbolTableRecord
100
AcDbBlockTableRecord
  2
*D4
340
0
 70
     0
280
     1
281
     0
  0
BLOCK_RECORD
  5
15C42
330
1
100
AcDbSymbolTableRecord
100
AcDbBlockTableRecord
  2
*D5
340
0
 70
     0
280
     1
281
     0
  0
BLOCK_RECORD
  5
15C4E
330
1
100
AcDbSymbolTableRecord
100
AcDbBlockTableRecord
  2
*D6
340
0
 70
     0
280
     1
281
     0
  0
BLOCK_RECORD
  5
15C5A
330
1
100
AcDbSymbolTableRecord
100
AcDbBlockTableRecord
  2
*D7
340
0
 70
     0
280
     1
281
     0
  0
BLOCK_RECORD
  5
15C68
330
1
100
AcDbSymbolTableRecord
100
AcDbBlockTableRecord
  2
*D8
340
0
 70
     0
280
     1
281
     0
  0
BLOCK_RECORD
  5
15C74
330
1
100
AcDbSymbolTableRecord
100
AcDbBlockTableRecord
  2
*D9
340
0
 70
     0
280
     1
281
     0
  0
BLOCK_RECORD
  5
15C80
330
1
100
AcDbSymbolTableRecord
100
AcDbBlockTableRecord
  2
*D10
340
0
 70
     0
280
     1
281
     0
  0
BLOCK_RECORD
  5
15C8E
330
1
100
AcDbSymbolTableRecord
100
AcDbBlockTableRecord
  2
*D11
340
0
 70
     0
280
     1
281
     0
  0
BLOCK_RECORD
  5
15C9A
330
1
100
AcDbSymbolTableRecord
100
AcDbBlockTableRecord
  2
*D12
340
0
 70
     0
280
     1
281
     0
  0
BLOCK_RECORD
  5
15CA7
330
1
100
AcDbSymbolTableRecord
100
AcDbBlockTableRecord
  2
*D13
340
0
 70
     0
280
     1
281
     0
  0
BLOCK_RECORD
  5
15CB4
330
1
100
AcDbSymbolTableRecord
100
AcDbBlockTableRecord
  2
*D14
340
0
 70
     0
280
     1
281
     0
  0
BLOCK_RECORD
  5
15CC0
330
1
100
AcDbSymbolTableRecord
100
AcDbBlockTableRecord
  2
*D15
340
0
 70
     0
280
     1
281
     0
  0
BLOCK_RECORD
  5
15CCC
330
1
100
AcDbSymbolTableRecord
100
AcDbBlockTableRecord
  2
*D16
340
0
 70
     0
280
     1
281
     0
  0
BLOCK_RECORD
  5
15CD9
330
1
100
AcDbSymbolTableRecord
100
AcDbBlockTableRecord
  2
*D17
340
0
 70
     0
280
     1
281
     0
  0
BLOCK_RECORD
  5
15CE5
330
1
100
AcDbSymbolTableRecord
100
AcDbBlockTableRecord
  2
*D18
340
0
 70
     0
280
     1
281
     0
  0
BLOCK_RECORD
  5
15CF1
330
1
100
AcDbSymbolTableRecord
100
AcDbBlockTableRecord
  2
*D19
340
0
 70
     0
280
     1
281
     0
  0
BLOCK_RECORD
  5
15CFD
330
1
100
AcDbSymbolTableRecord
100
AcDbBlockTableRecord
  2
*D20
340
0
 70
     0
280
     1
281
     0
  0
BLOCK_RECORD
  5
163D4
330
1
100
AcDbSymbolTableRecord
100
AcDbBlockTableRecord
  2
*D21
340
0
 70
     0
280
     1
281
     0
  0
BLOCK_RECORD
  5
163E2
330
1
100
AcDbSymbolTableRecord
100
AcDbBlockTableRecord
  2
*D22
340
0
 70
     0
280
     1
281
     0
  0
BLOCK_RECORD
  5
163F0
330
1
100
AcDbSymbolTableRecord
100
AcDbBlockTableRecord
  2
*D23
340
0
 70
     0
280
     1
281
     0
  0
BLOCK_RECORD
  5
163FC
330
1
100
AcDbSymbolTableRecord
100
AcDbBlockTableRecord
  2
*D24
340
0
 70
     0
280
     1
281
     0
  0
BLOCK_RECORD
  5
1640A
330
1
100
AcDbSymbolTableRecord
100
AcDbBlockTableRecord
  2
*D25
340
0
 70
     0
280
     1
281
     0
  0
BLOCK_RECORD
  5
16416
330
1
100
AcDbSymbolTableRecord
100
AcDbBlockTableRecord
  2
*D26
340
0
 70
     0
280
     1
281
     0
  0
BLOCK_RECORD
  5
16422
330
1
100
AcDbSymbolTableRecord
100
AcDbBlockTableRecord
  2
*D27
340
0
 70
     0
280
     1
281
     0
  0
BLOCK_RECORD
  5
1642E
330
1
100
AcDbSymbolTableRecord
100
AcDbBlockTableRecord
  2
*D28
340
0
 70
     0
280
     1
281
     0
  0
BLOCK_RECORD
  5
1643C
330
1
100
AcDbSymbolTableRecord
100
AcDbBlockTableRecord
  2
*D29
340
0
 70
     0
280
     1
281
     0
  0
BLOCK_RECORD
  5
16448
330
1
100
AcDbSymbolTableRecord
100
AcDbBlockTableRecord
  2
*D30
340
0
 70
     0
280
     1
281
     0
  0
BLOCK_RECORD
  5
16456
330
1
100
AcDbSymbolTableRecord
100
AcDbBlockTableRecord
  2
*D31
340
0
 70
     0
280
     1
281
     0
  0
BLOCK_RECORD
  5
16464
330
1
100
AcDbSymbolTableRecord
100
AcDbBlockTableRecord
  2
*D32
340
0
 70
     0
280
     1
281
     0
  0
BLOCK_RECORD
  5
16472
330
1
100
AcDbSymbolTableRecord
100
AcDbBlockTableRecord
  2
*D33
340
0
 70
     0
280
     1
281
     0
  0
BLOCK_RECORD
  5
1647E
330
1
100
AcDbSymbolTableRecord
100
AcDbBlockTableRecord
  2
*D34
340
0
 70
     0
280
     1
281
     0
  0
BLOCK_RECORD
  5
1648A
330
1
100
AcDbSymbolTableRecord
100
AcDbBlockTableRecord
  2
*D35
340
0
 70
     0
280
     1
281
     0
  0
BLOCK_RECORD
  5
16496
330
1
100
AcDbSymbolTableRecord
100
AcDbBlockTableRecord
  2
*D36
340
0
 70
     0
280
     1
281
     0
  0
BLOCK_RECORD
  5
164A2
330
1
100
AcDbSymbolTableRecord
100
AcDbBlockTableRecord
  2
*D37
340
0
 70
     0
280
     1
281
     0
  0
BLOCK_RECORD
  5
164AE
330
1
100
AcDbSymbolTableRecord
100
AcDbBlockTableRecord
  2
*D38
340
0
 70
     0
280
     1
281
     0
  0
BLOCK_RECORD
  5
164BA
330
1
100
AcDbSymbolTableRecord
100
AcDbBlockTableRecord
  2
*D39
340
0
 70
     0
280
     1
281
     0
  0
BLOCK_RECORD
  5
164C6
330
1
100
AcDbSymbolTableRecord
100
AcDbBlockTableRecord
  2
*D40
340
0
 70
     0
280
     1
281
     0
  0
BLOCK_RECORD
  5
164D4
330
1
100
AcDbSymbolTableRecord
100
AcDbBlockTableRecord
  2
*D41
340
0
 70
     0
280
     1
281
     0
  0
BLOCK_RECORD
  5
164E0
330
1
100
AcDbSymbolTableRecord
100
AcDbBlockTableRecord
  2
*D42
340
0
 70
     0
280
     1
281
     0
  0
BLOCK_RECORD
  5
164EE
330
1
100
AcDbSymbolTableRecord
100
AcDbBlockTableRecord
  2
*D43
340
0
 70
     0
280
     1
281
     0
  0
BLOCK_RECORD
  5
164FC
330
1
100
AcDbSymbolTableRecord
100
AcDbBlockTableRecord
  2
*D44
340
0
 70
     0
280
     1
281
     0
  0
BLOCK_RECORD
  5
16932
330
1
100
AcDbSymbolTableRecord
100
AcDbBlockTableRecord
  2
*D45
340
0
 70
     0
280
     1
281
     0
  0
BLOCK_RECORD
  5
16993
330
1
100
AcDbSymbolTableRecord
100
AcDbBlockTableRecord
  2
*D46
340
0
 70
     0
280
     1
281
     0
  0
BLOCK_RECORD
  5
16A71
330
1
100
AcDbSymbolTableRecord
100
AcDbBlockTableRecord
  2
*D47
340
0
 70
     0
280
     1
281
     0
  0
BLOCK_RECORD
  5
16A89
330
1
100
AcDbSymbolTableRecord
100
AcDbBlockTableRecord
  2
*D48
340
0
 70
     0
280
     1
281
     0
  0
ENDTAB
  0
ENDSEC
  0
SECTION
  2
BLOCKS
  0
BLOCK
  5
20
330
1F
100
AcDbEntity
  8
0
100
AcDbBlockBegin
  2
*Model_Space
 70
     0
 10
0.0
 20
0.0
 30
0.0
  3
*Model_Space
  1

  0
ENDBLK
  5
21
330
1F
100
AcDbEntity
  8
0
100
AcDbBlockEnd
  0
BLOCK
  5
78F
330
78D
100
AcDbEntity
 67
     1
  8
0
100
AcDbBlockBegin
  2
*Paper_Space
 70
     0
 10
0.0
 20
0.0
 30
0.0
  3
*Paper_Space
  1

  0
ENDBLK
  5
790
330
78D
100
AcDbEntity
 67
     1
  8
0
100
AcDbBlockEnd
  0
BLOCK
  5
C09
330
C08
100
AcDbEntity
  8
0
100
AcDbBlockBegin
  2
_OPEN
 70
     0
 10
0.0
 20
0.0
 30
0.0
  3
_OPEN
  1

  0
LINE
  5
C0A
330
C08
100
AcDbEntity
  8
0
  6
ByBlock
 62
     0
100
AcDbLine
 10
-1.0
 20
0.1666666666666666
 30
0.0
 11
0.0
 21
0.0
 31
0.0
  0
LINE
  5
C0B
330
C08
100
AcDbEntity
  8
0
  6
ByBlock
 62
     0
100
AcDbLine
 10
0.0
 20
0.0
 30
0.0
 11
-1.0
 21
-0.1666666666666666
 31
0.0
  0
LINE
  5
C0C
330
C08
100
AcDbEntity
  8
0
  6
ByBlock
 62
     0
100
AcDbLine
 10
0.0
 20
0.0
 30
0.0
 11
-1.0
 21
0.0
 31
0.0
  0
ENDBLK
  5
C0D
330
C08
100
AcDbEntity
  8
0
100
AcDbBlockEnd
  0
BLOCK
  5
15B99
330
15B98
100
AcDbEntity
  8
0
100
AcDbBlockBegin
  2
*D1
 70
     1
 10
0.0
 20
0.0
 30
0.0
  3
*D1
  1

  0
LINE
  5
16A43
330
15B98
100
AcDbEntity
  8
寸法線
 62
     0
440
 16777216
370
    -2
100
AcDbLine
 10
2361.249979077719
 20
1495.000055822487
 30
0.0
 11
2542.499994172522
 21
1495.000055822487
 31
0.0
  0
LINE
  5
16A44
330
15B98
100
AcDbEntity
  8
寸法線
 62
     0
440
 16777216
370
    -2
100
AcDbLine
 10
2469.24997907772
 20
1522.499980149991
 30
0.0
 11
2542.499994172522
 21
1522.499980149991
 31
0.0
  0
LINE
  5
16A45
330
15B98
100
AcDbEntity
  8
寸法線
 62
     0
440
 16777216
370
    -2
100
AcDbLine
 10
2532.499994172522
 20
1475.000055822486
 30
0.0
 11
2532.499994172522
 21
1455.000055822487
 31
0.0
  0
LINE
  5
16A46
330
15B98
100
AcDbEntity
  8
寸法線
 62
     0
440
 16777216
370
    -2
100
AcDbLine
 10
2532.499994172522
 20
1542.499980149991
 30
0.0
 11
2532.499994172522
 21
1562.499980149991
 31
0.0
  0
LINE
  5
16A47
330
15B98
100
AcDbEntity
  8
寸法線
 62
     0
440
 16777216
370
    -2
100
AcDbLine
 10
2532.499994172522
 20
1495.000055822487
 30
0.0
 11
2532.499994172522
 21
1522.499980149991
 31
0.0
  0
INSERT
  5
16A48
330
15B98
100
AcDbEntity
  8
寸法線
 62
     0
440
 16777216
370
    -2
100
AcDbBlockReference
  2
_OPEN
 10
2532.499994172522
 20
1495.000055822487
 30
0.0
 41
20.0
 42
20.0
 43
20.0
 50
90.0
  0
INSERT
  5
16A49
330
15B98
100
AcDbEntity
  8
寸法線
 62
     0
440
 16777216
370
    -2
100
AcDbBlockReference
  2
_OPEN
 10
2532.499994172522
 20
1522.499980149991
 30
0.0
 41
20.0
 42
20.0
 43
20.0
 50
270.0
  0
MTEXT
  5
16A4A
330
15B98
100
AcDbEntity
  8
寸法線
 62
     0
440
 16777216
100
AcDbMText
 10
2511.247533542601
 20
1508.750017986238
 30
0.0
 40
25.0
 41
0.0
 46
0.0
 71
     5
 72
     1
  1
\A1;27.5
 11
0.0000000000000001
 21
1.0
 31
0.0
 73
     1
 44
1.0
  0
POINT
  5
16A4B
330
15B98
100
AcDbEntity
  8
Defpoints
 62
     0
440
 16777216
100
AcDbPoint
 10
2352.499979077719
 20
1495.000055822487
 30
0.0
  0
POINT
  5
16A4C
330
15B98
100
AcDbEntity
  8
Defpoints
 62
     0
440
 16777216
100
AcDbPoint
 10
2460.499979077721
 20
1522.499980149991
 30
0.0
  0
POINT
  5
16A4D
330
15B98
100
AcDbEntity
  8
Defpoints
 62
     0
440
 16777216
100
AcDbPoint
 10
2532.499994172522
 20
1522.499980149991
 30
0.0
  0
ENDBLK
  5
15B9A
330
15B98
100
AcDbEntity
  8
0
100
AcDbBlockEnd
  0
BLOCK
  5
15BA7
330
15BA6
100
AcDbEntity
  8
0
100
AcDbBlockBegin
  2
*D2
 70
     1
 10
0.0
 20
0.0
 30
0.0
  3
*D2
  1

  0
LINE
  5
16A4E
330
15BA6
100
AcDbEntity
  8
寸法線
 62
     0
440
 16777216
370
    -2
100
AcDbLine
 10
2461.249994172523
 20
1825.499981024952
 30
0.0
 11
2542.499994172522
 21
1825.499981024952
 31
0.0
  0
LINE
  5
16A4F
330
15BA6
100
AcDbEntity
  8
寸法線
 62
     0
440
 16777216
370
    -2
100
AcDbLine
 10
2461.249994172523
 20
1809.499981024952
 30
0.0
 11
2542.499994172522
 21
1809.499981024952
 31
0.0
  0
LINE
  5
16A50
330
15BA6
100
AcDbEntity
  8
寸法線
 62
     0
440
 16777216
370
    -2
100
AcDbLine
 10
2532.499994172522
 20
1845.499981024952
 30
0.0
 11
2532.499994172522
 21
1865.499981024952
 31
0.0
  0
LINE
  5
16A51
330
15BA6
100
AcDbEntity
  8
寸法線
 62
     0
440
 16777216
370
    -2
100
AcDbLine
 10
2532.499994172522
 20
1789.499981024952
 30
0.0
 11
2532.499994172522
 21
1769.499981024952
 31
0.0
  0
LINE
  5
16A52
330
15BA6
100
AcDbEntity
  8
寸法線
 62
     0
440
 16777216
370
    -2
100
AcDbLine
 10
2532.499994172522
 20
1825.499981024952
 30
0.0
 11
2532.499994172522
 21
1809.499981024952
 31
0.0
  0
INSERT
  5
16A53
330
15BA6
100
AcDbEntity
  8
寸法線
 62
     0
440
 16777216
370
    -2
100
AcDbBlockReference
  2
_OPEN
 10
2532.499994172522
 20
1825.499981024952
 30
0.0
 41
20.0
 42
20.0
 43
20.0
 50
270.0
  0
INSERT
  5
16A54
330
15BA6
100
AcDbEntity
  8
寸法線
 62
     0
440
 16777216
370
    -2
100
AcDbBlockReference
  2
_OPEN
 10
2532.499994172522
 20
1809.499981024952
 30
0.0
 41
20.0
 42
20.0
 43
20.0
 50
90.0
  0
MTEXT
  5
16A55
330
15BA6
100
AcDbEntity
  8
寸法線
 62
     0
440
 16777216
100
AcDbMText
 10
2511.249994172522
 20
1817.499981024951
 30
0.0
 40
25.0
 41
0.0
 46
0.0
 71
     5
 72
     1
  1
\A1;16
 11
0.0000000000000001
 21
1.0
 31
0.0
 73
     1
 44
1.0
  0
POINT
  5
16A56
330
15BA6
100
AcDbEntity
  8
Defpoints
 62
     0
440
 16777216
100
AcDbPoint
 10
2452.499994172523
 20
1825.499981024952
 30
0.0
  0
POINT
  5
16A57
330
15BA6
100
AcDbEntity
  8
Defpoints
 62
     0
440
 16777216
100
AcDbPoint
 10
2452.499994172523
 20
1809.499981024952
 30
0.0
  0
POINT
  5
16A58
330
15BA6
100
AcDbEntity
  8
Defpoints
 62
     0
440
 16777216
100
AcDbPoint
 10
2532.499994172522
 20
1809.499981024952
 30
0.0
  0
ENDBLK
  5
15BA8
330
15BA6
100
AcDbEntity
  8
0
100
AcDbBlockEnd
  0
BLOCK
  5
15C29
330
15C28
100
AcDbEntity
  8
0
100
AcDbBlockBegin
  2
*D3
 70
     1
 10
0.0
 20
0.0
 30
0.0
  3
*D3
  1

  0
LINE
  5
16A38
330
15C28
100
AcDbEntity
  8
寸法線
 62
     0
440
 16777216
370
    -2
100
AcDbLine
 10
2647.749994172537
 20
2276.000002350013
 30
0.0
 11
2566.499994172551
 21
2276.000002350013
 31
0.0
  0
LINE
  5
16A39
330
15C28
100
AcDbEntity
  8
寸法線
 62
     0
440
 16777216
370
    -2
100
AcDbLine
 10
2647.749994172537
 20
2264.000002350013
 30
0.0
 11
2566.499994172551
 21
2264.000002350013
 31
0.0
  0
LINE
  5
16A3A
330
15C28
100
AcDbEntity
  8
寸法線
 62
     0
440
 16777216
370
    -2
100
AcDbLine
 10
2576.499994172551
 20
2296.000002350013
 30
0.0
 11
2576.499994172551
 21
2316.000002350013
 31
0.0
  0
LINE
  5
16A3B
330
15C28
100
AcDbEntity
  8
寸法線
 62
     0
440
 16777216
370
    -2
100
AcDbLine
 10
2576.499994172551
 20
2244.000002350013
 30
0.0
 11
2576.499994172551
 21
2224.000002350013
 31
0.0
  0
LINE
  5
16A3C
330
15C28
100
AcDbEntity
  8
寸法線
 62
     0
440
 16777216
370
    -2
100
AcDbLine
 10
2576.499994172551
 20
2276.000002350013
 30
0.0
 11
2576.499994172551
 21
2264.000002350013
 31
0.0
  0
INSERT
  5
16A3D
330
15C28
100
AcDbEntity
  8
寸法線
 62
     0
440
 16777216
370
    -2
100
AcDbBlockReference
  2
_OPEN
 10
2576.499994172551
 20
2276.000002350013
 30
0.0
 41
20.0
 42
20.0
 43
20.0
 50
270.0
  0
INSERT
  5
16A3E
330
15C28
100
AcDbEntity
  8
寸法線
 62
     0
440
 16777216
370
    -2
100
AcDbBlockReference
  2
_OPEN
 10
2576.499994172551
 20
2264.000002350013
 30
0.0
 41
20.0
 42
20.0
 43
20.0
 50
90.0
  0
MTEXT
  5
16A3F
330
15C28
100
AcDbEntity
  8
寸法線
 62
     0
440
 16777216
100
AcDbMText
 10
2555.24753354263
 20
2270.000002350012
 30
0.0
 40
25.0
 41
0.0
 46
0.0
 71
     5
 72
     1
  1
\A1;12
 11
0.0000000000000001
 21
1.0
 31
0.0
 73
     1
 44
1.0
  0
POINT
  5
16A40
330
15C28
100
AcDbEntity
  8
Defpoints
 62
     0
440
 16777216
100
AcDbPoint
 10
2656.499994172537
 20
2276.000002350013
 30
0.0
  0
POINT
  5
16A41
330
15C28
100
AcDbEntity
  8
Defpoints
 62
     0
440
 16777216
100
AcDbPoint
 10
2656.499994172537
 20
2264.000002350013
 30
0.0
  0
POINT
  5
16A42
330
15C28
100
AcDbEntity
  8
Defpoints
 62
     0
440
 16777216
100
AcDbPoint
 10
2576.499994172551
 20
2264.000002350013
 30
0.0
  0
ENDBLK
  5
15C2A
330
15C28
100
AcDbEntity
  8
0
100
AcDbBlockEnd
  0
BLOCK
  5
15C37
330
15C36
100
AcDbEntity
  8
0
100
AcDbBlockBegin
  2
*D4
 70
     1
 10
0.0
 20
0.0
 30
0.0
  3
*D4
  1

  0
LINE
  5
169AA
330
15C36
100
AcDbEntity
  8
寸法線
 62
     0
440
 16777216
370
    -2
100
AcDbLine
 10
1052.499979077721
 20
1476.250038922454
 30
0.0
 11
1052.499979077721
 21
1324.999999999999
 31
0.0
  0
LINE
  5
169AB
330
15C36
100
AcDbEntity
  8
寸法線
 62
     0
440
 16777216
370
    -2
100
AcDbLine
 10
2352.499979077721
 20
1476.250038922454
 30
0.0
 11
2352.499979077721
 21
1324.999999999999
 31
0.0
  0
LINE
  5
169AC
330
15C36
100
AcDbEntity
  8
寸法線
 62
     0
440
 16777216
370
    -2
100
AcDbLine
 10
1072.499979077721
 20
1334.999999999999
 30
0.0
 11
2332.499979077721
 21
1334.999999999999
 31
0.0
  0
INSERT
  5
169AD
330
15C36
100
AcDbEntity
  8
寸法線
 62
     0
440
 16777216
370
    -2
100
AcDbBlockReference
  2
_OPEN
 10
1052.499979077721
 20
1334.999999999999
 30
0.0
 41
20.0
 42
20.0
 43
20.0
 50
180.0
  0
INSERT
  5
169AE
330
15C36
100
AcDbEntity
  8
寸法線
 62
     0
440
 16777216
370
    -2
100
AcDbBlockReference
  2
_OPEN
 10
2352.499979077721
 20
1334.999999999999
 30
0.0
 41
20.0
 42
20.0
 43
20.0
  0
MTEXT
  5
169AF
330
15C36
100
AcDbEntity
  8
寸法線
 62
     0
440
 16777216
100
AcDbMText
 10
1702.499979077721
 20
1356.249999999999
 30
0.0
 40
25.0
 41
0.0
 46
0.0
 71
     5
 72
     1
  1
\A1;1300
 73
     1
 44
1.0
  0
POINT
  5
169B0
330
15C36
100
AcDbEntity
  8
Defpoints
 62
     0
440
 16777216
100
AcDbPoint
 10
1052.499979077721
 20
1485.000038922454
 30
0.0
  0
POINT
  5
169B1
330
15C36
100
AcDbEntity
  8
Defpoints
 62
     0
440
 16777216
100
AcDbPoint
 10
2352.499979077721
 20
1485.000038922454
 30
0.0
  0
POINT
  5
169B2
330
15C36
100
AcDbEntity
  8
Defpoints
 62
     0
440
 16777216
100
AcDbPoint
 10
2352.499979077721
 20
1334.999999999999
 30
0.0
  0
ENDBLK
  5
15C38
330
15C36
100
AcDbEntity
  8
0
100
AcDbBlockEnd
  0
BLOCK
  5
15C43
330
15C42
100
AcDbEntity
  8
0
100
AcDbBlockBegin
  2
*D5
 70
     1
 10
0.0
 20
0.0
 30
0.0
  3
*D5
  1

  0
LINE
  5
169B3
330
15C42
100
AcDbEntity
  8
寸法線
 62
     0
440
 16777216
370
    -2
100
AcDbLine
 10
552.4999441698055
 20
1486.249999999999
 30
0.0
 11
552.4999441698055
 21
1324.999999999999
 31
0.0
  0
LINE
  5
169B4
330
15C42
100
AcDbEntity
  8
寸法線
 62
     0
440
 16777216
370
    -2
100
AcDbLine
 10
1052.499979077721
 20
1476.250038922454
 30
0.0
 11
1052.499979077721
 21
1324.999999999999
 31
0.0
  0
LINE
  5
169B5
330
15C42
100
AcDbEntity
  8
寸法線
 62
     0
440
 16777216
370
    -2
100
AcDbLine
 10
572.4999441698055
 20
1334.999999999999
 30
0.0
 11
1032.499979077721
 21
1334.999999999999
 31
0.0
  0
INSERT
  5
169B6
330
15C42
100
AcDbEntity
  8
寸法線
 62
     0
440
 16777216
370
    -2
100
AcDbBlockReference
  2
_OPEN
 10
552.4999441698055
 20
1334.999999999999
 30
0.0
 41
20.0
 42
20.0
 43
20.0
 50
180.0
  0
INSERT
  5
169B7
330
15C42
100
AcDbEntity
  8
寸法線
 62
     0
440
 16777216
370
    -2
100
AcDbBlockReference
  2
_OPEN
 10
1052.499979077721
 20
1334.999999999999
 30
0.0
 41
20.0
 42
20.0
 43
20.0
  0
MTEXT
  5
169B8
330
15C42
100
AcDbEntity
  8
寸法線
 62
     0
440
 16777216
100
AcDbMText
 10
802.4999616237632
 20
1356.249999999999
 30
0.0
 40
25.0
 41
0.0
 46
0.0
 71
     5
 72
     1
  1
\A1;500
 73
     1
 44
1.0
  0
POINT
  5
169B9
330
15C42
100
AcDbEntity
  8
Defpoints
 62
     0
440
 16777216
100
AcDbPoint
 10
552.4999441698055
 20
1494.999999999999
 30
0.0
  0
POINT
  5
169BA
330
15C42
100
AcDbEntity
  8
Defpoints
 62
     0
440
 16777216
100
AcDbPoint
 10
1052.499979077721
 20
1485.000038922454
 30
0.0
  0
POINT
  5
169BB
330
15C42
100
AcDbEntity
  8
Defpoints
 62
     0
440
 16777216
100
AcDbPoint
 10
1052.499979077721
 20
1334.999999999999
 30
0.0
  0
ENDBLK
  5
15C44
330
15C42
100
AcDbEntity
  8
0
100
AcDbBlockEnd
  0
BLOCK
  5
15C4F
330
15C4E
100
AcDbEntity
  8
0
100
AcDbBlockBegin
  2
*D6
 70
     1
 10
0.0
 20
0.0
 30
0.0
  3
*D6
  1

  0
LINE
  5
169BC
330
15C4E
100
AcDbEntity
  8
寸法線
 62
     0
440
 16777216
370
    -2
100
AcDbLine
 10
543.7499441698057
 20
1845.000037219673
 30
0.0
 11
422.4999441698059
 21
1845.000037219673
 31
0.0
  0
LINE
  5
169BD
330
15C4E
100
AcDbEntity
  8
寸法線
 62
     0
440
 16777216
370
    -2
100
AcDbLine
 10
543.7499441698057
 20
1494.999999999999
 30
0.0
 11
422.499944169806
 21
1494.999999999999
 31
0.0
  0
LINE
  5
169BE
330
15C4E
100
AcDbEntity
  8
寸法線
 62
     0
440
 16777216
370
    -2
100
AcDbLine
 10
432.499944169806
 20
1825.000037219673
 30
0.0
 11
432.499944169806
 21
1514.999999999999
 31
0.0
  0
INSERT
  5
169BF
330
15C4E
100
AcDbEntity
  8
寸法線
 62
     0
440
 16777216
370
    -2
100
AcDbBlockReference
  2
_OPEN
 10
432.499944169806
 20
1845.000037219673
 30
0.0
 41
20.0
 42
20.0
 43
20.0
 50
90.0
  0
INSERT
  5
169C0
330
15C4E
100
AcDbEntity
  8
寸法線
 62
     0
440
 16777216
370
    -2
100
AcDbBlockReference
  2
_OPEN
 10
432.499944169806
 20
1494.999999999999
 30
0.0
 41
20.0
 42
20.0
 43
20.0
 50
270.0
  0
MTEXT
  5
169C1
330
15C4E
100
AcDbEntity
  8
寸法線
 62
     0
440
 16777216
100
AcDbMText
 10
411.2499441698063
 20
1669.999999999999
 30
0.0
 40
25.0
 41
0.0
 46
0.0
 71
     5
 72
     1
  1
\A1;350
 11
0.0000000000000001
 21
1.0
 31
0.0
 73
     1
 44
1.0
  0
POINT
  5
169C2
330
15C4E
100
AcDbEntity
  8
Defpoints
 62
     0
440
 16777216
100
AcDbPoint
 10
552.4999441698057
 20
1845.000037219673
 30
0.0
  0
POINT
  5
169C3
330
15C4E
100
AcDbEntity
  8
Defpoints
 62
     0
440
 16777216
100
AcDbPoint
 10
552.4999441698057
 20
1494.999999999999
 30
0.0
  0
POINT
  5
169C4
330
15C4E
100
AcDbEntity
  8
Defpoints
 62
     0
440
 16777216
100
AcDbPoint
 10
432.499944169806
 20
1494.999999999999
 30
0.0
  0
ENDBLK
  5
15C50
330
15C4E
100
AcDbEntity
  8
0
100
AcDbBlockEnd
  0
BLOCK
  5
15C5B
330
15C5A
100
AcDbEntity
  8
0
100
AcDbBlockBegin
  2
*D7
 70
     1
 10
0.0
 20
0.0
 30
0.0
  3
*D7
  1

  0
LINE
  5
169C5
330
15C5A
100
AcDbEntity
  8
寸法線
 62
     0
440
 16777216
370
    -2
100
AcDbLine
 10
552.4999441698055
 20
2446.750037219678
 30
0.0
 11
552.4999441698055
 21
2614.999942832917
 31
0.0
  0
LINE
  5
169C6
330
15C5A
100
AcDbEntity
  8
寸法線
 62
     0
440
 16777216
370
    -2
100
AcDbLine
 10
568.4999639829157
 20
2453.749999999999
 30
0.0
 11
568.4999639829157
 21
2614.999942832917
 31
0.0
  0
LINE
  5
169C7
330
15C5A
100
AcDbEntity
  8
寸法線
 62
     0
440
 16777216
370
    -2
100
AcDbLine
 10
532.4999441698055
 20
2604.999942832917
 30
0.0
 11
512.4999441698055
 21
2604.999942832917
 31
0.0
  0
LINE
  5
169C8
330
15C5A
100
AcDbEntity
  8
寸法線
 62
     0
440
 16777216
370
    -2
100
AcDbLine
 10
588.4999639829157
 20
2604.999942832917
 30
0.0
 11
608.4999639829156
 21
2604.999942832917
 31
0.0
  0
LINE
  5
169C9
330
15C5A
100
AcDbEntity
  8
寸法線
 62
     0
440
 16777216
370
    -2
100
AcDbLine
 10
552.4999441698055
 20
2604.999942832917
 30
0.0
 11
568.4999639829157
 21
2604.999942832917
 31
0.0
  0
INSERT
  5
169CA
330
15C5A
100
AcDbEntity
  8
寸法線
 62
     0
440
 16777216
370
    -2
100
AcDbBlockReference
  2
_OPEN
 10
552.4999441698055
 20
2604.999942832917
 30
0.0
 41
20.0
 42
20.0
 43
20.0
  0
INSERT
  5
169CB
330
15C5A
100
AcDbEntity
  8
寸法線
 62
     0
440
 16777216
370
    -2
100
AcDbBlockReference
  2
_OPEN
 10
568.4999639829157
 20
2604.999942832917
 30
0.0
 41
20.0
 42
20.0
 43
20.0
 50
180.0
  0
MTEXT
  5
169CC
330
15C5A
100
AcDbEntity
  8
寸法線
 62
     0
440
 16777216
100
AcDbMText
 10
560.4999540763606
 20
2626.249942832917
 30
0.0
 40
25.0
 41
0.0
 46
0.0
 71
     5
 72
     1
  1
\A1;16
 73
     1
 44
1.0
  0
POINT
  5
169CD
330
15C5A
100
AcDbEntity
  8
Defpoints
 62
     0
440
 16777216
100
AcDbPoint
 10
552.4999441698055
 20
2438.000037219678
 30
0.0
  0
POINT
  5
169CE
330
15C5A
100
AcDbEntity
  8
Defpoints
 62
     0
440
 16777216
100
AcDbPoint
 10
568.4999639829157
 20
2444.999999999999
 30
0.0
  0
POINT
  5
169CF
330
15C5A
100
AcDbEntity
  8
Defpoints
 62
     0
440
 16777216
100
AcDbPoint
 10
568.4999639829157
 20
2604.999942832917
 30
0.0
  0
ENDBLK
  5
15C5C
330
15C5A
100
AcDbEntity
  8
0
100
AcDbBlockEnd
  0
BLOCK
  5
15C69
330
15C68
100
AcDbEntity
  8
0
100
AcDbBlockBegin
  2
*D8
 70
     1
 10
0.0
 20
0.0
 30
0.0
  3
*D8
  1

  0
LINE
  5
169D0
330
15C68
100
AcDbEntity
  8
寸法線
 62
     0
440
 16777216
370
    -2
100
AcDbLine
 10
568.4999639829157
 20
2453.749999999999
 30
0.0
 11
568.4999639829157
 21
2614.999942832917
 31
0.0
  0
LINE
  5
169D1
330
15C68
100
AcDbEntity
  8
寸法線
 62
     0
440
 16777216
370
    -2
100
AcDbLine
 10
1052.499979077721
 20
2463.750057167085
 30
0.0
 11
1052.499979077721
 21
2614.999942832917
 31
0.0
  0
LINE
  5
169D2
330
15C68
100
AcDbEntity
  8
寸法線
 62
     0
440
 16777216
370
    -2
100
AcDbLine
 10
588.4999639829157
 20
2604.999942832917
 30
0.0
 11
1032.499979077721
 21
2604.999942832917
 31
0.0
  0
INSERT
  5
169D3
330
15C68
100
AcDbEntity
  8
寸法線
 62
     0
440
 16777216
370
    -2
100
AcDbBlockReference
  2
_OPEN
 10
568.4999639829157
 20
2604.999942832917
 30
0.0
 41
20.0
 42
20.0
 43
20.0
 50
180.0
  0
INSERT
  5
169D4
330
15C68
100
AcDbEntity
  8
寸法線
 62
     0
440
 16777216
370
    -2
100
AcDbBlockReference
  2
_OPEN
 10
1052.499979077721
 20
2604.999942832917
 30
0.0
 41
20.0
 42
20.0
 43
20.0
  0
MTEXT
  5
169D5
330
15C68
100
AcDbEntity
  8
寸法線
 62
     0
440
 16777216
100
AcDbMText
 10
810.499971530301
 20
2626.249942832917
 30
0.0
 40
25.0
 41
0.0
 46
0.0
 71
     5
 72
     1
  1
\A1;484
 73
     1
 44
1.0
  0
POINT
  5
169D6
330
15C68
100
AcDbEntity
  8
Defpoints
 62
     0
440
 16777216
100
AcDbPoint
 10
568.4999639829157
 20
2444.999999999999
 30
0.0
  0
POINT
  5
169D7
330
15C68
100
AcDbEntity
  8
Defpoints
 62
     0
440
 16777216
100
AcDbPoint
 10
1052.499979077721
 20
2455.000057167085
 30
0.0
  0
POINT
  5
169D8
330
15C68
100
AcDbEntity
  8
Defpoints
 62
     0
440
 16777216
100
AcDbPoint
 10
1052.499979077721
 20
2604.999942832917
 30
0.0
  0
ENDBLK
  5
15C6A
330
15C68
100
AcDbEntity
  8
0
100
AcDbBlockEnd
  0
BLOCK
  5
15C75
330
15C74
100
AcDbEntity
  8
0
100
AcDbBlockBegin
  2
*D9
 70
     1
 10
0.0
 20
0.0
 30
0.0
  3
*D9
  1

  0
LINE
  5
169D9
330
15C74
100
AcDbEntity
  8
寸法線
 62
     0
440
 16777216
370
    -2
100
AcDbLine
 10
559.7499639829159
 20
2445.0
 30
0.0
 11
422.4999441698058
 21
2445.0
 31
0.0
  0
LINE
  5
169DA
330
15C74
100
AcDbEntity
  8
寸法線
 62
     0
440
 16777216
370
    -2
100
AcDbLine
 10
559.7499441698057
 20
2094.999991728964
 30
0.0
 11
422.4999441698058
 21
2094.999991728964
 31
0.0
  0
LINE
  5
169DB
330
15C74
100
AcDbEntity
  8
寸法線
 62
     0
440
 16777216
370
    -2
100
AcDbLine
 10
432.4999441698058
 20
2425.0
 30
0.0
 11
432.4999441698059
 21
2114.999991728964
 31
0.0
  0
INSERT
  5
169DC
330
15C74
100
AcDbEntity
  8
寸法線
 62
     0
440
 16777216
370
    -2
100
AcDbBlockReference
  2
_OPEN
 10
432.4999441698058
 20
2445.0
 30
0.0
 41
20.0
 42
20.0
 43
20.0
 50
90.0
  0
INSERT
  5
169DD
330
15C74
100
AcDbEntity
  8
寸法線
 62
     0
440
 16777216
370
    -2
100
AcDbBlockReference
  2
_OPEN
 10
432.4999441698059
 20
2094.999991728964
 30
0.0
 41
20.0
 42
20.0
 43
20.0
 50
270.0
  0
MTEXT
  5
169DE
330
15C74
100
AcDbEntity
  8
寸法線
 62
     0
440
 16777216
100
AcDbMText
 10
411.2499441698063
 20
2269.999999999999
 30
0.0
 40
25.0
 41
0.0
 46
0.0
 71
     5
 72
     1
  1
\A1;350
 11
0.0000000000000001
 21
1.0
 31
0.0
 73
     1
 44
1.0
  0
POINT
  5
169DF
330
15C74
100
AcDbEntity
  8
Defpoints
 62
     0
440
 16777216
100
AcDbPoint
 10
568.4999639829158
 20
2445.0
 30
0.0
  0
POINT
  5
169E0
330
15C74
100
AcDbEntity
  8
Defpoints
 62
     0
440
 16777216
100
AcDbPoint
 10
568.4999441698058
 20
2094.999991728964
 30
0.0
  0
POINT
  5
169E1
330
15C74
100
AcDbEntity
  8
Defpoints
 62
     0
440
 16777216
100
AcDbPoint
 10
432.4999441698059
 20
2094.999991728964
 30
0.0
  0
ENDBLK
  5
15C76
330
15C74
100
AcDbEntity
  8
0
100
AcDbBlockEnd
  0
BLOCK
  5
15C81
330
15C80
100
AcDbEntity
  8
0
100
AcDbBlockBegin
  2
*D10
 70
     1
 10
0.0
 20
0.0
 30
0.0
  3
*D10
  1

  0
LINE
  5
169E2
330
15C80
100
AcDbEntity
  8
寸法線
 62
     0
440
 16777216
370
    -2
100
AcDbLine
 10
2852.499944169808
 20
2446.750037219678
 30
0.0
 11
2852.499944169808
 21
2614.999942832917
 31
0.0
  0
LINE
  5
169E3
330
15C80
100
AcDbEntity
  8
寸法線
 62
     0
440
 16777216
370
    -2
100
AcDbLine
 10
2836.499924356698
 20
2453.749999999999
 30
0.0
 11
2836.499924356698
 21
2614.999942832917
 31
0.0
  0
LINE
  5
169E4
330
15C80
100
AcDbEntity
  8
寸法線
 62
     0
440
 16777216
370
    -2
100
AcDbLine
 10
2872.499944169808
 20
2604.999942832917
 30
0.0
 11
2892.499944169808
 21
2604.999942832917
 31
0.0
  0
LINE
  5
169E5
330
15C80
100
AcDbEntity
  8
寸法線
 62
     0
440
 16777216
370
    -2
100
AcDbLine
 10
2816.499924356698
 20
2604.999942832917
 30
0.0
 11
2796.499924356699
 21
2604.999942832917
 31
0.0
  0
LINE
  5
169E6
330
15C80
100
AcDbEntity
  8
寸法線
 62
     0
440
 16777216
370
    -2
100
AcDbLine
 10
2852.499944169808
 20
2604.999942832917
 30
0.0
 11
2836.499924356698
 21
2604.999942832917
 31
0.0
  0
INSERT
  5
169E7
330
15C80
100
AcDbEntity
  8
寸法線
 62
     0
440
 16777216
370
    -2
100
AcDbBlockReference
  2
_OPEN
 10
2852.499944169808
 20
2604.999942832917
 30
0.0
 41
20.0
 42
20.0
 43
20.0
 50
180.0
  0
INSERT
  5
169E8
330
15C80
100
AcDbEntity
  8
寸法線
 62
     0
440
 16777216
370
    -2
100
AcDbBlockReference
  2
_OPEN
 10
2836.499924356698
 20
2604.999942832917
 30
0.0
 41
20.0
 42
20.0
 43
20.0
  0
MTEXT
  5
169E9
330
15C80
100
AcDbEntity
  8
寸法線
 62
     0
440
 16777216
100
AcDbMText
 10
2844.499934263253
 20
2626.249942832917
 30
0.0
 40
25.0
 41
0.0
 46
0.0
 71
     5
 72
     1
  1
\A1;16
 73
     1
 44
1.0
  0
POINT
  5
169EA
330
15C80
100
AcDbEntity
  8
Defpoints
 62
     0
440
 16777216
100
AcDbPoint
 10
2852.499944169808
 20
2438.000037219678
 30
0.0
  0
POINT
  5
169EB
330
15C80
100
AcDbEntity
  8
Defpoints
 62
     0
440
 16777216
100
AcDbPoint
 10
2836.499924356698
 20
2444.999999999999
 30
0.0
  0
POINT
  5
169EC
330
15C80
100
AcDbEntity
  8
Defpoints
 62
     0
440
 16777216
100
AcDbPoint
 10
2836.499924356698
 20
2604.999942832917
 30
0.0
  0
ENDBLK
  5
15C82
330
15C80
100
AcDbEntity
  8
0
100
AcDbBlockEnd
  0
BLOCK
  5
15C8F
330
15C8E
100
AcDbEntity
  8
0
100
AcDbBlockBegin
  2
*D11
 70
     1
 10
0.0
 20
0.0
 30
0.0
  3
*D11
  1

  0
LINE
  5
169ED
330
15C8E
100
AcDbEntity
  8
寸法線
 62
     0
440
 16777216
370
    -2
100
AcDbLine
 10
2836.499924356698
 20
2453.749999999999
 30
0.0
 11
2836.499924356698
 21
2614.999942832917
 31
0.0
  0
LINE
  5
169EE
330
15C8E
100
AcDbEntity
  8
寸法線
 62
     0
440
 16777216
370
    -2
100
AcDbLine
 10
2352.499909261894
 20
2463.750057167085
 30
0.0
 11
2352.499909261894
 21
2614.999942832917
 31
0.0
  0
LINE
  5
169EF
330
15C8E
100
AcDbEntity
  8
寸法線
 62
     0
440
 16777216
370
    -2
100
AcDbLine
 10
2816.499924356698
 20
2604.999942832917
 30
0.0
 11
2372.499909261894
 21
2604.999942832917
 31
0.0
  0
INSERT
  5
169F0
330
15C8E
100
AcDbEntity
  8
寸法線
 62
     0
440
 16777216
370
    -2
100
AcDbBlockReference
  2
_OPEN
 10
2836.499924356698
 20
2604.999942832917
 30
0.0
 41
20.0
 42
20.0
 43
20.0
  0
INSERT
  5
169F1
330
15C8E
100
AcDbEntity
  8
寸法線
 62
     0
440
 16777216
370
    -2
100
AcDbBlockReference
  2
_OPEN
 10
2352.499909261894
 20
2604.999942832917
 30
0.0
 41
20.0
 42
20.0
 43
20.0
 50
180.0
  0
MTEXT
  5
169F2
330
15C8E
100
AcDbEntity
  8
寸法線
 62
     0
440
 16777216
100
AcDbMText
 10
2594.499916809296
 20
2626.249942832917
 30
0.0
 40
25.0
 41
0.0
 46
0.0
 71
     5
 72
     1
  1
\A1;484
 73
     1
 44
1.0
  0
POINT
  5
169F3
330
15C8E
100
AcDbEntity
  8
Defpoints
 62
     0
440
 16777216
100
AcDbPoint
 10
2836.499924356698
 20
2444.999999999999
 30
0.0
  0
POINT
  5
169F4
330
15C8E
100
AcDbEntity
  8
Defpoints
 62
     0
440
 16777216
100
AcDbPoint
 10
2352.499909261894
 20
2455.000057167085
 30
0.0
  0
POINT
  5
169F5
330
15C8E
100
AcDbEntity
  8
Defpoints
 62
     0
440
 16777216
100
AcDbPoint
 10
2352.499909261894
 20
2604.999942832917
 30
0.0
  0
ENDBLK
  5
15C90
330
15C8E
100
AcDbEntity
  8
0
100
AcDbBlockEnd
  0
BLOCK
  5
15C9B
330
15C9A
100
AcDbEntity
  8
0
100
AcDbBlockBegin
  2
*D12
 70
     1
 10
0.0
 20
0.0
 30
0.0
  3
*D12
  1

  0
LINE
  5
169F6
330
15C9A
100
AcDbEntity
  8
寸法線
 62
     0
440
 16777216
370
    -2
100
AcDbLine
 10
552.4999441698055
 20
2446.750037219678
 30
0.0
 11
552.4999441698055
 21
2694.999942832917
 31
0.0
  0
LINE
  5
169F7
330
15C9A
100
AcDbEntity
  8
寸法線
 62
     0
440
 16777216
370
    -2
100
AcDbLine
 10
1052.499979077721
 20
2463.750057167085
 30
0.0
 11
1052.499979077721
 21
2694.999942832917
 31
0.0
  0
LINE
  5
169F8
330
15C9A
100
AcDbEntity
  8
寸法線
 62
     0
440
 16777216
370
    -2
100
AcDbLine
 10
572.4999441698055
 20
2684.999942832917
 30
0.0
 11
1032.499979077721
 21
2684.999942832917
 31
0.0
  0
INSERT
  5
169F9
330
15C9A
100
AcDbEntity
  8
寸法線
 62
     0
440
 16777216
370
    -2
100
AcDbBlockReference
  2
_OPEN
 10
552.4999441698055
 20
2684.999942832917
 30
0.0
 41
20.0
 42
20.0
 43
20.0
 50
180.0
  0
INSERT
  5
169FA
330
15C9A
100
AcDbEntity
  8
寸法線
 62
     0
440
 16777216
370
    -2
100
AcDbBlockReference
  2
_OPEN
 10
1052.499979077721
 20
2684.999942832917
 30
0.0
 41
20.0
 42
20.0
 43
20.0
  0
MTEXT
  5
169FB
330
15C9A
100
AcDbEntity
  8
寸法線
 62
     0
440
 16777216
100
AcDbMText
 10
802.4999616237629
 20
2706.249942832917
 30
0.0
 40
25.0
 41
0.0
 46
0.0
 71
     5
 72
     1
  1
\A1;500
 73
     1
 44
1.0
  0
MTEXT
  5
169FC
330
15C9A
100
AcDbEntity
  8
寸法線
 62
     0
440
 16777216
100
AcDbMText
 10
802.4999616237629
 20
2663.749942832917
 30
0.0
 40
25.0
 41
0.0
 46
0.0
 71
     5
 72
     1
  1
\A1;H型鋼（連結部）
 73
     1
 44
1.0
  0
POINT
  5
169FD
330
15C9A
100
AcDbEntity
  8
Defpoints
 62
     0
440
 16777216
100
AcDbPoint
 10
552.4999441698055
 20
2438.000037219678
 30
0.0
  0
POINT
  5
169FE
330
15C9A
100
AcDbEntity
  8
Defpoints
 62
     0
440
 16777216
100
AcDbPoint
 10
1052.499979077721
 20
2455.000057167085
 30
0.0
  0
POINT
  5
169FF
330
15C9A
100
AcDbEntity
  8
Defpoints
 62
     0
440
 16777216
100
AcDbPoint
 10
1052.499979077721
 20
2684.999942832917
 30
0.0
  0
ENDBLK
  5
15C9C
330
15C9A
100
AcDbEntity
  8
0
100
AcDbBlockEnd
  0
BLOCK
  5
15CA8
330
15CA7
100
AcDbEntity
  8
0
100
AcDbBlockBegin
  2
*D13
 70
     1
 10
0.0
 20
0.0
 30
0.0
  3
*D13
  1

  0
LINE
  5
16A00
330
15CA7
100
AcDbEntity
  8
寸法線
 62
     0
440
 16777216
370
    -2
100
AcDbLine
 10
2352.499909261894
 20
2463.750057167085
 30
0.0
 11
2352.499909261894
 21
2694.999942832917
 31
0.0
  0
LINE
  5
16A01
330
15CA7
100
AcDbEntity
  8
寸法線
 62
     0
440
 16777216
370
    -2
100
AcDbLine
 10
2852.499944169808
 20
2446.750037219678
 30
0.0
 11
2852.499944169808
 21
2694.999942832917
 31
0.0
  0
LINE
  5
16A02
330
15CA7
100
AcDbEntity
  8
寸法線
 62
     0
440
 16777216
370
    -2
100
AcDbLine
 10
2372.499909261894
 20
2684.999942832917
 30
0.0
 11
2832.499944169808
 21
2684.999942832917
 31
0.0
  0
INSERT
  5
16A03
330
15CA7
100
AcDbEntity
  8
寸法線
 62
     0
440
 16777216
370
    -2
100
AcDbBlockReference
  2
_OPEN
 10
2352.499909261894
 20
2684.999942832917
 30
0.0
 41
20.0
 42
20.0
 43
20.0
 50
180.0
  0
INSERT
  5
16A04
330
15CA7
100
AcDbEntity
  8
寸法線
 62
     0
440
 16777216
370
    -2
100
AcDbBlockReference
  2
_OPEN
 10
2852.499944169808
 20
2684.999942832917
 30
0.0
 41
20.0
 42
20.0
 43
20.0
  0
MTEXT
  5
16A05
330
15CA7
100
AcDbEntity
  8
寸法線
 62
     0
440
 16777216
100
AcDbMText
 10
2602.499926715851
 20
2706.249942832917
 30
0.0
 40
25.0
 41
0.0
 46
0.0
 71
     5
 72
     1
  1
\A1;500
 73
     1
 44
1.0
  0
MTEXT
  5
16A06
330
15CA7
100
AcDbEntity
  8
寸法線
 62
     0
440
 16777216
100
AcDbMText
 10
2602.499926715851
 20
2663.749942832917
 30
0.0
 40
25.0
 41
0.0
 46
0.0
 71
     5
 72
     1
  1
\A1;H型鋼（連結部）
 73
     1
 44
1.0
  0
POINT
  5
16A07
330
15CA7
100
AcDbEntity
  8
Defpoints
 62
     0
440
 16777216
100
AcDbPoint
 10
2352.499909261894
 20
2455.000057167085
 30
0.0
  0
POINT
  5
16A08
330
15CA7
100
AcDbEntity
  8
Defpoints
 62
     0
440
 16777216
100
AcDbPoint
 10
2852.499944169808
 20
2438.000037219678
 30
0.0
  0
POINT
  5
16A09
330
15CA7
100
AcDbEntity
  8
Defpoints
 62
     0
440
 16777216
100
AcDbPoint
 10
2852.499944169808
 20
2684.999942832917
 30
0.0
  0
ENDBLK
  5
15CA9
330
15CA7
100
AcDbEntity
  8
0
100
AcDbBlockEnd
  0
BLOCK
  5
15CB5
330
15CB4
100
AcDbEntity
  8
0
100
AcDbBlockBegin
  2
*D14
 70
     1
 10
0.0
 20
0.0
 30
0.0
  3
*D14
  1

  0
LINE
  5
16A0A
330
15CB4
100
AcDbEntity
  8
寸法線
 62
     0
440
 16777216
370
    -2
100
AcDbLine
 10
2861.249944169809
 20
2438.000037219679
 30
0.0
 11
2982.499963982916
 21
2438.000037219679
 31
0.0
  0
LINE
  5
16A0B
330
15CB4
100
AcDbEntity
  8
寸法線
 62
     0
440
 16777216
370
    -2
100
AcDbLine
 10
2861.249944169809
 20
2101.999962780326
 30
0.0
 11
2982.499963982916
 21
2101.999962780326
 31
0.0
  0
LINE
  5
16A0C
330
15CB4
100
AcDbEntity
  8
寸法線
 62
     0
440
 16777216
370
    -2
100
AcDbLine
 10
2972.499963982916
 20
2418.000037219679
 30
0.0
 11
2972.499963982916
 21
2121.999962780326
 31
0.0
  0
INSERT
  5
16A0D
330
15CB4
100
AcDbEntity
  8
寸法線
 62
     0
440
 16777216
370
    -2
100
AcDbBlockReference
  2
_OPEN
 10
2972.499963982916
 20
2438.000037219679
 30
0.0
 41
20.0
 42
20.0
 43
20.0
 50
90.0
  0
INSERT
  5
16A0E
330
15CB4
100
AcDbEntity
  8
寸法線
 62
     0
440
 16777216
370
    -2
100
AcDbBlockReference
  2
_OPEN
 10
2972.499963982916
 20
2101.999962780326
 30
0.0
 41
20.0
 42
20.0
 43
20.0
 50
270.0
  0
MTEXT
  5
16A0F
330
15CB4
100
AcDbEntity
  8
寸法線
 62
     0
440
 16777216
100
AcDbMText
 10
2951.249963982916
 20
2269.999999999999
 30
0.0
 40
25.0
 41
0.0
 46
0.0
 71
     5
 72
     1
  1
\A1;336
 11
0.0000000000000001
 21
1.0
 31
0.0
 73
     1
 44
1.0
  0
POINT
  5
16A10
330
15CB4
100
AcDbEntity
  8
Defpoints
 62
     0
440
 16777216
100
AcDbPoint
 10
2852.499944169809
 20
2438.000037219679
 30
0.0
  0
POINT
  5
16A11
330
15CB4
100
AcDbEntity
  8
Defpoints
 62
     0
440
 16777216
100
AcDbPoint
 10
2852.499944169809
 20
2101.999962780326
 30
0.0
  0
POINT
  5
16A12
330
15CB4
100
AcDbEntity
  8
Defpoints
 62
     0
440
 16777216
100
AcDbPoint
 10
2972.499963982916
 20
2101.999962780326
 30
0.0
  0
ENDBLK
  5
15CB6
330
15CB4
100
AcDbEntity
  8
0
100
AcDbBlockEnd
  0
BLOCK
  5
15CC1
330
15CC0
100
AcDbEntity
  8
0
100
AcDbBlockBegin
  2
*D15
 70
     1
 10
0.0
 20
0.0
 30
0.0
  3
*D15
  1

  0
LINE
  5
16A13
330
15CC0
100
AcDbEntity
  8
寸法線
 62
     0
440
 16777216
370
    -2
100
AcDbLine
 10
2852.49997910137
 20
1486.249968964711
 30
0.0
 11
2852.49997547486
 21
1324.999988755016
 31
0.0
  0
LINE
  5
16A14
330
15CC0
100
AcDbEntity
  8
寸法線
 62
     0
440
 16777216
370
    -2
100
AcDbLine
 10
2352.499978880931
 20
1476.25000170278
 30
0.0
 11
2352.499975479321
 21
1325.000000000008
 31
0.0
  0
LINE
  5
16A15
330
15CC0
100
AcDbEntity
  8
寸法線
 62
     0
440
 16777216
370
    -2
100
AcDbLine
 10
2832.49997569976
 20
1334.999989204815
 30
0.0
 11
2372.49997570422
 21
1334.999999550209
 31
0.0
  0
INSERT
  5
16A16
330
15CC0
100
AcDbEntity
  8
寸法線
 62
     0
440
 16777216
370
    -2
100
AcDbBlockReference
  2
_OPEN
 10
2852.49997569976
 20
1334.999988755016
 30
0.0
 41
20.0
 42
20.0
 43
20.0
 50
359.9999987114188
  0
INSERT
  5
16A17
330
15CC0
100
AcDbEntity
  8
寸法線
 62
     0
440
 16777216
370
    -2
100
AcDbBlockReference
  2
_OPEN
 10
2352.499975704221
 20
1335.000000000008
 30
0.0
 41
20.0
 42
20.0
 43
20.0
 50
179.9999987114188
  0
MTEXT
  5
16A18
330
15CC0
100
AcDbEntity
  8
寸法線
 62
     0
440
 16777216
100
AcDbMText
 10
2602.499976179903
 20
1356.249994377512
 30
0.0
 40
25.0
 41
0.0
 46
0.0
 71
     5
 72
     1
  1
\A1;500
 11
0.9999999999999998
 21
-0.000000022489985
 31
0.0
 73
     1
 44
1.0
  0
POINT
  5
16A19
330
15CC0
100
AcDbEntity
  8
Defpoints
 62
     0
440
 16777216
100
AcDbPoint
 10
2852.499979298157
 20
1494.999968964711
 30
0.0
  0
POINT
  5
16A1A
330
15CC0
100
AcDbEntity
  8
Defpoints
 62
     0
440
 16777216
100
AcDbPoint
 10
2352.499979077718
 20
1485.00000170278
 30
0.0
  0
POINT
  5
16A1B
330
15CC0
100
AcDbEntity
  8
Defpoints
 62
     0
440
 16777216
100
AcDbPoint
 10
2352.499975704221
 20
1335.000000000008
 30
0.0
  0
ENDBLK
  5
15CC2
330
15CC0
100
AcDbEntity
  8
0
100
AcDbBlockEnd
  0
BLOCK
  5
15CCD
330
15CCC
100
AcDbEntity
  8
0
100
AcDbBlockBegin
  2
*D16
 70
     1
 10
0.0
 20
0.0
 30
0.0
  3
*D16
  1

  0
LINE
  5
16A1C
330
15CCC
100
AcDbEntity
  8
寸法線
 62
     0
440
 16777216
370
    -2
100
AcDbLine
 10
1052.499979077718
 20
2463.749999999999
 30
0.0
 11
1052.499979077718
 21
2694.999942832917
 31
0.0
  0
LINE
  5
16A1D
330
15CCC
100
AcDbEntity
  8
寸法線
 62
     0
440
 16777216
370
    -2
100
AcDbLine
 10
2352.499979077718
 20
2463.750001702781
 30
0.0
 11
2352.499979077718
 21
2694.999942832917
 31
0.0
  0
LINE
  5
16A1E
330
15CCC
100
AcDbEntity
  8
寸法線
 62
     0
440
 16777216
370
    -2
100
AcDbLine
 10
1072.499979077718
 20
2684.999942832917
 30
0.0
 11
2332.499979077718
 21
2684.999942832917
 31
0.0
  0
INSERT
  5
16A1F
330
15CCC
100
AcDbEntity
  8
寸法線
 62
     0
440
 16777216
370
    -2
100
AcDbBlockReference
  2
_OPEN
 10
1052.499979077718
 20
2684.999942832917
 30
0.0
 41
20.0
 42
20.0
 43
20.0
 50
180.0
  0
INSERT
  5
16A20
330
15CCC
100
AcDbEntity
  8
寸法線
 62
     0
440
 16777216
370
    -2
100
AcDbBlockReference
  2
_OPEN
 10
2352.499979077718
 20
2684.999942832917
 30
0.0
 41
20.0
 42
20.0
 43
20.0
  0
MTEXT
  5
16A21
330
15CCC
100
AcDbEntity
  8
寸法線
 62
     0
440
 16777216
100
AcDbMText
 10
1702.499979077718
 20
2706.249942832917
 30
0.0
 40
25.0
 41
0.0
 46
0.0
 71
     5
 72
     1
  1
\A1;W=1300
 73
     1
 44
1.0
  0
MTEXT
  5
16A22
330
15CCC
100
AcDbEntity
  8
寸法線
 62
     0
440
 16777216
100
AcDbMText
 10
1702.499979077718
 20
2663.749942832917
 30
0.0
 40
25.0
 41
0.0
 46
0.0
 71
     5
 72
     1
  1
\A1;空洞金具
 73
     1
 44
1.0
  0
POINT
  5
16A23
330
15CCC
100
AcDbEntity
  8
Defpoints
 62
     0
440
 16777216
100
AcDbPoint
 10
1052.499979077718
 20
2454.999999999999
 30
0.0
  0
POINT
  5
16A24
330
15CCC
100
AcDbEntity
  8
Defpoints
 62
     0
440
 16777216
100
AcDbPoint
 10
2352.499979077718
 20
2455.000001702781
 30
0.0
  0
POINT
  5
16A25
330
15CCC
100
AcDbEntity
  8
Defpoints
 62
     0
440
 16777216
100
AcDbPoint
 10
2352.499979077718
 20
2684.999942832917
 30
0.0
  0
ENDBLK
  5
15CCE
330
15CCC
100
AcDbEntity
  8
0
100
AcDbBlockEnd
  0
BLOCK
  5
15CDA
330
15CD9
100
AcDbEntity
  8
0
100
AcDbBlockBegin
  2
*D17
 70
     1
 10
0.0
 20
0.0
 30
0.0
  3
*D17
  1

  0
LINE
  5
16A26
330
15CD9
100
AcDbEntity
  8
寸法線
 62
     0
440
 16777216
370
    -2
100
AcDbLine
 10
552.4999441698055
 20
2446.750037219678
 30
0.0
 11
552.4999441698055
 21
2774.999942832917
 31
0.0
  0
LINE
  5
16A27
330
15CD9
100
AcDbEntity
  8
寸法線
 62
     0
440
 16777216
370
    -2
100
AcDbLine
 10
2852.499944169808
 20
2446.750037219678
 30
0.0
 11
2852.499944169808
 21
2774.999942832917
 31
0.0
  0
LINE
  5
16A28
330
15CD9
100
AcDbEntity
  8
寸法線
 62
     0
440
 16777216
370
    -2
100
AcDbLine
 10
572.4999441698055
 20
2764.999942832917
 30
0.0
 11
2832.499944169808
 21
2764.999942832917
 31
0.0
  0
INSERT
  5
16A29
330
15CD9
100
AcDbEntity
  8
寸法線
 62
     0
440
 16777216
370
    -2
100
AcDbBlockReference
  2
_OPEN
 10
552.4999441698055
 20
2764.999942832917
 30
0.0
 41
20.0
 42
20.0
 43
20.0
 50
180.0
  0
INSERT
  5
16A2A
330
15CD9
100
AcDbEntity
  8
寸法線
 62
     0
440
 16777216
370
    -2
100
AcDbBlockReference
  2
_OPEN
 10
2852.499944169808
 20
2764.999942832917
 30
0.0
 41
20.0
 42
20.0
 43
20.0
  0
MTEXT
  5
16A2B
330
15CD9
100
AcDbEntity
  8
寸法線
 62
     0
440
 16777216
100
AcDbMText
 10
1702.499944169806
 20
2786.252403462838
 30
0.0
 40
25.0
 41
0.0
 46
0.0
 71
     5
 72
     1
  1
\A1;スルーサーＢ L=2300
 73
     1
 44
1.0
  0
POINT
  5
16A2C
330
15CD9
100
AcDbEntity
  8
Defpoints
 62
     0
440
 16777216
100
AcDbPoint
 10
552.4999441698055
 20
2438.000037219678
 30
0.0
  0
POINT
  5
16A2D
330
15CD9
100
AcDbEntity
  8
Defpoints
 62
     0
440
 16777216
100
AcDbPoint
 10
2852.499944169808
 20
2438.000037219678
 30
0.0
  0
POINT
  5
16A2E
330
15CD9
100
AcDbEntity
  8
Defpoints
 62
     0
440
 16777216
100
AcDbPoint
 10
2852.499944169808
 20
2764.999942832917
 30
0.0
  0
ENDBLK
  5
15CDB
330
15CD9
100
AcDbEntity
  8
0
100
AcDbBlockEnd
  0
BLOCK
  5
15CE6
330
15CE5
100
AcDbEntity
  8
0
100
AcDbBlockBegin
  2
*D18
 70
     1
 10
0.0
 20
0.0
 30
0.0
  3
*D18
  1

  0
LINE
  5
16A95
330
15CE5
100
AcDbEntity
  8
寸法線
 62
     0
440
 16777216
370
    -2
100
AcDbLine
 10
3642.499963982916
 20
2086.249942967219
 30
0.0
 11
3642.499963982916
 21
1964.999942967219
 31
0.0
  0
LINE
  5
16A96
330
15CE5
100
AcDbEntity
  8
寸法線
 62
     0
440
 16777216
370
    -2
100
AcDbLine
 10
3292.499963982914
 20
2086.249942967219
 30
0.0
 11
3292.499963982914
 21
1964.999942967219
 31
0.0
  0
LINE
  5
16A97
330
15CE5
100
AcDbEntity
  8
寸法線
 62
     0
440
 16777216
370
    -2
100
AcDbLine
 10
3622.499963982916
 20
1974.999942967219
 30
0.0
 11
3312.499963982914
 21
1974.999942967219
 31
0.0
  0
INSERT
  5
16A98
330
15CE5
100
AcDbEntity
  8
寸法線
 62
     0
440
 16777216
370
    -2
100
AcDbBlockReference
  2
_OPEN
 10
3642.499963982916
 20
1974.999942967219
 30
0.0
 41
20.0
 42
20.0
 43
20.0
  0
INSERT
  5
16A99
330
15CE5
100
AcDbEntity
  8
寸法線
 62
     0
440
 16777216
370
    -2
100
AcDbBlockReference
  2
_OPEN
 10
3292.499963982914
 20
1974.999942967219
 30
0.0
 41
20.0
 42
20.0
 43
20.0
 50
180.0
  0
MTEXT
  5
16A9A
330
15CE5
100
AcDbEntity
  8
寸法線
 62
     0
440
 16777216
100
AcDbMText
 10
3467.499963982916
 20
1996.249942967219
 30
0.0
 40
25.0
 41
0.0
 46
0.0
 71
     5
 72
     1
  1
\A1;350
 73
     1
 44
1.0
  0
POINT
  5
16A9B
330
15CE5
100
AcDbEntity
  8
Defpoints
 62
     0
440
 16777216
100
AcDbPoint
 10
3642.499963982916
 20
2094.999942967219
 30
0.0
  0
POINT
  5
16A9C
330
15CE5
100
AcDbEntity
  8
Defpoints
 62
     0
440
 16777216
100
AcDbPoint
 10
3292.499963982914
 20
2094.999942967219
 30
0.0
  0
POINT
  5
16A9D
330
15CE5
100
AcDbEntity
  8
Defpoints
 62
     0
440
 16777216
100
AcDbPoint
 10
3292.499963982914
 20
1974.999942967219
 30
0.0
  0
ENDBLK
  5
15CE7
330
15CE5
100
AcDbEntity
  8
0
100
AcDbBlockEnd
  0
BLOCK
  5
15CF2
330
15CF1
100
AcDbEntity
  8
0
100
AcDbBlockBegin
  2
*D19
 70
     1
 10
0.0
 20
0.0
 30
0.0
  3
*D19
  1

  0
LINE
  5
16A9E
330
15CF1
100
AcDbEntity
  8
寸法線
 62
     0
440
 16777216
370
    -2
100
AcDbLine
 10
3283.749963982915
 20
2444.999982593437
 30
0.0
 11
3162.499963982914
 21
2444.999982593437
 31
0.0
  0
LINE
  5
16A9F
330
15CF1
100
AcDbEntity
  8
寸法線
 62
     0
440
 16777216
370
    -2
100
AcDbLine
 10
3283.749963982915
 20
2094.999982593437
 30
0.0
 11
3162.499963982914
 21
2094.999982593437
 31
0.0
  0
LINE
  5
16AA0
330
15CF1
100
AcDbEntity
  8
寸法線
 62
     0
440
 16777216
370
    -2
100
AcDbLine
 10
3172.499963982914
 20
2424.999982593437
 30
0.0
 11
3172.499963982914
 21
2114.999982593437
 31
0.0
  0
INSERT
  5
16AA1
330
15CF1
100
AcDbEntity
  8
寸法線
 62
     0
440
 16777216
370
    -2
100
AcDbBlockReference
  2
_OPEN
 10
3172.499963982914
 20
2444.999982593437
 30
0.0
 41
20.0
 42
20.0
 43
20.0
 50
90.0
  0
INSERT
  5
16AA2
330
15CF1
100
AcDbEntity
  8
寸法線
 62
     0
440
 16777216
370
    -2
100
AcDbBlockReference
  2
_OPEN
 10
3172.499963982914
 20
2094.999982593437
 30
0.0
 41
20.0
 42
20.0
 43
20.0
 50
270.0
  0
MTEXT
  5
16AA3
330
15CF1
100
AcDbEntity
  8
寸法線
 62
     0
440
 16777216
100
AcDbMText
 10
3151.249963982913
 20
2269.999962780327
 30
0.0
 40
25.0
 41
0.0
 46
0.0
 71
     5
 72
     1
  1
\A1;350
 11
0.0000000000000001
 21
1.0
 31
0.0
 73
     1
 44
1.0
  0
POINT
  5
16AA4
330
15CF1
100
AcDbEntity
  8
Defpoints
 62
     0
440
 16777216
100
AcDbPoint
 10
3292.499963982916
 20
2444.999982593437
 30
0.0
  0
POINT
  5
16AA5
330
15CF1
100
AcDbEntity
  8
Defpoints
 62
     0
440
 16777216
100
AcDbPoint
 10
3292.499963982916
 20
2094.999982593437
 30
0.0
  0
POINT
  5
16AA6
330
15CF1
100
AcDbEntity
  8
Defpoints
 62
     0
440
 16777216
100
AcDbPoint
 10
3172.499963982914
 20
2094.999982593437
 30
0.0
  0
ENDBLK
  5
15CF3
330
15CF1
100
AcDbEntity
  8
0
100
AcDbBlockEnd
  0
BLOCK
  5
15CFE
330
15CFD
100
AcDbEntity
  8
0
100
AcDbBlockBegin
  2
*D20
 70
     1
 10
0.0
 20
0.0
 30
0.0
  3
*D20
  1

  0
LINE
  5
16A2F
330
15CFD
100
AcDbEntity
  8
寸法線
 62
     0
440
 16777216
370
    -2
100
AcDbLine
 10
2861.250013985632
 20
2438.000051998484
 30
0.0
 11
2982.50003379874
 21
2438.000051998484
 31
0.0
  0
LINE
  5
16A30
330
15CFD
100
AcDbEntity
  8
寸法線
 62
     0
440
 16777216
370
    -2
100
AcDbLine
 10
2861.250013985632
 20
2101.999977559132
 30
0.0
 11
2982.50003379874
 21
2101.999977559132
 31
0.0
  0
LINE
  5
16A31
330
15CFD
100
AcDbEntity
  8
寸法線
 62
     0
440
 16777216
370
    -2
100
AcDbLine
 10
2972.50003379874
 20
2418.000051998484
 30
0.0
 11
2972.50003379874
 21
2121.999977559132
 31
0.0
  0
INSERT
  5
16A32
330
15CFD
100
AcDbEntity
  8
寸法線
 62
     0
440
 16777216
370
    -2
100
AcDbBlockReference
  2
_OPEN
 10
2972.50003379874
 20
2438.000051998484
 30
0.0
 41
20.0
 42
20.0
 43
20.0
 50
90.0
  0
INSERT
  5
16A33
330
15CFD
100
AcDbEntity
  8
寸法線
 62
     0
440
 16777216
370
    -2
100
AcDbBlockReference
  2
_OPEN
 10
2972.50003379874
 20
2101.999977559132
 30
0.0
 41
20.0
 42
20.0
 43
20.0
 50
270.0
  0
MTEXT
  5
16A34
330
15CFD
100
AcDbEntity
  8
寸法線
 62
     0
440
 16777216
100
AcDbMText
 10
2951.25003379874
 20
2270.000014778806
 30
0.0
 40
25.0
 41
0.0
 46
0.0
 71
     5
 72
     1
  1
\A1;336
 11
0.0000000000000001
 21
1.0
 31
0.0
 73
     1
 44
1.0
  0
POINT
  5
16A35
330
15CFD
100
AcDbEntity
  8
Defpoints
 62
     0
440
 16777216
100
AcDbPoint
 10
2852.500013985632
 20
2438.000051998484
 30
0.0
  0
POINT
  5
16A36
330
15CFD
100
AcDbEntity
  8
Defpoints
 62
     0
440
 16777216
100
AcDbPoint
 10
2852.500013985632
 20
2101.999977559132
 30
0.0
  0
POINT
  5
16A37
330
15CFD
100
AcDbEntity
  8
Defpoints
 62
     0
440
 16777216
100
AcDbPoint
 10
2972.50003379874
 20
2101.999977559132
 30
0.0
  0
ENDBLK
  5
15CFF
330
15CFD
100
AcDbEntity
  8
0
100
AcDbBlockEnd
  0
BLOCK
  5
163D5
330
163D4
100
AcDbEntity
  8
0
100
AcDbBlockBegin
  2
*D21
 70
     1
 10
0.0
 20
0.0
 30
0.0
  3
*D21
  1

  0
LINE
  5
16740
330
163D4
100
AcDbEntity
  8
寸法線
 62
     0
440
 16777216
370
    -2
100
AcDbLine
 10
2222.487113977059
 20
960.0000004385533
 30
0.0
 11
2221.237113977059
 21
960.0000004385533
 31
0.0
  0
LINE
  5
16741
330
163D4
100
AcDbEntity
  8
寸法線
 62
     0
440
 16777216
370
    -2
100
AcDbLine
 10
2222.487113977059
 20
1015.000000438553
 30
0.0
 11
2221.237113977059
 21
1015.000000438553
 31
0.0
  0
LINE
  5
16742
330
163D4
100
AcDbEntity
  8
寸法線
 62
     0
440
 16777216
370
    -2
100
AcDbLine
 10
2231.237113977059
 20
1035.000000438553
 30
0.0
 11
2231.237113977059
 21
1055.000000438553
 31
0.0
  0
LINE
  5
16743
330
163D4
100
AcDbEntity
  8
寸法線
 62
     0
440
 16777216
370
    -2
100
AcDbLine
 10
2231.237113977059
 20
940.0000004385534
 30
0.0
 11
2231.237113977059
 21
851.464466532607
 31
0.0
  0
LINE
  5
16744
330
163D4
100
AcDbEntity
  8
寸法線
 62
     0
440
 16777216
370
    -2
100
AcDbLine
 10
2231.237113977059
 20
1015.000000438553
 30
0.0
 11
2231.237113977059
 21
960.0000004385533
 31
0.0
  0
INSERT
  5
16745
330
163D4
100
AcDbEntity
  8
寸法線
 62
     0
440
 16777216
370
    -2
100
AcDbBlockReference
  2
_OPEN
 10
2231.237113977059
 20
1015.000000438553
 30
0.0
 41
20.0
 42
20.0
 43
20.0
 50
270.0
  0
INSERT
  5
16746
330
163D4
100
AcDbEntity
  8
寸法線
 62
     0
440
 16777216
370
    -2
100
AcDbBlockReference
  2
_OPEN
 10
2231.237113977059
 20
960.0000004385533
 30
0.0
 41
20.0
 42
20.0
 43
20.0
 50
90.0
  0
MTEXT
  5
16747
330
163D4
100
AcDbEntity
  8
寸法線
 62
     0
440
 16777216
100
AcDbMText
 10
2209.987113977058
 20
885.7322334855725
 30
0.0
 40
25.0
 41
0.0
 46
0.0
 71
     5
 72
     1
  1
\A1;%%C55
 11
0.0000000000000001
 21
1.0
 31
0.0
 73
     1
 44
1.0
  0
POINT
  5
16748
330
163D4
100
AcDbEntity
  8
Defpoints
 62
     0
440
 16777216
100
AcDbPoint
 10
2231.237113977059
 20
960.0000004385533
 30
0.0
  0
POINT
  5
16749
330
163D4
100
AcDbEntity
  8
Defpoints
 62
     0
440
 16777216
100
AcDbPoint
 10
2231.237113977059
 20
1015.000000438553
 30
0.0
  0
POINT
  5
1674A
330
163D4
100
AcDbEntity
  8
Defpoints
 62
     0
440
 16777216
100
AcDbPoint
 10
2231.237113977059
 20
1015.000000438553
 30
0.0
  0
ENDBLK
  5
163D6
330
163D4
100
AcDbEntity
  8
0
100
AcDbBlockEnd
  0
BLOCK
  5
163E3
330
163E2
100
AcDbEntity
  8
0
100
AcDbBlockBegin
  2
*D22
 70
     1
 10
0.0
 20
0.0
 30
0.0
  3
*D22
  1

  0
LINE
  5
1674B
330
163E2
100
AcDbEntity
  8
寸法線
 62
     0
440
 16777216
370
    -2
100
AcDbLine
 10
1068.500030870233
 20
646.250000438582
 30
0.0
 11
1068.500030870233
 21
525.0000186831912
 31
0.0
  0
LINE
  5
1674C
330
163E2
100
AcDbEntity
  8
寸法線
 62
     0
440
 16777216
370
    -2
100
AcDbLine
 10
1100.500030870233
 20
656.2500004385818
 30
0.0
 11
1100.500030870233
 21
525.0000186831912
 31
0.0
  0
LINE
  5
1674D
330
163E2
100
AcDbEntity
  8
寸法線
 62
     0
440
 16777216
370
    -2
100
AcDbLine
 10
1048.500030870233
 20
535.0000186831912
 30
0.0
 11
1028.500030870233
 21
535.0000186831912
 31
0.0
  0
LINE
  5
1674E
330
163E2
100
AcDbEntity
  8
寸法線
 62
     0
440
 16777216
370
    -2
100
AcDbLine
 10
1120.500030870233
 20
535.0000186831912
 30
0.0
 11
1140.500030870233
 21
535.0000186831912
 31
0.0
  0
LINE
  5
1674F
330
163E2
100
AcDbEntity
  8
寸法線
 62
     0
440
 16777216
370
    -2
100
AcDbLine
 10
1068.500030870233
 20
535.0000186831912
 30
0.0
 11
1100.500030870233
 21
535.0000186831912
 31
0.0
  0
INSERT
  5
16750
330
163E2
100
AcDbEntity
  8
寸法線
 62
     0
440
 16777216
370
    -2
100
AcDbBlockReference
  2
_OPEN
 10
1068.500030870233
 20
535.0000186831912
 30
0.0
 41
20.0
 42
20.0
 43
20.0
  0
INSERT
  5
16751
330
163E2
100
AcDbEntity
  8
寸法線
 62
     0
440
 16777216
370
    -2
100
AcDbBlockReference
  2
_OPEN
 10
1100.500030870233
 20
535.0000186831912
 30
0.0
 41
20.0
 42
20.0
 43
20.0
 50
180.0
  0
MTEXT
  5
16752
330
163E2
100
AcDbEntity
  8
寸法線
 62
     0
440
 16777216
100
AcDbMText
 10
1084.500030870233
 20
556.2524793131125
 30
0.0
 40
25.0
 41
0.0
 46
0.0
 71
     5
 72
     1
  1
\A1;32
 73
     1
 44
1.0
  0
POINT
  5
16753
330
163E2
100
AcDbEntity
  8
Defpoints
 62
     0
440
 16777216
100
AcDbPoint
 10
1068.500030870233
 20
655.000000438582
 30
0.0
  0
POINT
  5
16754
330
163E2
100
AcDbEntity
  8
Defpoints
 62
     0
440
 16777216
100
AcDbPoint
 10
1100.500030870233
 20
665.000000438582
 30
0.0
  0
POINT
  5
16755
330
163E2
100
AcDbEntity
  8
Defpoints
 62
     0
440
 16777216
100
AcDbPoint
 10
1100.500030870233
 20
535.0000186831912
 30
0.0
  0
ENDBLK
  5
163E4
330
163E2
100
AcDbEntity
  8
0
100
AcDbBlockEnd
  0
BLOCK
  5
163F1
330
163F0
100
AcDbEntity
  8
0
100
AcDbBlockBegin
  2
*D23
 70
     1
 10
0.0
 20
0.0
 30
0.0
  3
*D23
  1

  0
LINE
  5
16756
330
163F0
100
AcDbEntity
  8
寸法線
 62
     0
440
 16777216
370
    -2
100
AcDbLine
 10
1100.500030870233
 20
656.2500004385818
 30
0.0
 11
1100.500030870233
 21
525.0000186831912
 31
0.0
  0
LINE
  5
16757
330
163F0
100
AcDbEntity
  8
寸法線
 62
     0
440
 16777216
370
    -2
100
AcDbLine
 10
2304.500030870233
 20
656.2500186831912
 30
0.0
 11
2304.500030870233
 21
525.0000186831912
 31
0.0
  0
LINE
  5
16758
330
163F0
100
AcDbEntity
  8
寸法線
 62
     0
440
 16777216
370
    -2
100
AcDbLine
 10
1120.500030870233
 20
535.0000186831912
 30
0.0
 11
2284.500030870233
 21
535.0000186831912
 31
0.0
  0
INSERT
  5
16759
330
163F0
100
AcDbEntity
  8
寸法線
 62
     0
440
 16777216
370
    -2
100
AcDbBlockReference
  2
_OPEN
 10
1100.500030870233
 20
535.0000186831912
 30
0.0
 41
20.0
 42
20.0
 43
20.0
 50
180.0
  0
INSERT
  5
1675A
330
163F0
100
AcDbEntity
  8
寸法線
 62
     0
440
 16777216
370
    -2
100
AcDbBlockReference
  2
_OPEN
 10
2304.500030870233
 20
535.0000186831912
 30
0.0
 41
20.0
 42
20.0
 43
20.0
  0
MTEXT
  5
1675B
330
163F0
100
AcDbEntity
  8
寸法線
 62
     0
440
 16777216
100
AcDbMText
 10
1702.500030870233
 20
556.2524793131125
 30
0.0
 40
25.0
 41
0.0
 46
0.0
 71
     5
 72
     1
  1
\A1;1204
 73
     1
 44
1.0
  0
POINT
  5
1675C
330
163F0
100
AcDbEntity
  8
Defpoints
 62
     0
440
 16777216
100
AcDbPoint
 10
1100.500030870233
 20
665.000000438582
 30
0.0
  0
POINT
  5
1675D
330
163F0
100
AcDbEntity
  8
Defpoints
 62
     0
440
 16777216
100
AcDbPoint
 10
2304.500030870233
 20
665.0000186831912
 30
0.0
  0
POINT
  5
1675E
330
163F0
100
AcDbEntity
  8
Defpoints
 62
     0
440
 16777216
100
AcDbPoint
 10
2304.500030870233
 20
535.0000186831912
 30
0.0
  0
ENDBLK
  5
163F2
330
163F0
100
AcDbEntity
  8
0
100
AcDbBlockEnd
  0
BLOCK
  5
163FD
330
163FC
100
AcDbEntity
  8
0
100
AcDbBlockBegin
  2
*D24
 70
     1
 10
0.0
 20
0.0
 30
0.0
  3
*D24
  1

  0
LINE
  5
1675F
330
163FC
100
AcDbEntity
  8
寸法線
 62
     0
440
 16777216
370
    -2
100
AcDbLine
 10
1052.500030870233
 20
646.250000438582
 30
0.0
 11
1052.500030870233
 21
465.0000186831912
 31
0.0
  0
LINE
  5
16760
330
163FC
100
AcDbEntity
  8
寸法線
 62
     0
440
 16777216
370
    -2
100
AcDbLine
 10
1068.500030870233
 20
646.250000438582
 30
0.0
 11
1068.500030870233
 21
465.0000186831912
 31
0.0
  0
LINE
  5
16761
330
163FC
100
AcDbEntity
  8
寸法線
 62
     0
440
 16777216
370
    -2
100
AcDbLine
 10
1032.500030870233
 20
475.0000186831912
 30
0.0
 11
1012.500030870233
 21
475.0000186831912
 31
0.0
  0
LINE
  5
16762
330
163FC
100
AcDbEntity
  8
寸法線
 62
     0
440
 16777216
370
    -2
100
AcDbLine
 10
1088.500030870233
 20
475.0000186831912
 30
0.0
 11
1108.500030870233
 21
475.0000186831912
 31
0.0
  0
LINE
  5
16763
330
163FC
100
AcDbEntity
  8
寸法線
 62
     0
440
 16777216
370
    -2
100
AcDbLine
 10
1052.500030870233
 20
475.0000186831912
 30
0.0
 11
1068.500030870233
 21
475.0000186831912
 31
0.0
  0
INSERT
  5
16764
330
163FC
100
AcDbEntity
  8
寸法線
 62
     0
440
 16777216
370
    -2
100
AcDbBlockReference
  2
_OPEN
 10
1052.500030870233
 20
475.0000186831912
 30
0.0
 41
20.0
 42
20.0
 43
20.0
  0
INSERT
  5
16765
330
163FC
100
AcDbEntity
  8
寸法線
 62
     0
440
 16777216
370
    -2
100
AcDbBlockReference
  2
_OPEN
 10
1068.500030870233
 20
475.0000186831912
 30
0.0
 41
20.0
 42
20.0
 43
20.0
 50
180.0
  0
MTEXT
  5
16766
330
163FC
100
AcDbEntity
  8
寸法線
 62
     0
440
 16777216
100
AcDbMText
 10
1060.500030870233
 20
496.2500186831912
 30
0.0
 40
25.0
 41
0.0
 46
0.0
 71
     5
 72
     1
  1
\A1;16
 73
     1
 44
1.0
  0
POINT
  5
16767
330
163FC
100
AcDbEntity
  8
Defpoints
 62
     0
440
 16777216
100
AcDbPoint
 10
1052.500030870233
 20
655.000000438582
 30
0.0
  0
POINT
  5
16768
330
163FC
100
AcDbEntity
  8
Defpoints
 62
     0
440
 16777216
100
AcDbPoint
 10
1068.500030870233
 20
655.000000438582
 30
0.0
  0
POINT
  5
16769
330
163FC
100
AcDbEntity
  8
Defpoints
 62
     0
440
 16777216
100
AcDbPoint
 10
1068.500030870233
 20
475.0000186831912
 30
0.0
  0
ENDBLK
  5
163FE
330
163FC
100
AcDbEntity
  8
0
100
AcDbBlockEnd
  0
BLOCK
  5
1640B
330
1640A
100
AcDbEntity
  8
0
100
AcDbBlockBegin
  2
*D25
 70
     1
 10
0.0
 20
0.0
 30
0.0
  3
*D25
  1

  0
LINE
  5
1676A
330
1640A
100
AcDbEntity
  8
寸法線
 62
     0
440
 16777216
370
    -2
100
AcDbLine
 10
1068.500030870233
 20
646.2500186831912
 30
0.0
 11
1068.500030870233
 21
465.0000186831912
 31
0.0
  0
LINE
  5
1676B
330
1640A
100
AcDbEntity
  8
寸法線
 62
     0
440
 16777216
370
    -2
100
AcDbLine
 10
2336.500030870233
 20
646.2500186831912
 30
0.0
 11
2336.500030870233
 21
465.0000186831912
 31
0.0
  0
LINE
  5
1676C
330
1640A
100
AcDbEntity
  8
寸法線
 62
     0
440
 16777216
370
    -2
100
AcDbLine
 10
1088.500030870233
 20
475.0000186831912
 30
0.0
 11
2316.500030870233
 21
475.0000186831912
 31
0.0
  0
INSERT
  5
1676D
330
1640A
100
AcDbEntity
  8
寸法線
 62
     0
440
 16777216
370
    -2
100
AcDbBlockReference
  2
_OPEN
 10
1068.500030870233
 20
475.0000186831912
 30
0.0
 41
20.0
 42
20.0
 43
20.0
 50
180.0
  0
INSERT
  5
1676E
330
1640A
100
AcDbEntity
  8
寸法線
 62
     0
440
 16777216
370
    -2
100
AcDbBlockReference
  2
_OPEN
 10
2336.500030870233
 20
475.0000186831912
 30
0.0
 41
20.0
 42
20.0
 43
20.0
  0
MTEXT
  5
1676F
330
1640A
100
AcDbEntity
  8
寸法線
 62
     0
440
 16777216
100
AcDbMText
 10
1702.500030870233
 20
496.2524793131124
 30
0.0
 40
25.0
 41
0.0
 46
0.0
 71
     5
 72
     1
  1
\A1;1268
 73
     1
 44
1.0
  0
POINT
  5
16770
330
1640A
100
AcDbEntity
  8
Defpoints
 62
     0
440
 16777216
100
AcDbPoint
 10
1068.500030870233
 20
655.0000186831912
 30
0.0
  0
POINT
  5
16771
330
1640A
100
AcDbEntity
  8
Defpoints
 62
     0
440
 16777216
100
AcDbPoint
 10
2336.500030870233
 20
655.0000186831912
 30
0.0
  0
POINT
  5
16772
330
1640A
100
AcDbEntity
  8
Defpoints
 62
     0
440
 16777216
100
AcDbPoint
 10
2336.500030870233
 20
475.0000186831912
 30
0.0
  0
ENDBLK
  5
1640C
330
1640A
100
AcDbEntity
  8
0
100
AcDbBlockEnd
  0
BLOCK
  5
16417
330
16416
100
AcDbEntity
  8
0
100
AcDbBlockBegin
  2
*D26
 70
     1
 10
0.0
 20
0.0
 30
0.0
  3
*D26
  1

  0
LINE
  5
16773
330
16416
100
AcDbEntity
  8
寸法線
 62
     0
440
 16777216
370
    -2
100
AcDbLine
 10
1052.500030870233
 20
646.2500186831912
 30
0.0
 11
1052.500030870233
 21
405.0000186831912
 31
0.0
  0
LINE
  5
16774
330
16416
100
AcDbEntity
  8
寸法線
 62
     0
440
 16777216
370
    -2
100
AcDbLine
 10
2352.500030870233
 20
646.2500186831912
 30
0.0
 11
2352.500030870233
 21
405.0000186831912
 31
0.0
  0
LINE
  5
16775
330
16416
100
AcDbEntity
  8
寸法線
 62
     0
440
 16777216
370
    -2
100
AcDbLine
 10
1072.500030870233
 20
415.0000186831912
 30
0.0
 11
2332.500030870233
 21
415.0000186831912
 31
0.0
  0
INSERT
  5
16776
330
16416
100
AcDbEntity
  8
寸法線
 62
     0
440
 16777216
370
    -2
100
AcDbBlockReference
  2
_OPEN
 10
1052.500030870233
 20
415.0000186831912
 30
0.0
 41
20.0
 42
20.0
 43
20.0
 50
180.0
  0
INSERT
  5
16777
330
16416
100
AcDbEntity
  8
寸法線
 62
     0
440
 16777216
370
    -2
100
AcDbBlockReference
  2
_OPEN
 10
2352.500030870233
 20
415.0000186831912
 30
0.0
 41
20.0
 42
20.0
 43
20.0
  0
MTEXT
  5
16778
330
16416
100
AcDbEntity
  8
寸法線
 62
     0
440
 16777216
100
AcDbMText
 10
1702.500030870233
 20
436.2500186831912
 30
0.0
 40
25.0
 41
0.0
 46
0.0
 71
     5
 72
     1
  1
\A1;1300
 73
     1
 44
1.0
  0
POINT
  5
16779
330
16416
100
AcDbEntity
  8
Defpoints
 62
     0
440
 16777216
100
AcDbPoint
 10
1052.500030870233
 20
655.0000186831912
 30
0.0
  0
POINT
  5
1677A
330
16416
100
AcDbEntity
  8
Defpoints
 62
     0
440
 16777216
100
AcDbPoint
 10
2352.500030870233
 20
655.0000186831912
 30
0.0
  0
POINT
  5
1677B
330
16416
100
AcDbEntity
  8
Defpoints
 62
     0
440
 16777216
100
AcDbPoint
 10
2352.500030870233
 20
415.0000186831912
 30
0.0
  0
ENDBLK
  5
16418
330
16416
100
AcDbEntity
  8
0
100
AcDbBlockEnd
  0
BLOCK
  5
16423
330
16422
100
AcDbEntity
  8
0
100
AcDbBlockBegin
  2
*D27
 70
     1
 10
0.0
 20
0.0
 30
0.0
  3
*D27
  1

  0
LINE
  5
1677C
330
16422
100
AcDbEntity
  8
寸法線
 62
     0
440
 16777216
370
    -2
100
AcDbLine
 10
1894.500031490199
 20
1053.750018683191
 30
0.0
 11
1894.50003866409
 21
1154.999973903926
 31
0.0
  0
LINE
  5
1677D
330
16422
100
AcDbEntity
  8
寸法線
 62
     0
440
 16777216
370
    -2
100
AcDbLine
 10
1510.500031490199
 20
1053.750018683191
 30
0.0
 11
1510.500038664092
 21
1155.000001111584
 31
0.0
  0
LINE
  5
1677E
330
16422
100
AcDbEntity
  8
寸法線
 62
     0
440
 16777216
370
    -2
100
AcDbLine
 10
1874.500037955557
 20
1144.999975320992
 30
0.0
 11
1530.500037955559
 21
1144.999999694518
 31
0.0
  0
INSERT
  5
1677F
330
16422
100
AcDbEntity
  8
寸法線
 62
     0
440
 16777216
370
    -2
100
AcDbBlockReference
  2
_OPEN
 10
1894.500037955557
 20
1144.999973903926
 30
0.0
 41
20.0
 42
20.0
 43
20.0
 50
359.9999959404063
  0
INSERT
  5
16780
330
16422
100
AcDbEntity
  8
寸法線
 62
     0
440
 16777216
370
    -2
100
AcDbBlockReference
  2
_OPEN
 10
1510.500037955559
 20
1145.000001111584
 30
0.0
 41
20.0
 42
20.0
 43
20.0
 50
179.9999959404063
  0
MTEXT
  5
16781
330
16422
100
AcDbEntity
  8
寸法線
 62
     0
440
 16777216
100
AcDbMText
 10
1702.50003946119
 20
1166.249987507755
 30
0.0
 40
25.0
 41
0.0
 46
0.0
 71
     5
 72
     1
  1
\A1;384
 11
0.9999999999999975
 21
-0.0000000708532752
 31
0.0
 73
     1
 44
1.0
  0
POINT
  5
16782
330
16422
100
AcDbEntity
  8
Defpoints
 62
     0
440
 16777216
100
AcDbPoint
 10
1894.500030870233
 20
1045.000018683191
 30
0.0
  0
POINT
  5
16783
330
16422
100
AcDbEntity
  8
Defpoints
 62
     0
440
 16777216
100
AcDbPoint
 10
1510.500030870232
 20
1045.000018683191
 30
0.0
  0
POINT
  5
16784
330
16422
100
AcDbEntity
  8
Defpoints
 62
     0
440
 16777216
100
AcDbPoint
 10
1510.500037955559
 20
1145.000001111584
 30
0.0
  0
ENDBLK
  5
16424
330
16422
100
AcDbEntity
  8
0
100
AcDbBlockEnd
  0
BLOCK
  5
1642F
330
1642E
100
AcDbEntity
  8
0
100
AcDbBlockBegin
  2
*D28
 70
     1
 10
0.0
 20
0.0
 30
0.0
  3
*D28
  1

  0
LINE
  5
16785
330
1642E
100
AcDbEntity
  8
寸法線
 62
     0
440
 16777216
370
    -2
100
AcDbLine
 10
1910.500030870233
 20
1053.750018683191
 30
0.0
 11
1910.500030870233
 21
1155.000009377801
 31
0.0
  0
LINE
  5
16786
330
1642E
100
AcDbEntity
  8
寸法線
 62
     0
440
 16777216
370
    -2
100
AcDbLine
 10
1894.500030870233
 20
1053.750018683191
 30
0.0
 11
1894.500030870233
 21
1155.000009377801
 31
0.0
  0
LINE
  5
16787
330
1642E
100
AcDbEntity
  8
寸法線
 62
     0
440
 16777216
370
    -2
100
AcDbLine
 10
1930.500030870233
 20
1145.000009377802
 30
0.0
 11
1950.500030870233
 21
1145.000009377802
 31
0.0
  0
LINE
  5
16788
330
1642E
100
AcDbEntity
  8
寸法線
 62
     0
440
 16777216
370
    -2
100
AcDbLine
 10
1874.500030870233
 20
1145.000009377802
 30
0.0
 11
1854.500030870233
 21
1145.000009377802
 31
0.0
  0
LINE
  5
16789
330
1642E
100
AcDbEntity
  8
寸法線
 62
     0
440
 16777216
370
    -2
100
AcDbLine
 10
1910.500030870233
 20
1145.000009377802
 30
0.0
 11
1894.500030870233
 21
1145.000009377802
 31
0.0
  0
INSERT
  5
1678A
330
1642E
100
AcDbEntity
  8
寸法線
 62
     0
440
 16777216
370
    -2
100
AcDbBlockReference
  2
_OPEN
 10
1910.500030870233
 20
1145.000009377802
 30
0.0
 41
20.0
 42
20.0
 43
20.0
 50
180.0
  0
INSERT
  5
1678B
330
1642E
100
AcDbEntity
  8
寸法線
 62
     0
440
 16777216
370
    -2
100
AcDbBlockReference
  2
_OPEN
 10
1894.500030870233
 20
1145.000009377802
 30
0.0
 41
20.0
 42
20.0
 43
20.0
  0
MTEXT
  5
1678C
330
1642E
100
AcDbEntity
  8
寸法線
 62
     0
440
 16777216
100
AcDbMText
 10
1902.500030870233
 20
1166.250009377802
 30
0.0
 40
25.0
 41
0.0
 46
0.0
 71
     5
 72
     1
  1
\A1;16
 73
     1
 44
1.0
  0
POINT
  5
1678D
330
1642E
100
AcDbEntity
  8
Defpoints
 62
     0
440
 16777216
100
AcDbPoint
 10
1910.500030870233
 20
1045.000018683191
 30
0.0
  0
POINT
  5
1678E
330
1642E
100
AcDbEntity
  8
Defpoints
 62
     0
440
 16777216
100
AcDbPoint
 10
1894.500030870233
 20
1045.000018683191
 30
0.0
  0
POINT
  5
1678F
330
1642E
100
AcDbEntity
  8
Defpoints
 62
     0
440
 16777216
100
AcDbPoint
 10
1894.500030870233
 20
1145.000009377802
 30
0.0
  0
ENDBLK
  5
16430
330
1642E
100
AcDbEntity
  8
0
100
AcDbBlockEnd
  0
BLOCK
  5
1643D
330
1643C
100
AcDbEntity
  8
0
100
AcDbBlockBegin
  2
*D29
 70
     1
 10
0.0
 20
0.0
 30
0.0
  3
*D29
  1

  0
LINE
  5
16790
330
1643C
100
AcDbEntity
  8
寸法線
 62
     0
440
 16777216
370
    -2
100
AcDbLine
 10
2336.500031490199
 20
1033.750036927829
 30
0.0
 11
2336.500040081153
 21
1154.999970928098
 31
0.0
  0
LINE
  5
16791
330
1643C
100
AcDbEntity
  8
寸法線
 62
     0
440
 16777216
370
    -2
100
AcDbLine
 10
1910.500031490199
 20
1053.750018683191
 30
0.0
 11
1910.500038664092
 21
1155.000001111593
 31
0.0
  0
LINE
  5
16792
330
1643C
100
AcDbEntity
  8
寸法線
 62
     0
440
 16777216
370
    -2
100
AcDbLine
 10
2316.500039372621
 20
1144.999972345163
 30
0.0
 11
1930.500037955559
 21
1144.999999694527
 31
0.0
  0
INSERT
  5
16793
330
1643C
100
AcDbEntity
  8
寸法線
 62
     0
440
 16777216
370
    -2
100
AcDbBlockReference
  2
_OPEN
 10
2336.500039372621
 20
1144.999970928098
 30
0.0
 41
20.0
 42
20.0
 43
20.0
 50
359.9999959404063
  0
INSERT
  5
16794
330
1643C
100
AcDbEntity
  8
寸法線
 62
     0
440
 16777216
370
    -2
100
AcDbBlockReference
  2
_OPEN
 10
1910.500037955559
 20
1145.000001111593
 30
0.0
 41
20.0
 42
20.0
 43
20.0
 50
179.9999959404063
  0
MTEXT
  5
16795
330
1643C
100
AcDbEntity
  8
寸法線
 62
     0
440
 16777216
100
AcDbMText
 10
2123.500040169897
 20
1166.252446649767
 30
0.0
 40
25.0
 41
0.0
 46
0.0
 71
     5
 72
     1
  1
\A1;426
 11
0.9999999999999975
 21
-0.0000000708532752
 31
0.0
 73
     1
 44
1.0
  0
POINT
  5
16796
330
1643C
100
AcDbEntity
  8
Defpoints
 62
     0
440
 16777216
100
AcDbPoint
 10
2336.500030870233
 20
1025.000036927829
 30
0.0
  0
POINT
  5
16797
330
1643C
100
AcDbEntity
  8
Defpoints
 62
     0
440
 16777216
100
AcDbPoint
 10
1910.500030870233
 20
1045.000018683191
 30
0.0
  0
POINT
  5
16798
330
1643C
100
AcDbEntity
  8
Defpoints
 62
     0
440
 16777216
100
AcDbPoint
 10
1910.500037955559
 20
1145.000001111593
 30
0.0
  0
ENDBLK
  5
1643E
330
1643C
100
AcDbEntity
  8
0
100
AcDbBlockEnd
  0
BLOCK
  5
16449
330
16448
100
AcDbEntity
  8
0
100
AcDbBlockBegin
  2
*D30
 70
     1
 10
0.0
 20
0.0
 30
0.0
  3
*D30
  1

  0
LINE
  5
16799
330
16448
100
AcDbEntity
  8
寸法線
 62
     0
440
 16777216
370
    -2
100
AcDbLine
 10
2336.500030870233
 20
646.250000438582
 30
0.0
 11
2336.500030870233
 21
525.0000186831912
 31
0.0
  0
LINE
  5
1679A
330
16448
100
AcDbEntity
  8
寸法線
 62
     0
440
 16777216
370
    -2
100
AcDbLine
 10
2304.500030870233
 20
656.2500004385818
 30
0.0
 11
2304.500030870233
 21
525.0000186831912
 31
0.0
  0
LINE
  5
1679B
330
16448
100
AcDbEntity
  8
寸法線
 62
     0
440
 16777216
370
    -2
100
AcDbLine
 10
2356.500030870233
 20
535.0000186831912
 30
0.0
 11
2376.500030870233
 21
535.0000186831912
 31
0.0
  0
LINE
  5
1679C
330
16448
100
AcDbEntity
  8
寸法線
 62
     0
440
 16777216
370
    -2
100
AcDbLine
 10
2284.500030870233
 20
535.0000186831912
 30
0.0
 11
2264.500030870233
 21
535.0000186831912
 31
0.0
  0
LINE
  5
1679D
330
16448
100
AcDbEntity
  8
寸法線
 62
     0
440
 16777216
370
    -2
100
AcDbLine
 10
2336.500030870233
 20
535.0000186831912
 30
0.0
 11
2304.500030870233
 21
535.0000186831912
 31
0.0
  0
INSERT
  5
1679E
330
16448
100
AcDbEntity
  8
寸法線
 62
     0
440
 16777216
370
    -2
100
AcDbBlockReference
  2
_OPEN
 10
2336.500030870233
 20
535.0000186831912
 30
0.0
 41
20.0
 42
20.0
 43
20.0
 50
180.0
  0
INSERT
  5
1679F
330
16448
100
AcDbEntity
  8
寸法線
 62
     0
440
 16777216
370
    -2
100
AcDbBlockReference
  2
_OPEN
 10
2304.500030870233
 20
535.0000186831912
 30
0.0
 41
20.0
 42
20.0
 43
20.0
  0
MTEXT
  5
167A0
330
16448
100
AcDbEntity
  8
寸法線
 62
     0
440
 16777216
100
AcDbMText
 10
2320.500030870233
 20
556.2524793131125
 30
0.0
 40
25.0
 41
0.0
 46
0.0
 71
     5
 72
     1
  1
\A1;32
 73
     1
 44
1.0
  0
POINT
  5
167A1
330
16448
100
AcDbEntity
  8
Defpoints
 62
     0
440
 16777216
100
AcDbPoint
 10
2336.500030870233
 20
655.000000438582
 30
0.0
  0
POINT
  5
167A2
330
16448
100
AcDbEntity
  8
Defpoints
 62
     0
440
 16777216
100
AcDbPoint
 10
2304.500030870233
 20
665.000000438582
 30
0.0
  0
POINT
  5
167A3
330
16448
100
AcDbEntity
  8
Defpoints
 62
     0
440
 16777216
100
AcDbPoint
 10
2304.500030870233
 20
535.0000186831912
 30
0.0
  0
ENDBLK
  5
1644A
330
16448
100
AcDbEntity
  8
0
100
AcDbBlockEnd
  0
BLOCK
  5
16457
330
16456
100
AcDbEntity
  8
0
100
AcDbBlockBegin
  2
*D31
 70
     1
 10
0.0
 20
0.0
 30
0.0
  3
*D31
  1

  0
LINE
  5
167A4
330
16456
100
AcDbEntity
  8
寸法線
 62
     0
440
 16777216
370
    -2
100
AcDbLine
 10
2352.500030870233
 20
646.250000438582
 30
0.0
 11
2352.500030870233
 21
465.0000186831912
 31
0.0
  0
LINE
  5
167A5
330
16456
100
AcDbEntity
  8
寸法線
 62
     0
440
 16777216
370
    -2
100
AcDbLine
 10
2336.500030870233
 20
646.250000438582
 30
0.0
 11
2336.500030870233
 21
465.0000186831912
 31
0.0
  0
LINE
  5
167A6
330
16456
100
AcDbEntity
  8
寸法線
 62
     0
440
 16777216
370
    -2
100
AcDbLine
 10
2372.500030870233
 20
475.0000186831912
 30
0.0
 11
2392.500030870233
 21
475.0000186831912
 31
0.0
  0
LINE
  5
167A7
330
16456
100
AcDbEntity
  8
寸法線
 62
     0
440
 16777216
370
    -2
100
AcDbLine
 10
2316.500030870233
 20
475.0000186831912
 30
0.0
 11
2296.500030870233
 21
475.0000186831912
 31
0.0
  0
LINE
  5
167A8
330
16456
100
AcDbEntity
  8
寸法線
 62
     0
440
 16777216
370
    -2
100
AcDbLine
 10
2352.500030870233
 20
475.0000186831912
 30
0.0
 11
2336.500030870233
 21
475.0000186831912
 31
0.0
  0
INSERT
  5
167A9
330
16456
100
AcDbEntity
  8
寸法線
 62
     0
440
 16777216
370
    -2
100
AcDbBlockReference
  2
_OPEN
 10
2352.500030870233
 20
475.0000186831912
 30
0.0
 41
20.0
 42
20.0
 43
20.0
 50
180.0
  0
INSERT
  5
167AA
330
16456
100
AcDbEntity
  8
寸法線
 62
     0
440
 16777216
370
    -2
100
AcDbBlockReference
  2
_OPEN
 10
2336.500030870233
 20
475.0000186831912
 30
0.0
 41
20.0
 42
20.0
 43
20.0
  0
MTEXT
  5
167AB
330
16456
100
AcDbEntity
  8
寸法線
 62
     0
440
 16777216
100
AcDbMText
 10
2344.500030870233
 20
496.2500186831912
 30
0.0
 40
25.0
 41
0.0
 46
0.0
 71
     5
 72
     1
  1
\A1;16
 73
     1
 44
1.0
  0
POINT
  5
167AC
330
16456
100
AcDbEntity
  8
Defpoints
 62
     0
440
 16777216
100
AcDbPoint
 10
2352.500030870233
 20
655.000000438582
 30
0.0
  0
POINT
  5
167AD
330
16456
100
AcDbEntity
  8
Defpoints
 62
     0
440
 16777216
100
AcDbPoint
 10
2336.500030870233
 20
655.000000438582
 30
0.0
  0
POINT
  5
167AE
330
16456
100
AcDbEntity
  8
Defpoints
 62
     0
440
 16777216
100
AcDbPoint
 10
2336.500030870233
 20
475.0000186831912
 30
0.0
  0
ENDBLK
  5
16458
330
16456
100
AcDbEntity
  8
0
100
AcDbBlockEnd
  0
BLOCK
  5
16465
330
16464
100
AcDbEntity
  8
0
100
AcDbBlockBegin
  2
*D32
 70
     1
 10
0.0
 20
0.0
 30
0.0
  3
*D32
  1

  0
LINE
  5
167AF
330
16464
100
AcDbEntity
  8
寸法線
 62
     0
440
 16777216
370
    -2
100
AcDbLine
 10
1494.50004504088
 20
1053.750018683191
 30
0.0
 11
1494.50004504088
 21
1155.000009377801
 31
0.0
  0
LINE
  5
167B0
330
16464
100
AcDbEntity
  8
寸法線
 62
     0
440
 16777216
370
    -2
100
AcDbLine
 10
1510.50004504088
 20
1053.750018683191
 30
0.0
 11
1510.50004504088
 21
1155.000009377801
 31
0.0
  0
LINE
  5
167B1
330
16464
100
AcDbEntity
  8
寸法線
 62
     0
440
 16777216
370
    -2
100
AcDbLine
 10
1474.50004504088
 20
1145.000009377802
 30
0.0
 11
1454.50004504088
 21
1145.000009377802
 31
0.0
  0
LINE
  5
167B2
330
16464
100
AcDbEntity
  8
寸法線
 62
     0
440
 16777216
370
    -2
100
AcDbLine
 10
1530.500045040881
 20
1145.000009377802
 30
0.0
 11
1550.50004504088
 21
1145.000009377802
 31
0.0
  0
LINE
  5
167B3
330
16464
100
AcDbEntity
  8
寸法線
 62
     0
440
 16777216
370
    -2
100
AcDbLine
 10
1494.50004504088
 20
1145.000009377802
 30
0.0
 11
1510.50004504088
 21
1145.000009377802
 31
0.0
  0
INSERT
  5
167B4
330
16464
100
AcDbEntity
  8
寸法線
 62
     0
440
 16777216
370
    -2
100
AcDbBlockReference
  2
_OPEN
 10
1494.50004504088
 20
1145.000009377802
 30
0.0
 41
20.0
 42
20.0
 43
20.0
  0
INSERT
  5
167B5
330
16464
100
AcDbEntity
  8
寸法線
 62
     0
440
 16777216
370
    -2
100
AcDbBlockReference
  2
_OPEN
 10
1510.50004504088
 20
1145.000009377802
 30
0.0
 41
20.0
 42
20.0
 43
20.0
 50
180.0
  0
MTEXT
  5
167B6
330
16464
100
AcDbEntity
  8
寸法線
 62
     0
440
 16777216
100
AcDbMText
 10
1502.50004504088
 20
1166.250009377802
 30
0.0
 40
25.0
 41
0.0
 46
0.0
 71
     5
 72
     1
  1
\A1;16
 73
     1
 44
1.0
  0
POINT
  5
167B7
330
16464
100
AcDbEntity
  8
Defpoints
 62
     0
440
 16777216
100
AcDbPoint
 10
1494.50004504088
 20
1045.000018683191
 30
0.0
  0
POINT
  5
167B8
330
16464
100
AcDbEntity
  8
Defpoints
 62
     0
440
 16777216
100
AcDbPoint
 10
1510.50004504088
 20
1045.000018683191
 30
0.0
  0
POINT
  5
167B9
330
16464
100
AcDbEntity
  8
Defpoints
 62
     0
440
 16777216
100
AcDbPoint
 10
1510.50004504088
 20
1145.000009377802
 30
0.0
  0
ENDBLK
  5
16466
330
16464
100
AcDbEntity
  8
0
100
AcDbBlockEnd
  0
BLOCK
  5
16473
330
16472
100
AcDbEntity
  8
0
100
AcDbBlockBegin
  2
*D33
 70
     1
 10
0.0
 20
0.0
 30
0.0
  3
*D33
  1

  0
LINE
  5
167BA
330
16472
100
AcDbEntity
  8
寸法線
 62
     0
440
 16777216
370
    -2
100
AcDbLine
 10
1068.50004504088
 20
1033.750036927829
 30
0.0
 11
1068.50004504088
 21
1155.000001111593
 31
0.0
  0
LINE
  5
167BB
330
16472
100
AcDbEntity
  8
寸法線
 62
     0
440
 16777216
370
    -2
100
AcDbLine
 10
1494.50004504088
 20
1053.750018683191
 30
0.0
 11
1494.50004504088
 21
1155.000001111593
 31
0.0
  0
LINE
  5
167BC
330
16472
100
AcDbEntity
  8
寸法線
 62
     0
440
 16777216
370
    -2
100
AcDbLine
 10
1088.500045040881
 20
1145.000001111593
 30
0.0
 11
1474.50004504088
 21
1145.000001111593
 31
0.0
  0
INSERT
  5
167BD
330
16472
100
AcDbEntity
  8
寸法線
 62
     0
440
 16777216
370
    -2
100
AcDbBlockReference
  2
_OPEN
 10
1068.50004504088
 20
1145.000001111593
 30
0.0
 41
20.0
 42
20.0
 43
20.0
 50
180.0
  0
INSERT
  5
167BE
330
16472
100
AcDbEntity
  8
寸法線
 62
     0
440
 16777216
370
    -2
100
AcDbBlockReference
  2
_OPEN
 10
1494.50004504088
 20
1145.000001111593
 30
0.0
 41
20.0
 42
20.0
 43
20.0
  0
MTEXT
  5
167BF
330
16472
100
AcDbEntity
  8
寸法線
 62
     0
440
 16777216
100
AcDbMText
 10
1281.50004504088
 20
1166.252461741515
 30
0.0
 40
25.0
 41
0.0
 46
0.0
 71
     5
 72
     1
  1
\A1;426
 73
     1
 44
1.0
  0
POINT
  5
167C0
330
16472
100
AcDbEntity
  8
Defpoints
 62
     0
440
 16777216
100
AcDbPoint
 10
1068.50004504088
 20
1025.000036927829
 30
0.0
  0
POINT
  5
167C1
330
16472
100
AcDbEntity
  8
Defpoints
 62
     0
440
 16777216
100
AcDbPoint
 10
1494.50004504088
 20
1045.000018683191
 30
0.0
  0
POINT
  5
167C2
330
16472
100
AcDbEntity
  8
Defpoints
 62
     0
440
 16777216
100
AcDbPoint
 10
1494.50004504088
 20
1145.000001111593
 30
0.0
  0
ENDBLK
  5
16474
330
16472
100
AcDbEntity
  8
0
100
AcDbBlockEnd
  0
BLOCK
  5
1647F
330
1647E
100
AcDbEntity
  8
0
100
AcDbBlockBegin
  2
*D34
 70
     1
 10
0.0
 20
0.0
 30
0.0
  3
*D34
  1

  0
LINE
  5
167C3
330
1647E
100
AcDbEntity
  8
寸法線
 62
     0
440
 16777216
370
    -2
100
AcDbLine
 10
523.7499196699974
 20
655.0000551724681
 30
0.0
 11
402.5000270626367
 21
655.0000551724681
 31
0.0
  0
LINE
  5
167C4
330
1647E
100
AcDbEntity
  8
寸法線
 62
     0
440
 16777216
370
    -2
100
AcDbLine
 10
523.7499196699974
 20
1025.000055172468
 30
0.0
 11
402.5000270626367
 21
1025.000055172468
 31
0.0
  0
LINE
  5
167C5
330
1647E
100
AcDbEntity
  8
寸法線
 62
     0
440
 16777216
370
    -2
100
AcDbLine
 10
412.5000270626367
 20
675.0000551724681
 30
0.0
 11
412.5000270626367
 21
1005.000055172468
 31
0.0
  0
INSERT
  5
167C6
330
1647E
100
AcDbEntity
  8
寸法線
 62
     0
440
 16777216
370
    -2
100
AcDbBlockReference
  2
_OPEN
 10
412.5000270626367
 20
655.0000551724681
 30
0.0
 41
20.0
 42
20.0
 43
20.0
 50
270.0
  0
INSERT
  5
167C7
330
1647E
100
AcDbEntity
  8
寸法線
 62
     0
440
 16777216
370
    -2
100
AcDbBlockReference
  2
_OPEN
 10
412.5000270626367
 20
1025.000055172468
 30
0.0
 41
20.0
 42
20.0
 43
20.0
 50
90.0
  0
MTEXT
  5
167C8
330
1647E
100
AcDbEntity
  8
寸法線
 62
     0
440
 16777216
100
AcDbMText
 10
391.2500270626369
 20
840.0000551724678
 30
0.0
 40
25.0
 41
0.0
 46
0.0
 71
     5
 72
     1
  1
\A1;370
 11
0.0000000000000001
 21
1.0
 31
0.0
 73
     1
 44
1.0
  0
POINT
  5
167C9
330
1647E
100
AcDbEntity
  8
Defpoints
 62
     0
440
 16777216
100
AcDbPoint
 10
532.4999196699974
 20
655.0000551724681
 30
0.0
  0
POINT
  5
167CA
330
1647E
100
AcDbEntity
  8
Defpoints
 62
     0
440
 16777216
100
AcDbPoint
 10
532.4999196699974
 20
1025.000055172468
 30
0.0
  0
POINT
  5
167CB
330
1647E
100
AcDbEntity
  8
Defpoints
 62
     0
440
 16777216
100
AcDbPoint
 10
412.5000270626367
 20
1025.000055172468
 30
0.0
  0
ENDBLK
  5
16480
330
1647E
100
AcDbEntity
  8
0
100
AcDbBlockEnd
  0
BLOCK
  5
1648B
330
1648A
100
AcDbEntity
  8
0
100
AcDbBlockBegin
  2
*D35
 70
     1
 10
0.0
 20
0.0
 30
0.0
  3
*D35
  1

  0
LINE
  5
167CC
330
1648A
100
AcDbEntity
  8
寸法線
 62
     0
440
 16777216
370
    -2
100
AcDbLine
 10
532.5001344552473
 20
646.2500551724679
 30
0.0
 11
532.5001344552473
 21
525.0000551724679
 31
0.0
  0
LINE
  5
167CD
330
1648A
100
AcDbEntity
  8
寸法線
 62
     0
440
 16777216
370
    -2
100
AcDbLine
 10
902.5001344552476
 20
646.2500551724679
 30
0.0
 11
902.5001344552476
 21
525.0000551724679
 31
0.0
  0
LINE
  5
167CE
330
1648A
100
AcDbEntity
  8
寸法線
 62
     0
440
 16777216
370
    -2
100
AcDbLine
 10
552.5001344552475
 20
535.0000551724678
 30
0.0
 11
882.5001344552472
 21
535.0000551724678
 31
0.0
  0
INSERT
  5
167CF
330
1648A
100
AcDbEntity
  8
寸法線
 62
     0
440
 16777216
370
    -2
100
AcDbBlockReference
  2
_OPEN
 10
532.5001344552473
 20
535.0000551724678
 30
0.0
 41
20.0
 42
20.0
 43
20.0
 50
180.0
  0
INSERT
  5
167D0
330
1648A
100
AcDbEntity
  8
寸法線
 62
     0
440
 16777216
370
    -2
100
AcDbBlockReference
  2
_OPEN
 10
902.5001344552476
 20
535.0000551724678
 30
0.0
 41
20.0
 42
20.0
 43
20.0
  0
MTEXT
  5
167D1
330
1648A
100
AcDbEntity
  8
寸法線
 62
     0
440
 16777216
100
AcDbMText
 10
717.5001344552473
 20
556.2500551724679
 30
0.0
 40
25.0
 41
0.0
 46
0.0
 71
     5
 72
     1
  1
\A1;370
 73
     1
 44
1.0
  0
POINT
  5
167D2
330
1648A
100
AcDbEntity
  8
Defpoints
 62
     0
440
 16777216
100
AcDbPoint
 10
532.5001344552473
 20
655.0000551724679
 30
0.0
  0
POINT
  5
167D3
330
1648A
100
AcDbEntity
  8
Defpoints
 62
     0
440
 16777216
100
AcDbPoint
 10
902.5001344552476
 20
655.0000551724679
 30
0.0
  0
POINT
  5
167D4
330
1648A
100
AcDbEntity
  8
Defpoints
 62
     0
440
 16777216
100
AcDbPoint
 10
902.5001344552476
 20
535.0000551724678
 30
0.0
  0
ENDBLK
  5
1648C
330
1648A
100
AcDbEntity
  8
0
100
AcDbBlockEnd
  0
BLOCK
  5
16497
330
16496
100
AcDbEntity
  8
0
100
AcDbBlockBegin
  2
*D36
 70
     1
 10
0.0
 20
0.0
 30
0.0
  3
*D36
  1

  0
LINE
  5
167D5
330
16496
100
AcDbEntity
  8
寸法線
 62
     0
440
 16777216
370
    -2
100
AcDbLine
 10
3057.500030870234
 20
606.2500734171062
 30
0.0
 11
3057.500030870234
 21
525.0000734171061
 31
0.0
  0
LINE
  5
167D6
330
16496
100
AcDbEntity
  8
寸法線
 62
     0
440
 16777216
370
    -2
100
AcDbLine
 10
3467.500030870234
 20
606.2500734171062
 30
0.0
 11
3467.500030870234
 21
525.0000734171061
 31
0.0
  0
LINE
  5
167D7
330
16496
100
AcDbEntity
  8
寸法線
 62
     0
440
 16777216
370
    -2
100
AcDbLine
 10
3077.500030870234
 20
535.0000734171061
 30
0.0
 11
3447.500030870234
 21
535.0000734171061
 31
0.0
  0
INSERT
  5
167D8
330
16496
100
AcDbEntity
  8
寸法線
 62
     0
440
 16777216
370
    -2
100
AcDbBlockReference
  2
_OPEN
 10
3057.500030870234
 20
535.0000734171061
 30
0.0
 41
20.0
 42
20.0
 43
20.0
 50
180.0
  0
INSERT
  5
167D9
330
16496
100
AcDbEntity
  8
寸法線
 62
     0
440
 16777216
370
    -2
100
AcDbBlockReference
  2
_OPEN
 10
3467.500030870234
 20
535.0000734171061
 30
0.0
 41
20.0
 42
20.0
 43
20.0
  0
MTEXT
  5
167DA
330
16496
100
AcDbEntity
  8
寸法線
 62
     0
440
 16777216
100
AcDbMText
 10
3262.500030870234
 20
556.2500734171061
 30
0.0
 40
25.0
 41
0.0
 46
0.0
 71
     5
 72
     1
  1
\A1;410
 73
     1
 44
1.0
  0
POINT
  5
167DB
330
16496
100
AcDbEntity
  8
Defpoints
 62
     0
440
 16777216
100
AcDbPoint
 10
3057.500030870234
 20
615.0000734171062
 30
0.0
  0
POINT
  5
167DC
330
16496
100
AcDbEntity
  8
Defpoints
 62
     0
440
 16777216
100
AcDbPoint
 10
3467.500030870234
 20
615.0000734171062
 30
0.0
  0
POINT
  5
167DD
330
16496
100
AcDbEntity
  8
Defpoints
 62
     0
440
 16777216
100
AcDbPoint
 10
3467.500030870234
 20
535.0000734171061
 30
0.0
  0
ENDBLK
  5
16498
330
16496
100
AcDbEntity
  8
0
100
AcDbBlockEnd
  0
BLOCK
  5
164A3
330
164A2
100
AcDbEntity
  8
0
100
AcDbBlockBegin
  2
*D37
 70
     1
 10
0.0
 20
0.0
 30
0.0
  3
*D37
  1

  0
LINE
  5
167DE
330
164A2
100
AcDbEntity
  8
寸法線
 62
     0
440
 16777216
370
    -2
100
AcDbLine
 10
3476.250030870235
 20
615.0000734171063
 30
0.0
 11
3557.500030870465
 21
615.0000734171063
 31
0.0
  0
LINE
  5
167DF
330
164A2
100
AcDbEntity
  8
寸法線
 62
     0
440
 16777216
370
    -2
100
AcDbLine
 10
3476.250030870235
 20
1025.000073417106
 30
0.0
 11
3557.500030870465
 21
1025.000073417106
 31
0.0
  0
LINE
  5
167E0
330
164A2
100
AcDbEntity
  8
寸法線
 62
     0
440
 16777216
370
    -2
100
AcDbLine
 10
3547.500030870465
 20
635.0000734171064
 30
0.0
 11
3547.500030870465
 21
1005.000073417106
 31
0.0
  0
INSERT
  5
167E1
330
164A2
100
AcDbEntity
  8
寸法線
 62
     0
440
 16777216
370
    -2
100
AcDbBlockReference
  2
_OPEN
 10
3547.500030870465
 20
615.0000734171063
 30
0.0
 41
20.0
 42
20.0
 43
20.0
 50
270.0
  0
INSERT
  5
167E2
330
164A2
100
AcDbEntity
  8
寸法線
 62
     0
440
 16777216
370
    -2
100
AcDbBlockReference
  2
_OPEN
 10
3547.500030870465
 20
1025.000073417106
 30
0.0
 41
20.0
 42
20.0
 43
20.0
 50
90.0
  0
MTEXT
  5
167E3
330
164A2
100
AcDbEntity
  8
寸法線
 62
     0
440
 16777216
100
AcDbMText
 10
3526.250030870464
 20
820.0000734171052
 30
0.0
 40
25.0
 41
0.0
 46
0.0
 71
     5
 72
     1
  1
\A1;410
 11
0.0000000000000001
 21
1.0
 31
0.0
 73
     1
 44
1.0
  0
POINT
  5
167E4
330
164A2
100
AcDbEntity
  8
Defpoints
 62
     0
440
 16777216
100
AcDbPoint
 10
3467.500030870235
 20
615.0000734171063
 30
0.0
  0
POINT
  5
167E5
330
164A2
100
AcDbEntity
  8
Defpoints
 62
     0
440
 16777216
100
AcDbPoint
 10
3467.500030870235
 20
1025.000073417106
 30
0.0
  0
POINT
  5
167E6
330
164A2
100
AcDbEntity
  8
Defpoints
 62
     0
440
 16777216
100
AcDbPoint
 10
3547.500030870465
 20
1025.000073417106
 30
0.0
  0
ENDBLK
  5
164A4
330
164A2
100
AcDbEntity
  8
0
100
AcDbBlockEnd
  0
BLOCK
  5
164AF
330
164AE
100
AcDbEntity
  8
0
100
AcDbBlockBegin
  2
*D38
 70
     1
 10
0.0
 20
0.0
 30
0.0
  3
*D38
  1

  0
LINE
  5
167E7
330
164AE
100
AcDbEntity
  8
寸法線
 62
     0
440
 16777216
370
    -2
100
AcDbLine
 10
3158.621855397209
 20
749.9223511340037
 30
0.0
 11
3159.246855397475
 21
748.8398193788174
 31
0.0
  0
LINE
  5
167E8
330
164AE
100
AcDbEntity
  8
寸法線
 62
     0
440
 16777216
370
    -2
100
AcDbLine
 10
3366.378206343286
 20
890.0777957002086
 30
0.0
 11
3365.753206343222
 21
891.1603274550438
 31
0.0
  0
LINE
  5
167E9
330
164AE
100
AcDbEntity
  8
寸法線
 62
     0
440
 16777216
370
    -2
100
AcDbLine
 10
3171.567363473116
 20
767.5000734166936
 30
0.0
 11
3353.432698267582
 21
872.5000734171675
 31
0.0
  0
INSERT
  5
167EA
330
164AE
100
AcDbEntity
  8
寸法線
 62
     0
440
 16777216
370
    -2
100
AcDbBlockReference
  2
_OPEN
 10
3154.246855397453
 20
757.500073416649
 30
0.0
 41
20.0
 42
20.0
 43
20.0
 50
210.0000000001482
  0
INSERT
  5
167EB
330
164AE
100
AcDbEntity
  8
寸法線
 62
     0
440
 16777216
370
    -2
100
AcDbBlockReference
  2
_OPEN
 10
3370.753206343245
 20
882.5000734172125
 30
0.0
 41
20.0
 42
20.0
 43
20.0
 50
30.00000000014825
  0
MTEXT
  5
167EC
330
164AE
100
AcDbEntity
  8
寸法線
 62
     0
440
 16777216
100
AcDbMText
 10
3300.699049851869
 20
866.5945150401135
 30
0.0
 40
25.0
 41
0.0
 46
0.0
 71
     5
 72
     1
  1
\A1;%%C250
 11
0.8660254037831448
 21
0.5000000000022409
 31
0.0
 73
     1
 44
1.0
  0
POINT
  5
167ED
330
164AE
100
AcDbEntity
  8
Defpoints
 62
     0
440
 16777216
100
AcDbPoint
 10
3154.246855397189
 20
757.5000734171063
 30
0.0
  0
POINT
  5
167EE
330
164AE
100
AcDbEntity
  8
Defpoints
 62
     0
440
 16777216
100
AcDbPoint
 10
3370.753206343306
 20
882.5000734171061
 30
0.0
  0
POINT
  5
167EF
330
164AE
100
AcDbEntity
  8
Defpoints
 62
     0
440
 16777216
100
AcDbPoint
 10
3370.753206343245
 20
882.5000734172125
 30
0.0
  0
ENDBLK
  5
164B0
330
164AE
100
AcDbEntity
  8
0
100
AcDbBlockEnd
  0
BLOCK
  5
164BB
330
164BA
100
AcDbEntity
  8
0
100
AcDbBlockBegin
  2
*D39
 70
     1
 10
0.0
 20
0.0
 30
0.0
  3
*D39
  1

  0
LINE
  5
167F0
330
164BA
100
AcDbEntity
  8
寸法線
 62
     0
440
 16777216
370
    -2
100
AcDbLine
 10
2524.97041183888
 20
631.250055172497
 30
0.0
 11
2524.97041183888
 21
525.0000734171061
 31
0.0
  0
LINE
  5
167F1
330
164BA
100
AcDbEntity
  8
寸法線
 62
     0
440
 16777216
370
    -2
100
AcDbLine
 10
2819.97041183888
 20
631.250055172497
 30
0.0
 11
2819.97041183888
 21
525.0000734171061
 31
0.0
  0
LINE
  5
167F2
330
164BA
100
AcDbEntity
  8
寸法線
 62
     0
440
 16777216
370
    -2
100
AcDbLine
 10
2544.97041183888
 20
535.0000734171061
 30
0.0
 11
2799.97041183888
 21
535.0000734171061
 31
0.0
  0
INSERT
  5
167F3
330
164BA
100
AcDbEntity
  8
寸法線
 62
     0
440
 16777216
370
    -2
100
AcDbBlockReference
  2
_OPEN
 10
2524.97041183888
 20
535.0000734171061
 30
0.0
 41
20.0
 42
20.0
 43
20.0
 50
180.0
  0
INSERT
  5
167F4
330
164BA
100
AcDbEntity
  8
寸法線
 62
     0
440
 16777216
370
    -2
100
AcDbBlockReference
  2
_OPEN
 10
2819.97041183888
 20
535.0000734171061
 30
0.0
 41
20.0
 42
20.0
 43
20.0
  0
MTEXT
  5
167F5
330
164BA
100
AcDbEntity
  8
寸法線
 62
     0
440
 16777216
100
AcDbMText
 10
2672.470719694891
 20
556.2525340470275
 30
0.0
 40
25.0
 41
0.0
 46
0.0
 71
     5
 72
     1
  1
\A1;295
 73
     1
 44
1.0
  0
POINT
  5
167F6
330
164BA
100
AcDbEntity
  8
Defpoints
 62
     0
440
 16777216
100
AcDbPoint
 10
2524.97041183888
 20
640.000055172497
 30
0.0
  0
POINT
  5
167F7
330
164BA
100
AcDbEntity
  8
Defpoints
 62
     0
440
 16777216
100
AcDbPoint
 10
2819.97041183888
 20
640.000055172497
 30
0.0
  0
POINT
  5
167F8
330
164BA
100
AcDbEntity
  8
Defpoints
 62
     0
440
 16777216
100
AcDbPoint
 10
2819.97041183888
 20
535.0000734171061
 30
0.0
  0
ENDBLK
  5
164BC
330
164BA
100
AcDbEntity
  8
0
100
AcDbBlockEnd
  0
BLOCK
  5
164C7
330
164C6
100
AcDbEntity
  8
0
100
AcDbBlockBegin
  2
*D40
 70
     1
 10
0.0
 20
0.0
 30
0.0
  3
*D40
  1

  0
LINE
  5
167F9
330
164C6
100
AcDbEntity
  8
寸法線
 62
     0
440
 16777216
370
    -2
100
AcDbLine
 10
2881.220411838882
 20
987.5000551724976
 30
0.0
 11
2987.470494989048
 21
987.5000551724976
 31
0.0
  0
LINE
  5
167FA
330
164C6
100
AcDbEntity
  8
寸法線
 62
     0
440
 16777216
370
    -2
100
AcDbLine
 10
2866.220494989049
 20
1025.000073417106
 30
0.0
 11
2987.470494989048
 21
1025.000073417106
 31
0.0
  0
LINE
  5
167FB
330
164C6
100
AcDbEntity
  8
寸法線
 62
     0
440
 16777216
370
    -2
100
AcDbLine
 10
2977.470494989048
 20
967.5000551724975
 30
0.0
 11
2977.470494989048
 21
947.5000551724972
 31
0.0
  0
LINE
  5
167FC
330
164C6
100
AcDbEntity
  8
寸法線
 62
     0
440
 16777216
370
    -2
100
AcDbLine
 10
2977.470494989047
 20
1045.000073417106
 30
0.0
 11
2977.470494989047
 21
1065.000073417107
 31
0.0
  0
LINE
  5
167FD
330
164C6
100
AcDbEntity
  8
寸法線
 62
     0
440
 16777216
370
    -2
100
AcDbLine
 10
2977.470494989048
 20
987.5000551724976
 30
0.0
 11
2977.470494989047
 21
1025.000073417106
 31
0.0
  0
INSERT
  5
167FE
330
164C6
100
AcDbEntity
  8
寸法線
 62
     0
440
 16777216
370
    -2
100
AcDbBlockReference
  2
_OPEN
 10
2977.470494989048
 20
987.5000551724976
 30
0.0
 41
20.0
 42
20.0
 43
20.0
 50
90.0
  0
INSERT
  5
167FF
330
164C6
100
AcDbEntity
  8
寸法線
 62
     0
440
 16777216
370
    -2
100
AcDbBlockReference
  2
_OPEN
 10
2977.470494989047
 20
1025.000073417106
 30
0.0
 41
20.0
 42
20.0
 43
20.0
 50
270.0
  0
MTEXT
  5
16800
330
164C6
100
AcDbEntity
  8
寸法線
 62
     0
440
 16777216
100
AcDbMText
 10
2956.220494989048
 20
1006.250064294801
 30
0.0
 40
25.0
 41
0.0
 46
0.0
 71
     5
 72
     1
  1
\A1;37.5
 11
0.0000000000000001
 21
1.0
 31
0.0
 73
     1
 44
1.0
  0
POINT
  5
16801
330
164C6
100
AcDbEntity
  8
Defpoints
 62
     0
440
 16777216
100
AcDbPoint
 10
2872.470411838881
 20
987.5000551724976
 30
0.0
  0
POINT
  5
16802
330
164C6
100
AcDbEntity
  8
Defpoints
 62
     0
440
 16777216
100
AcDbPoint
 10
2857.470494989049
 20
1025.000073417106
 30
0.0
  0
POINT
  5
16803
330
164C6
100
AcDbEntity
  8
Defpoints
 62
     0
440
 16777216
100
AcDbPoint
 10
2977.470494989047
 20
1025.000073417106
 30
0.0
  0
ENDBLK
  5
164C8
330
164C6
100
AcDbEntity
  8
0
100
AcDbBlockEnd
  0
BLOCK
  5
164D5
330
164D4
100
AcDbEntity
  8
0
100
AcDbBlockBegin
  2
*D41
 70
     1
 10
0.0
 20
0.0
 30
0.0
  3
*D41
  1

  0
LINE
  5
16804
330
164D4
100
AcDbEntity
  8
寸法線
 62
     0
440
 16777216
370
    -2
100
AcDbLine
 10
2881.220411838882
 20
692.5000551724972
 30
0.0
 11
2987.470494989048
 21
692.5000551724972
 31
0.0
  0
LINE
  5
16805
330
164D4
100
AcDbEntity
  8
寸法線
 62
     0
440
 16777216
370
    -2
100
AcDbLine
 10
2881.220411838882
 20
987.5000551724976
 30
0.0
 11
2987.470494989048
 21
987.5000551724976
 31
0.0
  0
LINE
  5
16806
330
164D4
100
AcDbEntity
  8
寸法線
 62
     0
440
 16777216
370
    -2
100
AcDbLine
 10
2977.470494989048
 20
712.5000551724972
 30
0.0
 11
2977.470494989048
 21
967.5000551724975
 31
0.0
  0
INSERT
  5
16807
330
164D4
100
AcDbEntity
  8
寸法線
 62
     0
440
 16777216
370
    -2
100
AcDbBlockReference
  2
_OPEN
 10
2977.470494989048
 20
692.5000551724972
 30
0.0
 41
20.0
 42
20.0
 43
20.0
 50
270.0
  0
INSERT
  5
16808
330
164D4
100
AcDbEntity
  8
寸法線
 62
     0
440
 16777216
370
    -2
100
AcDbBlockReference
  2
_OPEN
 10
2977.470494989048
 20
987.5000551724976
 30
0.0
 41
20.0
 42
20.0
 43
20.0
 50
90.0
  0
MTEXT
  5
16809
330
164D4
100
AcDbEntity
  8
寸法線
 62
     0
440
 16777216
100
AcDbMText
 10
2956.218034359126
 20
840.0003078450554
 30
0.0
 40
25.0
 41
0.0
 46
0.0
 71
     5
 72
     1
  1
\A1;295
 11
0.0000000000000001
 21
1.0
 31
0.0
 73
     1
 44
1.0
  0
POINT
  5
1680A
330
164D4
100
AcDbEntity
  8
Defpoints
 62
     0
440
 16777216
100
AcDbPoint
 10
2872.470411838881
 20
692.5000551724972
 30
0.0
  0
POINT
  5
1680B
330
164D4
100
AcDbEntity
  8
Defpoints
 62
     0
440
 16777216
100
AcDbPoint
 10
2872.470411838881
 20
987.5000551724976
 30
0.0
  0
POINT
  5
1680C
330
164D4
100
AcDbEntity
  8
Defpoints
 62
     0
440
 16777216
100
AcDbPoint
 10
2977.470494989048
 20
987.5000551724976
 30
0.0
  0
ENDBLK
  5
164D6
330
164D4
100
AcDbEntity
  8
0
100
AcDbBlockEnd
  0
BLOCK
  5
164E1
330
164E0
100
AcDbEntity
  8
0
100
AcDbBlockBegin
  2
*D42
 70
     1
 10
0.0
 20
0.0
 30
0.0
  3
*D42
  1

  0
LINE
  5
1680D
330
164E0
100
AcDbEntity
  8
寸法線
 62
     0
440
 16777216
370
    -2
100
AcDbLine
 10
2866.220494989049
 20
655.0000734171065
 30
0.0
 11
2987.470494989048
 21
655.0000734171065
 31
0.0
  0
LINE
  5
1680E
330
164E0
100
AcDbEntity
  8
寸法線
 62
     0
440
 16777216
370
    -2
100
AcDbLine
 10
2881.220411838882
 20
692.5000551724972
 30
0.0
 11
2987.470494989048
 21
692.5000551724972
 31
0.0
  0
LINE
  5
1680F
330
164E0
100
AcDbEntity
  8
寸法線
 62
     0
440
 16777216
370
    -2
100
AcDbLine
 10
2977.470494989048
 20
635.0000734171064
 30
0.0
 11
2977.470494989048
 21
615.0000734171063
 31
0.0
  0
LINE
  5
16810
330
164E0
100
AcDbEntity
  8
寸法線
 62
     0
440
 16777216
370
    -2
100
AcDbLine
 10
2977.470494989048
 20
712.5000551724972
 30
0.0
 11
2977.470494989048
 21
732.5000551724972
 31
0.0
  0
LINE
  5
16811
330
164E0
100
AcDbEntity
  8
寸法線
 62
     0
440
 16777216
370
    -2
100
AcDbLine
 10
2977.470494989048
 20
655.0000734171065
 30
0.0
 11
2977.470494989048
 21
692.5000551724972
 31
0.0
  0
INSERT
  5
16812
330
164E0
100
AcDbEntity
  8
寸法線
 62
     0
440
 16777216
370
    -2
100
AcDbBlockReference
  2
_OPEN
 10
2977.470494989048
 20
655.0000734171065
 30
0.0
 41
20.0
 42
20.0
 43
20.0
 50
90.0
  0
INSERT
  5
16813
330
164E0
100
AcDbEntity
  8
寸法線
 62
     0
440
 16777216
370
    -2
100
AcDbBlockReference
  2
_OPEN
 10
2977.470494989048
 20
692.5000551724972
 30
0.0
 41
20.0
 42
20.0
 43
20.0
 50
270.0
  0
MTEXT
  5
16814
330
164E0
100
AcDbEntity
  8
寸法線
 62
     0
440
 16777216
100
AcDbMText
 10
2956.220494989048
 20
673.7500642948007
 30
0.0
 40
25.0
 41
0.0
 46
0.0
 71
     5
 72
     1
  1
\A1;37.5
 11
0.0000000000000001
 21
1.0
 31
0.0
 73
     1
 44
1.0
  0
POINT
  5
16815
330
164E0
100
AcDbEntity
  8
Defpoints
 62
     0
440
 16777216
100
AcDbPoint
 10
2857.470494989049
 20
655.0000734171065
 30
0.0
  0
POINT
  5
16816
330
164E0
100
AcDbEntity
  8
Defpoints
 62
     0
440
 16777216
100
AcDbPoint
 10
2872.470411838881
 20
692.5000551724972
 30
0.0
  0
POINT
  5
16817
330
164E0
100
AcDbEntity
  8
Defpoints
 62
     0
440
 16777216
100
AcDbPoint
 10
2977.470494989048
 20
692.5000551724972
 30
0.0
  0
ENDBLK
  5
164E2
330
164E0
100
AcDbEntity
  8
0
100
AcDbBlockEnd
  0
BLOCK
  5
164EF
330
164EE
100
AcDbEntity
  8
0
100
AcDbBlockBegin
  2
*D43
 70
     1
 10
0.0
 20
0.0
 30
0.0
  3
*D43
  1

  0
LINE
  5
16818
330
164EE
100
AcDbEntity
  8
寸法線
 62
     0
440
 16777216
370
    -2
100
AcDbLine
 10
2819.97041183888
 20
631.250055172497
 30
0.0
 11
2819.97041183888
 21
525.0000734171061
 31
0.0
  0
LINE
  5
16819
330
164EE
100
AcDbEntity
  8
寸法線
 62
     0
440
 16777216
370
    -2
100
AcDbLine
 10
2857.470494989048
 20
646.2500734171062
 30
0.0
 11
2857.470494989048
 21
525.0000734171061
 31
0.0
  0
LINE
  5
1681A
330
164EE
100
AcDbEntity
  8
寸法線
 62
     0
440
 16777216
370
    -2
100
AcDbLine
 10
2799.97041183888
 20
535.0000734171061
 30
0.0
 11
2779.97041183888
 21
535.0000734171061
 31
0.0
  0
LINE
  5
1681B
330
164EE
100
AcDbEntity
  8
寸法線
 62
     0
440
 16777216
370
    -2
100
AcDbLine
 10
2877.470494989048
 20
535.0000734171061
 30
0.0
 11
2897.470494989048
 21
535.0000734171061
 31
0.0
  0
LINE
  5
1681C
330
164EE
100
AcDbEntity
  8
寸法線
 62
     0
440
 16777216
370
    -2
100
AcDbLine
 10
2819.97041183888
 20
535.0000734171061
 30
0.0
 11
2857.470494989048
 21
535.0000734171061
 31
0.0
  0
INSERT
  5
1681D
330
164EE
100
AcDbEntity
  8
寸法線
 62
     0
440
 16777216
370
    -2
100
AcDbBlockReference
  2
_OPEN
 10
2819.97041183888
 20
535.0000734171061
 30
0.0
 41
20.0
 42
20.0
 43
20.0
  0
INSERT
  5
1681E
330
164EE
100
AcDbEntity
  8
寸法線
 62
     0
440
 16777216
370
    -2
100
AcDbBlockReference
  2
_OPEN
 10
2857.470494989048
 20
535.0000734171061
 30
0.0
 41
20.0
 42
20.0
 43
20.0
 50
180.0
  0
MTEXT
  5
1681F
330
164EE
100
AcDbEntity
  8
寸法線
 62
     0
440
 16777216
100
AcDbMText
 10
2838.720453413964
 20
556.2500734171061
 30
0.0
 40
25.0
 41
0.0
 46
0.0
 71
     5
 72
     1
  1
\A1;37.5
 73
     1
 44
1.0
  0
POINT
  5
16820
330
164EE
100
AcDbEntity
  8
Defpoints
 62
     0
440
 16777216
100
AcDbPoint
 10
2819.97041183888
 20
640.000055172497
 30
0.0
  0
POINT
  5
16821
330
164EE
100
AcDbEntity
  8
Defpoints
 62
     0
440
 16777216
100
AcDbPoint
 10
2857.470494989048
 20
655.0000734171062
 30
0.0
  0
POINT
  5
16822
330
164EE
100
AcDbEntity
  8
Defpoints
 62
     0
440
 16777216
100
AcDbPoint
 10
2857.470494989048
 20
535.0000734171061
 30
0.0
  0
ENDBLK
  5
164F0
330
164EE
100
AcDbEntity
  8
0
100
AcDbBlockEnd
  0
BLOCK
  5
164FD
330
164FC
100
AcDbEntity
  8
0
100
AcDbBlockBegin
  2
*D44
 70
     1
 10
0.0
 20
0.0
 30
0.0
  3
*D44
  1

  0
LINE
  5
16823
330
164FC
100
AcDbEntity
  8
寸法線
 62
     0
440
 16777216
370
    -2
100
AcDbLine
 10
2524.97041183888
 20
631.250055172497
 30
0.0
 11
2524.97041183888
 21
525.0000734171061
 31
0.0
  0
LINE
  5
16824
330
164FC
100
AcDbEntity
  8
寸法線
 62
     0
440
 16777216
370
    -2
100
AcDbLine
 10
2487.470528688722
 20
646.2500734171062
 30
0.0
 11
2487.470528688722
 21
525.0000734171061
 31
0.0
  0
LINE
  5
16825
330
164FC
100
AcDbEntity
  8
寸法線
 62
     0
440
 16777216
370
    -2
100
AcDbLine
 10
2544.97041183888
 20
535.0000734171061
 30
0.0
 11
2564.97041183888
 21
535.0000734171061
 31
0.0
  0
LINE
  5
16826
330
164FC
100
AcDbEntity
  8
寸法線
 62
     0
440
 16777216
370
    -2
100
AcDbLine
 10
2467.470528688722
 20
535.0000734171061
 30
0.0
 11
2447.470528688722
 21
535.0000734171061
 31
0.0
  0
LINE
  5
16827
330
164FC
100
AcDbEntity
  8
寸法線
 62
     0
440
 16777216
370
    -2
100
AcDbLine
 10
2524.97041183888
 20
535.0000734171061
 30
0.0
 11
2487.470528688722
 21
535.0000734171061
 31
0.0
  0
INSERT
  5
16828
330
164FC
100
AcDbEntity
  8
寸法線
 62
     0
440
 16777216
370
    -2
100
AcDbBlockReference
  2
_OPEN
 10
2524.97041183888
 20
535.0000734171061
 30
0.0
 41
20.0
 42
20.0
 43
20.0
 50
180.0
  0
INSERT
  5
16829
330
164FC
100
AcDbEntity
  8
寸法線
 62
     0
440
 16777216
370
    -2
100
AcDbBlockReference
  2
_OPEN
 10
2487.470528688722
 20
535.0000734171061
 30
0.0
 41
20.0
 42
20.0
 43
20.0
  0
MTEXT
  5
1682A
330
164FC
100
AcDbEntity
  8
寸法線
 62
     0
440
 16777216
100
AcDbMText
 10
2506.220470263801
 20
556.2500734171061
 30
0.0
 40
25.0
 41
0.0
 46
0.0
 71
     5
 72
     1
  1
\A1;37.5
 73
     1
 44
1.0
  0
POINT
  5
1682B
330
164FC
100
AcDbEntity
  8
Defpoints
 62
     0
440
 16777216
100
AcDbPoint
 10
2524.97041183888
 20
640.000055172497
 30
0.0
  0
POINT
  5
1682C
330
164FC
100
AcDbEntity
  8
Defpoints
 62
     0
440
 16777216
100
AcDbPoint
 10
2487.470528688722
 20
655.0000734171062
 30
0.0
  0
POINT
  5
1682D
330
164FC
100
AcDbEntity
  8
Defpoints
 62
     0
440
 16777216
100
AcDbPoint
 10
2487.470528688722
 20
535.0000734171061
 30
0.0
  0
ENDBLK
  5
164FE
330
164FC
100
AcDbEntity
  8
0
100
AcDbBlockEnd
  0
BLOCK
  5
16933
330
16932
100
AcDbEntity
  8
0
100
AcDbBlockBegin
  2
*D45
 70
     1
 10
0.0
 20
0.0
 30
0.0
  3
*D45
  1

  0
LINE
  5
1693F
330
16932
100
AcDbEntity
  8
寸法線
 62
     0
440
 16777216
370
    -2
100
AcDbLine
 10
-8.750000000000001
 20
1683.580409933517
 30
0.0
 11
-767.122882445294
 21
1683.580409933516
 31
0.0
  0
LINE
  5
16940
330
16932
100
AcDbEntity
  8
寸法線
 62
     0
440
 16777216
370
    -2
100
AcDbLine
 10
-8.750000000000001
 20
2245.0
 30
0.0
 11
-767.1228824452941
 21
2245.0
 31
0.0
  0
LINE
  5
16941
330
16932
100
AcDbEntity
  8
寸法線
 62
     0
440
 16777216
370
    -2
100
AcDbLine
 10
-757.1228824452941
 20
1703.580409933517
 30
0.0
 11
-757.1228824452941
 21
2225.0
 31
0.0
  0
INSERT
  5
16942
330
16932
100
AcDbEntity
  8
寸法線
 62
     0
440
 16777216
370
    -2
100
AcDbBlockReference
  2
_OPEN
 10
-757.1228824452941
 20
1683.580409933516
 30
0.0
 41
20.0
 42
20.0
 43
20.0
 50
270.0
  0
INSERT
  5
16943
330
16932
100
AcDbEntity
  8
寸法線
 62
     0
440
 16777216
370
    -2
100
AcDbBlockReference
  2
_OPEN
 10
-757.1228824452941
 20
2245.0
 30
0.0
 41
20.0
 42
20.0
 43
20.0
 50
90.0
  0
MTEXT
  5
16944
330
16932
100
AcDbEntity
  8
寸法線
 62
     0
440
 16777216
100
AcDbMText
 10
-778.3753430752148
 20
1964.290204966758
 30
0.0
 40
25.0
 41
0.0
 46
0.0
 71
     5
 72
     1
  1
\A1;561.42
 11
0.0000000000000001
 21
1.0
 31
0.0
 73
     1
 44
1.0
  0
POINT
  5
16945
330
16932
100
AcDbEntity
  8
Defpoints
 62
     0
440
 16777216
100
AcDbPoint
 10
0.0
 20
1683.580409933517
 30
0.0
  0
POINT
  5
16946
330
16932
100
AcDbEntity
  8
Defpoints
 62
     0
440
 16777216
100
AcDbPoint
 10
0.0
 20
2245.0
 30
0.0
  0
POINT
  5
16947
330
16932
100
AcDbEntity
  8
Defpoints
 62
     0
440
 16777216
100
AcDbPoint
 10
-757.1228824452941
 20
2245.0
 30
0.0
  0
ENDBLK
  5
16934
330
16932
100
AcDbEntity
  8
0
100
AcDbBlockEnd
  0
BLOCK
  5
16994
330
16993
100
AcDbEntity
  8
0
100
AcDbBlockBegin
  2
*D46
 70
     1
 10
0.0
 20
0.0
 30
0.0
  3
*D46
  1

  0
LINE
  5
16A59
330
16993
100
AcDbEntity
  8
寸法線
 62
     0
440
 16777216
370
    -2
100
AcDbLine
 10
518.7499639829159
 20
2270.0
 30
0.0
 11
-428.3826886456743
 21
2270.0
 31
0.0
  0
LINE
  5
16A5A
330
16993
100
AcDbEntity
  8
寸法線
 62
     0
440
 16777216
370
    -2
100
AcDbLine
 10
518.7499639829159
 20
1670.0
 30
0.0
 11
-428.3826886456743
 21
1670.0
 31
0.0
  0
LINE
  5
16A5B
330
16993
100
AcDbEntity
  8
寸法線
 62
     0
440
 16777216
370
    -2
100
AcDbLine
 10
-418.3826886456743
 20
2250.0
 30
0.0
 11
-418.3826886456742
 21
1690.0
 31
0.0
  0
INSERT
  5
16A5C
330
16993
100
AcDbEntity
  8
寸法線
 62
     0
440
 16777216
370
    -2
100
AcDbBlockReference
  2
_OPEN
 10
-418.3826886456743
 20
2270.0
 30
0.0
 41
20.0
 42
20.0
 43
20.0
 50
90.0
  0
INSERT
  5
16A5D
330
16993
100
AcDbEntity
  8
寸法線
 62
     0
440
 16777216
370
    -2
100
AcDbBlockReference
  2
_OPEN
 10
-418.3826886456742
 20
1670.0
 30
0.0
 41
20.0
 42
20.0
 43
20.0
 50
270.0
  0
MTEXT
  5
16A5E
330
16993
100
AcDbEntity
  8
寸法線
 62
     0
440
 16777216
100
AcDbMText
 10
-439.6326886456736
 20
1969.999999999999
 30
0.0
 40
25.0
 41
0.0
 46
0.0
 71
     5
 72
     1
  1
\A1;600
 11
0.0000000000000001
 21
1.0
 31
0.0
 73
     1
 44
1.0
  0
POINT
  5
16A5F
330
16993
100
AcDbEntity
  8
Defpoints
 62
     0
440
 16777216
100
AcDbPoint
 10
527.4999639829159
 20
2270.0
 30
0.0
  0
POINT
  5
16A60
330
16993
100
AcDbEntity
  8
Defpoints
 62
     0
440
 16777216
100
AcDbPoint
 10
527.4999639829159
 20
1670.0
 30
0.0
  0
POINT
  5
16A61
330
16993
100
AcDbEntity
  8
Defpoints
 62
     0
440
 16777216
100
AcDbPoint
 10
-418.3826886456742
 20
1670.0
 30
0.0
  0
ENDBLK
  5
16995
330
16993
100
AcDbEntity
  8
0
100
AcDbBlockEnd
  0
BLOCK
  5
16A72
330
16A71
100
AcDbEntity
  8
0
100
AcDbBlockBegin
  2
*D47
 70
     1
 10
0.0
 20
0.0
 30
0.0
  3
*D47
  1

  0
LINE
  5
16A7E
330
16A71
100
AcDbEntity
  8
寸法線
 62
     0
440
 16777216
370
    -2
100
AcDbLine
 10
-8.750000000000001
 20
2970.000000000001
 30
0.0
 11
-710.3749255577938
 21
2970.000000000001
 31
0.0
  0
LINE
  5
16A7F
330
16A71
100
AcDbEntity
  8
寸法線
 62
     0
440
 16777216
370
    -2
100
AcDbLine
 10
423.749944169806
 20
2269.999995864483
 30
0.0
 11
-710.3749255577935
 21
2269.999995864483
 31
0.0
  0
LINE
  5
16A80
330
16A71
100
AcDbEntity
  8
寸法線
 62
     0
440
 16777216
370
    -2
100
AcDbLine
 10
-700.3749255577937
 20
2950.000000000001
 30
0.0
 11
-700.3749255577935
 21
2289.999995864483
 31
0.0
  0
INSERT
  5
16A81
330
16A71
100
AcDbEntity
  8
寸法線
 62
     0
440
 16777216
370
    -2
100
AcDbBlockReference
  2
_OPEN
 10
-700.3749255577937
 20
2970.000000000001
 30
0.0
 41
20.0
 42
20.0
 43
20.0
 50
90.0
  0
INSERT
  5
16A82
330
16A71
100
AcDbEntity
  8
寸法線
 62
     0
440
 16777216
370
    -2
100
AcDbBlockReference
  2
_OPEN
 10
-700.3749255577935
 20
2269.999995864483
 30
0.0
 41
20.0
 42
20.0
 43
20.0
 50
270.0
  0
MTEXT
  5
16A83
330
16A71
100
AcDbEntity
  8
寸法線
 62
     0
440
 16777216
100
AcDbMText
 10
-721.6249255577928
 20
2619.999997932242
 30
0.0
 40
25.0
 41
0.0
 46
0.0
 71
     5
 72
     1
  1
\A1;700
 11
0.0000000000000001
 21
1.0
 31
0.0
 73
     1
 44
1.0
  0
POINT
  5
16A84
330
16A71
100
AcDbEntity
  8
Defpoints
 62
     0
440
 16777216
100
AcDbPoint
 10
0.0
 20
2970.000000000001
 30
0.0
  0
POINT
  5
16A85
330
16A71
100
AcDbEntity
  8
Defpoints
 62
     0
440
 16777216
100
AcDbPoint
 10
432.4999441698061
 20
2269.999995864483
 30
0.0
  0
POINT
  5
16A86
330
16A71
100
AcDbEntity
  8
Defpoints
 62
     0
440
 16777216
100
AcDbPoint
 10
-700.3749255577935
 20
2269.999995864483
 30
0.0
  0
ENDBLK
  5
16A73
330
16A71
100
AcDbEntity
  8
0
100
AcDbBlockEnd
  0
BLOCK
  5
16A8A
330
16A89
100
AcDbEntity
  8
0
100
AcDbBlockBegin
  2
*D48
 70
     1
 10
0.0
 20
0.0
 30
0.0
  3
*D48
  1

  0
LINE
  5
16A8C
330
16A89
100
AcDbEntity
  8
寸法線
 62
     0
440
 16777216
370
    -2
100
AcDbLine
 10
389.9999441698066
 20
2269.999995864484
 30
0.0
 11
-710.3749255577936
 21
2269.999995864484
 31
0.0
  0
LINE
  5
16A8D
330
16A89
100
AcDbEntity
  8
寸法線
 62
     0
440
 16777216
370
    -2
100
AcDbLine
 10
423.7499441698061
 20
1670.000018609837
 30
0.0
 11
-710.3749255577936
 21
1670.000018609837
 31
0.0
  0
LINE
  5
16A8E
330
16A89
100
AcDbEntity
  8
寸法線
 62
     0
440
 16777216
370
    -2
100
AcDbLine
 10
-700.3749255577937
 20
2249.999995864484
 30
0.0
 11
-700.3749255577936
 21
1690.000018609836
 31
0.0
  0
INSERT
  5
16A8F
330
16A89
100
AcDbEntity
  8
寸法線
 62
     0
440
 16777216
370
    -2
100
AcDbBlockReference
  2
_OPEN
 10
-700.3749255577937
 20
2269.999995864484
 30
0.0
 41
20.0
 42
20.0
 43
20.0
 50
90.0
  0
INSERT
  5
16A90
330
16A89
100
AcDbEntity
  8
寸法線
 62
     0
440
 16777216
370
    -2
100
AcDbBlockReference
  2
_OPEN
 10
-700.3749255577936
 20
1670.000018609837
 30
0.0
 41
20.0
 42
20.0
 43
20.0
 50
270.0
  0
MTEXT
  5
16A91
330
16A89
100
AcDbEntity
  8
寸法線
 62
     0
440
 16777216
100
AcDbMText
 10
-721.624925557793
 20
1970.00000723716
 30
0.0
 40
25.0
 41
0.0
 46
0.0
 71
     5
 72
     1
  1
\A1;600
 11
0.0000000000000001
 21
1.0
 31
0.0
 73
     1
 44
1.0
  0
POINT
  5
16A92
330
16A89
100
AcDbEntity
  8
Defpoints
 62
     0
440
 16777216
100
AcDbPoint
 10
398.7499441698066
 20
2269.999995864484
 30
0.0
  0
POINT
  5
16A93
330
16A89
100
AcDbEntity
  8
Defpoints
 62
     0
440
 16777216
100
AcDbPoint
 10
432.4999441698062
 20
1670.000018609837
 30
0.0
  0
POINT
  5
16A94
330
16A89
100
AcDbEntity
  8
Defpoints
 62
     0
440
 16777216
100
AcDbPoint
 10
-700.3749255577936
 20
1670.000018609837
 30
0.0
  0
ENDBLK
  5
16A8B
330
16A89
100
AcDbEntity
  8
0
100
AcDbBlockEnd
  0
ENDSEC
  0
SECTION
  2
ENTITIES
  0
TEXT
  5
9AEE
330
1F
100
AcDbEntity
  8
寸法線
100
AcDbText
 10
1939.1365
 20
881.8039999999998
 30
0.0
 40
25.0
  1

 11
1939.1365
 21
881.8039999999998
 31
0.0
100
AcDbText
 73
     1
  0
LWPOLYLINE
  5
1592B
330
1F
100
AcDbEntity
  8
Defpoints
100
AcDbPolyline
 90
        4
 70
     1
 43
0.0
 10
0.0
 20
0.0
 10
4200.0
 20
0.0
 10
4200.0
 20
2970.0
 10
0.0
 20
2970.0
  0
LWPOLYLINE
  5
1592C
330
1F
100
AcDbEntity
  8
Defpoints
100
AcDbPolyline
 90
        4
 70
     1
 43
0.0
 10
69.00399999999989
 20
69.10750000000007
 10
4130.995999999998
 20
69.10750000000007
 10
4130.995999999998
 20
2900.8925
 10
69.00399999999989
 20
2900.8925
  0
LINE
  5
1592D
330
1F
100
AcDbEntity
  8
中心線
100
AcDbLine
 10
527.4999639829156
 20
2269.999999999999
 30
0.0
 11
2877.499963982916
 21
2269.999999999999
 31
0.0
  0
LINE
  5
1592E
330
1F
100
AcDbEntity
  8
中心線
100
AcDbLine
 10
527.4999639829156
 20
1669.999999999999
 30
0.0
 11
2877.499963982916
 21
1669.999999999999
 31
0.0
  0
DIMENSION
  5
1592F
330
1F
100
AcDbEntity
  8
寸法線
100
AcDbDimension
280
     0
  2
*D4
 10
2352.499979077721
 20
1334.999999999999
 30
0.0
 11
1702.499979077721
 21
1356.249999999999
 31
0.0
 70
    32
 71
     5
 42
1300.0
 73
     0
 74
     0
 75
     0
  3
STANDARD
100
AcDbAlignedDimension
 13
1052.499979077721
 23
1485.000038922454
 33
0.0
 14
2352.499979077721
 24
1485.000038922454
 34
0.0
100
AcDbRotatedDimension
  0
DIMENSION
  5
15930
330
1F
100
AcDbEntity
  8
寸法線
100
AcDbDimension
280
     0
  2
*D5
 10
1052.499979077721
 20
1334.999999999999
 30
0.0
 11
802.4999616237632
 21
1356.249999999999
 31
0.0
 70
    32
 71
     5
 42
500.0000349079154
 73
     0
 74
     0
 75
     0
  3
STANDARD
100
AcDbAlignedDimension
 13
552.4999441698055
 23
1494.999999999999
 33
0.0
 14
1052.499979077721
 24
1485.000038922454
 34
0.0
100
AcDbRotatedDimension
  0
DIMENSION
  5
15931
330
1F
100
AcDbEntity
  8
寸法線
100
AcDbDimension
280
     0
  2
*D6
 10
432.499944169806
 20
1494.999999999999
 30
0.0
 11
432.4999441698063
 21
1669.999999999999
 31
0.0
 70
   160
 71
     5
 42
350.0000372196735
 73
     0
 74
     0
 75
     0
  3
STANDARD
100
AcDbAlignedDimension
 13
552.4999441698055
 23
1845.000037219672
 33
0.0
 14
552.4999441698055
 24
1494.999999999999
 34
0.0
 50
90.0
100
AcDbRotatedDimension
  0
DIMENSION
  5
15932
330
1F
100
AcDbEntity
  8
寸法線
100
AcDbDimension
280
     0
  2
*D7
 10
568.4999639829157
 20
2604.999942832917
 30
0.0
 11
560.4999540763606
 21
2604.999942832917
 31
0.0
 70
   160
 71
     5
 42
16.00001981311016
 73
     0
 74
     0
 75
     0
  3
STANDARD
100
AcDbAlignedDimension
 13
552.4999441698055
 23
2438.000037219678
 33
0.0
 14
568.4999639829157
 24
2444.999999999999
 34
0.0
100
AcDbRotatedDimension
  0
DIMENSION
  5
15933
330
1F
100
AcDbEntity
  8
寸法線
100
AcDbDimension
280
     0
  2
*D8
 10
1052.499979077721
 20
2604.999942832917
 30
0.0
 11
810.499971530301
 21
2604.999942832917
 31
0.0
 70
   160
 71
     5
 42
484.0000150948053
 73
     0
 74
     0
 75
     0
  3
STANDARD
100
AcDbAlignedDimension
 13
568.4999639829157
 23
2444.999999999999
 33
0.0
 14
1052.499979077721
 24
2455.000057167085
 34
0.0
100
AcDbRotatedDimension
  0
DIMENSION
  5
15934
330
1F
100
AcDbEntity
  8
寸法線
100
AcDbDimension
280
     0
  2
*D9
 10
432.4999441698059
 20
2094.999991728964
 30
0.0
 11
432.4999441698063
 21
2269.999999999999
 31
0.0
 70
   160
 71
     5
 42
350.0000082710362
 73
     0
 74
     0
 75
     0
  3
STANDARD
100
AcDbAlignedDimension
 13
568.4999639829157
 23
2444.999999999999
 33
0.0
 14
568.4999441698055
 24
2094.999991728963
 34
0.0
 50
90.0
100
AcDbRotatedDimension
  0
DIMENSION
  5
15935
330
1F
100
AcDbEntity
  8
寸法線
100
AcDbDimension
280
     0
  2
*D10
 10
2836.499924356698
 20
2604.999942832917
 30
0.0
 11
2844.499934263253
 21
2604.999942832917
 31
0.0
 70
   160
 71
     5
 42
16.0000198131097
 73
     0
 74
     0
 75
     0
  3
STANDARD
100
AcDbAlignedDimension
 13
2852.499944169808
 23
2438.000037219678
 33
0.0
 14
2836.499924356698
 24
2444.999999999999
 34
0.0
 50
180.0
100
AcDbRotatedDimension
  0
DIMENSION
  5
15936
330
1F
100
AcDbEntity
  8
寸法線
100
AcDbDimension
280
     0
  2
*D11
 10
2352.499909261894
 20
2604.999942832917
 30
0.0
 11
2594.499916809296
 21
2604.999942832917
 31
0.0
 70
   160
 71
     5
 42
484.0000150948039
 73
     0
 74
     0
 75
     0
  3
STANDARD
100
AcDbAlignedDimension
 13
2836.499924356698
 23
2444.999999999999
 33
0.0
 14
2352.499909261894
 24
2455.000057167085
 34
0.0
 50
180.0
100
AcDbRotatedDimension
  0
DIMENSION
  5
15937
330
1F
100
AcDbEntity
  8
寸法線
100
AcDbDimension
280
     0
  2
*D12
 10
1052.499979077721
 20
2684.999942832917
 30
0.0
 11
802.4999616237629
 21
2684.999942832917
 31
0.0
 70
   160
  1
<>\XH型鋼（連結部）
 71
     5
 42
500.0000349079154
 73
     0
 74
     0
 75
     0
  3
STANDARD
100
AcDbAlignedDimension
 13
552.4999441698055
 23
2438.000037219678
 33
0.0
 14
1052.499979077721
 24
2455.000057167085
 34
0.0
100
AcDbRotatedDimension
  0
DIMENSION
  5
15938
330
1F
100
AcDbEntity
  8
寸法線
100
AcDbDimension
280
     0
  2
*D13
 10
2852.499944169808
 20
2684.999942832917
 30
0.0
 11
2602.499926715851
 21
2684.999942832917
 31
0.0
 70
   160
  1
<>\XH型鋼（連結部）
 71
     5
 42
500.0000349079137
 73
     0
 74
     0
 75
     0
  3
STANDARD
100
AcDbAlignedDimension
 13
2352.499909261894
 23
2455.000057167085
 33
0.0
 14
2852.499944169808
 24
2438.000037219678
 34
0.0
100
AcDbRotatedDimension
  0
DIMENSION
  5
15939
330
1F
100
AcDbEntity
  8
寸法線
100
AcDbDimension
280
     0
  2
*D14
 10
2972.499963982916
 20
2101.999962780326
 30
0.0
 11
2972.499963982916
 21
2269.999999999999
 31
0.0
 70
   160
 71
     5
 42
336.0000744393524
 73
     0
 74
     0
 75
     0
  3
STANDARD
100
AcDbAlignedDimension
 13
2852.499944169808
 23
2438.000037219678
 33
0.0
 14
2852.499944169808
 24
2101.999962780325
 34
0.0
 50
90.0
100
AcDbRotatedDimension
  0
DIMENSION
  5
1593A
330
1F
100
AcDbEntity
  8
寸法線
100
AcDbDimension
280
     0
  2
*D15
 10
2352.499975704221
 20
1335.000000000008
 30
0.0
 11
2602.499976179903
 21
1356.249994377512
 31
0.0
 70
    32
 71
     5
 42
499.9999999955393
 73
     0
 74
     0
 75
     0
  3
STANDARD
100
AcDbAlignedDimension
 13
2852.499979298156
 23
1494.999968964711
 33
0.0
 14
2352.499979077718
 24
1485.00000170278
 34
0.0
 50
179.9999987114188
100
AcDbRotatedDimension
  0
DIMENSION
  5
1593B
330
1F
100
AcDbEntity
  8
寸法線
100
AcDbDimension
280
     0
  2
*D16
 10
2352.499979077718
 20
2684.999942832917
 30
0.0
 11
1702.499979077718
 21
2684.999942832917
 31
0.0
 70
    32
  1
W=<>\X空洞金具
 71
     5
 42
1300.0
 73
     0
 74
     0
 75
     0
  3
STANDARD
100
AcDbAlignedDimension
 13
1052.499979077718
 23
2454.999999999999
 33
0.0
 14
2352.499979077718
 24
2455.000001702781
 34
0.0
100
AcDbRotatedDimension
  0
DIMENSION
  5
1593C
330
1F
100
AcDbEntity
  8
寸法線
100
AcDbDimension
280
     0
  2
*D17
 10
2852.499944169808
 20
2764.999942832917
 30
0.0
 11
1702.499944169806
 21
2786.252403462838
 31
0.0
 70
    32
  1
スルーサーＢ L=<>
 71
     5
 42
2300.000000000002
 73
     0
 74
     0
 75
     0
  3
STANDARD
100
AcDbAlignedDimension
 13
552.4999441698055
 23
2438.000037219678
 33
0.0
 14
2852.499944169808
 24
2438.000037219678
 34
0.0
100
AcDbRotatedDimension
  0
LINE
  5
1593D
330
1F
100
AcDbEntity
  8
実線
100
AcDbLine
 10
1068.499979077718
 20
2085.00001994741
 30
0.0
 11
1068.499979077718
 21
2455.00001994741
 31
0.0
  0
LINE
  5
1593E
330
1F
100
AcDbEntity
  8
実線
100
AcDbLine
 10
1052.499979077718
 20
2455.000001702781
 30
0.0
 11
1068.499979077718
 21
2455.000001702781
 31
0.0
  0
LINE
  5
1593F
330
1F
100
AcDbEntity
  8
実線
100
AcDbLine
 10
1052.499979077718
 20
2085.000001702781
 30
0.0
 11
1068.499979077718
 21
2085.000001702781
 31
0.0
  0
LINE
  5
15940
330
1F
100
AcDbEntity
  8
実線
100
AcDbLine
 10
1080.499979077718
 20
2145.500001702781
 30
0.0
 11
1100.499979077718
 21
2145.500001702781
 31
0.0
  0
LINE
  5
15941
330
1F
100
AcDbEntity
  8
実線
100
AcDbLine
 10
1100.499979077718
 20
2145.500001702781
 30
0.0
 11
1100.499979077718
 21
2394.50000170278
 31
0.0
  0
LINE
  5
15942
330
1F
100
AcDbEntity
  8
実線
100
AcDbLine
 10
2304.499979077718
 20
2145.500001702781
 30
0.0
 11
2304.499979077718
 21
2394.50000170278
 31
0.0
  0
LINE
  5
15943
330
1F
100
AcDbEntity
  8
実線
100
AcDbLine
 10
2304.499979077718
 20
2145.500001702781
 30
0.0
 11
2324.499979077718
 21
2145.500001702781
 31
0.0
  0
LINE
  5
15944
330
1F
100
AcDbEntity
  8
実線
100
AcDbLine
 10
1068.499979077718
 20
2157.50000170278
 30
0.0
 11
1080.499979077718
 21
2145.500001702781
 31
0.0
  0
LINE
  5
15945
330
1F
100
AcDbEntity
  8
実線
100
AcDbLine
 10
2324.499979077718
 20
2145.500001702781
 30
0.0
 11
2336.499979077718
 21
2157.50000170278
 31
0.0
  0
LINE
  5
15946
330
1F
100
AcDbEntity
  8
実線
100
AcDbLine
 10
1068.499979077718
 20
2150.000001702781
 30
0.0
 11
1075.499979077718
 21
2150.000001702781
 31
0.0
  0
LINE
  5
15947
330
1F
100
AcDbEntity
  8
実線
100
AcDbLine
 10
1068.499979077718
 20
2095.00000170278
 30
0.0
 11
1494.500030870232
 21
2095.00000170278
 31
0.0
  0
LINE
  5
15948
330
1F
100
AcDbEntity
  8
実線
100
AcDbLine
 10
2329.499979077718
 20
2150.000001702781
 30
0.0
 11
2336.499979077718
 21
2150.000001702781
 31
0.0
  0
LINE
  5
15949
330
1F
100
AcDbEntity
  8
実線
100
AcDbLine
 10
1100.499979077718
 20
2150.000001702781
 30
0.0
 11
1494.500030870233
 21
2150.000001702781
 31
0.0
  0
LINE
  5
1594A
330
1F
100
AcDbEntity
  8
破線
100
AcDbLine
 10
1075.499979077718
 20
2150.000001702781
 30
0.0
 11
1100.499979077718
 21
2150.000001702781
 31
0.0
  0
LINE
  5
1594B
330
1F
100
AcDbEntity
  8
破線
100
AcDbLine
 10
2304.499979077718
 20
2150.000001702781
 30
0.0
 11
2329.499979077718
 21
2150.000001702781
 31
0.0
  0
LINE
  5
1594C
330
1F
100
AcDbEntity
  8
破線
100
AcDbLine
 10
1068.499979077718
 20
2107.00000170278
 30
0.0
 11
1100.499979077718
 21
2107.00000170278
 31
0.0
  0
LINE
  5
1594D
330
1F
100
AcDbEntity
  8
破線
100
AcDbLine
 10
1100.499979077718
 20
2107.00000170278
 30
0.0
 11
1100.499979077718
 21
2095.00000170278
 31
0.0
  0
LINE
  5
1594E
330
1F
100
AcDbEntity
  8
破線
100
AcDbLine
 10
2304.499979077718
 20
2390.000001702781
 30
0.0
 11
2329.499979077718
 21
2390.000001702781
 31
0.0
  0
LINE
  5
1594F
330
1F
100
AcDbEntity
  8
実線
100
AcDbLine
 10
1100.499979077718
 20
2390.000001702781
 30
0.0
 11
1494.500030870233
 21
2390.000001702781
 31
0.0
  0
LINE
  5
15950
330
1F
100
AcDbEntity
  8
実線
100
AcDbLine
 10
2329.499979077718
 20
2390.000001702781
 30
0.0
 11
2336.499979077718
 21
2390.000001702781
 31
0.0
  0
LINE
  5
15951
330
1F
100
AcDbEntity
  8
実線
100
AcDbLine
 10
1068.499979077718
 20
2445.00000170278
 30
0.0
 11
1494.500030870232
 21
2445.00000170278
 31
0.0
  0
LINE
  5
15952
330
1F
100
AcDbEntity
  8
実線
100
AcDbLine
 10
2304.499979077718
 20
2394.50000170278
 30
0.0
 11
2324.499979077718
 21
2394.50000170278
 31
0.0
  0
LINE
  5
15953
330
1F
100
AcDbEntity
  8
実線
100
AcDbLine
 10
2324.499979077718
 20
2394.50000170278
 30
0.0
 11
2336.499979077718
 21
2382.50000170278
 31
0.0
  0
LINE
  5
15954
330
1F
100
AcDbEntity
  8
破線
100
AcDbLine
 10
1068.499979077718
 20
2433.000001702781
 30
0.0
 11
1100.499979077718
 21
2433.000001702781
 31
0.0
  0
LINE
  5
15955
330
1F
100
AcDbEntity
  8
破線
100
AcDbLine
 10
1100.499979077718
 20
2433.000001702781
 30
0.0
 11
1100.499979077718
 21
2445.00000170278
 31
0.0
  0
LINE
  5
15956
330
1F
100
AcDbEntity
  8
破線
100
AcDbLine
 10
1075.499979077718
 20
2390.000001702781
 30
0.0
 11
1100.499979077718
 21
2390.000001702781
 31
0.0
  0
LINE
  5
15957
330
1F
100
AcDbEntity
  8
実線
100
AcDbLine
 10
1080.499979077718
 20
2394.50000170278
 30
0.0
 11
1100.499979077718
 21
2394.50000170278
 31
0.0
  0
LINE
  5
15958
330
1F
100
AcDbEntity
  8
実線
100
AcDbLine
 10
1068.499979077718
 20
2382.50000170278
 30
0.0
 11
1080.499979077718
 21
2394.50000170278
 31
0.0
  0
LINE
  5
15959
330
1F
100
AcDbEntity
  8
実線
100
AcDbLine
 10
1068.499979077718
 20
2390.000001702781
 30
0.0
 11
1075.499979077718
 21
2390.000001702781
 31
0.0
  0
LINE
  5
1595A
330
1F
100
AcDbEntity
  8
破線
100
AcDbLine
 10
2336.499979077718
 20
2107.00000170278
 30
0.0
 11
2304.499979077718
 21
2107.00000170278
 31
0.0
  0
LINE
  5
1595B
330
1F
100
AcDbEntity
  8
破線
100
AcDbLine
 10
2304.499979077718
 20
2107.00000170278
 30
0.0
 11
2304.499979077718
 21
2095.00000170278
 31
0.0
  0
LINE
  5
1595C
330
1F
100
AcDbEntity
  8
破線
100
AcDbLine
 10
2304.499979077718
 20
2433.000001702781
 30
0.0
 11
2304.499979077718
 21
2445.00000170278
 31
0.0
  0
LINE
  5
1595D
330
1F
100
AcDbEntity
  8
破線
100
AcDbLine
 10
2336.499979077718
 20
2433.000001702781
 30
0.0
 11
2304.499979077718
 21
2433.000001702781
 31
0.0
  0
LINE
  5
1595E
330
1F
100
AcDbEntity
  8
破線
100
AcDbLine
 10
1068.499979077718
 20
2276.000001702781
 30
0.0
 11
1100.499979077718
 21
2276.000001702781
 31
0.0
  0
LINE
  5
1595F
330
1F
100
AcDbEntity
  8
破線
100
AcDbLine
 10
1068.499979077718
 20
2264.00000170278
 30
0.0
 11
1100.499979077718
 21
2264.00000170278
 31
0.0
  0
LINE
  5
15960
330
1F
100
AcDbEntity
  8
破線
100
AcDbLine
 10
2304.499979077718
 20
2276.000001702781
 30
0.0
 11
2336.499979077718
 21
2276.000001702781
 31
0.0
  0
LINE
  5
15961
330
1F
100
AcDbEntity
  8
破線
100
AcDbLine
 10
2304.499979077718
 20
2264.00000170278
 30
0.0
 11
2336.499979077718
 21
2264.00000170278
 31
0.0
  0
LINE
  5
15962
330
1F
100
AcDbEntity
  8
実線
100
AcDbLine
 10
2336.499979077718
 20
2085.00001994741
 30
0.0
 11
2336.499979077718
 21
2455.00001994741
 31
0.0
  0
LINE
  5
15963
330
1F
100
AcDbEntity
  8
実線
100
AcDbLine
 10
2352.499979077718
 20
2085.00001994741
 30
0.0
 11
2352.499979077718
 21
2455.00001994741
 31
0.0
  0
LINE
  5
15964
330
1F
100
AcDbEntity
  8
実線
100
AcDbLine
 10
2336.499979077718
 20
2455.000001702781
 30
0.0
 11
2352.499979077718
 21
2455.000001702781
 31
0.0
  0
LINE
  5
15965
330
1F
100
AcDbEntity
  8
実線
100
AcDbLine
 10
2336.499979077718
 20
2085.000001702781
 30
0.0
 11
2352.499979077718
 21
2085.000001702781
 31
0.0
  0
LINE
  5
15966
330
1F
100
AcDbEntity
  8
中心線
100
AcDbLine
 10
1042.499979077718
 20
2122.500019947406
 30
0.0
 11
2362.500082662745
 21
2122.500019947406
 31
0.0
  0
LINE
  5
15967
330
1F
100
AcDbEntity
  8
中心線
100
AcDbLine
 10
1042.499979077718
 20
2417.50001994741
 30
0.0
 11
2362.500082662745
 21
2417.50001994741
 31
0.0
  0
LINE
  5
15968
330
1F
100
AcDbEntity
  8
実線
100
AcDbLine
 10
1068.499979077718
 20
1485.00001994741
 30
0.0
 11
1068.499979077718
 21
1855.00001994741
 31
0.0
  0
LINE
  5
15969
330
1F
100
AcDbEntity
  8
実線
100
AcDbLine
 10
1052.499979077718
 20
1855.000001702781
 30
0.0
 11
1068.499979077718
 21
1855.000001702781
 31
0.0
  0
LINE
  5
1596A
330
1F
100
AcDbEntity
  8
実線
100
AcDbLine
 10
1052.499979077718
 20
1485.000001702781
 30
0.0
 11
1068.499979077718
 21
1485.000001702781
 31
0.0
  0
LINE
  5
1596B
330
1F
100
AcDbEntity
  8
実線
100
AcDbLine
 10
1080.499979077718
 20
1545.500001702781
 30
0.0
 11
1100.499979077718
 21
1545.500001702781
 31
0.0
  0
LINE
  5
1596C
330
1F
100
AcDbEntity
  8
実線
100
AcDbLine
 10
1100.499979077718
 20
1545.500001702781
 30
0.0
 11
1100.499979077718
 21
1794.500001702781
 31
0.0
  0
LINE
  5
1596D
330
1F
100
AcDbEntity
  8
実線
100
AcDbLine
 10
2304.499979077718
 20
1545.500001702781
 30
0.0
 11
2304.499979077718
 21
1794.500001702781
 31
0.0
  0
LINE
  5
1596E
330
1F
100
AcDbEntity
  8
実線
100
AcDbLine
 10
2304.499979077718
 20
1545.500001702781
 30
0.0
 11
2324.499979077718
 21
1545.500001702781
 31
0.0
  0
LINE
  5
1596F
330
1F
100
AcDbEntity
  8
実線
100
AcDbLine
 10
1068.499979077718
 20
1557.500001702781
 30
0.0
 11
1080.499979077718
 21
1545.500001702781
 31
0.0
  0
LINE
  5
15970
330
1F
100
AcDbEntity
  8
実線
100
AcDbLine
 10
2324.499979077718
 20
1545.500001702781
 30
0.0
 11
2336.499979077718
 21
1557.500001702781
 31
0.0
  0
LINE
  5
15971
330
1F
100
AcDbEntity
  8
実線
100
AcDbLine
 10
1068.499979077718
 20
1550.000001702781
 30
0.0
 11
1075.499979077718
 21
1550.000001702781
 31
0.0
  0
LINE
  5
15972
330
1F
100
AcDbEntity
  8
実線
100
AcDbLine
 10
1068.499979077718
 20
1495.000001702781
 30
0.0
 11
1494.500030870232
 21
1495.000001702781
 31
0.0
  0
LINE
  5
15973
330
1F
100
AcDbEntity
  8
実線
100
AcDbLine
 10
2329.499979077718
 20
1550.000001702781
 30
0.0
 11
2336.499979077718
 21
1550.000001702781
 31
0.0
  0
LINE
  5
15974
330
1F
100
AcDbEntity
  8
実線
100
AcDbLine
 10
1100.499979077718
 20
1550.000001702781
 30
0.0
 11
1494.500030870233
 21
1550.000001702781
 31
0.0
  0
LINE
  5
15975
330
1F
100
AcDbEntity
  8
破線
100
AcDbLine
 10
1075.499979077718
 20
1550.000001702781
 30
0.0
 11
1100.499979077718
 21
1550.000001702781
 31
0.0
  0
LINE
  5
15976
330
1F
100
AcDbEntity
  8
破線
100
AcDbLine
 10
2304.499979077718
 20
1550.000001702781
 30
0.0
 11
2329.499979077718
 21
1550.000001702781
 31
0.0
  0
LINE
  5
15977
330
1F
100
AcDbEntity
  8
破線
100
AcDbLine
 10
1068.499979077718
 20
1507.000001702781
 30
0.0
 11
1100.499979077718
 21
1507.000001702781
 31
0.0
  0
LINE
  5
15978
330
1F
100
AcDbEntity
  8
破線
100
AcDbLine
 10
1100.499979077718
 20
1507.000001702781
 30
0.0
 11
1100.499979077718
 21
1495.000001702781
 31
0.0
  0
LINE
  5
15979
330
1F
100
AcDbEntity
  8
破線
100
AcDbLine
 10
2304.499979077718
 20
1790.000001702781
 30
0.0
 11
2329.499979077718
 21
1790.000001702781
 31
0.0
  0
LINE
  5
1597A
330
1F
100
AcDbEntity
  8
実線
100
AcDbLine
 10
1100.499979077718
 20
1790.000001702781
 30
0.0
 11
1494.500030870233
 21
1790.000001702781
 31
0.0
  0
LINE
  5
1597B
330
1F
100
AcDbEntity
  8
実線
100
AcDbLine
 10
2329.499979077718
 20
1790.000001702781
 30
0.0
 11
2336.499979077718
 21
1790.000001702781
 31
0.0
  0
LINE
  5
1597C
330
1F
100
AcDbEntity
  8
実線
100
AcDbLine
 10
1068.499979077718
 20
1845.000001702781
 30
0.0
 11
1494.500030870232
 21
1845.000001702781
 31
0.0
  0
LINE
  5
1597D
330
1F
100
AcDbEntity
  8
実線
100
AcDbLine
 10
2304.499979077718
 20
1794.500001702781
 30
0.0
 11
2324.499979077718
 21
1794.500001702781
 31
0.0
  0
LINE
  5
1597E
330
1F
100
AcDbEntity
  8
実線
100
AcDbLine
 10
2324.499979077718
 20
1794.500001702781
 30
0.0
 11
2336.499979077718
 21
1782.500001702781
 31
0.0
  0
LINE
  5
1597F
330
1F
100
AcDbEntity
  8
破線
100
AcDbLine
 10
1068.499979077718
 20
1833.000001702781
 30
0.0
 11
1100.499979077718
 21
1833.000001702781
 31
0.0
  0
LINE
  5
15980
330
1F
100
AcDbEntity
  8
破線
100
AcDbLine
 10
1100.499979077718
 20
1833.000001702781
 30
0.0
 11
1100.499979077718
 21
1845.000001702781
 31
0.0
  0
LINE
  5
15981
330
1F
100
AcDbEntity
  8
破線
100
AcDbLine
 10
1075.499979077718
 20
1790.000001702781
 30
0.0
 11
1100.499979077718
 21
1790.000001702781
 31
0.0
  0
LINE
  5
15982
330
1F
100
AcDbEntity
  8
実線
100
AcDbLine
 10
1080.499979077718
 20
1794.500001702781
 30
0.0
 11
1100.499979077718
 21
1794.500001702781
 31
0.0
  0
LINE
  5
15983
330
1F
100
AcDbEntity
  8
実線
100
AcDbLine
 10
1068.499979077718
 20
1782.500001702781
 30
0.0
 11
1080.499979077718
 21
1794.500001702781
 31
0.0
  0
LINE
  5
15984
330
1F
100
AcDbEntity
  8
実線
100
AcDbLine
 10
1068.499979077718
 20
1790.000001702781
 30
0.0
 11
1075.499979077718
 21
1790.000001702781
 31
0.0
  0
LINE
  5
15985
330
1F
100
AcDbEntity
  8
破線
100
AcDbLine
 10
2336.499979077718
 20
1507.000001702781
 30
0.0
 11
2304.499979077718
 21
1507.000001702781
 31
0.0
  0
LINE
  5
15986
330
1F
100
AcDbEntity
  8
破線
100
AcDbLine
 10
2304.499979077718
 20
1507.000001702781
 30
0.0
 11
2304.499979077718
 21
1495.000001702781
 31
0.0
  0
LINE
  5
15987
330
1F
100
AcDbEntity
  8
破線
100
AcDbLine
 10
2304.499979077718
 20
1833.000001702781
 30
0.0
 11
2304.499979077718
 21
1845.000001702781
 31
0.0
  0
LINE
  5
15988
330
1F
100
AcDbEntity
  8
破線
100
AcDbLine
 10
2336.499979077718
 20
1833.000001702781
 30
0.0
 11
2304.499979077718
 21
1833.000001702781
 31
0.0
  0
LINE
  5
15989
330
1F
100
AcDbEntity
  8
破線
100
AcDbLine
 10
1068.499979077718
 20
1676.00000170278
 30
0.0
 11
1100.499979077718
 21
1676.00000170278
 31
0.0
  0
LINE
  5
1598A
330
1F
100
AcDbEntity
  8
破線
100
AcDbLine
 10
1068.499979077718
 20
1664.000001702781
 30
0.0
 11
1100.499979077718
 21
1664.000001702781
 31
0.0
  0
LINE
  5
1598B
330
1F
100
AcDbEntity
  8
破線
100
AcDbLine
 10
2304.499979077718
 20
1676.00000170278
 30
0.0
 11
2336.499979077718
 21
1676.00000170278
 31
0.0
  0
LINE
  5
1598C
330
1F
100
AcDbEntity
  8
破線
100
AcDbLine
 10
2304.499979077718
 20
1664.000001702781
 30
0.0
 11
2336.499979077718
 21
1664.000001702781
 31
0.0
  0
LINE
  5
1598D
330
1F
100
AcDbEntity
  8
実線
100
AcDbLine
 10
2336.499979077718
 20
1485.00001994741
 30
0.0
 11
2336.499979077718
 21
1855.00001994741
 31
0.0
  0
LINE
  5
1598E
330
1F
100
AcDbEntity
  8
実線
100
AcDbLine
 10
2336.499979077718
 20
1855.000001702781
 30
0.0
 11
2352.499979077718
 21
1855.000001702781
 31
0.0
  0
LINE
  5
1598F
330
1F
100
AcDbEntity
  8
実線
100
AcDbLine
 10
2336.499979077718
 20
1485.000001702781
 30
0.0
 11
2352.499979077718
 21
1485.000001702781
 31
0.0
  0
LINE
  5
15990
330
1F
100
AcDbEntity
  8
中心線
100
AcDbLine
 10
944.4999639829157
 20
1817.500019850008
 30
0.0
 11
2460.499979077719
 21
1817.500019850008
 31
0.0
  0
LINE
  5
15991
330
1F
100
AcDbEntity
  8
中心線
100
AcDbLine
 10
944.4999639829157
 20
1522.49998014999
 30
0.0
 11
2460.499979077719
 21
1522.49998014999
 31
0.0
  0
LINE
  5
15992
330
1F
100
AcDbEntity
  8
実線
100
AcDbLine
 10
3642.499963982916
 20
2444.999982593436
 30
0.0
 11
3292.499963982914
 21
2444.999982593436
 31
0.0
  0
LINE
  5
15993
330
1F
100
AcDbEntity
  8
実線
100
AcDbLine
 10
3292.499963982914
 20
2094.999982593436
 30
0.0
 11
3292.499963982914
 21
2444.999982593436
 31
0.0
  0
LINE
  5
15994
330
1F
100
AcDbEntity
  8
実線
100
AcDbLine
 10
3642.499963982916
 20
2094.999982593436
 30
0.0
 11
3292.499963982914
 21
2094.999982593436
 31
0.0
  0
LINE
  5
15995
330
1F
100
AcDbEntity
  8
実線
100
AcDbLine
 10
3642.499963982916
 20
2094.999982593436
 30
0.0
 11
3642.499963982916
 21
2444.999982593436
 31
0.0
  0
LINE
  5
15996
330
1F
100
AcDbEntity
  8
破線
100
AcDbLine
 10
3642.499963982916
 20
2425.999982593437
 30
0.0
 11
3486.499963982918
 21
2425.999982593437
 31
0.0
  0
LINE
  5
15997
330
1F
100
AcDbEntity
  8
破線
100
AcDbLine
 10
3473.499963982916
 20
2126.999942967218
 30
0.0
 11
3473.499963982916
 21
2412.999982593436
 31
0.0
  0
LINE
  5
15998
330
1F
100
AcDbEntity
  8
中心線
100
AcDbLine
 10
3467.499963982916
 20
2069.999962780329
 30
0.0
 11
3467.499963982916
 21
2469.999962780328
 31
0.0
  0
LINE
  5
15999
330
1F
100
AcDbEntity
  8
実線
100
AcDbLine
 10
3642.499963982916
 20
2437.999982593436
 30
0.0
 11
3292.499963982914
 21
2437.999982593436
 31
0.0
  0
LINE
  5
1599A
330
1F
100
AcDbEntity
  8
実線
100
AcDbLine
 10
3642.499963982916
 20
2101.999982593437
 30
0.0
 11
3292.499963982914
 21
2101.999982593437
 31
0.0
  0
DIMENSION
  5
1599B
330
1F
100
AcDbEntity
  8
寸法線
100
AcDbDimension
280
     0
  2
*D18
 10
3292.499963982914
 20
1974.999942967219
 30
0.0
 11
3467.499963982916
 21
1974.999942967219
 31
0.0
 70
   160
 71
     5
 42
350.0000000000023
 73
     0
 74
     0
 75
     0
  3
STANDARD
100
AcDbAlignedDimension
 13
3642.499963982916
 23
2094.999942967219
 33
0.0
 14
3292.499963982914
 24
2094.999942967219
 34
0.0
100
AcDbRotatedDimension
  0
DIMENSION
  5
1599C
330
1F
100
AcDbEntity
  8
寸法線
100
AcDbDimension
280
     0
  2
*D19
 10
3172.499963982914
 20
2094.999982593437
 30
0.0
 11
3172.499963982914
 21
2269.999962780327
 31
0.0
 70
   160
 71
     5
 42
350.0
 73
     0
 74
     0
 75
     0
  3
STANDARD
100
AcDbAlignedDimension
 13
3292.499963982914
 23
2444.999982593436
 33
0.0
 14
3292.499963982914
 24
2094.999982593436
 34
0.0
 50
270.0
100
AcDbRotatedDimension
  0
DIMENSION
  5
1599D
330
1F
100
AcDbEntity
  8
寸法線
100
AcDbDimension
280
     0
  2
*D20
 10
2972.50003379874
 20
2101.999977559132
 30
0.0
 11
2972.50003379874
 21
2270.000014778806
 31
0.0
 70
   160
 71
     5
 42
336.0000744393519
 73
     0
 74
     0
 75
     0
  3
STANDARD
100
AcDbAlignedDimension
 13
2852.500013985631
 23
2438.000051998483
 33
0.0
 14
2852.500013985631
 24
2101.999977559131
 34
0.0
 50
90.0
100
AcDbRotatedDimension
  0
LINE
  5
1599E
330
1F
100
AcDbEntity
  8
中心線
100
AcDbLine
 10
3667.499963982916
 20
2269.999962780327
 30
0.0
 11
3267.499963982916
 21
2269.999962780327
 31
0.0
  0
ARC
  5
1599F
330
1F
100
AcDbEntity
  8
破線
100
AcDbCircle
 10
3486.499963982918
 20
2412.999982593436
 30
0.0
 40
13.0
100
AcDbArc
 50
90.0
 51
180.0
  0
LINE
  5
159A0
330
1F
100
AcDbEntity
  8
破線
100
AcDbLine
 10
3642.499963982916
 20
2113.999942967218
 30
0.0
 11
3486.499963982918
 21
2113.999942967218
 31
0.0
  0
ARC
  5
159A1
330
1F
100
AcDbEntity
  8
破線
100
AcDbCircle
 10
3486.499963982918
 20
2126.999942967218
 30
0.0
 40
13.0
100
AcDbArc
 50
180.0
 51
270.0
  0
LINE
  5
159A2
330
1F
100
AcDbEntity
  8
破線
100
AcDbLine
 10
3292.499963982916
 20
2425.999982593437
 30
0.0
 11
3448.499963982916
 21
2425.999982593437
 31
0.0
  0
LINE
  5
159A3
330
1F
100
AcDbEntity
  8
破線
100
AcDbLine
 10
3461.499963982916
 20
2126.999942967218
 30
0.0
 11
3461.499963982916
 21
2412.999982593436
 31
0.0
  0
ARC
  5
159A4
330
1F
100
AcDbEntity
  8
破線
100
AcDbCircle
 10
3448.499963982916
 20
2412.999982593436
 30
0.0
 40
13.0
100
AcDbArc
 50
0.0
 51
90.0
  0
LINE
  5
159A5
330
1F
100
AcDbEntity
  8
破線
100
AcDbLine
 10
3292.499963982916
 20
2113.999942967219
 30
0.0
 11
3448.499963982916
 21
2113.999942967219
 31
0.0
  0
ARC
  5
159A6
330
1F
100
AcDbEntity
  8
破線
100
AcDbCircle
 10
3448.499963982916
 20
2126.999942967219
 30
0.0
 40
13.0
100
AcDbArc
 50
270.0
 51
0.0
  0
LINE
  5
159A7
330
1F
100
AcDbEntity
  8
破線
100
AcDbLine
 10
3623.500001202592
 20
2275.999962780327
 30
0.0
 11
3473.499963982916
 21
2275.999962780327
 31
0.0
  0
LINE
  5
159A8
330
1F
100
AcDbEntity
  8
破線
100
AcDbLine
 10
3623.500001202592
 20
2263.999962780328
 30
0.0
 11
3473.499963982916
 21
2263.999962780328
 31
0.0
  0
LINE
  5
159A9
330
1F
100
AcDbEntity
  8
破線
100
AcDbLine
 10
3623.500001202592
 20
2263.999962780328
 30
0.0
 11
3623.500001202592
 21
2275.999962780327
 31
0.0
  0
LINE
  5
159AA
330
1F
100
AcDbEntity
  8
破線
100
AcDbLine
 10
3311.499926763242
 20
2275.999962780327
 30
0.0
 11
3461.499963982916
 21
2275.999962780327
 31
0.0
  0
LINE
  5
159AB
330
1F
100
AcDbEntity
  8
破線
100
AcDbLine
 10
3311.499926763242
 20
2263.999962780328
 30
0.0
 11
3461.499963982916
 21
2263.999962780328
 31
0.0
  0
LINE
  5
159AC
330
1F
100
AcDbEntity
  8
破線
100
AcDbLine
 10
3311.499926763242
 20
2263.999962780328
 30
0.0
 11
3311.499926763242
 21
2275.999962780327
 31
0.0
  0
LINE
  5
159AD
330
1F
100
AcDbEntity
  8
中心線
100
AcDbLine
 10
3367.499945373079
 20
2159.999981390165
 30
0.0
 11
3367.499945373079
 21
2229.999944170491
 31
0.0
  0
CIRCLE
  5
159AE
330
1F
100
AcDbEntity
  8
実線
100
AcDbCircle
 10
3367.499945373079
 20
2194.999962780328
 30
0.0
 40
12.5
  0
LINE
  5
159AF
330
1F
100
AcDbEntity
  8
中心線
100
AcDbLine
 10
3402.499926763243
 20
2194.999962780328
 30
0.0
 11
3332.499963982916
 21
2194.999962780328
 31
0.0
  0
LINE
  5
159B0
330
1F
100
AcDbEntity
  8
中心線
100
AcDbLine
 10
3367.499945373079
 20
2379.999944170491
 30
0.0
 11
3367.499945373079
 21
2309.999981390168
 31
0.0
  0
CIRCLE
  5
159B1
330
1F
100
AcDbEntity
  8
実線
100
AcDbCircle
 10
3367.499945373079
 20
2344.999962780328
 30
0.0
 40
12.5
  0
LINE
  5
159B2
330
1F
100
AcDbEntity
  8
中心線
100
AcDbLine
 10
3402.499926763243
 20
2344.999962780328
 30
0.0
 11
3332.499963982916
 21
2344.999962780328
 31
0.0
  0
LINE
  5
159B3
330
1F
100
AcDbEntity
  8
中心線
100
AcDbLine
 10
3567.499982592754
 20
2159.999981390165
 30
0.0
 11
3567.499982592754
 21
2229.999944170491
 31
0.0
  0
CIRCLE
  5
159B4
330
1F
100
AcDbEntity
  8
実線
100
AcDbCircle
 10
3567.499982592754
 20
2194.999962780328
 30
0.0
 40
12.5
  0
LINE
  5
159B5
330
1F
100
AcDbEntity
  8
中心線
100
AcDbLine
 10
3532.50000120259
 20
2194.999962780328
 30
0.0
 11
3602.499963982916
 21
2194.999962780328
 31
0.0
  0
LINE
  5
159B6
330
1F
100
AcDbEntity
  8
中心線
100
AcDbLine
 10
3567.499982592754
 20
2379.999944170491
 30
0.0
 11
3567.499982592754
 21
2309.999981390168
 31
0.0
  0
CIRCLE
  5
159B7
330
1F
100
AcDbEntity
  8
実線
100
AcDbCircle
 10
3567.499982592754
 20
2344.999962780328
 30
0.0
 40
12.5
  0
LINE
  5
159B8
330
1F
100
AcDbEntity
  8
中心線
100
AcDbLine
 10
3532.50000120259
 20
2344.999962780328
 30
0.0
 11
3602.499963982916
 21
2344.999962780328
 31
0.0
  0
LEADER
  5
159B9
330
1F
100
AcDbEntity
  8
寸法線
100
AcDbLeader
  3
STANDARD
 76
     3
 10
3375.243663560377
 20
2354.812446086589
 30
0.0
 10
3509.550543247394
 20
2524.999942967215
 30
0.0
 10
3702.12883400766
 20
2524.999942967215
 30
0.0
211
1.0
221
0.0000000000000002
231
0.0
1001
ACAD
1000
DSTYLE
1002
{
1070
   147
1040
0.875
1070
    77
1070
     0
1002
}
  0
TEXT
  5
159BA
330
1F
100
AcDbEntity
  8
寸法線
100
AcDbText
 10
3518.300543247394
 20
2533.749942967215
 30
0.0
 40
25.0
  1
主材連結用孔
 72
     2
 11
3691.633876580727
 21
2558.749942967215
 31
0.0
100
AcDbText
 73
     3
  0
LINE
  5
159BB
330
1F
100
AcDbEntity
  8
実線
100
AcDbLine
 10
552.4999441697982
 20
2437.99998005259
 30
0.0
 11
552.4999441697982
 21
2101.99998005259
 31
0.0
  0
LINE
  5
159BC
330
1F
100
AcDbEntity
  8
実線
100
AcDbLine
 10
568.4999639829002
 20
2444.999942832916
 30
0.0
 11
568.4999441697982
 21
2094.99998005259
 31
0.0
  0
LINE
  5
159BD
330
1F
100
AcDbEntity
  8
実線
100
AcDbLine
 10
568.4999639829002
 20
2444.999942832916
 30
0.0
 11
1052.4999639829
 21
2444.999942832916
 31
0.0
  0
LINE
  5
159BE
330
1F
100
AcDbEntity
  8
実線
100
AcDbLine
 10
568.4999629073391
 20
2425.999942832917
 30
0.0
 11
1052.4999639829
 21
2425.999942832917
 31
0.0
  0
LINE
  5
159BF
330
1F
100
AcDbEntity
  8
実線
100
AcDbLine
 10
952.4999441697982
 20
2425.999942832917
 30
0.0
 11
952.4999441697982
 21
2405.99998005259
 31
0.0
  0
LINE
  5
159C0
330
1F
100
AcDbEntity
  8
実線
100
AcDbLine
 10
1022.4999639829
 20
2375.999942832917
 30
0.0
 11
1052.4999639829
 21
2375.999942832917
 31
0.0
  0
LINE
  5
159C1
330
1F
100
AcDbEntity
  8
実線
100
AcDbLine
 10
952.4999441697982
 20
2405.99998005259
 30
0.0
 11
1022.4999639829
 21
2375.999942832917
 31
0.0
  0
LINE
  5
159C2
330
1F
100
AcDbEntity
  8
実線
100
AcDbLine
 10
552.4999441697982
 20
2437.99998005259
 30
0.0
 11
568.4999441697982
 21
2437.99998005259
 31
0.0
  0
LINE
  5
159C3
330
1F
100
AcDbEntity
  8
仮想線
100
AcDbLine
 10
568.4999441697982
 20
2444.999951103956
 30
0.0
 11
561.4999731184324
 21
2437.99998005259
 31
0.0
  0
LINE
  5
159C4
330
1F
100
AcDbEntity
  8
実線
100
AcDbLine
 10
568.4999441697982
 20
2275.999942832917
 30
0.0
 11
748.4999639829002
 21
2275.999942832917
 31
0.0
  0
LINE
  5
159C5
330
1F
100
AcDbEntity
  8
実線
100
AcDbLine
 10
568.4999441697982
 20
2263.999942832917
 30
0.0
 11
748.4999639829002
 21
2263.999942832917
 31
0.0
  0
LINE
  5
159C6
330
1F
100
AcDbEntity
  8
実線
100
AcDbLine
 10
1052.499979077718
 20
2084.999999999999
 30
0.0
 11
1052.499979077718
 21
2455.00001994741
 31
0.0
  0
LINE
  5
159C7
330
1F
100
AcDbEntity
  8
実線
100
AcDbLine
 10
1042.499944169798
 20
2425.999942832917
 30
0.0
 11
1052.4999639829
 21
2415.999942832916
 31
0.0
  0
LINE
  5
159C8
330
1F
100
AcDbEntity
  8
仮想線
100
AcDbLine
 10
1045.499950113732
 20
2425.999942832917
 30
0.0
 11
1052.4999639829
 21
2418.999942832917
 31
0.0
  0
LINE
  5
159C9
330
1F
100
AcDbEntity
  8
実線
100
AcDbLine
 10
568.4999441697982
 20
2094.999932407962
 30
0.0
 11
1052.4999639829
 21
2094.999942832916
 31
0.0
  0
LINE
  5
159CA
330
1F
100
AcDbEntity
  8
実線
100
AcDbLine
 10
568.4999452453593
 20
2113.999942832916
 30
0.0
 11
1052.4999639829
 21
2113.999942832916
 31
0.0
  0
LINE
  5
159CB
330
1F
100
AcDbEntity
  8
実線
100
AcDbLine
 10
952.4999441697982
 20
2113.999942832916
 30
0.0
 11
952.4999441697982
 21
2133.999905613239
 31
0.0
  0
LINE
  5
159CC
330
1F
100
AcDbEntity
  8
実線
100
AcDbLine
 10
1022.4999639829
 20
2163.999942832917
 30
0.0
 11
1052.4999639829
 21
2163.999942832917
 31
0.0
  0
LINE
  5
159CD
330
1F
100
AcDbEntity
  8
実線
100
AcDbLine
 10
952.4999441697982
 20
2133.999905613239
 30
0.0
 11
1022.4999639829
 21
2163.999942832917
 31
0.0
  0
LINE
  5
159CE
330
1F
100
AcDbEntity
  8
実線
100
AcDbLine
 10
552.4999441697982
 20
2101.999905613239
 30
0.0
 11
568.4999441697982
 21
2101.999905613239
 31
0.0
  0
LINE
  5
159CF
330
1F
100
AcDbEntity
  8
仮想線
100
AcDbLine
 10
568.4999441697982
 20
2094.999934561877
 30
0.0
 11
561.4999731184324
 21
2101.999905613239
 31
0.0
  0
LINE
  5
159D0
330
1F
100
AcDbEntity
  8
実線
100
AcDbLine
 10
1042.499944169798
 20
2113.999942832916
 30
0.0
 11
1052.4999639829
 21
2123.999942832917
 31
0.0
  0
LINE
  5
159D1
330
1F
100
AcDbEntity
  8
仮想線
100
AcDbLine
 10
1045.499950113732
 20
2113.999942832916
 30
0.0
 11
1052.4999639829
 21
2120.999942832917
 31
0.0
  0
LINE
  5
159D2
330
1F
100
AcDbEntity
  8
仮想線
100
AcDbLine
 10
1052.499974549278
 20
2451.999970078635
 30
0.0
 11
1045.499947303553
 21
2444.999942832916
 31
0.0
  0
LINE
  5
159D3
330
1F
100
AcDbEntity
  8
仮想線
100
AcDbLine
 10
1052.499974549278
 20
2087.999993432105
 30
0.0
 11
1045.499947303553
 21
2095.000020677828
 31
0.0
  0
LINE
  5
159D4
330
1F
100
AcDbEntity
  8
実線
100
AcDbLine
 10
748.4999639829002
 20
2275.999942832917
 30
0.0
 11
748.4999639829002
 21
2263.999942832917
 31
0.0
  0
LINE
  5
159D5
330
1F
100
AcDbEntity
  8
中心線
100
AcDbLine
 10
602.4998795451137
 20
2454.999942832917
 30
0.0
 11
602.4998795451137
 21
2415.999942832916
 31
0.0
  0
LINE
  5
159D6
330
1F
100
AcDbEntity
  8
中心線
100
AcDbLine
 10
602.4998795451137
 20
2085.000057167082
 30
0.0
 11
602.4998795451137
 21
2124.000057167081
 31
0.0
  0
LINE
  5
159D7
330
1F
100
AcDbEntity
  8
中心線
100
AcDbLine
 10
652.4998795451137
 20
2454.999942832917
 30
0.0
 11
652.4998795451137
 21
2415.999942832916
 31
0.0
  0
LINE
  5
159D8
330
1F
100
AcDbEntity
  8
中心線
100
AcDbLine
 10
652.4998795451137
 20
2085.000057167082
 30
0.0
 11
652.4998795451137
 21
2124.000057167081
 31
0.0
  0
LINE
  5
159D9
330
1F
100
AcDbEntity
  8
中心線
100
AcDbLine
 10
702.4998795451137
 20
2454.999942832917
 30
0.0
 11
702.4998795451137
 21
2415.999942832916
 31
0.0
  0
LINE
  5
159DA
330
1F
100
AcDbEntity
  8
中心線
100
AcDbLine
 10
702.4998795451137
 20
2085.000057167082
 30
0.0
 11
702.4998795451137
 21
2124.000057167081
 31
0.0
  0
LINE
  5
159DB
330
1F
100
AcDbEntity
  8
中心線
100
AcDbLine
 10
752.4998795451137
 20
2454.999942832917
 30
0.0
 11
752.4998795451137
 21
2415.999942832916
 31
0.0
  0
LINE
  5
159DC
330
1F
100
AcDbEntity
  8
中心線
100
AcDbLine
 10
752.4998795451137
 20
2085.000057167082
 30
0.0
 11
752.4998795451137
 21
2124.000057167081
 31
0.0
  0
LINE
  5
159DD
330
1F
100
AcDbEntity
  8
中心線
100
AcDbLine
 10
802.4998795451136
 20
2454.999942832917
 30
0.0
 11
802.4998795451136
 21
2415.999942832916
 31
0.0
  0
LINE
  5
159DE
330
1F
100
AcDbEntity
  8
中心線
100
AcDbLine
 10
802.4998795451136
 20
2085.000057167082
 30
0.0
 11
802.4998795451136
 21
2124.000057167081
 31
0.0
  0
LINE
  5
159DF
330
1F
100
AcDbEntity
  8
中心線
100
AcDbLine
 10
542.4999937025676
 20
2344.999904633514
 30
0.0
 11
578.500013515677
 21
2344.999904633514
 31
0.0
  0
LINE
  5
159E0
330
1F
100
AcDbEntity
  8
中心線
100
AcDbLine
 10
542.4999937025676
 20
2194.999978357001
 30
0.0
 11
578.500013515677
 21
2194.999978357001
 31
0.0
  0
TEXT
  5
159E1
330
1F
100
AcDbEntity
  8
寸法線
100
AcDbText
 10
2433.842392959743
 20
2179.823272949963
 30
0.0
 40
25.0
  1
ﾘﾌﾞﾌﾟﾚｰﾄ①
 72
     2
 11
2577.175726293076
 21
2179.823272949963
 31
0.0
100
AcDbText
 73
     1
  0
LEADER
  5
159E2
330
1F
100
AcDbEntity
  8
寸法線
100
AcDbLeader
  3
STANDARD
 76
     3
 10
2396.118543992136
 20
2123.999962780327
 30
0.0
 10
2431.118543992135
 20
2173.999962780327
 30
0.0
 10
2584.209088526852
 20
2173.999962780327
 30
0.0
211
-1.0
221
0.0
231
0.0
1001
ACAD
1000
DSTYLE
1002
{
1070
   147
1040
0.875
1070
    77
1070
     0
1002
}
  0
TEXT
  5
159E3
330
1F
100
AcDbEntity
  8
寸法線
100
AcDbText
 10
2649.625299390917
 20
2172.429219751357
 30
0.0
 40
25.0
  1
ｴﾝﾄﾞﾌﾟﾚｰﾄ
 11
2649.625299390917
 21
2172.429219751357
 31
0.0
100
AcDbText
 73
     1
  0
LINE
  5
159E6
330
1F
100
AcDbEntity
  8
実線
100
AcDbLine
 10
2852.500013985638
 20
2438.000000000001
 30
0.0
 11
2852.500013985638
 21
2102.000000000001
 31
0.0
  0
LINE
  5
159E7
330
1F
100
AcDbEntity
  8
実線
100
AcDbLine
 10
2836.499994172537
 20
2444.999962780328
 30
0.0
 11
2836.500013985638
 21
2095.000000000001
 31
0.0
  0
LINE
  5
159E8
330
1F
100
AcDbEntity
  8
実線
100
AcDbLine
 10
2836.499994172537
 20
2444.999962780328
 30
0.0
 11
2352.499994172537
 21
2444.999962780328
 31
0.0
  0
LINE
  5
159E9
330
1F
100
AcDbEntity
  8
実線
100
AcDbLine
 10
2836.499995248098
 20
2425.999962780327
 30
0.0
 11
2352.499994172537
 21
2425.999962780327
 31
0.0
  0
LINE
  5
159EA
330
1F
100
AcDbEntity
  8
実線
100
AcDbLine
 10
2452.500013985638
 20
2425.999962780327
 30
0.0
 11
2452.500013985638
 21
2406.000000000001
 31
0.0
  0
LINE
  5
159EB
330
1F
100
AcDbEntity
  8
実線
100
AcDbLine
 10
2382.499994172536
 20
2375.999962780327
 30
0.0
 11
2352.499994172537
 21
2375.999962780327
 31
0.0
  0
LINE
  5
159EC
330
1F
100
AcDbEntity
  8
実線
100
AcDbLine
 10
2452.500013985638
 20
2406.000000000001
 30
0.0
 11
2382.499994172536
 21
2375.999962780327
 31
0.0
  0
LINE
  5
159ED
330
1F
100
AcDbEntity
  8
実線
100
AcDbLine
 10
2852.500013985638
 20
2438.000000000001
 30
0.0
 11
2836.500013985638
 21
2438.000000000001
 31
0.0
  0
LINE
  5
159EE
330
1F
100
AcDbEntity
  8
仮想線
100
AcDbLine
 10
2836.500013985638
 20
2444.999971051367
 30
0.0
 11
2843.499985037004
 21
2438.000000000001
 31
0.0
  0
LINE
  5
159EF
330
1F
100
AcDbEntity
  8
実線
100
AcDbLine
 10
2836.500013985638
 20
2275.999962780327
 30
0.0
 11
2656.499994172536
 21
2275.999962780327
 31
0.0
  0
LINE
  5
159F0
330
1F
100
AcDbEntity
  8
実線
100
AcDbLine
 10
2836.500013985638
 20
2263.999962780328
 30
0.0
 11
2656.499994172536
 21
2263.999962780328
 31
0.0
  0
LINE
  5
159F1
330
1F
100
AcDbEntity
  8
実線
100
AcDbLine
 10
2362.500013985638
 20
2425.999962780327
 30
0.0
 11
2352.499994172537
 21
2415.999962780328
 31
0.0
  0
LINE
  5
159F2
330
1F
100
AcDbEntity
  8
仮想線
100
AcDbLine
 10
2359.500008041705
 20
2425.999962780327
 30
0.0
 11
2352.499994172537
 21
2418.999962780328
 31
0.0
  0
LINE
  5
159F3
330
1F
100
AcDbEntity
  8
実線
100
AcDbLine
 10
2836.500013985638
 20
2094.999952355372
 30
0.0
 11
2352.499994172537
 21
2094.999962780327
 31
0.0
  0
LINE
  5
159F4
330
1F
100
AcDbEntity
  8
実線
100
AcDbLine
 10
2836.500012910077
 20
2113.999962780328
 30
0.0
 11
2352.499994172537
 21
2113.999962780328
 31
0.0
  0
LINE
  5
159F5
330
1F
100
AcDbEntity
  8
実線
100
AcDbLine
 10
2452.500013985638
 20
2113.999962780328
 30
0.0
 11
2452.500013985638
 21
2133.99992556065
 31
0.0
  0
LINE
  5
159F6
330
1F
100
AcDbEntity
  8
実線
100
AcDbLine
 10
2382.499994172536
 20
2163.999962780328
 30
0.0
 11
2352.499994172537
 21
2163.999962780328
 31
0.0
  0
LINE
  5
159F7
330
1F
100
AcDbEntity
  8
実線
100
AcDbLine
 10
2452.500013985638
 20
2133.99992556065
 30
0.0
 11
2382.499994172536
 21
2163.999962780328
 31
0.0
  0
LINE
  5
159F8
330
1F
100
AcDbEntity
  8
実線
100
AcDbLine
 10
2852.500013985638
 20
2101.99992556065
 30
0.0
 11
2836.500013985638
 21
2101.99992556065
 31
0.0
  0
LINE
  5
159F9
330
1F
100
AcDbEntity
  8
仮想線
100
AcDbLine
 10
2836.500013985638
 20
2094.999954509288
 30
0.0
 11
2843.499985037004
 21
2101.99992556065
 31
0.0
  0
LINE
  5
159FA
330
1F
100
AcDbEntity
  8
実線
100
AcDbLine
 10
2362.500013985638
 20
2113.999962780328
 30
0.0
 11
2352.499994172537
 21
2123.999962780327
 31
0.0
  0
LINE
  5
159FB
330
1F
100
AcDbEntity
  8
仮想線
100
AcDbLine
 10
2359.500008041705
 20
2113.999962780328
 30
0.0
 11
2352.499994172537
 21
2120.999962780327
 31
0.0
  0
LINE
  5
159FC
330
1F
100
AcDbEntity
  8
仮想線
100
AcDbLine
 10
2352.499983606159
 20
2451.999990026045
 30
0.0
 11
2359.500010851883
 21
2444.999962780328
 31
0.0
  0
LINE
  5
159FD
330
1F
100
AcDbEntity
  8
仮想線
100
AcDbLine
 10
2352.499983606159
 20
2088.000013379516
 30
0.0
 11
2359.500010851883
 21
2095.000040625238
 31
0.0
  0
LINE
  5
159FE
330
1F
100
AcDbEntity
  8
実線
100
AcDbLine
 10
2656.499994172536
 20
2275.999962780327
 30
0.0
 11
2656.499994172536
 21
2263.999962780328
 31
0.0
  0
LINE
  5
159FF
330
1F
100
AcDbEntity
  8
中心線
100
AcDbLine
 10
2802.500078610323
 20
2454.999962780327
 30
0.0
 11
2802.500078610323
 21
2415.999962780328
 31
0.0
  0
LINE
  5
15A00
330
1F
100
AcDbEntity
  8
中心線
100
AcDbLine
 10
2802.500078610323
 20
2085.000077114493
 30
0.0
 11
2802.500078610323
 21
2124.000077114492
 31
0.0
  0
LINE
  5
15A01
330
1F
100
AcDbEntity
  8
中心線
100
AcDbLine
 10
2752.500078610323
 20
2454.999962780327
 30
0.0
 11
2752.500078610323
 21
2415.999962780328
 31
0.0
  0
LINE
  5
15A02
330
1F
100
AcDbEntity
  8
中心線
100
AcDbLine
 10
2752.500078610323
 20
2085.000077114493
 30
0.0
 11
2752.500078610323
 21
2124.000077114492
 31
0.0
  0
LINE
  5
15A03
330
1F
100
AcDbEntity
  8
中心線
100
AcDbLine
 10
2702.500078610323
 20
2454.999962780327
 30
0.0
 11
2702.500078610323
 21
2415.999962780328
 31
0.0
  0
LINE
  5
15A04
330
1F
100
AcDbEntity
  8
中心線
100
AcDbLine
 10
2702.500078610323
 20
2085.000077114493
 30
0.0
 11
2702.500078610323
 21
2124.000077114492
 31
0.0
  0
LINE
  5
15A05
330
1F
100
AcDbEntity
  8
中心線
100
AcDbLine
 10
2652.500078610323
 20
2454.999962780327
 30
0.0
 11
2652.500078610323
 21
2415.999962780328
 31
0.0
  0
LINE
  5
15A06
330
1F
100
AcDbEntity
  8
中心線
100
AcDbLine
 10
2652.500078610323
 20
2085.000077114493
 30
0.0
 11
2652.500078610323
 21
2124.000077114492
 31
0.0
  0
LINE
  5
15A07
330
1F
100
AcDbEntity
  8
中心線
100
AcDbLine
 10
2602.500078610323
 20
2454.999962780327
 30
0.0
 11
2602.500078610323
 21
2415.999962780328
 31
0.0
  0
LINE
  5
15A08
330
1F
100
AcDbEntity
  8
中心線
100
AcDbLine
 10
2602.500078610323
 20
2085.000077114493
 30
0.0
 11
2602.500078610323
 21
2124.000077114492
 31
0.0
  0
DIMENSION
  5
15A09
330
1F
100
AcDbEntity
  8
寸法線
100
AcDbDimension
280
     0
  2
*D3
 10
2576.499994172551
 20
2264.000002350013
 30
0.0
 11
2576.499994172551
 21
2270.000002350012
 31
0.0
 70
   160
 71
     5
 42
12.0
 73
     0
 74
     0
 75
     0
  3
STANDARD
100
AcDbAlignedDimension
 13
2656.499994172536
 23
2276.000002350012
 33
0.0
 14
2656.499994172536
 24
2264.000002350012
 34
0.0
 50
90.0
100
AcDbRotatedDimension
1001
ACAD
1000
DSTYLE
1002
{
1070
   140
1040
2.5
1002
}
  0
TEXT
  5
15A0A
330
1F
100
AcDbEntity
  8
寸法線
100
AcDbText
 10
2572.578811562627
 20
2364.250002350012
 30
0.0
 40
25.0
  1
ﾘﾌﾞﾌﾟﾚｰﾄ②
 72
     2
 11
2715.91214489596
 21
2364.250002350012
 31
0.0
100
AcDbText
 73
     1
  0
LEADER
  5
15A0B
330
1F
100
AcDbEntity
  8
寸法線
100
AcDbLeader
  3
STANDARD
 76
     3
 10
2745.964110952013
 20
2275.999982727736
 30
0.0
 10
2724.66214489596
 20
2355.500002350012
 30
0.0
 10
2560.495510010118
 20
2355.500002350012
 30
0.0
1001
ACAD
1000
DSTYLE
1002
{
1070
   147
1040
0.875
1070
    77
1070
     0
1002
}
  0
LINE
  5
15A0C
330
1F
100
AcDbEntity
  8
中心線
100
AcDbLine
 10
2826.500053611857
 20
2344.999905971087
 30
0.0
 11
2862.500073424966
 21
2344.999905971087
 31
0.0
  0
LINE
  5
15A0D
330
1F
100
AcDbEntity
  8
中心線
100
AcDbLine
 10
2826.500053611857
 20
2194.999979694575
 30
0.0
 11
2862.500073424966
 21
2194.999979694575
 31
0.0
  0
LINE
  5
15A0E
330
1F
100
AcDbEntity
  8
破線
100
AcDbLine
 10
568.4999592646017
 20
1675.999961077544
 30
0.0
 11
1052.499963982914
 21
1675.999961077544
 31
0.0
  0
LINE
  5
15A0F
330
1F
100
AcDbEntity
  8
破線
100
AcDbLine
 10
578.4999441698127
 20
1675.999961077544
 30
0.0
 11
568.4999441698128
 21
1685.999961077545
 31
0.0
  0
LINE
  5
15A10
330
1F
100
AcDbEntity
  8
破線
100
AcDbLine
 10
952.4999639829147
 20
1825.499961077541
 30
0.0
 11
1052.499944169813
 21
1825.499961077541
 31
0.0
  0
LINE
  5
15A11
330
1F
100
AcDbEntity
  8
破線
100
AcDbLine
 10
952.4999639829147
 20
1809.499961077541
 30
0.0
 11
1052.499944169813
 21
1809.499961077541
 31
0.0
  0
LINE
  5
15A12
330
1F
100
AcDbEntity
  8
破線
100
AcDbLine
 10
952.4999639829147
 20
1825.499961077541
 30
0.0
 11
952.4999639829147
 21
1809.499961077541
 31
0.0
  0
LINE
  5
15A13
330
1F
100
AcDbEntity
  8
破線
100
AcDbLine
 10
568.4999441698128
 20
1825.999961077544
 30
0.0
 11
598.4999639829148
 21
1825.999961077544
 31
0.0
  0
LINE
  5
15A14
330
1F
100
AcDbEntity
  8
破線
100
AcDbLine
 10
748.4999441698128
 20
1705.999998297222
 30
0.0
 11
748.4999441698128
 21
1675.999961077544
 31
0.0
  0
LINE
  5
15A15
330
1F
100
AcDbEntity
  8
破線
100
AcDbLine
 10
598.4999639829148
 20
1825.999961077544
 30
0.0
 11
748.4999441698128
 21
1705.999998297222
 31
0.0
  0
LINE
  5
15A16
330
1F
100
AcDbEntity
  8
破線
100
AcDbLine
 10
568.4999592646017
 20
1663.999961077541
 30
0.0
 11
1052.499963982914
 21
1663.999961077541
 31
0.0
  0
LINE
  5
15A17
330
1F
100
AcDbEntity
  8
破線
100
AcDbLine
 10
578.4999441698127
 20
1663.999961077541
 30
0.0
 11
568.4999441698128
 21
1653.999961077541
 31
0.0
  0
LINE
  5
15A18
330
1F
100
AcDbEntity
  8
破線
100
AcDbLine
 10
952.4999639829147
 20
1514.499961077541
 30
0.0
 11
1052.499944169813
 21
1514.499961077541
 31
0.0
  0
LINE
  5
15A19
330
1F
100
AcDbEntity
  8
破線
100
AcDbLine
 10
952.4999639829147
 20
1530.499961077541
 30
0.0
 11
1052.499944169813
 21
1530.499961077541
 31
0.0
  0
LINE
  5
15A1A
330
1F
100
AcDbEntity
  8
破線
100
AcDbLine
 10
952.4999639829147
 20
1514.499961077541
 30
0.0
 11
952.4999639829147
 21
1530.499961077541
 31
0.0
  0
LINE
  5
15A1B
330
1F
100
AcDbEntity
  8
破線
100
AcDbLine
 10
568.4999441698128
 20
1513.999961077541
 30
0.0
 11
598.4999639829148
 21
1513.999961077541
 31
0.0
  0
LINE
  5
15A1C
330
1F
100
AcDbEntity
  8
破線
100
AcDbLine
 10
748.4999441698128
 20
1633.999923857867
 30
0.0
 11
748.4999441698128
 21
1663.999961077541
 31
0.0
  0
LINE
  5
15A1D
330
1F
100
AcDbEntity
  8
破線
100
AcDbLine
 10
598.4999639829148
 20
1513.999961077541
 30
0.0
 11
748.4999441698128
 21
1633.999923857867
 31
0.0
  0
LINE
  5
15A1E
330
1F
100
AcDbEntity
  8
実線
100
AcDbLine
 10
1052.499979077718
 20
1855.00001994741
 30
0.0
 11
1052.499979077718
 21
1485.0
 31
0.0
  0
LINE
  5
15A1F
330
1F
100
AcDbEntity
  8
実線
100
AcDbLine
 10
552.4999592646016
 20
1495.000035516895
 30
0.0
 11
1052.499963982914
 21
1495.000035516895
 31
0.0
  0
LINE
  5
15A20
330
1F
100
AcDbEntity
  8
実線
100
AcDbLine
 10
552.4999592646016
 20
1844.999886638194
 30
0.0
 11
1052.499963982914
 21
1844.999886638194
 31
0.0
  0
LINE
  5
15A21
330
1F
100
AcDbEntity
  8
実線
100
AcDbLine
 10
568.4999592646017
 20
1844.999886638194
 30
0.0
 11
568.4999592646017
 21
1495.000035516895
 31
0.0
  0
LINE
  5
15A22
330
1F
100
AcDbEntity
  8
実線
100
AcDbLine
 10
552.4999592646016
 20
1844.999886638194
 30
0.0
 11
552.4999592646016
 21
1495.000035516895
 31
0.0
  0
LINE
  5
15A23
330
1F
100
AcDbEntity
  8
仮想線
100
AcDbLine
 10
574.4999592646017
 20
1675.99984941852
 30
0.0
 11
568.4999592646017
 21
1681.99984941852
 31
0.0
  0
LINE
  5
15A24
330
1F
100
AcDbEntity
  8
仮想線
100
AcDbLine
 10
574.4999592646017
 20
1663.999849418516
 30
0.0
 11
568.4999592646017
 21
1657.999849418516
 31
0.0
  0
LEADER
  5
15A25
330
1F
100
AcDbEntity
  8
寸法線
100
AcDbLeader
  3
STANDARD
 76
     3
 10
608.7499592646017
 20
1755.825297234685
 30
0.0
 10
703.8050373729455
 20
1924.999997939336
 30
0.0
 10
971.4652143077657
 20
1924.999997939336
 30
0.0
211
-1.0
221
0.0
231
0.0
1001
ACAD
1000
DSTYLE
1002
{
1070
   147
1040
0.875
1070
    77
1070
     0
1002
}
  0
TEXT
  5
15A26
330
1F
100
AcDbEntity
  8
寸法線
100
AcDbText
 10
712.5550373729405
 20
1933.749997939336
 30
0.0
 40
25.0
  1
ｶﾊﾞｰﾌﾟﾚｰﾄ連結用孔
 72
     2
 11
960.8883707062739
 21
1958.749997939336
 31
0.0
100
AcDbText
 73
     3
  0
LINE
  5
15A27
330
1F
100
AcDbEntity
  8
中心線
100
AcDbLine
 10
602.4999592646017
 20
1779.999961077545
 30
0.0
 11
602.4999592646017
 21
1709.999998297218
 31
0.0
  0
LINE
  5
15A28
330
1F
100
AcDbEntity
  8
中心線
100
AcDbLine
 10
567.4999778744422
 20
1744.999979687381
 30
0.0
 11
637.4999406547613
 21
1744.999979687381
 31
0.0
  0
CIRCLE
  5
15A29
330
1F
100
AcDbEntity
  8
実線
100
AcDbCircle
 10
602.4999592646017
 20
1744.999979687381
 30
0.0
 40
12.5
  0
LINE
  5
15A2A
330
1F
100
AcDbEntity
  8
中心線
100
AcDbLine
 10
602.4999592646017
 20
1560.000061077542
 30
0.0
 11
602.4999592646017
 21
1630.000023857868
 31
0.0
  0
LINE
  5
15A2B
330
1F
100
AcDbEntity
  8
中心線
100
AcDbLine
 10
567.4999778744422
 20
1595.000042467705
 30
0.0
 11
637.4999406547613
 21
1595.000042467705
 31
0.0
  0
CIRCLE
  5
15A2C
330
1F
100
AcDbEntity
  8
実線
100
AcDbCircle
 10
602.4999592646017
 20
1595.000042467705
 30
0.0
 40
12.5
  0
LINE
  5
15A2D
330
1F
100
AcDbEntity
  8
中心線
100
AcDbLine
 10
802.4999592646018
 20
1560.000061077542
 30
0.0
 11
802.4999592646018
 21
1630.000023857868
 31
0.0
  0
LINE
  5
15A2E
330
1F
100
AcDbEntity
  8
中心線
100
AcDbLine
 10
767.4999778744422
 20
1595.000042467705
 30
0.0
 11
837.4999406547612
 21
1595.000042467705
 31
0.0
  0
LINE
  5
15A2F
330
1F
100
AcDbEntity
  8
中心線
100
AcDbLine
 10
702.4999592646017
 20
1779.999961077545
 30
0.0
 11
702.4999592646017
 21
1709.999998297218
 31
0.0
  0
LINE
  5
15A30
330
1F
100
AcDbEntity
  8
中心線
100
AcDbLine
 10
667.4999778744422
 20
1744.999979687381
 30
0.0
 11
737.4999406547612
 21
1744.999979687381
 31
0.0
  0
CIRCLE
  5
15A31
330
1F
100
AcDbEntity
  8
実線
100
AcDbCircle
 10
702.4999592646017
 20
1744.999979687381
 30
0.0
 40
12.5
  0
LINE
  5
15A32
330
1F
100
AcDbEntity
  8
中心線
100
AcDbLine
 10
702.4999592646017
 20
1560.000061077542
 30
0.0
 11
702.4999592646017
 21
1630.000023857868
 31
0.0
  0
LINE
  5
15A33
330
1F
100
AcDbEntity
  8
中心線
100
AcDbLine
 10
667.4999778744422
 20
1595.000042467705
 30
0.0
 11
737.4999406547612
 21
1595.000042467705
 31
0.0
  0
CIRCLE
  5
15A34
330
1F
100
AcDbEntity
  8
実線
100
AcDbCircle
 10
702.4999592646017
 20
1595.000042467705
 30
0.0
 40
12.5
  0
LINE
  5
15A35
330
1F
100
AcDbEntity
  8
中心線
100
AcDbLine
 10
802.4999592646018
 20
1779.999961077545
 30
0.0
 11
802.4999592646018
 21
1709.999998297218
 31
0.0
  0
LINE
  5
15A36
330
1F
100
AcDbEntity
  8
中心線
100
AcDbLine
 10
767.4999778744422
 20
1744.999979687381
 30
0.0
 11
837.4999406547612
 21
1744.999979687381
 31
0.0
  0
CIRCLE
  5
15A37
330
1F
100
AcDbEntity
  8
実線
100
AcDbCircle
 10
802.4999592646018
 20
1744.999979687381
 30
0.0
 40
12.5
  0
LINE
  5
15A38
330
1F
100
AcDbEntity
  8
中心線
100
AcDbLine
 10
652.4999592646017
 20
1829.999961077545
 30
0.0
 11
652.4999592646017
 21
1759.999998297218
 31
0.0
  0
LINE
  5
15A39
330
1F
100
AcDbEntity
  8
中心線
100
AcDbLine
 10
617.4999778744422
 20
1794.999979687381
 30
0.0
 11
687.4999406547612
 21
1794.999979687381
 31
0.0
  0
CIRCLE
  5
15A3A
330
1F
100
AcDbEntity
  8
実線
100
AcDbCircle
 10
652.4999592646017
 20
1794.999979687381
 30
0.0
 40
12.5
  0
LINE
  5
15A3B
330
1F
100
AcDbEntity
  8
中心線
100
AcDbLine
 10
752.4999592646017
 20
1829.999961077545
 30
0.0
 11
752.4999592646017
 21
1759.999998297218
 31
0.0
  0
LINE
  5
15A3C
330
1F
100
AcDbEntity
  8
中心線
100
AcDbLine
 10
717.4999778744422
 20
1794.999979687381
 30
0.0
 11
787.4999406547612
 21
1794.999979687381
 31
0.0
  0
CIRCLE
  5
15A3D
330
1F
100
AcDbEntity
  8
実線
100
AcDbCircle
 10
752.4999592646017
 20
1794.999979687381
 30
0.0
 40
12.5
  0
LINE
  5
15A3E
330
1F
100
AcDbEntity
  8
中心線
100
AcDbLine
 10
652.4999592646017
 20
1510.000061077542
 30
0.0
 11
652.4999592646017
 21
1580.000023857868
 31
0.0
  0
LINE
  5
15A3F
330
1F
100
AcDbEntity
  8
中心線
100
AcDbLine
 10
617.4999778744422
 20
1545.000042467705
 30
0.0
 11
687.4999406547612
 21
1545.000042467705
 31
0.0
  0
CIRCLE
  5
15A40
330
1F
100
AcDbEntity
  8
実線
100
AcDbCircle
 10
652.4999592646017
 20
1545.000042467705
 30
0.0
 40
12.5
  0
LINE
  5
15A41
330
1F
100
AcDbEntity
  8
中心線
100
AcDbLine
 10
752.4999592646017
 20
1510.000061077542
 30
0.0
 11
752.4999592646017
 21
1580.000023857868
 31
0.0
  0
LINE
  5
15A42
330
1F
100
AcDbEntity
  8
中心線
100
AcDbLine
 10
717.4999778744422
 20
1545.000042467705
 30
0.0
 11
787.4999406547612
 21
1545.000042467705
 31
0.0
  0
CIRCLE
  5
15A43
330
1F
100
AcDbEntity
  8
実線
100
AcDbCircle
 10
752.4999592646017
 20
1545.000042467705
 30
0.0
 40
12.5
  0
CIRCLE
  5
15A44
330
1F
100
AcDbEntity
  8
実線
100
AcDbCircle
 10
802.4999592646018
 20
1595.000042467705
 30
0.0
 40
12.5
  0
LINE
  5
15A45
330
1F
100
AcDbEntity
  8
中心線
100
AcDbLine
 10
542.5000087973712
 20
1769.999885658468
 30
0.0
 11
578.5000286104803
 21
1769.999885658468
 31
0.0
  0
LINE
  5
15A46
330
1F
100
AcDbEntity
  8
中心線
100
AcDbLine
 10
542.5000087973712
 20
1569.999959381956
 30
0.0
 11
578.5000286104803
 21
1569.999959381956
 31
0.0
  0
LINE
  5
15A47
330
1F
100
AcDbEntity
  8
破線
100
AcDbLine
 10
2836.499998890835
 20
1675.999981024954
 30
0.0
 11
2352.499994172522
 21
1675.999981024954
 31
0.0
  0
LINE
  5
15A48
330
1F
100
AcDbEntity
  8
破線
100
AcDbLine
 10
2826.500013985624
 20
1675.999981024954
 30
0.0
 11
2836.500013985624
 21
1685.999981024954
 31
0.0
  0
LINE
  5
15A49
330
1F
100
AcDbEntity
  8
破線
100
AcDbLine
 10
2452.499994172522
 20
1825.499981024951
 30
0.0
 11
2352.500013985624
 21
1825.499981024951
 31
0.0
  0
LINE
  5
15A4A
330
1F
100
AcDbEntity
  8
破線
100
AcDbLine
 10
2452.499994172522
 20
1809.499981024951
 30
0.0
 11
2352.500013985624
 21
1809.499981024951
 31
0.0
  0
LINE
  5
15A4B
330
1F
100
AcDbEntity
  8
破線
100
AcDbLine
 10
2452.499994172522
 20
1825.499981024951
 30
0.0
 11
2452.499994172522
 21
1809.499981024951
 31
0.0
  0
LINE
  5
15A4C
330
1F
100
AcDbEntity
  8
破線
100
AcDbLine
 10
2836.500013985624
 20
1825.999981024954
 30
0.0
 11
2806.499994172522
 21
1825.999981024954
 31
0.0
  0
LINE
  5
15A4D
330
1F
100
AcDbEntity
  8
破線
100
AcDbLine
 10
2656.500013985624
 20
1706.000018244632
 30
0.0
 11
2656.500013985624
 21
1675.999981024954
 31
0.0
  0
LINE
  5
15A4E
330
1F
100
AcDbEntity
  8
破線
100
AcDbLine
 10
2806.499994172522
 20
1825.999981024954
 30
0.0
 11
2656.500013985624
 21
1706.000018244632
 31
0.0
  0
LINE
  5
15A4F
330
1F
100
AcDbEntity
  8
破線
100
AcDbLine
 10
2836.499998890835
 20
1663.999981024951
 30
0.0
 11
2352.499994172522
 21
1663.999981024951
 31
0.0
  0
LINE
  5
15A50
330
1F
100
AcDbEntity
  8
破線
100
AcDbLine
 10
2826.500013985624
 20
1663.999981024951
 30
0.0
 11
2836.500013985624
 21
1653.999981024951
 31
0.0
  0
LINE
  5
15A51
330
1F
100
AcDbEntity
  8
破線
100
AcDbLine
 10
2452.499994172522
 20
1514.499981024951
 30
0.0
 11
2352.500013985624
 21
1514.499981024951
 31
0.0
  0
LINE
  5
15A52
330
1F
100
AcDbEntity
  8
破線
100
AcDbLine
 10
2452.499994172522
 20
1530.499981024951
 30
0.0
 11
2352.500013985624
 21
1530.499981024951
 31
0.0
  0
LINE
  5
15A53
330
1F
100
AcDbEntity
  8
破線
100
AcDbLine
 10
2452.499994172522
 20
1514.499981024951
 30
0.0
 11
2452.499994172522
 21
1530.499981024951
 31
0.0
  0
LINE
  5
15A54
330
1F
100
AcDbEntity
  8
破線
100
AcDbLine
 10
2836.500013985624
 20
1513.999981024951
 30
0.0
 11
2806.499994172522
 21
1513.999981024951
 31
0.0
  0
LINE
  5
15A55
330
1F
100
AcDbEntity
  8
破線
100
AcDbLine
 10
2656.500013985624
 20
1633.999943805277
 30
0.0
 11
2656.500013985624
 21
1663.999981024951
 31
0.0
  0
LINE
  5
15A56
330
1F
100
AcDbEntity
  8
破線
100
AcDbLine
 10
2806.499994172522
 20
1513.999981024951
 30
0.0
 11
2656.500013985624
 21
1633.999943805277
 31
0.0
  0
LINE
  5
15A57
330
1F
100
AcDbEntity
  8
実線
100
AcDbLine
 10
2352.499979077718
 20
1855.000019947409
 30
0.0
 11
2352.499979077718
 21
1485.00001994741
 31
0.0
  0
LINE
  5
15A58
330
1F
100
AcDbEntity
  8
実線
100
AcDbLine
 10
2852.499998890835
 20
1495.000055464305
 30
0.0
 11
2352.499994172522
 21
1495.000055464305
 31
0.0
  0
LINE
  5
15A59
330
1F
100
AcDbEntity
  8
実線
100
AcDbLine
 10
2852.499998890835
 20
1844.999906585603
 30
0.0
 11
2352.499994172522
 21
1844.999906585603
 31
0.0
  0
LINE
  5
15A5A
330
1F
100
AcDbEntity
  8
実線
100
AcDbLine
 10
2836.499998890835
 20
1844.999906585603
 30
0.0
 11
2836.499998890835
 21
1495.000055464305
 31
0.0
  0
LINE
  5
15A5B
330
1F
100
AcDbEntity
  8
実線
100
AcDbLine
 10
2852.499998890835
 20
1844.999906585603
 30
0.0
 11
2852.499998890835
 21
1495.000055464305
 31
0.0
  0
LINE
  5
15A5C
330
1F
100
AcDbEntity
  8
仮想線
100
AcDbLine
 10
2830.499998890835
 20
1675.99986936593
 30
0.0
 11
2836.499998890835
 21
1681.99986936593
 31
0.0
  0
LINE
  5
15A5D
330
1F
100
AcDbEntity
  8
仮想線
100
AcDbLine
 10
2830.499998890835
 20
1663.999869365926
 30
0.0
 11
2836.499998890835
 21
1657.999869365926
 31
0.0
  0
LINE
  5
15A5E
330
1F
100
AcDbEntity
  8
中心線
100
AcDbLine
 10
2802.499998890835
 20
1779.999981024955
 30
0.0
 11
2802.499998890835
 21
1710.000018244628
 31
0.0
  0
LINE
  5
15A5F
330
1F
100
AcDbEntity
  8
中心線
100
AcDbLine
 10
2837.499980280995
 20
1744.999999634791
 30
0.0
 11
2767.500017500676
 21
1744.999999634791
 31
0.0
  0
CIRCLE
  5
15A60
330
1F
100
AcDbEntity
  8
実線
100
AcDbCircle
 10
2802.499998890835
 20
1744.999999634791
 30
0.0
 40
12.5
  0
LINE
  5
15A61
330
1F
100
AcDbEntity
  8
中心線
100
AcDbLine
 10
2802.499998890835
 20
1560.000081024952
 30
0.0
 11
2802.499998890835
 21
1630.000043805278
 31
0.0
  0
LINE
  5
15A62
330
1F
100
AcDbEntity
  8
中心線
100
AcDbLine
 10
2837.499980280995
 20
1595.000062415115
 30
0.0
 11
2767.500017500676
 21
1595.000062415115
 31
0.0
  0
CIRCLE
  5
15A63
330
1F
100
AcDbEntity
  8
実線
100
AcDbCircle
 10
2802.499998890835
 20
1595.000062415115
 30
0.0
 40
12.5
  0
LINE
  5
15A64
330
1F
100
AcDbEntity
  8
中心線
100
AcDbLine
 10
2602.499998890835
 20
1560.000081024952
 30
0.0
 11
2602.499998890835
 21
1630.000043805278
 31
0.0
  0
LINE
  5
15A65
330
1F
100
AcDbEntity
  8
中心線
100
AcDbLine
 10
2637.499980280995
 20
1595.000062415115
 30
0.0
 11
2567.500017500675
 21
1595.000062415115
 31
0.0
  0
LINE
  5
15A66
330
1F
100
AcDbEntity
  8
中心線
100
AcDbLine
 10
2702.499998890835
 20
1779.999981024955
 30
0.0
 11
2702.499998890835
 21
1710.000018244628
 31
0.0
  0
LINE
  5
15A67
330
1F
100
AcDbEntity
  8
中心線
100
AcDbLine
 10
2737.499980280995
 20
1744.999999634791
 30
0.0
 11
2667.500017500676
 21
1744.999999634791
 31
0.0
  0
CIRCLE
  5
15A68
330
1F
100
AcDbEntity
  8
実線
100
AcDbCircle
 10
2702.499998890835
 20
1744.999999634791
 30
0.0
 40
12.5
  0
LINE
  5
15A69
330
1F
100
AcDbEntity
  8
中心線
100
AcDbLine
 10
2702.499998890835
 20
1560.000081024952
 30
0.0
 11
2702.499998890835
 21
1630.000043805278
 31
0.0
  0
LINE
  5
15A6A
330
1F
100
AcDbEntity
  8
中心線
100
AcDbLine
 10
2737.499980280995
 20
1595.000062415115
 30
0.0
 11
2667.500017500676
 21
1595.000062415115
 31
0.0
  0
CIRCLE
  5
15A6B
330
1F
100
AcDbEntity
  8
実線
100
AcDbCircle
 10
2702.499998890835
 20
1595.000062415115
 30
0.0
 40
12.5
  0
LINE
  5
15A6C
330
1F
100
AcDbEntity
  8
中心線
100
AcDbLine
 10
2602.499998890835
 20
1779.999981024955
 30
0.0
 11
2602.499998890835
 21
1710.000018244628
 31
0.0
  0
LINE
  5
15A6D
330
1F
100
AcDbEntity
  8
中心線
100
AcDbLine
 10
2637.499980280995
 20
1744.999999634791
 30
0.0
 11
2567.500017500675
 21
1744.999999634791
 31
0.0
  0
CIRCLE
  5
15A6E
330
1F
100
AcDbEntity
  8
実線
100
AcDbCircle
 10
2602.499998890835
 20
1744.999999634791
 30
0.0
 40
12.5
  0
LINE
  5
15A6F
330
1F
100
AcDbEntity
  8
中心線
100
AcDbLine
 10
2752.499998890835
 20
1829.999981024955
 30
0.0
 11
2752.499998890835
 21
1760.000018244628
 31
0.0
  0
LINE
  5
15A70
330
1F
100
AcDbEntity
  8
中心線
100
AcDbLine
 10
2787.499980280994
 20
1794.999999634791
 30
0.0
 11
2717.500017500676
 21
1794.999999634791
 31
0.0
  0
CIRCLE
  5
15A71
330
1F
100
AcDbEntity
  8
実線
100
AcDbCircle
 10
2752.499998890835
 20
1794.999999634791
 30
0.0
 40
12.5
  0
LINE
  5
15A72
330
1F
100
AcDbEntity
  8
中心線
100
AcDbLine
 10
2652.499998890835
 20
1829.999981024955
 30
0.0
 11
2652.499998890835
 21
1760.000018244628
 31
0.0
  0
LINE
  5
15A73
330
1F
100
AcDbEntity
  8
中心線
100
AcDbLine
 10
2687.499980280995
 20
1794.999999634791
 30
0.0
 11
2617.500017500676
 21
1794.999999634791
 31
0.0
  0
CIRCLE
  5
15A74
330
1F
100
AcDbEntity
  8
実線
100
AcDbCircle
 10
2652.499998890835
 20
1794.999999634791
 30
0.0
 40
12.5
  0
LINE
  5
15A75
330
1F
100
AcDbEntity
  8
中心線
100
AcDbLine
 10
2752.499998890835
 20
1510.000081024952
 30
0.0
 11
2752.499998890835
 21
1580.000043805278
 31
0.0
  0
LINE
  5
15A76
330
1F
100
AcDbEntity
  8
中心線
100
AcDbLine
 10
2787.499980280994
 20
1545.000062415115
 30
0.0
 11
2717.500017500676
 21
1545.000062415115
 31
0.0
  0
CIRCLE
  5
15A77
330
1F
100
AcDbEntity
  8
実線
100
AcDbCircle
 10
2752.499998890835
 20
1545.000062415115
 30
0.0
 40
12.5
  0
LINE
  5
15A78
330
1F
100
AcDbEntity
  8
中心線
100
AcDbLine
 10
2652.499998890835
 20
1510.000081024952
 30
0.0
 11
2652.499998890835
 21
1580.000043805278
 31
0.0
  0
LINE
  5
15A79
330
1F
100
AcDbEntity
  8
中心線
100
AcDbLine
 10
2687.499980280995
 20
1545.000062415115
 30
0.0
 11
2617.500017500676
 21
1545.000062415115
 31
0.0
  0
CIRCLE
  5
15A7A
330
1F
100
AcDbEntity
  8
実線
100
AcDbCircle
 10
2652.499998890835
 20
1545.000062415115
 30
0.0
 40
12.5
  0
CIRCLE
  5
15A7B
330
1F
100
AcDbEntity
  8
実線
100
AcDbCircle
 10
2602.499998890835
 20
1595.000062415115
 30
0.0
 40
12.5
  0
DIMENSION
  5
15A7C
330
1F
100
AcDbEntity
  8
寸法線
100
AcDbDimension
280
     0
  2
*D1
 10
2532.499994172522
 20
1522.499980149991
 30
0.0
 11
2532.499994172522
 21
1508.750017986238
 31
0.0
 70
   160
 71
     5
 42
27.49992432750401
 73
     0
 74
     0
 75
     0
  3
STANDARD
100
AcDbAlignedDimension
 13
2352.499979077718
 23
1495.000055822486
 33
0.0
 14
2460.499979077719
 24
1522.49998014999
 34
0.0
 50
90.0
100
AcDbRotatedDimension
1001
ACAD
1000
DSTYLE
1002
{
1070
   271
1070
     1
1002
}
  0
DIMENSION
  5
15A7D
330
1F
100
AcDbEntity
  8
寸法線
100
AcDbDimension
280
     0
  2
*D2
 10
2532.499994172522
 20
1809.499981024952
 30
0.0
 11
2532.499994172522
 21
1817.499981024951
 31
0.0
 70
   160
 71
     5
 42
16.0
 73
     0
 74
     0
 75
     0
  3
STANDARD
100
AcDbAlignedDimension
 13
2452.499994172522
 23
1825.499981024951
 33
0.0
 14
2452.499994172522
 24
1809.499981024951
 34
0.0
 50
270.0
100
AcDbRotatedDimension
1001
ACAD
1000
DSTYLE
1002
{
1070
   271
1070
     1
1002
}
  0
LEADER
  5
15A7E
330
1F
100
AcDbEntity
  8
寸法線
100
AcDbLeader
  3
STANDARD
 76
     3
 10
2608.749998890835
 20
1755.825317182095
 30
0.0
 10
2703.805076999179
 20
1925.000017886745
 30
0.0
 10
2971.465253933999
 20
1925.000017886745
 30
0.0
211
-1.0
221
0.0
231
0.0
1001
ACAD
1000
DSTYLE
1002
{
1070
   147
1040
0.875
1070
    77
1070
     0
1002
}
  0
TEXT
  5
15A7F
330
1F
100
AcDbEntity
  8
寸法線
100
AcDbText
 10
2712.555076999173
 20
1933.750017886745
 30
0.0
 40
25.0
  1
ｶﾊﾞｰﾌﾟﾚｰﾄ連結用孔
 72
     2
 11
2960.888410332507
 21
1958.750017886745
 31
0.0
100
AcDbText
 73
     3
  0
LINE
  5
15A80
330
1F
100
AcDbEntity
  8
中心線
100
AcDbLine
 10
2826.500048423604
 20
1769.999905605878
 30
0.0
 11
2862.500068236714
 21
1769.999905605878
 31
0.0
  0
LINE
  5
15A81
330
1F
100
AcDbEntity
  8
中心線
100
AcDbLine
 10
2826.500048423604
 20
1569.999979329365
 30
0.0
 11
2862.500068236714
 21
1569.999979329365
 31
0.0
  0
TEXT
  5
15A82
330
1F
100
AcDbEntity
  8
寸法線
100
AcDbText
 10
3139.770906412968
 20
1783.759921200942
 30
0.0
 40
25.0
  1
※　H型鋼（連結部）の長さは、切梁メーカー仕様または施工条件
 11
3139.770906412968
 21
1783.759921200942
 31
0.0
100
AcDbText
 73
     1
  0
TEXT
  5
15A83
330
1F
100
AcDbEntity
  8
寸法線
100
AcDbText
 10
3139.770906412968
 20
1833.759921200942
 30
0.0
 40
25.0
  1
※　H型鋼（連結部）の穴開け位置は、切梁メーカー仕様による。
 11
3139.770906412968
 21
1833.759921200942
 31
0.0
100
AcDbText
 73
     1
  0
TEXT
  5
15A84
330
1F
100
AcDbEntity
  8
寸法線
100
AcDbText
 10
3139.770906412968
 20
1733.759921200942
 30
0.0
 40
25.0
  1
　　により変更する場合がある。
 11
3139.770906412968
 21
1733.759921200942
 31
0.0
100
AcDbText
 73
     1
  0
TEXT
  5
15A85
330
1F
100
AcDbEntity
  8
寸法線
100
AcDbText
 10
3139.770906412968
 20
1683.759921200942
 30
0.0
 40
25.0
  1
※　空洞金具部は鉄筋防錆剤塗装仕上げ。
 11
3139.770906412968
 21
1683.759921200942
 31
0.0
100
AcDbText
 73
     1
  0
TEXT
  5
15A86
330
1F
100
AcDbEntity
  8
寸法線
100
AcDbText
 10
3139.770906412968
 20
1633.759921200942
 30
0.0
 40
25.0
  1
※　H型鋼（連結部）は赤さび塗装仕上げ。
 11
3139.770906412968
 21
1633.759921200942
 31
0.0
100
AcDbText
 73
     1
  0
LINE
  5
15A87
330
1F
100
AcDbEntity
  8
実線
100
AcDbLine
 10
1494.500030870233
 20
1465.000001702779
 30
0.0
 11
1494.500030870233
 21
1875.000001702781
 31
0.0
  0
LINE
  5
15A88
330
1F
100
AcDbEntity
  8
実線
100
AcDbLine
 10
1510.500030870233
 20
1465.000001702779
 30
0.0
 11
1510.500030870233
 21
1875.000001702781
 31
0.0
  0
LINE
  5
15A89
330
1F
100
AcDbEntity
  8
実線
100
AcDbLine
 10
1494.500030870233
 20
1875.000001702781
 30
0.0
 11
1510.500030870233
 21
1875.000001702781
 31
0.0
  0
LINE
  5
15A8A
330
1F
100
AcDbEntity
  8
実線
100
AcDbLine
 10
1494.500030870233
 20
1465.000001702779
 30
0.0
 11
1510.500030870233
 21
1465.000001702779
 31
0.0
  0
LINE
  5
15A8B
330
1F
100
AcDbEntity
  8
破線
100
AcDbLine
 10
1494.500030870233
 20
1845.000001702781
 30
0.0
 11
1510.500030870233
 21
1845.000001702781
 31
0.0
  0
LINE
  5
15A8C
330
1F
100
AcDbEntity
  8
破線
100
AcDbLine
 10
1494.500030870233
 20
1790.000001702781
 30
0.0
 11
1510.500030870233
 21
1790.000001702781
 31
0.0
  0
LINE
  5
15A8D
330
1F
100
AcDbEntity
  8
破線
100
AcDbLine
 10
1494.500030870233
 20
1550.000001702777
 30
0.0
 11
1510.500030870233
 21
1550.000001702777
 31
0.0
  0
LINE
  5
15A8E
330
1F
100
AcDbEntity
  8
破線
100
AcDbLine
 10
1494.500030870233
 20
1495.000001702777
 30
0.0
 11
1510.500030870233
 21
1495.000001702777
 31
0.0
  0
LINE
  5
15A8F
330
1F
100
AcDbEntity
  8
実線
100
AcDbLine
 10
1494.500030870233
 20
2065.000001702779
 30
0.0
 11
1494.500030870233
 21
2475.000001702782
 31
0.0
  0
LINE
  5
15A90
330
1F
100
AcDbEntity
  8
実線
100
AcDbLine
 10
1510.500030870233
 20
2065.000001702779
 30
0.0
 11
1510.500030870233
 21
2475.000001702782
 31
0.0
  0
LINE
  5
15A91
330
1F
100
AcDbEntity
  8
実線
100
AcDbLine
 10
1494.500030870233
 20
2475.000001702782
 30
0.0
 11
1510.500030870233
 21
2475.000001702782
 31
0.0
  0
LINE
  5
15A92
330
1F
100
AcDbEntity
  8
実線
100
AcDbLine
 10
1494.500030870233
 20
2065.000001702779
 30
0.0
 11
1510.500030870233
 21
2065.000001702779
 31
0.0
  0
LINE
  5
15A93
330
1F
100
AcDbEntity
  8
破線
100
AcDbLine
 10
1494.500030870233
 20
2445.00000170278
 30
0.0
 11
1510.500030870233
 21
2445.00000170278
 31
0.0
  0
LINE
  5
15A94
330
1F
100
AcDbEntity
  8
破線
100
AcDbLine
 10
1494.500030870233
 20
2390.000001702781
 30
0.0
 11
1510.500030870233
 21
2390.000001702781
 31
0.0
  0
LINE
  5
15A95
330
1F
100
AcDbEntity
  8
破線
100
AcDbLine
 10
1494.500030870233
 20
2150.000001702777
 30
0.0
 11
1510.500030870233
 21
2150.000001702777
 31
0.0
  0
LINE
  5
15A96
330
1F
100
AcDbEntity
  8
破線
100
AcDbLine
 10
1494.500030870233
 20
2095.000001702777
 30
0.0
 11
1510.500030870233
 21
2095.000001702777
 31
0.0
  0
LINE
  5
15A99
330
1F
100
AcDbEntity
  8
実線
100
AcDbLine
 10
1894.500030870233
 20
1465.000001702779
 30
0.0
 11
1894.500030870233
 21
1875.000001702781
 31
0.0
  0
LINE
  5
15A9A
330
1F
100
AcDbEntity
  8
実線
100
AcDbLine
 10
1910.500030870233
 20
1465.000001702779
 30
0.0
 11
1910.500030870233
 21
1875.000001702781
 31
0.0
  0
LINE
  5
15A9B
330
1F
100
AcDbEntity
  8
実線
100
AcDbLine
 10
1894.500030870233
 20
1875.000001702781
 30
0.0
 11
1910.500030870233
 21
1875.000001702781
 31
0.0
  0
LINE
  5
15A9C
330
1F
100
AcDbEntity
  8
実線
100
AcDbLine
 10
1894.500030870233
 20
1465.000001702779
 30
0.0
 11
1910.500030870233
 21
1465.000001702779
 31
0.0
  0
LINE
  5
15A9D
330
1F
100
AcDbEntity
  8
破線
100
AcDbLine
 10
1894.500030870233
 20
1845.000001702781
 30
0.0
 11
1910.500030870233
 21
1845.000001702781
 31
0.0
  0
LINE
  5
15A9E
330
1F
100
AcDbEntity
  8
破線
100
AcDbLine
 10
1894.500030870233
 20
1790.000001702781
 30
0.0
 11
1910.500030870233
 21
1790.000001702781
 31
0.0
  0
LINE
  5
15A9F
330
1F
100
AcDbEntity
  8
破線
100
AcDbLine
 10
1894.500030870233
 20
1550.000001702777
 30
0.0
 11
1910.500030870233
 21
1550.000001702777
 31
0.0
  0
LINE
  5
15AA0
330
1F
100
AcDbEntity
  8
破線
100
AcDbLine
 10
1894.500030870233
 20
1495.000001702777
 30
0.0
 11
1910.500030870233
 21
1495.000001702777
 31
0.0
  0
LINE
  5
15AA1
330
1F
100
AcDbEntity
  8
実線
100
AcDbLine
 10
1894.500030870233
 20
2065.000001702779
 30
0.0
 11
1894.500030870233
 21
2475.000001702782
 31
0.0
  0
LINE
  5
15AA2
330
1F
100
AcDbEntity
  8
実線
100
AcDbLine
 10
1910.500030870233
 20
2065.000001702779
 30
0.0
 11
1910.500030870233
 21
2475.000001702782
 31
0.0
  0
LINE
  5
15AA3
330
1F
100
AcDbEntity
  8
実線
100
AcDbLine
 10
1894.500030870233
 20
2475.000001702782
 30
0.0
 11
1910.500030870233
 21
2475.000001702782
 31
0.0
  0
LINE
  5
15AA4
330
1F
100
AcDbEntity
  8
実線
100
AcDbLine
 10
1894.500030870233
 20
2065.000001702779
 30
0.0
 11
1910.500030870233
 21
2065.000001702779
 31
0.0
  0
LINE
  5
15AA5
330
1F
100
AcDbEntity
  8
破線
100
AcDbLine
 10
1894.500030870233
 20
2445.00000170278
 30
0.0
 11
1910.500030870233
 21
2445.00000170278
 31
0.0
  0
LINE
  5
15AA6
330
1F
100
AcDbEntity
  8
破線
100
AcDbLine
 10
1894.500030870233
 20
2390.000001702781
 30
0.0
 11
1910.500030870233
 21
2390.000001702781
 31
0.0
  0
LINE
  5
15AA7
330
1F
100
AcDbEntity
  8
破線
100
AcDbLine
 10
1894.500030870233
 20
2150.000001702777
 30
0.0
 11
1910.500030870233
 21
2150.000001702777
 31
0.0
  0
LINE
  5
15AA8
330
1F
100
AcDbEntity
  8
破線
100
AcDbLine
 10
1894.500030870233
 20
2095.000001702777
 30
0.0
 11
1910.500030870233
 21
2095.000001702777
 31
0.0
  0
LINE
  5
15AA9
330
1F
100
AcDbEntity
  8
実線
100
AcDbLine
 10
2336.499979077718
 20
2095.00000170278
 30
0.0
 11
1910.499927285204
 21
2095.00000170278
 31
0.0
  0
LINE
  5
15AAA
330
1F
100
AcDbEntity
  8
実線
100
AcDbLine
 10
2304.499979077718
 20
2150.000001702781
 30
0.0
 11
1910.499927285204
 21
2150.000001702781
 31
0.0
  0
LINE
  5
15AAB
330
1F
100
AcDbEntity
  8
実線
100
AcDbLine
 10
2304.499979077718
 20
2390.000001702781
 30
0.0
 11
1910.499927285204
 21
2390.000001702781
 31
0.0
  0
LINE
  5
15AAC
330
1F
100
AcDbEntity
  8
実線
100
AcDbLine
 10
2336.499979077718
 20
2445.00000170278
 30
0.0
 11
1910.499927285204
 21
2445.00000170278
 31
0.0
  0
LINE
  5
15AAD
330
1F
100
AcDbEntity
  8
実線
100
AcDbLine
 10
2336.499979077718
 20
1495.000001702781
 30
0.0
 11
1910.499927285204
 21
1495.000001702781
 31
0.0
  0
LINE
  5
15AAE
330
1F
100
AcDbEntity
  8
実線
100
AcDbLine
 10
2304.499979077718
 20
1550.000001702781
 30
0.0
 11
1910.499927285204
 21
1550.000001702781
 31
0.0
  0
LINE
  5
15AAF
330
1F
100
AcDbEntity
  8
実線
100
AcDbLine
 10
2304.499979077718
 20
1790.000001702781
 30
0.0
 11
1910.499927285204
 21
1790.000001702781
 31
0.0
  0
LINE
  5
15AB0
330
1F
100
AcDbEntity
  8
実線
100
AcDbLine
 10
2336.499979077718
 20
1845.000001702781
 30
0.0
 11
1910.499927285204
 21
1845.000001702781
 31
0.0
  0
LINE
  5
15AB1
330
1F
100
AcDbEntity
  8
実線
100
AcDbLine
 10
1510.500030870233
 20
2445.00000170278
 30
0.0
 11
1894.500030870233
 21
2445.00000170278
 31
0.0
  0
LINE
  5
15AB2
330
1F
100
AcDbEntity
  8
実線
100
AcDbLine
 10
1894.500030870233
 20
2390.000001702781
 30
0.0
 11
1510.500030870233
 21
2390.000001702781
 31
0.0
  0
LINE
  5
15AB3
330
1F
100
AcDbEntity
  8
実線
100
AcDbLine
 10
1510.500030870233
 20
2095.000001702779
 30
0.0
 11
1894.500030870233
 21
2095.000001702779
 31
0.0
  0
LINE
  5
15AB4
330
1F
100
AcDbEntity
  8
実線
100
AcDbLine
 10
1894.500030870233
 20
2150.000001702779
 30
0.0
 11
1510.500030870233
 21
2150.000001702779
 31
0.0
  0
LINE
  5
15AB5
330
1F
100
AcDbEntity
  8
実線
100
AcDbLine
 10
1510.500030870233
 20
1845.0
 30
0.0
 11
1894.500030870233
 21
1845.0
 31
0.0
  0
LINE
  5
15AB6
330
1F
100
AcDbEntity
  8
実線
100
AcDbLine
 10
1894.500030870233
 20
1790.0
 30
0.0
 11
1510.500030870233
 21
1790.0
 31
0.0
  0
LINE
  5
15AB7
330
1F
100
AcDbEntity
  8
実線
100
AcDbLine
 10
1510.500030870233
 20
1494.999999999998
 30
0.0
 11
1894.500030870233
 21
1494.999999999998
 31
0.0
  0
LINE
  5
15AB8
330
1F
100
AcDbEntity
  8
実線
100
AcDbLine
 10
1894.500030870233
 20
1549.999999999998
 30
0.0
 11
1510.500030870233
 21
1549.999999999998
 31
0.0
  0
LINE
  5
162F5
330
1F
100
AcDbEntity
  8
実線
100
AcDbLine
 10
1052.500030870233
 20
655.0000369278295
 30
0.0
 11
1052.500030870233
 21
1025.000036927829
 31
0.0
  0
LINE
  5
162F6
330
1F
100
AcDbEntity
  8
実線
100
AcDbLine
 10
1068.500030870233
 20
655.0000369278295
 30
0.0
 11
1068.500030870233
 21
1025.000036927829
 31
0.0
  0
LINE
  5
162F7
330
1F
100
AcDbEntity
  8
実線
100
AcDbLine
 10
1052.500030870233
 20
1025.000018683191
 30
0.0
 11
1068.500030870233
 21
1025.000018683191
 31
0.0
  0
LINE
  5
162F8
330
1F
100
AcDbEntity
  8
実線
100
AcDbLine
 10
1052.500030870233
 20
655.0000186831912
 30
0.0
 11
1068.500030870233
 21
655.0000186831912
 31
0.0
  0
LINE
  5
162F9
330
1F
100
AcDbEntity
  8
実線
100
AcDbLine
 10
1080.500030870233
 20
715.5000186831912
 30
0.0
 11
1100.500030870233
 21
715.5000186831912
 31
0.0
  0
LINE
  5
162FA
330
1F
100
AcDbEntity
  8
実線
100
AcDbLine
 10
1100.500030870233
 20
715.5000186831912
 30
0.0
 11
1100.500030870233
 21
964.5000186831913
 31
0.0
  0
LINE
  5
162FB
330
1F
100
AcDbEntity
  8
実線
100
AcDbLine
 10
2304.500030870233
 20
715.5000186831912
 30
0.0
 11
2304.500030870233
 21
964.5000186831913
 31
0.0
  0
LINE
  5
162FC
330
1F
100
AcDbEntity
  8
実線
100
AcDbLine
 10
2304.500030870233
 20
715.5000186831912
 30
0.0
 11
2324.500030870233
 21
715.5000186831912
 31
0.0
  0
LINE
  5
162FD
330
1F
100
AcDbEntity
  8
実線
100
AcDbLine
 10
1068.500030870233
 20
727.5000186831912
 30
0.0
 11
1080.500030870233
 21
715.5000186831912
 31
0.0
  0
LINE
  5
162FE
330
1F
100
AcDbEntity
  8
実線
100
AcDbLine
 10
2324.500030870233
 20
715.5000186831912
 30
0.0
 11
2336.500030870233
 21
727.5000186831912
 31
0.0
  0
LINE
  5
162FF
330
1F
100
AcDbEntity
  8
実線
100
AcDbLine
 10
1068.500030870233
 20
720.0000186831912
 30
0.0
 11
1075.500030870233
 21
720.0000186831912
 31
0.0
  0
LINE
  5
16300
330
1F
100
AcDbEntity
  8
実線
100
AcDbLine
 10
2329.500030870233
 20
720.0000186831912
 30
0.0
 11
2336.500030870233
 21
720.0000186831912
 31
0.0
  0
LINE
  5
16301
330
1F
100
AcDbEntity
  8
破線
100
AcDbLine
 10
1075.500030870233
 20
720.0000186831912
 30
0.0
 11
1100.500030870233
 21
720.0000186831912
 31
0.0
  0
LINE
  5
16302
330
1F
100
AcDbEntity
  8
破線
100
AcDbLine
 10
2304.500030870233
 20
720.0000186831912
 30
0.0
 11
2329.500030870233
 21
720.0000186831912
 31
0.0
  0
LINE
  5
16303
330
1F
100
AcDbEntity
  8
中心線
100
AcDbLine
 10
1042.500030870233
 20
692.5000186831912
 30
0.0
 11
2362.500134455248
 21
692.5000186831912
 31
0.0
  0
LINE
  5
16304
330
1F
100
AcDbEntity
  8
破線
100
AcDbLine
 10
1068.500030870233
 20
677.0000186831912
 30
0.0
 11
1100.500030870233
 21
677.0000186831912
 31
0.0
  0
LINE
  5
16305
330
1F
100
AcDbEntity
  8
破線
100
AcDbLine
 10
1100.500030870233
 20
677.0000186831912
 30
0.0
 11
1100.500030870233
 21
665.0000186831912
 31
0.0
  0
LINE
  5
16306
330
1F
100
AcDbEntity
  8
中心線
100
AcDbLine
 10
1037.500030870233
 20
840.0000186831912
 30
0.0
 11
2367.500134455247
 21
840.0000186831912
 31
0.0
  0
LINE
  5
16307
330
1F
100
AcDbEntity
  8
中心線
100
AcDbLine
 10
1042.500030870233
 20
987.5000186831911
 30
0.0
 11
2362.500134455248
 21
987.5000186831911
 31
0.0
  0
LINE
  5
16308
330
1F
100
AcDbEntity
  8
破線
100
AcDbLine
 10
2304.500030870233
 20
960.0000186831913
 30
0.0
 11
2329.500030870233
 21
960.0000186831913
 31
0.0
  0
LINE
  5
16309
330
1F
100
AcDbEntity
  8
実線
100
AcDbLine
 10
1100.500030870233
 20
960.0000186831913
 30
0.0
 11
1494.500030870233
 21
960.0000186831913
 31
0.0
  0
LINE
  5
1630A
330
1F
100
AcDbEntity
  8
実線
100
AcDbLine
 10
2329.500030870233
 20
960.0000186831913
 30
0.0
 11
2336.500030870233
 21
960.0000186831913
 31
0.0
  0
LINE
  5
1630B
330
1F
100
AcDbEntity
  8
実線
100
AcDbLine
 10
1068.500134455247
 20
1015.000018683191
 30
0.0
 11
1494.500030870233
 21
1015.000018683191
 31
0.0
  0
LINE
  5
1630C
330
1F
100
AcDbEntity
  8
実線
100
AcDbLine
 10
2304.500030870233
 20
964.5000186831913
 30
0.0
 11
2324.500030870233
 21
964.5000186831913
 31
0.0
  0
LINE
  5
1630D
330
1F
100
AcDbEntity
  8
実線
100
AcDbLine
 10
2324.500030870233
 20
964.5000186831913
 30
0.0
 11
2336.500030870233
 21
952.5000186831912
 31
0.0
  0
LINE
  5
1630E
330
1F
100
AcDbEntity
  8
破線
100
AcDbLine
 10
1068.500030870233
 20
1003.000018683191
 30
0.0
 11
1100.500030870233
 21
1003.000018683191
 31
0.0
  0
LINE
  5
1630F
330
1F
100
AcDbEntity
  8
破線
100
AcDbLine
 10
1100.500030870233
 20
1003.000018683191
 30
0.0
 11
1100.500030870233
 21
1015.000018683191
 31
0.0
  0
LINE
  5
16310
330
1F
100
AcDbEntity
  8
破線
100
AcDbLine
 10
1075.500030870233
 20
960.0000186831913
 30
0.0
 11
1100.500030870233
 21
960.0000186831913
 31
0.0
  0
LINE
  5
16311
330
1F
100
AcDbEntity
  8
実線
100
AcDbLine
 10
1080.500030870233
 20
964.5000186831913
 30
0.0
 11
1100.500030870233
 21
964.5000186831913
 31
0.0
  0
LINE
  5
16312
330
1F
100
AcDbEntity
  8
実線
100
AcDbLine
 10
1068.500030870233
 20
952.5000186831912
 30
0.0
 11
1080.500030870233
 21
964.5000186831913
 31
0.0
  0
LINE
  5
16313
330
1F
100
AcDbEntity
  8
実線
100
AcDbLine
 10
1068.500030870233
 20
960.0000186831913
 30
0.0
 11
1075.500030870233
 21
960.0000186831913
 31
0.0
  0
LINE
  5
16314
330
1F
100
AcDbEntity
  8
破線
100
AcDbLine
 10
2336.500030870233
 20
677.0000186831912
 30
0.0
 11
2304.500030870233
 21
677.0000186831912
 31
0.0
  0
LINE
  5
16315
330
1F
100
AcDbEntity
  8
破線
100
AcDbLine
 10
2304.500030870233
 20
677.0000186831912
 30
0.0
 11
2304.500030870233
 21
665.0000186831912
 31
0.0
  0
LINE
  5
16316
330
1F
100
AcDbEntity
  8
破線
100
AcDbLine
 10
2304.500030870233
 20
1003.000018683191
 30
0.0
 11
2304.500030870233
 21
1015.000018683191
 31
0.0
  0
LINE
  5
16317
330
1F
100
AcDbEntity
  8
破線
100
AcDbLine
 10
2336.500030870233
 20
1003.000018683191
 30
0.0
 11
2304.500030870233
 21
1003.000018683191
 31
0.0
  0
LINE
  5
16318
330
1F
100
AcDbEntity
  8
破線
100
AcDbLine
 10
1068.500030870233
 20
846.0000186831912
 30
0.0
 11
1100.500030870233
 21
846.0000186831912
 31
0.0
  0
LINE
  5
16319
330
1F
100
AcDbEntity
  8
破線
100
AcDbLine
 10
1068.500030870233
 20
834.0000186831911
 30
0.0
 11
1100.500030870233
 21
834.0000186831911
 31
0.0
  0
LINE
  5
1631A
330
1F
100
AcDbEntity
  8
破線
100
AcDbLine
 10
2304.500030870233
 20
846.0000186831912
 30
0.0
 11
2336.500030870233
 21
846.0000186831912
 31
0.0
  0
LINE
  5
1631B
330
1F
100
AcDbEntity
  8
破線
100
AcDbLine
 10
2304.500030870233
 20
834.0000186831911
 30
0.0
 11
2336.500030870233
 21
834.0000186831911
 31
0.0
  0
LINE
  5
1631C
330
1F
100
AcDbEntity
  8
仮想線
100
AcDbLine
 10
1123.963083124403
 20
605.0000186831912
 30
0.0
 11
1123.963083124403
 21
1075.000018683191
 31
0.0
  0
TEXT
  5
1631D
330
1F
100
AcDbEntity
  8
寸法線
100
AcDbText
 10
1173.61830549145
 20
1053.800018683191
 30
0.0
 40
21.0
  1
Ａ
 72
     4
 11
1183.41830549145
 21
1065.000018683191
 31
0.0
100
AcDbText
  0
TEXT
  5
1631E
330
1F
100
AcDbEntity
  8
寸法線
100
AcDbText
 10
1173.61830549145
 20
603.8000186831911
 30
0.0
 40
21.0
  1
Ａ
 72
     4
 11
1183.41830549145
 21
615.0000186831912
 31
0.0
100
AcDbText
  0
LINE
  5
1631F
330
1F
100
AcDbEntity
  8
実線
100
AcDbLine
 10
2336.500030870233
 20
655.0000369278295
 30
0.0
 11
2336.500030870233
 21
1025.000036927829
 31
0.0
  0
LINE
  5
16320
330
1F
100
AcDbEntity
  8
実線
100
AcDbLine
 10
2352.500030870233
 20
655.0000186831912
 30
0.0
 11
2352.500030870233
 21
1025.000018683191
 31
0.0
  0
LINE
  5
16321
330
1F
100
AcDbEntity
  8
実線
100
AcDbLine
 10
2336.500030870233
 20
1025.000018683191
 30
0.0
 11
2352.500030870233
 21
1025.000018683191
 31
0.0
  0
LINE
  5
16322
330
1F
100
AcDbEntity
  8
実線
100
AcDbLine
 10
2336.500030870233
 20
655.0000186831912
 30
0.0
 11
2352.500030870233
 21
655.0000186831912
 31
0.0
  0
LINE
  5
16323
330
1F
100
AcDbEntity
  8
実線
100
AcDbLine
 10
1494.500030870233
 20
635.0000186831912
 30
0.0
 11
1494.500030870233
 21
1045.000018683191
 31
0.0
  0
LINE
  5
16324
330
1F
100
AcDbEntity
  8
実線
100
AcDbLine
 10
1510.500030870233
 20
635.0000186831912
 30
0.0
 11
1510.500030870233
 21
1045.000018683191
 31
0.0
  0
LINE
  5
16325
330
1F
100
AcDbEntity
  8
実線
100
AcDbLine
 10
1494.500030870233
 20
1045.000018683191
 30
0.0
 11
1510.500030870233
 21
1045.000018683191
 31
0.0
  0
LINE
  5
16326
330
1F
100
AcDbEntity
  8
実線
100
AcDbLine
 10
1494.500030870233
 20
635.0000186831912
 30
0.0
 11
1510.500030870233
 21
635.0000186831912
 31
0.0
  0
LINE
  5
16327
330
1F
100
AcDbEntity
  8
破線
100
AcDbLine
 10
1494.500030870233
 20
1015.000018683191
 30
0.0
 11
1510.500030870233
 21
1015.000018683191
 31
0.0
  0
LINE
  5
16328
330
1F
100
AcDbEntity
  8
破線
100
AcDbLine
 10
1494.500030870233
 20
960.0000186831913
 30
0.0
 11
1510.500030870233
 21
960.0000186831913
 31
0.0
  0
LINE
  5
16329
330
1F
100
AcDbEntity
  8
破線
100
AcDbLine
 10
1494.500030870233
 20
720.0000186831912
 30
0.0
 11
1510.500030870233
 21
720.0000186831912
 31
0.0
  0
LINE
  5
1632A
330
1F
100
AcDbEntity
  8
破線
100
AcDbLine
 10
1494.500030870233
 20
665.0000186831912
 30
0.0
 11
1510.500030870233
 21
665.0000186831912
 31
0.0
  0
LINE
  5
1632B
330
1F
100
AcDbEntity
  8
仮想線
100
AcDbLine
 10
1565.963083124403
 20
605.0000186831912
 30
0.0
 11
1565.963083124403
 21
1075.000018683191
 31
0.0
  0
TEXT
  5
1632C
330
1F
100
AcDbEntity
  8
寸法線
100
AcDbText
 10
1614.91830549145
 20
1053.800018683191
 30
0.0
 40
21.0
  1
Ｂ
 72
     4
 11
1625.41830549145
 21
1065.000018683191
 31
0.0
100
AcDbText
  0
TEXT
  5
1632D
330
1F
100
AcDbEntity
  8
寸法線
100
AcDbText
 10
1614.91830549145
 20
603.8000186831911
 30
0.0
 40
21.0
  1
Ｂ
 72
     4
 11
1625.41830549145
 21
615.0000186831912
 31
0.0
100
AcDbText
  0
LINE
  5
1632E
330
1F
100
AcDbEntity
  8
実線
100
AcDbLine
 10
1100.500030870233
 20
720.0000186831912
 30
0.0
 11
1494.500030870233
 21
720.0000186831912
 31
0.0
  0
LINE
  5
1632F
330
1F
100
AcDbEntity
  8
実線
100
AcDbLine
 10
1068.500134455247
 20
665.0000186831912
 30
0.0
 11
1494.500030870233
 21
665.0000186831912
 31
0.0
  0
LINE
  5
16330
330
1F
100
AcDbEntity
  8
実線
100
AcDbLine
 10
1510.500030870233
 20
960.0000186831913
 30
0.0
 11
1894.500030870233
 21
960.0000186831913
 31
0.0
  0
LINE
  5
16331
330
1F
100
AcDbEntity
  8
実線
100
AcDbLine
 10
1510.500134455247
 20
1015.000018683191
 30
0.0
 11
1894.500030870233
 21
1015.000018683191
 31
0.0
  0
LINE
  5
16332
330
1F
100
AcDbEntity
  8
実線
100
AcDbLine
 10
1894.500030870233
 20
635.0000186831912
 30
0.0
 11
1894.500030870233
 21
1045.000018683191
 31
0.0
  0
LINE
  5
16333
330
1F
100
AcDbEntity
  8
実線
100
AcDbLine
 10
1910.500030870233
 20
635.0000186831912
 30
0.0
 11
1910.500030870233
 21
1045.000018683191
 31
0.0
  0
LINE
  5
16334
330
1F
100
AcDbEntity
  8
実線
100
AcDbLine
 10
1894.500030870233
 20
1045.000018683191
 30
0.0
 11
1910.500030870233
 21
1045.000018683191
 31
0.0
  0
LINE
  5
16335
330
1F
100
AcDbEntity
  8
実線
100
AcDbLine
 10
1894.500030870233
 20
635.0000186831912
 30
0.0
 11
1910.500030870233
 21
635.0000186831912
 31
0.0
  0
LINE
  5
16336
330
1F
100
AcDbEntity
  8
破線
100
AcDbLine
 10
1894.500030870233
 20
1015.000018683191
 30
0.0
 11
1910.500030870233
 21
1015.000018683191
 31
0.0
  0
LINE
  5
16337
330
1F
100
AcDbEntity
  8
破線
100
AcDbLine
 10
1894.500030870233
 20
960.0000186831913
 30
0.0
 11
1910.500030870233
 21
960.0000186831913
 31
0.0
  0
LINE
  5
16338
330
1F
100
AcDbEntity
  8
破線
100
AcDbLine
 10
1894.500030870233
 20
720.0000186831912
 30
0.0
 11
1910.500030870233
 21
720.0000186831912
 31
0.0
  0
LINE
  5
16339
330
1F
100
AcDbEntity
  8
破線
100
AcDbLine
 10
1894.500030870233
 20
665.0000186831912
 30
0.0
 11
1910.500030870233
 21
665.0000186831912
 31
0.0
  0
LINE
  5
1633A
330
1F
100
AcDbEntity
  8
仮想線
100
AcDbLine
 10
1965.963083124403
 20
605.0000186831912
 30
0.0
 11
1965.963083124403
 21
1075.000018683191
 31
0.0
  0
TEXT
  5
1633B
330
1F
100
AcDbEntity
  8
寸法線
100
AcDbText
 10
2014.91830549145
 20
1053.800018683191
 30
0.0
 40
21.0
  1
Ｂ
 72
     4
 11
2025.41830549145
 21
1065.000018683191
 31
0.0
100
AcDbText
  0
TEXT
  5
1633C
330
1F
100
AcDbEntity
  8
寸法線
100
AcDbText
 10
2014.91830549145
 20
603.8000186831911
 30
0.0
 40
21.0
  1
Ｂ
 72
     4
 11
2025.41830549145
 21
615.0000186831912
 31
0.0
100
AcDbText
  0
LINE
  5
1633D
330
1F
100
AcDbEntity
  8
実線
100
AcDbLine
 10
1510.500030870233
 20
720.0000186831912
 30
0.0
 11
1894.500030870233
 21
720.0000186831912
 31
0.0
  0
LINE
  5
1633E
330
1F
100
AcDbEntity
  8
実線
100
AcDbLine
 10
1510.500134455247
 20
665.0000186831912
 30
0.0
 11
1894.500030870233
 21
665.0000186831912
 31
0.0
  0
LINE
  5
1633F
330
1F
100
AcDbEntity
  8
実線
100
AcDbLine
 10
2304.500030870233
 20
960.0000186831913
 30
0.0
 11
1910.500030870233
 21
960.0000186831913
 31
0.0
  0
LINE
  5
16340
330
1F
100
AcDbEntity
  8
実線
100
AcDbLine
 10
2336.499927285219
 20
1015.000018683191
 30
0.0
 11
1910.500030870233
 21
1015.000018683191
 31
0.0
  0
LINE
  5
16341
330
1F
100
AcDbEntity
  8
実線
100
AcDbLine
 10
2304.500030870233
 20
720.0000186831912
 30
0.0
 11
1910.500030870233
 21
720.0000186831912
 31
0.0
  0
LINE
  5
16342
330
1F
100
AcDbEntity
  8
実線
100
AcDbLine
 10
2336.499927285219
 20
665.0000186831912
 30
0.0
 11
1910.500030870233
 21
665.0000186831912
 31
0.0
  0
DIMENSION
  5
16343
330
1F
100
AcDbEntity
  8
寸法線
100
AcDbDimension
280
     0
  2
*D21
 10
2231.237113977059
 20
1015.000000438553
 30
0.0
 11
2231.237113977059
 21
885.7322334855725
 31
0.0
 70
   160
  1
%%C<>
 71
     5
 42
55.0
 73
     0
 74
     0
 75
     0
  3
STANDARD
100
AcDbAlignedDimension
 13
2231.237113977059
 23
960.0000004385526
 33
0.0
 14
2231.237113977059
 24
1015.000000438553
 34
0.0
 50
90.0
100
AcDbRotatedDimension
  0
LEADER
  5
16344
330
1F
100
AcDbEntity
  8
寸法線
100
AcDbLeader
  3
STANDARD
 76
     2
 10
1123.963083124403
 20
1065.000018683191
 30
0.0
 10
1171.359818310247
 20
1065.000018683191
 30
0.0
1001
ACAD
1000
DSTYLE
1002
{
1070
   147
1040
0.875
1070
    77
1070
     0
1070
    49
1040
0.5
1002
}
  0
LEADER
  5
16345
330
1F
100
AcDbEntity
  8
寸法線
100
AcDbLeader
  3
STANDARD
 76
     2
 10
1123.963083124403
 20
615.0000186831912
 30
0.0
 10
1171.359818310247
 20
615.0000186831912
 30
0.0
1001
ACAD
1000
DSTYLE
1002
{
1070
   147
1040
0.875
1070
    77
1070
     0
1070
    49
1040
0.5
1002
}
  0
LEADER
  5
16346
330
1F
100
AcDbEntity
  8
寸法線
100
AcDbLeader
  3
STANDARD
 76
     2
 10
1965.963083124403
 20
1065.000018683191
 30
0.0
 10
2013.359818310219
 20
1065.000018683191
 30
0.0
1001
ACAD
1000
DSTYLE
1002
{
1070
   147
1040
0.875
1070
    77
1070
     0
1070
    49
1040
0.5
1002
}
  0
LEADER
  5
16347
330
1F
100
AcDbEntity
  8
寸法線
100
AcDbLeader
  3
STANDARD
 76
     2
 10
1965.963083124403
 20
615.0000186831912
 30
0.0
 10
2013.359818310219
 20
615.0000186831912
 30
0.0
1001
ACAD
1000
DSTYLE
1002
{
1070
   147
1040
0.875
1070
    77
1070
     0
1070
    49
1040
0.5
1002
}
  0
LEADER
  5
16348
330
1F
100
AcDbEntity
  8
寸法線
100
AcDbLeader
  3
STANDARD
 76
     2
 10
1565.963083124403
 20
1065.000018683191
 30
0.0
 10
1613.359818310218
 20
1065.000018683191
 30
0.0
1001
ACAD
1000
DSTYLE
1002
{
1070
   147
1040
0.875
1070
    77
1070
     0
1070
    49
1040
0.5
1002
}
  0
LEADER
  5
16349
330
1F
100
AcDbEntity
  8
寸法線
100
AcDbLeader
  3
STANDARD
 76
     2
 10
1565.963083124403
 20
615.0000186831912
 30
0.0
 10
1613.359818310218
 20
615.0000186831912
 30
0.0
1001
ACAD
1000
DSTYLE
1002
{
1070
   147
1040
0.875
1070
    77
1070
     0
1070
    49
1040
0.5
1002
}
  0
DIMENSION
  5
1634A
330
1F
100
AcDbEntity
  8
寸法線
100
AcDbDimension
280
     0
  2
*D22
 10
1100.500030870233
 20
535.0000186831912
 30
0.0
 11
1084.500030870233
 21
535.0000186831912
 31
0.0
 70
   160
 71
     5
 42
32.0
 73
     0
 74
     0
 75
     0
  3
STANDARD
100
AcDbAlignedDimension
 13
1068.500030870233
 23
655.000000438582
 33
0.0
 14
1100.500030870233
 24
665.000000438582
 34
0.0
100
AcDbRotatedDimension
  0
DIMENSION
  5
1634B
330
1F
100
AcDbEntity
  8
寸法線
100
AcDbDimension
280
     0
  2
*D23
 10
2304.500030870233
 20
535.0000186831912
 30
0.0
 11
1702.500030870233
 21
556.2524793131125
 31
0.0
 70
    32
 71
     5
 42
1204.0
 73
     0
 74
     0
 75
     0
  3
STANDARD
100
AcDbAlignedDimension
 13
1100.500030870233
 23
665.000000438582
 33
0.0
 14
2304.500030870233
 24
665.0000186831912
 34
0.0
100
AcDbRotatedDimension
  0
DIMENSION
  5
1634C
330
1F
100
AcDbEntity
  8
寸法線
100
AcDbDimension
280
     0
  2
*D24
 10
1068.500030870233
 20
475.0000186831912
 30
0.0
 11
1060.500030870233
 21
475.0000186831912
 31
0.0
 70
   160
 71
     5
 42
16.0
 73
     0
 74
     0
 75
     0
  3
STANDARD
100
AcDbAlignedDimension
 13
1052.500030870233
 23
655.000000438582
 33
0.0
 14
1068.500030870233
 24
655.000000438582
 34
0.0
100
AcDbRotatedDimension
  0
DIMENSION
  5
1634D
330
1F
100
AcDbEntity
  8
寸法線
100
AcDbDimension
280
     0
  2
*D25
 10
2336.500030870233
 20
475.0000186831912
 30
0.0
 11
1702.500030870233
 21
496.2524793131124
 31
0.0
 70
    32
 71
     5
 42
1268.0
 73
     0
 74
     0
 75
     0
  3
STANDARD
100
AcDbAlignedDimension
 13
1068.500030870233
 23
655.0000186831912
 33
0.0
 14
2336.500030870233
 24
655.0000186831912
 34
0.0
100
AcDbRotatedDimension
  0
DIMENSION
  5
1634E
330
1F
100
AcDbEntity
  8
寸法線
100
AcDbDimension
280
     0
  2
*D26
 10
2352.500030870233
 20
415.0000186831912
 30
0.0
 11
1702.500030870233
 21
436.2500186831912
 31
0.0
 70
    32
 71
     5
 42
1300.0
 73
     0
 74
     0
 75
     0
  3
STANDARD
100
AcDbAlignedDimension
 13
1052.500030870233
 23
655.0000186831912
 33
0.0
 14
2352.500030870233
 24
655.0000186831912
 34
0.0
100
AcDbRotatedDimension
  0
DIMENSION
  5
1634F
330
1F
100
AcDbEntity
  8
寸法線
100
AcDbDimension
280
     0
  2
*D27
 10
1510.500037955559
 20
1145.000001111584
 30
0.0
 11
1702.50003946119
 21
1166.249987507755
 31
0.0
 70
    32
 71
     5
 42
383.9999999999991
 73
     0
 74
     0
 75
     0
  3
STANDARD
100
AcDbAlignedDimension
 13
1894.500030870233
 23
1045.000018683191
 33
0.0
 14
1510.500030870233
 24
1045.000018683191
 34
0.0
 50
179.9999959404063
100
AcDbRotatedDimension
  0
DIMENSION
  5
16350
330
1F
100
AcDbEntity
  8
寸法線
100
AcDbDimension
280
     0
  2
*D28
 10
1894.500030870233
 20
1145.000009377802
 30
0.0
 11
1902.500030870233
 21
1145.000009377802
 31
0.0
 70
   160
 71
     5
 42
16.0
 73
     0
 74
     0
 75
     0
  3
STANDARD
100
AcDbAlignedDimension
 13
1910.500030870233
 23
1045.000018683191
 33
0.0
 14
1894.500030870233
 24
1045.000018683191
 34
0.0
 50
180.0
100
AcDbRotatedDimension
  0
DIMENSION
  5
16351
330
1F
100
AcDbEntity
  8
寸法線
100
AcDbDimension
280
     0
  2
*D29
 10
1910.500037955559
 20
1145.000001111593
 30
0.0
 11
2123.500040169897
 21
1166.252446649767
 31
0.0
 70
    32
 71
     5
 42
426.0000014170628
 73
     0
 74
     0
 75
     0
  3
STANDARD
100
AcDbAlignedDimension
 13
2336.500030870233
 23
1025.000036927829
 33
0.0
 14
1910.500030870233
 24
1045.000018683191
 34
0.0
 50
179.9999959404063
100
AcDbRotatedDimension
  0
DIMENSION
  5
16352
330
1F
100
AcDbEntity
  8
寸法線
100
AcDbDimension
280
     0
  2
*D30
 10
2304.500030870233
 20
535.0000186831912
 30
0.0
 11
2320.500030870233
 21
535.0000186831912
 31
0.0
 70
   160
 71
     5
 42
32.0
 73
     0
 74
     0
 75
     0
  3
STANDARD
100
AcDbAlignedDimension
 13
2336.500030870233
 23
655.000000438582
 33
0.0
 14
2304.500030870233
 24
665.000000438582
 34
0.0
 50
180.0
100
AcDbRotatedDimension
  0
DIMENSION
  5
16353
330
1F
100
AcDbEntity
  8
寸法線
100
AcDbDimension
280
     0
  2
*D31
 10
2336.500030870233
 20
475.0000186831912
 30
0.0
 11
2344.500030870233
 21
475.0000186831912
 31
0.0
 70
   160
 71
     5
 42
16.0
 73
     0
 74
     0
 75
     0
  3
STANDARD
100
AcDbAlignedDimension
 13
2352.500030870233
 23
655.000000438582
 33
0.0
 14
2336.500030870233
 24
655.000000438582
 34
0.0
 50
180.0
100
AcDbRotatedDimension
  0
DIMENSION
  5
16354
330
1F
100
AcDbEntity
  8
寸法線
100
AcDbDimension
280
     0
  2
*D32
 10
1510.50004504088
 20
1145.000009377802
 30
0.0
 11
1502.50004504088
 21
1145.000009377802
 31
0.0
 70
   160
 71
     5
 42
16.0
 73
     0
 74
     0
 75
     0
  3
STANDARD
100
AcDbAlignedDimension
 13
1494.50004504088
 23
1045.000018683191
 33
0.0
 14
1510.50004504088
 24
1045.000018683191
 34
0.0
100
AcDbRotatedDimension
  0
DIMENSION
  5
16355
330
1F
100
AcDbEntity
  8
寸法線
100
AcDbDimension
280
     0
  2
*D33
 10
1494.50004504088
 20
1145.000001111593
 30
0.0
 11
1281.50004504088
 21
1166.252461741515
 31
0.0
 70
    32
 71
     5
 42
426.0
 73
     0
 74
     0
 75
     0
  3
STANDARD
100
AcDbAlignedDimension
 13
1068.50004504088
 23
1025.000036927829
 33
0.0
 14
1494.50004504088
 24
1045.000018683191
 34
0.0
 50
0.0000040595936363
100
AcDbRotatedDimension
  0
LINE
  5
16356
330
1F
100
AcDbEntity
  8
破線
100
AcDbLine
 10
593.0000270626368
 20
1003.000036927829
 30
0.0
 11
842.0000270626369
 21
1003.000036927829
 31
0.0
  0
LINE
  5
16357
330
1F
100
AcDbEntity
  8
破線
100
AcDbLine
 10
554.7500270626368
 20
846.0000369278294
 30
0.0
 11
880.2500270626367
 21
846.0000369278294
 31
0.0
  0
LINE
  5
16358
330
1F
100
AcDbEntity
  8
破線
100
AcDbLine
 10
554.7500270626368
 20
834.0000369278296
 30
0.0
 11
880.2500270626367
 21
834.0000369278296
 31
0.0
  0
LINE
  5
16359
330
1F
100
AcDbEntity
  8
破線
100
AcDbLine
 10
842.0000270626369
 20
677.0000369278295
 30
0.0
 11
593.0000270626368
 21
677.0000369278295
 31
0.0
  0
LINE
  5
1635A
330
1F
100
AcDbEntity
  8
破線
100
AcDbLine
 10
842.0000270626369
 20
665.0000369278295
 30
0.0
 11
593.0000270626368
 21
665.0000369278295
 31
0.0
  0
LINE
  5
1635B
330
1F
100
AcDbEntity
  8
破線
100
AcDbLine
 10
593.0000270626368
 20
1015.000036927829
 30
0.0
 11
842.0000270626369
 21
1015.000036927829
 31
0.0
  0
LINE
  5
1635C
330
1F
100
AcDbEntity
  8
中心線
100
AcDbLine
 10
522.5001344552473
 20
840.0000369278295
 30
0.0
 11
912.5001344552472
 21
840.0000369278295
 31
0.0
  0
LINE
  5
1635D
330
1F
100
AcDbEntity
  8
実線
100
AcDbLine
 10
532.5001344552473
 20
1025.000055172468
 30
0.0
 11
902.5001344552476
 21
1025.000055172468
 31
0.0
  0
LINE
  5
1635E
330
1F
100
AcDbEntity
  8
実線
100
AcDbLine
 10
532.5001344552473
 20
655.0000551724679
 30
0.0
 11
902.5001344552476
 21
655.0000551724679
 31
0.0
  0
LINE
  5
1635F
330
1F
100
AcDbEntity
  8
破線
100
AcDbLine
 10
554.5000270626368
 20
715.5000369278296
 30
0.0
 11
554.5000270626368
 21
964.5000369278296
 31
0.0
  0
LINE
  5
16360
330
1F
100
AcDbEntity
  8
破線
100
AcDbLine
 10
542.5000270626368
 20
715.5000369278296
 30
0.0
 11
542.5000270626368
 21
964.5000369278296
 31
0.0
  0
LINE
  5
16361
330
1F
100
AcDbEntity
  8
実線
100
AcDbLine
 10
532.5001344552473
 20
655.0000551724679
 30
0.0
 11
532.5001344552473
 21
1025.000055172468
 31
0.0
  0
LINE
  5
16362
330
1F
100
AcDbEntity
  8
中心線
100
AcDbLine
 10
570.0000270626368
 20
742.5000369278294
 30
0.0
 11
570.0000270626368
 21
642.5000369278295
 31
0.0
  0
LINE
  5
16363
330
1F
100
AcDbEntity
  8
中心線
100
AcDbLine
 10
520.0000270626368
 20
692.5000369278294
 30
0.0
 11
620.0000270626368
 21
692.5000369278294
 31
0.0
  0
CIRCLE
  5
16364
330
1F
100
AcDbEntity
  8
破線
100
AcDbCircle
 10
570.0000270626368
 20
692.5000369278294
 30
0.0
 40
27.5
  0
LINE
  5
16365
330
1F
100
AcDbEntity
  8
破線
100
AcDbLine
 10
593.0000270626368
 20
665.0000369278295
 30
0.0
 11
593.0000270626368
 21
677.0000369278295
 31
0.0
  0
LINE
  5
16366
330
1F
100
AcDbEntity
  8
破線
100
AcDbLine
 10
542.5000270626368
 20
715.5000369278296
 30
0.0
 11
554.5000270626368
 21
715.5000369278296
 31
0.0
  0
LINE
  5
16367
330
1F
100
AcDbEntity
  8
破線
100
AcDbLine
 10
554.7500270626368
 20
834.0000369278296
 30
0.0
 11
554.7500270626368
 21
846.0000369278294
 31
0.0
  0
LINE
  5
16368
330
1F
100
AcDbEntity
  8
中心線
100
AcDbLine
 10
520.0000270626368
 20
987.5000369278295
 30
0.0
 11
620.0000270626368
 21
987.5000369278295
 31
0.0
  0
LINE
  5
16369
330
1F
100
AcDbEntity
  8
中心線
100
AcDbLine
 10
570.0000270626368
 20
1037.500036927829
 30
0.0
 11
570.0000270626368
 21
937.5000369278295
 31
0.0
  0
CIRCLE
  5
1636A
330
1F
100
AcDbEntity
  8
破線
100
AcDbCircle
 10
570.0000270626368
 20
987.5000369278295
 30
0.0
 40
27.5
  0
LINE
  5
1636B
330
1F
100
AcDbEntity
  8
破線
100
AcDbLine
 10
542.5000270626368
 20
964.5000369278296
 30
0.0
 11
554.5000270626368
 21
964.5000369278296
 31
0.0
  0
LINE
  5
1636C
330
1F
100
AcDbEntity
  8
破線
100
AcDbLine
 10
593.0000270626368
 20
1015.000036927829
 30
0.0
 11
593.0000270626368
 21
1003.000036927829
 31
0.0
  0
LINE
  5
1636D
330
1F
100
AcDbEntity
  8
破線
100
AcDbLine
 10
880.5000270626369
 20
964.5000369278296
 30
0.0
 11
880.5000270626369
 21
715.5000369278296
 31
0.0
  0
LINE
  5
1636E
330
1F
100
AcDbEntity
  8
破線
100
AcDbLine
 10
711.5000270626368
 20
1002.500036927829
 30
0.0
 11
711.5000270626368
 21
846.0000369278294
 31
0.0
  0
LINE
  5
1636F
330
1F
100
AcDbEntity
  8
破線
100
AcDbLine
 10
723.5000270626368
 20
1002.500036927829
 30
0.0
 11
723.5000270626368
 21
846.0000369278294
 31
0.0
  0
LINE
  5
16370
330
1F
100
AcDbEntity
  8
破線
100
AcDbLine
 10
892.500027062637
 20
964.5000369278296
 30
0.0
 11
892.500027062637
 21
715.5000369278296
 31
0.0
  0
LINE
  5
16371
330
1F
100
AcDbEntity
  8
中心線
100
AcDbLine
 10
717.500027062637
 20
1035.000055172468
 30
0.0
 11
717.500027062637
 21
645.0000551724679
 31
0.0
  0
LINE
  5
16372
330
1F
100
AcDbEntity
  8
実線
100
AcDbLine
 10
902.5001344552476
 20
655.0000551724679
 30
0.0
 11
902.5001344552476
 21
1025.000055172468
 31
0.0
  0
LINE
  5
16373
330
1F
100
AcDbEntity
  8
破線
100
AcDbLine
 10
711.5000270626368
 20
834.0000369278296
 30
0.0
 11
711.5000270626368
 21
677.5000369278295
 31
0.0
  0
LINE
  5
16374
330
1F
100
AcDbEntity
  8
破線
100
AcDbLine
 10
723.5000270626368
 20
834.0000369278296
 30
0.0
 11
723.5000270626368
 21
677.5000369278295
 31
0.0
  0
LINE
  5
16375
330
1F
100
AcDbEntity
  8
中心線
100
AcDbLine
 10
865.0000270626367
 20
742.5000369278294
 30
0.0
 11
865.0000270626367
 21
642.5000369278295
 31
0.0
  0
LINE
  5
16376
330
1F
100
AcDbEntity
  8
中心線
100
AcDbLine
 10
815.0000270626367
 20
692.5000369278294
 30
0.0
 11
915.0000270626367
 21
692.5000369278294
 31
0.0
  0
LINE
  5
16377
330
1F
100
AcDbEntity
  8
破線
100
AcDbLine
 10
711.5000270626368
 20
677.5000369278295
 30
0.0
 11
723.5000270626368
 21
677.5000369278295
 31
0.0
  0
CIRCLE
  5
16378
330
1F
100
AcDbEntity
  8
破線
100
AcDbCircle
 10
865.0000270626367
 20
692.5000369278294
 30
0.0
 40
27.5
  0
LINE
  5
16379
330
1F
100
AcDbEntity
  8
破線
100
AcDbLine
 10
842.0000270626369
 20
665.0000369278295
 30
0.0
 11
842.0000270626369
 21
677.0000369278295
 31
0.0
  0
LINE
  5
1637A
330
1F
100
AcDbEntity
  8
破線
100
AcDbLine
 10
892.500027062637
 20
715.5000369278296
 30
0.0
 11
880.5000270626369
 21
715.5000369278296
 31
0.0
  0
LINE
  5
1637B
330
1F
100
AcDbEntity
  8
破線
100
AcDbLine
 10
880.2500270626367
 20
846.0000369278294
 30
0.0
 11
880.2500270626367
 21
834.0000369278296
 31
0.0
  0
LINE
  5
1637C
330
1F
100
AcDbEntity
  8
中心線
100
AcDbLine
 10
815.0000270626367
 20
987.5000369278295
 30
0.0
 11
915.0000270626367
 21
987.5000369278295
 31
0.0
  0
LINE
  5
1637D
330
1F
100
AcDbEntity
  8
破線
100
AcDbLine
 10
711.5000270626368
 20
1002.500036927829
 30
0.0
 11
723.5000270626368
 21
1002.500036927829
 31
0.0
  0
LINE
  5
1637E
330
1F
100
AcDbEntity
  8
中心線
100
AcDbLine
 10
865.0000270626367
 20
1037.500036927829
 30
0.0
 11
865.0000270626367
 21
937.5000369278295
 31
0.0
  0
CIRCLE
  5
1637F
330
1F
100
AcDbEntity
  8
破線
100
AcDbCircle
 10
865.0000270626367
 20
987.5000369278295
 30
0.0
 40
27.5
  0
LINE
  5
16380
330
1F
100
AcDbEntity
  8
破線
100
AcDbLine
 10
892.500027062637
 20
964.5000369278296
 30
0.0
 11
880.5000270626369
 21
964.5000369278296
 31
0.0
  0
LINE
  5
16381
330
1F
100
AcDbEntity
  8
破線
100
AcDbLine
 10
842.0000270626369
 20
1015.000036927829
 30
0.0
 11
842.0000270626369
 21
1003.000036927829
 31
0.0
  0
DIMENSION
  5
16382
330
1F
100
AcDbEntity
  8
寸法線
100
AcDbDimension
280
     0
  2
*D34
 10
412.5000270626367
 20
1025.000055172468
 30
0.0
 11
412.5000270626369
 21
840.0000551724678
 31
0.0
 70
   160
 71
     5
 42
370.0
 73
     0
 74
     0
 75
     0
  3
STANDARD
100
AcDbAlignedDimension
 13
532.4999196699973
 23
655.0000551724679
 33
0.0
 14
532.4999196699973
 24
1025.000055172468
 34
0.0
 50
90.0
100
AcDbRotatedDimension
  0
DIMENSION
  5
16383
330
1F
100
AcDbEntity
  8
寸法線
100
AcDbDimension
280
     0
  2
*D35
 10
902.5001344552476
 20
535.0000551724678
 30
0.0
 11
717.5001344552473
 21
535.0000551724678
 31
0.0
 70
   160
 71
     5
 42
370.0
 73
     0
 74
     0
 75
     0
  3
STANDARD
100
AcDbAlignedDimension
 13
532.5001344552473
 23
655.0000551724679
 33
0.0
 14
902.5001344552476
 24
655.0000551724679
 34
0.0
100
AcDbRotatedDimension
  0
LINE
  5
16384
330
1F
100
AcDbEntity
  8
実線
100
AcDbLine
 10
3057.500030870234
 20
615.0000734171062
 30
0.0
 11
3467.500030870234
 21
615.0000734171062
 31
0.0
  0
LINE
  5
16385
330
1F
100
AcDbEntity
  8
実線
100
AcDbLine
 10
3057.500030870234
 20
615.0000734171062
 30
0.0
 11
3057.500030870234
 21
1025.000073417106
 31
0.0
  0
LINE
  5
16386
330
1F
100
AcDbEntity
  8
実線
100
AcDbLine
 10
3467.500030870234
 20
615.0000734171062
 30
0.0
 11
3467.500030870234
 21
1025.000073417106
 31
0.0
  0
LINE
  5
16387
330
1F
100
AcDbEntity
  8
実線
100
AcDbLine
 10
3057.500030870234
 20
1025.000073417106
 30
0.0
 11
3467.500030870234
 21
1025.000073417106
 31
0.0
  0
LINE
  5
16388
330
1F
100
AcDbEntity
  8
中心線
100
AcDbLine
 10
3262.500030870234
 20
1035.000073417106
 30
0.0
 11
3262.500030870234
 21
605.0000734171062
 31
0.0
  0
CIRCLE
  5
16389
330
1F
100
AcDbEntity
  8
実線
100
AcDbCircle
 10
3410.000030870234
 20
967.5000734171064
 30
0.0
 40
27.5
  0
LINE
  5
1638A
330
1F
100
AcDbEntity
  8
中心線
100
AcDbLine
 10
3410.000030870234
 20
1017.500073417106
 30
0.0
 11
3410.000030870234
 21
917.5000734171064
 31
0.0
  0
LINE
  5
1638B
330
1F
100
AcDbEntity
  8
中心線
100
AcDbLine
 10
3360.000030870234
 20
967.5000734171064
 30
0.0
 11
3460.000030870233
 21
967.5000734171064
 31
0.0
  0
LINE
  5
1638C
330
1F
100
AcDbEntity
  8
中心線
100
AcDbLine
 10
3360.000030870234
 20
672.5000734171062
 30
0.0
 11
3460.000030870233
 21
672.5000734171062
 31
0.0
  0
LINE
  5
1638D
330
1F
100
AcDbEntity
  8
中心線
100
AcDbLine
 10
3410.000030870234
 20
722.5000734171064
 30
0.0
 11
3410.000030870234
 21
622.5000734171062
 31
0.0
  0
CIRCLE
  5
1638E
330
1F
100
AcDbEntity
  8
実線
100
AcDbCircle
 10
3410.000030870234
 20
672.5000734171062
 30
0.0
 40
27.5
  0
LINE
  5
1638F
330
1F
100
AcDbEntity
  8
中心線
100
AcDbLine
 10
3115.000030870234
 20
722.5000734171064
 30
0.0
 11
3115.000030870234
 21
622.5000734171062
 31
0.0
  0
LINE
  5
16390
330
1F
100
AcDbEntity
  8
中心線
100
AcDbLine
 10
3065.000030870234
 20
672.5000734171062
 30
0.0
 11
3165.000030870233
 21
672.5000734171062
 31
0.0
  0
CIRCLE
  5
16391
330
1F
100
AcDbEntity
  8
実線
100
AcDbCircle
 10
3115.000030870234
 20
672.5000734171062
 30
0.0
 40
27.5
  0
LINE
  5
16392
330
1F
100
AcDbEntity
  8
中心線
100
AcDbLine
 10
3115.000030870234
 20
1017.500073417106
 30
0.0
 11
3115.000030870234
 21
917.5000734171064
 31
0.0
  0
LINE
  5
16393
330
1F
100
AcDbEntity
  8
中心線
100
AcDbLine
 10
3065.000030870234
 20
967.5000734171064
 30
0.0
 11
3165.000030870233
 21
967.5000734171064
 31
0.0
  0
CIRCLE
  5
16394
330
1F
100
AcDbEntity
  8
実線
100
AcDbCircle
 10
3115.000030870234
 20
967.5000734171064
 30
0.0
 40
27.5
  0
DIMENSION
  5
16395
330
1F
100
AcDbEntity
  8
寸法線
100
AcDbDimension
280
     0
  2
*D36
 10
3467.500030870234
 20
535.0000734171061
 30
0.0
 11
3262.500030870234
 21
556.2500734171061
 31
0.0
 70
    32
 71
     5
 42
410.0
 73
     0
 74
     0
 75
     0
  3
STANDARD
100
AcDbAlignedDimension
 13
3057.500030870234
 23
615.0000734171062
 33
0.0
 14
3467.500030870234
 24
615.0000734171062
 34
0.0
100
AcDbRotatedDimension
  0
DIMENSION
  5
16396
330
1F
100
AcDbEntity
  8
寸法線
100
AcDbDimension
280
     0
  2
*D37
 10
3547.500030870465
 20
1025.000073417106
 30
0.0
 11
3526.250030870464
 21
820.0000734171052
 31
0.0
 70
    32
 71
     5
 42
410.0000000000001
 73
     0
 74
     0
 75
     0
  3
STANDARD
100
AcDbAlignedDimension
 13
3467.500030870234
 23
615.0000734171062
 33
0.0
 14
3467.500030870234
 24
1025.000073417106
 34
0.0
 50
90.0
100
AcDbRotatedDimension
  0
CIRCLE
  5
16397
330
1F
100
AcDbEntity
  8
実線
100
AcDbCircle
 10
3262.500030870234
 20
820.0000734171064
 30
0.0
 40
125.0
  0
CIRCLE
  5
16398
330
1F
100
AcDbEntity
  8
実線
100
AcDbCircle
 10
3115.000030870234
 20
967.5000734171064
 30
0.0
 40
28.75
  0
CIRCLE
  5
16399
330
1F
100
AcDbEntity
  8
実線
100
AcDbCircle
 10
3115.000030870234
 20
672.5000734171062
 30
0.0
 40
28.75
  0
CIRCLE
  5
1639A
330
1F
100
AcDbEntity
  8
実線
100
AcDbCircle
 10
3410.000030870234
 20
672.5000734171062
 30
0.0
 40
28.75
  0
CIRCLE
  5
1639B
330
1F
100
AcDbEntity
  8
実線
100
AcDbCircle
 10
3410.000030870234
 20
967.5000734171064
 30
0.0
 40
28.75
  0
LINE
  5
1639E
330
1F
100
AcDbEntity
  8
中心線
100
AcDbLine
 10
3047.500030870234
 20
820.0000734171064
 30
0.0
 11
3477.500030870233
 21
820.0000734171064
 31
0.0
  0
DIMENSION
  5
1639F
330
1F
100
AcDbEntity
  8
寸法線
100
AcDbDimension
280
     0
  2
*D38
 10
3370.753206343245
 20
882.5000734172125
 30
0.0
 11
3311.325280166877
 21
848.1893442417005
 31
0.0
 70
   160
  1
%%C<>
 71
     5
 42
250.0000000000068
 73
     0
 74
     0
 75
     0
  3
STANDARD
100
AcDbAlignedDimension
 13
3154.246855397189
 23
757.5000734171063
 33
0.0
 14
3370.753206343306
 24
882.5000734171064
 34
0.0
 50
30.00000000014826
100
AcDbRotatedDimension
  0
LINE
  5
163A0
330
1F
100
AcDbEntity
  8
実線
100
AcDbLine
 10
2547.970719694891
 20
1003.000307845055
 30
0.0
 11
2796.970719694892
 21
1003.000307845055
 31
0.0
  0
LINE
  5
163A1
330
1F
100
AcDbEntity
  8
実線
100
AcDbLine
 10
2547.970719694891
 20
1015.000307845055
 30
0.0
 11
2796.970719694892
 21
1015.000307845055
 31
0.0
  0
LINE
  5
163A2
330
1F
100
AcDbEntity
  8
実線
100
AcDbLine
 10
2796.970719694892
 20
665.0003078450554
 30
0.0
 11
2547.970719694891
 21
665.0003078450554
 31
0.0
  0
DIMENSION
  5
163A4
330
1F
100
AcDbEntity
  8
寸法線
100
AcDbDimension
280
     0
  2
*D39
 10
2819.97041183888
 20
535.0000734171061
 30
0.0
 11
2672.470719694891
 21
535.0000734171061
 31
0.0
 70
   160
 71
     5
 42
295.0
 73
     0
 74
     0
 75
     0
  3
STANDARD
100
AcDbAlignedDimension
 13
2524.97041183888
 23
640.000055172497
 33
0.0
 14
2819.97041183888
 24
640.000055172497
 34
0.0
100
AcDbRotatedDimension
  0
LINE
  5
163A5
330
1F
100
AcDbEntity
  8
実線
100
AcDbLine
 10
2487.470494989048
 20
655.0000734171062
 30
0.0
 11
2857.470494989048
 21
655.0000734171062
 31
0.0
  0
LINE
  5
163A6
330
1F
100
AcDbEntity
  8
実線
100
AcDbLine
 10
2487.470494989048
 20
1025.000073417106
 30
0.0
 11
2857.470494989048
 21
1025.000073417106
 31
0.0
  0
LINE
  5
163A7
330
1F
100
AcDbEntity
  8
中心線
100
AcDbLine
 10
2462.470511838885
 20
840.0003078450554
 30
0.0
 11
2882.470511838885
 21
840.0003078450554
 31
0.0
  0
LINE
  5
163A8
330
1F
100
AcDbEntity
  8
実線
100
AcDbLine
 10
2509.720719694891
 20
846.0003078450554
 30
0.0
 11
2835.220719694891
 21
846.0003078450554
 31
0.0
  0
LINE
  5
163A9
330
1F
100
AcDbEntity
  8
実線
100
AcDbLine
 10
2509.720719694891
 20
834.0003078450552
 30
0.0
 11
2835.220719694891
 21
834.0003078450552
 31
0.0
  0
LINE
  5
163AA
330
1F
100
AcDbEntity
  8
実線
100
AcDbLine
 10
2497.470719694891
 20
715.5003078450554
 30
0.0
 11
2497.470719694891
 21
964.5003078450557
 31
0.0
  0
LINE
  5
163AB
330
1F
100
AcDbEntity
  8
実線
100
AcDbLine
 10
2497.470719694891
 20
715.5003078450554
 30
0.0
 11
2509.470719694891
 21
715.5003078450554
 31
0.0
  0
LINE
  5
163AC
330
1F
100
AcDbEntity
  8
実線
100
AcDbLine
 10
2547.970719694891
 20
665.0003078450554
 30
0.0
 11
2547.970719694891
 21
677.0003078450554
 31
0.0
  0
LINE
  5
163AD
330
1F
100
AcDbEntity
  8
実線
100
AcDbLine
 10
2509.720719694891
 20
834.0003078450552
 30
0.0
 11
2509.720719694891
 21
846.0003078450554
 31
0.0
  0
LINE
  5
163AE
330
1F
100
AcDbEntity
  8
実線
100
AcDbLine
 10
2497.470719694891
 20
964.5003078450557
 30
0.0
 11
2509.470719694891
 21
964.5003078450557
 31
0.0
  0
LINE
  5
163AF
330
1F
100
AcDbEntity
  8
実線
100
AcDbLine
 10
2547.970719694891
 20
1015.000307845055
 30
0.0
 11
2547.970719694891
 21
1003.000307845055
 31
0.0
  0
LINE
  5
163B0
330
1F
100
AcDbEntity
  8
実線
100
AcDbLine
 10
2676.970719694891
 20
1002.500307845055
 30
0.0
 11
2676.970719694891
 21
846.0003078450554
 31
0.0
  0
LINE
  5
163B1
330
1F
100
AcDbEntity
  8
実線
100
AcDbLine
 10
2667.970719694891
 20
1002.500307845055
 30
0.0
 11
2667.970719694891
 21
846.0003078450554
 31
0.0
  0
DIMENSION
  5
163B2
330
1F
100
AcDbEntity
  8
寸法線
100
AcDbDimension
280
     0
  2
*D40
 10
2977.470494989047
 20
1025.000073417106
 30
0.0
 11
2977.470494989047
 21
1006.250064294801
 31
0.0
 70
   160
 71
     5
 42
37.50001824460925
 73
     0
 74
     0
 75
     0
  3
STANDARD
100
AcDbAlignedDimension
 13
2872.47041183888
 23
987.5000551724967
 33
0.0
 14
2857.470494989048
 24
1025.000073417106
 34
0.0
 50
90.0
100
AcDbRotatedDimension
  0
LINE
  5
163B3
330
1F
100
AcDbEntity
  8
実線
100
AcDbLine
 10
2857.470494989048
 20
655.0000734171062
 30
0.0
 11
2857.470494989048
 21
1025.000073417106
 31
0.0
  0
LINE
  5
163B4
330
1F
100
AcDbEntity
  8
実線
100
AcDbLine
 10
2676.970719694891
 20
834.0003078450552
 30
0.0
 11
2676.970719694891
 21
677.5003078450554
 31
0.0
  0
LINE
  5
163B5
330
1F
100
AcDbEntity
  8
実線
100
AcDbLine
 10
2667.970719694891
 20
834.0003078450552
 30
0.0
 11
2667.970719694891
 21
677.5003078450554
 31
0.0
  0
LINE
  5
163B6
330
1F
100
AcDbEntity
  8
実線
100
AcDbLine
 10
2847.470719694891
 20
964.5003078450557
 30
0.0
 11
2847.470719694891
 21
715.5003078450554
 31
0.0
  0
LINE
  5
163B7
330
1F
100
AcDbEntity
  8
実線
100
AcDbLine
 10
2835.470719694891
 20
964.5003078450557
 30
0.0
 11
2835.470719694891
 21
715.5003078450554
 31
0.0
  0
DIMENSION
  5
163B8
330
1F
100
AcDbEntity
  8
寸法線
100
AcDbDimension
280
     0
  2
*D41
 10
2977.470494989048
 20
987.5000551724976
 30
0.0
 11
2977.470494989047
 21
840.0003078450554
 31
0.0
 70
   160
 71
     5
 42
295.0000000000001
 73
     0
 74
     0
 75
     0
  3
STANDARD
100
AcDbAlignedDimension
 13
2872.47041183888
 23
692.5000551724969
 33
0.0
 14
2872.47041183888
 24
987.5000551724967
 34
0.0
 50
90.0
100
AcDbRotatedDimension
  0
LINE
  5
163B9
330
1F
100
AcDbEntity
  8
実線
100
AcDbLine
 10
2667.970719694891
 20
677.5003078450554
 30
0.0
 11
2676.970719694891
 21
677.5003078450554
 31
0.0
  0
LINE
  5
163BA
330
1F
100
AcDbEntity
  8
実線
100
AcDbLine
 10
2796.970719694892
 20
665.0003078450554
 30
0.0
 11
2796.970719694892
 21
677.0003078450554
 31
0.0
  0
DIMENSION
  5
163BB
330
1F
100
AcDbEntity
  8
寸法線
100
AcDbDimension
280
     0
  2
*D42
 10
2977.470494989048
 20
692.5000551724972
 30
0.0
 11
2977.470494989047
 21
673.7500642948007
 31
0.0
 70
   160
 71
     5
 42
37.49998175539076
 73
     0
 74
     0
 75
     0
  3
STANDARD
100
AcDbAlignedDimension
 13
2857.470494989048
 23
655.0000734171062
 33
0.0
 14
2872.47041183888
 24
692.5000551724969
 34
0.0
 50
90.0
100
AcDbRotatedDimension
  0
DIMENSION
  5
163BC
330
1F
100
AcDbEntity
  8
寸法線
100
AcDbDimension
280
     0
  2
*D43
 10
2857.470494989048
 20
535.0000734171061
 30
0.0
 11
2838.720453413964
 21
535.0000734171061
 31
0.0
 70
   160
 71
     5
 42
37.50008315016748
 73
     0
 74
     0
 75
     0
  3
STANDARD
100
AcDbAlignedDimension
 13
2819.97041183888
 23
640.000055172497
 33
0.0
 14
2857.470494989048
 24
655.0000734171062
 34
0.0
100
AcDbRotatedDimension
  0
LINE
  5
163BD
330
1F
100
AcDbEntity
  8
実線
100
AcDbLine
 10
2847.470719694891
 20
715.5003078450554
 30
0.0
 11
2835.470719694891
 21
715.5003078450554
 31
0.0
  0
LINE
  5
163BE
330
1F
100
AcDbEntity
  8
実線
100
AcDbLine
 10
2835.220719694891
 20
846.0003078450554
 30
0.0
 11
2835.220719694891
 21
834.0003078450552
 31
0.0
  0
LINE
  5
163BF
330
1F
100
AcDbEntity
  8
実線
100
AcDbLine
 10
2847.470719694891
 20
964.5003078450557
 30
0.0
 11
2835.470719694891
 21
964.5003078450557
 31
0.0
  0
LINE
  5
163C0
330
1F
100
AcDbEntity
  8
実線
100
AcDbLine
 10
2667.970719694891
 20
1002.500307845055
 30
0.0
 11
2676.970719694891
 21
1002.500307845055
 31
0.0
  0
LINE
  5
163C1
330
1F
100
AcDbEntity
  8
実線
100
AcDbLine
 10
2796.970719694892
 20
1015.000307845055
 30
0.0
 11
2796.970719694892
 21
1003.000307845055
 31
0.0
  0
CIRCLE
  5
163C2
330
1F
100
AcDbEntity
  8
実線
100
AcDbCircle
 10
2524.970719694891
 20
987.5003078450554
 30
0.0
 40
27.5
  0
CIRCLE
  5
163C3
330
1F
100
AcDbEntity
  8
実線
100
AcDbCircle
 10
2819.970719694891
 20
987.5003078450554
 30
0.0
 40
27.5
  0
CIRCLE
  5
163C4
330
1F
100
AcDbEntity
  8
実線
100
AcDbCircle
 10
2524.970719694891
 20
692.5003078450554
 30
0.0
 40
27.5
  0
CIRCLE
  5
163C5
330
1F
100
AcDbEntity
  8
実線
100
AcDbCircle
 10
2819.970719694891
 20
692.5003078450554
 30
0.0
 40
27.5
  0
LINE
  5
163C6
330
1F
100
AcDbEntity
  8
実線
100
AcDbLine
 10
2509.470719694891
 20
715.5003078450554
 30
0.0
 11
2509.470719694891
 21
964.5003078450557
 31
0.0
  0
LINE
  5
163C7
330
1F
100
AcDbEntity
  8
実線
100
AcDbLine
 10
2796.970719694892
 20
677.0003078450554
 30
0.0
 11
2547.970719694891
 21
677.0003078450554
 31
0.0
  0
LINE
  5
163C8
330
1F
100
AcDbEntity
  8
中心線
100
AcDbLine
 10
2672.470511838885
 20
630.0000078450702
 30
0.0
 11
2672.470511838885
 21
1050.00000784507
 31
0.0
  0
LINE
  5
163CA
330
1F
100
AcDbEntity
  8
中心線
100
AcDbLine
 10
2472.47041183888
 20
987.5000551724967
 30
0.0
 11
2577.47041183888
 21
987.5000551724967
 31
0.0
  0
LINE
  5
163CB
330
1F
100
AcDbEntity
  8
中心線
100
AcDbLine
 10
2524.97041183888
 20
935.0000551724972
 30
0.0
 11
2524.97041183888
 21
1040.000055172497
 31
0.0
  0
LINE
  5
163CC
330
1F
100
AcDbEntity
  8
中心線
100
AcDbLine
 10
2472.47041183888
 20
692.5000551724969
 30
0.0
 11
2577.47041183888
 21
692.5000551724969
 31
0.0
  0
LINE
  5
163CD
330
1F
100
AcDbEntity
  8
中心線
100
AcDbLine
 10
2524.97041183888
 20
640.000055172497
 30
0.0
 11
2524.97041183888
 21
745.0000551724969
 31
0.0
  0
LINE
  5
163CE
330
1F
100
AcDbEntity
  8
中心線
100
AcDbLine
 10
2767.47041183888
 20
987.5000551724967
 30
0.0
 11
2872.47041183888
 21
987.5000551724967
 31
0.0
  0
LINE
  5
163CF
330
1F
100
AcDbEntity
  8
中心線
100
AcDbLine
 10
2819.97041183888
 20
935.0000551724972
 30
0.0
 11
2819.97041183888
 21
1040.000055172497
 31
0.0
  0
LINE
  5
163D0
330
1F
100
AcDbEntity
  8
中心線
100
AcDbLine
 10
2767.47041183888
 20
692.5000551724969
 30
0.0
 11
2872.47041183888
 21
692.5000551724969
 31
0.0
  0
LINE
  5
163D1
330
1F
100
AcDbEntity
  8
中心線
100
AcDbLine
 10
2819.97041183888
 20
640.000055172497
 30
0.0
 11
2819.97041183888
 21
745.0000551724969
 31
0.0
  0
LINE
  5
163D2
330
1F
100
AcDbEntity
  8
実線
100
AcDbLine
 10
2487.470528688722
 20
655.0000734171062
 30
0.0
 11
2487.470528688722
 21
1025.000073417106
 31
0.0
  0
DIMENSION
  5
163D3
330
1F
100
AcDbEntity
  8
寸法線
100
AcDbDimension
280
     0
  2
*D44
 10
2487.470528688722
 20
535.0000734171061
 30
0.0
 11
2506.220470263801
 21
535.0000734171061
 31
0.0
 70
   160
 71
     5
 42
37.49988315015798
 73
     0
 74
     0
 75
     0
  3
STANDARD
100
AcDbAlignedDimension
 13
2524.97041183888
 23
640.000055172497
 33
0.0
 14
2487.470528688722
 24
655.0000734171062
 34
0.0
 50
180.0
100
AcDbRotatedDimension
  0
TEXT
  5
1685A
330
1F
100
AcDbEntity
  8
寸法線
100
AcDbText
 10
3193.635318292193
 20
481.7288617651956
 30
0.0
 40
24.0
  1
断面Ｂ－Ｂ
100
AcDbText
  0
LINE
  5
1685B
330
1F
100
AcDbEntity
  8
寸法線
100
AcDbLine
 10
3182.23305105267
 20
475.0000369278587
 30
0.0
 11
3342.767010687796
 21
475.0000369278587
 31
0.0
  0
TEXT
  5
1685C
330
1F
100
AcDbEntity
  8
寸法線
100
AcDbText
 10
2602.470494989048
 20
483.7500369278586
 30
0.0
 40
25.0
  1
断面Ａ－Ａ
 72
     1
 11
2672.470494989048
 21
483.7500369278586
 31
0.0
100
AcDbText
 73
     1
  0
LINE
  5
1685D
330
1F
100
AcDbEntity
  8
寸法線
100
AcDbLine
 10
2593.720494989048
 20
475.0000369278587
 30
0.0
 11
2751.220494989047
 21
475.0000369278587
 31
0.0
  0
LINE
  5
16887
330
1F
100
AcDbEntity
  8
寸法線
100
AcDbLine
 10
1542.500037955558
 20
1219.999972664056
 30
0.0
 11
1862.500037955558
 21
1219.999972664056
 31
0.0
  0
TEXT
  5
16888
330
1F
100
AcDbEntity
  8
寸法線
100
AcDbText
 10
1548.815325836484
 20
1228.749972664056
 30
0.0
 40
37.5
  1
空洞金具詳細図
 72
     1
 11
1700.065325836484
 21
1228.749972664056
 31
0.0
100
AcDbText
 73
     1
  0
LEADER
  5
168F9
330
1F
100
AcDbEntity
  8
寸法線
100
AcDbLeader
  3
STANDARD
 76
     2
 10
2836.499979077718
 20
2166.499925560653
 30
0.0
 10
2642.335239802984
 20
2166.499925560653
 30
0.0
1001
ACAD
1000
DSTYLE
1002
{
1070
   147
1040
0.875
1070
    77
1070
     0
1002
}
  0
VIEWPORT
  5
794
330
78D
100
AcDbEntity
 67
     1
  8
0
348
D1BD
100
AcDbViewport
 10
204.0995798351864
 20
142.5892483948869
 30
0.0
 40
568.7138760531154
 41
287.6682269700984
 68
     1
 69
     1
 12
204.0995798351864
 22
142.5892483948869
 13
0.0
 23
0.0
 14
10.0
 24
10.0
 15
10.0
 25
10.0
 16
0.0
 26
0.0
 36
1.0
 17
0.0
 27
0.0
 37
0.0
 42
50.0
 43
0.0
 44
0.0
 45
287.6682269700984
 50
0.0
 51
0.0
 72
  1000
 90
    32800
  1

281
     0
 71
     1
 74
     0
110
0.0
120
0.0
130
0.0
111
1.0
121
0.0
131
0.0
112
0.0
122
1.0
132
0.0
 79
     0
146
0.0
170
     0
 61
     5
348
D1BD
292
     1
282
     1
141
0.0
142
0.0
 63
   250
421
  3355443
  0
VIEWPORT
  5
796
330
78D
100
AcDbEntity
 67
     1
  8
Defpoints
348
D1BD
100
AcDbViewport
 10
204.099579334259
 20
142.5892481803894
 30
0.0
 40
408.1991586685178
 41
285.1784963607788
 68
     2
 69
     2
 12
2100.207206595808
 22
1486.804522350007
 13
0.0
 23
0.0
 14
10.0
 24
10.0
 15
10.0
 25
10.0
 16
0.0
 26
0.0
 36
1.0
 17
0.0
 27
0.0
 37
0.0
 42
50.0
 43
0.0
 44
0.0
 45
2851.784980677949
 50
0.0
 51
0.0
 72
  1000
 90
    32864
  1

281
     0
 71
     1
 74
     0
110
0.0
120
0.0
130
0.0
111
1.0
121
0.0
131
0.0
112
0.0
122
1.0
132
0.0
 79
     0
146
0.0
170
     0
 61
     5
348
D1BD
292
     1
282
     1
141
0.0
142
0.0
 63
   250
421
  3355443
  0
LINE
  5
9A2
330
78D
100
AcDbEntity
 67
     1
  8
図面枠
100
AcDbLine
 10
14.0996
 20
6.589249999999998
 30
0.0
 11
14.0996
 21
278.58925
 31
0.0
  0
LINE
  5
9A3
330
78D
100
AcDbEntity
 67
     1
  8
図面枠
100
AcDbLine
 10
404.0995999999998
 20
6.589249999999998
 30
0.0
 11
404.0995999999998
 21
278.58925
 31
0.0
  0
LINE
  5
9A4
330
78D
100
AcDbEntity
 67
     1
  8
図面枠
100
AcDbLine
 10
14.0996
 20
278.58925
 30
0.0
 11
404.0995999999998
 21
278.58925
 31
0.0
  0
LINE
  5
9A5
330
78D
100
AcDbEntity
 67
     1
  8
図面枠
100
AcDbLine
 10
14.0996
 20
6.589249999999998
 30
0.0
 11
404.0995999999998
 21
6.589249999999991
 31
0.0
  0
LINE
  5
E6D4
330
78D
100
AcDbEntity
 67
     1
  8
図面枠
100
AcDbLine
 10
289.0996
 20
36.58924999999999
 30
0.0
 11
404.0995999999998
 21
36.58924999999999
 31
0.0
  0
LINE
  5
E6D5
330
78D
100
AcDbEntity
 67
     1
  8
図面枠
100
AcDbLine
 10
289.0996
 20
30.58924999999999
 30
0.0
 11
404.0995999999998
 21
30.58924999999999
 31
0.0
  0
LINE
  5
E6D6
330
78D
100
AcDbEntity
 67
     1
  8
図面枠
100
AcDbLine
 10
289.0996
 20
36.5893
 30
0.0
 11
289.0996
 21
6.589249999999991
 31
0.0
  0
LINE
  5
E6D7
330
78D
100
AcDbEntity
 67
     1
  8
図面枠
100
AcDbLine
 10
289.0996
 20
18.58924999999999
 30
0.0
 11
404.0995999999998
 21
18.58924999999999
 31
0.0
  0
LINE
  5
E6D8
330
78D
100
AcDbEntity
 67
     1
  8
図面枠
100
AcDbLine
 10
352.0996
 20
36.5893
 30
0.0
 11
352.0996
 21
30.58924999999999
 31
0.0
  0
LINE
  5
E6D9
330
78D
100
AcDbEntity
 67
     1
  8
図面枠
100
AcDbLine
 10
383.0996
 20
36.5893
 30
0.0
 11
383.0996
 21
30.58924999999999
 31
0.0
  0
LINE
  5
E6DA
330
78D
100
AcDbEntity
 67
     1
  8
図面枠
100
AcDbLine
 10
352.0996
 20
30.58924999999999
 30
0.0
 11
352.0996
 21
6.589249999999991
 31
0.0
  0
LINE
  5
E6DB
330
78D
100
AcDbEntity
 67
     1
  8
図面枠
100
AcDbLine
 10
312.0996
 20
36.58924999999999
 30
0.0
 11
312.0996
 21
30.58924999999999
 31
0.0
  0
LINE
  5
E6DC
330
78D
100
AcDbEntity
 67
     1
  8
図面枠
100
AcDbLine
 10
304.0996
 20
24.58924999999999
 30
0.0
 11
349.0996
 21
24.58924999999999
 31
0.0
  0
TEXT
  5
E6DD
330
78D
100
AcDbEntity
 67
     1
  8
図面枠
100
AcDbText
 10
289.9746
 20
32.33924999999999
 30
0.0
 40
2.5
  1
重量
 11
289.9746
 21
32.33924999999999
 31
0.0
100
AcDbText
 73
     1
  0
TEXT
  5
E6DE
330
78D
100
AcDbEntity
 67
     1
  8
図面枠
100
AcDbText
 10
289.97465
 20
27.21424999999999
 30
0.0
 40
2.5
  1
名　称
 11
289.97465
 21
29.71424999999999
 31
0.0
100
AcDbText
 73
     3
  0
TEXT
  5
E6DF
330
78D
100
AcDbEntity
 67
     1
  8
図面枠
100
AcDbText
 10
317.9746
 20
32.33929999999999
 30
0.0
 40
2.5
  1
表面仕上げ
 41
0.8
 11
317.9746
 21
32.33929999999999
 31
0.0
100
AcDbText
 73
     1
  0
TEXT
  5
E6E0
330
78D
100
AcDbEntity
 67
     1
  8
図面枠
100
AcDbText
 10
352.9746
 20
32.33924999999999
 30
0.0
 40
2.5
  1
日付
 11
352.9746
 21
32.33924999999999
 31
0.0
100
AcDbText
 73
     1
  0
TEXT
  5
E6E1
330
78D
100
AcDbEntity
 67
     1
  8
図面枠
100
AcDbText
 10
383.9746
 20
32.33924999999999
 30
0.0
 40
2.5
  1
尺度
 11
383.9746
 21
32.33924999999999
 31
0.0
100
AcDbText
 73
     1
  0
TEXT
  5
E6E2
330
78D
100
AcDbEntity
 67
     1
  8
図面枠
100
AcDbText
 10
313.5162666666667
 20
26.33925
 30
0.0
 40
2.5
  1
スルーサーＢ構造図
 72
     1
 11
326.5996
 21
26.33925
 31
0.0
100
AcDbText
 73
     1
  0
TEXT
  5
E6E3
330
78D
100
AcDbEntity
 67
     1
  8
図面枠
100
AcDbText
 10
317.7861157480315
 20
20.33924999999999
 30
0.0
 40
2.5
  1
切り梁H-350
 72
     1
 11
326.5996
 21
22.83924999999999
 31
0.0
100
AcDbText
 73
     3
  0
TEXT
  5
E6E4
330
78D
100
AcDbEntity
 67
     1
  8
図面枠
100
AcDbText
 10
366.5162666666667
 20
8.33924999999999
 30
0.0
 40
2.5
  1
Ｈ３５－Ｗ１３０
 72
     1
 11
378.0996
 21
8.33924999999999
 31
0.0
100
AcDbText
 73
     1
  0
TEXT
  5
E6E5
330
78D
100
AcDbEntity
 67
     1
  8
図面枠
100
AcDbText
 10
300.3079
 20
32.33924999999999
 30
0.0
 40
2.5
  1
337kg
 11
300.3079
 21
32.33924999999999
 31
0.0
100
AcDbText
 73
     1
  0
TEXT
  5
E6E6
330
78D
100
AcDbEntity
 67
     1
  8
図面枠
100
AcDbText
 10
333.3079
 20
32.33929999999999
 30
0.0
 40
2.5
  1
鉄筋防錆剤
 41
0.8
 11
333.3079
 21
32.33929999999999
 31
0.0
100
AcDbText
 73
     1
  0
TEXT
  5
E6E7
330
78D
100
AcDbEntity
 67
     1
  8
図面枠
100
AcDbText
 10
363.3079
 20
32.33924999999999
 30
0.0
 40
2.5
  1
2024.01.01
 11
363.3079
 21
32.33924999999999
 31
0.0
100
AcDbText
 73
     1
  0
TEXT
  5
E6E8
330
78D
100
AcDbEntity
 67
     1
  8
図面枠
100
AcDbText
 10
394.3079
 20
32.33924999999999
 30
0.0
 40
2.5
  1
1/10
 11
394.3079
 21
32.33924999999999
 31
0.0
100
AcDbText
 73
     1
  0
TEXT
  5
E6E9
330
78D
100
AcDbEntity
 67
     1
  8
図面枠
100
AcDbText
 10
300.0162781896648
 20
10.58922126233957
 30
0.0
 40
4.0
  1
三研テクノクリエイト
 11
300.0162781896648
 21
12.58922126233957
 31
0.0
100
AcDbText
 73
     2
  0
TEXT
  5
E6EA
330
78D
100
AcDbEntity
 67
     1
  8
図面枠
100
AcDbText
 10
294.2496115229981
 20
12.83922126233957
 30
0.0
 40
2.0
  1
株式
 72
     2
 11
298.5162781896648
 21
12.83922126233957
 31
0.0
100
AcDbText
 73
     1
  0
TEXT
  5
E6EB
330
78D
100
AcDbEntity
 67
     1
  8
図面枠
100
AcDbText
 10
294.2496115229981
 20
10.33922126233957
 30
0.0
 40
2.0
  1
会社
 72
     2
 11
298.5162781896648
 21
12.33922126233957
 31
0.0
100
AcDbText
 73
     3
  0
TEXT
  5
E6EC
330
78D
100
AcDbEntity
 67
     1
  8
図面枠
100
AcDbText
 10
352.97465
 20
27.21425
 30
0.0
 40
2.5
  1
摘　要
 11
352.97465
 21
29.71425
 31
0.0
100
AcDbText
 73
     3
  0
TEXT
  5
E6ED
330
78D
100
AcDbEntity
 67
     1
  8
図面枠
100
AcDbText
 10
352.9746
 20
15.21425
 30
0.0
 40
2.5
  1
型　式
 11
352.9746
 21
17.71425
 31
0.0
100
AcDbText
 73
     3
  0
TEXT
  5
E6EE
330
78D
100
AcDbEntity
 67
     1
  8
図面枠
100
AcDbText
 10
364.7662666666667
 20
20.86240908820163
 30
0.0
 40
2.5
  1
Ｈ３５－Ｗシリーズ
 72
     1
 11
378.0996
 21
20.86240908820163
 31
0.0
100
AcDbText
 73
     1
  0
LINE
  5
E6EF
330
78D
100
AcDbEntity
 67
     1
  8
図面枠
100
AcDbLine
 10
234.0996
 20
15.58924999999999
 30
0.0
 11
289.0996
 21
15.58924999999999
 31
0.0
  0
LINE
  5
E6F0
330
78D
100
AcDbEntity
 67
     1
  8
図面枠
100
AcDbLine
 10
234.0996
 20
15.58924999999999
 30
0.0
 11
234.0996
 21
6.589249999999991
 31
0.0
  0
LINE
  5
E6F2
330
78D
100
AcDbEntity
 67
     1
  8
図面枠
100
AcDbLine
 10
289.0996
 20
15.58924999999999
 30
0.0
 11
289.0996
 21
6.589249999999991
 31
0.0
  0
LINE
  5
E6F3
330
78D
100
AcDbEntity
 67
     1
  8
図面枠
100
AcDbLine
 10
234.0996
 20
6.589249999999991
 30
0.0
 11
289.0996
 21
6.589249999999991
 31
0.0
  0
TEXT
  5
15377
330
78D
100
AcDbEntity
 67
     1
  8
図面枠
100
AcDbText
 10
235.9315942762782
 20
8.887940134352898
 30
0.0
 40
4.0
  1
スクラップ重量　231kg
 72
     1
 11
261.5040816496935
 21
8.887940134352898
 31
0.0
100
AcDbText
  0
ENDSEC
  0
SECTION
  2
OBJECTS
  0
DICTIONARY
  5
C
330
0
100
AcDbDictionary
281
     1
  3
ACAD_CIP_PREVIOUS_PRODUCT_INFO
350
1547C
  3
ACAD_COLOR
350
6B
  3
ACAD_DETAILVIEWSTYLE
350
15476
  3
ACAD_GROUP
350
D
  3
ACAD_LAYOUT
350
1A
  3
ACAD_MATERIAL
350
6A
  3
ACAD_MLEADERSTYLE
350
D1DA
  3
ACAD_MLINESTYLE
350
17
  3
ACAD_PLOTSETTINGS
350
19
  3
ACAD_PLOTSTYLENAME
350
E
  3
ACAD_SCALELIST
350
D1C8
  3
ACAD_SECTIONVIEWSTYLE
350
15474
  3
ACAD_TABLESTYLE
350
7E
  3
ACAD_VISUALSTYLE
350
D1B7
  3
AcadDim
350
B89D
  3
ACDB_RECOMPOSE_DATA
350
16AAF
  3
AcDbVariableDictionary
350
5E
  3
AcDsDecomposeData
350
16AB5
  3
AEC_PROPERTY_SET_DEFS
350
D312
  0
DICTIONARY
  5
D429
330
8
100
AcDbDictionary
280
     1
281
     1
  0
DICTIONARY
  5
11D
330
2
100
AcDbDictionary
280
     1
281
     1
  3
ACAD_LAYERFILTERS
360
98AE
  3
ACAD_LAYERSTATES
360
11E
  3
ACLYDICTIONARY
360
98AD
  0
DICTIONARY
  5
D40F
330
10
100
AcDbDictionary
280
     1
281
     1
  3
ADSK_XREC_LAYER_RECONCILED
360
D410
  0
DICTIONARY
  5
D413
330
1BF
100
AcDbDictionary
280
     1
281
     1
  3
ADSK_XREC_LAYER_RECONCILED
360
D414
  0
DICTIONARY
  5
D417
330
1C1
100
AcDbDictionary
280
     1
281
     1
  3
ADSK_XREC_LAYER_RECONCILED
360
D418
  0
DICTIONARY
  5
D41B
330
1C3
100
AcDbDictionary
280
     1
281
     1
  3
ADSK_XREC_LAYER_RECONCILED
360
D41C
  0
DICTIONARY
  5
D41D
330
1C4
100
AcDbDictionary
280
     1
281
     1
  3
ADSK_XREC_LAYER_RECONCILED
360
D41E
  0
DICTIONARY
  5
D41F
330
1C5
100
AcDbDictionary
280
     1
281
     1
  3
ADSK_XREC_LAYER_RECONCILED
360
D420
  0
DICTIONARY
  5
D421
330
82E
100
AcDbDictionary
280
     1
281
     1
  3
ADSK_XREC_LAYER_RECONCILED
360
D422
  0
DICTIONARY
  5
5C91
330
1F
100
AcDbDictionary
280
     1
281
     1
  3
ACAD_SORTENTS
360
5C92
  0
DICTIONARY
  5
E6A8
330
C08
100
AcDbDictionary
280
     1
281
     1
  3
ACAD_SORTENTS
360
E814
  0
XRECORD
  5
1547C
102
{ACAD_REACTORS
330
C
102
}
330
C
100
AcDbXrecord
280
     1
300
ACD
300
2023
300

  0
DICTIONARY
  5
6B
102
{ACAD_REACTORS
330
C
102
}
330
C
100
AcDbDictionary
281
     1
  0
DICTIONARY
  5
15476
102
{ACAD_REACTORS
330
C
102
}
330
C
100
AcDbDictionary
281
     1
  3
Metric50
350
15477
  0
DICTIONARY
  5
D
102
{ACAD_REACTORS
330
C
102
}
330
C
100
AcDbDictionary
281
     1
  0
DICTIONARY
  5
1A
102
{ACAD_REACTORS
330
C
102
}
330
C
100
AcDbDictionary
281
     1
  3
Model
350
22
  3
レイアウト1
350
78E
  0
DICTIONARY
  5
6A
102
{ACAD_REACTORS
330
C
102
}
330
C
100
AcDbDictionary
281
     1
  3
ByBlock
350
D1A7
  3
ByLayer
350
D19F
  3
Global
350
D1AF
  0
DICTIONARY
  5
D1DA
102
{ACAD_REACTORS
330
C
102
}
330
C
100
AcDbDictionary
281
     1
  3
Standard
350
D1DB
  0
DICTIONARY
  5
17
102
{ACAD_REACTORS
330
C
102
}
330
C
100
AcDbDictionary
281
     1
  3
Standard
350
18
  0
DICTIONARY
  5
19
102
{ACAD_REACTORS
330
C
102
}
330
C
100
AcDbDictionary
281
     1
  0
ACDBDICTIONARYWDFLT
  5
E
102
{ACAD_REACTORS
330
C
102
}
330
C
100
AcDbDictionary
281
     1
  3
Normal
350
F
100
AcDbDictionaryWithDefault
340
F
  0
DICTIONARY
  5
D1C8
102
{ACAD_REACTORS
330
C
102
}
330
C
100
AcDbDictionary
281
     1
  3
A0
350
D1C9
  3
A1
350
D1CA
  3
A2
350
D1CB
  3
A3
350
D1CC
  3
A4
350
D1CD
  3
A5
350
D1CE
  3
A6
350
D1CF
  3
A7
350
D1D0
  3
A8
350
D1D1
  3
A9
350
D1D2
  3
B0
350
D1D3
  3
B1
350
D1D4
  3
B2
350
D1D5
  3
B3
350
D1D6
  3
B4
350
D1D7
  3
B5
350
D1D8
  3
B6
350
D1D9
  0
DICTIONARY
  5
15474
102
{ACAD_REACTORS
330
C
102
}
330
C
100
AcDbDictionary
281
     1
  3
Metric50
350
15475
  0
DICTIONARY
  5
7E
102
{ACAD_REACTORS
330
C
102
}
330
C
100
AcDbDictionary
281
     1
  3
Standard
350
7F
  0
DICTIONARY
  5
D1B7
102
{ACAD_REACTORS
330
C
102
}
330
C
100
AcDbDictionary
281
     1
  3
2dWireframe
350
D1BD
  3
3D Hidden
350
D1BF
  3
3dWireframe
350
D1BE
  3
Basic
350
D1BC
  3
Brighten
350
D1C3
  3
ColorChange
350
D1C7
  3
Conceptual
350
D1C0
  3
Dim
350
D1C2
  3
EdgeColorOff
350
15473
  3
Facepattern
350
D1C6
  3
Flat
350
D1B8
  3
FlatWithEdges
350
D1B9
  3
Gouraud
350
D1BA
  3
GouraudWithEdges
350
D1BB
  3
Hidden
350
1546B
  3
JitterOff
350
15471
  3
Linepattern
350
D1C5
  3
OverhangOff
350
15472
  3
Realistic
350
D1C1
  3
Shaded
350
15470
  3
Shaded with edges
350
1546F
  3
Shades of Gray
350
1546C
  3
Sketchy
350
1546D
  3
Thicken
350
D1C4
  3
Wireframe
350
1546A
  3
X-Ray
350
1546E
  0
XRECORD
  5
B89D
102
{ACAD_REACTORS
330
C
102
}
330
C
100
AcDbXrecord
280
     1
 90
   990106
  3

 60
     0
 61
     0
 62
     1
 63
     3
 64
     0
 65
     0
 66
     0
 67
     3
 68
     1
 69
     0
 70
     0
 71
     0
 72
     0
 40
0.0
170
     0
  0
XRECORD
  5
16AAF
102
{ACAD_REACTORS
330
C
102
}
330
C
100
AcDbXrecord
280
     1
 90
        1
330
7F
  0
DICTIONARY
  5
5E
102
{ACAD_REACTORS
330
C
102
}
330
C
100
AcDbDictionary
281
     1
  3
CANNOSCALE
350
D437
  3
CMLEADERSTYLE
350
D436
  3
CTABLESTYLE
350
84
  3
CVIEWDETAILSTYLE
350
1547F
  3
CVIEWSECTIONSTYLE
350
15480
  3
DIMASSOC
350
5F
  3
HIDETEXT
350
63
  3
INDEXCTL
350
D439
  3
LAYEREVAL
350
15483
  3
LAYERNOTIFY
350
15484
  3
LIGHTINGUNITS
350
15482
  3
MSLTSCALE
350
15481
  3
PROJECTNAME
350
C791
  3
SORTENTS
350
D438
  0
DICTIONARY
  5
16AB5
102
{ACAD_REACTORS
330
C
102
}
330
C
100
AcDbDictionary
281
     1
  3
AcDsRecords
350
16AB7
  3
AcDsSchemas
350
16AB6
1001
ACAD
1070
     2
  0
DICTIONARY
  5
D312
102
{ACAD_REACTORS
330
C
102
}
330
C
100
AcDbDictionary
281
     1
  0
DICTIONARY
  5
98AE
102
{ACAD_REACTORS
330
11D
102
}
330
11D
100
AcDbDictionary
281
     1
  0
DICTIONARY
  5
11E
102
{ACAD_REACTORS
330
11D
102
}
330
11D
100
AcDbDictionary
281
     1
  0
DICTIONARY
  5
98AD
102
{ACAD_REACTORS
330
11D
102
}
330
11D
100
AcDbDictionary
281
     1
1001
ACAD
1000
<All
  0
XRECORD
  5
D410
102
{ACAD_REACTORS
330
D40F
102
}
330
D40F
100
AcDbXrecord
280
     1
290
     1
  0
XRECORD
  5
D414
102
{ACAD_REACTORS
330
D413
102
}
330
D413
100
AcDbXrecord
280
     1
290
     1
  0
XRECORD
  5
D418
102
{ACAD_REACTORS
330
D417
102
}
330
D417
100
AcDbXrecord
280
     1
290
     1
  0
XRECORD
  5
D41C
102
{ACAD_REACTORS
330
D41B
102
}
330
D41B
100
AcDbXrecord
280
     1
290
     1
  0
XRECORD
  5
D41E
102
{ACAD_REACTORS
330
D41D
102
}
330
D41D
100
AcDbXrecord
280
     1
290
     1
  0
XRECORD
  5
D420
102
{ACAD_REACTORS
330
D41F
102
}
330
D41F
100
AcDbXrecord
280
     1
290
     1
  0
XRECORD
  5
D422
102
{ACAD_REACTORS
330
D421
102
}
330
D421
100
AcDbXrecord
280
     1
290
     1
  0
SORTENTSTABLE
  5
5C92
102
{ACAD_REACTORS
330
5C91
102
}
330
5C91
100
AcDbSortentsTable
330
1F
331
9AEE
  5
9D87
  0
SORTENTSTABLE
  5
E814
102
{ACAD_REACTORS
330
E6A8
102
}
330
E6A8
100
AcDbSortentsTable
330
C08
  0
ACDBDETAILVIEWSTYLE
  5
15477
102
{ACAD_XDICTIONARY
360
16ABA
102
}
102
{ACAD_REACTORS
330
15476
102
}
330
15476
100
AcDbModelDocViewStyle
 70
     0
  3
Metric50
290
     0
100
AcDbDetailViewStyle
 70
     0
 71
     0
 90
        3
 71
     1
340
11
 62
   256
 40
5.0
340
0
 62
   256
 40
5.0
300

 40
0.0
280
     1
 71
     2
340
16
 90
       25
 62
   256
 71
     3
340
11
 62
   256
 40
5.0
 90
        0
 40
15.0
 90
        1
300
%<\AcVar ViewDetailId>% (%<\AcVar ViewScale \f "%sn">%)
 71
     4
340
16
 90
       25
 62
   256
340
16
 90
       25
 62
   256
280
     0
  0
LAYOUT
  5
22
102
{ACAD_REACTORS
330
1A
102
}
330
1A
100
AcDbPlotSettings
  1

  2
none_device
  4
ISO_A4_(210.00_x_297.00_MM)
  6

 40
7.5
 41
20.0
 42
7.5
 43
20.0
 44
210.0
 45
297.0
 46
11.54999923706054
 47
-13.65000009536743
 48
0.0
 49
0.0
140
0.0
141
0.0
142
1.0
143
8.704084754739808
 70
 11952
 72
     1
 73
     0
 74
     0
  7

 75
     0
147
0.1148885871608098
 76
     0
 77
     2
 78
   300
148
0.0
149
0.0
100
AcDbLayout
  1
Model
 70
     1
 71
     0
 10
0.0
 20
0.0
 11
12.0
 21
9.0
 12
0.0
 22
0.0
 32
0.0
 14
0.0
 24
0.0
 34
0.0
 15
0.0
 25
0.0
 35
0.0
146
0.0
 13
0.0
 23
0.0
 33
0.0
 16
1.0
 26
0.0
 36
0.0
 17
0.0
 27
1.0
 37
0.0
 76
     0
330
1F
331
E81D
1001
ACAD_PSEXT
1000
None
1000
None
1000
Not applicable
1000
The layout will not be plotted unless a new plotter configuration name is selected.
1070
     0
  0
LAYOUT
  5
78E
102
{ACAD_XDICTIONARY
360
79B
102
}
102
{ACAD_REACTORS
330
1A
102
}
330
1A
100
AcDbPlotSettings
  1

  2
RICOH MP C2503 JPN RPCS V2
  4
A3
  6

 40
5.873749732971191
 41
5.873748779296875
 42
5.873748779296875
 43
5.873748779296875
 44
296.9259948730469
 45
419.9466552734373
 46
0.0
 47
0.0
 48
0.0
 49
0.0
140
0.0
141
0.0
142
1.0
143
1.0
 70
   688
 72
     1
 73
     1
 74
     5
  7
monochrome.ctb
 75
    16
147
1.0
 76
     1
 77
     2
 78
   300
148
0.0
149
0.0
100
AcDbLayout
  1
レイアウト1
 70
     1
 71
     1
 10
-5.873748779296875
 20
-5.873749732971191
 11
414.0729064941406
 21
291.0522451400757
 12
0.0
 22
0.0
 32
0.0
 14
-0.0233557008396019
 24
-0.0155136928541424
 34
-0.0000000000112498
 15
408.2225153712125
 25
285.1940104826281
 35
0.0000000000002956
146
0.0
 13
0.0
 23
0.0
 33
0.0
 16
1.0
 26
0.0
 36
0.0
 17
0.0
 27
1.0
 37
0.0
 76
     0
330
78D
331
794
1001
ACAD_PSEXT
1000
RICOH MP C2503 JPN RPCS V2
1000
RICOH MP C2503 JPN RPCS V2
1000
IP_192.168.24.100
1000
RPCS Driver (For Windows)
1070
     0
  0
MATERIAL
  5
D1A7
102
{ACAD_XDICTIONARY
360
D1A8
102
}
102
{ACAD_REACTORS
330
6A
102
}
330
6A
100
AcDbMaterial
  1
ByBlock
 72
     0
 43
0.0008202099737533
 43
0.0
 43
0.0
 43
0.0
 43
0.0
 43
0.0008202099737533
 43
0.0
 43
0.0
 43
0.0
 43
0.0
 43
1.0
 43
0.0
 43
0.0
 43
0.0
 43
0.0
 43
1.0
 77
     0
 47
0.0008202099737533
 47
0.0
 47
0.0
 47
0.0
 47
0.0
 47
0.0008202099737533
 47
0.0
 47
0.0
 47
0.0
 47
0.0
 47
1.0
 47
0.0
 47
0.0
 47
0.0
 47
0.0
 47
1.0
171
     0
 49
0.0008202099737533
 49
0.0
 49
0.0
 49
0.0
 49
0.0
 49
0.0008202099737533
 49
0.0
 49
0.0
 49
0.0
 49
0.0
 49
1.0
 49
0.0
 49
0.0
 49
0.0
 49
0.0
 49
1.0
175
     0
142
0.0008202099737533
142
0.0
142
0.0
142
0.0
142
0.0
142
0.0008202099737533
142
0.0
142
0.0
142
0.0
142
0.0
142
1.0
142
0.0
142
0.0
142
0.0
142
0.0
142
1.0
179
     0
144
0.0008202099737533
144
0.0
144
0.0
144
0.0
144
0.0
144
0.0008202099737533
144
0.0
144
0.0
144
0.0
144
0.0
144
1.0
144
0.0
144
0.0
144
0.0
144
0.0
144
1.0
147
0.0008202099737533
147
0.0
147
0.0
147
0.0
147
0.0
147
0.0008202099737533
147
0.0
147
0.0
147
0.0
147
0.0
147
1.0
147
0.0
147
0.0
147
0.0
147
0.0
147
1.0
  0
MATERIAL
  5
D19F
102
{ACAD_XDICTIONARY
360
D1A0
102
}
102
{ACAD_REACTORS
330
6A
102
}
330
6A
100
AcDbMaterial
  1
ByLayer
 72
     0
 43
0.0008202099737533
 43
0.0
 43
0.0
 43
0.0
 43
0.0
 43
0.0008202099737533
 43
0.0
 43
0.0
 43
0.0
 43
0.0
 43
1.0
 43
0.0
 43
0.0
 43
0.0
 43
0.0
 43
1.0
 77
     0
 47
0.0008202099737533
 47
0.0
 47
0.0
 47
0.0
 47
0.0
 47
0.0008202099737533
 47
0.0
 47
0.0
 47
0.0
 47
0.0
 47
1.0
 47
0.0
 47
0.0
 47
0.0
 47
0.0
 47
1.0
171
     0
 49
0.0008202099737533
 49
0.0
 49
0.0
 49
0.0
 49
0.0
 49
0.0008202099737533
 49
0.0
 49
0.0
 49
0.0
 49
0.0
 49
1.0
 49
0.0
 49
0.0
 49
0.0
 49
0.0
 49
1.0
175
     0
142
0.0008202099737533
142
0.0
142
0.0
142
0.0
142
0.0
142
0.0008202099737533
142
0.0
142
0.0
142
0.0
142
0.0
142
1.0
142
0.0
142
0.0
142
0.0
142
0.0
142
1.0
179
     0
144
0.0008202099737533
144
0.0
144
0.0
144
0.0
144
0.0
144
0.0008202099737533
144
0.0
144
0.0
144
0.0
144
0.0
144
1.0
144
0.0
144
0.0
144
0.0
144
0.0
144
1.0
147
0.0008202099737533
147
0.0
147
0.0
147
0.0
147
0.0
147
0.0008202099737533
147
0.0
147
0.0
147
0.0
147
0.0
147
1.0
147
0.0
147
0.0
147
0.0
147
0.0
147
1.0
  0
MATERIAL
  5
D1AF
102
{ACAD_XDICTIONARY
360
D1B0
102
}
102
{ACAD_REACTORS
330
6A
102
}
330
6A
100
AcDbMaterial
  1
Global
 72
     0
 43
0.0008202099737533
 43
0.0
 43
0.0
 43
0.0
 43
0.0
 43
0.0008202099737533
 43
0.0
 43
0.0
 43
0.0
 43
0.0
 43
1.0
 43
0.0
 43
0.0
 43
0.0
 43
0.0
 43
1.0
 77
     0
 47
0.0008202099737533
 47
0.0
 47
0.0
 47
0.0
 47
0.0
 47
0.0008202099737533
 47
0.0
 47
0.0
 47
0.0
 47
0.0
 47
1.0
 47
0.0
 47
0.0
 47
0.0
 47
0.0
 47
1.0
171
     0
 49
0.0008202099737533
 49
0.0
 49
0.0
 49
0.0
 49
0.0
 49
0.0008202099737533
 49
0.0
 49
0.0
 49
0.0
 49
0.0
 49
1.0
 49
0.0
 49
0.0
 49
0.0
 49
0.0
 49
1.0
175
     0
142
0.0008202099737533
142
0.0
142
0.0
142
0.0
142
0.0
142
0.0008202099737533
142
0.0
142
0.0
142
0.0
142
0.0
142
1.0
142
0.0
142
0.0
142
0.0
142
0.0
142
1.0
179
     0
144
0.0008202099737533
144
0.0
144
0.0
144
0.0
144
0.0
144
0.0008202099737533
144
0.0
144
0.0
144
0.0
144
0.0
144
1.0
144
0.0
144
0.0
144
0.0
144
0.0
144
1.0
147
0.0008202099737533
147
0.0
147
0.0
147
0.0
147
0.0
147
0.0008202099737533
147
0.0
147
0.0
147
0.0
147
0.0
147
1.0
147
0.0
147
0.0
147
0.0
147
0.0
147
1.0
  0
MLEADERSTYLE
  5
D1DB
102
{ACAD_REACTORS
330
D1DA
102
}
330
D1DA
100
AcDbMLeaderStyle
179
     2
170
     2
171
     1
172
     0
 90
        2
 40
0.0
 41
0.0
173
     1
 91
-1056964608
340
14
 92
       -2
290
     1
 42
2.0
291
     1
 43
0.36
  3
Standard
 44
4.0
300

342
11
174
     1
178
     6
175
     1
176
     0
 93
-1056964608
 45
4.0
292
     0
297
     0
 46
4.0
 94
-1056964608
 47
1.0
 49
1.0
140
1.0
293
     1
141
0.0
294
     1
177
     0
142
1.0
295
     0
296
     0
143
0.125
271
     0
272
     9
273
     9
298
     0
1001
ACAD
1000
AcRTDxfName
1000
MLEADERSTYLE
1000
AcRTDxfName
1000
MLEADERSTYLE
1000
AcRTDxfName
1000
MLEADERSTYLE
1000
AcRTDxfName
1000
MLEADERSTYLE
  0
MLINESTYLE
  5
18
102
{ACAD_REACTORS
330
17
102
}
330
17
100
AcDbMlineStyle
  2
STANDARD
 70
     0
  3

 62
   256
 51
90.0
 52
90.0
 71
     2
 49
0.5
 62
   256
  6
BYLAYER
 49
-0.5
 62
   256
  6
BYLAYER
  0
ACDBPLACEHOLDER
  5
F
102
{ACAD_REACTORS
330
E
102
}
330
E
  0
SCALE
  5
D1C9
102
{ACAD_REACTORS
330
D1C8
102
}
330
D1C8
100
AcDbScale
 70
     0
300
1:1
140
1.0
141
1.0
290
     1
1001
ACAD
1000
AcRTDxfName
1000
SCALE
1000
AcRTDxfName
1000
SCALE
1000
AcRTDxfName
1000
SCALE
1000
AcRTDxfName
1000
SCALE
  0
SCALE
  5
D1CA
102
{ACAD_REACTORS
330
D1C8
102
}
330
D1C8
100
AcDbScale
 70
     0
300
1:2
140
1.0
141
2.0
290
     0
1001
ACAD
1000
AcRTDxfName
1000
SCALE
1000
AcRTDxfName
1000
SCALE
1000
AcRTDxfName
1000
SCALE
1000
AcRTDxfName
1000
SCALE
  0
SCALE
  5
D1CB
102
{ACAD_REACTORS
330
D1C8
102
}
330
D1C8
100
AcDbScale
 70
     0
300
1:4
140
1.0
141
4.0
290
     0
1001
ACAD
1000
AcRTDxfName
1000
SCALE
1000
AcRTDxfName
1000
SCALE
1000
AcRTDxfName
1000
SCALE
1000
AcRTDxfName
1000
SCALE
  0
SCALE
  5
D1CC
102
{ACAD_REACTORS
330
D1C8
102
}
330
D1C8
100
AcDbScale
 70
     0
300
1:5
140
1.0
141
5.0
290
     0
1001
ACAD
1000
AcRTDxfName
1000
SCALE
1000
AcRTDxfName
1000
SCALE
1000
AcRTDxfName
1000
SCALE
1000
AcRTDxfName
1000
SCALE
  0
SCALE
  5
D1CD
102
{ACAD_REACTORS
330
D1C8
102
}
330
D1C8
100
AcDbScale
 70
     0
300
1:8
140
1.0
141
8.0
290
     0
1001
ACAD
1000
AcRTDxfName
1000
SCALE
1000
AcRTDxfName
1000
SCALE
1000
AcRTDxfName
1000
SCALE
1000
AcRTDxfName
1000
SCALE
  0
SCALE
  5
D1CE
102
{ACAD_REACTORS
330
D1C8
102
}
330
D1C8
100
AcDbScale
 70
     0
300
1:10
140
1.0
141
10.0
290
     0
1001
ACAD
1000
AcRTDxfName
1000
SCALE
1000
AcRTDxfName
1000
SCALE
1000
AcRTDxfName
1000
SCALE
1000
AcRTDxfName
1000
SCALE
  0
SCALE
  5
D1CF
102
{ACAD_REACTORS
330
D1C8
102
}
330
D1C8
100
AcDbScale
 70
     0
300
1:16
140
1.0
141
16.0
290
     0
1001
ACAD
1000
AcRTDxfName
1000
SCALE
1000
AcRTDxfName
1000
SCALE
1000
AcRTDxfName
1000
SCALE
1000
AcRTDxfName
1000
SCALE
  0
SCALE
  5
D1D0
102
{ACAD_REACTORS
330
D1C8
102
}
330
D1C8
100
AcDbScale
 70
     0
300
1:20
140
1.0
141
20.0
290
     0
1001
ACAD
1000
AcRTDxfName
1000
SCALE
1000
AcRTDxfName
1000
SCALE
1000
AcRTDxfName
1000
SCALE
1000
AcRTDxfName
1000
SCALE
  0
SCALE
  5
D1D1
102
{ACAD_REACTORS
330
D1C8
102
}
330
D1C8
100
AcDbScale
 70
     0
300
1:30
140
1.0
141
30.0
290
     0
1001
ACAD
1000
AcRTDxfName
1000
SCALE
1000
AcRTDxfName
1000
SCALE
1000
AcRTDxfName
1000
SCALE
1000
AcRTDxfName
1000
SCALE
  0
SCALE
  5
D1D2
102
{ACAD_REACTORS
330
D1C8
102
}
330
D1C8
100
AcDbScale
 70
     0
300
1:40
140
1.0
141
40.0
290
     0
1001
ACAD
1000
AcRTDxfName
1000
SCALE
1000
AcRTDxfName
1000
SCALE
1000
AcRTDxfName
1000
SCALE
1000
AcRTDxfName
1000
SCALE
  0
SCALE
  5
D1D3
102
{ACAD_REACTORS
330
D1C8
102
}
330
D1C8
100
AcDbScale
 70
     0
300
1:50
140
1.0
141
50.0
290
     0
1001
ACAD
1000
AcRTDxfName
1000
SCALE
1000
AcRTDxfName
1000
SCALE
1000
AcRTDxfName
1000
SCALE
1000
AcRTDxfName
1000
SCALE
  0
SCALE
  5
D1D4
102
{ACAD_REACTORS
330
D1C8
102
}
330
D1C8
100
AcDbScale
 70
     0
300
1:100
140
1.0
141
100.0
290
     0
1001
ACAD
1000
AcRTDxfName
1000
SCALE
1000
AcRTDxfName
1000
SCALE
1000
AcRTDxfName
1000
SCALE
1000
AcRTDxfName
1000
SCALE
  0
SCALE
  5
D1D5
102
{ACAD_REACTORS
330
D1C8
102
}
330
D1C8
100
AcDbScale
 70
     0
300
2:1
140
2.0
141
1.0
290
     0
1001
ACAD
1000
AcRTDxfName
1000
SCALE
1000
AcRTDxfName
1000
SCALE
1000
AcRTDxfName
1000
SCALE
1000
AcRTDxfName
1000
SCALE
  0
SCALE
  5
D1D6
102
{ACAD_REACTORS
330
D1C8
102
}
330
D1C8
100
AcDbScale
 70
     0
300
4:1
140
4.0
141
1.0
290
     0
1001
ACAD
1000
AcRTDxfName
1000
SCALE
1000
AcRTDxfName
1000
SCALE
1000
AcRTDxfName
1000
SCALE
1000
AcRTDxfName
1000
SCALE
  0
SCALE
  5
D1D7
102
{ACAD_REACTORS
330
D1C8
102
}
330
D1C8
100
AcDbScale
 70
     0
300
8:1
140
8.0
141
1.0
290
     0
1001
ACAD
1000
AcRTDxfName
1000
SCALE
1000
AcRTDxfName
1000
SCALE
1000
AcRTDxfName
1000
SCALE
1000
AcRTDxfName
1000
SCALE
  0
SCALE
  5
D1D8
102
{ACAD_REACTORS
330
D1C8
102
}
330
D1C8
100
AcDbScale
 70
     0
300
10:1
140
10.0
141
1.0
290
     0
1001
ACAD
1000
AcRTDxfName
1000
SCALE
1000
AcRTDxfName
1000
SCALE
1000
AcRTDxfName
1000
SCALE
1000
AcRTDxfName
1000
SCALE
  0
SCALE
  5
D1D9
102
{ACAD_REACTORS
330
D1C8
102
}
330
D1C8
100
AcDbScale
 70
     0
300
100:1
140
100.0
141
1.0
290
     0
1001
ACAD
1000
AcRTDxfName
1000
SCALE
1000
AcRTDxfName
1000
SCALE
1000
AcRTDxfName
1000
SCALE
1000
AcRTDxfName
1000
SCALE
  0
ACDBSECTIONVIEWSTYLE
  5
15475
102
{ACAD_XDICTIONARY
360
16AB8
102
}
102
{ACAD_REACTORS
330
15474
102
}
330
15474
100
AcDbModelDocViewStyle
 70
     0
  3
Metric50
290
     0
100
AcDbSectionViewStyle
 70
     0
 71
     0
 90
      102
 71
     1
340
11
 62
   256
 40
5.0
340
0
340
0
 62
   256
 40
5.0
300
I, O, Q, S, X, Z
 40
10.0
 90
        0
 40
2.5
 90
        0
 71
     2
340
16
 90
       25
 62
   256
340
16
 90
       50
 62
   256
 40
5.0
 40
2.5
 40
5.0
 71
     3
340
11
 62
   256
 40
5.0
 90
        0
 40
15.0
 90
        1
300
%<\AcVar ViewSectionStartId>%-%<\AcVar ViewSectionEndId>% (%<\AcVar ViewScale \f "%sn">%)
 71
     4
 62
   256
 62
   257
300
ANSI31
 40
1.0
 90
        0
290
     0
290
     0
 90
        6
 40
0.0
 40
1.570796326794896
 40
0.2617993877991494
 40
1.308996938995747
 40
-0.2617993877991494
 40
1.832595714594045
  0
TABLESTYLE
  5
7F
102
{ACAD_XDICTIONARY
360
D423
102
}
102
{ACAD_REACTORS
330
7E
102
}
330
7E
100
AcDbTableStyle
280
     0
  3
Standard
 70
     0
 71
     0
 40
1.5
 41
1.5
280
     0
281
     0
  7
Standard
140
4.5
170
     2
 62
     0
 63
     7
283
     0
 90
        4
 91
        0
  1

274
    -2
284
     1
 64
     0
275
    -2
285
     1
 65
     0
276
    -2
286
     1
 66
     0
277
    -2
287
     1
 67
     0
278
    -2
288
     1
 68
     0
279
    -2
289
     1
 69
     0
  7
Standard
140
6.0
170
     5
 62
     0
 63
     7
283
     0
 90
        4
 91
        0
  1

274
    -2
284
     1
 64
     0
275
    -2
285
     1
 65
     0
276
    -2
286
     1
 66
     0
277
    -2
287
     1
 67
     0
278
    -2
288
     1
 68
     0
279
    -2
289
     1
 69
     0
  7
Standard
140
4.5
170
     5
 62
     0
 63
     7
283
     0
 90
        4
 91
        0
  1

274
    -2
284
     1
 64
     0
275
    -2
285
     1
 65
     0
276
    -2
286
     1
 66
     0
277
    -2
287
     1
 67
     0
278
    -2
288
     1
 68
     0
279
    -2
289
     1
 69
     0
  0
VISUALSTYLE
  5
D1BD
102
{ACAD_REACTORS
330
D1B7
102
}
330
D1B7
100
AcDbVisualStyle
  2
2dWireframe
 70
     4
177
     3
291
     0
 70
    58
 90
        0
176
     1
 90
        2
176
     1
 90
        0
176
     1
 90
        0
176
     1
 40
0.6
176
     1
 40
30.0
176
     1
 62
     7
176
     1
 90
        1
176
     1
 90
        4
176
     1
 62
     7
176
     1
 62
   257
176
     1
 90
        1
176
     1
 90
        1
176
     1
 40
1.0
176
     1
 90
        0
176
     1
 62
   257
176
     1
 40
1.0
176
     1
 90
        1
176
     1
 90
        6
176
     1
 90
        2
176
     1
 62
     7
176
     1
 90
        5
176
     1
 90
        0
176
     1
 90
        0
176
     1
290
     0
176
     1
 90
        1
176
     1
 40
0.0
176
     1
 90
        0
176
     1
290
     1
176
     1
290
     1
176
     1
290
     0
176
     1
290
     0
176
     1
290
     0
176
     1
290
     0
176
     1
290
     0
176
     1
290
     0
176
     1
290
     0
176
     1
 90
       50
176
     1
 40
0.0
176
     1
 40
1.0
176
     1
 90
        0
176
     1
 62
    18
176
     1
 90
       50
176
     1
 90
        3
176
     1
 62
     5
420
      255
176
     1
290
     0
176
     1
 90
       50
176
     1
 90
       50
176
     1
 90
       50
176
     1
290
     0
176
     1
 90
       50
176
     1
 62
   256
176
     0
 40
1.0
176
     0
 90
        2
176
     1
  1
strokes_ogs.tif
176
     1
290
     0
176
     1
 40
1.0
176
     1
 40
1.0
176
     1
1001
ACAD
1000
AcRTDxfName
1000
VISUALSTYLE
1000
AcRTDxfName
1000
VISUALSTYLE
1000
AcRTDxfName
1000
VISUALSTYLE
1000
AcRTDxfName
1000
VISUALSTYLE
1000
AcDbSavedByObjectVersion
1070
     0
  0
VISUALSTYLE
  5
D1BF
102
{ACAD_REACTORS
330
D1B7
102
}
330
D1B7
100
AcDbVisualStyle
  2
3D Hidden
 70
     6
177
     3
291
     0
 70
    58
 90
        1
176
     1
 90
        2
176
     1
 90
        2
176
     1
 90
        0
176
     1
 40
0.6
176
     1
 40
30.0
176
     1
 62
     7
176
     1
 90
        2
176
     1
 90
        2
176
     1
 62
     7
176
     1
 62
   257
176
     1
 90
        2
176
     1
 90
        1
176
     1
 40
40.0
176
     1
 90
        0
176
     1
 62
   257
176
     1
 40
1.0
176
     1
 90
        1
176
     1
 90
        6
176
     1
 90
        2
176
     1
 62
     7
176
     1
 90
        3
176
     1
 90
        0
176
     1
 90
        0
176
     1
290
     0
176
     1
 90
        1
176
     1
 40
0.0
176
     1
 90
        0
176
     1
290
     0
176
     1
290
     1
176
     1
290
     1
176
     1
290
     0
176
     1
290
     0
176
     1
290
     0
176
     1
290
     0
176
     1
290
     0
176
     1
290
     0
176
     1
 90
       50
176
     1
 40
0.0
176
     1
 40
1.0
176
     1
 90
        0
176
     1
 62
    18
176
     1
 90
       50
176
     1
 90
        3
176
     1
 62
     5
420
      255
176
     1
290
     0
176
     1
 90
       50
176
     1
 90
       50
176
     1
 90
       50
176
     1
290
     0
176
     1
 90
       50
176
     1
 62
   256
176
     0
 40
1.0
176
     0
 90
        2
176
     1
  1
strokes_ogs.tif
176
     1
290
     0
176
     1
 40
1.0
176
     1
 40
1.0
176
     1
1001
ACAD
1000
AcRTDxfName
1000
VISUALSTYLE
1000
AcRTDxfName
1000
VISUALSTYLE
1000
AcRTDxfName
1000
VISUALSTYLE
1000
AcRTDxfName
1000
VISUALSTYLE
1000
AcDbSavedByObjectVersion
1070
     0
  0
VISUALSTYLE
  5
D1BE
102
{ACAD_REACTORS
330
D1B7
102
}
330
D1B7
100
AcDbVisualStyle
  2
3dWireframe
 70
     5
177
     3
291
     0
 70
    58
 90
        0
176
     1
 90
        2
176
     1
 90
        0
176
     1
 90
        0
176
     1
 40
0.6
176
     1
 40
30.0
176
     1
 62
     7
176
     1
 90
        1
176
     1
 90
        4
176
     1
 62
     7
176
     1
 62
   257
176
     1
 90
        1
176
     1
 90
        1
176
     1
 40
1.0
176
     1
 90
        0
176
     1
 62
   257
176
     1
 40
1.0
176
     1
 90
        1
176
     1
 90
        6
176
     1
 90
        2
176
     1
 62
     7
176
     1
 90
        5
176
     1
 90
        0
176
     1
 90
        0
176
     1
290
     0
176
     1
 90
        1
176
     1
 40
0.0
176
     1
 90
        0
176
     1
290
     0
176
     1
290
     1
176
     1
290
     1
176
     1
290
     0
176
     1
290
     0
176
     1
290
     0
176
     1
290
     0
176
     1
290
     0
176
     1
290
     0
176
     1
 90
       50
176
     1
 40
0.0
176
     1
 40
1.0
176
     1
 90
        0
176
     1
 62
    18
176
     1
 90
       50
176
     1
 90
        3
176
     1
 62
     5
420
      255
176
     1
290
     0
176
     1
 90
       50
176
     1
 90
       50
176
     1
 90
       50
176
     1
290
     0
176
     1
 90
       50
176
     1
 62
   256
176
     0
 40
1.0
176
     0
 90
        2
176
     1
  1
strokes_ogs.tif
176
     1
290
     0
176
     1
 40
1.0
176
     1
 40
1.0
176
     1
1001
ACAD
1000
AcRTDxfName
1000
VISUALSTYLE
1000
AcRTDxfName
1000
VISUALSTYLE
1000
AcRTDxfName
1000
VISUALSTYLE
1000
AcRTDxfName
1000
VISUALSTYLE
1000
AcDbSavedByObjectVersion
1070
     0
  0
VISUALSTYLE
  5
D1BC
102
{ACAD_REACTORS
330
D1B7
102
}
330
D1B7
100
AcDbVisualStyle
  2
Basic
 70
     7
177
     3
291
     1
 70
    58
 90
        1
176
     1
 90
        0
176
     1
 90
        1
176
     1
 90
        0
176
     1
 40
0.6
176
     1
 40
30.0
176
     1
 62
     7
176
     1
 90
        0
176
     1
 90
        4
176
     1
 62
     7
176
     1
 62
   257
176
     1
 90
        1
176
     1
 90
        1
176
     1
 40
1.0
176
     1
 90
        8
176
     1
 62
     7
176
     1
 40
1.0
176
     1
 90
        1
176
     1
 90
        6
176
     1
 90
        2
176
     1
 62
     7
176
     1
 90
        5
176
     1
 90
        0
176
     1
 90
        0
176
     1
290
     0
176
     1
 90
        1
176
     1
 40
0.0
176
     1
 90
        0
176
     1
290
     0
176
     1
290
     1
176
     1
290
     1
176
     1
290
     0
176
     1
290
     0
176
     1
290
     0
176
     1
290
     0
176
     1
290
     0
176
     1
290
     0
176
     1
 90
       50
176
     1
 40
0.0
176
     1
 40
1.0
176
     1
 90
        0
176
     1
 62
    18
176
     1
 90
       50
176
     1
 90
        3
176
     1
 62
     5
420
      255
176
     1
290
     0
176
     1
 90
       50
176
     1
 90
       50
176
     1
 90
       50
176
     1
290
     0
176
     1
 90
       50
176
     1
 62
   256
176
     0
 40
1.0
176
     0
 90
        2
176
     1
  1
strokes_ogs.tif
176
     1
290
     0
176
     1
 40
1.0
176
     1
 40
1.0
176
     1
1001
ACAD
1000
AcRTDxfName
1000
VISUALSTYLE
1000
AcRTDxfName
1000
VISUALSTYLE
1000
AcRTDxfName
1000
VISUALSTYLE
1000
AcRTDxfName
1000
VISUALSTYLE
1000
AcDbSavedByObjectVersion
1070
     0
  0
VISUALSTYLE
  5
D1C3
102
{ACAD_REACTORS
330
D1B7
102
}
330
D1B7
100
AcDbVisualStyle
  2
Brighten
 70
    12
177
     3
291
     1
 70
    58
 90
        2
176
     1
 90
        2
176
     1
 90
        0
176
     1
 90
        0
176
     1
 40
0.6
176
     1
 40
30.0
176
     1
 62
     7
176
     1
 90
        1
176
     1
 90
        4
176
     1
 62
     7
176
     1
 62
   257
176
     1
 90
        1
176
     1
 90
        1
176
     1
 40
1.0
176
     1
 90
        8
176
     1
 62
     7
176
     1
 40
1.0
176
     1
 90
        1
176
     1
 90
        6
176
     1
 90
        2
176
     1
 62
     7
176
     1
 90
        5
176
     1
 90
        0
176
     1
 90
        0
176
     1
290
     0
176
     1
 90
        1
176
     1
 40
50.0
176
     1
 90
        0
176
     1
290
     0
176
     1
290
     1
176
     1
290
     1
176
     1
290
     0
176
     1
290
     0
176
     1
290
     0
176
     1
290
     0
176
     1
290
     0
176
     1
290
     0
176
     1
 90
       50
176
     1
 40
0.0
176
     1
 40
1.0
176
     1
 90
        0
176
     1
 62
    18
176
     1
 90
       50
176
     1
 90
        3
176
     1
 62
     5
420
      255
176
     1
290
     0
176
     1
 90
       50
176
     1
 90
       50
176
     1
 90
       50
176
     1
290
     0
176
     1
 90
       50
176
     1
 62
   256
176
     0
 40
1.0
176
     0
 90
        2
176
     1
  1
strokes_ogs.tif
176
     1
290
     0
176
     1
 40
1.0
176
     1
 40
1.0
176
     1
1001
ACAD
1000
AcRTDxfName
1000
VISUALSTYLE
1000
AcRTDxfName
1000
VISUALSTYLE
1000
AcRTDxfName
1000
VISUALSTYLE
1000
AcRTDxfName
1000
VISUALSTYLE
1000
AcDbSavedByObjectVersion
1070
     0
  0
VISUALSTYLE
  5
D1C7
102
{ACAD_REACTORS
330
D1B7
102
}
330
D1B7
100
AcDbVisualStyle
  2
ColorChange
 70
    16
177
     3
291
     1
 70
    58
 90
        2
176
     1
 90
        2
176
     1
 90
        3
176
     1
 90
        0
176
     1
 40
0.6
176
     1
 40
30.0
176
     1
 62
     8
176
     1
 90
        1
176
     1
 90
        4
176
     1
 62
     7
176
     1
 62
   257
176
     1
 90
        1
176
     1
 90
        1
176
     1
 40
1.0
176
     1
 90
        8
176
     1
 62
     8
176
     1
 40
1.0
176
     1
 90
        1
176
     1
 90
        6
176
     1
 90
        2
176
     1
 62
     7
176
     1
 90
        5
176
     1
 90
        0
176
     1
 90
        0
176
     1
290
     0
176
     1
 90
        1
176
     1
 40
0.0
176
     1
 90
        0
176
     1
290
     0
176
     1
290
     1
176
     1
290
     1
176
     1
290
     0
176
     1
290
     0
176
     1
290
     0
176
     1
290
     0
176
     1
290
     0
176
     1
290
     0
176
     1
 90
       50
176
     1
 40
0.0
176
     1
 40
1.0
176
     1
 90
        0
176
     1
 62
    18
176
     1
 90
       50
176
     1
 90
        3
176
     1
 62
     5
420
      255
176
     1
290
     0
176
     1
 90
       50
176
     1
 90
       50
176
     1
 90
       50
176
     1
290
     0
176
     1
 90
       50
176
     1
 62
   256
176
     0
 40
1.0
176
     0
 90
        2
176
     1
  1
strokes_ogs.tif
176
     1
290
     0
176
     1
 40
1.0
176
     1
 40
1.0
176
     1
1001
ACAD
1000
AcRTDxfName
1000
VISUALSTYLE
1000
AcRTDxfName
1000
VISUALSTYLE
1000
AcRTDxfName
1000
VISUALSTYLE
1000
AcRTDxfName
1000
VISUALSTYLE
1000
AcDbSavedByObjectVersion
1070
     0
  0
VISUALSTYLE
  5
D1C0
102
{ACAD_REACTORS
330
D1B7
102
}
330
D1B7
100
AcDbVisualStyle
  2
Conceptual
 70
     9
177
     3
291
     0
 70
    58
 90
        3
176
     1
 90
        2
176
     1
 90
        0
176
     1
 90
        0
176
     1
 40
0.6
176
     1
 40
30.0
176
     1
 62
     7
176
     1
 90
        2
176
     1
 90
        2
176
     1
 62
     7
176
     1
 62
   257
176
     1
 90
        1
176
     1
 90
        1
176
     1
 40
40.0
176
     1
 90
        8
176
     1
 62
     7
176
     1
 40
1.0
176
     1
 90
        1
176
     1
 90
        6
176
     1
 90
        2
176
     1
 62
     7
176
     1
 90
        3
176
     1
 90
        0
176
     1
 90
        0
176
     1
290
     0
176
     1
 90
        1
176
     1
 40
0.0
176
     1
 90
        0
176
     1
290
     0
176
     1
290
     1
176
     1
290
     1
176
     1
290
     0
176
     1
290
     0
176
     1
290
     0
176
     1
290
     0
176
     1
290
     0
176
     1
290
     0
176
     1
 90
       50
176
     1
 40
0.0
176
     1
 40
1.0
176
     1
 90
        0
176
     1
 62
    18
176
     1
 90
       50
176
     1
 90
        3
176
     1
 62
     5
420
      255
176
     1
290
     0
176
     1
 90
       50
176
     1
 90
       50
176
     1
 90
       50
176
     1
290
     0
176
     1
 90
       50
176
     1
 62
   256
176
     0
 40
1.0
176
     0
 90
        2
176
     1
  1
strokes_ogs.tif
176
     1
290
     0
176
     1
 40
1.0
176
     1
 40
1.0
176
     1
1001
ACAD
1000
AcRTDxfName
1000
VISUALSTYLE
1000
AcRTDxfName
1000
VISUALSTYLE
1000
AcRTDxfName
1000
VISUALSTYLE
1000
AcRTDxfName
1000
VISUALSTYLE
1000
AcDbSavedByObjectVersion
1070
     0
  0
VISUALSTYLE
  5
D1C2
102
{ACAD_REACTORS
330
D1B7
102
}
330
D1B7
100
AcDbVisualStyle
  2
Dim
 70
    11
177
     3
291
     1
 70
    58
 90
        2
176
     1
 90
        2
176
     1
 90
        0
176
     1
 90
        0
176
     1
 40
0.6
176
     1
 40
30.0
176
     1
 62
     7
176
     1
 90
        1
176
     1
 90
        4
176
     1
 62
     7
176
     1
 62
   257
176
     1
 90
        1
176
     1
 90
        1
176
     1
 40
1.0
176
     1
 90
        8
176
     1
 62
     7
176
     1
 40
1.0
176
     1
 90
        1
176
     1
 90
        6
176
     1
 90
        2
176
     1
 62
     7
176
     1
 90
        5
176
     1
 90
        0
176
     1
 90
        0
176
     1
290
     0
176
     1
 90
        1
176
     1
 40
-50.0
176
     1
 90
        0
176
     1
290
     0
176
     1
290
     1
176
     1
290
     1
176
     1
290
     0
176
     1
290
     0
176
     1
290
     0
176
     1
290
     0
176
     1
290
     0
176
     1
290
     0
176
     1
 90
       50
176
     1
 40
0.0
176
     1
 40
1.0
176
     1
 90
        0
176
     1
 62
    18
176
     1
 90
       50
176
     1
 90
        3
176
     1
 62
     5
420
      255
176
     1
290
     0
176
     1
 90
       50
176
     1
 90
       50
176
     1
 90
       50
176
     1
290
     0
176
     1
 90
       50
176
     1
 62
   256
176
     0
 40
1.0
176
     0
 90
        2
176
     1
  1
strokes_ogs.tif
176
     1
290
     0
176
     1
 40
1.0
176
     1
 40
1.0
176
     1
1001
ACAD
1000
AcRTDxfName
1000
VISUALSTYLE
1000
AcRTDxfName
1000
VISUALSTYLE
1000
AcRTDxfName
1000
VISUALSTYLE
1000
AcRTDxfName
1000
VISUALSTYLE
1000
AcDbSavedByObjectVersion
1070
     0
  0
VISUALSTYLE
  5
15473
102
{ACAD_REACTORS
330
D1B7
102
}
330
D1B7
100
AcDbVisualStyle
  2
EdgeColorOff
 70
    22
177
     3
291
     1
 70
    58
 90
        2
176
     0
 90
        2
176
     0
 90
        0
176
     0
 90
        0
176
     0
 40
0.6
176
     0
 40
30.0
176
     0
 62
     7
420
 16777215
176
     0
 90
        1
176
     0
 90
        4
176
     0
 62
     7
176
     0
 62
   257
176
     0
 90
        1
176
     0
 90
        1
176
     0
 40
1.0
176
     0
 90
        8
176
     2
 62
     7
176
     0
 40
1.0
176
     0
 90
        1
176
     0
 90
        6
176
     0
 90
        2
176
     0
 62
     7
176
     0
 90
        5
176
     0
 90
        0
176
     0
 90
        0
176
     0
290
     0
176
     0
 90
        1
176
     0
 40
0.0
176
     0
 90
        0
176
     0
290
     0
176
     0
290
     1
176
     0
290
     1
176
     0
290
     0
176
     0
290
     0
176
     0
290
     0
176
     0
290
     0
176
     0
290
     0
176
     0
290
     0
176
     0
 90
       50
176
     0
 40
0.0
176
     0
 40
1.0
176
     0
 90
        0
176
     0
 62
    18
176
     0
 90
       50
176
     0
 90
        3
176
     0
 62
     5
420
      255
176
     0
290
     0
176
     0
 90
       50
176
     0
 90
       50
176
     0
 90
       50
176
     0
290
     0
176
     0
 90
       50
176
     0
 62
   256
176
     0
 40
1.0
176
     0
 90
        2
176
     0
  1
strokes_ogs.tif
176
     0
290
     0
176
     0
 40
1.0
176
     0
 40
1.0
176
     0
1001
ACAD
1000
AcDbSavedByObjectVersion
1070
     0
  0
VISUALSTYLE
  5
D1C6
102
{ACAD_REACTORS
330
D1B7
102
}
330
D1B7
100
AcDbVisualStyle
  2
Facepattern
 70
    15
177
     3
291
     1
 70
    58
 90
        2
176
     1
 90
        2
176
     1
 90
        0
176
     1
 90
        0
176
     1
 40
0.6
176
     1
 40
30.0
176
     1
 62
     7
176
     1
 90
        1
176
     1
 90
        4
176
     1
 62
     7
176
     1
 62
   257
176
     1
 90
        1
176
     1
 90
        1
176
     1
 40
1.0
176
     1
 90
        8
176
     1
 62
     7
176
     1
 40
1.0
176
     1
 90
        1
176
     1
 90
        6
176
     1
 90
        2
176
     1
 62
     7
176
     1
 90
        5
176
     1
 90
        0
176
     1
 90
        0
176
     1
290
     0
176
     1
 90
        1
176
     1
 40
0.0
176
     1
 90
        0
176
     1
290
     0
176
     1
290
     1
176
     1
290
     1
176
     1
290
     0
176
     1
290
     0
176
     1
290
     0
176
     1
290
     0
176
     1
290
     0
176
     1
290
     0
176
     1
 90
       50
176
     1
 40
0.0
176
     1
 40
1.0
176
     1
 90
        0
176
     1
 62
    18
176
     1
 90
       50
176
     1
 90
        3
176
     1
 62
     5
420
      255
176
     1
290
     0
176
     1
 90
       50
176
     1
 90
       50
176
     1
 90
       50
176
     1
290
     0
176
     1
 90
       50
176
     1
 62
   256
176
     0
 40
1.0
176
     0
 90
        2
176
     1
  1
strokes_ogs.tif
176
     1
290
     0
176
     1
 40
1.0
176
     1
 40
1.0
176
     1
1001
ACAD
1000
AcRTDxfName
1000
VISUALSTYLE
1000
AcRTDxfName
1000
VISUALSTYLE
1000
AcRTDxfName
1000
VISUALSTYLE
1000
AcRTDxfName
1000
VISUALSTYLE
1000
AcDbSavedByObjectVersion
1070
     0
  0
VISUALSTYLE
  5
D1B8
102
{ACAD_REACTORS
330
D1B7
102
}
330
D1B7
100
AcDbVisualStyle
  2
Flat
 70
     0
177
     3
291
     1
 70
    58
 90
        2
176
     1
 90
        1
176
     1
 90
        1
176
     1
 90
        2
176
     1
 40
0.6
176
     1
 40
30.0
176
     1
 62
     7
176
     1
 90
        0
176
     1
 90
        4
176
     1
 62
     7
176
     1
 62
   257
176
     1
 90
        1
176
     1
 90
        1
176
     1
 40
1.0
176
     1
 90
        8
176
     1
 62
     7
176
     1
 40
1.0
176
     1
 90
        1
176
     1
 90
        6
176
     1
 90
        2
176
     1
 62
     7
176
     1
 90
        5
176
     1
 90
        0
176
     1
 90
        0
176
     1
290
     0
176
     1
 90
       13
176
     1
 40
0.0
176
     1
 90
        0
176
     1
290
     0
176
     1
290
     1
176
     1
290
     1
176
     1
290
     0
176
     1
290
     0
176
     1
290
     0
176
     1
290
     0
176
     1
290
     0
176
     1
290
     0
176
     1
 90
       50
176
     1
 40
0.0
176
     1
 40
1.0
176
     1
 90
        0
176
     1
 62
    18
176
     1
 90
       50
176
     1
 90
        3
176
     1
 62
     5
420
      255
176
     1
290
     0
176
     1
 90
       50
176
     1
 90
       50
176
     1
 90
       50
176
     1
290
     0
176
     1
 90
       50
176
     1
 62
   256
176
     0
 40
1.0
176
     0
 90
        2
176
     1
  1
strokes_ogs.tif
176
     1
290
     0
176
     1
 40
1.0
176
     1
 40
1.0
176
     1
1001
ACAD
1000
AcRTDxfName
1000
VISUALSTYLE
1000
AcRTDxfName
1000
VISUALSTYLE
1000
AcRTDxfName
1000
VISUALSTYLE
1000
AcRTDxfName
1000
VISUALSTYLE
1000
AcDbSavedByObjectVersion
1070
     0
  0
VISUALSTYLE
  5
D1B9
102
{ACAD_REACTORS
330
D1B7
102
}
330
D1B7
100
AcDbVisualStyle
  2
FlatWithEdges
 70
     1
177
     3
291
     1
 70
    58
 90
        2
176
     1
 90
        1
176
     1
 90
        1
176
     1
 90
        2
176
     1
 40
0.6
176
     1
 40
30.0
176
     1
 62
     7
176
     1
 90
        1
176
     1
 90
        4
176
     1
 62
     7
176
     1
 62
   257
176
     1
 90
        1
176
     1
 90
        1
176
     1
 40
1.0
176
     1
 90
        0
176
     1
 62
   257
176
     1
 40
1.0
176
     1
 90
        1
176
     1
 90
        6
176
     1
 90
        2
176
     1
 62
     7
176
     1
 90
        5
176
     1
 90
        0
176
     1
 90
        0
176
     1
290
     0
176
     1
 90
       13
176
     1
 40
0.0
176
     1
 90
        0
176
     1
290
     0
176
     1
290
     1
176
     1
290
     1
176
     1
290
     0
176
     1
290
     0
176
     1
290
     0
176
     1
290
     0
176
     1
290
     0
176
     1
290
     0
176
     1
 90
       50
176
     1
 40
0.0
176
     1
 40
1.0
176
     1
 90
        0
176
     1
 62
    18
176
     1
 90
       50
176
     1
 90
        3
176
     1
 62
     5
420
      255
176
     1
290
     0
176
     1
 90
       50
176
     1
 90
       50
176
     1
 90
       50
176
     1
290
     0
176
     1
 90
       50
176
     1
 62
   256
176
     0
 40
1.0
176
     0
 90
        2
176
     1
  1
strokes_ogs.tif
176
     1
290
     0
176
     1
 40
1.0
176
     1
 40
1.0
176
     1
1001
ACAD
1000
AcRTDxfName
1000
VISUALSTYLE
1000
AcRTDxfName
1000
VISUALSTYLE
1000
AcRTDxfName
1000
VISUALSTYLE
1000
AcRTDxfName
1000
VISUALSTYLE
1000
AcDbSavedByObjectVersion
1070
     0
  0
VISUALSTYLE
  5
D1BA
102
{ACAD_REACTORS
330
D1B7
102
}
330
D1B7
100
AcDbVisualStyle
  2
Gouraud
 70
     2
177
     3
291
     1
 70
    58
 90
        2
176
     1
 90
        2
176
     1
 90
        1
176
     1
 90
        2
176
     1
 40
0.6
176
     1
 40
30.0
176
     1
 62
     7
176
     1
 90
        0
176
     1
 90
        4
176
     1
 62
     7
176
     1
 62
   257
176
     1
 90
        1
176
     1
 90
        1
176
     1
 40
1.0
176
     1
 90
        0
176
     1
 62
     7
176
     1
 40
1.0
176
     1
 90
        1
176
     1
 90
        6
176
     1
 90
        2
176
     1
 62
     7
176
     1
 90
        5
176
     1
 90
        0
176
     1
 90
        0
176
     1
290
     0
176
     1
 90
       13
176
     1
 40
0.0
176
     1
 90
        0
176
     1
290
     0
176
     1
290
     1
176
     1
290
     1
176
     1
290
     0
176
     1
290
     0
176
     1
290
     0
176
     1
290
     0
176
     1
290
     0
176
     1
290
     0
176
     1
 90
       50
176
     1
 40
0.0
176
     1
 40
1.0
176
     1
 90
        0
176
     1
 62
    18
176
     1
 90
       50
176
     1
 90
        3
176
     1
 62
     5
420
      255
176
     1
290
     0
176
     1
 90
       50
176
     1
 90
       50
176
     1
 90
       50
176
     1
290
     0
176
     1
 90
       50
176
     1
 62
   256
176
     0
 40
1.0
176
     0
 90
        2
176
     1
  1
strokes_ogs.tif
176
     1
290
     0
176
     1
 40
1.0
176
     1
 40
1.0
176
     1
1001
ACAD
1000
AcRTDxfName
1000
VISUALSTYLE
1000
AcRTDxfName
1000
VISUALSTYLE
1000
AcRTDxfName
1000
VISUALSTYLE
1000
AcRTDxfName
1000
VISUALSTYLE
1000
AcDbSavedByObjectVersion
1070
     0
  0
VISUALSTYLE
  5
D1BB
102
{ACAD_REACTORS
330
D1B7
102
}
330
D1B7
100
AcDbVisualStyle
  2
GouraudWithEdges
 70
     3
177
     3
291
     1
 70
    58
 90
        2
176
     1
 90
        2
176
     1
 90
        1
176
     1
 90
        2
176
     1
 40
0.6
176
     1
 40
30.0
176
     1
 62
     7
176
     1
 90
        1
176
     1
 90
        4
176
     1
 62
     7
176
     1
 62
   257
176
     1
 90
        1
176
     1
 90
        1
176
     1
 40
1.0
176
     1
 90
        0
176
     1
 62
   257
176
     1
 40
1.0
176
     1
 90
        1
176
     1
 90
        6
176
     1
 90
        2
176
     1
 62
     7
176
     1
 90
        5
176
     1
 90
        0
176
     1
 90
        0
176
     1
290
     0
176
     1
 90
       13
176
     1
 40
0.0
176
     1
 90
        0
176
     1
290
     0
176
     1
290
     1
176
     1
290
     1
176
     1
290
     0
176
     1
290
     0
176
     1
290
     0
176
     1
290
     0
176
     1
290
     0
176
     1
290
     0
176
     1
 90
       50
176
     1
 40
0.0
176
     1
 40
1.0
176
     1
 90
        0
176
     1
 62
    18
176
     1
 90
       50
176
     1
 90
        3
176
     1
 62
     5
420
      255
176
     1
290
     0
176
     1
 90
       50
176
     1
 90
       50
176
     1
 90
       50
176
     1
290
     0
176
     1
 90
       50
176
     1
 62
   256
176
     0
 40
1.0
176
     0
 90
        2
176
     1
  1
strokes_ogs.tif
176
     1
290
     0
176
     1
 40
1.0
176
     1
 40
1.0
176
     1
1001
ACAD
1000
AcRTDxfName
1000
VISUALSTYLE
1000
AcRTDxfName
1000
VISUALSTYLE
1000
AcRTDxfName
1000
VISUALSTYLE
1000
AcRTDxfName
1000
VISUALSTYLE
1000
AcDbSavedByObjectVersion
1070
     0
  0
VISUALSTYLE
  5
1546B
102
{ACAD_REACTORS
330
D1B7
102
}
330
D1B7
100
AcDbVisualStyle
  2
Hidden
 70
     6
177
     3
291
     0
 70
    58
 90
        1
176
     1
 90
        2
176
     1
 90
        2
176
     1
 90
        0
176
     1
 40
0.6
176
     1
 40
30.0
176
     1
 62
     7
420
 16777215
176
     1
 90
        2
176
     1
 90
        2
176
     1
 62
     7
176
     1
 62
   257
176
     1
 90
        2
176
     1
 90
        1
176
     1
 40
40.0
176
     1
 90
        0
176
     1
 62
   257
176
     1
 40
1.0
176
     1
 90
        1
176
     1
 90
        6
176
     1
 90
        2
176
     1
 62
     7
176
     1
 90
        3
176
     1
 90
        0
176
     1
 90
        0
176
     1
290
     0
176
     1
 90
        1
176
     1
 40
0.0
176
     1
 90
        0
176
     1
290
     0
176
     1
290
     1
176
     1
290
     1
176
     1
290
     0
176
     1
290
     0
176
     1
290
     0
176
     1
290
     0
176
     1
290
     0
176
     1
290
     0
176
     1
 90
       50
176
     1
 40
0.0
176
     1
 40
1.0
176
     1
 90
        0
176
     1
 62
    18
176
     1
 90
       50
176
     1
 90
        3
176
     1
 62
     5
420
      255
176
     1
290
     0
176
     1
 90
       50
176
     1
 90
       50
176
     1
 90
       50
176
     1
290
     0
176
     1
 90
       50
176
     1
 62
   256
176
     0
 40
1.0
176
     0
 90
        2
176
     1
  1
strokes_ogs.tif
176
     1
290
     0
176
     1
 40
1.0
176
     1
 40
1.0
176
     1
1001
ACAD
1000
AcDbSavedByObjectVersion
1070
     0
  0
VISUALSTYLE
  5
15471
102
{ACAD_REACTORS
330
D1B7
102
}
330
D1B7
100
AcDbVisualStyle
  2
JitterOff
 70
    20
177
     3
291
     1
 70
    58
 90
        2
176
     0
 90
        2
176
     0
 90
        0
176
     0
 90
        0
176
     0
 40
0.6
176
     0
 40
30.0
176
     0
 62
     7
420
 16777215
176
     0
 90
        1
176
     0
 90
        4
176
     0
 62
     7
176
     0
 62
   257
176
     0
 90
        1
176
     0
 90
        1
176
     0
 40
1.0
176
     0
 90
       10
176
     2
 62
     7
176
     0
 40
1.0
176
     0
 90
        1
176
     0
 90
        6
176
     0
 90
        2
176
     0
 62
     7
176
     0
 90
        5
176
     0
 90
        0
176
     0
 90
        0
176
     0
290
     0
176
     0
 90
        1
176
     0
 40
0.0
176
     0
 90
        0
176
     0
290
     0
176
     0
290
     1
176
     0
290
     1
176
     0
290
     0
176
     0
290
     0
176
     0
290
     0
176
     0
290
     0
176
     0
290
     0
176
     0
290
     0
176
     0
 90
       50
176
     0
 40
0.0
176
     0
 40
1.0
176
     0
 90
        0
176
     0
 62
    18
176
     0
 90
       50
176
     0
 90
        3
176
     0
 62
     5
420
      255
176
     0
290
     0
176
     0
 90
       50
176
     0
 90
       50
176
     0
 90
       50
176
     0
290
     0
176
     0
 90
       50
176
     0
 62
   256
176
     0
 40
1.0
176
     0
 90
        2
176
     0
  1
strokes_ogs.tif
176
     0
290
     0
176
     0
 40
1.0
176
     0
 40
1.0
176
     0
1001
ACAD
1000
AcDbSavedByObjectVersion
1070
     0
  0
VISUALSTYLE
  5
D1C5
102
{ACAD_REACTORS
330
D1B7
102
}
330
D1B7
100
AcDbVisualStyle
  2
Linepattern
 70
    14
177
     3
291
     1
 70
    58
 90
        2
176
     1
 90
        2
176
     1
 90
        0
176
     1
 90
        0
176
     1
 40
0.6
176
     1
 40
30.0
176
     1
 62
     7
176
     1
 90
        1
176
     1
 90
        4
176
     1
 62
     7
176
     1
 62
   257
176
     1
 90
        7
176
     1
 90
        7
176
     1
 40
1.0
176
     1
 90
        8
176
     1
 62
     7
176
     1
 40
1.0
176
     1
 90
        1
176
     1
 90
        6
176
     1
 90
        2
176
     1
 62
     7
176
     1
 90
        5
176
     1
 90
        0
176
     1
 90
        0
176
     1
290
     0
176
     1
 90
        1
176
     1
 40
0.0
176
     1
 90
        0
176
     1
290
     0
176
     1
290
     1
176
     1
290
     1
176
     1
290
     0
176
     1
290
     0
176
     1
290
     0
176
     1
290
     0
176
     1
290
     0
176
     1
290
     0
176
     1
 90
       50
176
     1
 40
0.0
176
     1
 40
1.0
176
     1
 90
        0
176
     1
 62
    18
176
     1
 90
       50
176
     1
 90
        3
176
     1
 62
     5
420
      255
176
     1
290
     0
176
     1
 90
       50
176
     1
 90
       50
176
     1
 90
       50
176
     1
290
     0
176
     1
 90
       50
176
     1
 62
   256
176
     0
 40
1.0
176
     0
 90
        2
176
     1
  1
strokes_ogs.tif
176
     1
290
     0
176
     1
 40
1.0
176
     1
 40
1.0
176
     1
1001
ACAD
1000
AcRTDxfName
1000
VISUALSTYLE
1000
AcRTDxfName
1000
VISUALSTYLE
1000
AcRTDxfName
1000
VISUALSTYLE
1000
AcRTDxfName
1000
VISUALSTYLE
1000
AcDbSavedByObjectVersion
1070
     0
  0
VISUALSTYLE
  5
15472
102
{ACAD_REACTORS
330
D1B7
102
}
330
D1B7
100
AcDbVisualStyle
  2
OverhangOff
 70
    21
177
     3
291
     1
 70
    58
 90
        2
176
     0
 90
        2
176
     0
 90
        0
176
     0
 90
        0
176
     0
 40
0.6
176
     0
 40
30.0
176
     0
 62
     7
420
 16777215
176
     0
 90
        1
176
     0
 90
        4
176
     0
 62
     7
176
     0
 62
   257
176
     0
 90
        1
176
     0
 90
        1
176
     0
 40
1.0
176
     0
 90
        9
176
     2
 62
     7
176
     0
 40
1.0
176
     0
 90
        1
176
     0
 90
        6
176
     0
 90
        2
176
     0
 62
     7
176
     0
 90
        5
176
     0
 90
        0
176
     0
 90
        0
176
     0
290
     0
176
     0
 90
        1
176
     0
 40
0.0
176
     0
 90
        0
176
     0
290
     0
176
     0
290
     1
176
     0
290
     1
176
     0
290
     0
176
     0
290
     0
176
     0
290
     0
176
     0
290
     0
176
     0
290
     0
176
     0
290
     0
176
     0
 90
       50
176
     0
 40
0.0
176
     0
 40
1.0
176
     0
 90
        0
176
     0
 62
    18
176
     0
 90
       50
176
     0
 90
        3
176
     0
 62
     5
420
      255
176
     0
290
     0
176
     0
 90
       50
176
     0
 90
       50
176
     0
 90
       50
176
     0
290
     0
176
     0
 90
       50
176
     0
 62
   256
176
     0
 40
1.0
176
     0
 90
        2
176
     0
  1
strokes_ogs.tif
176
     0
290
     0
176
     0
 40
1.0
176
     0
 40
1.0
176
     0
1001
ACAD
1000
AcDbSavedByObjectVersion
1070
     0
  0
VISUALSTYLE
  5
D1C1
102
{ACAD_REACTORS
330
D1B7
102
}
330
D1B7
100
AcDbVisualStyle
  2
Realistic
 70
     8
177
     3
291
     0
 70
    58
 90
        2
176
     1
 90
        2
176
     1
 90
        0
176
     1
 90
        0
176
     1
 40
0.6
176
     1
 40
30.0
176
     1
 62
     7
176
     1
 90
        1
176
     1
 90
        0
176
     1
 62
     7
176
     1
 62
   257
176
     1
 90
        1
176
     1
 90
        1
176
     1
 40
1.0
176
     1
 90
        8
176
     1
 62
     8
176
     1
 40
1.0
176
     1
 90
        1
176
     1
 90
        6
176
     1
 90
        2
176
     1
 62
     7
176
     1
 90
        5
176
     1
 90
        0
176
     1
 90
        0
176
     1
290
     0
176
     1
 90
       13
176
     1
 40
0.0
176
     1
 90
        0
176
     1
290
     0
176
     1
290
     1
176
     1
290
     1
176
     1
290
     0
176
     1
290
     0
176
     1
290
     0
176
     1
290
     0
176
     1
290
     0
176
     1
290
     0
176
     1
 90
       50
176
     1
 40
0.0
176
     1
 40
1.0
176
     1
 90
        0
176
     1
 62
    18
176
     1
 90
       50
176
     1
 90
        3
176
     1
 62
     5
420
      255
176
     1
290
     0
176
     1
 90
       50
176
     1
 90
       50
176
     1
 90
       50
176
     1
290
     0
176
     1
 90
       50
176
     1
 62
   256
176
     0
 40
1.0
176
     0
 90
        2
176
     1
  1
strokes_ogs.tif
176
     1
290
     0
176
     1
 40
1.0
176
     1
 40
1.0
176
     1
1001
ACAD
1000
AcRTDxfName
1000
VISUALSTYLE
1000
AcRTDxfName
1000
VISUALSTYLE
1000
AcRTDxfName
1000
VISUALSTYLE
1000
AcRTDxfName
1000
VISUALSTYLE
1000
AcDbSavedByObjectVersion
1070
     0
  0
VISUALSTYLE
  5
15470
102
{ACAD_REACTORS
330
D1B7
102
}
330
D1B7
100
AcDbVisualStyle
  2
Shaded
 70
    27
177
     3
291
     0
 70
    58
 90
        2
176
     1
 90
        2
176
     1
 90
        1
176
     1
 90
        2
176
     1
 40
0.6
176
     1
 40
30.0
176
     1
 62
     7
420
 16777215
176
     1
 90
        0
176
     1
 90
        4
176
     1
 62
     7
176
     1
 62
   257
176
     1
 90
        1
176
     1
 90
        1
176
     1
 40
1.0
176
     1
 90
        8
176
     1
 62
   257
176
     1
 40
1.0
176
     1
 90
        1
176
     1
 90
        6
176
     1
 90
        2
176
     1
 62
     8
420
  7895160
176
     1
 90
        3
176
     1
 90
        0
176
     1
 90
        0
176
     1
290
     0
176
     1
 90
        5
176
     1
 40
0.0
176
     1
 90
        0
176
     1
290
     0
176
     1
290
     1
176
     1
290
     1
176
     1
290
     0
176
     1
290
     0
176
     1
290
     0
176
     1
290
     0
176
     1
290
     0
176
     1
290
     0
176
     1
 90
       50
176
     1
 40
0.0
176
     1
 40
1.0
176
     1
 90
        0
176
     1
 62
    18
176
     1
 90
       50
176
     1
 90
        3
176
     1
 62
     5
420
      255
176
     1
290
     0
176
     1
 90
       50
176
     1
 90
       50
176
     1
 90
       50
176
     1
290
     0
176
     1
 90
       50
176
     1
 62
   256
176
     0
 40
1.0
176
     0
 90
        2
176
     1
  1
strokes_ogs.tif
176
     1
290
     0
176
     1
 40
1.0
176
     1
 40
1.0
176
     1
1001
ACAD
1000
AcDbSavedByObjectVersion
1070
     0
  0
VISUALSTYLE
  5
1546F
102
{ACAD_REACTORS
330
D1B7
102
}
330
D1B7
100
AcDbVisualStyle
  2
Shaded with edges
 70
    26
177
     3
291
     0
 70
    58
 90
        2
176
     1
 90
        2
176
     1
 90
        1
176
     1
 90
        2
176
     1
 40
0.6
176
     1
 40
30.0
176
     1
 62
     7
420
 16777215
176
     1
 90
        1
176
     1
 90
        2
176
     1
 62
     7
176
     1
 62
   257
176
     1
 90
        2
176
     1
 90
        1
176
     1
 40
1.0
176
     1
 90
        8
176
     1
 62
   257
176
     1
 40
1.0
176
     1
 90
        1
176
     1
 90
        6
176
     1
 90
        2
176
     1
 62
     7
176
     1
 90
        3
176
     1
 90
        0
176
     1
 90
        0
176
     1
290
     0
176
     1
 90
        5
176
     1
 40
0.0
176
     1
 90
        0
176
     1
290
     0
176
     1
290
     1
176
     1
290
     1
176
     1
290
     0
176
     1
290
     0
176
     1
290
     0
176
     1
290
     0
176
     1
290
     0
176
     1
290
     0
176
     1
 90
       50
176
     1
 40
0.0
176
     1
 40
1.0
176
     1
 90
        0
176
     1
 62
    18
176
     1
 90
       50
176
     1
 90
        3
176
     1
 62
     5
420
      255
176
     1
290
     0
176
     1
 90
       50
176
     1
 90
       50
176
     1
 90
       50
176
     1
290
     0
176
     1
 90
       50
176
     1
 62
   256
176
     0
 40
1.0
176
     0
 90
        2
176
     1
  1
strokes_ogs.tif
176
     1
290
     0
176
     1
 40
1.0
176
     1
 40
1.0
176
     1
1001
ACAD
1000
AcDbSavedByObjectVersion
1070
     0
  0
VISUALSTYLE
  5
1546C
102
{ACAD_REACTORS
330
D1B7
102
}
330
D1B7
100
AcDbVisualStyle
  2
Shades of Gray
 70
    23
177
     3
291
     0
 70
    58
 90
        2
176
     1
 90
        2
176
     1
 90
        3
176
     1
 90
        0
176
     1
 40
0.6
176
     1
 40
30.0
176
     1
 62
     7
420
 16777215
176
     1
 90
        2
176
     1
 90
        2
176
     1
 62
     7
176
     1
 62
     7
176
     1
 90
        1
176
     1
 90
        1
176
     1
 40
40.0
176
     1
 90
        8
176
     1
 62
     7
176
     1
 40
1.0
176
     1
 90
        1
176
     1
 90
        6
176
     1
 90
        2
176
     1
 62
     7
176
     1
 90
        3
176
     1
 90
        0
176
     1
 90
        0
176
     1
290
     0
176
     1
 90
        1
176
     1
 40
0.0
176
     1
 90
        0
176
     1
290
     0
176
     1
290
     1
176
     1
290
     1
176
     1
290
     0
176
     1
290
     0
176
     1
290
     0
176
     1
290
     0
176
     1
290
     0
176
     1
290
     0
176
     1
 90
       50
176
     1
 40
0.0
176
     1
 40
1.0
176
     1
 90
        0
176
     1
 62
    18
176
     1
 90
       50
176
     1
 90
        3
176
     1
 62
     5
420
      255
176
     1
290
     0
176
     1
 90
       50
176
     1
 90
       50
176
     1
 90
       50
176
     1
290
     0
176
     1
 90
       50
176
     1
 62
   256
176
     0
 40
1.0
176
     0
 90
        2
176
     1
  1
strokes_ogs.tif
176
     1
290
     0
176
     1
 40
1.0
176
     1
 40
1.0
176
     1
1001
ACAD
1000
AcDbSavedByObjectVersion
1070
     0
  0
VISUALSTYLE
  5
1546D
102
{ACAD_REACTORS
330
D1B7
102
}
330
D1B7
100
AcDbVisualStyle
  2
Sketchy
 70
    24
177
     3
291
     0
 70
    58
 90
        1
176
     1
 90
        2
176
     1
 90
        2
176
     1
 90
        0
176
     1
 40
0.6
176
     1
 40
30.0
176
     1
 62
     7
420
 16777215
176
     1
 90
        2
176
     1
 90
        2
176
     1
 62
     7
176
     1
 62
     7
176
     1
 90
        1
176
     1
 90
        1
176
     1
 40
40.0
176
     1
 90
       11
176
     1
 62
     7
176
     1
 40
1.0
176
     1
 90
        1
176
     1
 90
        6
176
     1
 90
        2
176
     1
 62
     7
176
     1
 90
        6
176
     1
 90
        0
176
     1
 90
        0
176
     1
290
     0
176
     1
 90
        1
176
     1
 40
0.0
176
     1
 90
        0
176
     1
290
     0
176
     1
290
     1
176
     1
290
     1
176
     1
290
     0
176
     1
290
     0
176
     1
290
     0
176
     1
290
     0
176
     1
290
     0
176
     1
290
     0
176
     1
 90
       50
176
     1
 40
0.0
176
     1
 40
1.0
176
     1
 90
        0
176
     1
 62
    18
176
     1
 90
       50
176
     1
 90
        3
176
     1
 62
     5
420
      255
176
     1
290
     0
176
     1
 90
       50
176
     1
 90
       50
176
     1
 90
       50
176
     1
290
     0
176
     1
 90
       50
176
     1
 62
   256
176
     0
 40
1.0
176
     0
 90
        2
176
     1
  1
strokes_ogs.tif
176
     1
290
     0
176
     1
 40
1.0
176
     1
 40
1.0
176
     1
1001
ACAD
1000
AcDbSavedByObjectVersion
1070
     0
  0
VISUALSTYLE
  5
D1C4
102
{ACAD_REACTORS
330
D1B7
102
}
330
D1B7
100
AcDbVisualStyle
  2
Thicken
 70
    13
177
     3
291
     1
 70
    58
 90
        2
176
     1
 90
        2
176
     1
 90
        0
176
     1
 90
        0
176
     1
 40
0.6
176
     1
 40
30.0
176
     1
 62
     7
176
     1
 90
        1
176
     1
 90
        4
176
     1
 62
     7
176
     1
 62
   257
176
     1
 90
        1
176
     1
 90
        1
176
     1
 40
1.0
176
     1
 90
       12
176
     1
 62
     7
176
     1
 40
1.0
176
     1
 90
        1
176
     1
 90
        6
176
     1
 90
        2
176
     1
 62
     7
176
     1
 90
        5
176
     1
 90
        0
176
     1
 90
        0
176
     1
290
     0
176
     1
 90
        1
176
     1
 40
0.0
176
     1
 90
        0
176
     1
290
     0
176
     1
290
     1
176
     1
290
     1
176
     1
290
     0
176
     1
290
     0
176
     1
290
     0
176
     1
290
     0
176
     1
290
     0
176
     1
290
     0
176
     1
 90
       50
176
     1
 40
0.0
176
     1
 40
1.0
176
     1
 90
        0
176
     1
 62
    18
176
     1
 90
       50
176
     1
 90
        3
176
     1
 62
     5
420
      255
176
     1
290
     0
176
     1
 90
       50
176
     1
 90
       50
176
     1
 90
       50
176
     1
290
     0
176
     1
 90
       50
176
     1
 62
   256
176
     0
 40
1.0
176
     0
 90
        2
176
     1
  1
strokes_ogs.tif
176
     1
290
     0
176
     1
 40
1.0
176
     1
 40
1.0
176
     1
1001
ACAD
1000
AcRTDxfName
1000
VISUALSTYLE
1000
AcRTDxfName
1000
VISUALSTYLE
1000
AcRTDxfName
1000
VISUALSTYLE
1000
AcRTDxfName
1000
VISUALSTYLE
1000
AcDbSavedByObjectVersion
1070
     0
  0
VISUALSTYLE
  5
1546A
102
{ACAD_REACTORS
330
D1B7
102
}
330
D1B7
100
AcDbVisualStyle
  2
Wireframe
 70
     5
177
     3
291
     0
 70
    58
 90
        0
176
     1
 90
        2
176
     1
 90
        0
176
     1
 90
        0
176
     1
 40
0.6
176
     1
 40
30.0
176
     1
 62
     7
420
 16777215
176
     1
 90
        1
176
     1
 90
        4
176
     1
 62
     7
176
     1
 62
   257
176
     1
 90
        1
176
     1
 90
        1
176
     1
 40
1.0
176
     1
 90
        0
176
     1
 62
   257
176
     1
 40
1.0
176
     1
 90
        1
176
     1
 90
        6
176
     1
 90
        2
176
     1
 62
     7
176
     1
 90
        3
176
     1
 90
        0
176
     1
 90
        0
176
     1
290
     0
176
     1
 90
        1
176
     1
 40
0.0
176
     1
 90
        0
176
     1
290
     0
176
     1
290
     1
176
     1
290
     1
176
     1
290
     0
176
     1
290
     0
176
     1
290
     0
176
     1
290
     0
176
     1
290
     0
176
     1
290
     0
176
     1
 90
       50
176
     1
 40
0.0
176
     1
 40
1.0
176
     1
 90
        0
176
     1
 62
    18
176
     1
 90
       50
176
     1
 90
        3
176
     1
 62
     5
420
      255
176
     1
290
     0
176
     1
 90
       50
176
     1
 90
       50
176
     1
 90
       50
176
     1
290
     0
176
     1
 90
       50
176
     1
 62
   256
176
     0
 40
1.0
176
     0
 90
        2
176
     1
  1
strokes_ogs.tif
176
     1
290
     0
176
     1
 40
1.0
176
     1
 40
1.0
176
     1
1001
ACAD
1000
AcDbSavedByObjectVersion
1070
     0
  0
VISUALSTYLE
  5
1546E
102
{ACAD_REACTORS
330
D1B7
102
}
330
D1B7
100
AcDbVisualStyle
  2
X-Ray
 70
    25
177
     3
291
     0
 70
    58
 90
        2
176
     1
 90
        2
176
     1
 90
        1
176
     1
 90
        1
176
     1
 40
0.5
176
     1
 40
30.0
176
     1
 62
     7
420
 16777215
176
     1
 90
        1
176
     1
 90
        0
176
     1
 62
     7
176
     1
 62
   257
176
     1
 90
        1
176
     1
 90
        1
176
     1
 40
1.0
176
     1
 90
        8
176
     1
 62
     7
176
     1
 40
1.0
176
     1
 90
        1
176
     1
 90
        6
176
     1
 90
        2
176
     1
 62
     7
176
     1
 90
        3
176
     1
 90
        0
176
     1
 90
        0
176
     1
290
     0
176
     1
 90
       13
176
     1
 40
0.0
176
     1
 90
        0
176
     1
290
     0
176
     1
290
     1
176
     1
290
     1
176
     1
290
     0
176
     1
290
     0
176
     1
290
     0
176
     1
290
     0
176
     1
290
     0
176
     1
290
     0
176
     1
 90
       50
176
     1
 40
0.0
176
     1
 40
1.0
176
     1
 90
        0
176
     1
 62
    18
176
     1
 90
       50
176
     1
 90
        3
176
     1
 62
     5
420
      255
176
     1
290
     0
176
     1
 90
       50
176
     1
 90
       50
176
     1
 90
       50
176
     1
290
     0
176
     1
 90
       50
176
     1
 62
   256
176
     0
 40
1.0
176
     0
 90
        2
176
     1
  1
strokes_ogs.tif
176
     1
290
     0
176
     1
 40
1.0
176
     1
 40
1.0
176
     1
1001
ACAD
1000
AcDbSavedByObjectVersion
1070
     0
  0
DICTIONARYVAR
  5
D437
102
{ACAD_REACTORS
330
5E
102
}
330
5E
100
DictionaryVariables
280
     0
  1
1:1
  0
DICTIONARYVAR
  5
D436
102
{ACAD_REACTORS
330
5E
102
}
330
5E
100
DictionaryVariables
280
     0
  1
STANDARD
  0
DICTIONARYVAR
  5
84
102
{ACAD_REACTORS
330
5E
102
}
330
5E
100
DictionaryVariables
280
     0
  1
STANDARD
  0
DICTIONARYVAR
  5
1547F
102
{ACAD_REACTORS
330
5E
102
}
330
5E
100
DictionaryVariables
280
     0
  1
Metric50
  0
DICTIONARYVAR
  5
15480
102
{ACAD_REACTORS
330
5E
102
}
330
5E
100
DictionaryVariables
280
     0
  1
Metric50
  0
DICTIONARYVAR
  5
5F
102
{ACAD_REACTORS
330
5E
102
}
330
5E
100
DictionaryVariables
280
     0
  1
2
  0
DICTIONARYVAR
  5
63
102
{ACAD_REACTORS
330
5E
102
}
330
5E
100
DictionaryVariables
280
     0
  1
1
  0
DICTIONARYVAR
  5
D439
102
{ACAD_REACTORS
330
5E
102
}
330
5E
100
DictionaryVariables
280
     0
  1
0
  0
DICTIONARYVAR
  5
15483
102
{ACAD_REACTORS
330
5E
102
}
330
5E
100
DictionaryVariables
280
     0
  1
1
  0
DICTIONARYVAR
  5
15484
102
{ACAD_REACTORS
330
5E
102
}
330
5E
100
DictionaryVariables
280
     0
  1
15
  0
DICTIONARYVAR
  5
15482
102
{ACAD_REACTORS
330
5E
102
}
330
5E
100
DictionaryVariables
280
     0
  1
0
  0
DICTIONARYVAR
  5
15481
102
{ACAD_REACTORS
330
5E
102
}
330
5E
100
DictionaryVariables
280
     0
  1
0
  0
DICTIONARYVAR
  5
C791
102
{ACAD_REACTORS
330
5E
102
}
330
5E
100
DictionaryVariables
280
     0
  1

  0
DICTIONARYVAR
  5
D438
102
{ACAD_REACTORS
330
5E
102
}
330
5E
100
DictionaryVariables
280
     0
  1
127
  0
DICTIONARY
  5
16AB7
102
{ACAD_REACTORS
330
16AB5
102
}
330
16AB5
100
AcDbDictionary
281
     1
  0
DICTIONARY
  5
16AB6
102
{ACAD_REACTORS
330
16AB5
102
}
330
16AB5
100
AcDbDictionary
281
     1
  3
2506209860992
350
16AB0
  3
2506209861008
350
16AB1
  3
2506209861024
350
16AB2
  3
2506209861040
350
16AB3
  3
2506209861056
350
16AB4
  0
DICTIONARY
  5
16ABA
330
15477
100
AcDbDictionary
280
     1
281
     1
  3
ACAD_XREC_ROUNDTRIP
360
16ABB
  0
DICTIONARY
  5
79B
330
78E
100
AcDbDictionary
280
     1
281
     1
  0
DICTIONARY
  5
D1A8
330
D1A7
100
AcDbDictionary
280
     1
281
     1
  3
BUMPTILE
360
D1AA
  3
DIFFUSETILE
360
D1A9
  3
OPACITYTILE
360
D1AD
  3
REFLECTIONTILE
360
D1AC
  3
REFRACTIONTILE
360
D1AE
  3
SPECULARTILE
360
D1AB
  0
DICTIONARY
  5
D1A0
330
D19F
100
AcDbDictionary
280
     1
281
     1
  3
BUMPTILE
360
D1A2
  3
DIFFUSETILE
360
D1A1
  3
OPACITYTILE
360
D1A5
  3
REFLECTIONTILE
360
D1A4
  3
REFRACTIONTILE
360
D1A6
  3
SPECULARTILE
360
D1A3
  0
DICTIONARY
  5
D1B0
330
D1AF
100
AcDbDictionary
280
     1
281
     1
  3
BUMPTILE
360
D1B2
  3
DIFFUSETILE
360
D1B1
  3
OPACITYTILE
360
D1B5
  3
REFLECTIONTILE
360
D1B4
  3
REFRACTIONTILE
360
D1B6
  3
SPECULARTILE
360
D1B3
  0
DICTIONARY
  5
16AB8
330
15475
100
AcDbDictionary
280
     1
281
     1
  3
ACAD_XREC_ROUNDTRIP
360
16AB9
  0
DICTIONARY
  5
D423
330
7F
100
AcDbDictionary
280
     1
281
     1
  3
ACAD_ROUNDTRIP_2008_TABLESTYLE_CELLSTYLEMAP
360
16AAE
  0
XRECORD
  5
16AB0
102
{ACAD_REACTORS
330
16AB6
102
}
330
16AB6
100
AcDbXrecord
280
     1
  1
AcDb_Thumbnail_Schema
102
{ATTRRECORD
341
16AB1
  2
AcDbDs::TreatedAsObjectData
280
     1
291
     1
102
ATTRRECORD}
102
{ATTRRECORD
341
16AB2
  2
AcDbDs::Legacy
280
     1
291
     1
102
ATTRRECORD}
  2
AcDbDs::ID
280
    10
 91
        8
102
{ATTRRECORD
341
16AB3
  2
AcDs:Indexable
280
     1
291
     1
102
ATTRRECORD}
102
{ATTRRECORD
341
16AB4
  2
AcDbDs::HandleAttribute
280
     7
282
     1
102
ATTRRECORD}
  2
Thumbnail_Data
280
    15
 91
        0
  0
XRECORD
  5
16AB1
102
{ACAD_REACTORS
330
16AB6
102
}
330
16AB6
100
AcDbXrecord
280
     1
  1
AcDbDs::TreatedAsObjectDataSchema
  2
AcDbDs::TreatedAsObjectData
280
     1
 91
        0
  0
XRECORD
  5
16AB2
102
{ACAD_REACTORS
330
16AB6
102
}
330
16AB6
100
AcDbXrecord
280
     1
  1
AcDbDs::LegacySchema
  2
AcDbDs::Legacy
280
     1
 91
        0
  0
XRECORD
  5
16AB3
102
{ACAD_REACTORS
330
16AB6
102
}
330
16AB6
100
AcDbXrecord
280
     1
  1
AcDbDs::IndexedPropertySchema
  2
AcDs:Indexable
280
     1
 91
        0
  0
XRECORD
  5
16AB4
102
{ACAD_REACTORS
330
16AB6
102
}
330
16AB6
100
AcDbXrecord
280
     1
  1
AcDbDs::HandleAttributeSchema
  2
AcDbDs::HandleAttribute
280
     7
 91
        1
284
     1
  0
XRECORD
  5
16ABB
102
{ACAD_REACTORS
330
16ABA
102
}
330
16ABA
100
AcDbXrecord
280
     1
102
DISPLAYNAME
  1
Metric50
102
FLAGS
 90
        0
  0
XRECORD
  5
D1AA
102
{ACAD_REACTORS
330
D1A8
102
}
330
D1A8
100
AcDbXrecord
280
     1
270
     1
271
     1
  0
XRECORD
  5
D1A9
102
{ACAD_REACTORS
330
D1A8
102
}
330
D1A8
100
AcDbXrecord
280
     1
270
     1
271
     1
  0
XRECORD
  5
D1AD
102
{ACAD_REACTORS
330
D1A8
102
}
330
D1A8
100
AcDbXrecord
280
     1
270
     1
271
     1
  0
XRECORD
  5
D1AC
102
{ACAD_REACTORS
330
D1A8
102
}
330
D1A8
100
AcDbXrecord
280
     1
270
     1
271
     1
  0
XRECORD
  5
D1AE
102
{ACAD_REACTORS
330
D1A8
102
}
330
D1A8
100
AcDbXrecord
280
     1
270
     1
271
     1
  0
XRECORD
  5
D1AB
102
{ACAD_REACTORS
330
D1A8
102
}
330
D1A8
100
AcDbXrecord
280
     1
270
     1
271
     1
  0
XRECORD
  5
D1A2
102
{ACAD_REACTORS
330
D1A0
102
}
330
D1A0
100
AcDbXrecord
280
     1
270
     1
271
     1
  0
XRECORD
  5
D1A1
102
{ACAD_REACTORS
330
D1A0
102
}
330
D1A0
100
AcDbXrecord
280
     1
270
     1
271
     1
  0
XRECORD
  5
D1A5
102
{ACAD_REACTORS
330
D1A0
102
}
330
D1A0
100
AcDbXrecord
280
     1
270
     1
271
     1
  0
XRECORD
  5
D1A4
102
{ACAD_REACTORS
330
D1A0
102
}
330
D1A0
100
AcDbXrecord
280
     1
270
     1
271
     1
  0
XRECORD
  5
D1A6
102
{ACAD_REACTORS
330
D1A0
102
}
330
D1A0
100
AcDbXrecord
280
     1
270
     1
271
     1
  0
XRECORD
  5
D1A3
102
{ACAD_REACTORS
330
D1A0
102
}
330
D1A0
100
AcDbXrecord
280
     1
270
     1
271
     1
  0
XRECORD
  5
D1B2
102
{ACAD_REACTORS
330
D1B0
102
}
330
D1B0
100
AcDbXrecord
280
     1
270
     1
271
     1
  0
XRECORD
  5
D1B1
102
{ACAD_REACTORS
330
D1B0
102
}
330
D1B0
100
AcDbXrecord
280
     1
270
     1
271
     1
  0
XRECORD
  5
D1B5
102
{ACAD_REACTORS
330
D1B0
102
}
330
D1B0
100
AcDbXrecord
280
     1
270
     1
271
     1
  0
XRECORD
  5
D1B4
102
{ACAD_REACTORS
330
D1B0
102
}
330
D1B0
100
AcDbXrecord
280
     1
270
     1
271
     1
  0
XRECORD
  5
D1B6
102
{ACAD_REACTORS
330
D1B0
102
}
330
D1B0
100
AcDbXrecord
280
     1
270
     1
271
     1
  0
XRECORD
  5
D1B3
102
{ACAD_REACTORS
330
D1B0
102
}
330
D1B0
100
AcDbXrecord
280
     1
270
     1
271
     1
  0
XRECORD
  5
16AB9
102
{ACAD_REACTORS
330
16AB8
102
}
330
16AB8
100
AcDbXrecord
280
     1
102
DISPLAYNAME
  1
Metric50
102
FLAGS
 90
        0
  0
CELLSTYLEMAP
  5
16AAE
102
{ACAD_REACTORS
330
D423
102
}
330
D423
100
AcDbCellStyleMap
 90
        3
300
CELLSTYLE
  1
TABLEFORMAT_BEGIN
 90
        5
170
     1
 91
        0
 92
    32768
 62
   257
 93
        1
300
CONTENTFORMAT
  1
CONTENTFORMAT_BEGIN
 90
        0
 91
        0
 92
        4
 93
        0
300

 40
0.0
140
1.0
 94
        5
 62
     0
340
11
144
6.0
309
CONTENTFORMAT_END
171
     1
301
MARGIN
  1
CELLMARGIN_BEGIN
 40
1.5
 40
1.5
 40
1.5
 40
1.5
 40
0.18
 40
0.18
309
CELLMARGIN_END
 94
        6
 95
        1
302
GRIDFORMAT
  1
GRIDFORMAT_BEGIN
 90
        0
 91
        1
 62
     0
 92
       -2
340
0
 93
        0
 40
0.045
309
GRIDFORMAT_END
 95
        2
302
GRIDFORMAT
  1
GRIDFORMAT_BEGIN
 90
        0
 91
        1
 62
     0
 92
       -2
340
0
 93
        0
 40
0.045
309
GRIDFORMAT_END
 95
        4
302
GRIDFORMAT
  1
GRIDFORMAT_BEGIN
 90
        0
 91
        1
 62
     0
 92
       -2
340
0
 93
        0
 40
0.045
309
GRIDFORMAT_END
 95
        8
302
GRIDFORMAT
  1
GRIDFORMAT_BEGIN
 90
        0
 91
        1
 62
     0
 92
       -2
340
0
 93
        0
 40
0.045
309
GRIDFORMAT_END
 95
       16
302
GRIDFORMAT
  1
GRIDFORMAT_BEGIN
 90
        0
 91
        1
 62
     0
 92
       -2
340
0
 93
        0
 40
0.045
309
GRIDFORMAT_END
 95
       32
302
GRIDFORMAT
  1
GRIDFORMAT_BEGIN
 90
        0
 91
        1
 62
     0
 92
       -2
340
0
 93
        0
 40
0.045
309
GRIDFORMAT_END
309
TABLEFORMAT_END
  1
CELLSTYLE_BEGIN
 90
        1
 91
        1
300
_TITLE
309
CELLSTYLE_END
300
CELLSTYLE
  1
TABLEFORMAT_BEGIN
 90
        5
170
     1
 91
        0
 92
        0
 62
   257
 93
        1
300
CONTENTFORMAT
  1
CONTENTFORMAT_BEGIN
 90
        0
 91
        0
 92
        4
 93
        0
300

 40
0.0
140
1.0
 94
        5
 62
     0
340
11
144
4.5
309
CONTENTFORMAT_END
171
     1
301
MARGIN
  1
CELLMARGIN_BEGIN
 40
1.5
 40
1.5
 40
1.5
 40
1.5
 40
0.18
 40
0.18
309
CELLMARGIN_END
 94
        6
 95
        1
302
GRIDFORMAT
  1
GRIDFORMAT_BEGIN
 90
        0
 91
        1
 62
     0
 92
       -2
340
0
 93
        0
 40
0.045
309
GRIDFORMAT_END
 95
        2
302
GRIDFORMAT
  1
GRIDFORMAT_BEGIN
 90
        0
 91
        1
 62
     0
 92
       -2
340
0
 93
        0
 40
0.045
309
GRIDFORMAT_END
 95
        4
302
GRIDFORMAT
  1
GRIDFORMAT_BEGIN
 90
        0
 91
        1
 62
     0
 92
       -2
340
0
 93
        0
 40
0.045
309
GRIDFORMAT_END
 95
        8
302
GRIDFORMAT
  1
GRIDFORMAT_BEGIN
 90
        0
 91
        1
 62
     0
 92
       -2
340
0
 93
        0
 40
0.045
309
GRIDFORMAT_END
 95
       16
302
GRIDFORMAT
  1
GRIDFORMAT_BEGIN
 90
        0
 91
        1
 62
     0
 92
       -2
340
0
 93
        0
 40
0.045
309
GRIDFORMAT_END
 95
       32
302
GRIDFORMAT
  1
GRIDFORMAT_BEGIN
 90
        0
 91
        1
 62
     0
 92
       -2
340
0
 93
        0
 40
0.045
309
GRIDFORMAT_END
309
TABLEFORMAT_END
  1
CELLSTYLE_BEGIN
 90
        2
 91
        1
300
_HEADER
309
CELLSTYLE_END
300
CELLSTYLE
  1
TABLEFORMAT_BEGIN
 90
        5
170
     1
 91
        0
 92
        0
 62
   257
 93
        1
300
CONTENTFORMAT
  1
CONTENTFORMAT_BEGIN
 90
        0
 91
        0
 92
        4
 93
        0
300

 40
0.0
140
1.0
 94
        2
 62
     0
340
11
144
4.5
309
CONTENTFORMAT_END
171
     1
301
MARGIN
  1
CELLMARGIN_BEGIN
 40
1.5
 40
1.5
 40
1.5
 40
1.5
 40
0.18
 40
0.18
309
CELLMARGIN_END
 94
        6
 95
        1
302
GRIDFORMAT
  1
GRIDFORMAT_BEGIN
 90
        0
 91
        1
 62
     0
 92
       -2
340
0
 93
        0
 40
0.045
309
GRIDFORMAT_END
 95
        2
302
GRIDFORMAT
  1
GRIDFORMAT_BEGIN
 90
        0
 91
        1
 62
     0
 92
       -2
340
0
 93
        0
 40
0.045
309
GRIDFORMAT_END
 95
        4
302
GRIDFORMAT
  1
GRIDFORMAT_BEGIN
 90
        0
 91
        1
 62
     0
 92
       -2
340
0
 93
        0
 40
0.045
309
GRIDFORMAT_END
 95
        8
302
GRIDFORMAT
  1
GRIDFORMAT_BEGIN
 90
        0
 91
        1
 62
     0
 92
       -2
340
0
 93
        0
 40
0.045
309
GRIDFORMAT_END
 95
       16
302
GRIDFORMAT
  1
GRIDFORMAT_BEGIN
 90
        0
 91
        1
 62
     0
 92
       -2
340
0
 93
        0
 40
0.045
309
GRIDFORMAT_END
 95
       32
302
GRIDFORMAT
  1
GRIDFORMAT_BEGIN
 90
        0
 91
        1
 62
     0
 92
       -2
340
0
 93
        0
 40
0.045
309
GRIDFORMAT_END
309
TABLEFORMAT_END
  1
CELLSTYLE_BEGIN
 90
        3
 91
        2
300
_DATA
309
CELLSTYLE_END
  0
ENDSEC
  0
SECTION
  2
ACDSDATA
 70
     2
 71
     8
  0
ACDSSCHEMA
 90
        0
  1
AcDb_Thumbnail_Schema
  2
AcDbDs::ID
280
    10
 91
        8
  2
Thumbnail_Data
280
    15
 91
        0
101
ACDSRECORD
 95
        0
 90
        1
  2
AcDbDs::TreatedAsObjectData
280
     1
291
     1
101
ACDSRECORD
 95
        0
 90
        2
  2
AcDbDs::Legacy
280
     1
291
     1
101
ACDSRECORD
  1
AcDbDs::ID
 90
        3
  2
AcDs:Indexable
280
     1
291
     1
101
ACDSRECORD
  1
AcDbDs::ID
 90
        4
  2
AcDbDs::HandleAttribute
280
     7
282
     1
  0
ACDSSCHEMA
 90
        1
  1
AcDbDs::TreatedAsObjectDataSchema
  2
AcDbDs::TreatedAsObjectData
280
     1
 91
        0
  0
ACDSSCHEMA
 90
        2
  1
AcDbDs::LegacySchema
  2
AcDbDs::Legacy
280
     1
 91
        0
  0
ACDSSCHEMA
 90
        3
  1
AcDbDs::IndexedPropertySchema
  2
AcDs:Indexable
280
     1
 91
        0
  0
ACDSSCHEMA
 90
        4
  1
AcDbDs::HandleAttributeSchema
  2
AcDbDs::HandleAttribute
280
     7
 91
        1
284
     1
  0
ACDSRECORD
 90
        0
  2
AcDbDs::ID
280
    10
320
22
  2
Thumbnail_Data
280
    15
 94
     2503
310
89504E470D0A1A0A0000000D49484452000001000000008108030000001837949D00000300504C5445000000FFFFFF0000000000000000000000000000000000000000000000000000000000330000660000990000CC0000FF0033000033330033660033990033CC0033FF0066000066330066660066990066CC0066FF0099
310
000099330099660099990099CC0099FF00CC0000CC3300CC6600CC9900CCCC00CCFF00FF0000FF3300FF6600FF9900FFCC00FFFF3300003300333300663300993300CC3300FF3333003333333333663333993333CC3333FF3366003366333366663366993366CC3366FF3399003399333399663399993399CC3399FF33CC00
310
33CC3333CC6633CC9933CCCC33CCFF33FF0033FF3333FF6633FF9933FFCC33FFFF6600006600336600666600996600CC6600FF6633006633336633666633996633CC6633FF6666006666336666666666996666CC6666FF6699006699336699666699996699CC6699FF66CC0066CC3366CC6666CC9966CCCC66CCFF66FF0066
310
FF3366FF6666FF9966FFCC66FFFF9900009900339900669900999900CC9900FF9933009933339933669933999933CC9933FF9966009966339966669966999966CC9966FF9999009999339999669999999999CC9999FF99CC0099CC3399CC6699CC9999CCCC99CCFF99FF0099FF3399FF6699FF9999FFCC99FFFFCC0000CC00
310
33CC0066CC0099CC00CCCC00FFCC3300CC3333CC3366CC3399CC33CCCC33FFCC6600CC6633CC6666CC6699CC66CCCC66FFCC9900CC9933CC9966CC9999CC99CCCC99FFCCCC00CCCC33CCCC66CCCC99CCCCCCCCCCFFCCFF00CCFF33CCFF66CCFF99CCFFCCCCFFFFFF0000FF0033FF0066FF0099FF00CCFF00FFFF3300FF3333
310
FF3366FF3399FF33CCFF33FFFF6600FF6633FF6666FF6699FF66CCFF66FFFF9900FF9933FF9966FF9999FF99CCFF99FFFFCC00FFCC33FFCC66FFCC99FFCCCCFFCCFFFFFF00FFFF33FFFF66FFFF99FFFFCCFFFFFF0000000D0D0D1A1A1A2828283535354343435050505D5D5D6B6B6B787878868686939393A1A1A1AEAEAEBB
310
BBBBC9C9C9D6D6D6E4E4E4F1F1F1FFFFFF0000000000000000000000000000000000000000000000000000000000003AE5ACE90000061E4944415478DAED9D5982A4200C407321EEFF971FAF916BF0DFCA6658A45011B0859A999A568BD267C80A36C06C054DBEB2D504F0CABB360154EDEB7DF25F1BC0EB6EFF04305E77F4
310
6500A41AA83F44FF0500356883033825FFE4B09D109CB1017059281D09E70E7A09002EACF4430FD02F15E91D4453078CAF038293FD25017923B9F745AF1802C4862DDDB3F68142A1D30AB33980BA425BB7BBE656A082BF47AF36837D001CCBC837006446C904F00500F41E1D1025285319CBB300A8AB12D4A2B748742FD796
310
383F254A9258EC73AE4F5CA4E765EBA68EA16CF6B701007D235300306AEB713F36AC2D09405F1E79DF2A542314A6F5190264B6C7A29DB827054340E731A5BBD1E6A20300E0BE95408080E449F40470903D16A74A195CB71F009004FAD6CBAE001093075F97801800A60020D2FACD623B81757F571DF008004FC60E2400400F
310
805E1240F024001656AAADE4E7D2D64D6801602F007684262CD13AE22F0010C11070868E85C4E65DF8AD2380DDF679264EC80B6650B84DCCD64700D4B70600929AA895043C3A04EC81A1049803C57E722399C17B006CF1445D2C0DAC041F3283BB01B4EF076610BB9BC1BC23740DC0BAD125445D1B5A020E5C6171D1130462
310
96C023957085C105017D83A15454773F180ADDE35430B45BC3E1C261215A84C3C2F64A1D13229B27665FB964474942846F727D62261382B9C4C8BF9E21420599A12F00C816CF3E00C0254DFA03207862D2CB71AF25B5B396006AD4050FAE3FDDEB703AE02102B77A6D3C041AE8FA81018C78FD5D01DC748432F34C789414FC
310
8FED6BE90A6BB7557247787352C5D5B4B8CA8391ADFB6018597A61627E5651AB60688D44240FC8548EEE623024B7728FBD00D2BD0A290F542324EE3E340460C3E12D640189328CEC2F85C37BCF64C2211856026C46689555D0AF6A394102DBAB08D05A06CC49D8C5D1779C1A49C07697442803B793A2A8AE7FED1B6D71F4D0
310
09E41E0279C9D4569521AB012A4A801DFDC9BE1200BACC1172236D0BCA71558558150082E911CB74402F00B82C226E970B2389BEC49294001804001C01B8200125008EAD40BFACB01EFFA2BA0E303D963A42BD00382FA0B215D0B6256105FC13C878CD8D25A09D15182718328ED0EA0A0934D6C01E2C6E7B82AAC70D01E2D0
310
0062575829C1AB12A08B1C4AAE65D2151E09C043C19060BEFCA60AC5C000BC590C3F24BE6808ECF5D00A8BE0DF3C55966A6486FECD64E9096002780780C2A58ED9147F7A19EA4BD60E33873C7B8DB985A3A9CE865F34F5F595A3E3B60960D02748542FA14E006F01405F0440101A338A1C7E7AA8B8DC1500456ECF5EC2099D
310
0576CC3F02D0D2E08F2C01098F118E1DBC09E03F0108253A7A7E945912500A60D84952C8DF703FDD25BEE14B24018B7F81A500700800466F99C930A827C698929824B19C4C12EA3562FAD366668CFBD76A487FC7FA96D59CCF2745B77B21B6975DBB25D00058372D71127889B2C26C0BA9E2A8FAB0547BCDD4A37D11992AC2
310
48260166894D57006ED1863E272701528643603DD925DC100C019BFF95A6C86086D5BE7012F90E5B34EB0C40FA3AC001B83404760010023053A662091815C04D09380280C0D664217405600B439E62BE0C803C005E9F1C009865C3245DF1A81700BB76BA3580ED2F5AEDDF5309922B0D1A0BC09731AF5BCF015038850320B9
310
B5DB95A005C0A60212F405805298F93D769ACF453348C8CC600CC0DD70093E0DEA2F0146F66F0E815DABA787805A43CB609906BD1DA16600C049C07AC508FB78F81A002D0ACC228CE20788BB7E403100180B80758585EF0A8B3BBF0F20E50AEF8E90744F0DC10100A860C80260C110E2D960486F72C190059008861CA9315C
310
E1E4E34CF863BECEAC14319F86201C1E331832F90094DEC9BAD4EF051DE012C7061FF2A8FF281CEE2801C94C95F760DCE07AFD4DDEB3517C00A617E43FA98CD15809913C8025DE176F5A200700C29F284C89F57D9E203F85A0B6917B76F2EF5DDE3218484C3C29ABA4B40640C500A80C001D01287CE6742300A9E2CEADC920
310
9992D1B95252CFBAC03509F067461D5D217FEAF8A085912AF381F2004AEA887D25E0A27440AF33AE0DE087785CF8DCCB00D000F5F1394B6C02980026800960029800268009600298002680096002A8D2DDD77FF1F2FBDA0450B3AF57B6A24BFB03C7C0E2CEEA995F070000000049454E44AE426082166DBCBAC02A85F20735
310
51CDBF8A4A8DDC0000000049454E44AE426082BF4869DBB4FC90CEF497A929140A8542A15028140A8542A15028140A8542A15028140A8542A15028140A8542A150287E27FE0111A130174305C6E30000000049454E44AE426082
  0
ACDSRECORD
 90
        0
  2
AcDbDs::ID
280
    10
320
78E
  2
Thumbnail_Data
280
    15
 94
     3170
310
89504E470D0A1A0A0000000D4948445200000100000000B408030000004C80028300000300504C54450D0D0DFFFFFF0D0D0D0000000000000000000000000000000000000000000000000000330000660000990000CC0000FF0033000033330033660033990033CC0033FF0066000066330066660066990066CC0066FF0099
310
000099330099660099990099CC0099FF00CC0000CC3300CC6600CC9900CCCC00CCFF00FF0000FF3300FF6600FF9900FFCC00FFFF3300003300333300663300993300CC3300FF3333003333333333663333993333CC3333FF3366003366333366663366993366CC3366FF3399003399333399663399993399CC3399FF33CC00
310
33CC3333CC6633CC9933CCCC33CCFF33FF0033FF3333FF6633FF9933FFCC33FFFF6600006600336600666600996600CC6600FF6633006633336633666633996633CC6633FF6666006666336666666666996666CC6666FF6699006699336699666699996699CC6699FF66CC0066CC3366CC6666CC9966CCCC66CCFF66FF0066
310
FF3366FF6666FF9966FFCC66FFFF9900009900339900669900999900CC9900FF9933009933339933669933999933CC9933FF9966009966339966669966999966CC9966FF9999009999339999669999999999CC9999FF99CC0099CC3399CC6699CC9999CCCC99CCFF99FF0099FF3399FF6699FF9999FFCC99FFFFCC0000CC00
310
33CC0066CC0099CC00CCCC00FFCC3300CC3333CC3366CC3399CC33CCCC33FFCC6600CC6633CC6666CC6699CC66CCCC66FFCC9900CC9933CC9966CC9999CC99CCCC99FFCCCC00CCCC33CCCC66CCCC99CCCCCCCCCCFFCCFF00CCFF33CCFF66CCFF99CCFFCCCCFFFFFF0000FF0033FF0066FF0099FF00CCFF00FFFF3300FF3333
310
FF3366FF3399FF33CCFF33FFFF6600FF6633FF6666FF6699FF66CCFF66FFFF9900FF9933FF9966FF9999FF99CCFF99FFFFCC00FFCC33FFCC66FFCC99FFCCCCFFCCFFFFFF00FFFF33FFFF66FFFF99FFFFCCFFFFFF0000000D0D0D1A1A1A2828283535354343435050505D5D5D6B6B6B787878868686939393A1A1A1AEAEAEBB
310
BBBBC9C9C9D6D6D6E4E4E4F1F1F1FFFFFF000000000000000000000000000000000000000000000000000000000000D3F30D920000091D4944415478DAED9D4B9AA4200C80B910F7DFB1F11A39C0F401D88F0F1E01828206C45267BE992EB5057E430821A4C4DFBF371F7F7FE24FBCF9F8006C00F43B0F04E0956FFF03F001
310
4800C09B0E12C08BDE7F2F00809F0BF03A0058E4ECFF8F0370A5CE4BBBB7E75A009768DE05601CC5750F8081FAED0000A063E5614000A704F1A40027BF030328C1B85245ED2A060007657D4AF0D62E10D4046AC4B2BCFA40521FA50B3873060B632300C2371E9AF481720070D031DB0D7484BE81EE00BAF6CB9EC5154B0008
310
D87BCBEC00F68708B85309B6B7CE0E9E36A629FC01F8000C08A040697E007E1940C9B8D90180D6B517980000BF0E50E1DFB2D69C00105F09CB2D04507AD721002B4393D62AFC8B8E69BE2AE9A5377962B96E791C3AC272A7A9C81CE403E05ECB1E002DA5E49180F941CBF3F2007491F71A143B804C1758EBA326953BE63A57
310
5E50F3D3024061B9F63C9600A7EB2C33C0A2C70660E755E6C5599E5BB2F6D5B68E07882507D25A4A7380C4476B005BF37337542B412D82B7960C657B00DC2529951405356702B0D68A13C09E397308402D9FA4B2BD8709C0DC336F021057C5D5240B60F9C00EE03E0988EB722801EBCF0680FE0500400200128019460C80ED
310
E78703C0AE670400A2850A5449CD2901DEDE8A02ABE25ACFE60B1380C510CA8CF0808A07C82B41461D608B5181E547583573B5990CA10500FA189B386BF1916FD80F91CD008CA103D0EF5100567AE9B137801DEB805101E02E00A1040824014F3684ACE9132F3F11C3600F00DD0DA1D000448B91C78610A70EB85B022200CB
310
CF878610EB3058044037980CE97481D08D073B00EE3084D6862CC320D77478B503E0185C7F09A01D226D7C82268875C721D25D07ECFB04793D42252E31D8F107084E7F40915354B33A4575B553340220670242F200C8BAA7836362ED025371B91997D8AC91D85C62578F330B23F54B49E98CC18B28DC0BA0EB0181D814B4E7
310
8701880FC0BB01C0CB019406569E0100C61F67A2B5A063E3CC12511438D91940DB08C18BE55607159E92805108C04D4A106E5770AC0FADEF02BFD4FE0F403D80EA7A5C9C0B4079B90042F8E07A707BF4ECD0E56FF05ED48AE9B00FBDA873FDC84B9BFBC972779A4E8F02C196CD4085D63844D669A58A261AC25FE58C114AFC
310
DDE0CA957B00BC04041FDDC9C8D55AE91293DE0186265D66FACDE9113293F9B0A2A65C290E627E8CC9E46D2127FD08A95B71ADF409AA79966DFE251CC35C5E611D4B805230972996729512355D80B25A0211A8042061738D6A225092D92B8C8B57C2962BC53E0011B79B96FE330056073B48D77A9DBCCE366B834BF11AB612
310
B7D2336B542E60C0CF540863319E4454484020FF492F68B738BA94086A2DD7F582E2590030D801A80BE855496BCAD5DA3446C89428E9AB78FE574DA07A61243712360510AE74EC8750610D1F8EA10C00DC484DB6A66D9498DCFB3DF2DD17C9414584C84455E60E00D309007019C0AC8426B97330C708ED1535E9DD9017D705
310
A064B3EDEF4880C8583B97B7CC50314223EA00911AFF4C7B86A261D00F477D87413FFC164DA341946575788821A48F0DA1760E91A71842AD012C16B812323F196A3817B0256EA52B4E11383F1D568943A4C96CD04C877D2F507749C0EA8C90A943C4C424B0C608D9E886240272F54ADD0660AD51321168E811926800B3E5EE
310
B26E2E0137FA0451B9DD01A4E1EACDBDC2810943E681BD615DE096CDD364BA90772550783D00F101F8007C0006047032C9219CCAFE304A42C5EB00E0148071324A7E0915DFAD037EF3F800744BAE1E87AABC0B40EB0C941F80C101B44F42FA29C1C100E452EEE653F1C24DD89B008028B94190949A3A6F4689670300A001E0
310
0FB9F3C9AF3C13C098C67E3F0065FAA0E482F8007C009E096022F772ADED9C206D2F007DFEB90068FDE553801017E85DF0640554134E3500545C13154B405ED2A7CC85896C1350ED4E8A4F61AB0600D00A9D8AF7A5A3FCA64B3C7306C07ACF94B99001A0DD2D6169F67F345C52B7A07BAE4B805F9F4F23F650A0805E03F8AA
310
1647E5CE0619E14A2500089B65C7DE424A8B2E32A98A012825E73F6B095B728EED84FD15930B361B0630652EC4E7C15ED99EAA6D529C25418E2BC76758DB2AED7805996E759196A89000170060B3934817309291E7D35D209400F3A3D301A10428143866FEDDCE7003902E39974BCFA2500EC134F3094B17D0AEDD08804B23
310
237A4AC0218024F5C959094051626500147A09910E6005206200821D00A400440C406400E835724DEB270380F300B604DFE6C4DB00081FC185BE83E7F701400A007F01180F001FA8389C0E801400FA26E11600FC8E0EB4B7C31942F3590643C86595750A9FC80CB55E060CC02A7F30C38839773D5C1E280990ED24C0D4BC44
310
02C0EEAA0D0C49401F58F60B8C0B40A41210C515336D98181640320A80B58874E351604800EBDB56A8FD2F036026466D01A81880EA01A0602EE0DAA150FBBB0390D77285D03B466A2643EB5C40B79C0BC818808CA7C34C12104E87750E0010B341D16C36883C42B2A147488DED114A9D82A14F904502F08E91029F606B8F10
310
F60A9B5E6E7BFBFCFE355AD1D5C0A402E627B9E564DA2B8C17519B4B803F47AD0BE0256D60D20168B1082F35A9B05428F20AF707005900895D6A00A42B46FB00ECB95E6EF1FDD5A200C0CE4A44EE12B964460310C939C8F512D685910A006CEB958500F2CB68E52B872700400640495C476D503D7ADB392817D7D8EB0144B1
310
3D5500A0F8AEF87EEAA7FCDCBD09005429014989851DAEF22620DA1D97447DDB90A8D99B520E60279CA9CDA688A230AA8B91566C011250DABDCF3CCCA7893C149CDA08332E00853AB0F0C5249B840ADEEAC9103B1E00AD37069564843A1964D8BB0B703E8CC9E8E002C0D75144CF30B10703E0EA696C5DA077B030CA9D6982
310
EDDDCA603C94DA8CF828DBA6CF51FFD80D1371F2D0388F680800E553FE1900E13C34D37D8EF22F3C5D02C6D101B70088BF759236D2C5A58C9263031010392442A590DEF55300CAFA422F3BE04600B15610944A0CF34CE33C3DBF0700F200D23B7E54020E87C19F00F0FA61F0CC60F9202558325FF0E6AE771783DF7502CF06
310
107D8F17F68A0A1020D22F0C7033236F1488E70E83384932F677E1A90E9200F002E0BEA2FAF900844FBA21A8EFA0F6A37B2CF922F990B18F46EE02225EF540EFBBDEB51249D03E80371D1480771D1F800F8007F0CEC30378EFF1019801FC7BF3B10078F9F11F7DAB9BA2009819FB0000000049454E44AE426082
  0
ENDSEC
  0
EOF
