  0
SECTION
  2
HEADER
  9
$ACADVER
  1
AC1027
  9
$ACADMAINTVER
 70
   125
  9
$DWGCODEPAGE
  3
ANSI_932
  9
$LASTSAVEDBY
  1
D-mishima
  9
$REQUIREDVERSIONS
160
                 0
  9
$INSBASE
 10
0.0
 20
0.0
 30
0.0
  9
$EXTMIN
 10
-0.1281640493871237
 20
-0.0906302920675444
 30
-0.0015258207003583
  9
$EXTMAX
 10
4200.128183607161
 20
2970.090644122207
 30
0.0000000349246037
  9
$LIMMIN
 10
0.0
 20
0.0
  9
$LIMMAX
 10
4200.0
 20
2970.0
  9
$ORTHOMODE
 70
     1
  9
$REGENMODE
 70
     1
  9
$FILLMODE
 70
     1
  9
$QTEXTMODE
 70
     0
  9
$MIRRTEXT
 70
     0
  9
$LTSCALE
 40
0.1
  9
$ATTMODE
 70
     1
  9
$TEXTSIZE
 40
37.5
  9
$TRACEWID
 40
1.0
  9
$TEXTSTYLE
  7
Standard
  9
$CLAYER
  8
寸法線
  9
$CELTYPE
  6
ByLayer
  9
$CECOLOR
 62
   256
  9
$CELTSCALE
 40
1.0
  9
$DISPSILH
 70
     0
  9
$DIMSCALE
 40
10.0
  9
$DIMASZ
 40
2.0
  9
$DIMEXO
 40
0.875
  9
$DIMDLI
 40
10.0
  9
$DIMRND
 40
0.0
  9
$DIMDLE
 40
0.0
  9
$DIMEXE
 40
1.0
  9
$DIMTP
 40
0.0
  9
$DIMTM
 40
0.0
  9
$DIMTXT
 40
2.5
  9
$DIMCEN
 40
0.0
  9
$DIMTSZ
 40
0.0
  9
$DIMTOL
 70
     0
  9
$DIMLIM
 70
     0
  9
$DIMTIH
 70
     0
  9
$DIMTOH
 70
     0
  9
$DIMSE1
 70
     0
  9
$DIMSE2
 70
     0
  9
$DIMTAD
 70
     1
  9
$DIMZIN
 70
     8
  9
$DIMBLK
  1

  9
$DIMASO
 70
     1
  9
$DIMSHO
 70
     1
  9
$DIMPOST
  1

  9
$DIMAPOST
  1

  9
$DIMALT
 70
     0
  9
$DIMALTD
 70
     2
  9
$DIMALTF
 40
25.4
  9
$DIMLFAC
 40
1.0
  9
$DIMTOFL
 70
     1
  9
$DIMTVP
 40
0.0
  9
$DIMTIX
 70
     0
  9
$DIMSOXD
 70
     0
  9
$DIMSAH
 70
     1
  9
$DIMBLK1
  1
OPEN
  9
$DIMBLK2
  1
OPEN
  9
$DIMSTYLE
  2
STANDARD
  9
$DIMCLRD
 70
     0
  9
$DIMCLRE
 70
     0
  9
$DIMCLRT
 70
     0
  9
$DIMTFAC
 40
1.0
  9
$DIMGAP
 40
0.875
  9
$DIMJUST
 70
     0
  9
$DIMSD1
 70
     0
  9
$DIMSD2
 70
     0
  9
$DIMTOLJ
 70
     1
  9
$DIMTZIN
 70
     0
  9
$DIMALTZ
 70
     0
  9
$DIMALTTZ
 70
     0
  9
$DIMUPT
 70
     0
  9
$DIMDEC
 70
     3
  9
$DIMTDEC
 70
     3
  9
$DIMALTU
 70
     2
  9
$DIMALTTD
 70
     2
  9
$DIMTXSTY
  7
Standard
  9
$DIMAUNIT
 70
     0
  9
$DIMADEC
 70
     0
  9
$DIMALTRND
 40
0.0
  9
$DIMAZIN
 70
     0
  9
$DIMDSEP
 70
    46
  9
$DIMATFIT
 70
     3
  9
$DIMFRAC
 70
     0
  9
$DIMLDRBLK
  1
OPEN
  9
$DIMLUNIT
 70
     2
  9
$DIMLWD
 70
    -2
  9
$DIMLWE
 70
    -2
  9
$DIMTMOVE
 70
     0
  9
$DIMFXL
 40
1.0
  9
$DIMFXLON
 70
     0
  9
$DIMJOGANG
 40
1.570796326794896
  9
$DIMTFILL
 70
     0
  9
$DIMTFILLCLR
 70
     0
  9
$DIMARCSYM
 70
     0
  9
$DIMLTYPE
  6

  9
$DIMLTEX1
  6

  9
$DIMLTEX2
  6

  9
$DIMTXTDIRECTION
 70
     0
  9
$LUNITS
 70
     2
  9
$LUPREC
 70
     4
  9
$SKETCHINC
 40
1.0
  9
$FILLETRAD
 40
0.0
  9
$AUNITS
 70
     0
  9
$AUPREC
 70
     0
  9
$MENU
  1
.
  9
$ELEVATION
 40
0.0
  9
$PELEVATION
 40
0.0
  9
$THICKNESS
 40
0.0
  9
$LIMCHECK
 70
     0
  9
$CHAMFERA
 40
0.0
  9
$CHAMFERB
 40
0.0
  9
$CHAMFERC
 40
0.0
  9
$CHAMFERD
 40
0.0
  9
$SKPOLY
 70
     0
  9
$TDCREATE
 40
2454064.449062500
  9
$TDUCREATE
 40
2454064.074062859
  9
$TDUPDATE
 40
2460315.612731482
  9
$TDUUPDATE
 40
2460315.237731482
  9
$TDINDWG
 40
3.6085325116
  9
$TDUSRTIMER
 40
3.6085095718
  9
$USRTIMER
 70
     1
  9
$ANGBASE
 50
0.0
  9
$ANGDIR
 70
     0
  9
$PDMODE
 70
     0
  9
$PDSIZE
 40
0.0
  9
$PLINEWID
 40
0.0
  9
$SPLFRAME
 70
     0
  9
$SPLINETYPE
 70
     6
  9
$SPLINESEGS
 70
     8
  9
$HANDSEED
  5
15BAC
  9
$SURFTAB1
 70
     6
  9
$SURFTAB2
 70
     6
  9
$SURFTYPE
 70
     6
  9
$SURFU
 70
     6
  9
$SURFV
 70
     6
  9
$UCSBASE
  2

  9
$UCSNAME
  2

  9
$UCSORG
 10
0.0
 20
0.0
 30
0.0
  9
$UCSXDIR
 10
1.0
 20
0.0
 30
0.0
  9
$UCSYDIR
 10
0.0
 20
1.0
 30
0.0
  9
$UCSORTHOREF
  2

  9
$UCSORTHOVIEW
 70
     0
  9
$UCSORGTOP
 10
0.0
 20
0.0
 30
0.0
  9
$UCSORGBOTTOM
 10
0.0
 20
0.0
 30
0.0
  9
$UCSORGLEFT
 10
0.0
 20
0.0
 30
0.0
  9
$UCSORGRIGHT
 10
0.0
 20
0.0
 30
0.0
  9
$UCSORGFRONT
 10
0.0
 20
0.0
 30
0.0
  9
$UCSORGBACK
 10
0.0
 20
0.0
 30
0.0
  9
$PUCSBASE
  2

  9
$PUCSNAME
  2

  9
$PUCSORG
 10
0.0
 20
0.0
 30
0.0
  9
$PUCSXDIR
 10
1.0
 20
0.0
 30
0.0
  9
$PUCSYDIR
 10
0.0
 20
1.0
 30
0.0
  9
$PUCSORTHOREF
  2

  9
$PUCSORTHOVIEW
 70
     0
  9
$PUCSORGTOP
 10
0.0
 20
0.0
 30
0.0
  9
$PUCSORGBOTTOM
 10
0.0
 20
0.0
 30
0.0
  9
$PUCSORGLEFT
 10
0.0
 20
0.0
 30
0.0
  9
$PUCSORGRIGHT
 10
0.0
 20
0.0
 30
0.0
  9
$PUCSORGFRONT
 10
0.0
 20
0.0
 30
0.0
  9
$PUCSORGBACK
 10
0.0
 20
0.0
 30
0.0
  9
$USERI1
 70
     0
  9
$USERI2
 70
     0
  9
$USERI3
 70
     0
  9
$USERI4
 70
     0
  9
$USERI5
 70
     0
  9
$USERR1
 40
0.0
  9
$USERR2
 40
0.0
  9
$USERR3
 40
0.0
  9
$USERR4
 40
0.0
  9
$USERR5
 40
0.0
  9
$WORLDVIEW
 70
     1
  9
$SHADEDGE
 70
     3
  9
$SHADEDIF
 70
    70
  9
$TILEMODE
 70
     0
  9
$MAXACTVP
 70
    64
  9
$PINSBASE
 10
0.0
 20
0.0
 30
0.0
  9
$PLIMCHECK
 70
     0
  9
$PEXTMIN
 10
-0.0233557008396019
 20
-0.0155136928541424
 30
-0.0000000349181948
  9
$PEXTMAX
 10
408.2225153712125
 20
285.1940104826281
 30
0.0000000814935746
  9
$PLIMMIN
 10
-5.873748779296875
 20
-5.873749732971191
  9
$PLIMMAX
 10
414.0729064941406
 20
291.0522451400757
  9
$UNITMODE
 70
     0
  9
$VISRETAIN
 70
     1
  9
$PLINEGEN
 70
     0
  9
$PSLTSCALE
 70
     1
  9
$TREEDEPTH
 70
  3020
  9
$CMLSTYLE
  2
Standard
  9
$CMLJUST
 70
     0
  9
$CMLSCALE
 40
20.0
  9
$PROXYGRAPHICS
 70
     1
  9
$MEASUREMENT
 70
     1
  9
$CELWEIGHT
370
    -1
  9
$ENDCAPS
280
     0
  9
$JOINSTYLE
280
     0
  9
$LWDISPLAY
290
     0
  9
$INSUNITS
 70
     4
  9
$HYPERLINKBASE
  1

  9
$STYLESHEET
  1
MONOCHROME.CTB
  9
$XEDIT
290
     1
  9
$CEPSNTYPE
380
     0
  9
$PSTYLEMODE
290
     1
  9
$FINGERPRINTGUID
  2
{072871F0-2771-4C56-B9BD-B27D0F751D9A}
  9
$VERSIONGUID
  2
{3BBC13D1-884F-7848-8536-E1A949D493A2}
  9
$EXTNAMES
290
     1
  9
$PSVPSCALE
 40
0.0
  9
$OLESTARTUP
290
     0
  9
$SORTENTS
280
   127
  9
$INDEXCTL
280
     0
  9
$HIDETEXT
280
     1
  9
$XCLIPFRAME
280
     2
  9
$HALOGAP
280
     0
  9
$OBSCOLOR
 70
   257
  9
$OBSLTYPE
280
     0
  9
$INTERSECTIONDISPLAY
280
     0
  9
$INTERSECTIONCOLOR
 70
   257
  9
$DIMASSOC
280
     2
  9
$PROJECTNAME
  1

  9
$CAMERADISPLAY
290
     0
  9
$LENSLENGTH
 40
50.0
  9
$CAMERAHEIGHT
 40
0.0
  9
$STEPSPERSEC
 40
2.0
  9
$STEPSIZE
 40
6.0
  9
$3DDWFPREC
 40
2.0
  9
$PSOLWIDTH
 40
0.25
  9
$PSOLHEIGHT
 40
4.0
  9
$LOFTANG1
 40
1.570796326794896
  9
$LOFTANG2
 40
1.570796326794896
  9
$LOFTMAG1
 40
0.0
  9
$LOFTMAG2
 40
0.0
  9
$LOFTPARAM
 70
     7
  9
$LOFTNORMALS
280
     1
  9
$LATITUDE
 40
37.795
  9
$LONGITUDE
 40
-122.394
  9
$NORTHDIRECTION
 40
0.0
  9
$TIMEZONE
 70
 -8000
  9
$LIGHTGLYPHDISPLAY
280
     1
  9
$TILEMODELIGHTSYNCH
280
     1
  9
$CMATERIAL
347
D19F
  9
$SOLIDHIST
280
     0
  9
$SHOWHIST
280
     1
  9
$DWFFRAME
280
     2
  9
$DGNFRAME
280
     0
  9
$REALWORLDSCALE
290
     1
  9
$INTERFERECOLOR
 62
     1
  9
$INTERFEREOBJVS
345
D1C1
  9
$INTERFEREVPVS
346
13F88
  9
$CSHADOW
280
     0
  9
$SHADOWPLANELOCATION
 40
0.0
  0
ENDSEC
  0
SECTION
  2
CLASSES
  0
CLASS
  1
ACDBDICTIONARYWDFLT
  2
AcDbDictionaryWithDefault
  3
ObjectDBX Classes
 90
        0
 91
        1
280
     0
281
     0
  0
CLASS
  1
DICTIONARYVAR
  2
AcDbDictionaryVar
  3
ObjectDBX Classes
 90
        0
 91
       15
280
     0
281
     0
  0
CLASS
  1
TABLESTYLE
  2
AcDbTableStyle
  3
ObjectDBX Classes
 90
     4095
 91
        1
280
     0
281
     0
  0
CLASS
  1
DIMASSOC
  2
AcDbDimAssoc
  3
"AcDbDimAssoc|Product Desc:     AcDim ARX App For Dimension|Company:          Autodesk, Inc.|WEB Address:      www.autodesk.com"
 90
        0
 91
        1
280
     0
281
     0
  0
CLASS
  1
SORTENTSTABLE
  2
AcDbSortentsTable
  3
ObjectDBX Classes
 90
        0
 91
        2
280
     0
281
     0
  0
CLASS
  1
MATERIAL
  2
AcDbMaterial
  3
ObjectDBX Classes
 90
     1153
 91
        3
280
     0
281
     0
  0
CLASS
  1
VISUALSTYLE
  2
AcDbVisualStyle
  3
ObjectDBX Classes
 90
     4095
 91
       26
280
     0
281
     0
  0
CLASS
  1
SCALE
  2
AcDbScale
  3
ObjectDBX Classes
 90
     1153
 91
       17
280
     0
281
     0
  0
CLASS
  1
MLEADERSTYLE
  2
AcDbMLeaderStyle
  3
ACDB_MLEADERSTYLE_CLASS
 90
     4095
 91
        1
280
     0
281
     0
  0
CLASS
  1
AEC_REFEDIT_STATUS_TRACKER
  2
AecDbRefEditStatusTracker
  3
AecArchBase80|Product Desc: Autodesk Architectural Desktop 2007 |Company: Autodesk,Inc. |WEB Address: www.autodesk.com
 90
      129
 91
        0
280
     0
281
     0
  0
CLASS
  1
NPOCOLLECTION
  2
AcDbImpNonPersistentObjectsCollection
  3
ObjectDBX Classes
 90
     1153
 91
        0
280
     0
281
     0
  0
CLASS
  1
CELLSTYLEMAP
  2
AcDbCellStyleMap
  3
ObjectDBX Classes
 90
     1152
 91
        2
280
     0
281
     0
  0
CLASS
  1
ACDBSECTIONVIEWSTYLE
  2
AcDbSectionViewStyle
  3
ObjectDBX Classes
 90
     1025
 91
        1
280
     0
281
     0
  0
CLASS
  1
ACDBDETAILVIEWSTYLE
  2
AcDbDetailViewStyle
  3
ObjectDBX Classes
 90
     1025
 91
        1
280
     0
281
     0
  0
ENDSEC
  0
SECTION
  2
TABLES
  0
TABLE
  2
VPORT
  5
8
102
{ACAD_XDICTIONARY
360
D429
102
}
330
0
100
AcDbSymbolTable
 70
     1
1001
ACAD
1000
DbSaveVer
1071
      278
  0
VPORT
  5
E81D
330
8
100
AcDbSymbolTableRecord
100
AcDbViewportTableRecord
  2
*Active
 70
     0
 10
0.0
 20
0.0
 11
1.0
 21
1.0
 12
2100.000009778887
 22
1485.000006915069
 13
0.0
 23
0.0
 14
10.0
 24
10.0
 15
10.0
 25
10.0
 16
0.0
 26
0.0
 36
1.0
 17
0.0
 27
0.0
 37
0.0
 40
2995.786285400605
 41
1.976978417266187
 42
50.0
 43
0.0
 44
0.0
 50
0.0
 51
0.0
 71
     0
 72
  1000
 73
     1
 74
     3
 75
     0
 76
     0
 77
     0
 78
     0
281
     0
 65
     1
110
0.0
120
0.0
130
0.0
111
1.0
121
0.0
131
0.0
112
0.0
122
1.0
132
0.0
 79
     0
146
0.0
348
D1BD
 60
     3
 61
     5
292
     1
282
     1
141
0.0
142
0.0
 63
   250
421
  3355443
1001
ACAD_NAV_VCDISPLAY
1070
     3
  0
ENDTAB
  0
TABLE
  2
LTYPE
  5
5
330
0
100
AcDbSymbolTable
 70
     4
  0
LTYPE
  5
14
330
5
100
AcDbSymbolTableRecord
100
AcDbLinetypeTableRecord
  2
ByBlock
 70
     0
  3

 72
    65
 73
     0
 40
0.0
  0
LTYPE
  5
15
330
5
100
AcDbSymbolTableRecord
100
AcDbLinetypeTableRecord
  2
ByLayer
 70
     0
  3

 72
    65
 73
     0
 40
0.0
  0
LTYPE
  5
16
330
5
100
AcDbSymbolTableRecord
100
AcDbLinetypeTableRecord
  2
Continuous
 70
     0
  3
Solid line
 72
    65
 73
     0
 40
0.0
  0
LTYPE
  5
1D4
330
5
100
AcDbSymbolTableRecord
100
AcDbLinetypeTableRecord
  2
PHANTOM
 70
     0
  3
Phantom ______  __  __  ______  __  __  ______
 72
    65
 73
     6
 40
63.5
 49
31.75
 74
     0
 49
-6.349999999999997
 74
     0
 49
6.349999999999997
 74
     0
 49
-6.349999999999997
 74
     0
 49
6.349999999999997
 74
     0
 49
-6.349999999999997
 74
     0
  0
LTYPE
  5
1D5
330
5
100
AcDbSymbolTableRecord
100
AcDbLinetypeTableRecord
  2
CENTER
 70
     0
  3
Center ____ _ ____ _ ____ _ ____ _ ____ _ ____
 72
    65
 73
     4
 40
50.8
 49
31.75
 74
     0
 49
-6.349999999999997
 74
     0
 49
6.349999999999997
 74
     0
 49
-6.349999999999997
 74
     0
  0
LTYPE
  5
1D7
330
5
100
AcDbSymbolTableRecord
100
AcDbLinetypeTableRecord
  2
DASHED
 70
     0
  3
Dashed __ __ __ __ __ __ __ __ __ __ __ __ __ _
 72
    65
 73
     2
 40
19.05
 49
12.7
 74
     0
 49
-6.349999999999997
 74
     0
  0
ENDTAB
  0
TABLE
  2
LAYER
  5
2
102
{ACAD_XDICTIONARY
360
11D
102
}
330
0
100
AcDbSymbolTable
 70
     8
  0
LAYER
  5
10
102
{ACAD_XDICTIONARY
360
D40F
102
}
330
2
100
AcDbSymbolTableRecord
100
AcDbLayerTableRecord
  2
0
 70
     0
 62
     7
  6
Continuous
370
    -3
390
F
347
D1AF
348
0
  0
LAYER
  5
13F
330
2
100
AcDbSymbolTableRecord
100
AcDbLayerTableRecord
  2
Defpoints
 70
     0
 62
     7
  6
Continuous
290
     0
370
    -3
390
F
347
D1AF
348
0
  0
LAYER
  5
1BF
102
{ACAD_XDICTIONARY
360
D413
102
}
330
2
100
AcDbSymbolTableRecord
100
AcDbLayerTableRecord
  2
図面枠
 70
     0
 62
     2
  6
Continuous
370
    -3
390
F
347
D1AF
348
0
1001
AcAecLayerStandard
1000

1000

  0
LAYER
  5
1C1
102
{ACAD_XDICTIONARY
360
D417
102
}
330
2
100
AcDbSymbolTableRecord
100
AcDbLayerTableRecord
  2
仮想線
 70
     0
 62
     6
  6
PHANTOM
370
    -3
390
F
347
D1AF
348
0
1001
AcAecLayerStandard
1000

1000

  0
LAYER
  5
1C3
102
{ACAD_XDICTIONARY
360
D41B
102
}
330
2
100
AcDbSymbolTableRecord
100
AcDbLayerTableRecord
  2
寸法線
 70
     0
 62
     2
  6
Continuous
370
    -3
390
F
347
D1AF
348
0
1001
AcAecLayerStandard
1000

1000

  0
LAYER
  5
1C4
102
{ACAD_XDICTIONARY
360
D41D
102
}
330
2
100
AcDbSymbolTableRecord
100
AcDbLayerTableRecord
  2
中心線
 70
     0
 62
     1
  6
CENTER
370
    -3
390
F
347
D1AF
348
0
1001
AcAecLayerStandard
1000

1000

  0
LAYER
  5
1C5
102
{ACAD_XDICTIONARY
360
D41F
102
}
330
2
100
AcDbSymbolTableRecord
100
AcDbLayerTableRecord
  2
破線
 70
     0
 62
     4
  6
DASHED
370
    -3
390
F
347
D1AF
348
0
1001
AcAecLayerStandard
1000

1000

  0
LAYER
  5
82E
102
{ACAD_XDICTIONARY
360
D421
102
}
330
2
100
AcDbSymbolTableRecord
100
AcDbLayerTableRecord
  2
実線
 70
     0
 62
     7
  6
Continuous
370
    -3
390
F
347
D1AF
348
0
1001
AcAecLayerStandard
1000

1000

  0
ENDTAB
  0
TABLE
  2
STYLE
  5
3
330
0
100
AcDbSymbolTable
 70
     1
  0
STYLE
  5
11
330
3
100
AcDbSymbolTableRecord
100
AcDbTextStyleTableRecord
  2
Standard
 70
     0
 40
0.0
 41
1.0
 50
0.0
 71
     0
 42
37.5
  3
isocp.shx
  4
extfont2.shx
  0
ENDTAB
  0
TABLE
  2
VIEW
  5
6
330
0
100
AcDbSymbolTable
 70
     4
  0
ENDTAB
  0
TABLE
  2
UCS
  5
7
330
0
100
AcDbSymbolTable
 70
     0
  0
ENDTAB
  0
TABLE
  2
APPID
  5
9
330
0
100
AcDbSymbolTable
 70
    19
  0
APPID
  5
12
330
9
100
AcDbSymbolTableRecord
100
AcDbRegAppTableRecord
  2
ACAD
 70
     0
  0
APPID
  5
9E
330
9
100
AcDbSymbolTableRecord
100
AcDbRegAppTableRecord
  2
ACAD_PSEXT
 70
     0
  0
APPID
  5
1BE
330
9
100
AcDbSymbolTableRecord
100
AcDbRegAppTableRecord
  2
AcAecLayerStandard
 70
     0
  0
APPID
  5
1FF
330
9
100
AcDbSymbolTableRecord
100
AcDbRegAppTableRecord
  2
ACAD_EXEMPT_FROM_CAD_STANDARDS
 70
     0
  0
APPID
  5
1318
330
9
100
AcDbSymbolTableRecord
100
AcDbRegAppTableRecord
  2
ACAD_DSTYLE_DIMTEXT_FILL
 70
     0
  0
APPID
  5
1319
330
9
100
AcDbSymbolTableRecord
100
AcDbRegAppTableRecord
  2
ACAD_DSTYLE_DIMEXT_LENGTH
 70
     0
  0
APPID
  5
131A
330
9
100
AcDbSymbolTableRecord
100
AcDbRegAppTableRecord
  2
ACAD_DSTYLE_DIMEXT_ENABLED
 70
     0
  0
APPID
  5
131B
330
9
100
AcDbSymbolTableRecord
100
AcDbRegAppTableRecord
  2
ACAD_DSTYLE_DIM_LINETYPE
 70
     0
  0
APPID
  5
131C
330
9
100
AcDbSymbolTableRecord
100
AcDbRegAppTableRecord
  2
ACAD_DSTYLE_DIM_EXT1_LINETYPE
 70
     0
  0
APPID
  5
131D
330
9
100
AcDbSymbolTableRecord
100
AcDbRegAppTableRecord
  2
ACAD_DSTYLE_DIM_EXT2_LINETYPE
 70
     0
  0
APPID
  5
1439
330
9
100
AcDbSymbolTableRecord
100
AcDbRegAppTableRecord
  2
ACAD_DSTYLE_DIMJOGGED_JOGANGLE_SYMBOL
 70
     0
  0
APPID
  5
1CB2
330
9
100
AcDbSymbolTableRecord
100
AcDbRegAppTableRecord
  2
ACAD_DSTYLE_DIMARC_LENGTH_SYMBOL
 70
     0
  0
APPID
  5
356E
330
9
100
AcDbSymbolTableRecord
100
AcDbRegAppTableRecord
  2
ACAD_DIMASSOC_CALC_DIMLFAC
 70
     0
  0
APPID
  5
356F
330
9
100
AcDbSymbolTableRecord
100
AcDbRegAppTableRecord
  2
ACAD_DIMASSOC_DIMLFAC
 70
     0
  0
APPID
  5
3570
330
9
100
AcDbSymbolTableRecord
100
AcDbRegAppTableRecord
  2
ACAD_DIMASSOC_OVERRIDDEN_DIMLFAC
 70
     0
  0
APPID
  5
D1DC
330
9
100
AcDbSymbolTableRecord
100
AcDbRegAppTableRecord
  2
ACAD_MLEADERVER
 70
     0
  0
APPID
  5
141D6
330
9
100
AcDbSymbolTableRecord
100
AcDbRegAppTableRecord
  2
ACAD_NAV_VCDISPLAY
 70
     0
  0
APPID
  5
14BD1
330
9
100
AcDbSymbolTableRecord
100
AcDbRegAppTableRecord
  2
ACAD_DSTYLE_DIMJAG
 70
     0
  0
APPID
  5
14BD2
330
9
100
AcDbSymbolTableRecord
100
AcDbRegAppTableRecord
  2
ACAD_DSTYLE_DIMTALN
 70
     0
  0
ENDTAB
  0
TABLE
  2
DIMSTYLE
  5
A
330
0
100
AcDbSymbolTable
 70
     1
100
AcDbDimStyleTable
 71
     1
340
C0F
  0
DIMSTYLE
105
C0F
102
{ACAD_REACTORS
330
144BA
330
144BB
330
144BC
330
14528
330
1444E
330
1444F
330
14450
330
14451
330
14452
330
14453
330
14454
330
14455
330
14456
330
14457
330
14458
330
14459
330
1445A
330
1445B
330
1459B
330
1459C
330
14D80
330
14D98
330
14D08
330
14D0F
330
14D10
330
14D11
330
14D12
330
14D13
330
14D14
330
14D15
330
14D16
330
14D17
330
14D18
330
14D19
330
14D1A
330
14D47
330
14D48
330
14D5B
330
14D64
330
14D77
330
14D7D
330
14D5A
330
14D69
330
14D81
102
}
330
A
100
AcDbSymbolTableRecord
100
AcDbDimStyleTableRecord
  2
STANDARD
 70
     0
 40
10.0
 41
2.0
 42
0.875
 43
10.0
 44
1.0
 50
89.99999999999998
 73
     0
 74
     0
 77
     1
 78
     8
140
2.5
141
0.0
147
0.875
172
     1
173
     1
271
     3
272
     3
340
11
341
C08
343
C08
344
C08
1001
ACAD_DSTYLE_DIMJOGGED_JOGANGLE_SYMBOL
1070
   384
1040
1.570796326794896
  0
ENDTAB
  0
TABLE
  2
BLOCK_RECORD
  5
1
330
0
100
AcDbSymbolTable
 70
    46
  0
BLOCK_RECORD
  5
1F
102
{ACAD_XDICTIONARY
360
5C91
102
}
330
1
100
AcDbSymbolTableRecord
100
AcDbBlockTableRecord
  2
*Model_Space
340
22
 70
     0
280
     1
281
     0
  0
BLOCK_RECORD
  5
78D
330
1
100
AcDbSymbolTableRecord
100
AcDbBlockTableRecord
  2
*Paper_Space
340
78E
 70
     0
280
     1
281
     0
  0
BLOCK_RECORD
  5
C08
102
{ACAD_XDICTIONARY
360
E6A8
102
}
330
1
100
AcDbSymbolTableRecord
100
AcDbBlockTableRecord
  2
_OPEN
340
0
102
{BLKREFS
331
15AAC
331
15AAD
331
15AB5
331
15AB6
331
15AC0
331
15AC1
331
15AC9
331
15ACA
331
15AD2
331
15AD3
331
15ADC
331
15ADD
331
15AE6
331
15AE7
331
15AF8
331
15AF9
331
15B02
331
15B03
331
15B0B
331
15B0C
331
15B14
331
15B15
331
15B1D
331
15B1E
331
15B28
331
15B29
331
15B47
331
15B48
331
15B52
331
15B53
331
15B5B
331
15B5C
331
15B64
331
15B65
331
15B6D
331
15B6E
331
15B78
331
15B79
331
15B83
331
15B84
331
15AA3
331
15AA4
331
15405
331
15406
331
15410
331
15411
331
15419
331
1541A
331
15470
331
15471
331
1547B
331
1547C
331
15398
331
15399
331
153A3
331
153A4
331
15422
331
15423
331
1542B
331
1542C
331
15434
331
15435
331
1543D
331
1543E
331
15446
331
15447
331
15451
331
15452
331
1545A
331
1545B
331
15465
331
15466
331
153AE
331
153AF
331
153B7
331
153B8
331
153C2
331
153C3
331
153CB
331
153CC
331
153D4
331
153D5
331
153DD
331
153DE
331
153E6
331
153E7
331
153F1
331
153F2
331
153FA
331
153FB
102
}
 70
     0
280
     1
281
     0
  0
BLOCK_RECORD
  5
146B7
330
1
100
AcDbSymbolTableRecord
100
AcDbBlockTableRecord
  2
*D1
340
0
 70
     0
280
     1
281
     0
  0
BLOCK_RECORD
  5
146C3
330
1
100
AcDbSymbolTableRecord
100
AcDbBlockTableRecord
  2
*D2
340
0
 70
     0
280
     1
281
     0
  0
BLOCK_RECORD
  5
146CF
330
1
100
AcDbSymbolTableRecord
100
AcDbBlockTableRecord
  2
*D3
340
0
 70
     0
280
     1
281
     0
  0
BLOCK_RECORD
  5
146DB
330
1
100
AcDbSymbolTableRecord
100
AcDbBlockTableRecord
  2
*D4
340
0
 70
     0
280
     1
281
     0
  0
BLOCK_RECORD
  5
146E9
330
1
100
AcDbSymbolTableRecord
100
AcDbBlockTableRecord
  2
*D5
340
0
 70
     0
280
     1
281
     0
  0
BLOCK_RECORD
  5
146F5
330
1
100
AcDbSymbolTableRecord
100
AcDbBlockTableRecord
  2
*D6
340
0
 70
     0
280
     1
281
     0
  0
BLOCK_RECORD
  5
14701
330
1
100
AcDbSymbolTableRecord
100
AcDbBlockTableRecord
  2
*D7
340
0
 70
     0
280
     1
281
     0
  0
BLOCK_RECORD
  5
1470D
330
1
100
AcDbSymbolTableRecord
100
AcDbBlockTableRecord
  2
*D8
340
0
 70
     0
280
     1
281
     0
  0
BLOCK_RECORD
  5
1471B
330
1
100
AcDbSymbolTableRecord
100
AcDbBlockTableRecord
  2
*D9
340
0
 70
     0
280
     1
281
     0
  0
BLOCK_RECORD
  5
14727
330
1
100
AcDbSymbolTableRecord
100
AcDbBlockTableRecord
  2
*D10
340
0
 70
     0
280
     1
281
     0
  0
BLOCK_RECORD
  5
14733
330
1
100
AcDbSymbolTableRecord
100
AcDbBlockTableRecord
  2
*D11
340
0
 70
     0
280
     1
281
     0
  0
BLOCK_RECORD
  5
14741
330
1
100
AcDbSymbolTableRecord
100
AcDbBlockTableRecord
  2
*D12
340
0
 70
     0
280
     1
281
     0
  0
BLOCK_RECORD
  5
1474D
330
1
100
AcDbSymbolTableRecord
100
AcDbBlockTableRecord
  2
*D13
340
0
 70
     0
280
     1
281
     0
  0
BLOCK_RECORD
  5
1475A
330
1
100
AcDbSymbolTableRecord
100
AcDbBlockTableRecord
  2
*D14
340
0
 70
     0
280
     1
281
     0
  0
BLOCK_RECORD
  5
14767
330
1
100
AcDbSymbolTableRecord
100
AcDbBlockTableRecord
  2
*D15
340
0
 70
     0
280
     1
281
     0
  0
BLOCK_RECORD
  5
14773
330
1
100
AcDbSymbolTableRecord
100
AcDbBlockTableRecord
  2
*D16
340
0
 70
     0
280
     1
281
     0
  0
BLOCK_RECORD
  5
1477F
330
1
100
AcDbSymbolTableRecord
100
AcDbBlockTableRecord
  2
*D17
340
0
 70
     0
280
     1
281
     0
  0
BLOCK_RECORD
  5
1478C
330
1
100
AcDbSymbolTableRecord
100
AcDbBlockTableRecord
  2
*D18
340
0
 70
     0
280
     1
281
     0
  0
BLOCK_RECORD
  5
14798
330
1
100
AcDbSymbolTableRecord
100
AcDbBlockTableRecord
  2
*D19
340
0
 70
     0
280
     1
281
     0
  0
BLOCK_RECORD
  5
147A6
330
1
100
AcDbSymbolTableRecord
100
AcDbBlockTableRecord
  2
*D20
340
0
 70
     0
280
     1
281
     0
  0
BLOCK_RECORD
  5
14D99
330
1
100
AcDbSymbolTableRecord
100
AcDbBlockTableRecord
  2
*D21
340
0
 70
     0
280
     1
281
     0
  0
BLOCK_RECORD
  5
14DA7
330
1
100
AcDbSymbolTableRecord
100
AcDbBlockTableRecord
  2
*D22
340
0
 70
     0
280
     1
281
     0
  0
BLOCK_RECORD
  5
14DB5
330
1
100
AcDbSymbolTableRecord
100
AcDbBlockTableRecord
  2
*D23
340
0
 70
     0
280
     1
281
     0
  0
BLOCK_RECORD
  5
14DC3
330
1
100
AcDbSymbolTableRecord
100
AcDbBlockTableRecord
  2
*D24
340
0
 70
     0
280
     1
281
     0
  0
BLOCK_RECORD
  5
14DD1
330
1
100
AcDbSymbolTableRecord
100
AcDbBlockTableRecord
  2
*D25
340
0
 70
     0
280
     1
281
     0
  0
BLOCK_RECORD
  5
14DDF
330
1
100
AcDbSymbolTableRecord
100
AcDbBlockTableRecord
  2
*D26
340
0
 70
     0
280
     1
281
     0
  0
BLOCK_RECORD
  5
14DED
330
1
100
AcDbSymbolTableRecord
100
AcDbBlockTableRecord
  2
*D27
340
0
 70
     0
280
     1
281
     0
  0
BLOCK_RECORD
  5
14DF9
330
1
100
AcDbSymbolTableRecord
100
AcDbBlockTableRecord
  2
*D28
340
0
 70
     0
280
     1
281
     0
  0
BLOCK_RECORD
  5
14E07
330
1
100
AcDbSymbolTableRecord
100
AcDbBlockTableRecord
  2
*D29
340
0
 70
     0
280
     1
281
     0
  0
BLOCK_RECORD
  5
14E13
330
1
100
AcDbSymbolTableRecord
100
AcDbBlockTableRecord
  2
*D30
340
0
 70
     0
280
     1
281
     0
  0
BLOCK_RECORD
  5
14E1F
330
1
100
AcDbSymbolTableRecord
100
AcDbBlockTableRecord
  2
*D31
340
0
 70
     0
280
     1
281
     0
  0
BLOCK_RECORD
  5
14E2B
330
1
100
AcDbSymbolTableRecord
100
AcDbBlockTableRecord
  2
*D32
340
0
 70
     0
280
     1
281
     0
  0
BLOCK_RECORD
  5
14E37
330
1
100
AcDbSymbolTableRecord
100
AcDbBlockTableRecord
  2
*D33
340
0
 70
     0
280
     1
281
     0
  0
BLOCK_RECORD
  5
14E45
330
1
100
AcDbSymbolTableRecord
100
AcDbBlockTableRecord
  2
*D34
340
0
 70
     0
280
     1
281
     0
  0
BLOCK_RECORD
  5
14E51
330
1
100
AcDbSymbolTableRecord
100
AcDbBlockTableRecord
  2
*D35
340
0
 70
     0
280
     1
281
     0
  0
BLOCK_RECORD
  5
14E5F
330
1
100
AcDbSymbolTableRecord
100
AcDbBlockTableRecord
  2
*D36
340
0
 70
     0
280
     1
281
     0
  0
BLOCK_RECORD
  5
14E6D
330
1
100
AcDbSymbolTableRecord
100
AcDbBlockTableRecord
  2
*D37
340
0
 70
     0
280
     1
281
     0
  0
BLOCK_RECORD
  5
14E79
330
1
100
AcDbSymbolTableRecord
100
AcDbBlockTableRecord
  2
*D38
340
0
 70
     0
280
     1
281
     0
  0
BLOCK_RECORD
  5
14E85
330
1
100
AcDbSymbolTableRecord
100
AcDbBlockTableRecord
  2
*D39
340
0
 70
     0
280
     1
281
     0
  0
BLOCK_RECORD
  5
14E91
330
1
100
AcDbSymbolTableRecord
100
AcDbBlockTableRecord
  2
*D40
340
0
 70
     0
280
     1
281
     0
  0
BLOCK_RECORD
  5
14E9D
330
1
100
AcDbSymbolTableRecord
100
AcDbBlockTableRecord
  2
*D41
340
0
 70
     0
280
     1
281
     0
  0
BLOCK_RECORD
  5
14EA9
330
1
100
AcDbSymbolTableRecord
100
AcDbBlockTableRecord
  2
*D42
340
0
 70
     0
280
     1
281
     0
  0
BLOCK_RECORD
  5
14EB5
330
1
100
AcDbSymbolTableRecord
100
AcDbBlockTableRecord
  2
*D43
340
0
 70
     0
280
     1
281
     0
  0
BLOCK_RECORD
  5
14EC3
330
1
100
AcDbSymbolTableRecord
100
AcDbBlockTableRecord
  2
*D44
340
0
 70
     0
280
     1
281
     0
  0
BLOCK_RECORD
  5
15A6C
330
1
100
AcDbSymbolTableRecord
100
AcDbBlockTableRecord
  2
*D45
340
0
 70
     0
280
     1
281
     0
  0
ENDTAB
  0
ENDSEC
  0
SECTION
  2
BLOCKS
  0
BLOCK
  5
20
330
1F
100
AcDbEntity
  8
0
100
AcDbBlockBegin
  2
*Model_Space
 70
     0
 10
0.0
 20
0.0
 30
0.0
  3
*Model_Space
  1

  0
ENDBLK
  5
21
330
1F
100
AcDbEntity
  8
0
100
AcDbBlockEnd
  0
BLOCK
  5
78F
330
78D
100
AcDbEntity
 67
     1
  8
0
100
AcDbBlockBegin
  2
*Paper_Space
 70
     0
 10
0.0
 20
0.0
 30
0.0
  3
*Paper_Space
  1

  0
ENDBLK
  5
790
330
78D
100
AcDbEntity
 67
     1
  8
0
100
AcDbBlockEnd
  0
BLOCK
  5
C09
330
C08
100
AcDbEntity
  8
0
100
AcDbBlockBegin
  2
_OPEN
 70
     0
 10
0.0
 20
0.0
 30
0.0
  3
_OPEN
  1

  0
LINE
  5
C0A
330
C08
100
AcDbEntity
  8
0
  6
ByBlock
 62
     0
100
AcDbLine
 10
-1.0
 20
0.1666666666666666
 30
0.0
 11
0.0
 21
0.0
 31
0.0
  0
LINE
  5
C0B
330
C08
100
AcDbEntity
  8
0
  6
ByBlock
 62
     0
100
AcDbLine
 10
0.0
 20
0.0
 30
0.0
 11
-1.0
 21
-0.1666666666666666
 31
0.0
  0
LINE
  5
C0C
330
C08
100
AcDbEntity
  8
0
  6
ByBlock
 62
     0
100
AcDbLine
 10
0.0
 20
0.0
 30
0.0
 11
-1.0
 21
0.0
 31
0.0
  0
ENDBLK
  5
C0D
330
C08
100
AcDbEntity
  8
0
100
AcDbBlockEnd
  0
BLOCK
  5
146B8
330
146B7
100
AcDbEntity
  8
0
100
AcDbBlockBegin
  2
*D1
 70
     1
 10
0.0
 20
0.0
 30
0.0
  3
*D1
  1

  0
LINE
  5
15B08
330
146B7
100
AcDbEntity
  8
寸法線
 62
     0
440
 16777216
370
    -2
100
AcDbLine
 10
3642.499963982916
 20
2086.249942967219
 30
0.0
 11
3642.499963982916
 21
1964.999942967219
 31
0.0
  0
LINE
  5
15B09
330
146B7
100
AcDbEntity
  8
寸法線
 62
     0
440
 16777216
370
    -2
100
AcDbLine
 10
3292.499963982914
 20
2086.249942967219
 30
0.0
 11
3292.499963982914
 21
1964.999942967219
 31
0.0
  0
LINE
  5
15B0A
330
146B7
100
AcDbEntity
  8
寸法線
 62
     0
440
 16777216
370
    -2
100
AcDbLine
 10
3622.499963982916
 20
1974.999942967219
 30
0.0
 11
3312.499963982914
 21
1974.999942967219
 31
0.0
  0
INSERT
  5
15B0B
330
146B7
100
AcDbEntity
  8
寸法線
 62
     0
440
 16777216
370
    -2
100
AcDbBlockReference
  2
_OPEN
 10
3642.499963982916
 20
1974.999942967219
 30
0.0
 41
20.0
 42
20.0
 43
20.0
  0
INSERT
  5
15B0C
330
146B7
100
AcDbEntity
  8
寸法線
 62
     0
440
 16777216
370
    -2
100
AcDbBlockReference
  2
_OPEN
 10
3292.499963982914
 20
1974.999942967219
 30
0.0
 41
20.0
 42
20.0
 43
20.0
 50
180.0
  0
MTEXT
  5
15B0D
330
146B7
100
AcDbEntity
  8
寸法線
 62
     0
440
 16777216
100
AcDbMText
 10
3467.499963982916
 20
1996.249942967219
 30
0.0
 40
25.0
 41
0.0
 46
0.0
 71
     5
 72
     1
  1
\A1;350
 73
     1
 44
1.0
  0
POINT
  5
15B0E
330
146B7
100
AcDbEntity
  8
Defpoints
 62
     0
440
 16777216
100
AcDbPoint
 10
3642.499963982916
 20
2094.999942967219
 30
0.0
  0
POINT
  5
15B0F
330
146B7
100
AcDbEntity
  8
Defpoints
 62
     0
440
 16777216
100
AcDbPoint
 10
3292.499963982914
 20
2094.999942967219
 30
0.0
  0
POINT
  5
15B10
330
146B7
100
AcDbEntity
  8
Defpoints
 62
     0
440
 16777216
100
AcDbPoint
 10
3292.499963982914
 20
1974.999942967219
 30
0.0
  0
ENDBLK
  5
146B9
330
146B7
100
AcDbEntity
  8
0
100
AcDbBlockEnd
  0
BLOCK
  5
146C4
330
146C3
100
AcDbEntity
  8
0
100
AcDbBlockBegin
  2
*D2
 70
     1
 10
0.0
 20
0.0
 30
0.0
  3
*D2
  1

  0
LINE
  5
15B11
330
146C3
100
AcDbEntity
  8
寸法線
 62
     0
440
 16777216
370
    -2
100
AcDbLine
 10
3283.749963982915
 20
2444.999982593437
 30
0.0
 11
3162.499963982914
 21
2444.999982593437
 31
0.0
  0
LINE
  5
15B12
330
146C3
100
AcDbEntity
  8
寸法線
 62
     0
440
 16777216
370
    -2
100
AcDbLine
 10
3283.749963982915
 20
2094.999982593437
 30
0.0
 11
3162.499963982914
 21
2094.999982593437
 31
0.0
  0
LINE
  5
15B13
330
146C3
100
AcDbEntity
  8
寸法線
 62
     0
440
 16777216
370
    -2
100
AcDbLine
 10
3172.499963982914
 20
2424.999982593437
 30
0.0
 11
3172.499963982914
 21
2114.999982593437
 31
0.0
  0
INSERT
  5
15B14
330
146C3
100
AcDbEntity
  8
寸法線
 62
     0
440
 16777216
370
    -2
100
AcDbBlockReference
  2
_OPEN
 10
3172.499963982914
 20
2444.999982593437
 30
0.0
 41
20.0
 42
20.0
 43
20.0
 50
90.0
  0
INSERT
  5
15B15
330
146C3
100
AcDbEntity
  8
寸法線
 62
     0
440
 16777216
370
    -2
100
AcDbBlockReference
  2
_OPEN
 10
3172.499963982914
 20
2094.999982593437
 30
0.0
 41
20.0
 42
20.0
 43
20.0
 50
270.0
  0
MTEXT
  5
15B16
330
146C3
100
AcDbEntity
  8
寸法線
 62
     0
440
 16777216
100
AcDbMText
 10
3151.249963982913
 20
2269.999962780327
 30
0.0
 40
25.0
 41
0.0
 46
0.0
 71
     5
 72
     1
  1
\A1;350
 11
0.0000000000000001
 21
1.0
 31
0.0
 73
     1
 44
1.0
  0
POINT
  5
15B17
330
146C3
100
AcDbEntity
  8
Defpoints
 62
     0
440
 16777216
100
AcDbPoint
 10
3292.499963982916
 20
2444.999982593437
 30
0.0
  0
POINT
  5
15B18
330
146C3
100
AcDbEntity
  8
Defpoints
 62
     0
440
 16777216
100
AcDbPoint
 10
3292.499963982916
 20
2094.999982593437
 30
0.0
  0
POINT
  5
15B19
330
146C3
100
AcDbEntity
  8
Defpoints
 62
     0
440
 16777216
100
AcDbPoint
 10
3172.499963982914
 20
2094.999982593437
 30
0.0
  0
ENDBLK
  5
146C5
330
146C3
100
AcDbEntity
  8
0
100
AcDbBlockEnd
  0
BLOCK
  5
146D0
330
146CF
100
AcDbEntity
  8
0
100
AcDbBlockBegin
  2
*D3
 70
     1
 10
0.0
 20
0.0
 30
0.0
  3
*D3
  1

  0
LINE
  5
15B1A
330
146CF
100
AcDbEntity
  8
寸法線
 62
     0
440
 16777216
370
    -2
100
AcDbLine
 10
2811.250013985632
 20
2438.000051998484
 30
0.0
 11
2932.500033798741
 21
2438.000051998484
 31
0.0
  0
LINE
  5
15B1B
330
146CF
100
AcDbEntity
  8
寸法線
 62
     0
440
 16777216
370
    -2
100
AcDbLine
 10
2811.250013985632
 20
2101.999977559132
 30
0.0
 11
2932.500033798741
 21
2101.999977559132
 31
0.0
  0
LINE
  5
15B1C
330
146CF
100
AcDbEntity
  8
寸法線
 62
     0
440
 16777216
370
    -2
100
AcDbLine
 10
2922.500033798741
 20
2418.000051998484
 30
0.0
 11
2922.500033798741
 21
2121.999977559132
 31
0.0
  0
INSERT
  5
15B1D
330
146CF
100
AcDbEntity
  8
寸法線
 62
     0
440
 16777216
370
    -2
100
AcDbBlockReference
  2
_OPEN
 10
2922.500033798741
 20
2438.000051998484
 30
0.0
 41
20.0
 42
20.0
 43
20.0
 50
90.0
  0
INSERT
  5
15B1E
330
146CF
100
AcDbEntity
  8
寸法線
 62
     0
440
 16777216
370
    -2
100
AcDbBlockReference
  2
_OPEN
 10
2922.500033798741
 20
2101.999977559132
 30
0.0
 41
20.0
 42
20.0
 43
20.0
 50
270.0
  0
MTEXT
  5
15B1F
330
146CF
100
AcDbEntity
  8
寸法線
 62
     0
440
 16777216
100
AcDbMText
 10
2901.250033798741
 20
2270.000014778806
 30
0.0
 40
25.0
 41
0.0
 46
0.0
 71
     5
 72
     1
  1
\A1;336
 11
0.0000000000000001
 21
1.0
 31
0.0
 73
     1
 44
1.0
  0
POINT
  5
15B20
330
146CF
100
AcDbEntity
  8
Defpoints
 62
     0
440
 16777216
100
AcDbPoint
 10
2802.500013985632
 20
2438.000051998484
 30
0.0
  0
POINT
  5
15B21
330
146CF
100
AcDbEntity
  8
Defpoints
 62
     0
440
 16777216
100
AcDbPoint
 10
2802.500013985632
 20
2101.999977559132
 30
0.0
  0
POINT
  5
15B22
330
146CF
100
AcDbEntity
  8
Defpoints
 62
     0
440
 16777216
100
AcDbPoint
 10
2922.500033798741
 20
2101.999977559132
 30
0.0
  0
ENDBLK
  5
146D1
330
146CF
100
AcDbEntity
  8
0
100
AcDbBlockEnd
  0
BLOCK
  5
146DC
330
146DB
100
AcDbEntity
  8
0
100
AcDbBlockBegin
  2
*D4
 70
     1
 10
0.0
 20
0.0
 30
0.0
  3
*D4
  1

  0
LINE
  5
15B23
330
146DB
100
AcDbEntity
  8
寸法線
 62
     0
440
 16777216
370
    -2
100
AcDbLine
 10
2597.749994172538
 20
2276.000002350013
 30
0.0
 11
2516.499994172551
 21
2276.000002350013
 31
0.0
  0
LINE
  5
15B24
330
146DB
100
AcDbEntity
  8
寸法線
 62
     0
440
 16777216
370
    -2
100
AcDbLine
 10
2597.749994172538
 20
2264.000002350013
 30
0.0
 11
2516.499994172551
 21
2264.000002350013
 31
0.0
  0
LINE
  5
15B25
330
146DB
100
AcDbEntity
  8
寸法線
 62
     0
440
 16777216
370
    -2
100
AcDbLine
 10
2526.499994172551
 20
2296.000002350013
 30
0.0
 11
2526.499994172551
 21
2316.000002350013
 31
0.0
  0
LINE
  5
15B26
330
146DB
100
AcDbEntity
  8
寸法線
 62
     0
440
 16777216
370
    -2
100
AcDbLine
 10
2526.499994172551
 20
2244.000002350013
 30
0.0
 11
2526.499994172551
 21
2224.000002350013
 31
0.0
  0
LINE
  5
15B27
330
146DB
100
AcDbEntity
  8
寸法線
 62
     0
440
 16777216
370
    -2
100
AcDbLine
 10
2526.499994172551
 20
2276.000002350013
 30
0.0
 11
2526.499994172551
 21
2264.000002350013
 31
0.0
  0
INSERT
  5
15B28
330
146DB
100
AcDbEntity
  8
寸法線
 62
     0
440
 16777216
370
    -2
100
AcDbBlockReference
  2
_OPEN
 10
2526.499994172551
 20
2276.000002350013
 30
0.0
 41
20.0
 42
20.0
 43
20.0
 50
270.0
  0
INSERT
  5
15B29
330
146DB
100
AcDbEntity
  8
寸法線
 62
     0
440
 16777216
370
    -2
100
AcDbBlockReference
  2
_OPEN
 10
2526.499994172551
 20
2264.000002350013
 30
0.0
 41
20.0
 42
20.0
 43
20.0
 50
90.0
  0
MTEXT
  5
15B2A
330
146DB
100
AcDbEntity
  8
寸法線
 62
     0
440
 16777216
100
AcDbMText
 10
2505.24753354263
 20
2270.000002350012
 30
0.0
 40
25.0
 41
0.0
 46
0.0
 71
     5
 72
     1
  1
\A1;12
 11
0.0000000000000001
 21
1.0
 31
0.0
 73
     1
 44
1.0
  0
POINT
  5
15B2B
330
146DB
100
AcDbEntity
  8
Defpoints
 62
     0
440
 16777216
100
AcDbPoint
 10
2606.499994172538
 20
2276.000002350013
 30
0.0
  0
POINT
  5
15B2C
330
146DB
100
AcDbEntity
  8
Defpoints
 62
     0
440
 16777216
100
AcDbPoint
 10
2606.499994172538
 20
2264.000002350013
 30
0.0
  0
POINT
  5
15B2D
330
146DB
100
AcDbEntity
  8
Defpoints
 62
     0
440
 16777216
100
AcDbPoint
 10
2526.499994172551
 20
2264.000002350013
 30
0.0
  0
ENDBLK
  5
146DD
330
146DB
100
AcDbEntity
  8
0
100
AcDbBlockEnd
  0
BLOCK
  5
146EA
330
146E9
100
AcDbEntity
  8
0
100
AcDbBlockBegin
  2
*D5
 70
     1
 10
0.0
 20
0.0
 30
0.0
  3
*D5
  1

  0
LINE
  5
15B4F
330
146E9
100
AcDbEntity
  8
寸法線
 62
     0
440
 16777216
370
    -2
100
AcDbLine
 10
1102.499979077721
 20
1476.250073709392
 30
0.0
 11
1102.499979077721
 21
1325.000034786937
 31
0.0
  0
LINE
  5
15B50
330
146E9
100
AcDbEntity
  8
寸法線
 62
     0
440
 16777216
370
    -2
100
AcDbLine
 10
2302.499979077721
 20
1476.250073709392
 30
0.0
 11
2302.499979077721
 21
1325.000034786937
 31
0.0
  0
LINE
  5
15B51
330
146E9
100
AcDbEntity
  8
寸法線
 62
     0
440
 16777216
370
    -2
100
AcDbLine
 10
1122.499979077721
 20
1335.000034786937
 30
0.0
 11
2282.499979077721
 21
1335.000034786937
 31
0.0
  0
INSERT
  5
15B52
330
146E9
100
AcDbEntity
  8
寸法線
 62
     0
440
 16777216
370
    -2
100
AcDbBlockReference
  2
_OPEN
 10
1102.499979077721
 20
1335.000034786937
 30
0.0
 41
20.0
 42
20.0
 43
20.0
 50
180.0
  0
INSERT
  5
15B53
330
146E9
100
AcDbEntity
  8
寸法線
 62
     0
440
 16777216
370
    -2
100
AcDbBlockReference
  2
_OPEN
 10
2302.499979077721
 20
1335.000034786937
 30
0.0
 41
20.0
 42
20.0
 43
20.0
  0
MTEXT
  5
15B54
330
146E9
100
AcDbEntity
  8
寸法線
 62
     0
440
 16777216
100
AcDbMText
 10
1702.499979077721
 20
1356.252495416858
 30
0.0
 40
25.0
 41
0.0
 46
0.0
 71
     5
 72
     1
  1
\A1;1200
 73
     1
 44
1.0
  0
POINT
  5
15B55
330
146E9
100
AcDbEntity
  8
Defpoints
 62
     0
440
 16777216
100
AcDbPoint
 10
1102.499979077721
 20
1485.000073709392
 30
0.0
  0
POINT
  5
15B56
330
146E9
100
AcDbEntity
  8
Defpoints
 62
     0
440
 16777216
100
AcDbPoint
 10
2302.499979077721
 20
1485.000073709392
 30
0.0
  0
POINT
  5
15B57
330
146E9
100
AcDbEntity
  8
Defpoints
 62
     0
440
 16777216
100
AcDbPoint
 10
2302.499979077721
 20
1335.000034786937
 30
0.0
  0
ENDBLK
  5
146EB
330
146E9
100
AcDbEntity
  8
0
100
AcDbBlockEnd
  0
BLOCK
  5
146F6
330
146F5
100
AcDbEntity
  8
0
100
AcDbBlockBegin
  2
*D6
 70
     1
 10
0.0
 20
0.0
 30
0.0
  3
*D6
  1

  0
LINE
  5
15B58
330
146F5
100
AcDbEntity
  8
寸法線
 62
     0
440
 16777216
370
    -2
100
AcDbLine
 10
602.4999441698055
 20
1486.250034786937
 30
0.0
 11
602.4999441698055
 21
1325.000034786937
 31
0.0
  0
LINE
  5
15B59
330
146F5
100
AcDbEntity
  8
寸法線
 62
     0
440
 16777216
370
    -2
100
AcDbLine
 10
1102.499979077721
 20
1476.250073709392
 30
0.0
 11
1102.499979077721
 21
1325.000034786937
 31
0.0
  0
LINE
  5
15B5A
330
146F5
100
AcDbEntity
  8
寸法線
 62
     0
440
 16777216
370
    -2
100
AcDbLine
 10
622.4999441698055
 20
1335.000034786937
 30
0.0
 11
1082.499979077721
 21
1335.000034786937
 31
0.0
  0
INSERT
  5
15B5B
330
146F5
100
AcDbEntity
  8
寸法線
 62
     0
440
 16777216
370
    -2
100
AcDbBlockReference
  2
_OPEN
 10
602.4999441698055
 20
1335.000034786937
 30
0.0
 41
20.0
 42
20.0
 43
20.0
 50
180.0
  0
INSERT
  5
15B5C
330
146F5
100
AcDbEntity
  8
寸法線
 62
     0
440
 16777216
370
    -2
100
AcDbBlockReference
  2
_OPEN
 10
1102.499979077721
 20
1335.000034786937
 30
0.0
 41
20.0
 42
20.0
 43
20.0
  0
MTEXT
  5
15B5D
330
146F5
100
AcDbEntity
  8
寸法線
 62
     0
440
 16777216
100
AcDbMText
 10
852.4999616237632
 20
1356.250034786937
 30
0.0
 40
25.0
 41
0.0
 46
0.0
 71
     5
 72
     1
  1
\A1;500
 73
     1
 44
1.0
  0
POINT
  5
15B5E
330
146F5
100
AcDbEntity
  8
Defpoints
 62
     0
440
 16777216
100
AcDbPoint
 10
602.4999441698055
 20
1495.000034786937
 30
0.0
  0
POINT
  5
15B5F
330
146F5
100
AcDbEntity
  8
Defpoints
 62
     0
440
 16777216
100
AcDbPoint
 10
1102.499979077721
 20
1485.000073709392
 30
0.0
  0
POINT
  5
15B60
330
146F5
100
AcDbEntity
  8
Defpoints
 62
     0
440
 16777216
100
AcDbPoint
 10
1102.499979077721
 20
1335.000034786937
 30
0.0
  0
ENDBLK
  5
146F7
330
146F5
100
AcDbEntity
  8
0
100
AcDbBlockEnd
  0
BLOCK
  5
14702
330
14701
100
AcDbEntity
  8
0
100
AcDbBlockBegin
  2
*D7
 70
     1
 10
0.0
 20
0.0
 30
0.0
  3
*D7
  1

  0
LINE
  5
15B61
330
14701
100
AcDbEntity
  8
寸法線
 62
     0
440
 16777216
370
    -2
100
AcDbLine
 10
593.7499441698057
 20
1845.000072006611
 30
0.0
 11
472.4999441698059
 21
1845.000072006611
 31
0.0
  0
LINE
  5
15B62
330
14701
100
AcDbEntity
  8
寸法線
 62
     0
440
 16777216
370
    -2
100
AcDbLine
 10
593.7499441698057
 20
1495.000034786938
 30
0.0
 11
472.499944169806
 21
1495.000034786937
 31
0.0
  0
LINE
  5
15B63
330
14701
100
AcDbEntity
  8
寸法線
 62
     0
440
 16777216
370
    -2
100
AcDbLine
 10
482.499944169806
 20
1825.000072006611
 30
0.0
 11
482.499944169806
 21
1515.000034786937
 31
0.0
  0
INSERT
  5
15B64
330
14701
100
AcDbEntity
  8
寸法線
 62
     0
440
 16777216
370
    -2
100
AcDbBlockReference
  2
_OPEN
 10
482.499944169806
 20
1845.000072006611
 30
0.0
 41
20.0
 42
20.0
 43
20.0
 50
90.0
  0
INSERT
  5
15B65
330
14701
100
AcDbEntity
  8
寸法線
 62
     0
440
 16777216
370
    -2
100
AcDbBlockReference
  2
_OPEN
 10
482.499944169806
 20
1495.000034786937
 30
0.0
 41
20.0
 42
20.0
 43
20.0
 50
270.0
  0
MTEXT
  5
15B66
330
14701
100
AcDbEntity
  8
寸法線
 62
     0
440
 16777216
100
AcDbMText
 10
461.2499441698063
 20
1670.000034786937
 30
0.0
 40
25.0
 41
0.0
 46
0.0
 71
     5
 72
     1
  1
\A1;350
 11
0.0000000000000001
 21
1.0
 31
0.0
 73
     1
 44
1.0
  0
POINT
  5
15B67
330
14701
100
AcDbEntity
  8
Defpoints
 62
     0
440
 16777216
100
AcDbPoint
 10
602.4999441698057
 20
1845.000072006611
 30
0.0
  0
POINT
  5
15B68
330
14701
100
AcDbEntity
  8
Defpoints
 62
     0
440
 16777216
100
AcDbPoint
 10
602.4999441698057
 20
1495.000034786938
 30
0.0
  0
POINT
  5
15B69
330
14701
100
AcDbEntity
  8
Defpoints
 62
     0
440
 16777216
100
AcDbPoint
 10
482.499944169806
 20
1495.000034786937
 30
0.0
  0
ENDBLK
  5
14703
330
14701
100
AcDbEntity
  8
0
100
AcDbBlockEnd
  0
BLOCK
  5
1470E
330
1470D
100
AcDbEntity
  8
0
100
AcDbBlockBegin
  2
*D8
 70
     1
 10
0.0
 20
0.0
 30
0.0
  3
*D8
  1

  0
LINE
  5
15A9E
330
1470D
100
AcDbEntity
  8
寸法線
 62
     0
440
 16777216
370
    -2
100
AcDbLine
 10
602.4999441698055
 20
2446.750037219678
 30
0.0
 11
602.4999441698055
 21
2614.999942832917
 31
0.0
  0
LINE
  5
15A9F
330
1470D
100
AcDbEntity
  8
寸法線
 62
     0
440
 16777216
370
    -2
100
AcDbLine
 10
618.4999639829157
 20
2453.749999999999
 30
0.0
 11
618.4999639829157
 21
2614.999942832917
 31
0.0
  0
LINE
  5
15AA0
330
1470D
100
AcDbEntity
  8
寸法線
 62
     0
440
 16777216
370
    -2
100
AcDbLine
 10
582.4999441698055
 20
2604.999942832917
 30
0.0
 11
562.4999441698055
 21
2604.999942832917
 31
0.0
  0
LINE
  5
15AA1
330
1470D
100
AcDbEntity
  8
寸法線
 62
     0
440
 16777216
370
    -2
100
AcDbLine
 10
638.4999639829157
 20
2604.999942832917
 30
0.0
 11
658.4999639829156
 21
2604.999942832917
 31
0.0
  0
LINE
  5
15AA2
330
1470D
100
AcDbEntity
  8
寸法線
 62
     0
440
 16777216
370
    -2
100
AcDbLine
 10
602.4999441698055
 20
2604.999942832917
 30
0.0
 11
618.4999639829157
 21
2604.999942832917
 31
0.0
  0
INSERT
  5
15AA3
330
1470D
100
AcDbEntity
  8
寸法線
 62
     0
440
 16777216
370
    -2
100
AcDbBlockReference
  2
_OPEN
 10
602.4999441698055
 20
2604.999942832917
 30
0.0
 41
20.0
 42
20.0
 43
20.0
  0
INSERT
  5
15AA4
330
1470D
100
AcDbEntity
  8
寸法線
 62
     0
440
 16777216
370
    -2
100
AcDbBlockReference
  2
_OPEN
 10
618.4999639829157
 20
2604.999942832917
 30
0.0
 41
20.0
 42
20.0
 43
20.0
 50
180.0
  0
MTEXT
  5
15AA5
330
1470D
100
AcDbEntity
  8
寸法線
 62
     0
440
 16777216
100
AcDbMText
 10
610.4999540763606
 20
2626.249942832917
 30
0.0
 40
25.0
 41
0.0
 46
0.0
 71
     5
 72
     1
  1
\A1;16
 73
     1
 44
1.0
  0
POINT
  5
15AA6
330
1470D
100
AcDbEntity
  8
Defpoints
 62
     0
440
 16777216
100
AcDbPoint
 10
602.4999441698055
 20
2438.000037219678
 30
0.0
  0
POINT
  5
15AA7
330
1470D
100
AcDbEntity
  8
Defpoints
 62
     0
440
 16777216
100
AcDbPoint
 10
618.4999639829157
 20
2444.999999999999
 30
0.0
  0
POINT
  5
15AA8
330
1470D
100
AcDbEntity
  8
Defpoints
 62
     0
440
 16777216
100
AcDbPoint
 10
618.4999639829157
 20
2604.999942832917
 30
0.0
  0
ENDBLK
  5
1470F
330
1470D
100
AcDbEntity
  8
0
100
AcDbBlockEnd
  0
BLOCK
  5
1471C
330
1471B
100
AcDbEntity
  8
0
100
AcDbBlockBegin
  2
*D9
 70
     1
 10
0.0
 20
0.0
 30
0.0
  3
*D9
  1

  0
LINE
  5
15AA9
330
1471B
100
AcDbEntity
  8
寸法線
 62
     0
440
 16777216
370
    -2
100
AcDbLine
 10
618.4999639829157
 20
2453.749999999999
 30
0.0
 11
618.4999639829157
 21
2614.999942832917
 31
0.0
  0
LINE
  5
15AAA
330
1471B
100
AcDbEntity
  8
寸法線
 62
     0
440
 16777216
370
    -2
100
AcDbLine
 10
1102.499979077721
 20
2463.750057167085
 30
0.0
 11
1102.499979077721
 21
2614.999942832917
 31
0.0
  0
LINE
  5
15AAB
330
1471B
100
AcDbEntity
  8
寸法線
 62
     0
440
 16777216
370
    -2
100
AcDbLine
 10
638.4999639829157
 20
2604.999942832917
 30
0.0
 11
1082.499979077721
 21
2604.999942832917
 31
0.0
  0
INSERT
  5
15AAC
330
1471B
100
AcDbEntity
  8
寸法線
 62
     0
440
 16777216
370
    -2
100
AcDbBlockReference
  2
_OPEN
 10
618.4999639829157
 20
2604.999942832917
 30
0.0
 41
20.0
 42
20.0
 43
20.0
 50
180.0
  0
INSERT
  5
15AAD
330
1471B
100
AcDbEntity
  8
寸法線
 62
     0
440
 16777216
370
    -2
100
AcDbBlockReference
  2
_OPEN
 10
1102.499979077721
 20
2604.999942832917
 30
0.0
 41
20.0
 42
20.0
 43
20.0
  0
MTEXT
  5
15AAE
330
1471B
100
AcDbEntity
  8
寸法線
 62
     0
440
 16777216
100
AcDbMText
 10
860.499971530301
 20
2626.249942832917
 30
0.0
 40
25.0
 41
0.0
 46
0.0
 71
     5
 72
     1
  1
\A1;484
 73
     1
 44
1.0
  0
POINT
  5
15AAF
330
1471B
100
AcDbEntity
  8
Defpoints
 62
     0
440
 16777216
100
AcDbPoint
 10
618.4999639829157
 20
2444.999999999999
 30
0.0
  0
POINT
  5
15AB0
330
1471B
100
AcDbEntity
  8
Defpoints
 62
     0
440
 16777216
100
AcDbPoint
 10
1102.499979077721
 20
2455.000057167085
 30
0.0
  0
POINT
  5
15AB1
330
1471B
100
AcDbEntity
  8
Defpoints
 62
     0
440
 16777216
100
AcDbPoint
 10
1102.499979077721
 20
2604.999942832917
 30
0.0
  0
ENDBLK
  5
1471D
330
1471B
100
AcDbEntity
  8
0
100
AcDbBlockEnd
  0
BLOCK
  5
14728
330
14727
100
AcDbEntity
  8
0
100
AcDbBlockBegin
  2
*D10
 70
     1
 10
0.0
 20
0.0
 30
0.0
  3
*D10
  1

  0
LINE
  5
15AB2
330
14727
100
AcDbEntity
  8
寸法線
 62
     0
440
 16777216
370
    -2
100
AcDbLine
 10
609.7499639829159
 20
2445.0
 30
0.0
 11
472.4999441698058
 21
2445.0
 31
0.0
  0
LINE
  5
15AB3
330
14727
100
AcDbEntity
  8
寸法線
 62
     0
440
 16777216
370
    -2
100
AcDbLine
 10
609.7499441698057
 20
2094.999991728964
 30
0.0
 11
472.4999441698058
 21
2094.999991728964
 31
0.0
  0
LINE
  5
15AB4
330
14727
100
AcDbEntity
  8
寸法線
 62
     0
440
 16777216
370
    -2
100
AcDbLine
 10
482.4999441698058
 20
2425.0
 30
0.0
 11
482.4999441698059
 21
2114.999991728964
 31
0.0
  0
INSERT
  5
15AB5
330
14727
100
AcDbEntity
  8
寸法線
 62
     0
440
 16777216
370
    -2
100
AcDbBlockReference
  2
_OPEN
 10
482.4999441698058
 20
2445.0
 30
0.0
 41
20.0
 42
20.0
 43
20.0
 50
90.0
  0
INSERT
  5
15AB6
330
14727
100
AcDbEntity
  8
寸法線
 62
     0
440
 16777216
370
    -2
100
AcDbBlockReference
  2
_OPEN
 10
482.4999441698059
 20
2094.999991728964
 30
0.0
 41
20.0
 42
20.0
 43
20.0
 50
270.0
  0
MTEXT
  5
15AB7
330
14727
100
AcDbEntity
  8
寸法線
 62
     0
440
 16777216
100
AcDbMText
 10
461.2499441698063
 20
2269.999999999999
 30
0.0
 40
25.0
 41
0.0
 46
0.0
 71
     5
 72
     1
  1
\A1;350
 11
0.0000000000000001
 21
1.0
 31
0.0
 73
     1
 44
1.0
  0
POINT
  5
15AB8
330
14727
100
AcDbEntity
  8
Defpoints
 62
     0
440
 16777216
100
AcDbPoint
 10
618.4999639829158
 20
2445.0
 30
0.0
  0
POINT
  5
15AB9
330
14727
100
AcDbEntity
  8
Defpoints
 62
     0
440
 16777216
100
AcDbPoint
 10
618.4999441698058
 20
2094.999991728964
 30
0.0
  0
POINT
  5
15ABA
330
14727
100
AcDbEntity
  8
Defpoints
 62
     0
440
 16777216
100
AcDbPoint
 10
482.4999441698059
 20
2094.999991728964
 30
0.0
  0
ENDBLK
  5
14729
330
14727
100
AcDbEntity
  8
0
100
AcDbBlockEnd
  0
BLOCK
  5
14734
330
14733
100
AcDbEntity
  8
0
100
AcDbBlockBegin
  2
*D11
 70
     1
 10
0.0
 20
0.0
 30
0.0
  3
*D11
  1

  0
LINE
  5
15ABB
330
14733
100
AcDbEntity
  8
寸法線
 62
     0
440
 16777216
370
    -2
100
AcDbLine
 10
2802.499944169808
 20
2446.750037219678
 30
0.0
 11
2802.499944169808
 21
2614.999942832917
 31
0.0
  0
LINE
  5
15ABC
330
14733
100
AcDbEntity
  8
寸法線
 62
     0
440
 16777216
370
    -2
100
AcDbLine
 10
2786.499924356698
 20
2453.749999999999
 30
0.0
 11
2786.499924356698
 21
2614.999942832917
 31
0.0
  0
LINE
  5
15ABD
330
14733
100
AcDbEntity
  8
寸法線
 62
     0
440
 16777216
370
    -2
100
AcDbLine
 10
2822.499944169808
 20
2604.999942832917
 30
0.0
 11
2842.499944169808
 21
2604.999942832917
 31
0.0
  0
LINE
  5
15ABE
330
14733
100
AcDbEntity
  8
寸法線
 62
     0
440
 16777216
370
    -2
100
AcDbLine
 10
2766.499924356698
 20
2604.999942832917
 30
0.0
 11
2746.499924356698
 21
2604.999942832917
 31
0.0
  0
LINE
  5
15ABF
330
14733
100
AcDbEntity
  8
寸法線
 62
     0
440
 16777216
370
    -2
100
AcDbLine
 10
2802.499944169808
 20
2604.999942832917
 30
0.0
 11
2786.499924356698
 21
2604.999942832917
 31
0.0
  0
INSERT
  5
15AC0
330
14733
100
AcDbEntity
  8
寸法線
 62
     0
440
 16777216
370
    -2
100
AcDbBlockReference
  2
_OPEN
 10
2802.499944169808
 20
2604.999942832917
 30
0.0
 41
20.0
 42
20.0
 43
20.0
 50
180.0
  0
INSERT
  5
15AC1
330
14733
100
AcDbEntity
  8
寸法線
 62
     0
440
 16777216
370
    -2
100
AcDbBlockReference
  2
_OPEN
 10
2786.499924356698
 20
2604.999942832917
 30
0.0
 41
20.0
 42
20.0
 43
20.0
  0
MTEXT
  5
15AC2
330
14733
100
AcDbEntity
  8
寸法線
 62
     0
440
 16777216
100
AcDbMText
 10
2794.499934263253
 20
2626.249942832917
 30
0.0
 40
25.0
 41
0.0
 46
0.0
 71
     5
 72
     1
  1
\A1;16
 73
     1
 44
1.0
  0
POINT
  5
15AC3
330
14733
100
AcDbEntity
  8
Defpoints
 62
     0
440
 16777216
100
AcDbPoint
 10
2802.499944169808
 20
2438.000037219678
 30
0.0
  0
POINT
  5
15AC4
330
14733
100
AcDbEntity
  8
Defpoints
 62
     0
440
 16777216
100
AcDbPoint
 10
2786.499924356698
 20
2444.999999999999
 30
0.0
  0
POINT
  5
15AC5
330
14733
100
AcDbEntity
  8
Defpoints
 62
     0
440
 16777216
100
AcDbPoint
 10
2786.499924356698
 20
2604.999942832917
 30
0.0
  0
ENDBLK
  5
14735
330
14733
100
AcDbEntity
  8
0
100
AcDbBlockEnd
  0
BLOCK
  5
14742
330
14741
100
AcDbEntity
  8
0
100
AcDbBlockBegin
  2
*D12
 70
     1
 10
0.0
 20
0.0
 30
0.0
  3
*D12
  1

  0
LINE
  5
15AC6
330
14741
100
AcDbEntity
  8
寸法線
 62
     0
440
 16777216
370
    -2
100
AcDbLine
 10
2786.499924356698
 20
2453.749999999999
 30
0.0
 11
2786.499924356698
 21
2614.999942832917
 31
0.0
  0
LINE
  5
15AC7
330
14741
100
AcDbEntity
  8
寸法線
 62
     0
440
 16777216
370
    -2
100
AcDbLine
 10
2302.499909261894
 20
2463.750057167085
 30
0.0
 11
2302.499909261894
 21
2614.999942832917
 31
0.0
  0
LINE
  5
15AC8
330
14741
100
AcDbEntity
  8
寸法線
 62
     0
440
 16777216
370
    -2
100
AcDbLine
 10
2766.499924356698
 20
2604.999942832917
 30
0.0
 11
2322.499909261894
 21
2604.999942832917
 31
0.0
  0
INSERT
  5
15AC9
330
14741
100
AcDbEntity
  8
寸法線
 62
     0
440
 16777216
370
    -2
100
AcDbBlockReference
  2
_OPEN
 10
2786.499924356698
 20
2604.999942832917
 30
0.0
 41
20.0
 42
20.0
 43
20.0
  0
INSERT
  5
15ACA
330
14741
100
AcDbEntity
  8
寸法線
 62
     0
440
 16777216
370
    -2
100
AcDbBlockReference
  2
_OPEN
 10
2302.499909261894
 20
2604.999942832917
 30
0.0
 41
20.0
 42
20.0
 43
20.0
 50
180.0
  0
MTEXT
  5
15ACB
330
14741
100
AcDbEntity
  8
寸法線
 62
     0
440
 16777216
100
AcDbMText
 10
2544.499916809296
 20
2626.249942832917
 30
0.0
 40
25.0
 41
0.0
 46
0.0
 71
     5
 72
     1
  1
\A1;484
 73
     1
 44
1.0
  0
POINT
  5
15ACC
330
14741
100
AcDbEntity
  8
Defpoints
 62
     0
440
 16777216
100
AcDbPoint
 10
2786.499924356698
 20
2444.999999999999
 30
0.0
  0
POINT
  5
15ACD
330
14741
100
AcDbEntity
  8
Defpoints
 62
     0
440
 16777216
100
AcDbPoint
 10
2302.499909261894
 20
2455.000057167085
 30
0.0
  0
POINT
  5
15ACE
330
14741
100
AcDbEntity
  8
Defpoints
 62
     0
440
 16777216
100
AcDbPoint
 10
2302.499909261894
 20
2604.999942832917
 30
0.0
  0
ENDBLK
  5
14743
330
14741
100
AcDbEntity
  8
0
100
AcDbBlockEnd
  0
BLOCK
  5
1474E
330
1474D
100
AcDbEntity
  8
0
100
AcDbBlockBegin
  2
*D13
 70
     1
 10
0.0
 20
0.0
 30
0.0
  3
*D13
  1

  0
LINE
  5
15ACF
330
1474D
100
AcDbEntity
  8
寸法線
 62
     0
440
 16777216
370
    -2
100
AcDbLine
 10
602.4999441698055
 20
2446.750037219678
 30
0.0
 11
602.4999441698055
 21
2694.999942832917
 31
0.0
  0
LINE
  5
15AD0
330
1474D
100
AcDbEntity
  8
寸法線
 62
     0
440
 16777216
370
    -2
100
AcDbLine
 10
1102.499979077721
 20
2463.750057167085
 30
0.0
 11
1102.499979077721
 21
2694.999942832917
 31
0.0
  0
LINE
  5
15AD1
330
1474D
100
AcDbEntity
  8
寸法線
 62
     0
440
 16777216
370
    -2
100
AcDbLine
 10
622.4999441698055
 20
2684.999942832917
 30
0.0
 11
1082.499979077721
 21
2684.999942832917
 31
0.0
  0
INSERT
  5
15AD2
330
1474D
100
AcDbEntity
  8
寸法線
 62
     0
440
 16777216
370
    -2
100
AcDbBlockReference
  2
_OPEN
 10
602.4999441698055
 20
2684.999942832917
 30
0.0
 41
20.0
 42
20.0
 43
20.0
 50
180.0
  0
INSERT
  5
15AD3
330
1474D
100
AcDbEntity
  8
寸法線
 62
     0
440
 16777216
370
    -2
100
AcDbBlockReference
  2
_OPEN
 10
1102.499979077721
 20
2684.999942832917
 30
0.0
 41
20.0
 42
20.0
 43
20.0
  0
MTEXT
  5
15AD4
330
1474D
100
AcDbEntity
  8
寸法線
 62
     0
440
 16777216
100
AcDbMText
 10
852.4999616237629
 20
2706.249942832917
 30
0.0
 40
25.0
 41
0.0
 46
0.0
 71
     5
 72
     1
  1
\A1;500
 73
     1
 44
1.0
  0
MTEXT
  5
15AD5
330
1474D
100
AcDbEntity
  8
寸法線
 62
     0
440
 16777216
100
AcDbMText
 10
852.4999616237629
 20
2663.749942832917
 30
0.0
 40
25.0
 41
0.0
 46
0.0
 71
     5
 72
     1
  1
\A1;H型鋼（連結部）
 73
     1
 44
1.0
  0
POINT
  5
15AD6
330
1474D
100
AcDbEntity
  8
Defpoints
 62
     0
440
 16777216
100
AcDbPoint
 10
602.4999441698055
 20
2438.000037219678
 30
0.0
  0
POINT
  5
15AD7
330
1474D
100
AcDbEntity
  8
Defpoints
 62
     0
440
 16777216
100
AcDbPoint
 10
1102.499979077721
 20
2455.000057167085
 30
0.0
  0
POINT
  5
15AD8
330
1474D
100
AcDbEntity
  8
Defpoints
 62
     0
440
 16777216
100
AcDbPoint
 10
1102.499979077721
 20
2684.999942832917
 30
0.0
  0
ENDBLK
  5
1474F
330
1474D
100
AcDbEntity
  8
0
100
AcDbBlockEnd
  0
BLOCK
  5
1475B
330
1475A
100
AcDbEntity
  8
0
100
AcDbBlockBegin
  2
*D14
 70
     1
 10
0.0
 20
0.0
 30
0.0
  3
*D14
  1

  0
LINE
  5
15AD9
330
1475A
100
AcDbEntity
  8
寸法線
 62
     0
440
 16777216
370
    -2
100
AcDbLine
 10
2302.499909261894
 20
2463.750057167085
 30
0.0
 11
2302.499909261894
 21
2694.999942832917
 31
0.0
  0
LINE
  5
15ADA
330
1475A
100
AcDbEntity
  8
寸法線
 62
     0
440
 16777216
370
    -2
100
AcDbLine
 10
2802.499944169808
 20
2446.750037219678
 30
0.0
 11
2802.499944169808
 21
2694.999942832917
 31
0.0
  0
LINE
  5
15ADB
330
1475A
100
AcDbEntity
  8
寸法線
 62
     0
440
 16777216
370
    -2
100
AcDbLine
 10
2322.499909261894
 20
2684.999942832917
 30
0.0
 11
2782.499944169808
 21
2684.999942832917
 31
0.0
  0
INSERT
  5
15ADC
330
1475A
100
AcDbEntity
  8
寸法線
 62
     0
440
 16777216
370
    -2
100
AcDbBlockReference
  2
_OPEN
 10
2302.499909261894
 20
2684.999942832917
 30
0.0
 41
20.0
 42
20.0
 43
20.0
 50
180.0
  0
INSERT
  5
15ADD
330
1475A
100
AcDbEntity
  8
寸法線
 62
     0
440
 16777216
370
    -2
100
AcDbBlockReference
  2
_OPEN
 10
2802.499944169808
 20
2684.999942832917
 30
0.0
 41
20.0
 42
20.0
 43
20.0
  0
MTEXT
  5
15ADE
330
1475A
100
AcDbEntity
  8
寸法線
 62
     0
440
 16777216
100
AcDbMText
 10
2552.499926715851
 20
2706.249942832917
 30
0.0
 40
25.0
 41
0.0
 46
0.0
 71
     5
 72
     1
  1
\A1;500
 73
     1
 44
1.0
  0
MTEXT
  5
15ADF
330
1475A
100
AcDbEntity
  8
寸法線
 62
     0
440
 16777216
100
AcDbMText
 10
2552.499926715851
 20
2663.749942832917
 30
0.0
 40
25.0
 41
0.0
 46
0.0
 71
     5
 72
     1
  1
\A1;H型鋼（連結部）
 73
     1
 44
1.0
  0
POINT
  5
15AE0
330
1475A
100
AcDbEntity
  8
Defpoints
 62
     0
440
 16777216
100
AcDbPoint
 10
2302.499909261894
 20
2455.000057167085
 30
0.0
  0
POINT
  5
15AE1
330
1475A
100
AcDbEntity
  8
Defpoints
 62
     0
440
 16777216
100
AcDbPoint
 10
2802.499944169808
 20
2438.000037219678
 30
0.0
  0
POINT
  5
15AE2
330
1475A
100
AcDbEntity
  8
Defpoints
 62
     0
440
 16777216
100
AcDbPoint
 10
2802.499944169808
 20
2684.999942832917
 30
0.0
  0
ENDBLK
  5
1475C
330
1475A
100
AcDbEntity
  8
0
100
AcDbBlockEnd
  0
BLOCK
  5
14768
330
14767
100
AcDbEntity
  8
0
100
AcDbBlockBegin
  2
*D15
 70
     1
 10
0.0
 20
0.0
 30
0.0
  3
*D15
  1

  0
LINE
  5
15AE3
330
14767
100
AcDbEntity
  8
寸法線
 62
     0
440
 16777216
370
    -2
100
AcDbLine
 10
2811.249944169809
 20
2438.000037219679
 30
0.0
 11
2932.499963982916
 21
2438.000037219679
 31
0.0
  0
LINE
  5
15AE4
330
14767
100
AcDbEntity
  8
寸法線
 62
     0
440
 16777216
370
    -2
100
AcDbLine
 10
2811.249944169809
 20
2101.999962780326
 30
0.0
 11
2932.499963982916
 21
2101.999962780326
 31
0.0
  0
LINE
  5
15AE5
330
14767
100
AcDbEntity
  8
寸法線
 62
     0
440
 16777216
370
    -2
100
AcDbLine
 10
2922.499963982916
 20
2418.000037219679
 30
0.0
 11
2922.499963982916
 21
2121.999962780326
 31
0.0
  0
INSERT
  5
15AE6
330
14767
100
AcDbEntity
  8
寸法線
 62
     0
440
 16777216
370
    -2
100
AcDbBlockReference
  2
_OPEN
 10
2922.499963982916
 20
2438.000037219679
 30
0.0
 41
20.0
 42
20.0
 43
20.0
 50
90.0
  0
INSERT
  5
15AE7
330
14767
100
AcDbEntity
  8
寸法線
 62
     0
440
 16777216
370
    -2
100
AcDbBlockReference
  2
_OPEN
 10
2922.499963982916
 20
2101.999962780326
 30
0.0
 41
20.0
 42
20.0
 43
20.0
 50
270.0
  0
MTEXT
  5
15AE8
330
14767
100
AcDbEntity
  8
寸法線
 62
     0
440
 16777216
100
AcDbMText
 10
2901.249963982916
 20
2269.999999999999
 30
0.0
 40
25.0
 41
0.0
 46
0.0
 71
     5
 72
     1
  1
\A1;336
 11
0.0000000000000001
 21
1.0
 31
0.0
 73
     1
 44
1.0
  0
POINT
  5
15AE9
330
14767
100
AcDbEntity
  8
Defpoints
 62
     0
440
 16777216
100
AcDbPoint
 10
2802.499944169809
 20
2438.000037219679
 30
0.0
  0
POINT
  5
15AEA
330
14767
100
AcDbEntity
  8
Defpoints
 62
     0
440
 16777216
100
AcDbPoint
 10
2802.499944169809
 20
2101.999962780326
 30
0.0
  0
POINT
  5
15AEB
330
14767
100
AcDbEntity
  8
Defpoints
 62
     0
440
 16777216
100
AcDbPoint
 10
2922.499963982916
 20
2101.999962780326
 30
0.0
  0
ENDBLK
  5
14769
330
14767
100
AcDbEntity
  8
0
100
AcDbBlockEnd
  0
BLOCK
  5
14774
330
14773
100
AcDbEntity
  8
0
100
AcDbBlockBegin
  2
*D16
 70
     1
 10
0.0
 20
0.0
 30
0.0
  3
*D16
  1

  0
LINE
  5
15B6A
330
14773
100
AcDbEntity
  8
寸法線
 62
     0
440
 16777216
370
    -2
100
AcDbLine
 10
2802.49997910137
 20
1486.250003751649
 30
0.0
 11
2802.49997547486
 21
1325.000023541953
 31
0.0
  0
LINE
  5
15B6B
330
14773
100
AcDbEntity
  8
寸法線
 62
     0
440
 16777216
370
    -2
100
AcDbLine
 10
2302.499978880931
 20
1476.250036489718
 30
0.0
 11
2302.49997547932
 21
1325.000034786946
 31
0.0
  0
LINE
  5
15B6C
330
14773
100
AcDbEntity
  8
寸法線
 62
     0
440
 16777216
370
    -2
100
AcDbLine
 10
2782.49997569976
 20
1335.000023991753
 30
0.0
 11
2322.49997570422
 21
1335.000034337146
 31
0.0
  0
INSERT
  5
15B6D
330
14773
100
AcDbEntity
  8
寸法線
 62
     0
440
 16777216
370
    -2
100
AcDbBlockReference
  2
_OPEN
 10
2802.49997569976
 20
1335.000023541953
 30
0.0
 41
20.0
 42
20.0
 43
20.0
 50
359.9999987114188
  0
INSERT
  5
15B6E
330
14773
100
AcDbEntity
  8
寸法線
 62
     0
440
 16777216
370
    -2
100
AcDbBlockReference
  2
_OPEN
 10
2302.49997570422
 20
1335.000034786945
 30
0.0
 41
20.0
 42
20.0
 43
20.0
 50
179.9999987114188
  0
MTEXT
  5
15B6F
330
14773
100
AcDbEntity
  8
寸法線
 62
     0
440
 16777216
100
AcDbMText
 10
2552.499976179902
 20
1356.250029164449
 30
0.0
 40
25.0
 41
0.0
 46
0.0
 71
     5
 72
     1
  1
\A1;500
 11
0.9999999999999998
 21
-0.000000022489985
 31
0.0
 73
     1
 44
1.0
  0
POINT
  5
15B70
330
14773
100
AcDbEntity
  8
Defpoints
 62
     0
440
 16777216
100
AcDbPoint
 10
2802.499979298157
 20
1495.000003751649
 30
0.0
  0
POINT
  5
15B71
330
14773
100
AcDbEntity
  8
Defpoints
 62
     0
440
 16777216
100
AcDbPoint
 10
2302.499979077718
 20
1485.000036489718
 30
0.0
  0
POINT
  5
15B72
330
14773
100
AcDbEntity
  8
Defpoints
 62
     0
440
 16777216
100
AcDbPoint
 10
2302.49997570422
 20
1335.000034786945
 30
0.0
  0
ENDBLK
  5
14775
330
14773
100
AcDbEntity
  8
0
100
AcDbBlockEnd
  0
BLOCK
  5
14780
330
1477F
100
AcDbEntity
  8
0
100
AcDbBlockBegin
  2
*D17
 70
     1
 10
0.0
 20
0.0
 30
0.0
  3
*D17
  1

  0
LINE
  5
15AF5
330
1477F
100
AcDbEntity
  8
寸法線
 62
     0
440
 16777216
370
    -2
100
AcDbLine
 10
1102.499979077718
 20
2463.749999999999
 30
0.0
 11
1102.499979077718
 21
2694.999942832917
 31
0.0
  0
LINE
  5
15AF6
330
1477F
100
AcDbEntity
  8
寸法線
 62
     0
440
 16777216
370
    -2
100
AcDbLine
 10
2302.499979077718
 20
2463.750001702781
 30
0.0
 11
2302.499979077718
 21
2694.999942832917
 31
0.0
  0
LINE
  5
15AF7
330
1477F
100
AcDbEntity
  8
寸法線
 62
     0
440
 16777216
370
    -2
100
AcDbLine
 10
1122.499979077718
 20
2684.999942832917
 30
0.0
 11
2282.499979077718
 21
2684.999942832917
 31
0.0
  0
INSERT
  5
15AF8
330
1477F
100
AcDbEntity
  8
寸法線
 62
     0
440
 16777216
370
    -2
100
AcDbBlockReference
  2
_OPEN
 10
1102.499979077718
 20
2684.999942832917
 30
0.0
 41
20.0
 42
20.0
 43
20.0
 50
180.0
  0
INSERT
  5
15AF9
330
1477F
100
AcDbEntity
  8
寸法線
 62
     0
440
 16777216
370
    -2
100
AcDbBlockReference
  2
_OPEN
 10
2302.499979077718
 20
2684.999942832917
 30
0.0
 41
20.0
 42
20.0
 43
20.0
  0
MTEXT
  5
15AFA
330
1477F
100
AcDbEntity
  8
寸法線
 62
     0
440
 16777216
100
AcDbMText
 10
1702.499979077718
 20
2706.252403462838
 30
0.0
 40
25.0
 41
0.0
 46
0.0
 71
     5
 72
     1
  1
\A1;W=1200
 73
     1
 44
1.0
  0
MTEXT
  5
15AFB
330
1477F
100
AcDbEntity
  8
寸法線
 62
     0
440
 16777216
100
AcDbMText
 10
1702.499979077718
 20
2663.749942832917
 30
0.0
 40
25.0
 41
0.0
 46
0.0
 71
     5
 72
     1
  1
\A1;空洞金具
 73
     1
 44
1.0
  0
POINT
  5
15AFC
330
1477F
100
AcDbEntity
  8
Defpoints
 62
     0
440
 16777216
100
AcDbPoint
 10
1102.499979077718
 20
2454.999999999999
 30
0.0
  0
POINT
  5
15AFD
330
1477F
100
AcDbEntity
  8
Defpoints
 62
     0
440
 16777216
100
AcDbPoint
 10
2302.499979077718
 20
2455.000001702781
 30
0.0
  0
POINT
  5
15AFE
330
1477F
100
AcDbEntity
  8
Defpoints
 62
     0
440
 16777216
100
AcDbPoint
 10
2302.499979077718
 20
2684.999942832917
 30
0.0
  0
ENDBLK
  5
14781
330
1477F
100
AcDbEntity
  8
0
100
AcDbBlockEnd
  0
BLOCK
  5
1478D
330
1478C
100
AcDbEntity
  8
0
100
AcDbBlockBegin
  2
*D18
 70
     1
 10
0.0
 20
0.0
 30
0.0
  3
*D18
  1

  0
LINE
  5
15AFF
330
1478C
100
AcDbEntity
  8
寸法線
 62
     0
440
 16777216
370
    -2
100
AcDbLine
 10
602.4999441698055
 20
2446.750037219678
 30
0.0
 11
602.4999441698055
 21
2774.999942832917
 31
0.0
  0
LINE
  5
15B00
330
1478C
100
AcDbEntity
  8
寸法線
 62
     0
440
 16777216
370
    -2
100
AcDbLine
 10
2802.499944169808
 20
2446.750037219678
 30
0.0
 11
2802.499944169808
 21
2774.999942832917
 31
0.0
  0
LINE
  5
15B01
330
1478C
100
AcDbEntity
  8
寸法線
 62
     0
440
 16777216
370
    -2
100
AcDbLine
 10
622.4999441698055
 20
2764.999942832917
 30
0.0
 11
2782.499944169808
 21
2764.999942832917
 31
0.0
  0
INSERT
  5
15B02
330
1478C
100
AcDbEntity
  8
寸法線
 62
     0
440
 16777216
370
    -2
100
AcDbBlockReference
  2
_OPEN
 10
602.4999441698055
 20
2764.999942832917
 30
0.0
 41
20.0
 42
20.0
 43
20.0
 50
180.0
  0
INSERT
  5
15B03
330
1478C
100
AcDbEntity
  8
寸法線
 62
     0
440
 16777216
370
    -2
100
AcDbBlockReference
  2
_OPEN
 10
2802.499944169808
 20
2764.999942832917
 30
0.0
 41
20.0
 42
20.0
 43
20.0
  0
MTEXT
  5
15B04
330
1478C
100
AcDbEntity
  8
寸法線
 62
     0
440
 16777216
100
AcDbMText
 10
1702.499944169806
 20
2786.252403462838
 30
0.0
 40
25.0
 41
0.0
 46
0.0
 71
     5
 72
     1
  1
\A1;スルーサーＢ L=2200
 73
     1
 44
1.0
  0
POINT
  5
15B05
330
1478C
100
AcDbEntity
  8
Defpoints
 62
     0
440
 16777216
100
AcDbPoint
 10
602.4999441698055
 20
2438.000037219678
 30
0.0
  0
POINT
  5
15B06
330
1478C
100
AcDbEntity
  8
Defpoints
 62
     0
440
 16777216
100
AcDbPoint
 10
2802.499944169808
 20
2438.000037219678
 30
0.0
  0
POINT
  5
15B07
330
1478C
100
AcDbEntity
  8
Defpoints
 62
     0
440
 16777216
100
AcDbPoint
 10
2802.499944169808
 20
2764.999942832917
 30
0.0
  0
ENDBLK
  5
1478E
330
1478C
100
AcDbEntity
  8
0
100
AcDbBlockEnd
  0
BLOCK
  5
14799
330
14798
100
AcDbEntity
  8
0
100
AcDbBlockBegin
  2
*D19
 70
     1
 10
0.0
 20
0.0
 30
0.0
  3
*D19
  1

  0
LINE
  5
15B73
330
14798
100
AcDbEntity
  8
寸法線
 62
     0
440
 16777216
370
    -2
100
AcDbLine
 10
2311.249979077719
 20
1495.000090609425
 30
0.0
 11
2492.499994172522
 21
1495.000090609425
 31
0.0
  0
LINE
  5
15B74
330
14798
100
AcDbEntity
  8
寸法線
 62
     0
440
 16777216
370
    -2
100
AcDbLine
 10
2419.24997907772
 20
1522.500014936929
 30
0.0
 11
2492.499994172522
 21
1522.500014936929
 31
0.0
  0
LINE
  5
15B75
330
14798
100
AcDbEntity
  8
寸法線
 62
     0
440
 16777216
370
    -2
100
AcDbLine
 10
2482.499994172522
 20
1475.000090609425
 30
0.0
 11
2482.499994172522
 21
1455.000090609425
 31
0.0
  0
LINE
  5
15B76
330
14798
100
AcDbEntity
  8
寸法線
 62
     0
440
 16777216
370
    -2
100
AcDbLine
 10
2482.499994172522
 20
1542.500014936929
 30
0.0
 11
2482.499994172522
 21
1562.500014936929
 31
0.0
  0
LINE
  5
15B77
330
14798
100
AcDbEntity
  8
寸法線
 62
     0
440
 16777216
370
    -2
100
AcDbLine
 10
2482.499994172522
 20
1495.000090609425
 30
0.0
 11
2482.499994172522
 21
1522.500014936929
 31
0.0
  0
INSERT
  5
15B78
330
14798
100
AcDbEntity
  8
寸法線
 62
     0
440
 16777216
370
    -2
100
AcDbBlockReference
  2
_OPEN
 10
2482.499994172522
 20
1495.000090609425
 30
0.0
 41
20.0
 42
20.0
 43
20.0
 50
90.0
  0
INSERT
  5
15B79
330
14798
100
AcDbEntity
  8
寸法線
 62
     0
440
 16777216
370
    -2
100
AcDbBlockReference
  2
_OPEN
 10
2482.499994172522
 20
1522.500014936929
 30
0.0
 41
20.0
 42
20.0
 43
20.0
 50
270.0
  0
MTEXT
  5
15B7A
330
14798
100
AcDbEntity
  8
寸法線
 62
     0
440
 16777216
100
AcDbMText
 10
2461.247533542601
 20
1508.750052773176
 30
0.0
 40
25.0
 41
0.0
 46
0.0
 71
     5
 72
     1
  1
\A1;27.5
 11
0.0000000000000001
 21
1.0
 31
0.0
 73
     1
 44
1.0
  0
POINT
  5
15B7B
330
14798
100
AcDbEntity
  8
Defpoints
 62
     0
440
 16777216
100
AcDbPoint
 10
2302.499979077719
 20
1495.000090609425
 30
0.0
  0
POINT
  5
15B7C
330
14798
100
AcDbEntity
  8
Defpoints
 62
     0
440
 16777216
100
AcDbPoint
 10
2410.49997907772
 20
1522.500014936929
 30
0.0
  0
POINT
  5
15B7D
330
14798
100
AcDbEntity
  8
Defpoints
 62
     0
440
 16777216
100
AcDbPoint
 10
2482.499994172522
 20
1522.500014936929
 30
0.0
  0
ENDBLK
  5
1479A
330
14798
100
AcDbEntity
  8
0
100
AcDbBlockEnd
  0
BLOCK
  5
147A7
330
147A6
100
AcDbEntity
  8
0
100
AcDbBlockBegin
  2
*D20
 70
     1
 10
0.0
 20
0.0
 30
0.0
  3
*D20
  1

  0
LINE
  5
15B7E
330
147A6
100
AcDbEntity
  8
寸法線
 62
     0
440
 16777216
370
    -2
100
AcDbLine
 10
2411.249994172523
 20
1825.50001581189
 30
0.0
 11
2492.499994172522
 21
1825.50001581189
 31
0.0
  0
LINE
  5
15B7F
330
147A6
100
AcDbEntity
  8
寸法線
 62
     0
440
 16777216
370
    -2
100
AcDbLine
 10
2411.249994172523
 20
1809.50001581189
 30
0.0
 11
2492.499994172522
 21
1809.50001581189
 31
0.0
  0
LINE
  5
15B80
330
147A6
100
AcDbEntity
  8
寸法線
 62
     0
440
 16777216
370
    -2
100
AcDbLine
 10
2482.499994172522
 20
1845.50001581189
 30
0.0
 11
2482.499994172522
 21
1865.50001581189
 31
0.0
  0
LINE
  5
15B81
330
147A6
100
AcDbEntity
  8
寸法線
 62
     0
440
 16777216
370
    -2
100
AcDbLine
 10
2482.499994172522
 20
1789.50001581189
 30
0.0
 11
2482.499994172522
 21
1769.50001581189
 31
0.0
  0
LINE
  5
15B82
330
147A6
100
AcDbEntity
  8
寸法線
 62
     0
440
 16777216
370
    -2
100
AcDbLine
 10
2482.499994172522
 20
1825.50001581189
 30
0.0
 11
2482.499994172522
 21
1809.50001581189
 31
0.0
  0
INSERT
  5
15B83
330
147A6
100
AcDbEntity
  8
寸法線
 62
     0
440
 16777216
370
    -2
100
AcDbBlockReference
  2
_OPEN
 10
2482.499994172522
 20
1825.50001581189
 30
0.0
 41
20.0
 42
20.0
 43
20.0
 50
270.0
  0
INSERT
  5
15B84
330
147A6
100
AcDbEntity
  8
寸法線
 62
     0
440
 16777216
370
    -2
100
AcDbBlockReference
  2
_OPEN
 10
2482.499994172522
 20
1809.50001581189
 30
0.0
 41
20.0
 42
20.0
 43
20.0
 50
90.0
  0
MTEXT
  5
15B85
330
147A6
100
AcDbEntity
  8
寸法線
 62
     0
440
 16777216
100
AcDbMText
 10
2461.249994172522
 20
1817.500015811889
 30
0.0
 40
25.0
 41
0.0
 46
0.0
 71
     5
 72
     1
  1
\A1;16
 11
0.0000000000000001
 21
1.0
 31
0.0
 73
     1
 44
1.0
  0
POINT
  5
15B86
330
147A6
100
AcDbEntity
  8
Defpoints
 62
     0
440
 16777216
100
AcDbPoint
 10
2402.499994172523
 20
1825.50001581189
 30
0.0
  0
POINT
  5
15B87
330
147A6
100
AcDbEntity
  8
Defpoints
 62
     0
440
 16777216
100
AcDbPoint
 10
2402.499994172523
 20
1809.50001581189
 30
0.0
  0
POINT
  5
15B88
330
147A6
100
AcDbEntity
  8
Defpoints
 62
     0
440
 16777216
100
AcDbPoint
 10
2482.499994172522
 20
1809.50001581189
 30
0.0
  0
ENDBLK
  5
147A8
330
147A6
100
AcDbEntity
  8
0
100
AcDbBlockEnd
  0
BLOCK
  5
14D9A
330
14D99
100
AcDbEntity
  8
0
100
AcDbBlockBegin
  2
*D21
 70
     1
 10
0.0
 20
0.0
 30
0.0
  3
*D21
  1

  0
LINE
  5
15460
330
14D99
100
AcDbEntity
  8
寸法線
 62
     0
440
 16777216
370
    -2
100
AcDbLine
 10
2816.220494989048
 20
655.0000551724682
 30
0.0
 11
2937.470494989048
 21
655.0000551724682
 31
0.0
  0
LINE
  5
15461
330
14D99
100
AcDbEntity
  8
寸法線
 62
     0
440
 16777216
370
    -2
100
AcDbLine
 10
2831.220411838881
 20
692.5000369278587
 30
0.0
 11
2937.470494989048
 21
692.5000369278587
 31
0.0
  0
LINE
  5
15462
330
14D99
100
AcDbEntity
  8
寸法線
 62
     0
440
 16777216
370
    -2
100
AcDbLine
 10
2927.470494989048
 20
635.0000551724682
 30
0.0
 11
2927.470494989048
 21
615.0000551724682
 31
0.0
  0
LINE
  5
15463
330
14D99
100
AcDbEntity
  8
寸法線
 62
     0
440
 16777216
370
    -2
100
AcDbLine
 10
2927.470494989048
 20
712.5000369278589
 30
0.0
 11
2927.470494989048
 21
732.5000369278589
 31
0.0
  0
LINE
  5
15464
330
14D99
100
AcDbEntity
  8
寸法線
 62
     0
440
 16777216
370
    -2
100
AcDbLine
 10
2927.470494989048
 20
655.0000551724682
 30
0.0
 11
2927.470494989048
 21
692.5000369278587
 31
0.0
  0
INSERT
  5
15465
330
14D99
100
AcDbEntity
  8
寸法線
 62
     0
440
 16777216
370
    -2
100
AcDbBlockReference
  2
_OPEN
 10
2927.470494989048
 20
655.0000551724682
 30
0.0
 41
20.0
 42
20.0
 43
20.0
 50
90.0
  0
INSERT
  5
15466
330
14D99
100
AcDbEntity
  8
寸法線
 62
     0
440
 16777216
370
    -2
100
AcDbBlockReference
  2
_OPEN
 10
2927.470494989048
 20
692.5000369278587
 30
0.0
 41
20.0
 42
20.0
 43
20.0
 50
270.0
  0
MTEXT
  5
15467
330
14D99
100
AcDbEntity
  8
寸法線
 62
     0
440
 16777216
100
AcDbMText
 10
2906.220494989048
 20
673.7500460501625
 30
0.0
 40
25.0
 41
0.0
 46
0.0
 71
     5
 72
     1
  1
\A1;37.5
 11
0.0000000000000001
 21
1.0
 31
0.0
 73
     1
 44
1.0
  0
POINT
  5
15468
330
14D99
100
AcDbEntity
  8
Defpoints
 62
     0
440
 16777216
100
AcDbPoint
 10
2807.470494989049
 20
655.0000551724681
 30
0.0
  0
POINT
  5
15469
330
14D99
100
AcDbEntity
  8
Defpoints
 62
     0
440
 16777216
100
AcDbPoint
 10
2822.470411838882
 20
692.5000369278587
 30
0.0
  0
POINT
  5
1546A
330
14D99
100
AcDbEntity
  8
Defpoints
 62
     0
440
 16777216
100
AcDbPoint
 10
2927.470494989048
 20
692.5000369278587
 30
0.0
  0
ENDBLK
  5
14D9B
330
14D99
100
AcDbEntity
  8
0
100
AcDbBlockEnd
  0
BLOCK
  5
14DA8
330
14DA7
100
AcDbEntity
  8
0
100
AcDbBlockBegin
  2
*D22
 70
     1
 10
0.0
 20
0.0
 30
0.0
  3
*D22
  1

  0
LINE
  5
1546B
330
14DA7
100
AcDbEntity
  8
寸法線
 62
     0
440
 16777216
370
    -2
100
AcDbLine
 10
2769.97041183888
 20
631.2500369278588
 30
0.0
 11
2769.97041183888
 21
525.0000551724679
 31
0.0
  0
LINE
  5
1546C
330
14DA7
100
AcDbEntity
  8
寸法線
 62
     0
440
 16777216
370
    -2
100
AcDbLine
 10
2807.470494989047
 20
646.2500551724679
 30
0.0
 11
2807.470494989047
 21
525.0000551724679
 31
0.0
  0
LINE
  5
1546D
330
14DA7
100
AcDbEntity
  8
寸法線
 62
     0
440
 16777216
370
    -2
100
AcDbLine
 10
2749.97041183888
 20
535.0000551724678
 30
0.0
 11
2729.97041183888
 21
535.0000551724678
 31
0.0
  0
LINE
  5
1546E
330
14DA7
100
AcDbEntity
  8
寸法線
 62
     0
440
 16777216
370
    -2
100
AcDbLine
 10
2827.470494989047
 20
535.0000551724678
 30
0.0
 11
2847.470494989048
 21
535.0000551724678
 31
0.0
  0
LINE
  5
1546F
330
14DA7
100
AcDbEntity
  8
寸法線
 62
     0
440
 16777216
370
    -2
100
AcDbLine
 10
2769.97041183888
 20
535.0000551724678
 30
0.0
 11
2807.470494989047
 21
535.0000551724678
 31
0.0
  0
INSERT
  5
15470
330
14DA7
100
AcDbEntity
  8
寸法線
 62
     0
440
 16777216
370
    -2
100
AcDbBlockReference
  2
_OPEN
 10
2769.97041183888
 20
535.0000551724678
 30
0.0
 41
20.0
 42
20.0
 43
20.0
  0
INSERT
  5
15471
330
14DA7
100
AcDbEntity
  8
寸法線
 62
     0
440
 16777216
370
    -2
100
AcDbBlockReference
  2
_OPEN
 10
2807.470494989047
 20
535.0000551724678
 30
0.0
 41
20.0
 42
20.0
 43
20.0
 50
180.0
  0
MTEXT
  5
15472
330
14DA7
100
AcDbEntity
  8
寸法線
 62
     0
440
 16777216
100
AcDbMText
 10
2788.720453413964
 20
556.2500551724679
 30
0.0
 40
25.0
 41
0.0
 46
0.0
 71
     5
 72
     1
  1
\A1;37.5
 73
     1
 44
1.0
  0
POINT
  5
15473
330
14DA7
100
AcDbEntity
  8
Defpoints
 62
     0
440
 16777216
100
AcDbPoint
 10
2769.97041183888
 20
640.0000369278586
 30
0.0
  0
POINT
  5
15474
330
14DA7
100
AcDbEntity
  8
Defpoints
 62
     0
440
 16777216
100
AcDbPoint
 10
2807.470494989047
 20
655.0000551724679
 30
0.0
  0
POINT
  5
15475
330
14DA7
100
AcDbEntity
  8
Defpoints
 62
     0
440
 16777216
100
AcDbPoint
 10
2807.470494989047
 20
535.0000551724678
 30
0.0
  0
ENDBLK
  5
14DA9
330
14DA7
100
AcDbEntity
  8
0
100
AcDbBlockEnd
  0
BLOCK
  5
14DB6
330
14DB5
100
AcDbEntity
  8
0
100
AcDbBlockBegin
  2
*D23
 70
     1
 10
0.0
 20
0.0
 30
0.0
  3
*D23
  1

  0
LINE
  5
15476
330
14DB5
100
AcDbEntity
  8
寸法線
 62
     0
440
 16777216
370
    -2
100
AcDbLine
 10
2474.97041183888
 20
631.2500369278588
 30
0.0
 11
2474.97041183888
 21
525.0000551724679
 31
0.0
  0
LINE
  5
15477
330
14DB5
100
AcDbEntity
  8
寸法線
 62
     0
440
 16777216
370
    -2
100
AcDbLine
 10
2437.470528688722
 20
646.2500551724679
 30
0.0
 11
2437.470528688722
 21
525.0000551724679
 31
0.0
  0
LINE
  5
15478
330
14DB5
100
AcDbEntity
  8
寸法線
 62
     0
440
 16777216
370
    -2
100
AcDbLine
 10
2494.97041183888
 20
535.0000551724678
 30
0.0
 11
2514.97041183888
 21
535.0000551724678
 31
0.0
  0
LINE
  5
15479
330
14DB5
100
AcDbEntity
  8
寸法線
 62
     0
440
 16777216
370
    -2
100
AcDbLine
 10
2417.470528688722
 20
535.0000551724678
 30
0.0
 11
2397.470528688722
 21
535.0000551724678
 31
0.0
  0
LINE
  5
1547A
330
14DB5
100
AcDbEntity
  8
寸法線
 62
     0
440
 16777216
370
    -2
100
AcDbLine
 10
2474.97041183888
 20
535.0000551724678
 30
0.0
 11
2437.470528688722
 21
535.0000551724678
 31
0.0
  0
INSERT
  5
1547B
330
14DB5
100
AcDbEntity
  8
寸法線
 62
     0
440
 16777216
370
    -2
100
AcDbBlockReference
  2
_OPEN
 10
2474.97041183888
 20
535.0000551724678
 30
0.0
 41
20.0
 42
20.0
 43
20.0
 50
180.0
  0
INSERT
  5
1547C
330
14DB5
100
AcDbEntity
  8
寸法線
 62
     0
440
 16777216
370
    -2
100
AcDbBlockReference
  2
_OPEN
 10
2437.470528688722
 20
535.0000551724678
 30
0.0
 41
20.0
 42
20.0
 43
20.0
  0
MTEXT
  5
1547D
330
14DB5
100
AcDbEntity
  8
寸法線
 62
     0
440
 16777216
100
AcDbMText
 10
2456.220470263801
 20
556.2500551724679
 30
0.0
 40
25.0
 41
0.0
 46
0.0
 71
     5
 72
     1
  1
\A1;37.5
 73
     1
 44
1.0
  0
POINT
  5
1547E
330
14DB5
100
AcDbEntity
  8
Defpoints
 62
     0
440
 16777216
100
AcDbPoint
 10
2474.97041183888
 20
640.0000369278586
 30
0.0
  0
POINT
  5
1547F
330
14DB5
100
AcDbEntity
  8
Defpoints
 62
     0
440
 16777216
100
AcDbPoint
 10
2437.470528688722
 20
655.0000551724679
 30
0.0
  0
POINT
  5
15480
330
14DB5
100
AcDbEntity
  8
Defpoints
 62
     0
440
 16777216
100
AcDbPoint
 10
2437.470528688722
 20
535.0000551724678
 30
0.0
  0
ENDBLK
  5
14DB7
330
14DB5
100
AcDbEntity
  8
0
100
AcDbBlockEnd
  0
BLOCK
  5
14DC4
330
14DC3
100
AcDbEntity
  8
0
100
AcDbBlockBegin
  2
*D24
 70
     1
 10
0.0
 20
0.0
 30
0.0
  3
*D24
  1

  0
LINE
  5
15393
330
14DC3
100
AcDbEntity
  8
寸法線
 62
     0
440
 16777216
370
    -2
100
AcDbLine
 10
2172.48711397706
 20
960.0000186831916
 30
0.0
 11
2171.237113977059
 21
960.0000186831916
 31
0.0
  0
LINE
  5
15394
330
14DC3
100
AcDbEntity
  8
寸法線
 62
     0
440
 16777216
370
    -2
100
AcDbLine
 10
2172.48711397706
 20
1015.000018683192
 30
0.0
 11
2171.237113977059
 21
1015.000018683192
 31
0.0
  0
LINE
  5
15395
330
14DC3
100
AcDbEntity
  8
寸法線
 62
     0
440
 16777216
370
    -2
100
AcDbLine
 10
2181.237113977059
 20
1035.000018683192
 30
0.0
 11
2181.237113977059
 21
1055.000018683192
 31
0.0
  0
LINE
  5
15396
330
14DC3
100
AcDbEntity
  8
寸法線
 62
     0
440
 16777216
370
    -2
100
AcDbLine
 10
2181.237113977059
 20
940.0000186831917
 30
0.0
 11
2181.237113977059
 21
851.4644847772451
 31
0.0
  0
LINE
  5
15397
330
14DC3
100
AcDbEntity
  8
寸法線
 62
     0
440
 16777216
370
    -2
100
AcDbLine
 10
2181.237113977059
 20
1015.000018683192
 30
0.0
 11
2181.237113977059
 21
960.0000186831916
 31
0.0
  0
INSERT
  5
15398
330
14DC3
100
AcDbEntity
  8
寸法線
 62
     0
440
 16777216
370
    -2
100
AcDbBlockReference
  2
_OPEN
 10
2181.237113977059
 20
1015.000018683192
 30
0.0
 41
20.0
 42
20.0
 43
20.0
 50
270.0
  0
INSERT
  5
15399
330
14DC3
100
AcDbEntity
  8
寸法線
 62
     0
440
 16777216
370
    -2
100
AcDbBlockReference
  2
_OPEN
 10
2181.237113977059
 20
960.0000186831916
 30
0.0
 41
20.0
 42
20.0
 43
20.0
 50
90.0
  0
MTEXT
  5
1539A
330
14DC3
100
AcDbEntity
  8
寸法線
 62
     0
440
 16777216
100
AcDbMText
 10
2159.987113977059
 20
885.7322517302106
 30
0.0
 40
25.0
 41
0.0
 46
0.0
 71
     5
 72
     1
  1
\A1;%%C55
 11
0.0000000000000001
 21
1.0
 31
0.0
 73
     1
 44
1.0
  0
POINT
  5
1539B
330
14DC3
100
AcDbEntity
  8
Defpoints
 62
     0
440
 16777216
100
AcDbPoint
 10
2181.23711397706
 20
960.0000186831916
 30
0.0
  0
POINT
  5
1539C
330
14DC3
100
AcDbEntity
  8
Defpoints
 62
     0
440
 16777216
100
AcDbPoint
 10
2181.23711397706
 20
1015.000018683192
 30
0.0
  0
POINT
  5
1539D
330
14DC3
100
AcDbEntity
  8
Defpoints
 62
     0
440
 16777216
100
AcDbPoint
 10
2181.237113977059
 20
1015.000018683192
 30
0.0
  0
ENDBLK
  5
14DC5
330
14DC3
100
AcDbEntity
  8
0
100
AcDbBlockEnd
  0
BLOCK
  5
14DD2
330
14DD1
100
AcDbEntity
  8
0
100
AcDbBlockBegin
  2
*D25
 70
     1
 10
0.0
 20
0.0
 30
0.0
  3
*D25
  1

  0
LINE
  5
1539E
330
14DD1
100
AcDbEntity
  8
寸法線
 62
     0
440
 16777216
370
    -2
100
AcDbLine
 10
1494.500030870233
 20
1053.750018683191
 30
0.0
 11
1494.500030870233
 21
1155.000009377801
 31
0.0
  0
LINE
  5
1539F
330
14DD1
100
AcDbEntity
  8
寸法線
 62
     0
440
 16777216
370
    -2
100
AcDbLine
 10
1510.500030870233
 20
1053.750018683191
 30
0.0
 11
1510.500030870233
 21
1155.000009377801
 31
0.0
  0
LINE
  5
153A0
330
14DD1
100
AcDbEntity
  8
寸法線
 62
     0
440
 16777216
370
    -2
100
AcDbLine
 10
1474.500030870233
 20
1145.000009377802
 30
0.0
 11
1454.500030870233
 21
1145.000009377802
 31
0.0
  0
LINE
  5
153A1
330
14DD1
100
AcDbEntity
  8
寸法線
 62
     0
440
 16777216
370
    -2
100
AcDbLine
 10
1530.500030870233
 20
1145.000009377802
 30
0.0
 11
1550.500030870233
 21
1145.000009377802
 31
0.0
  0
LINE
  5
153A2
330
14DD1
100
AcDbEntity
  8
寸法線
 62
     0
440
 16777216
370
    -2
100
AcDbLine
 10
1494.500030870233
 20
1145.000009377802
 30
0.0
 11
1510.500030870233
 21
1145.000009377802
 31
0.0
  0
INSERT
  5
153A3
330
14DD1
100
AcDbEntity
  8
寸法線
 62
     0
440
 16777216
370
    -2
100
AcDbBlockReference
  2
_OPEN
 10
1494.500030870233
 20
1145.000009377802
 30
0.0
 41
20.0
 42
20.0
 43
20.0
  0
INSERT
  5
153A4
330
14DD1
100
AcDbEntity
  8
寸法線
 62
     0
440
 16777216
370
    -2
100
AcDbBlockReference
  2
_OPEN
 10
1510.500030870233
 20
1145.000009377802
 30
0.0
 41
20.0
 42
20.0
 43
20.0
 50
180.0
  0
MTEXT
  5
153A5
330
14DD1
100
AcDbEntity
  8
寸法線
 62
     0
440
 16777216
100
AcDbMText
 10
1502.500030870233
 20
1166.250009377802
 30
0.0
 40
25.0
 41
0.0
 46
0.0
 71
     5
 72
     1
  1
\A1;16
 73
     1
 44
1.0
  0
POINT
  5
153A6
330
14DD1
100
AcDbEntity
  8
Defpoints
 62
     0
440
 16777216
100
AcDbPoint
 10
1494.500030870233
 20
1045.000018683191
 30
0.0
  0
POINT
  5
153A7
330
14DD1
100
AcDbEntity
  8
Defpoints
 62
     0
440
 16777216
100
AcDbPoint
 10
1510.500030870233
 20
1045.000018683191
 30
0.0
  0
POINT
  5
153A8
330
14DD1
100
AcDbEntity
  8
Defpoints
 62
     0
440
 16777216
100
AcDbPoint
 10
1510.500030870233
 20
1145.000009377802
 30
0.0
  0
ENDBLK
  5
14DD3
330
14DD1
100
AcDbEntity
  8
0
100
AcDbBlockEnd
  0
BLOCK
  5
14DE0
330
14DDF
100
AcDbEntity
  8
0
100
AcDbBlockBegin
  2
*D26
 70
     1
 10
0.0
 20
0.0
 30
0.0
  3
*D26
  1

  0
LINE
  5
153A9
330
14DDF
100
AcDbEntity
  8
寸法線
 62
     0
440
 16777216
370
    -2
100
AcDbLine
 10
1118.500030870233
 20
646.250000438582
 30
0.0
 11
1118.500030870233
 21
525.0000186831912
 31
0.0
  0
LINE
  5
153AA
330
14DDF
100
AcDbEntity
  8
寸法線
 62
     0
440
 16777216
370
    -2
100
AcDbLine
 10
1150.500030870233
 20
656.2500004385818
 30
0.0
 11
1150.500030870233
 21
525.0000186831912
 31
0.0
  0
LINE
  5
153AB
330
14DDF
100
AcDbEntity
  8
寸法線
 62
     0
440
 16777216
370
    -2
100
AcDbLine
 10
1098.500030870233
 20
535.0000186831912
 30
0.0
 11
1078.500030870233
 21
535.0000186831912
 31
0.0
  0
LINE
  5
153AC
330
14DDF
100
AcDbEntity
  8
寸法線
 62
     0
440
 16777216
370
    -2
100
AcDbLine
 10
1170.500030870233
 20
535.0000186831912
 30
0.0
 11
1190.500030870233
 21
535.0000186831912
 31
0.0
  0
LINE
  5
153AD
330
14DDF
100
AcDbEntity
  8
寸法線
 62
     0
440
 16777216
370
    -2
100
AcDbLine
 10
1118.500030870233
 20
535.0000186831912
 30
0.0
 11
1150.500030870233
 21
535.0000186831912
 31
0.0
  0
INSERT
  5
153AE
330
14DDF
100
AcDbEntity
  8
寸法線
 62
     0
440
 16777216
370
    -2
100
AcDbBlockReference
  2
_OPEN
 10
1118.500030870233
 20
535.0000186831912
 30
0.0
 41
20.0
 42
20.0
 43
20.0
  0
INSERT
  5
153AF
330
14DDF
100
AcDbEntity
  8
寸法線
 62
     0
440
 16777216
370
    -2
100
AcDbBlockReference
  2
_OPEN
 10
1150.500030870233
 20
535.0000186831912
 30
0.0
 41
20.0
 42
20.0
 43
20.0
 50
180.0
  0
MTEXT
  5
153B0
330
14DDF
100
AcDbEntity
  8
寸法線
 62
     0
440
 16777216
100
AcDbMText
 10
1134.500030870233
 20
556.2524793131125
 30
0.0
 40
25.0
 41
0.0
 46
0.0
 71
     5
 72
     1
  1
\A1;32
 73
     1
 44
1.0
  0
POINT
  5
153B1
330
14DDF
100
AcDbEntity
  8
Defpoints
 62
     0
440
 16777216
100
AcDbPoint
 10
1118.500030870233
 20
655.000000438582
 30
0.0
  0
POINT
  5
153B2
330
14DDF
100
AcDbEntity
  8
Defpoints
 62
     0
440
 16777216
100
AcDbPoint
 10
1150.500030870233
 20
665.000000438582
 30
0.0
  0
POINT
  5
153B3
330
14DDF
100
AcDbEntity
  8
Defpoints
 62
     0
440
 16777216
100
AcDbPoint
 10
1150.500030870233
 20
535.0000186831912
 30
0.0
  0
ENDBLK
  5
14DE1
330
14DDF
100
AcDbEntity
  8
0
100
AcDbBlockEnd
  0
BLOCK
  5
14DEE
330
14DED
100
AcDbEntity
  8
0
100
AcDbBlockBegin
  2
*D27
 70
     1
 10
0.0
 20
0.0
 30
0.0
  3
*D27
  1

  0
LINE
  5
153B4
330
14DED
100
AcDbEntity
  8
寸法線
 62
     0
440
 16777216
370
    -2
100
AcDbLine
 10
1150.500030870233
 20
656.2500004385818
 30
0.0
 11
1150.500030870233
 21
525.0000186831912
 31
0.0
  0
LINE
  5
153B5
330
14DED
100
AcDbEntity
  8
寸法線
 62
     0
440
 16777216
370
    -2
100
AcDbLine
 10
2254.500030870233
 20
656.2500186831912
 30
0.0
 11
2254.500030870233
 21
525.0000186831912
 31
0.0
  0
LINE
  5
153B6
330
14DED
100
AcDbEntity
  8
寸法線
 62
     0
440
 16777216
370
    -2
100
AcDbLine
 10
1170.500030870233
 20
535.0000186831912
 30
0.0
 11
2234.500030870233
 21
535.0000186831912
 31
0.0
  0
INSERT
  5
153B7
330
14DED
100
AcDbEntity
  8
寸法線
 62
     0
440
 16777216
370
    -2
100
AcDbBlockReference
  2
_OPEN
 10
1150.500030870233
 20
535.0000186831912
 30
0.0
 41
20.0
 42
20.0
 43
20.0
 50
180.0
  0
INSERT
  5
153B8
330
14DED
100
AcDbEntity
  8
寸法線
 62
     0
440
 16777216
370
    -2
100
AcDbBlockReference
  2
_OPEN
 10
2254.500030870233
 20
535.0000186831912
 30
0.0
 41
20.0
 42
20.0
 43
20.0
  0
MTEXT
  5
153B9
330
14DED
100
AcDbEntity
  8
寸法線
 62
     0
440
 16777216
100
AcDbMText
 10
1702.500030870233
 20
556.2500186831912
 30
0.0
 40
25.0
 41
0.0
 46
0.0
 71
     5
 72
     1
  1
\A1;1104
 73
     1
 44
1.0
  0
POINT
  5
153BA
330
14DED
100
AcDbEntity
  8
Defpoints
 62
     0
440
 16777216
100
AcDbPoint
 10
1150.500030870233
 20
665.000000438582
 30
0.0
  0
POINT
  5
153BB
330
14DED
100
AcDbEntity
  8
Defpoints
 62
     0
440
 16777216
100
AcDbPoint
 10
2254.500030870233
 20
665.0000186831912
 30
0.0
  0
POINT
  5
153BC
330
14DED
100
AcDbEntity
  8
Defpoints
 62
     0
440
 16777216
100
AcDbPoint
 10
2254.500030870233
 20
535.0000186831912
 30
0.0
  0
ENDBLK
  5
14DEF
330
14DED
100
AcDbEntity
  8
0
100
AcDbBlockEnd
  0
BLOCK
  5
14DFA
330
14DF9
100
AcDbEntity
  8
0
100
AcDbBlockBegin
  2
*D28
 70
     1
 10
0.0
 20
0.0
 30
0.0
  3
*D28
  1

  0
LINE
  5
153BD
330
14DF9
100
AcDbEntity
  8
寸法線
 62
     0
440
 16777216
370
    -2
100
AcDbLine
 10
1102.500030870233
 20
646.250000438582
 30
0.0
 11
1102.500030870233
 21
465.0000186831912
 31
0.0
  0
LINE
  5
153BE
330
14DF9
100
AcDbEntity
  8
寸法線
 62
     0
440
 16777216
370
    -2
100
AcDbLine
 10
1118.500030870233
 20
646.250000438582
 30
0.0
 11
1118.500030870233
 21
465.0000186831912
 31
0.0
  0
LINE
  5
153BF
330
14DF9
100
AcDbEntity
  8
寸法線
 62
     0
440
 16777216
370
    -2
100
AcDbLine
 10
1082.500030870233
 20
475.0000186831912
 30
0.0
 11
1062.500030870233
 21
475.0000186831912
 31
0.0
  0
LINE
  5
153C0
330
14DF9
100
AcDbEntity
  8
寸法線
 62
     0
440
 16777216
370
    -2
100
AcDbLine
 10
1138.500030870233
 20
475.0000186831912
 30
0.0
 11
1158.500030870233
 21
475.0000186831912
 31
0.0
  0
LINE
  5
153C1
330
14DF9
100
AcDbEntity
  8
寸法線
 62
     0
440
 16777216
370
    -2
100
AcDbLine
 10
1102.500030870233
 20
475.0000186831912
 30
0.0
 11
1118.500030870233
 21
475.0000186831912
 31
0.0
  0
INSERT
  5
153C2
330
14DF9
100
AcDbEntity
  8
寸法線
 62
     0
440
 16777216
370
    -2
100
AcDbBlockReference
  2
_OPEN
 10
1102.500030870233
 20
475.0000186831912
 30
0.0
 41
20.0
 42
20.0
 43
20.0
  0
INSERT
  5
153C3
330
14DF9
100
AcDbEntity
  8
寸法線
 62
     0
440
 16777216
370
    -2
100
AcDbBlockReference
  2
_OPEN
 10
1118.500030870233
 20
475.0000186831912
 30
0.0
 41
20.0
 42
20.0
 43
20.0
 50
180.0
  0
MTEXT
  5
153C4
330
14DF9
100
AcDbEntity
  8
寸法線
 62
     0
440
 16777216
100
AcDbMText
 10
1110.500030870233
 20
496.2500186831912
 30
0.0
 40
25.0
 41
0.0
 46
0.0
 71
     5
 72
     1
  1
\A1;16
 73
     1
 44
1.0
  0
POINT
  5
153C5
330
14DF9
100
AcDbEntity
  8
Defpoints
 62
     0
440
 16777216
100
AcDbPoint
 10
1102.500030870233
 20
655.000000438582
 30
0.0
  0
POINT
  5
153C6
330
14DF9
100
AcDbEntity
  8
Defpoints
 62
     0
440
 16777216
100
AcDbPoint
 10
1118.500030870233
 20
655.000000438582
 30
0.0
  0
POINT
  5
153C7
330
14DF9
100
AcDbEntity
  8
Defpoints
 62
     0
440
 16777216
100
AcDbPoint
 10
1118.500030870233
 20
475.0000186831912
 30
0.0
  0
ENDBLK
  5
14DFB
330
14DF9
100
AcDbEntity
  8
0
100
AcDbBlockEnd
  0
BLOCK
  5
14E08
330
14E07
100
AcDbEntity
  8
0
100
AcDbBlockBegin
  2
*D29
 70
     1
 10
0.0
 20
0.0
 30
0.0
  3
*D29
  1

  0
LINE
  5
153C8
330
14E07
100
AcDbEntity
  8
寸法線
 62
     0
440
 16777216
370
    -2
100
AcDbLine
 10
1118.500030870233
 20
646.2500186831912
 30
0.0
 11
1118.500030870233
 21
465.0000186831912
 31
0.0
  0
LINE
  5
153C9
330
14E07
100
AcDbEntity
  8
寸法線
 62
     0
440
 16777216
370
    -2
100
AcDbLine
 10
2286.500030870233
 20
646.2500186831912
 30
0.0
 11
2286.500030870233
 21
465.0000186831912
 31
0.0
  0
LINE
  5
153CA
330
14E07
100
AcDbEntity
  8
寸法線
 62
     0
440
 16777216
370
    -2
100
AcDbLine
 10
1138.500030870233
 20
475.0000186831912
 30
0.0
 11
2266.500030870233
 21
475.0000186831912
 31
0.0
  0
INSERT
  5
153CB
330
14E07
100
AcDbEntity
  8
寸法線
 62
     0
440
 16777216
370
    -2
100
AcDbBlockReference
  2
_OPEN
 10
1118.500030870233
 20
475.0000186831912
 30
0.0
 41
20.0
 42
20.0
 43
20.0
 50
180.0
  0
INSERT
  5
153CC
330
14E07
100
AcDbEntity
  8
寸法線
 62
     0
440
 16777216
370
    -2
100
AcDbBlockReference
  2
_OPEN
 10
2286.500030870233
 20
475.0000186831912
 30
0.0
 41
20.0
 42
20.0
 43
20.0
  0
MTEXT
  5
153CD
330
14E07
100
AcDbEntity
  8
寸法線
 62
     0
440
 16777216
100
AcDbMText
 10
1702.500030870233
 20
496.2500186831912
 30
0.0
 40
25.0
 41
0.0
 46
0.0
 71
     5
 72
     1
  1
\A1;1168
 73
     1
 44
1.0
  0
POINT
  5
153CE
330
14E07
100
AcDbEntity
  8
Defpoints
 62
     0
440
 16777216
100
AcDbPoint
 10
1118.500030870233
 20
655.0000186831912
 30
0.0
  0
POINT
  5
153CF
330
14E07
100
AcDbEntity
  8
Defpoints
 62
     0
440
 16777216
100
AcDbPoint
 10
2286.500030870233
 20
655.0000186831912
 30
0.0
  0
POINT
  5
153D0
330
14E07
100
AcDbEntity
  8
Defpoints
 62
     0
440
 16777216
100
AcDbPoint
 10
2286.500030870233
 20
475.0000186831912
 30
0.0
  0
ENDBLK
  5
14E09
330
14E07
100
AcDbEntity
  8
0
100
AcDbBlockEnd
  0
BLOCK
  5
14E14
330
14E13
100
AcDbEntity
  8
0
100
AcDbBlockBegin
  2
*D30
 70
     1
 10
0.0
 20
0.0
 30
0.0
  3
*D30
  1

  0
LINE
  5
153D1
330
14E13
100
AcDbEntity
  8
寸法線
 62
     0
440
 16777216
370
    -2
100
AcDbLine
 10
1102.500030870233
 20
646.2500186831912
 30
0.0
 11
1102.500030870233
 21
405.0000186831912
 31
0.0
  0
LINE
  5
153D2
330
14E13
100
AcDbEntity
  8
寸法線
 62
     0
440
 16777216
370
    -2
100
AcDbLine
 10
2302.500030870233
 20
646.2500369278295
 30
0.0
 11
2302.500030870233
 21
405.0000186831912
 31
0.0
  0
LINE
  5
153D3
330
14E13
100
AcDbEntity
  8
寸法線
 62
     0
440
 16777216
370
    -2
100
AcDbLine
 10
1122.500030870233
 20
415.0000186831912
 30
0.0
 11
2282.500030870233
 21
415.0000186831912
 31
0.0
  0
INSERT
  5
153D4
330
14E13
100
AcDbEntity
  8
寸法線
 62
     0
440
 16777216
370
    -2
100
AcDbBlockReference
  2
_OPEN
 10
1102.500030870233
 20
415.0000186831912
 30
0.0
 41
20.0
 42
20.0
 43
20.0
 50
180.0
  0
INSERT
  5
153D5
330
14E13
100
AcDbEntity
  8
寸法線
 62
     0
440
 16777216
370
    -2
100
AcDbBlockReference
  2
_OPEN
 10
2302.500030870233
 20
415.0000186831912
 30
0.0
 41
20.0
 42
20.0
 43
20.0
  0
MTEXT
  5
153D6
330
14E13
100
AcDbEntity
  8
寸法線
 62
     0
440
 16777216
100
AcDbMText
 10
1702.500030870233
 20
436.2524793131123
 30
0.0
 40
25.0
 41
0.0
 46
0.0
 71
     5
 72
     1
  1
\A1;1200
 73
     1
 44
1.0
  0
POINT
  5
153D7
330
14E13
100
AcDbEntity
  8
Defpoints
 62
     0
440
 16777216
100
AcDbPoint
 10
1102.500030870233
 20
655.0000186831912
 30
0.0
  0
POINT
  5
153D8
330
14E13
100
AcDbEntity
  8
Defpoints
 62
     0
440
 16777216
100
AcDbPoint
 10
2302.500030870233
 20
655.0000369278295
 30
0.0
  0
POINT
  5
153D9
330
14E13
100
AcDbEntity
  8
Defpoints
 62
     0
440
 16777216
100
AcDbPoint
 10
2302.500030870233
 20
415.0000186831912
 30
0.0
  0
ENDBLK
  5
14E15
330
14E13
100
AcDbEntity
  8
0
100
AcDbBlockEnd
  0
BLOCK
  5
14E20
330
14E1F
100
AcDbEntity
  8
0
100
AcDbBlockBegin
  2
*D31
 70
     1
 10
0.0
 20
0.0
 30
0.0
  3
*D31
  1

  0
LINE
  5
153DA
330
14E1F
100
AcDbEntity
  8
寸法線
 62
     0
440
 16777216
370
    -2
100
AcDbLine
 10
1118.500030870233
 20
1033.750018683191
 30
0.0
 11
1118.500030870233
 21
1155.000015282252
 31
0.0
  0
LINE
  5
153DB
330
14E1F
100
AcDbEntity
  8
寸法線
 62
     0
440
 16777216
370
    -2
100
AcDbLine
 10
1494.500030870233
 20
1053.750018683191
 30
0.0
 11
1494.500030870233
 21
1155.000015282252
 31
0.0
  0
LINE
  5
153DC
330
14E1F
100
AcDbEntity
  8
寸法線
 62
     0
440
 16777216
370
    -2
100
AcDbLine
 10
1138.500030870233
 20
1145.000015282252
 30
0.0
 11
1474.500030870233
 21
1145.000015282252
 31
0.0
  0
INSERT
  5
153DD
330
14E1F
100
AcDbEntity
  8
寸法線
 62
     0
440
 16777216
370
    -2
100
AcDbBlockReference
  2
_OPEN
 10
1118.500030870233
 20
1145.000015282252
 30
0.0
 41
20.0
 42
20.0
 43
20.0
 50
180.0
  0
INSERT
  5
153DE
330
14E1F
100
AcDbEntity
  8
寸法線
 62
     0
440
 16777216
370
    -2
100
AcDbBlockReference
  2
_OPEN
 10
1494.500030870233
 20
1145.000015282252
 30
0.0
 41
20.0
 42
20.0
 43
20.0
  0
MTEXT
  5
153DF
330
14E1F
100
AcDbEntity
  8
寸法線
 62
     0
440
 16777216
100
AcDbMText
 10
1306.500030870233
 20
1166.250015282252
 30
0.0
 40
25.0
 41
0.0
 46
0.0
 71
     5
 72
     1
  1
\A1;376
 73
     1
 44
1.0
  0
POINT
  5
153E0
330
14E1F
100
AcDbEntity
  8
Defpoints
 62
     0
440
 16777216
100
AcDbPoint
 10
1118.500030870233
 20
1025.000018683191
 30
0.0
  0
POINT
  5
153E1
330
14E1F
100
AcDbEntity
  8
Defpoints
 62
     0
440
 16777216
100
AcDbPoint
 10
1494.500030870233
 20
1045.000018683191
 30
0.0
  0
POINT
  5
153E2
330
14E1F
100
AcDbEntity
  8
Defpoints
 62
     0
440
 16777216
100
AcDbPoint
 10
1494.500030870233
 20
1145.000015282252
 30
0.0
  0
ENDBLK
  5
14E21
330
14E1F
100
AcDbEntity
  8
0
100
AcDbBlockEnd
  0
BLOCK
  5
14E2C
330
14E2B
100
AcDbEntity
  8
0
100
AcDbBlockBegin
  2
*D32
 70
     1
 10
0.0
 20
0.0
 30
0.0
  3
*D32
  1

  0
LINE
  5
153E3
330
14E2B
100
AcDbEntity
  8
寸法線
 62
     0
440
 16777216
370
    -2
100
AcDbLine
 10
1894.500031490199
 20
1053.750018683191
 30
0.0
 11
1894.50003866409
 21
1154.999977446589
 31
0.0
  0
LINE
  5
153E4
330
14E2B
100
AcDbEntity
  8
寸法線
 62
     0
440
 16777216
370
    -2
100
AcDbLine
 10
1510.500031490199
 20
1053.750018683191
 30
0.0
 11
1510.500038664092
 21
1155.000004654247
 31
0.0
  0
LINE
  5
153E5
330
14E2B
100
AcDbEntity
  8
寸法線
 62
     0
440
 16777216
370
    -2
100
AcDbLine
 10
1874.500037955557
 20
1144.999978863655
 30
0.0
 11
1530.500037955559
 21
1145.000003237182
 31
0.0
  0
INSERT
  5
153E6
330
14E2B
100
AcDbEntity
  8
寸法線
 62
     0
440
 16777216
370
    -2
100
AcDbBlockReference
  2
_OPEN
 10
1894.500037955557
 20
1144.999977446589
 30
0.0
 41
20.0
 42
20.0
 43
20.0
 50
359.9999959404063
  0
INSERT
  5
153E7
330
14E2B
100
AcDbEntity
  8
寸法線
 62
     0
440
 16777216
370
    -2
100
AcDbBlockReference
  2
_OPEN
 10
1510.500037955559
 20
1145.000004654247
 30
0.0
 41
20.0
 42
20.0
 43
20.0
 50
179.9999959404063
  0
MTEXT
  5
153E8
330
14E2B
100
AcDbEntity
  8
寸法線
 62
     0
440
 16777216
100
AcDbMText
 10
1702.50003946119
 20
1166.249991050418
 30
0.0
 40
25.0
 41
0.0
 46
0.0
 71
     5
 72
     1
  1
\A1;384
 11
0.9999999999999975
 21
-0.0000000708532752
 31
0.0
 73
     1
 44
1.0
  0
POINT
  5
153E9
330
14E2B
100
AcDbEntity
  8
Defpoints
 62
     0
440
 16777216
100
AcDbPoint
 10
1894.500030870233
 20
1045.000018683191
 30
0.0
  0
POINT
  5
153EA
330
14E2B
100
AcDbEntity
  8
Defpoints
 62
     0
440
 16777216
100
AcDbPoint
 10
1510.500030870232
 20
1045.000018683191
 30
0.0
  0
POINT
  5
153EB
330
14E2B
100
AcDbEntity
  8
Defpoints
 62
     0
440
 16777216
100
AcDbPoint
 10
1510.500037955559
 20
1145.000004654247
 30
0.0
  0
ENDBLK
  5
14E2D
330
14E2B
100
AcDbEntity
  8
0
100
AcDbBlockEnd
  0
BLOCK
  5
14E38
330
14E37
100
AcDbEntity
  8
0
100
AcDbBlockBegin
  2
*D33
 70
     1
 10
0.0
 20
0.0
 30
0.0
  3
*D33
  1

  0
LINE
  5
153EC
330
14E37
100
AcDbEntity
  8
寸法線
 62
     0
440
 16777216
370
    -2
100
AcDbLine
 10
1910.500030870233
 20
1053.750018683191
 30
0.0
 11
1910.500030870233
 21
1155.000009377801
 31
0.0
  0
LINE
  5
153ED
330
14E37
100
AcDbEntity
  8
寸法線
 62
     0
440
 16777216
370
    -2
100
AcDbLine
 10
1894.500030870233
 20
1053.750018683191
 30
0.0
 11
1894.500030870233
 21
1155.000009377801
 31
0.0
  0
LINE
  5
153EE
330
14E37
100
AcDbEntity
  8
寸法線
 62
     0
440
 16777216
370
    -2
100
AcDbLine
 10
1930.500030870233
 20
1145.000009377802
 30
0.0
 11
1950.500030870233
 21
1145.000009377802
 31
0.0
  0
LINE
  5
153EF
330
14E37
100
AcDbEntity
  8
寸法線
 62
     0
440
 16777216
370
    -2
100
AcDbLine
 10
1874.500030870233
 20
1145.000009377802
 30
0.0
 11
1854.500030870233
 21
1145.000009377802
 31
0.0
  0
LINE
  5
153F0
330
14E37
100
AcDbEntity
  8
寸法線
 62
     0
440
 16777216
370
    -2
100
AcDbLine
 10
1910.500030870233
 20
1145.000009377802
 30
0.0
 11
1894.500030870233
 21
1145.000009377802
 31
0.0
  0
INSERT
  5
153F1
330
14E37
100
AcDbEntity
  8
寸法線
 62
     0
440
 16777216
370
    -2
100
AcDbBlockReference
  2
_OPEN
 10
1910.500030870233
 20
1145.000009377802
 30
0.0
 41
20.0
 42
20.0
 43
20.0
 50
180.0
  0
INSERT
  5
153F2
330
14E37
100
AcDbEntity
  8
寸法線
 62
     0
440
 16777216
370
    -2
100
AcDbBlockReference
  2
_OPEN
 10
1894.500030870233
 20
1145.000009377802
 30
0.0
 41
20.0
 42
20.0
 43
20.0
  0
MTEXT
  5
153F3
330
14E37
100
AcDbEntity
  8
寸法線
 62
     0
440
 16777216
100
AcDbMText
 10
1902.500030870233
 20
1166.250009377802
 30
0.0
 40
25.0
 41
0.0
 46
0.0
 71
     5
 72
     1
  1
\A1;16
 73
     1
 44
1.0
  0
POINT
  5
153F4
330
14E37
100
AcDbEntity
  8
Defpoints
 62
     0
440
 16777216
100
AcDbPoint
 10
1910.500030870233
 20
1045.000018683191
 30
0.0
  0
POINT
  5
153F5
330
14E37
100
AcDbEntity
  8
Defpoints
 62
     0
440
 16777216
100
AcDbPoint
 10
1894.500030870233
 20
1045.000018683191
 30
0.0
  0
POINT
  5
153F6
330
14E37
100
AcDbEntity
  8
Defpoints
 62
     0
440
 16777216
100
AcDbPoint
 10
1894.500030870233
 20
1145.000009377802
 30
0.0
  0
ENDBLK
  5
14E39
330
14E37
100
AcDbEntity
  8
0
100
AcDbBlockEnd
  0
BLOCK
  5
14E46
330
14E45
100
AcDbEntity
  8
0
100
AcDbBlockBegin
  2
*D34
 70
     1
 10
0.0
 20
0.0
 30
0.0
  3
*D34
  1

  0
LINE
  5
153F7
330
14E45
100
AcDbEntity
  8
寸法線
 62
     0
440
 16777216
370
    -2
100
AcDbLine
 10
2286.500031490199
 20
1033.750036927829
 30
0.0
 11
2286.500040081154
 21
1154.999978013425
 31
0.0
  0
LINE
  5
153F8
330
14E45
100
AcDbEntity
  8
寸法線
 62
     0
440
 16777216
370
    -2
100
AcDbLine
 10
1910.500031490199
 20
1053.750018683191
 30
0.0
 11
1910.500038664092
 21
1155.000004654257
 31
0.0
  0
LINE
  5
153F9
330
14E45
100
AcDbEntity
  8
寸法線
 62
     0
440
 16777216
370
    -2
100
AcDbLine
 10
2266.500039372621
 20
1144.999979430491
 30
0.0
 11
1930.500037955559
 21
1145.000003237192
 31
0.0
  0
INSERT
  5
153FA
330
14E45
100
AcDbEntity
  8
寸法線
 62
     0
440
 16777216
370
    -2
100
AcDbBlockReference
  2
_OPEN
 10
2286.500039372621
 20
1144.999978013426
 30
0.0
 41
20.0
 42
20.0
 43
20.0
 50
359.9999959404063
  0
INSERT
  5
153FB
330
14E45
100
AcDbEntity
  8
寸法線
 62
     0
440
 16777216
370
    -2
100
AcDbBlockReference
  2
_OPEN
 10
1910.500037955559
 20
1145.000004654257
 30
0.0
 41
20.0
 42
20.0
 43
20.0
 50
179.9999959404063
  0
MTEXT
  5
153FC
330
14E45
100
AcDbEntity
  8
寸法線
 62
     0
440
 16777216
100
AcDbMText
 10
2098.500040169723
 20
1166.249991333841
 30
0.0
 40
25.0
 41
0.0
 46
0.0
 71
     5
 72
     1
  1
\A1;376
 11
0.9999999999999975
 21
-0.0000000708532752
 31
0.0
 73
     1
 44
1.0
  0
POINT
  5
153FD
330
14E45
100
AcDbEntity
  8
Defpoints
 62
     0
440
 16777216
100
AcDbPoint
 10
2286.500030870232
 20
1025.000036927829
 30
0.0
  0
POINT
  5
153FE
330
14E45
100
AcDbEntity
  8
Defpoints
 62
     0
440
 16777216
100
AcDbPoint
 10
1910.500030870233
 20
1045.000018683191
 30
0.0
  0
POINT
  5
153FF
330
14E45
100
AcDbEntity
  8
Defpoints
 62
     0
440
 16777216
100
AcDbPoint
 10
1910.500037955559
 20
1145.000004654257
 30
0.0
  0
ENDBLK
  5
14E47
330
14E45
100
AcDbEntity
  8
0
100
AcDbBlockEnd
  0
BLOCK
  5
14E52
330
14E51
100
AcDbEntity
  8
0
100
AcDbBlockBegin
  2
*D35
 70
     1
 10
0.0
 20
0.0
 30
0.0
  3
*D35
  1

  0
LINE
  5
15400
330
14E51
100
AcDbEntity
  8
寸法線
 62
     0
440
 16777216
370
    -2
100
AcDbLine
 10
2286.500030870233
 20
646.250000438582
 30
0.0
 11
2286.500030870233
 21
525.0000186831912
 31
0.0
  0
LINE
  5
15401
330
14E51
100
AcDbEntity
  8
寸法線
 62
     0
440
 16777216
370
    -2
100
AcDbLine
 10
2254.500030870233
 20
656.2500004385818
 30
0.0
 11
2254.500030870233
 21
525.0000186831912
 31
0.0
  0
LINE
  5
15402
330
14E51
100
AcDbEntity
  8
寸法線
 62
     0
440
 16777216
370
    -2
100
AcDbLine
 10
2306.500030870233
 20
535.0000186831912
 30
0.0
 11
2326.500030870233
 21
535.0000186831912
 31
0.0
  0
LINE
  5
15403
330
14E51
100
AcDbEntity
  8
寸法線
 62
     0
440
 16777216
370
    -2
100
AcDbLine
 10
2234.500030870233
 20
535.0000186831912
 30
0.0
 11
2214.500030870233
 21
535.0000186831912
 31
0.0
  0
LINE
  5
15404
330
14E51
100
AcDbEntity
  8
寸法線
 62
     0
440
 16777216
370
    -2
100
AcDbLine
 10
2286.500030870233
 20
535.0000186831912
 30
0.0
 11
2254.500030870233
 21
535.0000186831912
 31
0.0
  0
INSERT
  5
15405
330
14E51
100
AcDbEntity
  8
寸法線
 62
     0
440
 16777216
370
    -2
100
AcDbBlockReference
  2
_OPEN
 10
2286.500030870233
 20
535.0000186831912
 30
0.0
 41
20.0
 42
20.0
 43
20.0
 50
180.0
  0
INSERT
  5
15406
330
14E51
100
AcDbEntity
  8
寸法線
 62
     0
440
 16777216
370
    -2
100
AcDbBlockReference
  2
_OPEN
 10
2254.500030870233
 20
535.0000186831912
 30
0.0
 41
20.0
 42
20.0
 43
20.0
  0
MTEXT
  5
15407
330
14E51
100
AcDbEntity
  8
寸法線
 62
     0
440
 16777216
100
AcDbMText
 10
2270.500030870233
 20
556.2524793131125
 30
0.0
 40
25.0
 41
0.0
 46
0.0
 71
     5
 72
     1
  1
\A1;32
 73
     1
 44
1.0
  0
POINT
  5
15408
330
14E51
100
AcDbEntity
  8
Defpoints
 62
     0
440
 16777216
100
AcDbPoint
 10
2286.500030870233
 20
655.000000438582
 30
0.0
  0
POINT
  5
15409
330
14E51
100
AcDbEntity
  8
Defpoints
 62
     0
440
 16777216
100
AcDbPoint
 10
2254.500030870233
 20
665.000000438582
 30
0.0
  0
POINT
  5
1540A
330
14E51
100
AcDbEntity
  8
Defpoints
 62
     0
440
 16777216
100
AcDbPoint
 10
2254.500030870233
 20
535.0000186831912
 30
0.0
  0
ENDBLK
  5
14E53
330
14E51
100
AcDbEntity
  8
0
100
AcDbBlockEnd
  0
BLOCK
  5
14E60
330
14E5F
100
AcDbEntity
  8
0
100
AcDbBlockBegin
  2
*D36
 70
     1
 10
0.0
 20
0.0
 30
0.0
  3
*D36
  1

  0
LINE
  5
1540B
330
14E5F
100
AcDbEntity
  8
寸法線
 62
     0
440
 16777216
370
    -2
100
AcDbLine
 10
2302.500030870233
 20
646.250000438582
 30
0.0
 11
2302.500030870233
 21
465.0000186831912
 31
0.0
  0
LINE
  5
1540C
330
14E5F
100
AcDbEntity
  8
寸法線
 62
     0
440
 16777216
370
    -2
100
AcDbLine
 10
2286.500030870233
 20
646.250000438582
 30
0.0
 11
2286.500030870233
 21
465.0000186831912
 31
0.0
  0
LINE
  5
1540D
330
14E5F
100
AcDbEntity
  8
寸法線
 62
     0
440
 16777216
370
    -2
100
AcDbLine
 10
2322.500030870233
 20
475.0000186831912
 30
0.0
 11
2342.500030870233
 21
475.0000186831912
 31
0.0
  0
LINE
  5
1540E
330
14E5F
100
AcDbEntity
  8
寸法線
 62
     0
440
 16777216
370
    -2
100
AcDbLine
 10
2266.500030870233
 20
475.0000186831912
 30
0.0
 11
2246.500030870233
 21
475.0000186831912
 31
0.0
  0
LINE
  5
1540F
330
14E5F
100
AcDbEntity
  8
寸法線
 62
     0
440
 16777216
370
    -2
100
AcDbLine
 10
2302.500030870233
 20
475.0000186831912
 30
0.0
 11
2286.500030870233
 21
475.0000186831912
 31
0.0
  0
INSERT
  5
15410
330
14E5F
100
AcDbEntity
  8
寸法線
 62
     0
440
 16777216
370
    -2
100
AcDbBlockReference
  2
_OPEN
 10
2302.500030870233
 20
475.0000186831912
 30
0.0
 41
20.0
 42
20.0
 43
20.0
 50
180.0
  0
INSERT
  5
15411
330
14E5F
100
AcDbEntity
  8
寸法線
 62
     0
440
 16777216
370
    -2
100
AcDbBlockReference
  2
_OPEN
 10
2286.500030870233
 20
475.0000186831912
 30
0.0
 41
20.0
 42
20.0
 43
20.0
  0
MTEXT
  5
15412
330
14E5F
100
AcDbEntity
  8
寸法線
 62
     0
440
 16777216
100
AcDbMText
 10
2294.500030870233
 20
496.2500186831912
 30
0.0
 40
25.0
 41
0.0
 46
0.0
 71
     5
 72
     1
  1
\A1;16
 73
     1
 44
1.0
  0
POINT
  5
15413
330
14E5F
100
AcDbEntity
  8
Defpoints
 62
     0
440
 16777216
100
AcDbPoint
 10
2302.500030870233
 20
655.000000438582
 30
0.0
  0
POINT
  5
15414
330
14E5F
100
AcDbEntity
  8
Defpoints
 62
     0
440
 16777216
100
AcDbPoint
 10
2286.500030870233
 20
655.000000438582
 30
0.0
  0
POINT
  5
15415
330
14E5F
100
AcDbEntity
  8
Defpoints
 62
     0
440
 16777216
100
AcDbPoint
 10
2286.500030870233
 20
475.0000186831912
 30
0.0
  0
ENDBLK
  5
14E61
330
14E5F
100
AcDbEntity
  8
0
100
AcDbBlockEnd
  0
BLOCK
  5
14E6E
330
14E6D
100
AcDbEntity
  8
0
100
AcDbBlockBegin
  2
*D37
 70
     1
 10
0.0
 20
0.0
 30
0.0
  3
*D37
  1

  0
LINE
  5
15416
330
14E6D
100
AcDbEntity
  8
寸法線
 62
     0
440
 16777216
370
    -2
100
AcDbLine
 10
573.7499196699974
 20
655.0000369278298
 30
0.0
 11
452.5000270626367
 21
655.0000369278298
 31
0.0
  0
LINE
  5
15417
330
14E6D
100
AcDbEntity
  8
寸法線
 62
     0
440
 16777216
370
    -2
100
AcDbLine
 10
573.7499196699974
 20
1025.00003692783
 30
0.0
 11
452.5000270626367
 21
1025.00003692783
 31
0.0
  0
LINE
  5
15418
330
14E6D
100
AcDbEntity
  8
寸法線
 62
     0
440
 16777216
370
    -2
100
AcDbLine
 10
462.5000270626367
 20
675.0000369278297
 30
0.0
 11
462.5000270626367
 21
1005.00003692783
 31
0.0
  0
INSERT
  5
15419
330
14E6D
100
AcDbEntity
  8
寸法線
 62
     0
440
 16777216
370
    -2
100
AcDbBlockReference
  2
_OPEN
 10
462.5000270626367
 20
655.0000369278298
 30
0.0
 41
20.0
 42
20.0
 43
20.0
 50
270.0
  0
INSERT
  5
1541A
330
14E6D
100
AcDbEntity
  8
寸法線
 62
     0
440
 16777216
370
    -2
100
AcDbBlockReference
  2
_OPEN
 10
462.5000270626367
 20
1025.00003692783
 30
0.0
 41
20.0
 42
20.0
 43
20.0
 50
90.0
  0
MTEXT
  5
1541B
330
14E6D
100
AcDbEntity
  8
寸法線
 62
     0
440
 16777216
100
AcDbMText
 10
441.2500270626368
 20
840.0000369278295
 30
0.0
 40
25.0
 41
0.0
 46
0.0
 71
     5
 72
     1
  1
\A1;370
 11
0.0000000000000001
 21
1.0
 31
0.0
 73
     1
 44
1.0
  0
POINT
  5
1541C
330
14E6D
100
AcDbEntity
  8
Defpoints
 62
     0
440
 16777216
100
AcDbPoint
 10
582.4999196699974
 20
655.0000369278298
 30
0.0
  0
POINT
  5
1541D
330
14E6D
100
AcDbEntity
  8
Defpoints
 62
     0
440
 16777216
100
AcDbPoint
 10
582.4999196699974
 20
1025.00003692783
 30
0.0
  0
POINT
  5
1541E
330
14E6D
100
AcDbEntity
  8
Defpoints
 62
     0
440
 16777216
100
AcDbPoint
 10
462.5000270626367
 20
1025.00003692783
 30
0.0
  0
ENDBLK
  5
14E6F
330
14E6D
100
AcDbEntity
  8
0
100
AcDbBlockEnd
  0
BLOCK
  5
14E7A
330
14E79
100
AcDbEntity
  8
0
100
AcDbBlockBegin
  2
*D38
 70
     1
 10
0.0
 20
0.0
 30
0.0
  3
*D38
  1

  0
LINE
  5
1541F
330
14E79
100
AcDbEntity
  8
寸法線
 62
     0
440
 16777216
370
    -2
100
AcDbLine
 10
582.5001344552473
 20
646.2500369278295
 30
0.0
 11
582.5001344552473
 21
525.0000369278295
 31
0.0
  0
LINE
  5
15420
330
14E79
100
AcDbEntity
  8
寸法線
 62
     0
440
 16777216
370
    -2
100
AcDbLine
 10
952.5001344552476
 20
646.2500369278295
 30
0.0
 11
952.5001344552476
 21
525.0000369278295
 31
0.0
  0
LINE
  5
15421
330
14E79
100
AcDbEntity
  8
寸法線
 62
     0
440
 16777216
370
    -2
100
AcDbLine
 10
602.5001344552475
 20
535.0000369278295
 30
0.0
 11
932.5001344552472
 21
535.0000369278295
 31
0.0
  0
INSERT
  5
15422
330
14E79
100
AcDbEntity
  8
寸法線
 62
     0
440
 16777216
370
    -2
100
AcDbBlockReference
  2
_OPEN
 10
582.5001344552473
 20
535.0000369278295
 30
0.0
 41
20.0
 42
20.0
 43
20.0
 50
180.0
  0
INSERT
  5
15423
330
14E79
100
AcDbEntity
  8
寸法線
 62
     0
440
 16777216
370
    -2
100
AcDbBlockReference
  2
_OPEN
 10
952.5001344552476
 20
535.0000369278295
 30
0.0
 41
20.0
 42
20.0
 43
20.0
  0
MTEXT
  5
15424
330
14E79
100
AcDbEntity
  8
寸法線
 62
     0
440
 16777216
100
AcDbMText
 10
767.5001344552473
 20
556.2500369278295
 30
0.0
 40
25.0
 41
0.0
 46
0.0
 71
     5
 72
     1
  1
\A1;370
 73
     1
 44
1.0
  0
POINT
  5
15425
330
14E79
100
AcDbEntity
  8
Defpoints
 62
     0
440
 16777216
100
AcDbPoint
 10
582.5001344552473
 20
655.0000369278295
 30
0.0
  0
POINT
  5
15426
330
14E79
100
AcDbEntity
  8
Defpoints
 62
     0
440
 16777216
100
AcDbPoint
 10
952.5001344552476
 20
655.0000369278295
 30
0.0
  0
POINT
  5
15427
330
14E79
100
AcDbEntity
  8
Defpoints
 62
     0
440
 16777216
100
AcDbPoint
 10
952.5001344552476
 20
535.0000369278295
 30
0.0
  0
ENDBLK
  5
14E7B
330
14E79
100
AcDbEntity
  8
0
100
AcDbBlockEnd
  0
BLOCK
  5
14E86
330
14E85
100
AcDbEntity
  8
0
100
AcDbBlockBegin
  2
*D39
 70
     1
 10
0.0
 20
0.0
 30
0.0
  3
*D39
  1

  0
LINE
  5
15428
330
14E85
100
AcDbEntity
  8
寸法線
 62
     0
440
 16777216
370
    -2
100
AcDbLine
 10
3007.500030870233
 20
606.2500551724679
 30
0.0
 11
3007.500030870233
 21
525.0000551724679
 31
0.0
  0
LINE
  5
15429
330
14E85
100
AcDbEntity
  8
寸法線
 62
     0
440
 16777216
370
    -2
100
AcDbLine
 10
3417.500030870234
 20
606.2500551724679
 30
0.0
 11
3417.500030870234
 21
525.0000551724679
 31
0.0
  0
LINE
  5
1542A
330
14E85
100
AcDbEntity
  8
寸法線
 62
     0
440
 16777216
370
    -2
100
AcDbLine
 10
3027.500030870234
 20
535.0000551724678
 30
0.0
 11
3397.500030870233
 21
535.0000551724678
 31
0.0
  0
INSERT
  5
1542B
330
14E85
100
AcDbEntity
  8
寸法線
 62
     0
440
 16777216
370
    -2
100
AcDbBlockReference
  2
_OPEN
 10
3007.500030870233
 20
535.0000551724678
 30
0.0
 41
20.0
 42
20.0
 43
20.0
 50
180.0
  0
INSERT
  5
1542C
330
14E85
100
AcDbEntity
  8
寸法線
 62
     0
440
 16777216
370
    -2
100
AcDbBlockReference
  2
_OPEN
 10
3417.500030870234
 20
535.0000551724678
 30
0.0
 41
20.0
 42
20.0
 43
20.0
  0
MTEXT
  5
1542D
330
14E85
100
AcDbEntity
  8
寸法線
 62
     0
440
 16777216
100
AcDbMText
 10
3212.500030870233
 20
556.2500551724679
 30
0.0
 40
25.0
 41
0.0
 46
0.0
 71
     5
 72
     1
  1
\A1;410
 73
     1
 44
1.0
  0
POINT
  5
1542E
330
14E85
100
AcDbEntity
  8
Defpoints
 62
     0
440
 16777216
100
AcDbPoint
 10
3007.500030870233
 20
615.0000551724679
 30
0.0
  0
POINT
  5
1542F
330
14E85
100
AcDbEntity
  8
Defpoints
 62
     0
440
 16777216
100
AcDbPoint
 10
3417.500030870234
 20
615.0000551724679
 30
0.0
  0
POINT
  5
15430
330
14E85
100
AcDbEntity
  8
Defpoints
 62
     0
440
 16777216
100
AcDbPoint
 10
3417.500030870234
 20
535.0000551724678
 30
0.0
  0
ENDBLK
  5
14E87
330
14E85
100
AcDbEntity
  8
0
100
AcDbBlockEnd
  0
BLOCK
  5
14E92
330
14E91
100
AcDbEntity
  8
0
100
AcDbBlockBegin
  2
*D40
 70
     1
 10
0.0
 20
0.0
 30
0.0
  3
*D40
  1

  0
LINE
  5
15431
330
14E91
100
AcDbEntity
  8
寸法線
 62
     0
440
 16777216
370
    -2
100
AcDbLine
 10
3426.250030870235
 20
615.0000551724681
 30
0.0
 11
3507.500030870471
 21
615.0000551724681
 31
0.0
  0
LINE
  5
15432
330
14E91
100
AcDbEntity
  8
寸法線
 62
     0
440
 16777216
370
    -2
100
AcDbLine
 10
3426.250030870235
 20
1025.000055172468
 30
0.0
 11
3507.50003087047
 21
1025.000055172468
 31
0.0
  0
LINE
  5
15433
330
14E91
100
AcDbEntity
  8
寸法線
 62
     0
440
 16777216
370
    -2
100
AcDbLine
 10
3497.500030870472
 20
635.0000551724681
 30
0.0
 11
3497.500030870472
 21
1005.000055172468
 31
0.0
  0
INSERT
  5
15434
330
14E91
100
AcDbEntity
  8
寸法線
 62
     0
440
 16777216
370
    -2
100
AcDbBlockReference
  2
_OPEN
 10
3497.500030870472
 20
615.0000551724681
 30
0.0
 41
20.0
 42
20.0
 43
20.0
 50
270.0
  0
INSERT
  5
15435
330
14E91
100
AcDbEntity
  8
寸法線
 62
     0
440
 16777216
370
    -2
100
AcDbBlockReference
  2
_OPEN
 10
3497.50003087047
 20
1025.000055172468
 30
0.0
 41
20.0
 42
20.0
 43
20.0
 50
90.0
  0
MTEXT
  5
15436
330
14E91
100
AcDbEntity
  8
寸法線
 62
     0
440
 16777216
100
AcDbMText
 10
3476.25003087047
 20
820.000055172467
 30
0.0
 40
25.0
 41
0.0
 46
0.0
 71
     5
 72
     1
  1
\A1;410
 11
0.0000000000000001
 21
1.0
 31
0.0
 73
     1
 44
1.0
  0
POINT
  5
15437
330
14E91
100
AcDbEntity
  8
Defpoints
 62
     0
440
 16777216
100
AcDbPoint
 10
3417.500030870235
 20
615.0000551724681
 30
0.0
  0
POINT
  5
15438
330
14E91
100
AcDbEntity
  8
Defpoints
 62
     0
440
 16777216
100
AcDbPoint
 10
3417.500030870235
 20
1025.000055172468
 30
0.0
  0
POINT
  5
15439
330
14E91
100
AcDbEntity
  8
Defpoints
 62
     0
440
 16777216
100
AcDbPoint
 10
3497.50003087047
 20
1025.000055172468
 30
0.0
  0
ENDBLK
  5
14E93
330
14E91
100
AcDbEntity
  8
0
100
AcDbBlockEnd
  0
BLOCK
  5
14E9E
330
14E9D
100
AcDbEntity
  8
0
100
AcDbBlockBegin
  2
*D41
 70
     1
 10
0.0
 20
0.0
 30
0.0
  3
*D41
  1

  0
LINE
  5
1543A
330
14E9D
100
AcDbEntity
  8
寸法線
 62
     0
440
 16777216
370
    -2
100
AcDbLine
 10
3108.621855397208
 20
749.9223328893655
 30
0.0
 11
3109.246855397475
 21
748.8398011341789
 31
0.0
  0
LINE
  5
1543B
330
14E9D
100
AcDbEntity
  8
寸法線
 62
     0
440
 16777216
370
    -2
100
AcDbLine
 10
3316.378206343286
 20
890.0777774555706
 30
0.0
 11
3315.753206343222
 21
891.1603092104064
 31
0.0
  0
LINE
  5
1543C
330
14E9D
100
AcDbEntity
  8
寸法線
 62
     0
440
 16777216
370
    -2
100
AcDbLine
 10
3121.567363473116
 20
767.5000551720552
 30
0.0
 11
3303.432698267581
 21
872.5000551725299
 31
0.0
  0
INSERT
  5
1543D
330
14E9D
100
AcDbEntity
  8
寸法線
 62
     0
440
 16777216
370
    -2
100
AcDbBlockReference
  2
_OPEN
 10
3104.246855397452
 20
757.5000551720103
 30
0.0
 41
20.0
 42
20.0
 43
20.0
 50
210.0000000001484
  0
INSERT
  5
1543E
330
14E9D
100
AcDbEntity
  8
寸法線
 62
     0
440
 16777216
370
    -2
100
AcDbBlockReference
  2
_OPEN
 10
3320.753206343245
 20
882.500055172575
 30
0.0
 41
20.0
 42
20.0
 43
20.0
 50
30.00000000014844
  0
MTEXT
  5
1543F
330
14E9D
100
AcDbEntity
  8
寸法線
 62
     0
440
 16777216
100
AcDbMText
 10
3250.699049851867
 20
866.5944967954747
 30
0.0
 40
25.0
 41
0.0
 46
0.0
 71
     5
 72
     1
  1
\A1;%%C250
 11
0.8660254037831435
 21
0.5000000000022437
 31
0.0
 73
     1
 44
1.0
  0
POINT
  5
15440
330
14E9D
100
AcDbEntity
  8
Defpoints
 62
     0
440
 16777216
100
AcDbPoint
 10
3104.246855397189
 20
757.5000551724679
 30
0.0
  0
POINT
  5
15441
330
14E9D
100
AcDbEntity
  8
Defpoints
 62
     0
440
 16777216
100
AcDbPoint
 10
3320.753206343307
 20
882.5000551724681
 30
0.0
  0
POINT
  5
15442
330
14E9D
100
AcDbEntity
  8
Defpoints
 62
     0
440
 16777216
100
AcDbPoint
 10
3320.753206343245
 20
882.500055172575
 30
0.0
  0
ENDBLK
  5
14E9F
330
14E9D
100
AcDbEntity
  8
0
100
AcDbBlockEnd
  0
BLOCK
  5
14EAA
330
14EA9
100
AcDbEntity
  8
0
100
AcDbBlockBegin
  2
*D42
 70
     1
 10
0.0
 20
0.0
 30
0.0
  3
*D42
  1

  0
LINE
  5
15443
330
14EA9
100
AcDbEntity
  8
寸法線
 62
     0
440
 16777216
370
    -2
100
AcDbLine
 10
2474.97041183888
 20
631.2500369278588
 30
0.0
 11
2474.97041183888
 21
525.0000551724679
 31
0.0
  0
LINE
  5
15444
330
14EA9
100
AcDbEntity
  8
寸法線
 62
     0
440
 16777216
370
    -2
100
AcDbLine
 10
2769.97041183888
 20
631.2500369278588
 30
0.0
 11
2769.97041183888
 21
525.0000551724679
 31
0.0
  0
LINE
  5
15445
330
14EA9
100
AcDbEntity
  8
寸法線
 62
     0
440
 16777216
370
    -2
100
AcDbLine
 10
2494.97041183888
 20
535.0000551724678
 30
0.0
 11
2749.97041183888
 21
535.0000551724678
 31
0.0
  0
INSERT
  5
15446
330
14EA9
100
AcDbEntity
  8
寸法線
 62
     0
440
 16777216
370
    -2
100
AcDbBlockReference
  2
_OPEN
 10
2474.97041183888
 20
535.0000551724678
 30
0.0
 41
20.0
 42
20.0
 43
20.0
 50
180.0
  0
INSERT
  5
15447
330
14EA9
100
AcDbEntity
  8
寸法線
 62
     0
440
 16777216
370
    -2
100
AcDbBlockReference
  2
_OPEN
 10
2769.97041183888
 20
535.0000551724678
 30
0.0
 41
20.0
 42
20.0
 43
20.0
  0
MTEXT
  5
15448
330
14EA9
100
AcDbEntity
  8
寸法線
 62
     0
440
 16777216
100
AcDbMText
 10
2622.470719694891
 20
556.2525158023892
 30
0.0
 40
25.0
 41
0.0
 46
0.0
 71
     5
 72
     1
  1
\A1;295
 73
     1
 44
1.0
  0
POINT
  5
15449
330
14EA9
100
AcDbEntity
  8
Defpoints
 62
     0
440
 16777216
100
AcDbPoint
 10
2474.97041183888
 20
640.0000369278586
 30
0.0
  0
POINT
  5
1544A
330
14EA9
100
AcDbEntity
  8
Defpoints
 62
     0
440
 16777216
100
AcDbPoint
 10
2769.97041183888
 20
640.0000369278586
 30
0.0
  0
POINT
  5
1544B
330
14EA9
100
AcDbEntity
  8
Defpoints
 62
     0
440
 16777216
100
AcDbPoint
 10
2769.97041183888
 20
535.0000551724678
 30
0.0
  0
ENDBLK
  5
14EAB
330
14EA9
100
AcDbEntity
  8
0
100
AcDbBlockEnd
  0
BLOCK
  5
14EB6
330
14EB5
100
AcDbEntity
  8
0
100
AcDbBlockBegin
  2
*D43
 70
     1
 10
0.0
 20
0.0
 30
0.0
  3
*D43
  1

  0
LINE
  5
1544C
330
14EB5
100
AcDbEntity
  8
寸法線
 62
     0
440
 16777216
370
    -2
100
AcDbLine
 10
2831.220411838881
 20
987.5000369278593
 30
0.0
 11
2937.470494989048
 21
987.5000369278593
 31
0.0
  0
LINE
  5
1544D
330
14EB5
100
AcDbEntity
  8
寸法線
 62
     0
440
 16777216
370
    -2
100
AcDbLine
 10
2816.220494989048
 20
1025.000055172468
 30
0.0
 11
2937.470494989048
 21
1025.000055172468
 31
0.0
  0
LINE
  5
1544E
330
14EB5
100
AcDbEntity
  8
寸法線
 62
     0
440
 16777216
370
    -2
100
AcDbLine
 10
2927.470494989048
 20
967.500036927859
 30
0.0
 11
2927.470494989048
 21
947.5000369278593
 31
0.0
  0
LINE
  5
1544F
330
14EB5
100
AcDbEntity
  8
寸法線
 62
     0
440
 16777216
370
    -2
100
AcDbLine
 10
2927.470494989048
 20
1045.000055172468
 30
0.0
 11
2927.470494989048
 21
1065.000055172468
 31
0.0
  0
LINE
  5
15450
330
14EB5
100
AcDbEntity
  8
寸法線
 62
     0
440
 16777216
370
    -2
100
AcDbLine
 10
2927.470494989048
 20
987.5000369278593
 30
0.0
 11
2927.470494989048
 21
1025.000055172468
 31
0.0
  0
INSERT
  5
15451
330
14EB5
100
AcDbEntity
  8
寸法線
 62
     0
440
 16777216
370
    -2
100
AcDbBlockReference
  2
_OPEN
 10
2927.470494989048
 20
987.5000369278593
 30
0.0
 41
20.0
 42
20.0
 43
20.0
 50
90.0
  0
INSERT
  5
15452
330
14EB5
100
AcDbEntity
  8
寸法線
 62
     0
440
 16777216
370
    -2
100
AcDbBlockReference
  2
_OPEN
 10
2927.470494989048
 20
1025.000055172468
 30
0.0
 41
20.0
 42
20.0
 43
20.0
 50
270.0
  0
MTEXT
  5
15453
330
14EB5
100
AcDbEntity
  8
寸法線
 62
     0
440
 16777216
100
AcDbMText
 10
2906.220494989048
 20
1006.250046050162
 30
0.0
 40
25.0
 41
0.0
 46
0.0
 71
     5
 72
     1
  1
\A1;37.5
 11
0.0000000000000001
 21
1.0
 31
0.0
 73
     1
 44
1.0
  0
POINT
  5
15454
330
14EB5
100
AcDbEntity
  8
Defpoints
 62
     0
440
 16777216
100
AcDbPoint
 10
2822.470411838882
 20
987.5000369278593
 30
0.0
  0
POINT
  5
15455
330
14EB5
100
AcDbEntity
  8
Defpoints
 62
     0
440
 16777216
100
AcDbPoint
 10
2807.470494989049
 20
1025.000055172468
 30
0.0
  0
POINT
  5
15456
330
14EB5
100
AcDbEntity
  8
Defpoints
 62
     0
440
 16777216
100
AcDbPoint
 10
2927.470494989048
 20
1025.000055172468
 30
0.0
  0
ENDBLK
  5
14EB7
330
14EB5
100
AcDbEntity
  8
0
100
AcDbBlockEnd
  0
BLOCK
  5
14EC4
330
14EC3
100
AcDbEntity
  8
0
100
AcDbBlockBegin
  2
*D44
 70
     1
 10
0.0
 20
0.0
 30
0.0
  3
*D44
  1

  0
LINE
  5
15457
330
14EC3
100
AcDbEntity
  8
寸法線
 62
     0
440
 16777216
370
    -2
100
AcDbLine
 10
2831.220411838881
 20
692.5000369278587
 30
0.0
 11
2937.470494989048
 21
692.5000369278587
 31
0.0
  0
LINE
  5
15458
330
14EC3
100
AcDbEntity
  8
寸法線
 62
     0
440
 16777216
370
    -2
100
AcDbLine
 10
2831.220411838881
 20
987.5000369278593
 30
0.0
 11
2937.470494989048
 21
987.5000369278593
 31
0.0
  0
LINE
  5
15459
330
14EC3
100
AcDbEntity
  8
寸法線
 62
     0
440
 16777216
370
    -2
100
AcDbLine
 10
2927.470494989048
 20
712.5000369278589
 30
0.0
 11
2927.470494989048
 21
967.500036927859
 31
0.0
  0
INSERT
  5
1545A
330
14EC3
100
AcDbEntity
  8
寸法線
 62
     0
440
 16777216
370
    -2
100
AcDbBlockReference
  2
_OPEN
 10
2927.470494989048
 20
692.5000369278587
 30
0.0
 41
20.0
 42
20.0
 43
20.0
 50
270.0
  0
INSERT
  5
1545B
330
14EC3
100
AcDbEntity
  8
寸法線
 62
     0
440
 16777216
370
    -2
100
AcDbBlockReference
  2
_OPEN
 10
2927.470494989048
 20
987.5000369278593
 30
0.0
 41
20.0
 42
20.0
 43
20.0
 50
90.0
  0
MTEXT
  5
1545C
330
14EC3
100
AcDbEntity
  8
寸法線
 62
     0
440
 16777216
100
AcDbMText
 10
2906.218034359126
 20
840.0002896004172
 30
0.0
 40
25.0
 41
0.0
 46
0.0
 71
     5
 72
     1
  1
\A1;295
 11
0.0000000000000001
 21
1.0
 31
0.0
 73
     1
 44
1.0
  0
POINT
  5
1545D
330
14EC3
100
AcDbEntity
  8
Defpoints
 62
     0
440
 16777216
100
AcDbPoint
 10
2822.470411838882
 20
692.5000369278587
 30
0.0
  0
POINT
  5
1545E
330
14EC3
100
AcDbEntity
  8
Defpoints
 62
     0
440
 16777216
100
AcDbPoint
 10
2822.470411838882
 20
987.5000369278593
 30
0.0
  0
POINT
  5
1545F
330
14EC3
100
AcDbEntity
  8
Defpoints
 62
     0
440
 16777216
100
AcDbPoint
 10
2927.470494989048
 20
987.5000369278593
 30
0.0
  0
ENDBLK
  5
14EC5
330
14EC3
100
AcDbEntity
  8
0
100
AcDbBlockEnd
  0
BLOCK
  5
15A6D
330
15A6C
100
AcDbEntity
  8
0
100
AcDbBlockBegin
  2
*D45
 70
     1
 10
0.0
 20
0.0
 30
0.0
  3
*D45
  1

  0
LINE
  5
15B44
330
15A6C
100
AcDbEntity
  8
寸法線
 62
     0
440
 16777216
370
    -2
100
AcDbLine
 10
473.749944169806
 20
2269.999995864483
 30
0.0
 11
-432.6382451812011
 21
2269.999995864483
 31
0.0
  0
LINE
  5
15B45
330
15A6C
100
AcDbEntity
  8
寸法線
 62
     0
440
 16777216
370
    -2
100
AcDbLine
 10
-8.750000000000001
 20
2970.000000000001
 30
0.0
 11
-432.6382451812013
 21
2970.000000000001
 31
0.0
  0
LINE
  5
15B46
330
15A6C
100
AcDbEntity
  8
寸法線
 62
     0
440
 16777216
370
    -2
100
AcDbLine
 10
-422.638245181201
 20
2289.999995864483
 30
0.0
 11
-422.6382451812012
 21
2950.000000000001
 31
0.0
  0
INSERT
  5
15B47
330
15A6C
100
AcDbEntity
  8
寸法線
 62
     0
440
 16777216
370
    -2
100
AcDbBlockReference
  2
_OPEN
 10
-422.638245181201
 20
2269.999995864483
 30
0.0
 41
20.0
 42
20.0
 43
20.0
 50
270.0
  0
INSERT
  5
15B48
330
15A6C
100
AcDbEntity
  8
寸法線
 62
     0
440
 16777216
370
    -2
100
AcDbBlockReference
  2
_OPEN
 10
-422.6382451812012
 20
2970.000000000001
 30
0.0
 41
20.0
 42
20.0
 43
20.0
 50
90.0
  0
MTEXT
  5
15B49
330
15A6C
100
AcDbEntity
  8
寸法線
 62
     0
440
 16777216
100
AcDbMText
 10
-443.8882451812003
 20
2619.999997932242
 30
0.0
 40
25.0
 41
0.0
 46
0.0
 71
     5
 72
     1
  1
\A1;700
 11
0.0000000000000001
 21
1.0
 31
0.0
 73
     1
 44
1.0
  0
POINT
  5
15B4A
330
15A6C
100
AcDbEntity
  8
Defpoints
 62
     0
440
 16777216
100
AcDbPoint
 10
482.4999441698061
 20
2269.999995864483
 30
0.0
  0
POINT
  5
15B4B
330
15A6C
100
AcDbEntity
  8
Defpoints
 62
     0
440
 16777216
100
AcDbPoint
 10
0.0
 20
2970.000000000001
 30
0.0
  0
POINT
  5
15B4C
330
15A6C
100
AcDbEntity
  8
Defpoints
 62
     0
440
 16777216
100
AcDbPoint
 10
-422.6382451812012
 20
2970.000000000001
 30
0.0
  0
ENDBLK
  5
15A6E
330
15A6C
100
AcDbEntity
  8
0
100
AcDbBlockEnd
  0
ENDSEC
  0
SECTION
  2
ENTITIES
  0
TEXT
  5
9AEE
330
1F
100
AcDbEntity
  8
寸法線
100
AcDbText
 10
1939.1365
 20
881.8039999999998
 30
0.0
 40
25.0
  1

 11
1939.1365
 21
881.8039999999998
 31
0.0
100
AcDbText
 73
     1
  0
LWPOLYLINE
  5
1444A
330
1F
100
AcDbEntity
  8
Defpoints
100
AcDbPolyline
 90
        4
 70
     1
 43
0.0
 10
0.0
 20
0.0
 10
4200.0
 20
0.0
 10
4200.0
 20
2970.0
 10
0.0
 20
2970.0
  0
LWPOLYLINE
  5
1444B
330
1F
100
AcDbEntity
  8
Defpoints
100
AcDbPolyline
 90
        4
 70
     1
 43
0.0
 10
69.00399999999989
 20
69.10750000000007
 10
4130.995999999998
 20
69.10750000000007
 10
4130.995999999998
 20
2900.8925
 10
69.00399999999989
 20
2900.8925
  0
LINE
  5
1444C
330
1F
100
AcDbEntity
  8
中心線
100
AcDbLine
 10
577.4999639829156
 20
2269.999999999999
 30
0.0
 11
2827.499963982916
 21
2269.999999999999
 31
0.0
  0
LINE
  5
1444D
330
1F
100
AcDbEntity
  8
中心線
100
AcDbLine
 10
577.4999639829156
 20
1670.000034786937
 30
0.0
 11
2827.499963982916
 21
1670.000034786937
 31
0.0
  0
DIMENSION
  5
1444E
330
1F
100
AcDbEntity
  8
寸法線
100
AcDbDimension
280
     0
  2
*D5
 10
2302.499979077721
 20
1335.000034786937
 30
0.0
 11
1702.499979077721
 21
1356.252495416858
 31
0.0
 70
    32
 71
     5
 42
1200.0
 73
     0
 74
     0
 75
     0
  3
STANDARD
100
AcDbAlignedDimension
 13
1102.499979077721
 23
1485.000073709392
 33
0.0
 14
2302.499979077721
 24
1485.000073709392
 34
0.0
100
AcDbRotatedDimension
  0
DIMENSION
  5
1444F
330
1F
100
AcDbEntity
  8
寸法線
100
AcDbDimension
280
     0
  2
*D6
 10
1102.499979077721
 20
1335.000034786937
 30
0.0
 11
852.4999616237632
 21
1356.250034786937
 31
0.0
 70
    32
 71
     5
 42
500.0000349079154
 73
     0
 74
     0
 75
     0
  3
STANDARD
100
AcDbAlignedDimension
 13
602.4999441698055
 23
1495.000034786937
 33
0.0
 14
1102.499979077721
 24
1485.000073709392
 34
0.0
100
AcDbRotatedDimension
  0
DIMENSION
  5
14450
330
1F
100
AcDbEntity
  8
寸法線
100
AcDbDimension
280
     0
  2
*D7
 10
482.499944169806
 20
1495.000034786937
 30
0.0
 11
482.4999441698063
 21
1670.000034786937
 31
0.0
 70
   160
 71
     5
 42
350.0000372196735
 73
     0
 74
     0
 75
     0
  3
STANDARD
100
AcDbAlignedDimension
 13
602.4999441698055
 23
1845.00007200661
 33
0.0
 14
602.4999441698055
 24
1495.000034786937
 34
0.0
 50
90.0
100
AcDbRotatedDimension
  0
DIMENSION
  5
14451
330
1F
100
AcDbEntity
  8
寸法線
100
AcDbDimension
280
     0
  2
*D8
 10
618.4999639829157
 20
2604.999942832917
 30
0.0
 11
610.4999540763606
 21
2604.999942832917
 31
0.0
 70
   160
 71
     5
 42
16.00001981311016
 73
     0
 74
     0
 75
     0
  3
STANDARD
100
AcDbAlignedDimension
 13
602.4999441698055
 23
2438.000037219678
 33
0.0
 14
618.4999639829157
 24
2444.999999999999
 34
0.0
100
AcDbRotatedDimension
  0
DIMENSION
  5
14452
330
1F
100
AcDbEntity
  8
寸法線
100
AcDbDimension
280
     0
  2
*D9
 10
1102.499979077721
 20
2604.999942832917
 30
0.0
 11
860.499971530301
 21
2604.999942832917
 31
0.0
 70
   160
 71
     5
 42
484.0000150948053
 73
     0
 74
     0
 75
     0
  3
STANDARD
100
AcDbAlignedDimension
 13
618.4999639829157
 23
2444.999999999999
 33
0.0
 14
1102.499979077721
 24
2455.000057167085
 34
0.0
100
AcDbRotatedDimension
  0
DIMENSION
  5
14453
330
1F
100
AcDbEntity
  8
寸法線
100
AcDbDimension
280
     0
  2
*D10
 10
482.4999441698059
 20
2094.999991728964
 30
0.0
 11
482.4999441698063
 21
2269.999999999999
 31
0.0
 70
   160
 71
     5
 42
350.0000082710362
 73
     0
 74
     0
 75
     0
  3
STANDARD
100
AcDbAlignedDimension
 13
618.4999639829157
 23
2444.999999999999
 33
0.0
 14
618.4999441698055
 24
2094.999991728963
 34
0.0
 50
90.0
100
AcDbRotatedDimension
  0
DIMENSION
  5
14454
330
1F
100
AcDbEntity
  8
寸法線
100
AcDbDimension
280
     0
  2
*D11
 10
2786.499924356698
 20
2604.999942832917
 30
0.0
 11
2794.499934263253
 21
2604.999942832917
 31
0.0
 70
   160
 71
     5
 42
16.0000198131097
 73
     0
 74
     0
 75
     0
  3
STANDARD
100
AcDbAlignedDimension
 13
2802.499944169808
 23
2438.000037219678
 33
0.0
 14
2786.499924356698
 24
2444.999999999999
 34
0.0
 50
180.0
100
AcDbRotatedDimension
  0
DIMENSION
  5
14455
330
1F
100
AcDbEntity
  8
寸法線
100
AcDbDimension
280
     0
  2
*D12
 10
2302.499909261894
 20
2604.999942832917
 30
0.0
 11
2544.499916809296
 21
2604.999942832917
 31
0.0
 70
   160
 71
     5
 42
484.0000150948039
 73
     0
 74
     0
 75
     0
  3
STANDARD
100
AcDbAlignedDimension
 13
2786.499924356698
 23
2444.999999999999
 33
0.0
 14
2302.499909261894
 24
2455.000057167085
 34
0.0
 50
180.0
100
AcDbRotatedDimension
  0
DIMENSION
  5
14456
330
1F
100
AcDbEntity
  8
寸法線
100
AcDbDimension
280
     0
  2
*D13
 10
1102.499979077721
 20
2684.999942832917
 30
0.0
 11
852.4999616237629
 21
2684.999942832917
 31
0.0
 70
   160
  1
<>\XH型鋼（連結部）
 71
     5
 42
500.0000349079154
 73
     0
 74
     0
 75
     0
  3
STANDARD
100
AcDbAlignedDimension
 13
602.4999441698055
 23
2438.000037219678
 33
0.0
 14
1102.499979077721
 24
2455.000057167085
 34
0.0
100
AcDbRotatedDimension
  0
DIMENSION
  5
14457
330
1F
100
AcDbEntity
  8
寸法線
100
AcDbDimension
280
     0
  2
*D14
 10
2802.499944169808
 20
2684.999942832917
 30
0.0
 11
2552.499926715851
 21
2684.999942832917
 31
0.0
 70
   160
  1
<>\XH型鋼（連結部）
 71
     5
 42
500.0000349079137
 73
     0
 74
     0
 75
     0
  3
STANDARD
100
AcDbAlignedDimension
 13
2302.499909261894
 23
2455.000057167085
 33
0.0
 14
2802.499944169808
 24
2438.000037219678
 34
0.0
100
AcDbRotatedDimension
  0
DIMENSION
  5
14458
330
1F
100
AcDbEntity
  8
寸法線
100
AcDbDimension
280
     0
  2
*D15
 10
2922.499963982916
 20
2101.999962780326
 30
0.0
 11
2922.499963982916
 21
2269.999999999999
 31
0.0
 70
   160
 71
     5
 42
336.0000744393524
 73
     0
 74
     0
 75
     0
  3
STANDARD
100
AcDbAlignedDimension
 13
2802.499944169808
 23
2438.000037219678
 33
0.0
 14
2802.499944169808
 24
2101.999962780325
 34
0.0
 50
90.0
100
AcDbRotatedDimension
  0
DIMENSION
  5
14459
330
1F
100
AcDbEntity
  8
寸法線
100
AcDbDimension
280
     0
  2
*D16
 10
2302.49997570422
 20
1335.000034786945
 30
0.0
 11
2552.499976179902
 21
1356.250029164449
 31
0.0
 70
    32
 71
     5
 42
499.9999999955393
 73
     0
 74
     0
 75
     0
  3
STANDARD
100
AcDbAlignedDimension
 13
2802.499979298156
 23
1495.000003751649
 33
0.0
 14
2302.499979077718
 24
1485.000036489718
 34
0.0
 50
179.9999987114188
100
AcDbRotatedDimension
  0
DIMENSION
  5
1445A
330
1F
100
AcDbEntity
  8
寸法線
100
AcDbDimension
280
     0
  2
*D17
 10
2302.499979077718
 20
2684.999942832917
 30
0.0
 11
1702.499979077718
 21
2684.999942832917
 31
0.0
 70
    32
  1
W=<>\X空洞金具
 71
     5
 42
1200.0
 73
     0
 74
     0
 75
     0
  3
STANDARD
100
AcDbAlignedDimension
 13
1102.499979077718
 23
2454.999999999999
 33
0.0
 14
2302.499979077718
 24
2455.000001702781
 34
0.0
100
AcDbRotatedDimension
  0
DIMENSION
  5
1445B
330
1F
100
AcDbEntity
  8
寸法線
100
AcDbDimension
280
     0
  2
*D18
 10
2802.499944169808
 20
2764.999942832917
 30
0.0
 11
1702.499944169806
 21
2786.252403462838
 31
0.0
 70
    32
  1
スルーサーＢ L=<>
 71
     5
 42
2200.000000000002
 73
     0
 74
     0
 75
     0
  3
STANDARD
100
AcDbAlignedDimension
 13
602.4999441698055
 23
2438.000037219678
 33
0.0
 14
2802.499944169808
 24
2438.000037219678
 34
0.0
100
AcDbRotatedDimension
  0
LINE
  5
1445C
330
1F
100
AcDbEntity
  8
実線
100
AcDbLine
 10
1118.499979077718
 20
2085.00001994741
 30
0.0
 11
1118.499979077718
 21
2455.00001994741
 31
0.0
  0
LINE
  5
1445D
330
1F
100
AcDbEntity
  8
実線
100
AcDbLine
 10
1102.499979077718
 20
2455.000001702781
 30
0.0
 11
1118.499979077718
 21
2455.000001702781
 31
0.0
  0
LINE
  5
1445E
330
1F
100
AcDbEntity
  8
実線
100
AcDbLine
 10
1102.499979077718
 20
2085.000001702781
 30
0.0
 11
1118.499979077718
 21
2085.000001702781
 31
0.0
  0
LINE
  5
1445F
330
1F
100
AcDbEntity
  8
実線
100
AcDbLine
 10
1130.499979077718
 20
2145.500001702781
 30
0.0
 11
1150.499979077718
 21
2145.500001702781
 31
0.0
  0
LINE
  5
14460
330
1F
100
AcDbEntity
  8
実線
100
AcDbLine
 10
1150.499979077718
 20
2145.500001702781
 30
0.0
 11
1150.499979077718
 21
2394.50000170278
 31
0.0
  0
LINE
  5
14461
330
1F
100
AcDbEntity
  8
実線
100
AcDbLine
 10
2254.499979077718
 20
2145.500001702781
 30
0.0
 11
2254.499979077718
 21
2394.50000170278
 31
0.0
  0
LINE
  5
14462
330
1F
100
AcDbEntity
  8
実線
100
AcDbLine
 10
2254.499979077718
 20
2145.500001702781
 30
0.0
 11
2274.499979077718
 21
2145.500001702781
 31
0.0
  0
LINE
  5
14463
330
1F
100
AcDbEntity
  8
実線
100
AcDbLine
 10
1118.499979077718
 20
2157.50000170278
 30
0.0
 11
1130.499979077718
 21
2145.500001702781
 31
0.0
  0
LINE
  5
14464
330
1F
100
AcDbEntity
  8
実線
100
AcDbLine
 10
2274.499979077718
 20
2145.500001702781
 30
0.0
 11
2286.499979077718
 21
2157.50000170278
 31
0.0
  0
LINE
  5
14465
330
1F
100
AcDbEntity
  8
実線
100
AcDbLine
 10
1118.499979077718
 20
2150.000001702781
 30
0.0
 11
1125.499979077718
 21
2150.000001702781
 31
0.0
  0
LINE
  5
14466
330
1F
100
AcDbEntity
  8
実線
100
AcDbLine
 10
1118.499979077718
 20
2095.00000170278
 30
0.0
 11
1494.500030870232
 21
2095.00000170278
 31
0.0
  0
LINE
  5
14467
330
1F
100
AcDbEntity
  8
実線
100
AcDbLine
 10
2279.499979077718
 20
2150.000001702781
 30
0.0
 11
2286.499979077718
 21
2150.000001702781
 31
0.0
  0
LINE
  5
14468
330
1F
100
AcDbEntity
  8
実線
100
AcDbLine
 10
1150.499979077718
 20
2150.000001702781
 30
0.0
 11
1494.500030870233
 21
2150.000001702781
 31
0.0
  0
LINE
  5
14469
330
1F
100
AcDbEntity
  8
破線
100
AcDbLine
 10
1125.499979077718
 20
2150.000001702781
 30
0.0
 11
1150.499979077718
 21
2150.000001702781
 31
0.0
  0
LINE
  5
1446A
330
1F
100
AcDbEntity
  8
破線
100
AcDbLine
 10
2254.499979077718
 20
2150.000001702781
 30
0.0
 11
2279.499979077718
 21
2150.000001702781
 31
0.0
  0
LINE
  5
1446B
330
1F
100
AcDbEntity
  8
破線
100
AcDbLine
 10
1118.499979077718
 20
2107.00000170278
 30
0.0
 11
1150.499979077718
 21
2107.00000170278
 31
0.0
  0
LINE
  5
1446C
330
1F
100
AcDbEntity
  8
破線
100
AcDbLine
 10
1150.499979077718
 20
2107.00000170278
 30
0.0
 11
1150.499979077718
 21
2095.00000170278
 31
0.0
  0
LINE
  5
1446D
330
1F
100
AcDbEntity
  8
破線
100
AcDbLine
 10
2254.499979077718
 20
2390.000001702781
 30
0.0
 11
2279.499979077718
 21
2390.000001702781
 31
0.0
  0
LINE
  5
1446E
330
1F
100
AcDbEntity
  8
実線
100
AcDbLine
 10
1150.499979077718
 20
2390.000001702781
 30
0.0
 11
1494.500030870233
 21
2390.000001702781
 31
0.0
  0
LINE
  5
1446F
330
1F
100
AcDbEntity
  8
実線
100
AcDbLine
 10
2279.499979077718
 20
2390.000001702781
 30
0.0
 11
2286.499979077718
 21
2390.000001702781
 31
0.0
  0
LINE
  5
14470
330
1F
100
AcDbEntity
  8
実線
100
AcDbLine
 10
1118.499979077718
 20
2445.00000170278
 30
0.0
 11
1494.500030870232
 21
2445.00000170278
 31
0.0
  0
LINE
  5
14471
330
1F
100
AcDbEntity
  8
実線
100
AcDbLine
 10
2254.499979077718
 20
2394.50000170278
 30
0.0
 11
2274.499979077718
 21
2394.50000170278
 31
0.0
  0
LINE
  5
14472
330
1F
100
AcDbEntity
  8
実線
100
AcDbLine
 10
2274.499979077718
 20
2394.50000170278
 30
0.0
 11
2286.499979077718
 21
2382.50000170278
 31
0.0
  0
LINE
  5
14473
330
1F
100
AcDbEntity
  8
破線
100
AcDbLine
 10
1118.499979077718
 20
2433.000001702781
 30
0.0
 11
1150.499979077718
 21
2433.000001702781
 31
0.0
  0
LINE
  5
14474
330
1F
100
AcDbEntity
  8
破線
100
AcDbLine
 10
1150.499979077718
 20
2433.000001702781
 30
0.0
 11
1150.499979077718
 21
2445.00000170278
 31
0.0
  0
LINE
  5
14475
330
1F
100
AcDbEntity
  8
破線
100
AcDbLine
 10
1125.499979077718
 20
2390.000001702781
 30
0.0
 11
1150.499979077718
 21
2390.000001702781
 31
0.0
  0
LINE
  5
14476
330
1F
100
AcDbEntity
  8
実線
100
AcDbLine
 10
1130.499979077718
 20
2394.50000170278
 30
0.0
 11
1150.499979077718
 21
2394.50000170278
 31
0.0
  0
LINE
  5
14477
330
1F
100
AcDbEntity
  8
実線
100
AcDbLine
 10
1118.499979077718
 20
2382.50000170278
 30
0.0
 11
1130.499979077718
 21
2394.50000170278
 31
0.0
  0
LINE
  5
14478
330
1F
100
AcDbEntity
  8
実線
100
AcDbLine
 10
1118.499979077718
 20
2390.000001702781
 30
0.0
 11
1125.499979077718
 21
2390.000001702781
 31
0.0
  0
LINE
  5
14479
330
1F
100
AcDbEntity
  8
破線
100
AcDbLine
 10
2286.499979077718
 20
2107.00000170278
 30
0.0
 11
2254.499979077718
 21
2107.00000170278
 31
0.0
  0
LINE
  5
1447A
330
1F
100
AcDbEntity
  8
破線
100
AcDbLine
 10
2254.499979077718
 20
2107.00000170278
 30
0.0
 11
2254.499979077718
 21
2095.00000170278
 31
0.0
  0
LINE
  5
1447B
330
1F
100
AcDbEntity
  8
破線
100
AcDbLine
 10
2254.499979077718
 20
2433.000001702781
 30
0.0
 11
2254.499979077718
 21
2445.00000170278
 31
0.0
  0
LINE
  5
1447C
330
1F
100
AcDbEntity
  8
破線
100
AcDbLine
 10
2286.499979077718
 20
2433.000001702781
 30
0.0
 11
2254.499979077718
 21
2433.000001702781
 31
0.0
  0
LINE
  5
1447D
330
1F
100
AcDbEntity
  8
破線
100
AcDbLine
 10
1118.499979077718
 20
2276.000001702781
 30
0.0
 11
1150.499979077718
 21
2276.000001702781
 31
0.0
  0
LINE
  5
1447E
330
1F
100
AcDbEntity
  8
破線
100
AcDbLine
 10
1118.499979077718
 20
2264.00000170278
 30
0.0
 11
1150.499979077718
 21
2264.00000170278
 31
0.0
  0
LINE
  5
1447F
330
1F
100
AcDbEntity
  8
破線
100
AcDbLine
 10
2254.499979077718
 20
2276.000001702781
 30
0.0
 11
2286.499979077718
 21
2276.000001702781
 31
0.0
  0
LINE
  5
14480
330
1F
100
AcDbEntity
  8
破線
100
AcDbLine
 10
2254.499979077718
 20
2264.00000170278
 30
0.0
 11
2286.499979077718
 21
2264.00000170278
 31
0.0
  0
LINE
  5
14481
330
1F
100
AcDbEntity
  8
実線
100
AcDbLine
 10
2286.499979077718
 20
2085.00001994741
 30
0.0
 11
2286.499979077718
 21
2455.00001994741
 31
0.0
  0
LINE
  5
14482
330
1F
100
AcDbEntity
  8
実線
100
AcDbLine
 10
2302.499979077718
 20
2085.00001994741
 30
0.0
 11
2302.499979077718
 21
2455.00001994741
 31
0.0
  0
LINE
  5
14483
330
1F
100
AcDbEntity
  8
実線
100
AcDbLine
 10
2286.499979077718
 20
2455.000001702781
 30
0.0
 11
2302.499979077718
 21
2455.000001702781
 31
0.0
  0
LINE
  5
14484
330
1F
100
AcDbEntity
  8
実線
100
AcDbLine
 10
2286.499979077718
 20
2085.000001702781
 30
0.0
 11
2302.499979077718
 21
2085.000001702781
 31
0.0
  0
LINE
  5
14485
330
1F
100
AcDbEntity
  8
中心線
100
AcDbLine
 10
1092.499979077718
 20
2122.500019947406
 30
0.0
 11
2312.500082662745
 21
2122.500019947406
 31
0.0
  0
LINE
  5
14486
330
1F
100
AcDbEntity
  8
中心線
100
AcDbLine
 10
1092.499979077718
 20
2417.50001994741
 30
0.0
 11
2312.500082662745
 21
2417.50001994741
 31
0.0
  0
LINE
  5
14487
330
1F
100
AcDbEntity
  8
実線
100
AcDbLine
 10
1118.499979077718
 20
1485.000054734348
 30
0.0
 11
1118.499979077718
 21
1855.000054734348
 31
0.0
  0
LINE
  5
14488
330
1F
100
AcDbEntity
  8
実線
100
AcDbLine
 10
1102.499979077718
 20
1855.000036489719
 30
0.0
 11
1118.499979077718
 21
1855.000036489719
 31
0.0
  0
LINE
  5
14489
330
1F
100
AcDbEntity
  8
実線
100
AcDbLine
 10
1102.499979077718
 20
1485.000036489719
 30
0.0
 11
1118.499979077718
 21
1485.000036489719
 31
0.0
  0
LINE
  5
1448A
330
1F
100
AcDbEntity
  8
実線
100
AcDbLine
 10
1130.499979077718
 20
1545.500036489719
 30
0.0
 11
1150.499979077718
 21
1545.500036489719
 31
0.0
  0
LINE
  5
1448B
330
1F
100
AcDbEntity
  8
実線
100
AcDbLine
 10
1150.499979077718
 20
1545.500036489719
 30
0.0
 11
1150.499979077718
 21
1794.500036489719
 31
0.0
  0
LINE
  5
1448C
330
1F
100
AcDbEntity
  8
実線
100
AcDbLine
 10
2254.499979077718
 20
1545.500036489719
 30
0.0
 11
2254.499979077718
 21
1794.500036489719
 31
0.0
  0
LINE
  5
1448D
330
1F
100
AcDbEntity
  8
実線
100
AcDbLine
 10
2254.499979077718
 20
1545.500036489719
 30
0.0
 11
2274.499979077718
 21
1545.500036489719
 31
0.0
  0
LINE
  5
1448E
330
1F
100
AcDbEntity
  8
実線
100
AcDbLine
 10
1118.499979077718
 20
1557.500036489719
 30
0.0
 11
1130.499979077718
 21
1545.500036489719
 31
0.0
  0
LINE
  5
1448F
330
1F
100
AcDbEntity
  8
実線
100
AcDbLine
 10
2274.499979077718
 20
1545.500036489719
 30
0.0
 11
2286.499979077718
 21
1557.500036489719
 31
0.0
  0
LINE
  5
14490
330
1F
100
AcDbEntity
  8
実線
100
AcDbLine
 10
1118.499979077718
 20
1550.000036489719
 30
0.0
 11
1125.499979077718
 21
1550.000036489719
 31
0.0
  0
LINE
  5
14491
330
1F
100
AcDbEntity
  8
実線
100
AcDbLine
 10
1118.499979077718
 20
1495.000036489719
 30
0.0
 11
1494.500030870232
 21
1495.000036489719
 31
0.0
  0
LINE
  5
14492
330
1F
100
AcDbEntity
  8
実線
100
AcDbLine
 10
2279.499979077718
 20
1550.000036489719
 30
0.0
 11
2286.499979077718
 21
1550.000036489719
 31
0.0
  0
LINE
  5
14493
330
1F
100
AcDbEntity
  8
実線
100
AcDbLine
 10
1150.499979077718
 20
1550.000036489719
 30
0.0
 11
1494.500030870233
 21
1550.000036489719
 31
0.0
  0
LINE
  5
14494
330
1F
100
AcDbEntity
  8
破線
100
AcDbLine
 10
1125.499979077718
 20
1550.000036489719
 30
0.0
 11
1150.499979077718
 21
1550.000036489719
 31
0.0
  0
LINE
  5
14495
330
1F
100
AcDbEntity
  8
破線
100
AcDbLine
 10
2254.499979077718
 20
1550.000036489719
 30
0.0
 11
2279.499979077718
 21
1550.000036489719
 31
0.0
  0
LINE
  5
14496
330
1F
100
AcDbEntity
  8
破線
100
AcDbLine
 10
1118.499979077718
 20
1507.000036489719
 30
0.0
 11
1150.499979077718
 21
1507.000036489719
 31
0.0
  0
LINE
  5
14497
330
1F
100
AcDbEntity
  8
破線
100
AcDbLine
 10
1150.499979077718
 20
1507.000036489719
 30
0.0
 11
1150.499979077718
 21
1495.000036489719
 31
0.0
  0
LINE
  5
14498
330
1F
100
AcDbEntity
  8
破線
100
AcDbLine
 10
2254.499979077718
 20
1790.000036489719
 30
0.0
 11
2279.499979077718
 21
1790.000036489719
 31
0.0
  0
LINE
  5
14499
330
1F
100
AcDbEntity
  8
実線
100
AcDbLine
 10
1150.499979077718
 20
1790.000036489719
 30
0.0
 11
1494.500030870233
 21
1790.000036489719
 31
0.0
  0
LINE
  5
1449A
330
1F
100
AcDbEntity
  8
実線
100
AcDbLine
 10
2279.499979077718
 20
1790.000036489719
 30
0.0
 11
2286.499979077718
 21
1790.000036489719
 31
0.0
  0
LINE
  5
1449B
330
1F
100
AcDbEntity
  8
実線
100
AcDbLine
 10
1118.499979077718
 20
1845.000036489719
 30
0.0
 11
1494.500030870232
 21
1845.000036489719
 31
0.0
  0
LINE
  5
1449C
330
1F
100
AcDbEntity
  8
実線
100
AcDbLine
 10
2254.499979077718
 20
1794.500036489719
 30
0.0
 11
2274.499979077718
 21
1794.500036489719
 31
0.0
  0
LINE
  5
1449D
330
1F
100
AcDbEntity
  8
実線
100
AcDbLine
 10
2274.499979077718
 20
1794.500036489719
 30
0.0
 11
2286.499979077718
 21
1782.500036489719
 31
0.0
  0
LINE
  5
1449E
330
1F
100
AcDbEntity
  8
破線
100
AcDbLine
 10
1118.499979077718
 20
1833.000036489719
 30
0.0
 11
1150.499979077718
 21
1833.000036489719
 31
0.0
  0
LINE
  5
1449F
330
1F
100
AcDbEntity
  8
破線
100
AcDbLine
 10
1150.499979077718
 20
1833.000036489719
 30
0.0
 11
1150.499979077718
 21
1845.000036489719
 31
0.0
  0
LINE
  5
144A0
330
1F
100
AcDbEntity
  8
破線
100
AcDbLine
 10
1125.499979077718
 20
1790.000036489719
 30
0.0
 11
1150.499979077718
 21
1790.000036489719
 31
0.0
  0
LINE
  5
144A1
330
1F
100
AcDbEntity
  8
実線
100
AcDbLine
 10
1130.499979077718
 20
1794.500036489719
 30
0.0
 11
1150.499979077718
 21
1794.500036489719
 31
0.0
  0
LINE
  5
144A2
330
1F
100
AcDbEntity
  8
実線
100
AcDbLine
 10
1118.499979077718
 20
1782.500036489719
 30
0.0
 11
1130.499979077718
 21
1794.500036489719
 31
0.0
  0
LINE
  5
144A3
330
1F
100
AcDbEntity
  8
実線
100
AcDbLine
 10
1118.499979077718
 20
1790.000036489719
 30
0.0
 11
1125.499979077718
 21
1790.000036489719
 31
0.0
  0
LINE
  5
144A4
330
1F
100
AcDbEntity
  8
破線
100
AcDbLine
 10
2286.499979077718
 20
1507.000036489719
 30
0.0
 11
2254.499979077718
 21
1507.000036489719
 31
0.0
  0
LINE
  5
144A5
330
1F
100
AcDbEntity
  8
破線
100
AcDbLine
 10
2254.499979077718
 20
1507.000036489719
 30
0.0
 11
2254.499979077718
 21
1495.000036489719
 31
0.0
  0
LINE
  5
144A6
330
1F
100
AcDbEntity
  8
破線
100
AcDbLine
 10
2254.499979077718
 20
1833.000036489719
 30
0.0
 11
2254.499979077718
 21
1845.000036489719
 31
0.0
  0
LINE
  5
144A7
330
1F
100
AcDbEntity
  8
破線
100
AcDbLine
 10
2286.499979077718
 20
1833.000036489719
 30
0.0
 11
2254.499979077718
 21
1833.000036489719
 31
0.0
  0
LINE
  5
144A8
330
1F
100
AcDbEntity
  8
破線
100
AcDbLine
 10
1118.499979077718
 20
1676.000036489718
 30
0.0
 11
1150.499979077718
 21
1676.000036489718
 31
0.0
  0
LINE
  5
144A9
330
1F
100
AcDbEntity
  8
破線
100
AcDbLine
 10
1118.499979077718
 20
1664.000036489719
 30
0.0
 11
1150.499979077718
 21
1664.000036489719
 31
0.0
  0
LINE
  5
144AA
330
1F
100
AcDbEntity
  8
破線
100
AcDbLine
 10
2254.499979077718
 20
1676.000036489718
 30
0.0
 11
2286.499979077718
 21
1676.000036489718
 31
0.0
  0
LINE
  5
144AB
330
1F
100
AcDbEntity
  8
破線
100
AcDbLine
 10
2254.499979077718
 20
1664.000036489719
 30
0.0
 11
2286.499979077718
 21
1664.000036489719
 31
0.0
  0
LINE
  5
144AC
330
1F
100
AcDbEntity
  8
実線
100
AcDbLine
 10
2286.499979077718
 20
1485.000054734348
 30
0.0
 11
2286.499979077718
 21
1855.000054734348
 31
0.0
  0
LINE
  5
144AD
330
1F
100
AcDbEntity
  8
実線
100
AcDbLine
 10
2286.499979077718
 20
1855.000036489719
 30
0.0
 11
2302.499979077718
 21
1855.000036489719
 31
0.0
  0
LINE
  5
144AE
330
1F
100
AcDbEntity
  8
実線
100
AcDbLine
 10
2286.499979077718
 20
1485.000036489719
 30
0.0
 11
2302.499979077718
 21
1485.000036489719
 31
0.0
  0
LINE
  5
144AF
330
1F
100
AcDbEntity
  8
中心線
100
AcDbLine
 10
994.4999639829157
 20
1817.500054636946
 30
0.0
 11
2410.499979077719
 21
1817.500054636946
 31
0.0
  0
LINE
  5
144B0
330
1F
100
AcDbEntity
  8
中心線
100
AcDbLine
 10
994.4999639829157
 20
1522.500014936928
 30
0.0
 11
2410.499979077719
 21
1522.500014936928
 31
0.0
  0
LINE
  5
144B1
330
1F
100
AcDbEntity
  8
実線
100
AcDbLine
 10
3642.499963982916
 20
2444.999982593436
 30
0.0
 11
3292.499963982914
 21
2444.999982593436
 31
0.0
  0
LINE
  5
144B2
330
1F
100
AcDbEntity
  8
実線
100
AcDbLine
 10
3292.499963982914
 20
2094.999982593436
 30
0.0
 11
3292.499963982914
 21
2444.999982593436
 31
0.0
  0
LINE
  5
144B3
330
1F
100
AcDbEntity
  8
実線
100
AcDbLine
 10
3642.499963982916
 20
2094.999982593436
 30
0.0
 11
3292.499963982914
 21
2094.999982593436
 31
0.0
  0
LINE
  5
144B4
330
1F
100
AcDbEntity
  8
実線
100
AcDbLine
 10
3642.499963982916
 20
2094.999982593436
 30
0.0
 11
3642.499963982916
 21
2444.999982593436
 31
0.0
  0
LINE
  5
144B5
330
1F
100
AcDbEntity
  8
破線
100
AcDbLine
 10
3642.499963982916
 20
2425.999982593437
 30
0.0
 11
3486.499963982918
 21
2425.999982593437
 31
0.0
  0
LINE
  5
144B6
330
1F
100
AcDbEntity
  8
破線
100
AcDbLine
 10
3473.499963982916
 20
2126.999942967218
 30
0.0
 11
3473.499963982916
 21
2412.999982593436
 31
0.0
  0
LINE
  5
144B7
330
1F
100
AcDbEntity
  8
中心線
100
AcDbLine
 10
3467.499963982916
 20
2069.999962780329
 30
0.0
 11
3467.499963982916
 21
2469.999962780328
 31
0.0
  0
LINE
  5
144B8
330
1F
100
AcDbEntity
  8
実線
100
AcDbLine
 10
3642.499963982916
 20
2437.999982593436
 30
0.0
 11
3292.499963982914
 21
2437.999982593436
 31
0.0
  0
LINE
  5
144B9
330
1F
100
AcDbEntity
  8
実線
100
AcDbLine
 10
3642.499963982916
 20
2101.999982593437
 30
0.0
 11
3292.499963982914
 21
2101.999982593437
 31
0.0
  0
DIMENSION
  5
144BA
330
1F
100
AcDbEntity
  8
寸法線
100
AcDbDimension
280
     0
  2
*D1
 10
3292.499963982914
 20
1974.999942967219
 30
0.0
 11
3467.499963982916
 21
1974.999942967219
 31
0.0
 70
   160
 71
     5
 42
350.0000000000023
 73
     0
 74
     0
 75
     0
  3
STANDARD
100
AcDbAlignedDimension
 13
3642.499963982916
 23
2094.999942967219
 33
0.0
 14
3292.499963982914
 24
2094.999942967219
 34
0.0
100
AcDbRotatedDimension
  0
DIMENSION
  5
144BB
330
1F
100
AcDbEntity
  8
寸法線
100
AcDbDimension
280
     0
  2
*D2
 10
3172.499963982914
 20
2094.999982593437
 30
0.0
 11
3172.499963982914
 21
2269.999962780327
 31
0.0
 70
   160
 71
     5
 42
350.0
 73
     0
 74
     0
 75
     0
  3
STANDARD
100
AcDbAlignedDimension
 13
3292.499963982914
 23
2444.999982593436
 33
0.0
 14
3292.499963982914
 24
2094.999982593436
 34
0.0
 50
270.0
100
AcDbRotatedDimension
  0
DIMENSION
  5
144BC
330
1F
100
AcDbEntity
  8
寸法線
100
AcDbDimension
280
     0
  2
*D3
 10
2922.500033798741
 20
2101.999977559132
 30
0.0
 11
2922.500033798741
 21
2270.000014778806
 31
0.0
 70
   160
 71
     5
 42
336.0000744393519
 73
     0
 74
     0
 75
     0
  3
STANDARD
100
AcDbAlignedDimension
 13
2802.500013985631
 23
2438.000051998483
 33
0.0
 14
2802.500013985631
 24
2101.999977559131
 34
0.0
 50
90.0
100
AcDbRotatedDimension
  0
LINE
  5
144BD
330
1F
100
AcDbEntity
  8
中心線
100
AcDbLine
 10
3667.499963982916
 20
2269.999962780327
 30
0.0
 11
3267.499963982916
 21
2269.999962780327
 31
0.0
  0
ARC
  5
144BE
330
1F
100
AcDbEntity
  8
破線
100
AcDbCircle
 10
3486.499963982918
 20
2412.999982593436
 30
0.0
 40
13.0
100
AcDbArc
 50
90.0
 51
180.0
  0
LINE
  5
144BF
330
1F
100
AcDbEntity
  8
破線
100
AcDbLine
 10
3642.499963982916
 20
2113.999942967218
 30
0.0
 11
3486.499963982918
 21
2113.999942967218
 31
0.0
  0
ARC
  5
144C0
330
1F
100
AcDbEntity
  8
破線
100
AcDbCircle
 10
3486.499963982918
 20
2126.999942967218
 30
0.0
 40
13.0
100
AcDbArc
 50
180.0
 51
270.0
  0
LINE
  5
144C1
330
1F
100
AcDbEntity
  8
破線
100
AcDbLine
 10
3292.499963982916
 20
2425.999982593437
 30
0.0
 11
3448.499963982916
 21
2425.999982593437
 31
0.0
  0
LINE
  5
144C2
330
1F
100
AcDbEntity
  8
破線
100
AcDbLine
 10
3461.499963982916
 20
2126.999942967218
 30
0.0
 11
3461.499963982916
 21
2412.999982593436
 31
0.0
  0
ARC
  5
144C3
330
1F
100
AcDbEntity
  8
破線
100
AcDbCircle
 10
3448.499963982916
 20
2412.999982593436
 30
0.0
 40
13.0
100
AcDbArc
 50
0.0
 51
90.0
  0
LINE
  5
144C4
330
1F
100
AcDbEntity
  8
破線
100
AcDbLine
 10
3292.499963982916
 20
2113.999942967219
 30
0.0
 11
3448.499963982916
 21
2113.999942967219
 31
0.0
  0
ARC
  5
144C5
330
1F
100
AcDbEntity
  8
破線
100
AcDbCircle
 10
3448.499963982916
 20
2126.999942967219
 30
0.0
 40
13.0
100
AcDbArc
 50
270.0
 51
0.0
  0
LINE
  5
144C6
330
1F
100
AcDbEntity
  8
破線
100
AcDbLine
 10
3623.500001202592
 20
2275.999962780327
 30
0.0
 11
3473.499963982916
 21
2275.999962780327
 31
0.0
  0
LINE
  5
144C7
330
1F
100
AcDbEntity
  8
破線
100
AcDbLine
 10
3623.500001202592
 20
2263.999962780328
 30
0.0
 11
3473.499963982916
 21
2263.999962780328
 31
0.0
  0
LINE
  5
144C8
330
1F
100
AcDbEntity
  8
破線
100
AcDbLine
 10
3623.500001202592
 20
2263.999962780328
 30
0.0
 11
3623.500001202592
 21
2275.999962780327
 31
0.0
  0
LINE
  5
144C9
330
1F
100
AcDbEntity
  8
破線
100
AcDbLine
 10
3311.499926763242
 20
2275.999962780327
 30
0.0
 11
3461.499963982916
 21
2275.999962780327
 31
0.0
  0
LINE
  5
144CA
330
1F
100
AcDbEntity
  8
破線
100
AcDbLine
 10
3311.499926763242
 20
2263.999962780328
 30
0.0
 11
3461.499963982916
 21
2263.999962780328
 31
0.0
  0
LINE
  5
144CB
330
1F
100
AcDbEntity
  8
破線
100
AcDbLine
 10
3311.499926763242
 20
2263.999962780328
 30
0.0
 11
3311.499926763242
 21
2275.999962780327
 31
0.0
  0
LINE
  5
144CC
330
1F
100
AcDbEntity
  8
中心線
100
AcDbLine
 10
3367.499945373079
 20
2159.999981390165
 30
0.0
 11
3367.499945373079
 21
2229.999944170491
 31
0.0
  0
CIRCLE
  5
144CD
330
1F
100
AcDbEntity
  8
実線
100
AcDbCircle
 10
3367.499945373079
 20
2194.999962780328
 30
0.0
 40
12.5
  0
LINE
  5
144CE
330
1F
100
AcDbEntity
  8
中心線
100
AcDbLine
 10
3402.499926763243
 20
2194.999962780328
 30
0.0
 11
3332.499963982916
 21
2194.999962780328
 31
0.0
  0
LINE
  5
144CF
330
1F
100
AcDbEntity
  8
中心線
100
AcDbLine
 10
3367.499945373079
 20
2379.999944170491
 30
0.0
 11
3367.499945373079
 21
2309.999981390168
 31
0.0
  0
CIRCLE
  5
144D0
330
1F
100
AcDbEntity
  8
実線
100
AcDbCircle
 10
3367.499945373079
 20
2344.999962780328
 30
0.0
 40
12.5
  0
LINE
  5
144D1
330
1F
100
AcDbEntity
  8
中心線
100
AcDbLine
 10
3402.499926763243
 20
2344.999962780328
 30
0.0
 11
3332.499963982916
 21
2344.999962780328
 31
0.0
  0
LINE
  5
144D2
330
1F
100
AcDbEntity
  8
中心線
100
AcDbLine
 10
3567.499982592754
 20
2159.999981390165
 30
0.0
 11
3567.499982592754
 21
2229.999944170491
 31
0.0
  0
CIRCLE
  5
144D3
330
1F
100
AcDbEntity
  8
実線
100
AcDbCircle
 10
3567.499982592754
 20
2194.999962780328
 30
0.0
 40
12.5
  0
LINE
  5
144D4
330
1F
100
AcDbEntity
  8
中心線
100
AcDbLine
 10
3532.50000120259
 20
2194.999962780328
 30
0.0
 11
3602.499963982916
 21
2194.999962780328
 31
0.0
  0
LINE
  5
144D5
330
1F
100
AcDbEntity
  8
中心線
100
AcDbLine
 10
3567.499982592754
 20
2379.999944170491
 30
0.0
 11
3567.499982592754
 21
2309.999981390168
 31
0.0
  0
CIRCLE
  5
144D6
330
1F
100
AcDbEntity
  8
実線
100
AcDbCircle
 10
3567.499982592754
 20
2344.999962780328
 30
0.0
 40
12.5
  0
LINE
  5
144D7
330
1F
100
AcDbEntity
  8
中心線
100
AcDbLine
 10
3532.50000120259
 20
2344.999962780328
 30
0.0
 11
3602.499963982916
 21
2344.999962780328
 31
0.0
  0
LEADER
  5
144D8
330
1F
100
AcDbEntity
  8
寸法線
100
AcDbLeader
  3
STANDARD
 76
     3
 10
3375.243663560377
 20
2354.812446086589
 30
0.0
 10
3509.550543247394
 20
2524.999942967215
 30
0.0
 10
3702.12883400766
 20
2524.999942967215
 30
0.0
211
1.0
221
0.0000000000000002
231
0.0
1001
ACAD
1000
DSTYLE
1002
{
1070
   147
1040
0.875
1070
    77
1070
     0
1002
}
  0
TEXT
  5
144D9
330
1F
100
AcDbEntity
  8
寸法線
100
AcDbText
 10
3518.300543247394
 20
2533.749942967215
 30
0.0
 40
25.0
  1
主材連結用孔
 72
     2
 11
3691.633876580727
 21
2558.749942967215
 31
0.0
100
AcDbText
 73
     3
  0
LINE
  5
144DA
330
1F
100
AcDbEntity
  8
実線
100
AcDbLine
 10
602.4999441697982
 20
2437.99998005259
 30
0.0
 11
602.4999441697982
 21
2101.99998005259
 31
0.0
  0
LINE
  5
144DB
330
1F
100
AcDbEntity
  8
実線
100
AcDbLine
 10
618.4999639829002
 20
2444.999942832916
 30
0.0
 11
618.4999441697982
 21
2094.99998005259
 31
0.0
  0
LINE
  5
144DC
330
1F
100
AcDbEntity
  8
実線
100
AcDbLine
 10
618.4999639829002
 20
2444.999942832916
 30
0.0
 11
1102.4999639829
 21
2444.999942832916
 31
0.0
  0
LINE
  5
144DD
330
1F
100
AcDbEntity
  8
実線
100
AcDbLine
 10
618.4999629073391
 20
2425.999942832917
 30
0.0
 11
1102.4999639829
 21
2425.999942832917
 31
0.0
  0
LINE
  5
144DE
330
1F
100
AcDbEntity
  8
実線
100
AcDbLine
 10
1002.499944169798
 20
2425.999942832917
 30
0.0
 11
1002.499944169798
 21
2405.99998005259
 31
0.0
  0
LINE
  5
144DF
330
1F
100
AcDbEntity
  8
実線
100
AcDbLine
 10
1072.4999639829
 20
2375.999942832917
 30
0.0
 11
1102.4999639829
 21
2375.999942832917
 31
0.0
  0
LINE
  5
144E0
330
1F
100
AcDbEntity
  8
実線
100
AcDbLine
 10
1002.499944169798
 20
2405.99998005259
 30
0.0
 11
1072.4999639829
 21
2375.999942832917
 31
0.0
  0
LINE
  5
144E1
330
1F
100
AcDbEntity
  8
実線
100
AcDbLine
 10
602.4999441697982
 20
2437.99998005259
 30
0.0
 11
618.4999441697982
 21
2437.99998005259
 31
0.0
  0
LINE
  5
144E2
330
1F
100
AcDbEntity
  8
仮想線
100
AcDbLine
 10
618.4999441697982
 20
2444.999951103956
 30
0.0
 11
611.4999731184324
 21
2437.99998005259
 31
0.0
  0
LINE
  5
144E3
330
1F
100
AcDbEntity
  8
実線
100
AcDbLine
 10
618.4999441697982
 20
2275.999942832917
 30
0.0
 11
798.4999639829002
 21
2275.999942832917
 31
0.0
  0
LINE
  5
144E4
330
1F
100
AcDbEntity
  8
実線
100
AcDbLine
 10
618.4999441697982
 20
2263.999942832917
 30
0.0
 11
798.4999639829002
 21
2263.999942832917
 31
0.0
  0
LINE
  5
144E5
330
1F
100
AcDbEntity
  8
実線
100
AcDbLine
 10
1102.499979077718
 20
2084.999999999999
 30
0.0
 11
1102.499979077718
 21
2455.00001994741
 31
0.0
  0
LINE
  5
144E6
330
1F
100
AcDbEntity
  8
実線
100
AcDbLine
 10
1092.499944169798
 20
2425.999942832917
 30
0.0
 11
1102.4999639829
 21
2415.999942832916
 31
0.0
  0
LINE
  5
144E7
330
1F
100
AcDbEntity
  8
仮想線
100
AcDbLine
 10
1095.499950113731
 20
2425.999942832917
 30
0.0
 11
1102.4999639829
 21
2418.999942832917
 31
0.0
  0
LINE
  5
144E8
330
1F
100
AcDbEntity
  8
実線
100
AcDbLine
 10
618.4999441697982
 20
2094.999932407962
 30
0.0
 11
1102.4999639829
 21
2094.999942832916
 31
0.0
  0
LINE
  5
144E9
330
1F
100
AcDbEntity
  8
実線
100
AcDbLine
 10
618.4999452453593
 20
2113.999942832916
 30
0.0
 11
1102.4999639829
 21
2113.999942832916
 31
0.0
  0
LINE
  5
144EA
330
1F
100
AcDbEntity
  8
実線
100
AcDbLine
 10
1002.499944169798
 20
2113.999942832916
 30
0.0
 11
1002.499944169798
 21
2133.999905613239
 31
0.0
  0
LINE
  5
144EB
330
1F
100
AcDbEntity
  8
実線
100
AcDbLine
 10
1072.4999639829
 20
2163.999942832917
 30
0.0
 11
1102.4999639829
 21
2163.999942832917
 31
0.0
  0
LINE
  5
144EC
330
1F
100
AcDbEntity
  8
実線
100
AcDbLine
 10
1002.499944169798
 20
2133.999905613239
 30
0.0
 11
1072.4999639829
 21
2163.999942832917
 31
0.0
  0
LINE
  5
144ED
330
1F
100
AcDbEntity
  8
実線
100
AcDbLine
 10
602.4999441697982
 20
2101.999905613239
 30
0.0
 11
618.4999441697982
 21
2101.999905613239
 31
0.0
  0
LINE
  5
144EE
330
1F
100
AcDbEntity
  8
仮想線
100
AcDbLine
 10
618.4999441697982
 20
2094.999934561877
 30
0.0
 11
611.4999731184324
 21
2101.999905613239
 31
0.0
  0
LINE
  5
144EF
330
1F
100
AcDbEntity
  8
実線
100
AcDbLine
 10
1092.499944169798
 20
2113.999942832916
 30
0.0
 11
1102.4999639829
 21
2123.999942832917
 31
0.0
  0
LINE
  5
144F0
330
1F
100
AcDbEntity
  8
仮想線
100
AcDbLine
 10
1095.499950113731
 20
2113.999942832916
 30
0.0
 11
1102.4999639829
 21
2120.999942832917
 31
0.0
  0
LINE
  5
144F1
330
1F
100
AcDbEntity
  8
仮想線
100
AcDbLine
 10
1102.499974549278
 20
2451.999970078635
 30
0.0
 11
1095.499947303553
 21
2444.999942832916
 31
0.0
  0
LINE
  5
144F2
330
1F
100
AcDbEntity
  8
仮想線
100
AcDbLine
 10
1102.499974549278
 20
2087.999993432105
 30
0.0
 11
1095.499947303553
 21
2095.000020677828
 31
0.0
  0
LINE
  5
144F3
330
1F
100
AcDbEntity
  8
実線
100
AcDbLine
 10
798.4999639829002
 20
2275.999942832917
 30
0.0
 11
798.4999639829002
 21
2263.999942832917
 31
0.0
  0
LINE
  5
144F4
330
1F
100
AcDbEntity
  8
中心線
100
AcDbLine
 10
652.4998795451137
 20
2454.999942832917
 30
0.0
 11
652.4998795451137
 21
2415.999942832916
 31
0.0
  0
LINE
  5
144F5
330
1F
100
AcDbEntity
  8
中心線
100
AcDbLine
 10
652.4998795451137
 20
2085.000057167082
 30
0.0
 11
652.4998795451137
 21
2124.000057167081
 31
0.0
  0
LINE
  5
144F6
330
1F
100
AcDbEntity
  8
中心線
100
AcDbLine
 10
702.4998795451137
 20
2454.999942832917
 30
0.0
 11
702.4998795451137
 21
2415.999942832916
 31
0.0
  0
LINE
  5
144F7
330
1F
100
AcDbEntity
  8
中心線
100
AcDbLine
 10
702.4998795451137
 20
2085.000057167082
 30
0.0
 11
702.4998795451137
 21
2124.000057167081
 31
0.0
  0
LINE
  5
144F8
330
1F
100
AcDbEntity
  8
中心線
100
AcDbLine
 10
752.4998795451137
 20
2454.999942832917
 30
0.0
 11
752.4998795451137
 21
2415.999942832916
 31
0.0
  0
LINE
  5
144F9
330
1F
100
AcDbEntity
  8
中心線
100
AcDbLine
 10
752.4998795451137
 20
2085.000057167082
 30
0.0
 11
752.4998795451137
 21
2124.000057167081
 31
0.0
  0
LINE
  5
144FA
330
1F
100
AcDbEntity
  8
中心線
100
AcDbLine
 10
802.4998795451136
 20
2454.999942832917
 30
0.0
 11
802.4998795451136
 21
2415.999942832916
 31
0.0
  0
LINE
  5
144FB
330
1F
100
AcDbEntity
  8
中心線
100
AcDbLine
 10
802.4998795451136
 20
2085.000057167082
 30
0.0
 11
802.4998795451136
 21
2124.000057167081
 31
0.0
  0
LINE
  5
144FC
330
1F
100
AcDbEntity
  8
中心線
100
AcDbLine
 10
852.4998795451136
 20
2454.999942832917
 30
0.0
 11
852.4998795451136
 21
2415.999942832916
 31
0.0
  0
LINE
  5
144FD
330
1F
100
AcDbEntity
  8
中心線
100
AcDbLine
 10
852.4998795451136
 20
2085.000057167082
 30
0.0
 11
852.4998795451136
 21
2124.000057167081
 31
0.0
  0
LINE
  5
144FE
330
1F
100
AcDbEntity
  8
中心線
100
AcDbLine
 10
592.4999937025677
 20
2344.999904633514
 30
0.0
 11
628.500013515677
 21
2344.999904633514
 31
0.0
  0
LINE
  5
144FF
330
1F
100
AcDbEntity
  8
中心線
100
AcDbLine
 10
592.4999937025677
 20
2194.999978357001
 30
0.0
 11
628.500013515677
 21
2194.999978357001
 31
0.0
  0
TEXT
  5
14500
330
1F
100
AcDbEntity
  8
寸法線
100
AcDbText
 10
2383.842392959742
 20
2179.823272949963
 30
0.0
 40
25.0
  1
ﾘﾌﾞﾌﾟﾚｰﾄ①
 72
     2
 11
2527.175726293076
 21
2179.823272949963
 31
0.0
100
AcDbText
 73
     1
  0
LEADER
  5
14501
330
1F
100
AcDbEntity
  8
寸法線
100
AcDbLeader
  3
STANDARD
 76
     3
 10
2346.118543992135
 20
2123.999962780327
 30
0.0
 10
2381.118543992134
 20
2173.999962780327
 30
0.0
 10
2534.209088526852
 20
2173.999962780327
 30
0.0
211
-1.0
221
0.0
231
0.0
1001
ACAD
1000
DSTYLE
1002
{
1070
   147
1040
0.875
1070
    77
1070
     0
1002
}
  0
TEXT
  5
14502
330
1F
100
AcDbEntity
  8
寸法線
100
AcDbText
 10
2599.625299390917
 20
2172.429219751357
 30
0.0
 40
25.0
  1
ｴﾝﾄﾞﾌﾟﾚｰﾄ
 11
2599.625299390917
 21
2172.429219751357
 31
0.0
100
AcDbText
 73
     1
  0
LINE
  5
14505
330
1F
100
AcDbEntity
  8
実線
100
AcDbLine
 10
2802.500013985639
 20
2438.000000000001
 30
0.0
 11
2802.500013985639
 21
2102.000000000001
 31
0.0
  0
LINE
  5
14506
330
1F
100
AcDbEntity
  8
実線
100
AcDbLine
 10
2786.499994172537
 20
2444.999962780328
 30
0.0
 11
2786.500013985639
 21
2095.000000000001
 31
0.0
  0
LINE
  5
14507
330
1F
100
AcDbEntity
  8
実線
100
AcDbLine
 10
2786.499994172537
 20
2444.999962780328
 30
0.0
 11
2302.499994172537
 21
2444.999962780328
 31
0.0
  0
LINE
  5
14508
330
1F
100
AcDbEntity
  8
実線
100
AcDbLine
 10
2786.499995248098
 20
2425.999962780327
 30
0.0
 11
2302.499994172537
 21
2425.999962780327
 31
0.0
  0
LINE
  5
14509
330
1F
100
AcDbEntity
  8
実線
100
AcDbLine
 10
2402.500013985639
 20
2425.999962780327
 30
0.0
 11
2402.500013985639
 21
2406.000000000001
 31
0.0
  0
LINE
  5
1450A
330
1F
100
AcDbEntity
  8
実線
100
AcDbLine
 10
2332.499994172536
 20
2375.999962780327
 30
0.0
 11
2302.499994172537
 21
2375.999962780327
 31
0.0
  0
LINE
  5
1450B
330
1F
100
AcDbEntity
  8
実線
100
AcDbLine
 10
2402.500013985639
 20
2406.000000000001
 30
0.0
 11
2332.499994172536
 21
2375.999962780327
 31
0.0
  0
LINE
  5
1450C
330
1F
100
AcDbEntity
  8
実線
100
AcDbLine
 10
2802.500013985639
 20
2438.000000000001
 30
0.0
 11
2786.500013985639
 21
2438.000000000001
 31
0.0
  0
LINE
  5
1450D
330
1F
100
AcDbEntity
  8
仮想線
100
AcDbLine
 10
2786.500013985639
 20
2444.999971051367
 30
0.0
 11
2793.499985037004
 21
2438.000000000001
 31
0.0
  0
LINE
  5
1450E
330
1F
100
AcDbEntity
  8
実線
100
AcDbLine
 10
2786.500013985639
 20
2275.999962780327
 30
0.0
 11
2606.499994172537
 21
2275.999962780327
 31
0.0
  0
LINE
  5
1450F
330
1F
100
AcDbEntity
  8
実線
100
AcDbLine
 10
2786.500013985639
 20
2263.999962780328
 30
0.0
 11
2606.499994172537
 21
2263.999962780328
 31
0.0
  0
LINE
  5
14510
330
1F
100
AcDbEntity
  8
実線
100
AcDbLine
 10
2312.500013985638
 20
2425.999962780327
 30
0.0
 11
2302.499994172537
 21
2415.999962780328
 31
0.0
  0
LINE
  5
14511
330
1F
100
AcDbEntity
  8
仮想線
100
AcDbLine
 10
2309.500008041705
 20
2425.999962780327
 30
0.0
 11
2302.499994172537
 21
2418.999962780328
 31
0.0
  0
LINE
  5
14512
330
1F
100
AcDbEntity
  8
実線
100
AcDbLine
 10
2786.500013985639
 20
2094.999952355372
 30
0.0
 11
2302.499994172537
 21
2094.999962780327
 31
0.0
  0
LINE
  5
14513
330
1F
100
AcDbEntity
  8
実線
100
AcDbLine
 10
2786.500012910077
 20
2113.999962780328
 30
0.0
 11
2302.499994172537
 21
2113.999962780328
 31
0.0
  0
LINE
  5
14514
330
1F
100
AcDbEntity
  8
実線
100
AcDbLine
 10
2402.500013985639
 20
2113.999962780328
 30
0.0
 11
2402.500013985639
 21
2133.99992556065
 31
0.0
  0
LINE
  5
14515
330
1F
100
AcDbEntity
  8
実線
100
AcDbLine
 10
2332.499994172536
 20
2163.999962780328
 30
0.0
 11
2302.499994172537
 21
2163.999962780328
 31
0.0
  0
LINE
  5
14516
330
1F
100
AcDbEntity
  8
実線
100
AcDbLine
 10
2402.500013985639
 20
2133.99992556065
 30
0.0
 11
2332.499994172536
 21
2163.999962780328
 31
0.0
  0
LINE
  5
14517
330
1F
100
AcDbEntity
  8
実線
100
AcDbLine
 10
2802.500013985639
 20
2101.99992556065
 30
0.0
 11
2786.500013985639
 21
2101.99992556065
 31
0.0
  0
LINE
  5
14518
330
1F
100
AcDbEntity
  8
仮想線
100
AcDbLine
 10
2786.500013985639
 20
2094.999954509288
 30
0.0
 11
2793.499985037004
 21
2101.99992556065
 31
0.0
  0
LINE
  5
14519
330
1F
100
AcDbEntity
  8
実線
100
AcDbLine
 10
2312.500013985638
 20
2113.999962780328
 30
0.0
 11
2302.499994172537
 21
2123.999962780327
 31
0.0
  0
LINE
  5
1451A
330
1F
100
AcDbEntity
  8
仮想線
100
AcDbLine
 10
2309.500008041705
 20
2113.999962780328
 30
0.0
 11
2302.499994172537
 21
2120.999962780327
 31
0.0
  0
LINE
  5
1451B
330
1F
100
AcDbEntity
  8
仮想線
100
AcDbLine
 10
2302.499983606159
 20
2451.999990026045
 30
0.0
 11
2309.500010851884
 21
2444.999962780328
 31
0.0
  0
LINE
  5
1451C
330
1F
100
AcDbEntity
  8
仮想線
100
AcDbLine
 10
2302.499983606159
 20
2088.000013379516
 30
0.0
 11
2309.500010851884
 21
2095.000040625238
 31
0.0
  0
LINE
  5
1451D
330
1F
100
AcDbEntity
  8
実線
100
AcDbLine
 10
2606.499994172537
 20
2275.999962780327
 30
0.0
 11
2606.499994172537
 21
2263.999962780328
 31
0.0
  0
LINE
  5
1451E
330
1F
100
AcDbEntity
  8
中心線
100
AcDbLine
 10
2752.500078610323
 20
2454.999962780327
 30
0.0
 11
2752.500078610323
 21
2415.999962780328
 31
0.0
  0
LINE
  5
1451F
330
1F
100
AcDbEntity
  8
中心線
100
AcDbLine
 10
2752.500078610323
 20
2085.000077114493
 30
0.0
 11
2752.500078610323
 21
2124.000077114492
 31
0.0
  0
LINE
  5
14520
330
1F
100
AcDbEntity
  8
中心線
100
AcDbLine
 10
2702.500078610323
 20
2454.999962780327
 30
0.0
 11
2702.500078610323
 21
2415.999962780328
 31
0.0
  0
LINE
  5
14521
330
1F
100
AcDbEntity
  8
中心線
100
AcDbLine
 10
2702.500078610323
 20
2085.000077114493
 30
0.0
 11
2702.500078610323
 21
2124.000077114492
 31
0.0
  0
LINE
  5
14522
330
1F
100
AcDbEntity
  8
中心線
100
AcDbLine
 10
2652.500078610323
 20
2454.999962780327
 30
0.0
 11
2652.500078610323
 21
2415.999962780328
 31
0.0
  0
LINE
  5
14523
330
1F
100
AcDbEntity
  8
中心線
100
AcDbLine
 10
2652.500078610323
 20
2085.000077114493
 30
0.0
 11
2652.500078610323
 21
2124.000077114492
 31
0.0
  0
LINE
  5
14524
330
1F
100
AcDbEntity
  8
中心線
100
AcDbLine
 10
2602.500078610323
 20
2454.999962780327
 30
0.0
 11
2602.500078610323
 21
2415.999962780328
 31
0.0
  0
LINE
  5
14525
330
1F
100
AcDbEntity
  8
中心線
100
AcDbLine
 10
2602.500078610323
 20
2085.000077114493
 30
0.0
 11
2602.500078610323
 21
2124.000077114492
 31
0.0
  0
LINE
  5
14526
330
1F
100
AcDbEntity
  8
中心線
100
AcDbLine
 10
2552.500078610323
 20
2454.999962780327
 30
0.0
 11
2552.500078610323
 21
2415.999962780328
 31
0.0
  0
LINE
  5
14527
330
1F
100
AcDbEntity
  8
中心線
100
AcDbLine
 10
2552.500078610323
 20
2085.000077114493
 30
0.0
 11
2552.500078610323
 21
2124.000077114492
 31
0.0
  0
DIMENSION
  5
14528
330
1F
100
AcDbEntity
  8
寸法線
100
AcDbDimension
280
     0
  2
*D4
 10
2526.499994172551
 20
2264.000002350013
 30
0.0
 11
2526.499994172551
 21
2270.000002350012
 31
0.0
 70
   160
 71
     5
 42
12.0
 73
     0
 74
     0
 75
     0
  3
STANDARD
100
AcDbAlignedDimension
 13
2606.499994172537
 23
2276.000002350012
 33
0.0
 14
2606.499994172537
 24
2264.000002350012
 34
0.0
 50
90.0
100
AcDbRotatedDimension
1001
ACAD
1000
DSTYLE
1002
{
1070
   140
1040
2.5
1002
}
  0
TEXT
  5
14529
330
1F
100
AcDbEntity
  8
寸法線
100
AcDbText
 10
2522.578811562627
 20
2364.250002350012
 30
0.0
 40
25.0
  1
ﾘﾌﾞﾌﾟﾚｰﾄ②
 72
     2
 11
2665.91214489596
 21
2364.250002350012
 31
0.0
100
AcDbText
 73
     1
  0
LEADER
  5
1452A
330
1F
100
AcDbEntity
  8
寸法線
100
AcDbLeader
  3
STANDARD
 76
     3
 10
2695.964110952013
 20
2275.999982727736
 30
0.0
 10
2674.66214489596
 20
2355.500002350012
 30
0.0
 10
2510.495510010118
 20
2355.500002350012
 30
0.0
1001
ACAD
1000
DSTYLE
1002
{
1070
   147
1040
0.875
1070
    77
1070
     0
1002
}
  0
LINE
  5
1452B
330
1F
100
AcDbEntity
  8
中心線
100
AcDbLine
 10
2776.500053611858
 20
2344.999905971087
 30
0.0
 11
2812.500073424966
 21
2344.999905971087
 31
0.0
  0
LINE
  5
1452C
330
1F
100
AcDbEntity
  8
中心線
100
AcDbLine
 10
2776.500053611858
 20
2194.999979694575
 30
0.0
 11
2812.500073424966
 21
2194.999979694575
 31
0.0
  0
LINE
  5
1452D
330
1F
100
AcDbEntity
  8
破線
100
AcDbLine
 10
618.4999592646017
 20
1675.999995864482
 30
0.0
 11
1102.499963982914
 21
1675.999995864482
 31
0.0
  0
LINE
  5
1452E
330
1F
100
AcDbEntity
  8
破線
100
AcDbLine
 10
628.4999441698127
 20
1675.999995864482
 30
0.0
 11
618.4999441698128
 21
1685.999995864483
 31
0.0
  0
LINE
  5
1452F
330
1F
100
AcDbEntity
  8
破線
100
AcDbLine
 10
1002.499963982915
 20
1825.499995864479
 30
0.0
 11
1102.499944169813
 21
1825.499995864479
 31
0.0
  0
LINE
  5
14530
330
1F
100
AcDbEntity
  8
破線
100
AcDbLine
 10
1002.499963982915
 20
1809.499995864479
 30
0.0
 11
1102.499944169813
 21
1809.499995864479
 31
0.0
  0
LINE
  5
14531
330
1F
100
AcDbEntity
  8
破線
100
AcDbLine
 10
1002.499963982915
 20
1825.499995864479
 30
0.0
 11
1002.499963982915
 21
1809.499995864479
 31
0.0
  0
LINE
  5
14532
330
1F
100
AcDbEntity
  8
破線
100
AcDbLine
 10
618.4999441698128
 20
1825.999995864482
 30
0.0
 11
648.4999639829148
 21
1825.999995864482
 31
0.0
  0
LINE
  5
14533
330
1F
100
AcDbEntity
  8
破線
100
AcDbLine
 10
798.4999441698128
 20
1706.00003308416
 30
0.0
 11
798.4999441698128
 21
1675.999995864482
 31
0.0
  0
LINE
  5
14534
330
1F
100
AcDbEntity
  8
破線
100
AcDbLine
 10
648.4999639829148
 20
1825.999995864482
 30
0.0
 11
798.4999441698128
 21
1706.00003308416
 31
0.0
  0
LINE
  5
14535
330
1F
100
AcDbEntity
  8
破線
100
AcDbLine
 10
618.4999592646017
 20
1663.999995864479
 30
0.0
 11
1102.499963982914
 21
1663.999995864479
 31
0.0
  0
LINE
  5
14536
330
1F
100
AcDbEntity
  8
破線
100
AcDbLine
 10
628.4999441698127
 20
1663.999995864479
 30
0.0
 11
618.4999441698128
 21
1653.999995864479
 31
0.0
  0
LINE
  5
14537
330
1F
100
AcDbEntity
  8
破線
100
AcDbLine
 10
1002.499963982915
 20
1514.499995864479
 30
0.0
 11
1102.499944169813
 21
1514.499995864479
 31
0.0
  0
LINE
  5
14538
330
1F
100
AcDbEntity
  8
破線
100
AcDbLine
 10
1002.499963982915
 20
1530.499995864479
 30
0.0
 11
1102.499944169813
 21
1530.499995864479
 31
0.0
  0
LINE
  5
14539
330
1F
100
AcDbEntity
  8
破線
100
AcDbLine
 10
1002.499963982915
 20
1514.499995864479
 30
0.0
 11
1002.499963982915
 21
1530.499995864479
 31
0.0
  0
LINE
  5
1453A
330
1F
100
AcDbEntity
  8
破線
100
AcDbLine
 10
618.4999441698128
 20
1513.999995864479
 30
0.0
 11
648.4999639829148
 21
1513.999995864479
 31
0.0
  0
LINE
  5
1453B
330
1F
100
AcDbEntity
  8
破線
100
AcDbLine
 10
798.4999441698128
 20
1633.999958644805
 30
0.0
 11
798.4999441698128
 21
1663.999995864479
 31
0.0
  0
LINE
  5
1453C
330
1F
100
AcDbEntity
  8
破線
100
AcDbLine
 10
648.4999639829148
 20
1513.999995864479
 30
0.0
 11
798.4999441698128
 21
1633.999958644805
 31
0.0
  0
LINE
  5
1453D
330
1F
100
AcDbEntity
  8
実線
100
AcDbLine
 10
1102.499979077718
 20
1855.000054734348
 30
0.0
 11
1102.499979077718
 21
1485.000034786938
 31
0.0
  0
LINE
  5
1453E
330
1F
100
AcDbEntity
  8
実線
100
AcDbLine
 10
602.4999592646017
 20
1495.000070303833
 30
0.0
 11
1102.499963982914
 21
1495.000070303833
 31
0.0
  0
LINE
  5
1453F
330
1F
100
AcDbEntity
  8
実線
100
AcDbLine
 10
602.4999592646017
 20
1844.999921425132
 30
0.0
 11
1102.499963982914
 21
1844.999921425132
 31
0.0
  0
LINE
  5
14540
330
1F
100
AcDbEntity
  8
実線
100
AcDbLine
 10
618.4999592646017
 20
1844.999921425132
 30
0.0
 11
618.4999592646017
 21
1495.000070303833
 31
0.0
  0
LINE
  5
14541
330
1F
100
AcDbEntity
  8
実線
100
AcDbLine
 10
602.4999592646017
 20
1844.999921425132
 30
0.0
 11
602.4999592646017
 21
1495.000070303833
 31
0.0
  0
LINE
  5
14542
330
1F
100
AcDbEntity
  8
仮想線
100
AcDbLine
 10
624.4999592646017
 20
1675.999884205458
 30
0.0
 11
618.4999592646017
 21
1681.999884205458
 31
0.0
  0
LINE
  5
14543
330
1F
100
AcDbEntity
  8
仮想線
100
AcDbLine
 10
624.4999592646017
 20
1663.999884205454
 30
0.0
 11
618.4999592646017
 21
1657.999884205454
 31
0.0
  0
LEADER
  5
14544
330
1F
100
AcDbEntity
  8
寸法線
100
AcDbLeader
  3
STANDARD
 76
     3
 10
658.7499592646017
 20
1755.825332021623
 30
0.0
 10
753.8050373729455
 20
1925.000032726274
 30
0.0
 10
1021.465214307765
 20
1925.000032726274
 30
0.0
211
-1.0
221
0.0
231
0.0
1001
ACAD
1000
DSTYLE
1002
{
1070
   147
1040
0.875
1070
    77
1070
     0
1002
}
  0
TEXT
  5
14545
330
1F
100
AcDbEntity
  8
寸法線
100
AcDbText
 10
762.5550373729405
 20
1933.750032726274
 30
0.0
 40
25.0
  1
ｶﾊﾞｰﾌﾟﾚｰﾄ連結用孔
 72
     2
 11
1010.888370706274
 21
1958.750032726274
 31
0.0
100
AcDbText
 73
     3
  0
LINE
  5
14546
330
1F
100
AcDbEntity
  8
中心線
100
AcDbLine
 10
652.4999592646017
 20
1779.999995864483
 30
0.0
 11
652.4999592646017
 21
1710.000033084156
 31
0.0
  0
LINE
  5
14547
330
1F
100
AcDbEntity
  8
中心線
100
AcDbLine
 10
617.4999778744422
 20
1745.000014474319
 30
0.0
 11
687.4999406547612
 21
1745.000014474319
 31
0.0
  0
CIRCLE
  5
14548
330
1F
100
AcDbEntity
  8
実線
100
AcDbCircle
 10
652.4999592646017
 20
1745.000014474319
 30
0.0
 40
12.5
  0
LINE
  5
14549
330
1F
100
AcDbEntity
  8
中心線
100
AcDbLine
 10
652.4999592646017
 20
1560.00009586448
 30
0.0
 11
652.4999592646017
 21
1630.000058644806
 31
0.0
  0
LINE
  5
1454A
330
1F
100
AcDbEntity
  8
中心線
100
AcDbLine
 10
617.4999778744422
 20
1595.000077254643
 30
0.0
 11
687.4999406547612
 21
1595.000077254643
 31
0.0
  0
CIRCLE
  5
1454B
330
1F
100
AcDbEntity
  8
実線
100
AcDbCircle
 10
652.4999592646017
 20
1595.000077254643
 30
0.0
 40
12.5
  0
LINE
  5
1454C
330
1F
100
AcDbEntity
  8
中心線
100
AcDbLine
 10
852.4999592646018
 20
1560.00009586448
 30
0.0
 11
852.4999592646018
 21
1630.000058644806
 31
0.0
  0
LINE
  5
1454D
330
1F
100
AcDbEntity
  8
中心線
100
AcDbLine
 10
817.4999778744423
 20
1595.000077254643
 30
0.0
 11
887.4999406547614
 21
1595.000077254643
 31
0.0
  0
LINE
  5
1454E
330
1F
100
AcDbEntity
  8
中心線
100
AcDbLine
 10
752.4999592646017
 20
1779.999995864483
 30
0.0
 11
752.4999592646017
 21
1710.000033084156
 31
0.0
  0
LINE
  5
1454F
330
1F
100
AcDbEntity
  8
中心線
100
AcDbLine
 10
717.4999778744422
 20
1745.000014474319
 30
0.0
 11
787.4999406547612
 21
1745.000014474319
 31
0.0
  0
CIRCLE
  5
14550
330
1F
100
AcDbEntity
  8
実線
100
AcDbCircle
 10
752.4999592646017
 20
1745.000014474319
 30
0.0
 40
12.5
  0
LINE
  5
14551
330
1F
100
AcDbEntity
  8
中心線
100
AcDbLine
 10
752.4999592646017
 20
1560.00009586448
 30
0.0
 11
752.4999592646017
 21
1630.000058644806
 31
0.0
  0
LINE
  5
14552
330
1F
100
AcDbEntity
  8
中心線
100
AcDbLine
 10
717.4999778744422
 20
1595.000077254643
 30
0.0
 11
787.4999406547612
 21
1595.000077254643
 31
0.0
  0
CIRCLE
  5
14553
330
1F
100
AcDbEntity
  8
実線
100
AcDbCircle
 10
752.4999592646017
 20
1595.000077254643
 30
0.0
 40
12.5
  0
LINE
  5
14554
330
1F
100
AcDbEntity
  8
中心線
100
AcDbLine
 10
852.4999592646018
 20
1779.999995864483
 30
0.0
 11
852.4999592646018
 21
1710.000033084156
 31
0.0
  0
LINE
  5
14555
330
1F
100
AcDbEntity
  8
中心線
100
AcDbLine
 10
817.4999778744423
 20
1745.000014474319
 30
0.0
 11
887.4999406547614
 21
1745.000014474319
 31
0.0
  0
CIRCLE
  5
14556
330
1F
100
AcDbEntity
  8
実線
100
AcDbCircle
 10
852.4999592646018
 20
1745.000014474319
 30
0.0
 40
12.5
  0
LINE
  5
14557
330
1F
100
AcDbEntity
  8
中心線
100
AcDbLine
 10
702.4999592646017
 20
1829.999995864483
 30
0.0
 11
702.4999592646017
 21
1760.000033084156
 31
0.0
  0
LINE
  5
14558
330
1F
100
AcDbEntity
  8
中心線
100
AcDbLine
 10
667.4999778744422
 20
1795.000014474319
 30
0.0
 11
737.4999406547612
 21
1795.000014474319
 31
0.0
  0
CIRCLE
  5
14559
330
1F
100
AcDbEntity
  8
実線
100
AcDbCircle
 10
702.4999592646017
 20
1795.000014474319
 30
0.0
 40
12.5
  0
LINE
  5
1455A
330
1F
100
AcDbEntity
  8
中心線
100
AcDbLine
 10
802.4999592646018
 20
1829.999995864483
 30
0.0
 11
802.4999592646018
 21
1760.000033084156
 31
0.0
  0
LINE
  5
1455B
330
1F
100
AcDbEntity
  8
中心線
100
AcDbLine
 10
767.4999778744422
 20
1795.000014474319
 30
0.0
 11
837.4999406547612
 21
1795.000014474319
 31
0.0
  0
CIRCLE
  5
1455C
330
1F
100
AcDbEntity
  8
実線
100
AcDbCircle
 10
802.4999592646018
 20
1795.000014474319
 30
0.0
 40
12.5
  0
LINE
  5
1455D
330
1F
100
AcDbEntity
  8
中心線
100
AcDbLine
 10
702.4999592646017
 20
1510.00009586448
 30
0.0
 11
702.4999592646017
 21
1580.000058644806
 31
0.0
  0
LINE
  5
1455E
330
1F
100
AcDbEntity
  8
中心線
100
AcDbLine
 10
667.4999778744422
 20
1545.000077254643
 30
0.0
 11
737.4999406547612
 21
1545.000077254643
 31
0.0
  0
CIRCLE
  5
1455F
330
1F
100
AcDbEntity
  8
実線
100
AcDbCircle
 10
702.4999592646017
 20
1545.000077254643
 30
0.0
 40
12.5
  0
LINE
  5
14560
330
1F
100
AcDbEntity
  8
中心線
100
AcDbLine
 10
802.4999592646018
 20
1510.00009586448
 30
0.0
 11
802.4999592646018
 21
1580.000058644806
 31
0.0
  0
LINE
  5
14561
330
1F
100
AcDbEntity
  8
中心線
100
AcDbLine
 10
767.4999778744422
 20
1545.000077254643
 30
0.0
 11
837.4999406547612
 21
1545.000077254643
 31
0.0
  0
CIRCLE
  5
14562
330
1F
100
AcDbEntity
  8
実線
100
AcDbCircle
 10
802.4999592646018
 20
1545.000077254643
 30
0.0
 40
12.5
  0
CIRCLE
  5
14563
330
1F
100
AcDbEntity
  8
実線
100
AcDbCircle
 10
852.4999592646018
 20
1595.000077254643
 30
0.0
 40
12.5
  0
LINE
  5
14564
330
1F
100
AcDbEntity
  8
中心線
100
AcDbLine
 10
592.5000087973712
 20
1769.999920445406
 30
0.0
 11
628.5000286104803
 21
1769.999920445406
 31
0.0
  0
LINE
  5
14565
330
1F
100
AcDbEntity
  8
中心線
100
AcDbLine
 10
592.5000087973712
 20
1569.999994168894
 30
0.0
 11
628.5000286104803
 21
1569.999994168894
 31
0.0
  0
LINE
  5
14566
330
1F
100
AcDbEntity
  8
破線
100
AcDbLine
 10
2786.499998890835
 20
1676.000015811892
 30
0.0
 11
2302.499994172522
 21
1676.000015811892
 31
0.0
  0
LINE
  5
14567
330
1F
100
AcDbEntity
  8
破線
100
AcDbLine
 10
2776.500013985624
 20
1676.000015811892
 30
0.0
 11
2786.500013985624
 21
1686.000015811892
 31
0.0
  0
LINE
  5
14568
330
1F
100
AcDbEntity
  8
破線
100
AcDbLine
 10
2402.499994172522
 20
1825.500015811889
 30
0.0
 11
2302.500013985624
 21
1825.500015811889
 31
0.0
  0
LINE
  5
14569
330
1F
100
AcDbEntity
  8
破線
100
AcDbLine
 10
2402.499994172522
 20
1809.500015811889
 30
0.0
 11
2302.500013985624
 21
1809.500015811889
 31
0.0
  0
LINE
  5
1456A
330
1F
100
AcDbEntity
  8
破線
100
AcDbLine
 10
2402.499994172522
 20
1825.500015811889
 30
0.0
 11
2402.499994172522
 21
1809.500015811889
 31
0.0
  0
LINE
  5
1456B
330
1F
100
AcDbEntity
  8
破線
100
AcDbLine
 10
2786.500013985624
 20
1826.000015811892
 30
0.0
 11
2756.499994172522
 21
1826.000015811892
 31
0.0
  0
LINE
  5
1456C
330
1F
100
AcDbEntity
  8
破線
100
AcDbLine
 10
2606.500013985624
 20
1706.00005303157
 30
0.0
 11
2606.500013985624
 21
1676.000015811892
 31
0.0
  0
LINE
  5
1456D
330
1F
100
AcDbEntity
  8
破線
100
AcDbLine
 10
2756.499994172522
 20
1826.000015811892
 30
0.0
 11
2606.500013985624
 21
1706.00005303157
 31
0.0
  0
LINE
  5
1456E
330
1F
100
AcDbEntity
  8
破線
100
AcDbLine
 10
2786.499998890835
 20
1664.000015811889
 30
0.0
 11
2302.499994172522
 21
1664.000015811889
 31
0.0
  0
LINE
  5
1456F
330
1F
100
AcDbEntity
  8
破線
100
AcDbLine
 10
2776.500013985624
 20
1664.000015811889
 30
0.0
 11
2786.500013985624
 21
1654.000015811889
 31
0.0
  0
LINE
  5
14570
330
1F
100
AcDbEntity
  8
破線
100
AcDbLine
 10
2402.499994172522
 20
1514.500015811889
 30
0.0
 11
2302.500013985624
 21
1514.500015811889
 31
0.0
  0
LINE
  5
14571
330
1F
100
AcDbEntity
  8
破線
100
AcDbLine
 10
2402.499994172522
 20
1530.500015811889
 30
0.0
 11
2302.500013985624
 21
1530.500015811889
 31
0.0
  0
LINE
  5
14572
330
1F
100
AcDbEntity
  8
破線
100
AcDbLine
 10
2402.499994172522
 20
1514.500015811889
 30
0.0
 11
2402.499994172522
 21
1530.500015811889
 31
0.0
  0
LINE
  5
14573
330
1F
100
AcDbEntity
  8
破線
100
AcDbLine
 10
2786.500013985624
 20
1514.000015811889
 30
0.0
 11
2756.499994172522
 21
1514.000015811889
 31
0.0
  0
LINE
  5
14574
330
1F
100
AcDbEntity
  8
破線
100
AcDbLine
 10
2606.500013985624
 20
1633.999978592215
 30
0.0
 11
2606.500013985624
 21
1664.000015811889
 31
0.0
  0
LINE
  5
14575
330
1F
100
AcDbEntity
  8
破線
100
AcDbLine
 10
2756.499994172522
 20
1514.000015811889
 30
0.0
 11
2606.500013985624
 21
1633.999978592215
 31
0.0
  0
LINE
  5
14576
330
1F
100
AcDbEntity
  8
実線
100
AcDbLine
 10
2302.499979077718
 20
1855.000054734347
 30
0.0
 11
2302.499979077718
 21
1485.000054734348
 31
0.0
  0
LINE
  5
14577
330
1F
100
AcDbEntity
  8
実線
100
AcDbLine
 10
2802.499998890835
 20
1495.000090251243
 30
0.0
 11
2302.499994172522
 21
1495.000090251243
 31
0.0
  0
LINE
  5
14578
330
1F
100
AcDbEntity
  8
実線
100
AcDbLine
 10
2802.499998890835
 20
1844.999941372541
 30
0.0
 11
2302.499994172522
 21
1844.999941372541
 31
0.0
  0
LINE
  5
14579
330
1F
100
AcDbEntity
  8
実線
100
AcDbLine
 10
2786.499998890835
 20
1844.999941372541
 30
0.0
 11
2786.499998890835
 21
1495.000090251243
 31
0.0
  0
LINE
  5
1457A
330
1F
100
AcDbEntity
  8
実線
100
AcDbLine
 10
2802.499998890835
 20
1844.999941372541
 30
0.0
 11
2802.499998890835
 21
1495.000090251243
 31
0.0
  0
LINE
  5
1457B
330
1F
100
AcDbEntity
  8
仮想線
100
AcDbLine
 10
2780.499998890835
 20
1675.999904152868
 30
0.0
 11
2786.499998890835
 21
1681.999904152868
 31
0.0
  0
LINE
  5
1457C
330
1F
100
AcDbEntity
  8
仮想線
100
AcDbLine
 10
2780.499998890835
 20
1663.999904152864
 30
0.0
 11
2786.499998890835
 21
1657.999904152864
 31
0.0
  0
LINE
  5
1457D
330
1F
100
AcDbEntity
  8
中心線
100
AcDbLine
 10
2752.499998890835
 20
1780.000015811893
 30
0.0
 11
2752.499998890835
 21
1710.000053031566
 31
0.0
  0
LINE
  5
1457E
330
1F
100
AcDbEntity
  8
中心線
100
AcDbLine
 10
2787.499980280994
 20
1745.000034421729
 30
0.0
 11
2717.500017500676
 21
1745.000034421729
 31
0.0
  0
CIRCLE
  5
1457F
330
1F
100
AcDbEntity
  8
実線
100
AcDbCircle
 10
2752.499998890835
 20
1745.000034421729
 30
0.0
 40
12.5
  0
LINE
  5
14580
330
1F
100
AcDbEntity
  8
中心線
100
AcDbLine
 10
2752.499998890835
 20
1560.00011581189
 30
0.0
 11
2752.499998890835
 21
1630.000078592216
 31
0.0
  0
LINE
  5
14581
330
1F
100
AcDbEntity
  8
中心線
100
AcDbLine
 10
2787.499980280994
 20
1595.000097202053
 30
0.0
 11
2717.500017500676
 21
1595.000097202053
 31
0.0
  0
CIRCLE
  5
14582
330
1F
100
AcDbEntity
  8
実線
100
AcDbCircle
 10
2752.499998890835
 20
1595.000097202053
 30
0.0
 40
12.5
  0
LINE
  5
14583
330
1F
100
AcDbEntity
  8
中心線
100
AcDbLine
 10
2552.499998890835
 20
1560.00011581189
 30
0.0
 11
2552.499998890835
 21
1630.000078592216
 31
0.0
  0
LINE
  5
14584
330
1F
100
AcDbEntity
  8
中心線
100
AcDbLine
 10
2587.499980280995
 20
1595.000097202053
 30
0.0
 11
2517.500017500676
 21
1595.000097202053
 31
0.0
  0
LINE
  5
14585
330
1F
100
AcDbEntity
  8
中心線
100
AcDbLine
 10
2652.499998890835
 20
1780.000015811893
 30
0.0
 11
2652.499998890835
 21
1710.000053031566
 31
0.0
  0
LINE
  5
14586
330
1F
100
AcDbEntity
  8
中心線
100
AcDbLine
 10
2687.499980280995
 20
1745.000034421729
 30
0.0
 11
2617.500017500676
 21
1745.000034421729
 31
0.0
  0
CIRCLE
  5
14587
330
1F
100
AcDbEntity
  8
実線
100
AcDbCircle
 10
2652.499998890835
 20
1745.000034421729
 30
0.0
 40
12.5
  0
LINE
  5
14588
330
1F
100
AcDbEntity
  8
中心線
100
AcDbLine
 10
2652.499998890835
 20
1560.00011581189
 30
0.0
 11
2652.499998890835
 21
1630.000078592216
 31
0.0
  0
LINE
  5
14589
330
1F
100
AcDbEntity
  8
中心線
100
AcDbLine
 10
2687.499980280995
 20
1595.000097202053
 30
0.0
 11
2617.500017500676
 21
1595.000097202053
 31
0.0
  0
CIRCLE
  5
1458A
330
1F
100
AcDbEntity
  8
実線
100
AcDbCircle
 10
2652.499998890835
 20
1595.000097202053
 30
0.0
 40
12.5
  0
LINE
  5
1458B
330
1F
100
AcDbEntity
  8
中心線
100
AcDbLine
 10
2552.499998890835
 20
1780.000015811893
 30
0.0
 11
2552.499998890835
 21
1710.000053031566
 31
0.0
  0
LINE
  5
1458C
330
1F
100
AcDbEntity
  8
中心線
100
AcDbLine
 10
2587.499980280995
 20
1745.000034421729
 30
0.0
 11
2517.500017500676
 21
1745.000034421729
 31
0.0
  0
CIRCLE
  5
1458D
330
1F
100
AcDbEntity
  8
実線
100
AcDbCircle
 10
2552.499998890835
 20
1745.000034421729
 30
0.0
 40
12.5
  0
LINE
  5
1458E
330
1F
100
AcDbEntity
  8
中心線
100
AcDbLine
 10
2702.499998890835
 20
1830.000015811893
 30
0.0
 11
2702.499998890835
 21
1760.000053031566
 31
0.0
  0
LINE
  5
1458F
330
1F
100
AcDbEntity
  8
中心線
100
AcDbLine
 10
2737.499980280995
 20
1795.000034421729
 30
0.0
 11
2667.500017500676
 21
1795.000034421729
 31
0.0
  0
CIRCLE
  5
14590
330
1F
100
AcDbEntity
  8
実線
100
AcDbCircle
 10
2702.499998890835
 20
1795.000034421729
 30
0.0
 40
12.5
  0
LINE
  5
14591
330
1F
100
AcDbEntity
  8
中心線
100
AcDbLine
 10
2602.499998890835
 20
1830.000015811893
 30
0.0
 11
2602.499998890835
 21
1760.000053031566
 31
0.0
  0
LINE
  5
14592
330
1F
100
AcDbEntity
  8
中心線
100
AcDbLine
 10
2637.499980280995
 20
1795.000034421729
 30
0.0
 11
2567.500017500675
 21
1795.000034421729
 31
0.0
  0
CIRCLE
  5
14593
330
1F
100
AcDbEntity
  8
実線
100
AcDbCircle
 10
2602.499998890835
 20
1795.000034421729
 30
0.0
 40
12.5
  0
LINE
  5
14594
330
1F
100
AcDbEntity
  8
中心線
100
AcDbLine
 10
2702.499998890835
 20
1510.00011581189
 30
0.0
 11
2702.499998890835
 21
1580.000078592216
 31
0.0
  0
LINE
  5
14595
330
1F
100
AcDbEntity
  8
中心線
100
AcDbLine
 10
2737.499980280995
 20
1545.000097202053
 30
0.0
 11
2667.500017500676
 21
1545.000097202053
 31
0.0
  0
CIRCLE
  5
14596
330
1F
100
AcDbEntity
  8
実線
100
AcDbCircle
 10
2702.499998890835
 20
1545.000097202053
 30
0.0
 40
12.5
  0
LINE
  5
14597
330
1F
100
AcDbEntity
  8
中心線
100
AcDbLine
 10
2602.499998890835
 20
1510.00011581189
 30
0.0
 11
2602.499998890835
 21
1580.000078592216
 31
0.0
  0
LINE
  5
14598
330
1F
100
AcDbEntity
  8
中心線
100
AcDbLine
 10
2637.499980280995
 20
1545.000097202053
 30
0.0
 11
2567.500017500675
 21
1545.000097202053
 31
0.0
  0
CIRCLE
  5
14599
330
1F
100
AcDbEntity
  8
実線
100
AcDbCircle
 10
2602.499998890835
 20
1545.000097202053
 30
0.0
 40
12.5
  0
CIRCLE
  5
1459A
330
1F
100
AcDbEntity
  8
実線
100
AcDbCircle
 10
2552.499998890835
 20
1595.000097202053
 30
0.0
 40
12.5
  0
DIMENSION
  5
1459B
330
1F
100
AcDbEntity
  8
寸法線
100
AcDbDimension
280
     0
  2
*D19
 10
2482.499994172522
 20
1522.500014936929
 30
0.0
 11
2482.499994172522
 21
1508.750052773176
 31
0.0
 70
   160
 71
     5
 42
27.49992432750401
 73
     0
 74
     0
 75
     0
  3
STANDARD
100
AcDbAlignedDimension
 13
2302.499979077718
 23
1495.000090609424
 33
0.0
 14
2410.499979077719
 24
1522.500014936928
 34
0.0
 50
90.0
100
AcDbRotatedDimension
1001
ACAD
1000
DSTYLE
1002
{
1070
   271
1070
     1
1002
}
  0
DIMENSION
  5
1459C
330
1F
100
AcDbEntity
  8
寸法線
100
AcDbDimension
280
     0
  2
*D20
 10
2482.499994172522
 20
1809.50001581189
 30
0.0
 11
2482.499994172522
 21
1817.500015811889
 31
0.0
 70
   160
 71
     5
 42
16.0
 73
     0
 74
     0
 75
     0
  3
STANDARD
100
AcDbAlignedDimension
 13
2402.499994172522
 23
1825.500015811889
 33
0.0
 14
2402.499994172522
 24
1809.500015811889
 34
0.0
 50
270.0
100
AcDbRotatedDimension
1001
ACAD
1000
DSTYLE
1002
{
1070
   271
1070
     1
1002
}
  0
LEADER
  5
1459D
330
1F
100
AcDbEntity
  8
寸法線
100
AcDbLeader
  3
STANDARD
 76
     3
 10
2558.749998890835
 20
1755.825351969033
 30
0.0
 10
2653.805076999179
 20
1925.000052673684
 30
0.0
 10
2921.465253933999
 20
1925.000052673684
 30
0.0
211
-1.0
221
0.0
231
0.0
1001
ACAD
1000
DSTYLE
1002
{
1070
   147
1040
0.875
1070
    77
1070
     0
1002
}
  0
TEXT
  5
1459E
330
1F
100
AcDbEntity
  8
寸法線
100
AcDbText
 10
2662.555076999173
 20
1933.750052673683
 30
0.0
 40
25.0
  1
ｶﾊﾞｰﾌﾟﾚｰﾄ連結用孔
 72
     2
 11
2910.888410332507
 21
1958.750052673683
 31
0.0
100
AcDbText
 73
     3
  0
LINE
  5
1459F
330
1F
100
AcDbEntity
  8
中心線
100
AcDbLine
 10
2776.500048423605
 20
1769.999940392816
 30
0.0
 11
2812.500068236714
 21
1769.999940392816
 31
0.0
  0
LINE
  5
145A0
330
1F
100
AcDbEntity
  8
中心線
100
AcDbLine
 10
2776.500048423605
 20
1570.000014116303
 30
0.0
 11
2812.500068236714
 21
1570.000014116303
 31
0.0
  0
TEXT
  5
145A1
330
1F
100
AcDbEntity
  8
寸法線
100
AcDbText
 10
3139.770906412968
 20
1808.759921200942
 30
0.0
 40
25.0
  1
※　H型鋼（連結部）の長さは、切梁メーカー仕様または施工条件
 11
3139.770906412968
 21
1808.759921200942
 31
0.0
100
AcDbText
 73
     1
  0
TEXT
  5
145A2
330
1F
100
AcDbEntity
  8
寸法線
100
AcDbText
 10
3139.770906412968
 20
1858.759921200942
 30
0.0
 40
25.0
  1
※　H型鋼（連結部）の穴開け位置は、切梁メーカー仕様による。
 11
3139.770906412968
 21
1858.759921200942
 31
0.0
100
AcDbText
 73
     1
  0
TEXT
  5
145A3
330
1F
100
AcDbEntity
  8
寸法線
100
AcDbText
 10
3139.770906412968
 20
1758.759921200942
 30
0.0
 40
25.0
  1
　　により変更する場合がある。
 11
3139.770906412968
 21
1758.759921200942
 31
0.0
100
AcDbText
 73
     1
  0
TEXT
  5
145A4
330
1F
100
AcDbEntity
  8
寸法線
100
AcDbText
 10
3139.770906412968
 20
1708.759921200942
 30
0.0
 40
25.0
  1
※　空洞金具部は鉄筋防錆剤塗装仕上げ。
 11
3139.770906412968
 21
1708.759921200942
 31
0.0
100
AcDbText
 73
     1
  0
TEXT
  5
145A5
330
1F
100
AcDbEntity
  8
寸法線
100
AcDbText
 10
3139.770906412968
 20
1658.759921200942
 30
0.0
 40
25.0
  1
※　H型鋼（連結部）は赤さび塗装仕上げ。
 11
3139.770906412968
 21
1658.759921200942
 31
0.0
100
AcDbText
 73
     1
  0
LINE
  5
145A6
330
1F
100
AcDbEntity
  8
実線
100
AcDbLine
 10
1494.500030870233
 20
1465.000036489717
 30
0.0
 11
1494.500030870233
 21
1875.000036489719
 31
0.0
  0
LINE
  5
145A7
330
1F
100
AcDbEntity
  8
実線
100
AcDbLine
 10
1510.500030870233
 20
1465.000036489717
 30
0.0
 11
1510.500030870233
 21
1875.000036489719
 31
0.0
  0
LINE
  5
145A8
330
1F
100
AcDbEntity
  8
実線
100
AcDbLine
 10
1494.500030870233
 20
1875.000036489719
 30
0.0
 11
1510.500030870233
 21
1875.000036489719
 31
0.0
  0
LINE
  5
145A9
330
1F
100
AcDbEntity
  8
実線
100
AcDbLine
 10
1494.500030870233
 20
1465.000036489717
 30
0.0
 11
1510.500030870233
 21
1465.000036489717
 31
0.0
  0
LINE
  5
145AA
330
1F
100
AcDbEntity
  8
破線
100
AcDbLine
 10
1494.500030870233
 20
1845.000036489719
 30
0.0
 11
1510.500030870233
 21
1845.000036489719
 31
0.0
  0
LINE
  5
145AB
330
1F
100
AcDbEntity
  8
破線
100
AcDbLine
 10
1494.500030870233
 20
1790.000036489719
 30
0.0
 11
1510.500030870233
 21
1790.000036489719
 31
0.0
  0
LINE
  5
145AC
330
1F
100
AcDbEntity
  8
破線
100
AcDbLine
 10
1494.500030870233
 20
1550.000036489715
 30
0.0
 11
1510.500030870233
 21
1550.000036489715
 31
0.0
  0
LINE
  5
145AD
330
1F
100
AcDbEntity
  8
破線
100
AcDbLine
 10
1494.500030870233
 20
1495.000036489715
 30
0.0
 11
1510.500030870233
 21
1495.000036489715
 31
0.0
  0
LINE
  5
145AE
330
1F
100
AcDbEntity
  8
実線
100
AcDbLine
 10
1494.500030870233
 20
2065.000001702779
 30
0.0
 11
1494.500030870233
 21
2475.000001702782
 31
0.0
  0
LINE
  5
145AF
330
1F
100
AcDbEntity
  8
実線
100
AcDbLine
 10
1510.500030870233
 20
2065.000001702779
 30
0.0
 11
1510.500030870233
 21
2475.000001702782
 31
0.0
  0
LINE
  5
145B0
330
1F
100
AcDbEntity
  8
実線
100
AcDbLine
 10
1494.500030870233
 20
2475.000001702782
 30
0.0
 11
1510.500030870233
 21
2475.000001702782
 31
0.0
  0
LINE
  5
145B1
330
1F
100
AcDbEntity
  8
実線
100
AcDbLine
 10
1494.500030870233
 20
2065.000001702779
 30
0.0
 11
1510.500030870233
 21
2065.000001702779
 31
0.0
  0
LINE
  5
145B2
330
1F
100
AcDbEntity
  8
破線
100
AcDbLine
 10
1494.500030870233
 20
2445.00000170278
 30
0.0
 11
1510.500030870233
 21
2445.00000170278
 31
0.0
  0
LINE
  5
145B3
330
1F
100
AcDbEntity
  8
破線
100
AcDbLine
 10
1494.500030870233
 20
2390.000001702781
 30
0.0
 11
1510.500030870233
 21
2390.000001702781
 31
0.0
  0
LINE
  5
145B4
330
1F
100
AcDbEntity
  8
破線
100
AcDbLine
 10
1494.500030870233
 20
2150.000001702777
 30
0.0
 11
1510.500030870233
 21
2150.000001702777
 31
0.0
  0
LINE
  5
145B5
330
1F
100
AcDbEntity
  8
破線
100
AcDbLine
 10
1494.500030870233
 20
2095.000001702777
 30
0.0
 11
1510.500030870233
 21
2095.000001702777
 31
0.0
  0
LINE
  5
145B8
330
1F
100
AcDbEntity
  8
実線
100
AcDbLine
 10
1894.500030870233
 20
1465.000036489717
 30
0.0
 11
1894.500030870233
 21
1875.000036489719
 31
0.0
  0
LINE
  5
145B9
330
1F
100
AcDbEntity
  8
実線
100
AcDbLine
 10
1910.500030870233
 20
1465.000036489717
 30
0.0
 11
1910.500030870233
 21
1875.000036489719
 31
0.0
  0
LINE
  5
145BA
330
1F
100
AcDbEntity
  8
実線
100
AcDbLine
 10
1894.500030870233
 20
1875.000036489719
 30
0.0
 11
1910.500030870233
 21
1875.000036489719
 31
0.0
  0
LINE
  5
145BB
330
1F
100
AcDbEntity
  8
実線
100
AcDbLine
 10
1894.500030870233
 20
1465.000036489717
 30
0.0
 11
1910.500030870233
 21
1465.000036489717
 31
0.0
  0
LINE
  5
145BC
330
1F
100
AcDbEntity
  8
破線
100
AcDbLine
 10
1894.500030870233
 20
1845.000036489719
 30
0.0
 11
1910.500030870233
 21
1845.000036489719
 31
0.0
  0
LINE
  5
145BD
330
1F
100
AcDbEntity
  8
破線
100
AcDbLine
 10
1894.500030870233
 20
1790.000036489719
 30
0.0
 11
1910.500030870233
 21
1790.000036489719
 31
0.0
  0
LINE
  5
145BE
330
1F
100
AcDbEntity
  8
破線
100
AcDbLine
 10
1894.500030870233
 20
1550.000036489715
 30
0.0
 11
1910.500030870233
 21
1550.000036489715
 31
0.0
  0
LINE
  5
145BF
330
1F
100
AcDbEntity
  8
破線
100
AcDbLine
 10
1894.500030870233
 20
1495.000036489715
 30
0.0
 11
1910.500030870233
 21
1495.000036489715
 31
0.0
  0
LINE
  5
145C0
330
1F
100
AcDbEntity
  8
実線
100
AcDbLine
 10
1894.500030870233
 20
2065.000001702779
 30
0.0
 11
1894.500030870233
 21
2475.000001702782
 31
0.0
  0
LINE
  5
145C1
330
1F
100
AcDbEntity
  8
実線
100
AcDbLine
 10
1910.500030870233
 20
2065.000001702779
 30
0.0
 11
1910.500030870233
 21
2475.000001702782
 31
0.0
  0
LINE
  5
145C2
330
1F
100
AcDbEntity
  8
実線
100
AcDbLine
 10
1894.500030870233
 20
2475.000001702782
 30
0.0
 11
1910.500030870233
 21
2475.000001702782
 31
0.0
  0
LINE
  5
145C3
330
1F
100
AcDbEntity
  8
実線
100
AcDbLine
 10
1894.500030870233
 20
2065.000001702779
 30
0.0
 11
1910.500030870233
 21
2065.000001702779
 31
0.0
  0
LINE
  5
145C4
330
1F
100
AcDbEntity
  8
破線
100
AcDbLine
 10
1894.500030870233
 20
2445.00000170278
 30
0.0
 11
1910.500030870233
 21
2445.00000170278
 31
0.0
  0
LINE
  5
145C5
330
1F
100
AcDbEntity
  8
破線
100
AcDbLine
 10
1894.500030870233
 20
2390.000001702781
 30
0.0
 11
1910.500030870233
 21
2390.000001702781
 31
0.0
  0
LINE
  5
145C6
330
1F
100
AcDbEntity
  8
破線
100
AcDbLine
 10
1894.500030870233
 20
2150.000001702777
 30
0.0
 11
1910.500030870233
 21
2150.000001702777
 31
0.0
  0
LINE
  5
145C7
330
1F
100
AcDbEntity
  8
破線
100
AcDbLine
 10
1894.500030870233
 20
2095.000001702777
 30
0.0
 11
1910.500030870233
 21
2095.000001702777
 31
0.0
  0
LINE
  5
145C8
330
1F
100
AcDbEntity
  8
実線
100
AcDbLine
 10
2286.499979077718
 20
2095.00000170278
 30
0.0
 11
1910.499927285204
 21
2095.00000170278
 31
0.0
  0
LINE
  5
145C9
330
1F
100
AcDbEntity
  8
実線
100
AcDbLine
 10
2254.499979077718
 20
2150.000001702781
 30
0.0
 11
1910.499927285204
 21
2150.000001702781
 31
0.0
  0
LINE
  5
145CA
330
1F
100
AcDbEntity
  8
実線
100
AcDbLine
 10
2254.499979077718
 20
2390.000001702781
 30
0.0
 11
1910.499927285204
 21
2390.000001702781
 31
0.0
  0
LINE
  5
145CB
330
1F
100
AcDbEntity
  8
実線
100
AcDbLine
 10
2286.499979077718
 20
2445.00000170278
 30
0.0
 11
1910.499927285204
 21
2445.00000170278
 31
0.0
  0
LINE
  5
145CC
330
1F
100
AcDbEntity
  8
実線
100
AcDbLine
 10
2286.499979077718
 20
1495.000036489719
 30
0.0
 11
1910.499927285204
 21
1495.000036489719
 31
0.0
  0
LINE
  5
145CD
330
1F
100
AcDbEntity
  8
実線
100
AcDbLine
 10
2254.499979077718
 20
1550.000036489719
 30
0.0
 11
1910.499927285204
 21
1550.000036489719
 31
0.0
  0
LINE
  5
145CE
330
1F
100
AcDbEntity
  8
実線
100
AcDbLine
 10
2254.499979077718
 20
1790.000036489719
 30
0.0
 11
1910.499927285204
 21
1790.000036489719
 31
0.0
  0
LINE
  5
145CF
330
1F
100
AcDbEntity
  8
実線
100
AcDbLine
 10
2286.499979077718
 20
1845.000036489719
 30
0.0
 11
1910.499927285204
 21
1845.000036489719
 31
0.0
  0
LINE
  5
145D0
330
1F
100
AcDbEntity
  8
実線
100
AcDbLine
 10
1510.500030870233
 20
2445.00000170278
 30
0.0
 11
1894.500030870233
 21
2445.00000170278
 31
0.0
  0
LINE
  5
145D1
330
1F
100
AcDbEntity
  8
実線
100
AcDbLine
 10
1894.500030870233
 20
2390.000001702781
 30
0.0
 11
1510.500030870233
 21
2390.000001702781
 31
0.0
  0
LINE
  5
145D2
330
1F
100
AcDbEntity
  8
実線
100
AcDbLine
 10
1510.500030870233
 20
2095.000001702779
 30
0.0
 11
1894.500030870233
 21
2095.000001702779
 31
0.0
  0
LINE
  5
145D3
330
1F
100
AcDbEntity
  8
実線
100
AcDbLine
 10
1894.500030870233
 20
2150.000001702779
 30
0.0
 11
1510.500030870233
 21
2150.000001702779
 31
0.0
  0
LINE
  5
145D4
330
1F
100
AcDbEntity
  8
実線
100
AcDbLine
 10
1510.500030870233
 20
1845.000034786938
 30
0.0
 11
1894.500030870233
 21
1845.000034786938
 31
0.0
  0
LINE
  5
145D5
330
1F
100
AcDbEntity
  8
実線
100
AcDbLine
 10
1894.500030870233
 20
1790.000034786938
 30
0.0
 11
1510.500030870233
 21
1790.000034786938
 31
0.0
  0
LINE
  5
145D6
330
1F
100
AcDbEntity
  8
実線
100
AcDbLine
 10
1510.500030870233
 20
1495.000034786936
 30
0.0
 11
1894.500030870233
 21
1495.000034786936
 31
0.0
  0
LINE
  5
145D7
330
1F
100
AcDbEntity
  8
実線
100
AcDbLine
 10
1894.500030870233
 20
1550.000034786936
 30
0.0
 11
1510.500030870233
 21
1550.000034786936
 31
0.0
  0
LINE
  5
14CBA
330
1F
100
AcDbEntity
  8
実線
100
AcDbLine
 10
1102.500030870233
 20
655.0000369278295
 30
0.0
 11
1102.500030870233
 21
1025.000036927829
 31
0.0
  0
LINE
  5
14CBB
330
1F
100
AcDbEntity
  8
実線
100
AcDbLine
 10
1118.500030870233
 20
655.0000369278295
 30
0.0
 11
1118.500030870233
 21
1025.000036927829
 31
0.0
  0
LINE
  5
14CBC
330
1F
100
AcDbEntity
  8
実線
100
AcDbLine
 10
1102.500030870233
 20
1025.000018683191
 30
0.0
 11
1118.500030870233
 21
1025.000018683191
 31
0.0
  0
LINE
  5
14CBD
330
1F
100
AcDbEntity
  8
実線
100
AcDbLine
 10
1102.500030870233
 20
655.0000186831912
 30
0.0
 11
1118.500030870233
 21
655.0000186831912
 31
0.0
  0
LINE
  5
14CBE
330
1F
100
AcDbEntity
  8
実線
100
AcDbLine
 10
1130.500030870233
 20
715.5000186831912
 30
0.0
 11
1150.500030870233
 21
715.5000186831912
 31
0.0
  0
LINE
  5
14CBF
330
1F
100
AcDbEntity
  8
実線
100
AcDbLine
 10
1150.500030870233
 20
715.5000186831912
 30
0.0
 11
1150.500030870233
 21
964.5000186831913
 31
0.0
  0
LINE
  5
14CC0
330
1F
100
AcDbEntity
  8
実線
100
AcDbLine
 10
2254.500030870233
 20
715.5000186831912
 30
0.0
 11
2254.500030870233
 21
964.5000186831913
 31
0.0
  0
LINE
  5
14CC1
330
1F
100
AcDbEntity
  8
実線
100
AcDbLine
 10
2254.500030870233
 20
715.5000186831912
 30
0.0
 11
2274.500030870233
 21
715.5000186831912
 31
0.0
  0
LINE
  5
14CC2
330
1F
100
AcDbEntity
  8
実線
100
AcDbLine
 10
1118.500030870233
 20
727.5000186831912
 30
0.0
 11
1130.500030870233
 21
715.5000186831912
 31
0.0
  0
LINE
  5
14CC3
330
1F
100
AcDbEntity
  8
実線
100
AcDbLine
 10
2274.500030870233
 20
715.5000186831912
 30
0.0
 11
2286.500030870233
 21
727.5000186831912
 31
0.0
  0
LINE
  5
14CC4
330
1F
100
AcDbEntity
  8
実線
100
AcDbLine
 10
1118.500030870233
 20
720.0000186831912
 30
0.0
 11
1125.500030870233
 21
720.0000186831912
 31
0.0
  0
LINE
  5
14CC5
330
1F
100
AcDbEntity
  8
実線
100
AcDbLine
 10
2279.500030870233
 20
720.0000186831912
 30
0.0
 11
2286.500030870233
 21
720.0000186831912
 31
0.0
  0
LINE
  5
14CC6
330
1F
100
AcDbEntity
  8
破線
100
AcDbLine
 10
1125.500030870233
 20
720.0000186831912
 30
0.0
 11
1150.500030870233
 21
720.0000186831912
 31
0.0
  0
LINE
  5
14CC7
330
1F
100
AcDbEntity
  8
破線
100
AcDbLine
 10
2254.500030870233
 20
720.0000186831912
 30
0.0
 11
2279.500030870233
 21
720.0000186831912
 31
0.0
  0
LINE
  5
14CC8
330
1F
100
AcDbEntity
  8
中心線
100
AcDbLine
 10
1092.500030870233
 20
692.5000186831912
 30
0.0
 11
2312.500134455248
 21
692.5000186831912
 31
0.0
  0
LINE
  5
14CC9
330
1F
100
AcDbEntity
  8
破線
100
AcDbLine
 10
1118.500030870233
 20
677.0000186831912
 30
0.0
 11
1150.500030870233
 21
677.0000186831912
 31
0.0
  0
LINE
  5
14CCA
330
1F
100
AcDbEntity
  8
破線
100
AcDbLine
 10
1150.500030870233
 20
677.0000186831912
 30
0.0
 11
1150.500030870233
 21
665.0000186831912
 31
0.0
  0
LINE
  5
14CCB
330
1F
100
AcDbEntity
  8
中心線
100
AcDbLine
 10
1087.500030870233
 20
840.0000186831912
 30
0.0
 11
2317.500134455247
 21
840.0000186831912
 31
0.0
  0
LINE
  5
14CCC
330
1F
100
AcDbEntity
  8
中心線
100
AcDbLine
 10
1092.500030870233
 20
987.5000186831911
 30
0.0
 11
2312.500134455248
 21
987.5000186831911
 31
0.0
  0
LINE
  5
14CCD
330
1F
100
AcDbEntity
  8
破線
100
AcDbLine
 10
2254.500030870233
 20
960.0000186831913
 30
0.0
 11
2279.500030870233
 21
960.0000186831913
 31
0.0
  0
LINE
  5
14CCE
330
1F
100
AcDbEntity
  8
実線
100
AcDbLine
 10
1150.500030870233
 20
960.0000186831913
 30
0.0
 11
1494.500030870233
 21
960.0000186831913
 31
0.0
  0
LINE
  5
14CCF
330
1F
100
AcDbEntity
  8
実線
100
AcDbLine
 10
2279.500030870233
 20
960.0000186831913
 30
0.0
 11
2286.500030870233
 21
960.0000186831913
 31
0.0
  0
LINE
  5
14CD0
330
1F
100
AcDbEntity
  8
実線
100
AcDbLine
 10
1118.500134455247
 20
1015.000018683191
 30
0.0
 11
1494.500030870233
 21
1015.000018683191
 31
0.0
  0
LINE
  5
14CD1
330
1F
100
AcDbEntity
  8
実線
100
AcDbLine
 10
2254.500030870233
 20
964.5000186831913
 30
0.0
 11
2274.500030870233
 21
964.5000186831913
 31
0.0
  0
LINE
  5
14CD2
330
1F
100
AcDbEntity
  8
実線
100
AcDbLine
 10
2274.500030870233
 20
964.5000186831913
 30
0.0
 11
2286.500030870233
 21
952.5000186831912
 31
0.0
  0
LINE
  5
14CD3
330
1F
100
AcDbEntity
  8
破線
100
AcDbLine
 10
1118.500030870233
 20
1003.000018683191
 30
0.0
 11
1150.500030870233
 21
1003.000018683191
 31
0.0
  0
LINE
  5
14CD4
330
1F
100
AcDbEntity
  8
破線
100
AcDbLine
 10
1150.500030870233
 20
1003.000018683191
 30
0.0
 11
1150.500030870233
 21
1015.000018683191
 31
0.0
  0
LINE
  5
14CD5
330
1F
100
AcDbEntity
  8
破線
100
AcDbLine
 10
1125.500030870233
 20
960.0000186831913
 30
0.0
 11
1150.500030870233
 21
960.0000186831913
 31
0.0
  0
LINE
  5
14CD6
330
1F
100
AcDbEntity
  8
実線
100
AcDbLine
 10
1130.500030870233
 20
964.5000186831913
 30
0.0
 11
1150.500030870233
 21
964.5000186831913
 31
0.0
  0
LINE
  5
14CD7
330
1F
100
AcDbEntity
  8
実線
100
AcDbLine
 10
1118.500030870233
 20
952.5000186831912
 30
0.0
 11
1130.500030870233
 21
964.5000186831913
 31
0.0
  0
LINE
  5
14CD8
330
1F
100
AcDbEntity
  8
実線
100
AcDbLine
 10
1118.500030870233
 20
960.0000186831913
 30
0.0
 11
1125.500030870233
 21
960.0000186831913
 31
0.0
  0
LINE
  5
14CD9
330
1F
100
AcDbEntity
  8
破線
100
AcDbLine
 10
2286.500030870233
 20
677.0000186831912
 30
0.0
 11
2254.500030870233
 21
677.0000186831912
 31
0.0
  0
LINE
  5
14CDA
330
1F
100
AcDbEntity
  8
破線
100
AcDbLine
 10
2254.500030870233
 20
677.0000186831912
 30
0.0
 11
2254.500030870233
 21
665.0000186831912
 31
0.0
  0
LINE
  5
14CDB
330
1F
100
AcDbEntity
  8
破線
100
AcDbLine
 10
2254.500030870233
 20
1003.000018683191
 30
0.0
 11
2254.500030870233
 21
1015.000018683191
 31
0.0
  0
LINE
  5
14CDC
330
1F
100
AcDbEntity
  8
破線
100
AcDbLine
 10
2286.500030870233
 20
1003.000018683191
 30
0.0
 11
2254.500030870233
 21
1003.000018683191
 31
0.0
  0
LINE
  5
14CDD
330
1F
100
AcDbEntity
  8
破線
100
AcDbLine
 10
1118.500030870233
 20
846.0000186831912
 30
0.0
 11
1150.500030870233
 21
846.0000186831912
 31
0.0
  0
LINE
  5
14CDE
330
1F
100
AcDbEntity
  8
破線
100
AcDbLine
 10
1118.500030870233
 20
834.0000186831911
 30
0.0
 11
1150.500030870233
 21
834.0000186831911
 31
0.0
  0
LINE
  5
14CDF
330
1F
100
AcDbEntity
  8
破線
100
AcDbLine
 10
2254.500030870233
 20
846.0000186831912
 30
0.0
 11
2286.500030870233
 21
846.0000186831912
 31
0.0
  0
LINE
  5
14CE0
330
1F
100
AcDbEntity
  8
破線
100
AcDbLine
 10
2254.500030870233
 20
834.0000186831911
 30
0.0
 11
2286.500030870233
 21
834.0000186831911
 31
0.0
  0
LINE
  5
14CE1
330
1F
100
AcDbEntity
  8
仮想線
100
AcDbLine
 10
1173.963083124403
 20
605.0000186831912
 30
0.0
 11
1173.963083124403
 21
1075.000018683191
 31
0.0
  0
TEXT
  5
14CE2
330
1F
100
AcDbEntity
  8
寸法線
100
AcDbText
 10
1223.61830549145
 20
1053.800018683191
 30
0.0
 40
21.0
  1
Ａ
 72
     4
 11
1233.41830549145
 21
1065.000018683191
 31
0.0
100
AcDbText
  0
TEXT
  5
14CE3
330
1F
100
AcDbEntity
  8
寸法線
100
AcDbText
 10
1223.61830549145
 20
603.8000186831911
 30
0.0
 40
21.0
  1
Ａ
 72
     4
 11
1233.41830549145
 21
615.0000186831912
 31
0.0
100
AcDbText
  0
LINE
  5
14CE4
330
1F
100
AcDbEntity
  8
実線
100
AcDbLine
 10
2286.500030870233
 20
655.0000369278295
 30
0.0
 11
2286.500030870233
 21
1025.000036927829
 31
0.0
  0
LINE
  5
14CE5
330
1F
100
AcDbEntity
  8
実線
100
AcDbLine
 10
2302.500030870233
 20
655.0000369278295
 30
0.0
 11
2302.500030870233
 21
1025.000036927829
 31
0.0
  0
LINE
  5
14CE6
330
1F
100
AcDbEntity
  8
実線
100
AcDbLine
 10
2286.500030870233
 20
1025.000018683191
 30
0.0
 11
2302.500030870233
 21
1025.000018683191
 31
0.0
  0
LINE
  5
14CE7
330
1F
100
AcDbEntity
  8
実線
100
AcDbLine
 10
2286.500030870233
 20
655.0000186831912
 30
0.0
 11
2302.500030870233
 21
655.0000186831912
 31
0.0
  0
LINE
  5
14CE8
330
1F
100
AcDbEntity
  8
実線
100
AcDbLine
 10
1494.500030870233
 20
635.0000186831912
 30
0.0
 11
1494.500030870233
 21
1045.000018683191
 31
0.0
  0
LINE
  5
14CE9
330
1F
100
AcDbEntity
  8
実線
100
AcDbLine
 10
1510.500030870233
 20
635.0000186831912
 30
0.0
 11
1510.500030870233
 21
1045.000018683191
 31
0.0
  0
LINE
  5
14CEA
330
1F
100
AcDbEntity
  8
実線
100
AcDbLine
 10
1494.500030870233
 20
1045.000018683191
 30
0.0
 11
1510.500030870233
 21
1045.000018683191
 31
0.0
  0
LINE
  5
14CEB
330
1F
100
AcDbEntity
  8
実線
100
AcDbLine
 10
1494.500030870233
 20
635.0000186831912
 30
0.0
 11
1510.500030870233
 21
635.0000186831912
 31
0.0
  0
LINE
  5
14CEC
330
1F
100
AcDbEntity
  8
破線
100
AcDbLine
 10
1494.500030870233
 20
1015.000018683191
 30
0.0
 11
1510.500030870233
 21
1015.000018683191
 31
0.0
  0
LINE
  5
14CED
330
1F
100
AcDbEntity
  8
破線
100
AcDbLine
 10
1494.500030870233
 20
960.0000186831913
 30
0.0
 11
1510.500030870233
 21
960.0000186831913
 31
0.0
  0
LINE
  5
14CEE
330
1F
100
AcDbEntity
  8
破線
100
AcDbLine
 10
1494.500030870233
 20
720.0000186831912
 30
0.0
 11
1510.500030870233
 21
720.0000186831912
 31
0.0
  0
LINE
  5
14CEF
330
1F
100
AcDbEntity
  8
破線
100
AcDbLine
 10
1494.500030870233
 20
665.0000186831912
 30
0.0
 11
1510.500030870233
 21
665.0000186831912
 31
0.0
  0
LINE
  5
14CF0
330
1F
100
AcDbEntity
  8
仮想線
100
AcDbLine
 10
1565.963083124403
 20
605.0000186831912
 30
0.0
 11
1565.963083124403
 21
1075.000018683191
 31
0.0
  0
TEXT
  5
14CF1
330
1F
100
AcDbEntity
  8
寸法線
100
AcDbText
 10
1614.91830549145
 20
1053.800018683191
 30
0.0
 40
21.0
  1
Ｂ
 72
     4
 11
1625.41830549145
 21
1065.000018683191
 31
0.0
100
AcDbText
  0
TEXT
  5
14CF2
330
1F
100
AcDbEntity
  8
寸法線
100
AcDbText
 10
1614.91830549145
 20
603.8000186831911
 30
0.0
 40
21.0
  1
Ｂ
 72
     4
 11
1625.41830549145
 21
615.0000186831912
 31
0.0
100
AcDbText
  0
LINE
  5
14CF3
330
1F
100
AcDbEntity
  8
実線
100
AcDbLine
 10
1150.500030870233
 20
720.0000186831912
 30
0.0
 11
1494.500030870233
 21
720.0000186831912
 31
0.0
  0
LINE
  5
14CF4
330
1F
100
AcDbEntity
  8
実線
100
AcDbLine
 10
1118.500134455247
 20
665.0000186831912
 30
0.0
 11
1494.500030870233
 21
665.0000186831912
 31
0.0
  0
LINE
  5
14CF5
330
1F
100
AcDbEntity
  8
実線
100
AcDbLine
 10
1510.500030870233
 20
960.0000186831913
 30
0.0
 11
1894.500030870233
 21
960.0000186831913
 31
0.0
  0
LINE
  5
14CF6
330
1F
100
AcDbEntity
  8
実線
100
AcDbLine
 10
1510.500134455247
 20
1015.000018683191
 30
0.0
 11
1894.500030870233
 21
1015.000018683191
 31
0.0
  0
LINE
  5
14CF7
330
1F
100
AcDbEntity
  8
実線
100
AcDbLine
 10
1894.500030870233
 20
635.0000186831912
 30
0.0
 11
1894.500030870233
 21
1045.000018683191
 31
0.0
  0
LINE
  5
14CF8
330
1F
100
AcDbEntity
  8
実線
100
AcDbLine
 10
1910.500030870233
 20
635.0000186831912
 30
0.0
 11
1910.500030870233
 21
1045.000018683191
 31
0.0
  0
LINE
  5
14CF9
330
1F
100
AcDbEntity
  8
実線
100
AcDbLine
 10
1894.500030870233
 20
1045.000018683191
 30
0.0
 11
1910.500030870233
 21
1045.000018683191
 31
0.0
  0
LINE
  5
14CFA
330
1F
100
AcDbEntity
  8
実線
100
AcDbLine
 10
1894.500030870233
 20
635.0000186831912
 30
0.0
 11
1910.500030870233
 21
635.0000186831912
 31
0.0
  0
LINE
  5
14CFB
330
1F
100
AcDbEntity
  8
破線
100
AcDbLine
 10
1894.500030870233
 20
1015.000018683191
 30
0.0
 11
1910.500030870233
 21
1015.000018683191
 31
0.0
  0
LINE
  5
14CFC
330
1F
100
AcDbEntity
  8
破線
100
AcDbLine
 10
1894.500030870233
 20
960.0000186831913
 30
0.0
 11
1910.500030870233
 21
960.0000186831913
 31
0.0
  0
LINE
  5
14CFD
330
1F
100
AcDbEntity
  8
破線
100
AcDbLine
 10
1894.500030870233
 20
720.0000186831912
 30
0.0
 11
1910.500030870233
 21
720.0000186831912
 31
0.0
  0
LINE
  5
14CFE
330
1F
100
AcDbEntity
  8
破線
100
AcDbLine
 10
1894.500030870233
 20
665.0000186831912
 30
0.0
 11
1910.500030870233
 21
665.0000186831912
 31
0.0
  0
LINE
  5
14CFF
330
1F
100
AcDbEntity
  8
仮想線
100
AcDbLine
 10
1965.963083124403
 20
605.0000186831912
 30
0.0
 11
1965.963083124403
 21
1075.000018683191
 31
0.0
  0
TEXT
  5
14D00
330
1F
100
AcDbEntity
  8
寸法線
100
AcDbText
 10
2014.91830549145
 20
1053.800018683191
 30
0.0
 40
21.0
  1
Ｂ
 72
     4
 11
2025.41830549145
 21
1065.000018683191
 31
0.0
100
AcDbText
  0
TEXT
  5
14D01
330
1F
100
AcDbEntity
  8
寸法線
100
AcDbText
 10
2014.91830549145
 20
603.8000186831911
 30
0.0
 40
21.0
  1
Ｂ
 72
     4
 11
2025.41830549145
 21
615.0000186831912
 31
0.0
100
AcDbText
  0
LINE
  5
14D02
330
1F
100
AcDbEntity
  8
実線
100
AcDbLine
 10
1510.500030870233
 20
720.0000186831912
 30
0.0
 11
1894.500030870233
 21
720.0000186831912
 31
0.0
  0
LINE
  5
14D03
330
1F
100
AcDbEntity
  8
実線
100
AcDbLine
 10
1510.500134455247
 20
665.0000186831912
 30
0.0
 11
1894.500030870233
 21
665.0000186831912
 31
0.0
  0
LINE
  5
14D04
330
1F
100
AcDbEntity
  8
実線
100
AcDbLine
 10
2254.500030870233
 20
960.0000186831913
 30
0.0
 11
1910.500030870233
 21
960.0000186831913
 31
0.0
  0
LINE
  5
14D05
330
1F
100
AcDbEntity
  8
実線
100
AcDbLine
 10
2286.499927285218
 20
1015.000018683191
 30
0.0
 11
1910.500030870233
 21
1015.000018683191
 31
0.0
  0
LINE
  5
14D06
330
1F
100
AcDbEntity
  8
実線
100
AcDbLine
 10
2254.500030870233
 20
720.0000186831912
 30
0.0
 11
1910.500030870233
 21
720.0000186831912
 31
0.0
  0
LINE
  5
14D07
330
1F
100
AcDbEntity
  8
実線
100
AcDbLine
 10
2286.499927285218
 20
665.0000186831912
 30
0.0
 11
1910.500030870233
 21
665.0000186831912
 31
0.0
  0
DIMENSION
  5
14D08
330
1F
100
AcDbEntity
  8
寸法線
100
AcDbDimension
280
     0
  2
*D24
 10
2181.237113977059
 20
1015.000018683192
 30
0.0
 11
2181.237113977059
 21
885.7322517302106
 31
0.0
 70
   160
  1
%%C<>
 71
     5
 42
55.0
 73
     0
 74
     0
 75
     0
  3
STANDARD
100
AcDbAlignedDimension
 13
2181.237113977059
 23
960.0000186831913
 33
0.0
 14
2181.237113977059
 24
1015.000018683191
 34
0.0
 50
90.0
100
AcDbRotatedDimension
  0
LEADER
  5
14D09
330
1F
100
AcDbEntity
  8
寸法線
100
AcDbLeader
  3
STANDARD
 76
     2
 10
1173.963083124403
 20
1065.000018683191
 30
0.0
 10
1221.359818310247
 20
1065.000018683191
 30
0.0
1001
ACAD
1000
DSTYLE
1002
{
1070
   147
1040
0.875
1070
    77
1070
     0
1070
    49
1040
0.5
1002
}
  0
LEADER
  5
14D0A
330
1F
100
AcDbEntity
  8
寸法線
100
AcDbLeader
  3
STANDARD
 76
     2
 10
1173.963083124403
 20
615.0000186831912
 30
0.0
 10
1221.359818310247
 20
615.0000186831912
 30
0.0
1001
ACAD
1000
DSTYLE
1002
{
1070
   147
1040
0.875
1070
    77
1070
     0
1070
    49
1040
0.5
1002
}
  0
LEADER
  5
14D0B
330
1F
100
AcDbEntity
  8
寸法線
100
AcDbLeader
  3
STANDARD
 76
     2
 10
1565.963083124403
 20
1065.000018683191
 30
0.0
 10
1613.359818310248
 20
1065.000018683191
 30
0.0
1001
ACAD
1000
DSTYLE
1002
{
1070
   147
1040
0.875
1070
    77
1070
     0
1070
    49
1040
0.5
1002
}
  0
LEADER
  5
14D0C
330
1F
100
AcDbEntity
  8
寸法線
100
AcDbLeader
  3
STANDARD
 76
     2
 10
1565.963083124403
 20
615.0000186831912
 30
0.0
 10
1613.359818310248
 20
615.0000186831912
 30
0.0
1001
ACAD
1000
DSTYLE
1002
{
1070
   147
1040
0.875
1070
    77
1070
     0
1070
    49
1040
0.5
1002
}
  0
LEADER
  5
14D0D
330
1F
100
AcDbEntity
  8
寸法線
100
AcDbLeader
  3
STANDARD
 76
     2
 10
1965.963083124403
 20
1065.000018683191
 30
0.0
 10
2013.359818310248
 20
1065.000018683191
 30
0.0
1001
ACAD
1000
DSTYLE
1002
{
1070
   147
1040
0.875
1070
    77
1070
     0
1070
    49
1040
0.5
1002
}
  0
LEADER
  5
14D0E
330
1F
100
AcDbEntity
  8
寸法線
100
AcDbLeader
  3
STANDARD
 76
     2
 10
1965.963083124403
 20
615.0000186831912
 30
0.0
 10
2013.359818310248
 20
615.0000186831912
 30
0.0
1001
ACAD
1000
DSTYLE
1002
{
1070
   147
1040
0.875
1070
    77
1070
     0
1070
    49
1040
0.5
1002
}
  0
DIMENSION
  5
14D0F
330
1F
100
AcDbEntity
  8
寸法線
100
AcDbDimension
280
     0
  2
*D25
 10
1510.500030870233
 20
1145.000009377802
 30
0.0
 11
1502.500030870233
 21
1145.000009377802
 31
0.0
 70
   160
 71
     5
 42
16.0
 73
     0
 74
     0
 75
     0
  3
STANDARD
100
AcDbAlignedDimension
 13
1494.500030870233
 23
1045.000018683191
 33
0.0
 14
1510.500030870233
 24
1045.000018683191
 34
0.0
100
AcDbRotatedDimension
  0
DIMENSION
  5
14D10
330
1F
100
AcDbEntity
  8
寸法線
100
AcDbDimension
280
     0
  2
*D26
 10
1150.500030870233
 20
535.0000186831912
 30
0.0
 11
1134.500030870233
 21
535.0000186831912
 31
0.0
 70
   160
 71
     5
 42
32.0
 73
     0
 74
     0
 75
     0
  3
STANDARD
100
AcDbAlignedDimension
 13
1118.500030870233
 23
655.000000438582
 33
0.0
 14
1150.500030870233
 24
665.000000438582
 34
0.0
100
AcDbRotatedDimension
  0
DIMENSION
  5
14D11
330
1F
100
AcDbEntity
  8
寸法線
100
AcDbDimension
280
     0
  2
*D27
 10
2254.500030870233
 20
535.0000186831912
 30
0.0
 11
1702.500030870233
 21
556.2500186831912
 31
0.0
 70
    32
 71
     5
 42
1104.0
 73
     0
 74
     0
 75
     0
  3
STANDARD
100
AcDbAlignedDimension
 13
1150.500030870233
 23
665.000000438582
 33
0.0
 14
2254.500030870233
 24
665.0000186831912
 34
0.0
100
AcDbRotatedDimension
  0
DIMENSION
  5
14D12
330
1F
100
AcDbEntity
  8
寸法線
100
AcDbDimension
280
     0
  2
*D28
 10
1118.500030870233
 20
475.0000186831912
 30
0.0
 11
1110.500030870233
 21
475.0000186831912
 31
0.0
 70
   160
 71
     5
 42
16.0
 73
     0
 74
     0
 75
     0
  3
STANDARD
100
AcDbAlignedDimension
 13
1102.500030870233
 23
655.000000438582
 33
0.0
 14
1118.500030870233
 24
655.000000438582
 34
0.0
100
AcDbRotatedDimension
  0
DIMENSION
  5
14D13
330
1F
100
AcDbEntity
  8
寸法線
100
AcDbDimension
280
     0
  2
*D29
 10
2286.500030870233
 20
475.0000186831912
 30
0.0
 11
1702.500030870233
 21
496.2500186831912
 31
0.0
 70
    32
 71
     5
 42
1168.0
 73
     0
 74
     0
 75
     0
  3
STANDARD
100
AcDbAlignedDimension
 13
1118.500030870233
 23
655.0000186831912
 33
0.0
 14
2286.500030870233
 24
655.0000186831912
 34
0.0
100
AcDbRotatedDimension
  0
DIMENSION
  5
14D14
330
1F
100
AcDbEntity
  8
寸法線
100
AcDbDimension
280
     0
  2
*D30
 10
2302.500030870233
 20
415.0000186831912
 30
0.0
 11
1702.500030870233
 21
436.2524793131123
 31
0.0
 70
    32
 71
     5
 42
1200.0
 73
     0
 74
     0
 75
     0
  3
STANDARD
100
AcDbAlignedDimension
 13
1102.500030870233
 23
655.0000186831912
 33
0.0
 14
2302.500030870233
 24
655.0000369278295
 34
0.0
100
AcDbRotatedDimension
  0
DIMENSION
  5
14D15
330
1F
100
AcDbEntity
  8
寸法線
100
AcDbDimension
280
     0
  2
*D31
 10
1494.500030870233
 20
1145.000015282252
 30
0.0
 11
1306.500030870233
 21
1166.250015282252
 31
0.0
 70
    32
 71
     5
 42
376.0
 73
     0
 74
     0
 75
     0
  3
STANDARD
100
AcDbAlignedDimension
 13
1118.500030870233
 23
1025.000018683191
 33
0.0
 14
1494.500030870233
 24
1045.000018683191
 34
0.0
 50
0.0000040595936363
100
AcDbRotatedDimension
  0
DIMENSION
  5
14D16
330
1F
100
AcDbEntity
  8
寸法線
100
AcDbDimension
280
     0
  2
*D32
 10
1510.500037955559
 20
1145.000004654247
 30
0.0
 11
1702.50003946119
 21
1166.249991050418
 31
0.0
 70
    32
 71
     5
 42
383.9999999999991
 73
     0
 74
     0
 75
     0
  3
STANDARD
100
AcDbAlignedDimension
 13
1894.500030870233
 23
1045.000018683191
 33
0.0
 14
1510.500030870233
 24
1045.000018683191
 34
0.0
 50
179.9999959404063
100
AcDbRotatedDimension
  0
DIMENSION
  5
14D17
330
1F
100
AcDbEntity
  8
寸法線
100
AcDbDimension
280
     0
  2
*D33
 10
1894.500030870233
 20
1145.000009377802
 30
0.0
 11
1902.500030870233
 21
1145.000009377802
 31
0.0
 70
   160
 71
     5
 42
16.0
 73
     0
 74
     0
 75
     0
  3
STANDARD
100
AcDbAlignedDimension
 13
1910.500030870233
 23
1045.000018683191
 33
0.0
 14
1894.500030870233
 24
1045.000018683191
 34
0.0
 50
180.0
100
AcDbRotatedDimension
  0
DIMENSION
  5
14D18
330
1F
100
AcDbEntity
  8
寸法線
100
AcDbDimension
280
     0
  2
*D34
 10
1910.500037955559
 20
1145.000004654257
 30
0.0
 11
2098.500040169723
 21
1166.249991333841
 31
0.0
 70
    32
 71
     5
 42
376.000001417063
 73
     0
 74
     0
 75
     0
  3
STANDARD
100
AcDbAlignedDimension
 13
2286.500030870233
 23
1025.000036927829
 33
0.0
 14
1910.500030870233
 24
1045.000018683191
 34
0.0
 50
179.9999959404063
100
AcDbRotatedDimension
  0
DIMENSION
  5
14D19
330
1F
100
AcDbEntity
  8
寸法線
100
AcDbDimension
280
     0
  2
*D35
 10
2254.500030870233
 20
535.0000186831912
 30
0.0
 11
2270.500030870233
 21
535.0000186831912
 31
0.0
 70
   160
 71
     5
 42
32.0
 73
     0
 74
     0
 75
     0
  3
STANDARD
100
AcDbAlignedDimension
 13
2286.500030870233
 23
655.000000438582
 33
0.0
 14
2254.500030870233
 24
665.000000438582
 34
0.0
 50
180.0
100
AcDbRotatedDimension
  0
DIMENSION
  5
14D1A
330
1F
100
AcDbEntity
  8
寸法線
100
AcDbDimension
280
     0
  2
*D36
 10
2286.500030870233
 20
475.0000186831912
 30
0.0
 11
2294.500030870233
 21
475.0000186831912
 31
0.0
 70
   160
 71
     5
 42
16.0
 73
     0
 74
     0
 75
     0
  3
STANDARD
100
AcDbAlignedDimension
 13
2302.500030870233
 23
655.000000438582
 33
0.0
 14
2286.500030870233
 24
655.000000438582
 34
0.0
 50
180.0
100
AcDbRotatedDimension
  0
LINE
  5
14D1B
330
1F
100
AcDbEntity
  8
破線
100
AcDbLine
 10
643.0000270626368
 20
1003.000018683191
 30
0.0
 11
892.0000270626369
 21
1003.000018683191
 31
0.0
  0
LINE
  5
14D1C
330
1F
100
AcDbEntity
  8
破線
100
AcDbLine
 10
604.7500270626368
 20
846.0000186831912
 30
0.0
 11
930.2500270626367
 21
846.0000186831912
 31
0.0
  0
LINE
  5
14D1D
330
1F
100
AcDbEntity
  8
破線
100
AcDbLine
 10
604.7500270626368
 20
834.0000186831911
 30
0.0
 11
930.2500270626367
 21
834.0000186831911
 31
0.0
  0
LINE
  5
14D1E
330
1F
100
AcDbEntity
  8
破線
100
AcDbLine
 10
892.0000270626369
 20
677.0000186831912
 30
0.0
 11
643.0000270626368
 21
677.0000186831912
 31
0.0
  0
LINE
  5
14D1F
330
1F
100
AcDbEntity
  8
破線
100
AcDbLine
 10
892.0000270626369
 20
665.0000186831912
 30
0.0
 11
643.0000270626368
 21
665.0000186831912
 31
0.0
  0
LINE
  5
14D20
330
1F
100
AcDbEntity
  8
破線
100
AcDbLine
 10
643.0000270626368
 20
1015.000018683191
 30
0.0
 11
892.0000270626369
 21
1015.000018683191
 31
0.0
  0
LINE
  5
14D21
330
1F
100
AcDbEntity
  8
中心線
100
AcDbLine
 10
572.5001344552473
 20
840.0000186831912
 30
0.0
 11
962.5001344552472
 21
840.0000186831912
 31
0.0
  0
LINE
  5
14D22
330
1F
100
AcDbEntity
  8
実線
100
AcDbLine
 10
582.5001344552473
 20
1025.000036927829
 30
0.0
 11
952.5001344552476
 21
1025.000036927829
 31
0.0
  0
LINE
  5
14D23
330
1F
100
AcDbEntity
  8
実線
100
AcDbLine
 10
582.5001344552473
 20
655.0000369278295
 30
0.0
 11
952.5001344552476
 21
655.0000369278295
 31
0.0
  0
LINE
  5
14D24
330
1F
100
AcDbEntity
  8
破線
100
AcDbLine
 10
604.5000270626368
 20
715.5000186831912
 30
0.0
 11
604.5000270626368
 21
964.5000186831913
 31
0.0
  0
LINE
  5
14D25
330
1F
100
AcDbEntity
  8
破線
100
AcDbLine
 10
592.5000270626368
 20
715.5000186831912
 30
0.0
 11
592.5000270626368
 21
964.5000186831913
 31
0.0
  0
LINE
  5
14D26
330
1F
100
AcDbEntity
  8
実線
100
AcDbLine
 10
582.5001344552473
 20
655.0000369278295
 30
0.0
 11
582.5001344552473
 21
1025.000036927829
 31
0.0
  0
LINE
  5
14D27
330
1F
100
AcDbEntity
  8
中心線
100
AcDbLine
 10
620.0000270626368
 20
742.5000186831912
 30
0.0
 11
620.0000270626368
 21
642.5000186831912
 31
0.0
  0
LINE
  5
14D28
330
1F
100
AcDbEntity
  8
中心線
100
AcDbLine
 10
570.0000270626368
 20
692.5000186831912
 30
0.0
 11
670.0000270626368
 21
692.5000186831912
 31
0.0
  0
CIRCLE
  5
14D29
330
1F
100
AcDbEntity
  8
破線
100
AcDbCircle
 10
620.0000270626368
 20
692.5000186831912
 30
0.0
 40
27.5
  0
LINE
  5
14D2A
330
1F
100
AcDbEntity
  8
破線
100
AcDbLine
 10
643.0000270626368
 20
665.0000186831912
 30
0.0
 11
643.0000270626368
 21
677.0000186831912
 31
0.0
  0
LINE
  5
14D2B
330
1F
100
AcDbEntity
  8
破線
100
AcDbLine
 10
592.5000270626368
 20
715.5000186831912
 30
0.0
 11
604.5000270626368
 21
715.5000186831912
 31
0.0
  0
LINE
  5
14D2C
330
1F
100
AcDbEntity
  8
破線
100
AcDbLine
 10
604.7500270626368
 20
834.0000186831911
 30
0.0
 11
604.7500270626368
 21
846.0000186831912
 31
0.0
  0
LINE
  5
14D2D
330
1F
100
AcDbEntity
  8
中心線
100
AcDbLine
 10
570.0000270626368
 20
987.5000186831911
 30
0.0
 11
670.0000270626368
 21
987.5000186831911
 31
0.0
  0
LINE
  5
14D2E
330
1F
100
AcDbEntity
  8
中心線
100
AcDbLine
 10
620.0000270626368
 20
1037.500018683191
 30
0.0
 11
620.0000270626368
 21
937.5000186831911
 31
0.0
  0
CIRCLE
  5
14D2F
330
1F
100
AcDbEntity
  8
破線
100
AcDbCircle
 10
620.0000270626368
 20
987.5000186831911
 30
0.0
 40
27.5
  0
LINE
  5
14D30
330
1F
100
AcDbEntity
  8
破線
100
AcDbLine
 10
592.5000270626368
 20
964.5000186831913
 30
0.0
 11
604.5000270626368
 21
964.5000186831913
 31
0.0
  0
LINE
  5
14D31
330
1F
100
AcDbEntity
  8
破線
100
AcDbLine
 10
643.0000270626368
 20
1015.000018683191
 30
0.0
 11
643.0000270626368
 21
1003.000018683191
 31
0.0
  0
LINE
  5
14D32
330
1F
100
AcDbEntity
  8
破線
100
AcDbLine
 10
930.5000270626367
 20
964.5000186831913
 30
0.0
 11
930.5000270626367
 21
715.5000186831912
 31
0.0
  0
LINE
  5
14D33
330
1F
100
AcDbEntity
  8
破線
100
AcDbLine
 10
761.5000270626368
 20
1002.500018683191
 30
0.0
 11
761.5000270626368
 21
846.0000186831912
 31
0.0
  0
LINE
  5
14D34
330
1F
100
AcDbEntity
  8
破線
100
AcDbLine
 10
773.5000270626368
 20
1002.500018683191
 30
0.0
 11
773.5000270626368
 21
846.0000186831912
 31
0.0
  0
LINE
  5
14D35
330
1F
100
AcDbEntity
  8
破線
100
AcDbLine
 10
942.500027062637
 20
964.5000186831913
 30
0.0
 11
942.500027062637
 21
715.5000186831912
 31
0.0
  0
LINE
  5
14D36
330
1F
100
AcDbEntity
  8
中心線
100
AcDbLine
 10
767.500027062637
 20
1035.000036927829
 30
0.0
 11
767.500027062637
 21
645.0000369278296
 31
0.0
  0
LINE
  5
14D37
330
1F
100
AcDbEntity
  8
実線
100
AcDbLine
 10
952.5001344552476
 20
655.0000369278295
 30
0.0
 11
952.5001344552476
 21
1025.000036927829
 31
0.0
  0
LINE
  5
14D38
330
1F
100
AcDbEntity
  8
破線
100
AcDbLine
 10
761.5000270626368
 20
834.0000186831911
 30
0.0
 11
761.5000270626368
 21
677.5000186831912
 31
0.0
  0
LINE
  5
14D39
330
1F
100
AcDbEntity
  8
破線
100
AcDbLine
 10
773.5000270626368
 20
834.0000186831911
 30
0.0
 11
773.5000270626368
 21
677.5000186831912
 31
0.0
  0
LINE
  5
14D3A
330
1F
100
AcDbEntity
  8
中心線
100
AcDbLine
 10
915.0000270626367
 20
742.5000186831912
 30
0.0
 11
915.0000270626367
 21
642.5000186831912
 31
0.0
  0
LINE
  5
14D3B
330
1F
100
AcDbEntity
  8
中心線
100
AcDbLine
 10
865.0000270626367
 20
692.5000186831912
 30
0.0
 11
965.0000270626367
 21
692.5000186831912
 31
0.0
  0
LINE
  5
14D3C
330
1F
100
AcDbEntity
  8
破線
100
AcDbLine
 10
761.5000270626368
 20
677.5000186831912
 30
0.0
 11
773.5000270626368
 21
677.5000186831912
 31
0.0
  0
CIRCLE
  5
14D3D
330
1F
100
AcDbEntity
  8
破線
100
AcDbCircle
 10
915.0000270626367
 20
692.5000186831912
 30
0.0
 40
27.5
  0
LINE
  5
14D3E
330
1F
100
AcDbEntity
  8
破線
100
AcDbLine
 10
892.0000270626369
 20
665.0000186831912
 30
0.0
 11
892.0000270626369
 21
677.0000186831912
 31
0.0
  0
LINE
  5
14D3F
330
1F
100
AcDbEntity
  8
破線
100
AcDbLine
 10
942.500027062637
 20
715.5000186831912
 30
0.0
 11
930.5000270626367
 21
715.5000186831912
 31
0.0
  0
LINE
  5
14D40
330
1F
100
AcDbEntity
  8
破線
100
AcDbLine
 10
930.2500270626367
 20
846.0000186831912
 30
0.0
 11
930.2500270626367
 21
834.0000186831911
 31
0.0
  0
LINE
  5
14D41
330
1F
100
AcDbEntity
  8
中心線
100
AcDbLine
 10
865.0000270626367
 20
987.5000186831911
 30
0.0
 11
965.0000270626367
 21
987.5000186831911
 31
0.0
  0
LINE
  5
14D42
330
1F
100
AcDbEntity
  8
破線
100
AcDbLine
 10
761.5000270626368
 20
1002.500018683191
 30
0.0
 11
773.5000270626368
 21
1002.500018683191
 31
0.0
  0
LINE
  5
14D43
330
1F
100
AcDbEntity
  8
中心線
100
AcDbLine
 10
915.0000270626367
 20
1037.500018683191
 30
0.0
 11
915.0000270626367
 21
937.5000186831911
 31
0.0
  0
CIRCLE
  5
14D44
330
1F
100
AcDbEntity
  8
破線
100
AcDbCircle
 10
915.0000270626367
 20
987.5000186831911
 30
0.0
 40
27.5
  0
LINE
  5
14D45
330
1F
100
AcDbEntity
  8
破線
100
AcDbLine
 10
942.500027062637
 20
964.5000186831913
 30
0.0
 11
930.5000270626367
 21
964.5000186831913
 31
0.0
  0
LINE
  5
14D46
330
1F
100
AcDbEntity
  8
破線
100
AcDbLine
 10
892.0000270626369
 20
1015.000018683191
 30
0.0
 11
892.0000270626369
 21
1003.000018683191
 31
0.0
  0
DIMENSION
  5
14D47
330
1F
100
AcDbEntity
  8
寸法線
100
AcDbDimension
280
     0
  2
*D37
 10
462.5000270626367
 20
1025.00003692783
 30
0.0
 11
462.5000270626369
 21
840.0000369278295
 31
0.0
 70
   160
 71
     5
 42
370.0
 73
     0
 74
     0
 75
     0
  3
STANDARD
100
AcDbAlignedDimension
 13
582.4999196699971
 23
655.0000369278295
 33
0.0
 14
582.4999196699971
 24
1025.000036927829
 34
0.0
 50
90.0
100
AcDbRotatedDimension
  0
DIMENSION
  5
14D48
330
1F
100
AcDbEntity
  8
寸法線
100
AcDbDimension
280
     0
  2
*D38
 10
952.5001344552476
 20
535.0000369278295
 30
0.0
 11
767.5001344552473
 21
535.0000369278295
 31
0.0
 70
   160
 71
     5
 42
370.0
 73
     0
 74
     0
 75
     0
  3
STANDARD
100
AcDbAlignedDimension
 13
582.5001344552473
 23
655.0000369278295
 33
0.0
 14
952.5001344552476
 24
655.0000369278295
 34
0.0
100
AcDbRotatedDimension
  0
LINE
  5
14D49
330
1F
100
AcDbEntity
  8
実線
100
AcDbLine
 10
3007.500030870233
 20
615.0000551724679
 30
0.0
 11
3417.500030870234
 21
615.0000551724679
 31
0.0
  0
LINE
  5
14D4A
330
1F
100
AcDbEntity
  8
実線
100
AcDbLine
 10
3007.500030870233
 20
615.0000551724679
 30
0.0
 11
3007.500030870233
 21
1025.000055172468
 31
0.0
  0
LINE
  5
14D4B
330
1F
100
AcDbEntity
  8
実線
100
AcDbLine
 10
3417.500030870234
 20
615.0000551724679
 30
0.0
 11
3417.500030870234
 21
1025.000055172468
 31
0.0
  0
LINE
  5
14D4C
330
1F
100
AcDbEntity
  8
実線
100
AcDbLine
 10
3007.500030870233
 20
1025.000055172468
 30
0.0
 11
3417.500030870234
 21
1025.000055172468
 31
0.0
  0
LINE
  5
14D4D
330
1F
100
AcDbEntity
  8
中心線
100
AcDbLine
 10
3212.500030870233
 20
1035.000055172468
 30
0.0
 11
3212.500030870233
 21
605.0000551724679
 31
0.0
  0
CIRCLE
  5
14D4E
330
1F
100
AcDbEntity
  8
実線
100
AcDbCircle
 10
3360.000030870234
 20
967.5000551724679
 30
0.0
 40
27.5
  0
LINE
  5
14D4F
330
1F
100
AcDbEntity
  8
中心線
100
AcDbLine
 10
3360.000030870234
 20
1017.500055172468
 30
0.0
 11
3360.000030870234
 21
917.5000551724679
 31
0.0
  0
LINE
  5
14D50
330
1F
100
AcDbEntity
  8
中心線
100
AcDbLine
 10
3310.000030870233
 20
967.5000551724679
 30
0.0
 11
3410.000030870234
 21
967.5000551724679
 31
0.0
  0
LINE
  5
14D51
330
1F
100
AcDbEntity
  8
中心線
100
AcDbLine
 10
3310.000030870233
 20
672.5000551724677
 30
0.0
 11
3410.000030870234
 21
672.5000551724677
 31
0.0
  0
LINE
  5
14D52
330
1F
100
AcDbEntity
  8
中心線
100
AcDbLine
 10
3360.000030870234
 20
722.5000551724678
 30
0.0
 11
3360.000030870234
 21
622.5000551724677
 31
0.0
  0
CIRCLE
  5
14D53
330
1F
100
AcDbEntity
  8
実線
100
AcDbCircle
 10
3360.000030870234
 20
672.5000551724677
 30
0.0
 40
27.5
  0
LINE
  5
14D54
330
1F
100
AcDbEntity
  8
中心線
100
AcDbLine
 10
3065.000030870234
 20
722.5000551724678
 30
0.0
 11
3065.000030870234
 21
622.5000551724677
 31
0.0
  0
LINE
  5
14D55
330
1F
100
AcDbEntity
  8
中心線
100
AcDbLine
 10
3015.000030870234
 20
672.5000551724677
 30
0.0
 11
3115.000030870234
 21
672.5000551724677
 31
0.0
  0
CIRCLE
  5
14D56
330
1F
100
AcDbEntity
  8
実線
100
AcDbCircle
 10
3065.000030870234
 20
672.5000551724677
 30
0.0
 40
27.5
  0
LINE
  5
14D57
330
1F
100
AcDbEntity
  8
中心線
100
AcDbLine
 10
3065.000030870234
 20
1017.500055172468
 30
0.0
 11
3065.000030870234
 21
917.5000551724679
 31
0.0
  0
LINE
  5
14D58
330
1F
100
AcDbEntity
  8
中心線
100
AcDbLine
 10
3015.000030870234
 20
967.5000551724679
 30
0.0
 11
3115.000030870234
 21
967.5000551724679
 31
0.0
  0
CIRCLE
  5
14D59
330
1F
100
AcDbEntity
  8
実線
100
AcDbCircle
 10
3065.000030870234
 20
967.5000551724679
 30
0.0
 40
27.5
  0
DIMENSION
  5
14D5A
330
1F
100
AcDbEntity
  8
寸法線
100
AcDbDimension
280
     0
  2
*D39
 10
3417.500030870234
 20
535.0000551724678
 30
0.0
 11
3212.500030870233
 21
556.2500551724679
 31
0.0
 70
    32
 71
     5
 42
410.0
 73
     0
 74
     0
 75
     0
  3
STANDARD
100
AcDbAlignedDimension
 13
3007.500030870233
 23
615.0000551724679
 33
0.0
 14
3417.500030870234
 24
615.0000551724679
 34
0.0
100
AcDbRotatedDimension
  0
DIMENSION
  5
14D5B
330
1F
100
AcDbEntity
  8
寸法線
100
AcDbDimension
280
     0
  2
*D40
 10
3497.50003087047
 20
1025.000055172468
 30
0.0
 11
3476.25003087047
 21
820.000055172467
 31
0.0
 70
    32
 71
     5
 42
410.0000000000001
 73
     0
 74
     0
 75
     0
  3
STANDARD
100
AcDbAlignedDimension
 13
3417.500030870234
 23
615.0000551724679
 33
0.0
 14
3417.500030870234
 24
1025.000055172468
 34
0.0
 50
90.0
100
AcDbRotatedDimension
  0
CIRCLE
  5
14D5C
330
1F
100
AcDbEntity
  8
実線
100
AcDbCircle
 10
3212.500030870233
 20
820.0000551724677
 30
0.0
 40
125.0
  0
CIRCLE
  5
14D5D
330
1F
100
AcDbEntity
  8
実線
100
AcDbCircle
 10
3065.000030870234
 20
967.5000551724679
 30
0.0
 40
28.75
  0
CIRCLE
  5
14D5E
330
1F
100
AcDbEntity
  8
実線
100
AcDbCircle
 10
3065.000030870234
 20
672.5000551724677
 30
0.0
 40
28.75
  0
CIRCLE
  5
14D5F
330
1F
100
AcDbEntity
  8
実線
100
AcDbCircle
 10
3360.000030870234
 20
672.5000551724677
 30
0.0
 40
28.75
  0
CIRCLE
  5
14D60
330
1F
100
AcDbEntity
  8
実線
100
AcDbCircle
 10
3360.000030870234
 20
967.5000551724679
 30
0.0
 40
28.75
  0
LINE
  5
14D63
330
1F
100
AcDbEntity
  8
中心線
100
AcDbLine
 10
2997.500030870233
 20
820.0000551724677
 30
0.0
 11
3427.500030870233
 21
820.0000551724677
 31
0.0
  0
DIMENSION
  5
14D64
330
1F
100
AcDbEntity
  8
寸法線
100
AcDbDimension
280
     0
  2
*D41
 10
3320.753206343245
 20
882.500055172575
 30
0.0
 11
3261.325280166877
 21
848.1893259970618
 31
0.0
 70
   160
  1
%%C<>
 71
     5
 42
250.0000000000073
 73
     0
 74
     0
 75
     0
  3
STANDARD
100
AcDbAlignedDimension
 13
3104.246855397189
 23
757.5000551724677
 33
0.0
 14
3320.753206343307
 24
882.5000551724677
 34
0.0
 50
30.00000000014843
100
AcDbRotatedDimension
  0
LINE
  5
14D65
330
1F
100
AcDbEntity
  8
実線
100
AcDbLine
 10
2497.970719694891
 20
1003.000289600417
 30
0.0
 11
2746.970719694891
 21
1003.000289600417
 31
0.0
  0
LINE
  5
14D66
330
1F
100
AcDbEntity
  8
実線
100
AcDbLine
 10
2497.970719694891
 20
1015.000289600417
 30
0.0
 11
2746.970719694891
 21
1015.000289600417
 31
0.0
  0
LINE
  5
14D67
330
1F
100
AcDbEntity
  8
実線
100
AcDbLine
 10
2746.970719694891
 20
665.0002896004171
 30
0.0
 11
2497.970719694891
 21
665.0002896004171
 31
0.0
  0
DIMENSION
  5
14D69
330
1F
100
AcDbEntity
  8
寸法線
100
AcDbDimension
280
     0
  2
*D42
 10
2769.97041183888
 20
535.0000551724678
 30
0.0
 11
2622.470719694891
 21
535.0000551724678
 31
0.0
 70
   160
 71
     5
 42
295.0
 73
     0
 74
     0
 75
     0
  3
STANDARD
100
AcDbAlignedDimension
 13
2474.97041183888
 23
640.0000369278586
 33
0.0
 14
2769.97041183888
 24
640.0000369278586
 34
0.0
100
AcDbRotatedDimension
  0
LINE
  5
14D6A
330
1F
100
AcDbEntity
  8
実線
100
AcDbLine
 10
2437.470494989048
 20
655.0000551724679
 30
0.0
 11
2807.470494989047
 21
655.0000551724679
 31
0.0
  0
LINE
  5
14D6B
330
1F
100
AcDbEntity
  8
実線
100
AcDbLine
 10
2437.470494989048
 20
1025.000055172468
 30
0.0
 11
2807.470494989047
 21
1025.000055172468
 31
0.0
  0
LINE
  5
14D6C
330
1F
100
AcDbEntity
  8
中心線
100
AcDbLine
 10
2412.470511838885
 20
840.0002896004172
 30
0.0
 11
2832.470511838885
 21
840.0002896004172
 31
0.0
  0
LINE
  5
14D6D
330
1F
100
AcDbEntity
  8
実線
100
AcDbLine
 10
2459.720719694891
 20
846.0002896004171
 30
0.0
 11
2785.220719694891
 21
846.0002896004171
 31
0.0
  0
LINE
  5
14D6E
330
1F
100
AcDbEntity
  8
実線
100
AcDbLine
 10
2459.720719694891
 20
834.000289600417
 30
0.0
 11
2785.220719694891
 21
834.000289600417
 31
0.0
  0
LINE
  5
14D6F
330
1F
100
AcDbEntity
  8
実線
100
AcDbLine
 10
2447.470719694891
 20
715.500289600417
 30
0.0
 11
2447.470719694891
 21
964.500289600417
 31
0.0
  0
LINE
  5
14D70
330
1F
100
AcDbEntity
  8
実線
100
AcDbLine
 10
2447.470719694891
 20
715.500289600417
 30
0.0
 11
2459.470719694892
 21
715.500289600417
 31
0.0
  0
LINE
  5
14D71
330
1F
100
AcDbEntity
  8
実線
100
AcDbLine
 10
2497.970719694891
 20
665.0002896004171
 30
0.0
 11
2497.970719694891
 21
677.0002896004171
 31
0.0
  0
LINE
  5
14D72
330
1F
100
AcDbEntity
  8
実線
100
AcDbLine
 10
2459.720719694891
 20
834.000289600417
 30
0.0
 11
2459.720719694891
 21
846.0002896004171
 31
0.0
  0
LINE
  5
14D73
330
1F
100
AcDbEntity
  8
実線
100
AcDbLine
 10
2447.470719694891
 20
964.500289600417
 30
0.0
 11
2459.470719694892
 21
964.500289600417
 31
0.0
  0
LINE
  5
14D74
330
1F
100
AcDbEntity
  8
実線
100
AcDbLine
 10
2497.970719694891
 20
1015.000289600417
 30
0.0
 11
2497.970719694891
 21
1003.000289600417
 31
0.0
  0
LINE
  5
14D75
330
1F
100
AcDbEntity
  8
実線
100
AcDbLine
 10
2626.970719694891
 20
1002.500289600417
 30
0.0
 11
2626.970719694891
 21
846.0002896004171
 31
0.0
  0
LINE
  5
14D76
330
1F
100
AcDbEntity
  8
実線
100
AcDbLine
 10
2617.970719694891
 20
1002.500289600417
 30
0.0
 11
2617.970719694891
 21
846.0002896004171
 31
0.0
  0
DIMENSION
  5
14D77
330
1F
100
AcDbEntity
  8
寸法線
100
AcDbDimension
280
     0
  2
*D43
 10
2927.470494989048
 20
1025.000055172468
 30
0.0
 11
2927.470494989048
 21
1006.250046050162
 31
0.0
 70
   160
 71
     5
 42
37.50001824460925
 73
     0
 74
     0
 75
     0
  3
STANDARD
100
AcDbAlignedDimension
 13
2822.47041183888
 23
987.5000369278586
 33
0.0
 14
2807.470494989047
 24
1025.000055172468
 34
0.0
 50
90.0
100
AcDbRotatedDimension
  0
LINE
  5
14D78
330
1F
100
AcDbEntity
  8
実線
100
AcDbLine
 10
2807.470494989047
 20
655.0000551724679
 30
0.0
 11
2807.470494989047
 21
1025.000055172468
 31
0.0
  0
LINE
  5
14D79
330
1F
100
AcDbEntity
  8
実線
100
AcDbLine
 10
2626.970719694891
 20
834.000289600417
 30
0.0
 11
2626.970719694891
 21
677.5002896004171
 31
0.0
  0
LINE
  5
14D7A
330
1F
100
AcDbEntity
  8
実線
100
AcDbLine
 10
2617.970719694891
 20
834.000289600417
 30
0.0
 11
2617.970719694891
 21
677.5002896004171
 31
0.0
  0
LINE
  5
14D7B
330
1F
100
AcDbEntity
  8
実線
100
AcDbLine
 10
2797.470719694891
 20
964.500289600417
 30
0.0
 11
2797.470719694891
 21
715.500289600417
 31
0.0
  0
LINE
  5
14D7C
330
1F
100
AcDbEntity
  8
実線
100
AcDbLine
 10
2785.470719694891
 20
964.500289600417
 30
0.0
 11
2785.470719694891
 21
715.500289600417
 31
0.0
  0
DIMENSION
  5
14D7D
330
1F
100
AcDbEntity
  8
寸法線
100
AcDbDimension
280
     0
  2
*D44
 10
2927.470494989048
 20
987.5000369278593
 30
0.0
 11
2927.470494989048
 21
840.0002896004172
 31
0.0
 70
   160
 71
     5
 42
295.0000000000001
 73
     0
 74
     0
 75
     0
  3
STANDARD
100
AcDbAlignedDimension
 13
2822.47041183888
 23
692.5000369278587
 33
0.0
 14
2822.47041183888
 24
987.5000369278586
 34
0.0
 50
90.0
100
AcDbRotatedDimension
  0
LINE
  5
14D7E
330
1F
100
AcDbEntity
  8
実線
100
AcDbLine
 10
2617.970719694891
 20
677.5002896004171
 30
0.0
 11
2626.970719694891
 21
677.5002896004171
 31
0.0
  0
LINE
  5
14D7F
330
1F
100
AcDbEntity
  8
実線
100
AcDbLine
 10
2746.970719694891
 20
665.0002896004171
 30
0.0
 11
2746.970719694891
 21
677.0002896004171
 31
0.0
  0
DIMENSION
  5
14D80
330
1F
100
AcDbEntity
  8
寸法線
100
AcDbDimension
280
     0
  2
*D21
 10
2927.470494989048
 20
692.5000369278587
 30
0.0
 11
2927.470494989048
 21
673.7500460501625
 31
0.0
 70
   160
 71
     5
 42
37.49998175539065
 73
     0
 74
     0
 75
     0
  3
STANDARD
100
AcDbAlignedDimension
 13
2807.470494989047
 23
655.0000551724679
 33
0.0
 14
2822.47041183888
 24
692.5000369278587
 34
0.0
 50
90.0
100
AcDbRotatedDimension
  0
DIMENSION
  5
14D81
330
1F
100
AcDbEntity
  8
寸法線
100
AcDbDimension
280
     0
  2
*D22
 10
2807.470494989047
 20
535.0000551724678
 30
0.0
 11
2788.720453413964
 21
535.0000551724678
 31
0.0
 70
   160
 71
     5
 42
37.50008315016748
 73
     0
 74
     0
 75
     0
  3
STANDARD
100
AcDbAlignedDimension
 13
2769.97041183888
 23
640.0000369278586
 33
0.0
 14
2807.470494989047
 24
655.0000551724679
 34
0.0
100
AcDbRotatedDimension
  0
LINE
  5
14D82
330
1F
100
AcDbEntity
  8
実線
100
AcDbLine
 10
2797.470719694891
 20
715.500289600417
 30
0.0
 11
2785.470719694891
 21
715.500289600417
 31
0.0
  0
LINE
  5
14D83
330
1F
100
AcDbEntity
  8
実線
100
AcDbLine
 10
2785.220719694891
 20
846.0002896004171
 30
0.0
 11
2785.220719694891
 21
834.000289600417
 31
0.0
  0
LINE
  5
14D84
330
1F
100
AcDbEntity
  8
実線
100
AcDbLine
 10
2797.470719694891
 20
964.500289600417
 30
0.0
 11
2785.470719694891
 21
964.500289600417
 31
0.0
  0
LINE
  5
14D85
330
1F
100
AcDbEntity
  8
実線
100
AcDbLine
 10
2617.970719694891
 20
1002.500289600417
 30
0.0
 11
2626.970719694891
 21
1002.500289600417
 31
0.0
  0
LINE
  5
14D86
330
1F
100
AcDbEntity
  8
実線
100
AcDbLine
 10
2746.970719694891
 20
1015.000289600417
 30
0.0
 11
2746.970719694891
 21
1003.000289600417
 31
0.0
  0
CIRCLE
  5
14D87
330
1F
100
AcDbEntity
  8
実線
100
AcDbCircle
 10
2474.970719694891
 20
987.500289600417
 30
0.0
 40
27.5
  0
CIRCLE
  5
14D88
330
1F
100
AcDbEntity
  8
実線
100
AcDbCircle
 10
2769.970719694891
 20
987.500289600417
 30
0.0
 40
27.5
  0
CIRCLE
  5
14D89
330
1F
100
AcDbEntity
  8
実線
100
AcDbCircle
 10
2474.970719694891
 20
692.5002896004172
 30
0.0
 40
27.5
  0
CIRCLE
  5
14D8A
330
1F
100
AcDbEntity
  8
実線
100
AcDbCircle
 10
2769.970719694891
 20
692.5002896004172
 30
0.0
 40
27.5
  0
LINE
  5
14D8B
330
1F
100
AcDbEntity
  8
実線
100
AcDbLine
 10
2459.470719694892
 20
715.500289600417
 30
0.0
 11
2459.470719694892
 21
964.500289600417
 31
0.0
  0
LINE
  5
14D8C
330
1F
100
AcDbEntity
  8
実線
100
AcDbLine
 10
2746.970719694891
 20
677.0002896004171
 30
0.0
 11
2497.970719694891
 21
677.0002896004171
 31
0.0
  0
LINE
  5
14D8D
330
1F
100
AcDbEntity
  8
中心線
100
AcDbLine
 10
2622.470511838885
 20
629.9999896004319
 30
0.0
 11
2622.470511838885
 21
1049.999989600432
 31
0.0
  0
LINE
  5
14D8F
330
1F
100
AcDbEntity
  8
中心線
100
AcDbLine
 10
2422.47041183888
 20
987.5000369278586
 30
0.0
 11
2527.47041183888
 21
987.5000369278586
 31
0.0
  0
LINE
  5
14D90
330
1F
100
AcDbEntity
  8
中心線
100
AcDbLine
 10
2474.97041183888
 20
935.0000369278587
 30
0.0
 11
2474.97041183888
 21
1040.000036927859
 31
0.0
  0
LINE
  5
14D91
330
1F
100
AcDbEntity
  8
中心線
100
AcDbLine
 10
2422.47041183888
 20
692.5000369278587
 30
0.0
 11
2527.47041183888
 21
692.5000369278587
 31
0.0
  0
LINE
  5
14D92
330
1F
100
AcDbEntity
  8
中心線
100
AcDbLine
 10
2474.97041183888
 20
640.0000369278586
 30
0.0
 11
2474.97041183888
 21
745.0000369278585
 31
0.0
  0
LINE
  5
14D93
330
1F
100
AcDbEntity
  8
中心線
100
AcDbLine
 10
2717.47041183888
 20
987.5000369278586
 30
0.0
 11
2822.47041183888
 21
987.5000369278586
 31
0.0
  0
LINE
  5
14D94
330
1F
100
AcDbEntity
  8
中心線
100
AcDbLine
 10
2769.97041183888
 20
935.0000369278587
 30
0.0
 11
2769.97041183888
 21
1040.000036927859
 31
0.0
  0
LINE
  5
14D95
330
1F
100
AcDbEntity
  8
中心線
100
AcDbLine
 10
2717.47041183888
 20
692.5000369278587
 30
0.0
 11
2822.47041183888
 21
692.5000369278587
 31
0.0
  0
LINE
  5
14D96
330
1F
100
AcDbEntity
  8
中心線
100
AcDbLine
 10
2769.97041183888
 20
640.0000369278586
 30
0.0
 11
2769.97041183888
 21
745.0000369278585
 31
0.0
  0
LINE
  5
14D97
330
1F
100
AcDbEntity
  8
実線
100
AcDbLine
 10
2437.470528688722
 20
655.0000551724679
 30
0.0
 11
2437.470528688722
 21
1025.000055172468
 31
0.0
  0
DIMENSION
  5
14D98
330
1F
100
AcDbEntity
  8
寸法線
100
AcDbDimension
280
     0
  2
*D23
 10
2437.470528688722
 20
535.0000551724678
 30
0.0
 11
2456.220470263801
 21
535.0000551724678
 31
0.0
 70
   160
 71
     5
 42
37.49988315015798
 73
     0
 74
     0
 75
     0
  3
STANDARD
100
AcDbAlignedDimension
 13
2474.97041183888
 23
640.0000369278586
 33
0.0
 14
2437.470528688722
 24
655.0000551724679
 34
0.0
 50
180.0
100
AcDbRotatedDimension
  0
TEXT
  5
159D7
330
1F
100
AcDbEntity
  8
寸法線
100
AcDbText
 10
3143.635318292192
 20
481.7288435205573
 30
0.0
 40
24.0
  1
断面Ｂ－Ｂ
100
AcDbText
  0
LINE
  5
159D8
330
1F
100
AcDbEntity
  8
寸法線
100
AcDbLine
 10
3132.233051052669
 20
475.0000186832203
 30
0.0
 11
3292.767010687796
 21
475.0000186832203
 31
0.0
  0
TEXT
  5
159D9
330
1F
100
AcDbEntity
  8
寸法線
100
AcDbText
 10
2552.470494989048
 20
483.7500186832202
 30
0.0
 40
25.0
  1
断面Ａ－Ａ
 72
     1
 11
2622.470494989048
 21
483.7500186832202
 31
0.0
100
AcDbText
 73
     1
  0
LINE
  5
159DA
330
1F
100
AcDbEntity
  8
寸法線
100
AcDbLine
 10
2543.720494989047
 20
475.0000186832203
 30
0.0
 11
2701.220494989048
 21
475.0000186832203
 31
0.0
  0
LINE
  5
15A12
330
1F
100
AcDbEntity
  8
寸法線
100
AcDbLine
 10
1542.500037955558
 20
1219.999976206719
 30
0.0
 11
1862.500037955558
 21
1219.999976206719
 31
0.0
  0
TEXT
  5
15A13
330
1F
100
AcDbEntity
  8
寸法線
100
AcDbText
 10
1548.815325836485
 20
1228.749976206719
 30
0.0
 40
37.5
  1
空洞金具詳細図
 72
     1
 11
1700.065325836485
 21
1228.749976206719
 31
0.0
100
AcDbText
 73
     1
  0
LEADER
  5
15A35
330
1F
100
AcDbEntity
  8
寸法線
100
AcDbLeader
  3
STANDARD
 76
     2
 10
2786.499979077718
 20
2166.499925560653
 30
0.0
 10
2592.335239802984
 20
2166.499925560653
 30
0.0
1001
ACAD
1000
DSTYLE
1002
{
1070
   147
1040
0.875
1070
    77
1070
     0
1002
}
  0
VIEWPORT
  5
794
330
78D
100
AcDbEntity
 67
     1
  8
0
348
D1BD
100
AcDbViewport
 10
204.0995798351864
 20
142.5892483948869
 30
0.0
 40
568.7138760531154
 41
287.6682269700984
 68
     1
 69
     1
 12
204.0995798351864
 22
142.5892483948869
 13
0.0
 23
0.0
 14
10.0
 24
10.0
 15
10.0
 25
10.0
 16
0.0
 26
0.0
 36
1.0
 17
0.0
 27
0.0
 37
0.0
 42
50.0
 43
0.0
 44
0.0
 45
287.6682269700984
 50
0.0
 51
0.0
 72
  1000
 90
    32800
  1

281
     0
 71
     1
 74
     0
110
0.0
120
0.0
130
0.0
111
1.0
121
0.0
131
0.0
112
0.0
122
1.0
132
0.0
 79
     0
146
0.0
170
     0
 61
     5
348
D1BD
292
     1
282
     1
141
0.0
142
0.0
 63
   250
421
  3355443
  0
VIEWPORT
  5
796
330
78D
100
AcDbEntity
 67
     1
  8
Defpoints
348
D1BD
100
AcDbViewport
 10
204.099579334259
 20
142.5892481803894
 30
0.0
 40
408.1991586685178
 41
285.1784963607788
 68
     2
 69
     2
 12
2100.207206595808
 22
1486.804522350007
 13
0.0
 23
0.0
 14
10.0
 24
10.0
 15
10.0
 25
10.0
 16
0.0
 26
0.0
 36
1.0
 17
0.0
 27
0.0
 37
0.0
 42
50.0
 43
0.0
 44
0.0
 45
2851.784980677949
 50
0.0
 51
0.0
 72
  1000
 90
    32864
  1

281
     0
 71
     1
 74
     0
110
0.0
120
0.0
130
0.0
111
1.0
121
0.0
131
0.0
112
0.0
122
1.0
132
0.0
 79
     0
146
0.0
170
     0
 61
     5
348
D1BD
292
     1
282
     1
141
0.0
142
0.0
 63
   250
421
  3355443
  0
LINE
  5
9A2
330
78D
100
AcDbEntity
 67
     1
  8
図面枠
100
AcDbLine
 10
14.0996
 20
6.589249999999998
 30
0.0
 11
14.0996
 21
278.58925
 31
0.0
  0
LINE
  5
9A3
330
78D
100
AcDbEntity
 67
     1
  8
図面枠
100
AcDbLine
 10
404.0995999999998
 20
6.589249999999998
 30
0.0
 11
404.0995999999998
 21
278.58925
 31
0.0
  0
LINE
  5
9A4
330
78D
100
AcDbEntity
 67
     1
  8
図面枠
100
AcDbLine
 10
14.0996
 20
278.58925
 30
0.0
 11
404.0995999999998
 21
278.58925
 31
0.0
  0
LINE
  5
9A5
330
78D
100
AcDbEntity
 67
     1
  8
図面枠
100
AcDbLine
 10
14.0996
 20
6.589249999999998
 30
0.0
 11
404.0995999999998
 21
6.589249999999991
 31
0.0
  0
LINE
  5
E6D4
330
78D
100
AcDbEntity
 67
     1
  8
図面枠
100
AcDbLine
 10
289.0996
 20
36.58924999999999
 30
0.0
 11
404.0995999999998
 21
36.58924999999999
 31
0.0
  0
LINE
  5
E6D5
330
78D
100
AcDbEntity
 67
     1
  8
図面枠
100
AcDbLine
 10
289.0996
 20
30.58924999999999
 30
0.0
 11
404.0995999999998
 21
30.58924999999999
 31
0.0
  0
LINE
  5
E6D6
330
78D
100
AcDbEntity
 67
     1
  8
図面枠
100
AcDbLine
 10
289.0996
 20
36.5893
 30
0.0
 11
289.0996
 21
6.589249999999991
 31
0.0
  0
LINE
  5
E6D7
330
78D
100
AcDbEntity
 67
     1
  8
図面枠
100
AcDbLine
 10
289.0996
 20
18.58924999999999
 30
0.0
 11
404.0995999999998
 21
18.58924999999999
 31
0.0
  0
LINE
  5
E6D8
330
78D
100
AcDbEntity
 67
     1
  8
図面枠
100
AcDbLine
 10
352.0996
 20
36.5893
 30
0.0
 11
352.0996
 21
30.58924999999999
 31
0.0
  0
LINE
  5
E6D9
330
78D
100
AcDbEntity
 67
     1
  8
図面枠
100
AcDbLine
 10
383.0996
 20
36.5893
 30
0.0
 11
383.0996
 21
30.58924999999999
 31
0.0
  0
LINE
  5
E6DA
330
78D
100
AcDbEntity
 67
     1
  8
図面枠
100
AcDbLine
 10
352.0996
 20
30.58924999999999
 30
0.0
 11
352.0996
 21
6.589249999999991
 31
0.0
  0
LINE
  5
E6DB
330
78D
100
AcDbEntity
 67
     1
  8
図面枠
100
AcDbLine
 10
312.0996
 20
36.58924999999999
 30
0.0
 11
312.0996
 21
30.58924999999999
 31
0.0
  0
LINE
  5
E6DC
330
78D
100
AcDbEntity
 67
     1
  8
図面枠
100
AcDbLine
 10
304.0996
 20
24.58924999999999
 30
0.0
 11
349.0996
 21
24.58924999999999
 31
0.0
  0
TEXT
  5
E6DD
330
78D
100
AcDbEntity
 67
     1
  8
図面枠
100
AcDbText
 10
289.9746
 20
32.33924999999999
 30
0.0
 40
2.5
  1
重量
 11
289.9746
 21
32.33924999999999
 31
0.0
100
AcDbText
 73
     1
  0
TEXT
  5
E6DE
330
78D
100
AcDbEntity
 67
     1
  8
図面枠
100
AcDbText
 10
289.97465
 20
27.21424999999999
 30
0.0
 40
2.5
  1
名　称
 11
289.97465
 21
29.71424999999999
 31
0.0
100
AcDbText
 73
     3
  0
TEXT
  5
E6DF
330
78D
100
AcDbEntity
 67
     1
  8
図面枠
100
AcDbText
 10
317.9746
 20
32.33929999999999
 30
0.0
 40
2.5
  1
表面仕上げ
 41
0.8
 11
317.9746
 21
32.33929999999999
 31
0.0
100
AcDbText
 73
     1
  0
TEXT
  5
E6E0
330
78D
100
AcDbEntity
 67
     1
  8
図面枠
100
AcDbText
 10
352.9746
 20
32.33924999999999
 30
0.0
 40
2.5
  1
日付
 11
352.9746
 21
32.33924999999999
 31
0.0
100
AcDbText
 73
     1
  0
TEXT
  5
E6E1
330
78D
100
AcDbEntity
 67
     1
  8
図面枠
100
AcDbText
 10
383.9746
 20
32.33924999999999
 30
0.0
 40
2.5
  1
尺度
 11
383.9746
 21
32.33924999999999
 31
0.0
100
AcDbText
 73
     1
  0
TEXT
  5
E6E2
330
78D
100
AcDbEntity
 67
     1
  8
図面枠
100
AcDbText
 10
313.5162666666667
 20
26.33925
 30
0.0
 40
2.5
  1
スルーサーＢ構造図
 72
     1
 11
326.5996
 21
26.33925
 31
0.0
100
AcDbText
 73
     1
  0
TEXT
  5
E6E3
330
78D
100
AcDbEntity
 67
     1
  8
図面枠
100
AcDbText
 10
317.7861157480315
 20
20.33924999999999
 30
0.0
 40
2.5
  1
切り梁H-350
 72
     1
 11
326.5996
 21
22.83924999999999
 31
0.0
100
AcDbText
 73
     3
  0
TEXT
  5
E6E4
330
78D
100
AcDbEntity
 67
     1
  8
図面枠
100
AcDbText
 10
366.5162666666667
 20
8.33924999999999
 30
0.0
 40
2.5
  1
Ｈ３５－Ｗ１２０
 72
     1
 11
378.0996
 21
8.33924999999999
 31
0.0
100
AcDbText
 73
     1
  0
TEXT
  5
E6E5
330
78D
100
AcDbEntity
 67
     1
  8
図面枠
100
AcDbText
 10
300.3079
 20
32.33924999999999
 30
0.0
 40
2.5
  1
330kg
 11
300.3079
 21
32.33924999999999
 31
0.0
100
AcDbText
 73
     1
  0
TEXT
  5
E6E6
330
78D
100
AcDbEntity
 67
     1
  8
図面枠
100
AcDbText
 10
333.3079
 20
32.33929999999999
 30
0.0
 40
2.5
  1
鉄筋防錆剤
 41
0.8
 11
333.3079
 21
32.33929999999999
 31
0.0
100
AcDbText
 73
     1
  0
TEXT
  5
E6E7
330
78D
100
AcDbEntity
 67
     1
  8
図面枠
100
AcDbText
 10
363.3079
 20
32.33924999999999
 30
0.0
 40
2.5
  1
2024.01.01
 11
363.3079
 21
32.33924999999999
 31
0.0
100
AcDbText
 73
     1
  0
TEXT
  5
E6E8
330
78D
100
AcDbEntity
 67
     1
  8
図面枠
100
AcDbText
 10
394.3079
 20
32.33924999999999
 30
0.0
 40
2.5
  1
1/10
 11
394.3079
 21
32.33924999999999
 31
0.0
100
AcDbText
 73
     1
  0
TEXT
  5
E6E9
330
78D
100
AcDbEntity
 67
     1
  8
図面枠
100
AcDbText
 10
300.0162781896648
 20
10.58922126233957
 30
0.0
 40
4.0
  1
三研テクノクリエイト
 11
300.0162781896648
 21
12.58922126233957
 31
0.0
100
AcDbText
 73
     2
  0
TEXT
  5
E6EA
330
78D
100
AcDbEntity
 67
     1
  8
図面枠
100
AcDbText
 10
294.2496115229981
 20
12.83922126233957
 30
0.0
 40
2.0
  1
株式
 72
     2
 11
298.5162781896648
 21
12.83922126233957
 31
0.0
100
AcDbText
 73
     1
  0
TEXT
  5
E6EB
330
78D
100
AcDbEntity
 67
     1
  8
図面枠
100
AcDbText
 10
294.2496115229981
 20
10.33922126233957
 30
0.0
 40
2.0
  1
会社
 72
     2
 11
298.5162781896648
 21
12.33922126233957
 31
0.0
100
AcDbText
 73
     3
  0
TEXT
  5
E6EC
330
78D
100
AcDbEntity
 67
     1
  8
図面枠
100
AcDbText
 10
352.97465
 20
27.21425
 30
0.0
 40
2.5
  1
摘　要
 11
352.97465
 21
29.71425
 31
0.0
100
AcDbText
 73
     3
  0
TEXT
  5
E6ED
330
78D
100
AcDbEntity
 67
     1
  8
図面枠
100
AcDbText
 10
352.9746
 20
15.21425
 30
0.0
 40
2.5
  1
型　式
 11
352.9746
 21
17.71425
 31
0.0
100
AcDbText
 73
     3
  0
TEXT
  5
E6EE
330
78D
100
AcDbEntity
 67
     1
  8
図面枠
100
AcDbText
 10
364.7662666666667
 20
20.86240908820163
 30
0.0
 40
2.5
  1
Ｈ３５－Ｗシリーズ
 72
     1
 11
378.0996
 21
20.86240908820163
 31
0.0
100
AcDbText
 73
     1
  0
LINE
  5
E6EF
330
78D
100
AcDbEntity
 67
     1
  8
図面枠
100
AcDbLine
 10
234.0996
 20
15.58924999999999
 30
0.0
 11
289.0996
 21
15.58924999999999
 31
0.0
  0
LINE
  5
E6F0
330
78D
100
AcDbEntity
 67
     1
  8
図面枠
100
AcDbLine
 10
234.0996
 20
15.58924999999999
 30
0.0
 11
234.0996
 21
6.589249999999991
 31
0.0
  0
LINE
  5
E6F2
330
78D
100
AcDbEntity
 67
     1
  8
図面枠
100
AcDbLine
 10
289.0996
 20
15.58924999999999
 30
0.0
 11
289.0996
 21
6.589249999999991
 31
0.0
  0
LINE
  5
E6F3
330
78D
100
AcDbEntity
 67
     1
  8
図面枠
100
AcDbLine
 10
234.0996
 20
6.589249999999991
 30
0.0
 11
289.0996
 21
6.589249999999991
 31
0.0
  0
TEXT
  5
13E59
330
78D
100
AcDbEntity
 67
     1
  8
図面枠
100
AcDbText
 10
235.9315942762782
 20
8.887940134352898
 30
0.0
 40
4.0
  1
スクラップ重量　231kg
 72
     1
 11
261.5040816496935
 21
8.887940134352898
 31
0.0
100
AcDbText
  0
ENDSEC
  0
SECTION
  2
OBJECTS
  0
DICTIONARY
  5
C
330
0
100
AcDbDictionary
281
     1
  3
ACAD_CIP_PREVIOUS_PRODUCT_INFO
350
13F9A
  3
ACAD_COLOR
350
6B
  3
ACAD_DETAILVIEWSTYLE
350
13F94
  3
ACAD_GROUP
350
D
  3
ACAD_LAYOUT
350
1A
  3
ACAD_MATERIAL
350
6A
  3
ACAD_MLEADERSTYLE
350
D1DA
  3
ACAD_MLINESTYLE
350
17
  3
ACAD_PLOTSETTINGS
350
19
  3
ACAD_PLOTSTYLENAME
350
E
  3
ACAD_SCALELIST
350
D1C8
  3
ACAD_SECTIONVIEWSTYLE
350
13F92
  3
ACAD_TABLESTYLE
350
7E
  3
ACAD_VISUALSTYLE
350
D1B7
  3
AcadDim
350
B89D
  3
ACDB_RECOMPOSE_DATA
350
15B9F
  3
AcDbVariableDictionary
350
5E
  3
AcDsDecomposeData
350
15BA5
  3
AEC_PROPERTY_SET_DEFS
350
D312
  0
DICTIONARY
  5
D429
330
8
100
AcDbDictionary
280
     1
281
     1
  0
DICTIONARY
  5
11D
330
2
100
AcDbDictionary
280
     1
281
     1
  3
ACAD_LAYERFILTERS
360
98AE
  3
ACAD_LAYERSTATES
360
11E
  3
ACLYDICTIONARY
360
98AD
  0
DICTIONARY
  5
D40F
330
10
100
AcDbDictionary
280
     1
281
     1
  3
ADSK_XREC_LAYER_RECONCILED
360
D410
  0
DICTIONARY
  5
D413
330
1BF
100
AcDbDictionary
280
     1
281
     1
  3
ADSK_XREC_LAYER_RECONCILED
360
D414
  0
DICTIONARY
  5
D417
330
1C1
100
AcDbDictionary
280
     1
281
     1
  3
ADSK_XREC_LAYER_RECONCILED
360
D418
  0
DICTIONARY
  5
D41B
330
1C3
100
AcDbDictionary
280
     1
281
     1
  3
ADSK_XREC_LAYER_RECONCILED
360
D41C
  0
DICTIONARY
  5
D41D
330
1C4
100
AcDbDictionary
280
     1
281
     1
  3
ADSK_XREC_LAYER_RECONCILED
360
D41E
  0
DICTIONARY
  5
D41F
330
1C5
100
AcDbDictionary
280
     1
281
     1
  3
ADSK_XREC_LAYER_RECONCILED
360
D420
  0
DICTIONARY
  5
D421
330
82E
100
AcDbDictionary
280
     1
281
     1
  3
ADSK_XREC_LAYER_RECONCILED
360
D422
  0
DICTIONARY
  5
5C91
330
1F
100
AcDbDictionary
280
     1
281
     1
  3
ACAD_SORTENTS
360
5C92
  0
DICTIONARY
  5
E6A8
330
C08
100
AcDbDictionary
280
     1
281
     1
  3
ACAD_SORTENTS
360
E814
  0
XRECORD
  5
13F9A
102
{ACAD_REACTORS
330
C
102
}
330
C
100
AcDbXrecord
280
     1
300
ACD
300
2023
300

  0
DICTIONARY
  5
6B
102
{ACAD_REACTORS
330
C
102
}
330
C
100
AcDbDictionary
281
     1
  0
DICTIONARY
  5
13F94
102
{ACAD_REACTORS
330
C
102
}
330
C
100
AcDbDictionary
281
     1
  3
Metric50
350
13F95
  0
DICTIONARY
  5
D
102
{ACAD_REACTORS
330
C
102
}
330
C
100
AcDbDictionary
281
     1
  0
DICTIONARY
  5
1A
102
{ACAD_REACTORS
330
C
102
}
330
C
100
AcDbDictionary
281
     1
  3
Model
350
22
  3
レイアウト1
350
78E
  0
DICTIONARY
  5
6A
102
{ACAD_REACTORS
330
C
102
}
330
C
100
AcDbDictionary
281
     1
  3
ByBlock
350
D1A7
  3
ByLayer
350
D19F
  3
Global
350
D1AF
  0
DICTIONARY
  5
D1DA
102
{ACAD_REACTORS
330
C
102
}
330
C
100
AcDbDictionary
281
     1
  3
Standard
350
D1DB
  0
DICTIONARY
  5
17
102
{ACAD_REACTORS
330
C
102
}
330
C
100
AcDbDictionary
281
     1
  3
Standard
350
18
  0
DICTIONARY
  5
19
102
{ACAD_REACTORS
330
C
102
}
330
C
100
AcDbDictionary
281
     1
  0
ACDBDICTIONARYWDFLT
  5
E
102
{ACAD_REACTORS
330
C
102
}
330
C
100
AcDbDictionary
281
     1
  3
Normal
350
F
100
AcDbDictionaryWithDefault
340
F
  0
DICTIONARY
  5
D1C8
102
{ACAD_REACTORS
330
C
102
}
330
C
100
AcDbDictionary
281
     1
  3
A0
350
D1C9
  3
A1
350
D1CA
  3
A2
350
D1CB
  3
A3
350
D1CC
  3
A4
350
D1CD
  3
A5
350
D1CE
  3
A6
350
D1CF
  3
A7
350
D1D0
  3
A8
350
D1D1
  3
A9
350
D1D2
  3
B0
350
D1D3
  3
B1
350
D1D4
  3
B2
350
D1D5
  3
B3
350
D1D6
  3
B4
350
D1D7
  3
B5
350
D1D8
  3
B6
350
D1D9
  0
DICTIONARY
  5
13F92
102
{ACAD_REACTORS
330
C
102
}
330
C
100
AcDbDictionary
281
     1
  3
Metric50
350
13F93
  0
DICTIONARY
  5
7E
102
{ACAD_REACTORS
330
C
102
}
330
C
100
AcDbDictionary
281
     1
  3
Standard
350
7F
  0
DICTIONARY
  5
D1B7
102
{ACAD_REACTORS
330
C
102
}
330
C
100
AcDbDictionary
281
     1
  3
2dWireframe
350
D1BD
  3
3D Hidden
350
D1BF
  3
3dWireframe
350
D1BE
  3
Basic
350
D1BC
  3
Brighten
350
D1C3
  3
ColorChange
350
D1C7
  3
Conceptual
350
D1C0
  3
Dim
350
D1C2
  3
EdgeColorOff
350
13F91
  3
Facepattern
350
D1C6
  3
Flat
350
D1B8
  3
FlatWithEdges
350
D1B9
  3
Gouraud
350
D1BA
  3
GouraudWithEdges
350
D1BB
  3
Hidden
350
13F89
  3
JitterOff
350
13F8F
  3
Linepattern
350
D1C5
  3
OverhangOff
350
13F90
  3
Realistic
350
D1C1
  3
Shaded
350
13F8E
  3
Shaded with edges
350
13F8D
  3
Shades of Gray
350
13F8A
  3
Sketchy
350
13F8B
  3
Thicken
350
D1C4
  3
Wireframe
350
13F88
  3
X-Ray
350
13F8C
  0
XRECORD
  5
B89D
102
{ACAD_REACTORS
330
C
102
}
330
C
100
AcDbXrecord
280
     1
 90
   990106
  3

 60
     0
 61
     0
 62
     1
 63
     3
 64
     0
 65
     0
 66
     0
 67
     3
 68
     1
 69
     0
 70
     0
 71
     0
 72
     0
 40
0.0
170
     0
  0
XRECORD
  5
15B9F
102
{ACAD_REACTORS
330
C
102
}
330
C
100
AcDbXrecord
280
     1
 90
        1
330
7F
  0
DICTIONARY
  5
5E
102
{ACAD_REACTORS
330
C
102
}
330
C
100
AcDbDictionary
281
     1
  3
CANNOSCALE
350
D437
  3
CMLEADERSTYLE
350
D436
  3
CTABLESTYLE
350
84
  3
CVIEWDETAILSTYLE
350
159B9
  3
CVIEWSECTIONSTYLE
350
159BA
  3
DIMASSOC
350
5F
  3
HIDETEXT
350
63
  3
INDEXCTL
350
D439
  3
LAYEREVAL
350
159BD
  3
LAYERNOTIFY
350
159BE
  3
LIGHTINGUNITS
350
159BC
  3
MSLTSCALE
350
159BB
  3
PROJECTNAME
350
C791
  3
SORTENTS
350
D438
  0
DICTIONARY
  5
15BA5
102
{ACAD_REACTORS
330
C
102
}
330
C
100
AcDbDictionary
281
     1
  3
AcDsRecords
350
15BA7
  3
AcDsSchemas
350
15BA6
1001
ACAD
1070
     2
  0
DICTIONARY
  5
D312
102
{ACAD_REACTORS
330
C
102
}
330
C
100
AcDbDictionary
281
     1
  0
DICTIONARY
  5
98AE
102
{ACAD_REACTORS
330
11D
102
}
330
11D
100
AcDbDictionary
281
     1
  0
DICTIONARY
  5
11E
102
{ACAD_REACTORS
330
11D
102
}
330
11D
100
AcDbDictionary
281
     1
  0
DICTIONARY
  5
98AD
102
{ACAD_REACTORS
330
11D
102
}
330
11D
100
AcDbDictionary
281
     1
1001
ACAD
1000
<All
  0
XRECORD
  5
D410
102
{ACAD_REACTORS
330
D40F
102
}
330
D40F
100
AcDbXrecord
280
     1
290
     1
  0
XRECORD
  5
D414
102
{ACAD_REACTORS
330
D413
102
}
330
D413
100
AcDbXrecord
280
     1
290
     1
  0
XRECORD
  5
D418
102
{ACAD_REACTORS
330
D417
102
}
330
D417
100
AcDbXrecord
280
     1
290
     1
  0
XRECORD
  5
D41C
102
{ACAD_REACTORS
330
D41B
102
}
330
D41B
100
AcDbXrecord
280
     1
290
     1
  0
XRECORD
  5
D41E
102
{ACAD_REACTORS
330
D41D
102
}
330
D41D
100
AcDbXrecord
280
     1
290
     1
  0
XRECORD
  5
D420
102
{ACAD_REACTORS
330
D41F
102
}
330
D41F
100
AcDbXrecord
280
     1
290
     1
  0
XRECORD
  5
D422
102
{ACAD_REACTORS
330
D421
102
}
330
D421
100
AcDbXrecord
280
     1
290
     1
  0
SORTENTSTABLE
  5
5C92
102
{ACAD_REACTORS
330
5C91
102
}
330
5C91
100
AcDbSortentsTable
330
1F
331
9AEE
  5
9D87
  0
SORTENTSTABLE
  5
E814
102
{ACAD_REACTORS
330
E6A8
102
}
330
E6A8
100
AcDbSortentsTable
330
C08
  0
ACDBDETAILVIEWSTYLE
  5
13F95
102
{ACAD_XDICTIONARY
360
15BAA
102
}
102
{ACAD_REACTORS
330
13F94
102
}
330
13F94
100
AcDbModelDocViewStyle
 70
     0
  3
Metric50
290
     0
100
AcDbDetailViewStyle
 70
     0
 71
     0
 90
        3
 71
     1
340
11
 62
   256
 40
5.0
340
0
 62
   256
 40
5.0
300

 40
0.0
280
     1
 71
     2
340
16
 90
       25
 62
   256
 71
     3
340
11
 62
   256
 40
5.0
 90
        0
 40
15.0
 90
        1
300
%<\AcVar ViewDetailId>% (%<\AcVar ViewScale \f "%sn">%)
 71
     4
340
16
 90
       25
 62
   256
340
16
 90
       25
 62
   256
280
     0
  0
LAYOUT
  5
22
102
{ACAD_REACTORS
330
1A
102
}
330
1A
100
AcDbPlotSettings
  1

  2
none_device
  4
ISO_A4_(210.00_x_297.00_MM)
  6

 40
7.5
 41
20.0
 42
7.5
 43
20.0
 44
210.0
 45
297.0
 46
11.54999923706054
 47
-13.65000009536743
 48
0.0
 49
0.0
140
0.0
141
0.0
142
1.0
143
8.704084754739808
 70
 11952
 72
     1
 73
     0
 74
     0
  7

 75
     0
147
0.1148885871608098
 76
     0
 77
     2
 78
   300
148
0.0
149
0.0
100
AcDbLayout
  1
Model
 70
     1
 71
     0
 10
0.0
 20
0.0
 11
12.0
 21
9.0
 12
0.0
 22
0.0
 32
0.0
 14
0.0
 24
0.0
 34
0.0
 15
0.0
 25
0.0
 35
0.0
146
0.0
 13
0.0
 23
0.0
 33
0.0
 16
1.0
 26
0.0
 36
0.0
 17
0.0
 27
1.0
 37
0.0
 76
     0
330
1F
331
E81D
1001
ACAD_PSEXT
1000
None
1000
None
1000
Not applicable
1000
The layout will not be plotted unless a new plotter configuration name is selected.
1070
     0
  0
LAYOUT
  5
78E
102
{ACAD_XDICTIONARY
360
79B
102
}
102
{ACAD_REACTORS
330
1A
102
}
330
1A
100
AcDbPlotSettings
  1

  2
RICOH MP C2503 JPN RPCS V2
  4
A3
  6

 40
5.873749732971191
 41
5.873748779296875
 42
5.873748779296875
 43
5.873748779296875
 44
296.9259948730469
 45
419.9466552734373
 46
0.0
 47
0.0
 48
0.0
 49
0.0
140
0.0
141
0.0
142
1.0
143
1.0
 70
   688
 72
     1
 73
     1
 74
     5
  7
monochrome.ctb
 75
    16
147
1.0
 76
     1
 77
     2
 78
   300
148
0.0
149
0.0
100
AcDbLayout
  1
レイアウト1
 70
     1
 71
     1
 10
-5.873748779296875
 20
-5.873749732971191
 11
414.0729064941406
 21
291.0522451400757
 12
0.0
 22
0.0
 32
0.0
 14
-0.0233557008396019
 24
-0.0155136928541424
 34
-0.0000000349181948
 15
408.2225153712125
 25
285.1940104826281
 35
0.0000000814935746
146
0.0
 13
0.0
 23
0.0
 33
0.0
 16
1.0
 26
0.0
 36
0.0
 17
0.0
 27
1.0
 37
0.0
 76
     0
330
78D
331
794
1001
ACAD_PSEXT
1000
RICOH MP C2503 JPN RPCS V2
1000
RICOH MP C2503 JPN RPCS V2
1000
IP_192.168.24.100
1000
RPCS Driver (For Windows)
1070
     0
  0
MATERIAL
  5
D1A7
102
{ACAD_XDICTIONARY
360
D1A8
102
}
102
{ACAD_REACTORS
330
6A
102
}
330
6A
100
AcDbMaterial
  1
ByBlock
 72
     0
 43
0.0008202099737533
 43
0.0
 43
0.0
 43
0.0
 43
0.0
 43
0.0008202099737533
 43
0.0
 43
0.0
 43
0.0
 43
0.0
 43
1.0
 43
0.0
 43
0.0
 43
0.0
 43
0.0
 43
1.0
 77
     0
 47
0.0008202099737533
 47
0.0
 47
0.0
 47
0.0
 47
0.0
 47
0.0008202099737533
 47
0.0
 47
0.0
 47
0.0
 47
0.0
 47
1.0
 47
0.0
 47
0.0
 47
0.0
 47
0.0
 47
1.0
171
     0
 49
0.0008202099737533
 49
0.0
 49
0.0
 49
0.0
 49
0.0
 49
0.0008202099737533
 49
0.0
 49
0.0
 49
0.0
 49
0.0
 49
1.0
 49
0.0
 49
0.0
 49
0.0
 49
0.0
 49
1.0
175
     0
142
0.0008202099737533
142
0.0
142
0.0
142
0.0
142
0.0
142
0.0008202099737533
142
0.0
142
0.0
142
0.0
142
0.0
142
1.0
142
0.0
142
0.0
142
0.0
142
0.0
142
1.0
179
     0
144
0.0008202099737533
144
0.0
144
0.0
144
0.0
144
0.0
144
0.0008202099737533
144
0.0
144
0.0
144
0.0
144
0.0
144
1.0
144
0.0
144
0.0
144
0.0
144
0.0
144
1.0
147
0.0008202099737533
147
0.0
147
0.0
147
0.0
147
0.0
147
0.0008202099737533
147
0.0
147
0.0
147
0.0
147
0.0
147
1.0
147
0.0
147
0.0
147
0.0
147
0.0
147
1.0
  0
MATERIAL
  5
D19F
102
{ACAD_XDICTIONARY
360
D1A0
102
}
102
{ACAD_REACTORS
330
6A
102
}
330
6A
100
AcDbMaterial
  1
ByLayer
 72
     0
 43
0.0008202099737533
 43
0.0
 43
0.0
 43
0.0
 43
0.0
 43
0.0008202099737533
 43
0.0
 43
0.0
 43
0.0
 43
0.0
 43
1.0
 43
0.0
 43
0.0
 43
0.0
 43
0.0
 43
1.0
 77
     0
 47
0.0008202099737533
 47
0.0
 47
0.0
 47
0.0
 47
0.0
 47
0.0008202099737533
 47
0.0
 47
0.0
 47
0.0
 47
0.0
 47
1.0
 47
0.0
 47
0.0
 47
0.0
 47
0.0
 47
1.0
171
     0
 49
0.0008202099737533
 49
0.0
 49
0.0
 49
0.0
 49
0.0
 49
0.0008202099737533
 49
0.0
 49
0.0
 49
0.0
 49
0.0
 49
1.0
 49
0.0
 49
0.0
 49
0.0
 49
0.0
 49
1.0
175
     0
142
0.0008202099737533
142
0.0
142
0.0
142
0.0
142
0.0
142
0.0008202099737533
142
0.0
142
0.0
142
0.0
142
0.0
142
1.0
142
0.0
142
0.0
142
0.0
142
0.0
142
1.0
179
     0
144
0.0008202099737533
144
0.0
144
0.0
144
0.0
144
0.0
144
0.0008202099737533
144
0.0
144
0.0
144
0.0
144
0.0
144
1.0
144
0.0
144
0.0
144
0.0
144
0.0
144
1.0
147
0.0008202099737533
147
0.0
147
0.0
147
0.0
147
0.0
147
0.0008202099737533
147
0.0
147
0.0
147
0.0
147
0.0
147
1.0
147
0.0
147
0.0
147
0.0
147
0.0
147
1.0
  0
MATERIAL
  5
D1AF
102
{ACAD_XDICTIONARY
360
D1B0
102
}
102
{ACAD_REACTORS
330
6A
102
}
330
6A
100
AcDbMaterial
  1
Global
 72
     0
 43
0.0008202099737533
 43
0.0
 43
0.0
 43
0.0
 43
0.0
 43
0.0008202099737533
 43
0.0
 43
0.0
 43
0.0
 43
0.0
 43
1.0
 43
0.0
 43
0.0
 43
0.0
 43
0.0
 43
1.0
 77
     0
 47
0.0008202099737533
 47
0.0
 47
0.0
 47
0.0
 47
0.0
 47
0.0008202099737533
 47
0.0
 47
0.0
 47
0.0
 47
0.0
 47
1.0
 47
0.0
 47
0.0
 47
0.0
 47
0.0
 47
1.0
171
     0
 49
0.0008202099737533
 49
0.0
 49
0.0
 49
0.0
 49
0.0
 49
0.0008202099737533
 49
0.0
 49
0.0
 49
0.0
 49
0.0
 49
1.0
 49
0.0
 49
0.0
 49
0.0
 49
0.0
 49
1.0
175
     0
142
0.0008202099737533
142
0.0
142
0.0
142
0.0
142
0.0
142
0.0008202099737533
142
0.0
142
0.0
142
0.0
142
0.0
142
1.0
142
0.0
142
0.0
142
0.0
142
0.0
142
1.0
179
     0
144
0.0008202099737533
144
0.0
144
0.0
144
0.0
144
0.0
144
0.0008202099737533
144
0.0
144
0.0
144
0.0
144
0.0
144
1.0
144
0.0
144
0.0
144
0.0
144
0.0
144
1.0
147
0.0008202099737533
147
0.0
147
0.0
147
0.0
147
0.0
147
0.0008202099737533
147
0.0
147
0.0
147
0.0
147
0.0
147
1.0
147
0.0
147
0.0
147
0.0
147
0.0
147
1.0
  0
MLEADERSTYLE
  5
D1DB
102
{ACAD_REACTORS
330
D1DA
102
}
330
D1DA
100
AcDbMLeaderStyle
179
     2
170
     2
171
     1
172
     0
 90
        2
 40
0.0
 41
0.0
173
     1
 91
-1056964608
340
14
 92
       -2
290
     1
 42
2.0
291
     1
 43
0.36
  3
Standard
 44
4.0
300

342
11
174
     1
178
     6
175
     1
176
     0
 93
-1056964608
 45
4.0
292
     0
297
     0
 46
4.0
 94
-1056964608
 47
1.0
 49
1.0
140
1.0
293
     1
141
0.0
294
     1
177
     0
142
1.0
295
     0
296
     0
143
0.125
271
     0
272
     9
273
     9
298
     0
1001
ACAD
1000
AcRTDxfName
1000
MLEADERSTYLE
1000
AcRTDxfName
1000
MLEADERSTYLE
1000
AcRTDxfName
1000
MLEADERSTYLE
1000
AcRTDxfName
1000
MLEADERSTYLE
  0
MLINESTYLE
  5
18
102
{ACAD_REACTORS
330
17
102
}
330
17
100
AcDbMlineStyle
  2
STANDARD
 70
     0
  3

 62
   256
 51
90.0
 52
90.0
 71
     2
 49
0.5
 62
   256
  6
BYLAYER
 49
-0.5
 62
   256
  6
BYLAYER
  0
ACDBPLACEHOLDER
  5
F
102
{ACAD_REACTORS
330
E
102
}
330
E
  0
SCALE
  5
D1C9
102
{ACAD_REACTORS
330
D1C8
102
}
330
D1C8
100
AcDbScale
 70
     0
300
1:1
140
1.0
141
1.0
290
     1
1001
ACAD
1000
AcRTDxfName
1000
SCALE
1000
AcRTDxfName
1000
SCALE
1000
AcRTDxfName
1000
SCALE
1000
AcRTDxfName
1000
SCALE
  0
SCALE
  5
D1CA
102
{ACAD_REACTORS
330
D1C8
102
}
330
D1C8
100
AcDbScale
 70
     0
300
1:2
140
1.0
141
2.0
290
     0
1001
ACAD
1000
AcRTDxfName
1000
SCALE
1000
AcRTDxfName
1000
SCALE
1000
AcRTDxfName
1000
SCALE
1000
AcRTDxfName
1000
SCALE
  0
SCALE
  5
D1CB
102
{ACAD_REACTORS
330
D1C8
102
}
330
D1C8
100
AcDbScale
 70
     0
300
1:4
140
1.0
141
4.0
290
     0
1001
ACAD
1000
AcRTDxfName
1000
SCALE
1000
AcRTDxfName
1000
SCALE
1000
AcRTDxfName
1000
SCALE
1000
AcRTDxfName
1000
SCALE
  0
SCALE
  5
D1CC
102
{ACAD_REACTORS
330
D1C8
102
}
330
D1C8
100
AcDbScale
 70
     0
300
1:5
140
1.0
141
5.0
290
     0
1001
ACAD
1000
AcRTDxfName
1000
SCALE
1000
AcRTDxfName
1000
SCALE
1000
AcRTDxfName
1000
SCALE
1000
AcRTDxfName
1000
SCALE
  0
SCALE
  5
D1CD
102
{ACAD_REACTORS
330
D1C8
102
}
330
D1C8
100
AcDbScale
 70
     0
300
1:8
140
1.0
141
8.0
290
     0
1001
ACAD
1000
AcRTDxfName
1000
SCALE
1000
AcRTDxfName
1000
SCALE
1000
AcRTDxfName
1000
SCALE
1000
AcRTDxfName
1000
SCALE
  0
SCALE
  5
D1CE
102
{ACAD_REACTORS
330
D1C8
102
}
330
D1C8
100
AcDbScale
 70
     0
300
1:10
140
1.0
141
10.0
290
     0
1001
ACAD
1000
AcRTDxfName
1000
SCALE
1000
AcRTDxfName
1000
SCALE
1000
AcRTDxfName
1000
SCALE
1000
AcRTDxfName
1000
SCALE
  0
SCALE
  5
D1CF
102
{ACAD_REACTORS
330
D1C8
102
}
330
D1C8
100
AcDbScale
 70
     0
300
1:16
140
1.0
141
16.0
290
     0
1001
ACAD
1000
AcRTDxfName
1000
SCALE
1000
AcRTDxfName
1000
SCALE
1000
AcRTDxfName
1000
SCALE
1000
AcRTDxfName
1000
SCALE
  0
SCALE
  5
D1D0
102
{ACAD_REACTORS
330
D1C8
102
}
330
D1C8
100
AcDbScale
 70
     0
300
1:20
140
1.0
141
20.0
290
     0
1001
ACAD
1000
AcRTDxfName
1000
SCALE
1000
AcRTDxfName
1000
SCALE
1000
AcRTDxfName
1000
SCALE
1000
AcRTDxfName
1000
SCALE
  0
SCALE
  5
D1D1
102
{ACAD_REACTORS
330
D1C8
102
}
330
D1C8
100
AcDbScale
 70
     0
300
1:30
140
1.0
141
30.0
290
     0
1001
ACAD
1000
AcRTDxfName
1000
SCALE
1000
AcRTDxfName
1000
SCALE
1000
AcRTDxfName
1000
SCALE
1000
AcRTDxfName
1000
SCALE
  0
SCALE
  5
D1D2
102
{ACAD_REACTORS
330
D1C8
102
}
330
D1C8
100
AcDbScale
 70
     0
300
1:40
140
1.0
141
40.0
290
     0
1001
ACAD
1000
AcRTDxfName
1000
SCALE
1000
AcRTDxfName
1000
SCALE
1000
AcRTDxfName
1000
SCALE
1000
AcRTDxfName
1000
SCALE
  0
SCALE
  5
D1D3
102
{ACAD_REACTORS
330
D1C8
102
}
330
D1C8
100
AcDbScale
 70
     0
300
1:50
140
1.0
141
50.0
290
     0
1001
ACAD
1000
AcRTDxfName
1000
SCALE
1000
AcRTDxfName
1000
SCALE
1000
AcRTDxfName
1000
SCALE
1000
AcRTDxfName
1000
SCALE
  0
SCALE
  5
D1D4
102
{ACAD_REACTORS
330
D1C8
102
}
330
D1C8
100
AcDbScale
 70
     0
300
1:100
140
1.0
141
100.0
290
     0
1001
ACAD
1000
AcRTDxfName
1000
SCALE
1000
AcRTDxfName
1000
SCALE
1000
AcRTDxfName
1000
SCALE
1000
AcRTDxfName
1000
SCALE
  0
SCALE
  5
D1D5
102
{ACAD_REACTORS
330
D1C8
102
}
330
D1C8
100
AcDbScale
 70
     0
300
2:1
140
2.0
141
1.0
290
     0
1001
ACAD
1000
AcRTDxfName
1000
SCALE
1000
AcRTDxfName
1000
SCALE
1000
AcRTDxfName
1000
SCALE
1000
AcRTDxfName
1000
SCALE
  0
SCALE
  5
D1D6
102
{ACAD_REACTORS
330
D1C8
102
}
330
D1C8
100
AcDbScale
 70
     0
300
4:1
140
4.0
141
1.0
290
     0
1001
ACAD
1000
AcRTDxfName
1000
SCALE
1000
AcRTDxfName
1000
SCALE
1000
AcRTDxfName
1000
SCALE
1000
AcRTDxfName
1000
SCALE
  0
SCALE
  5
D1D7
102
{ACAD_REACTORS
330
D1C8
102
}
330
D1C8
100
AcDbScale
 70
     0
300
8:1
140
8.0
141
1.0
290
     0
1001
ACAD
1000
AcRTDxfName
1000
SCALE
1000
AcRTDxfName
1000
SCALE
1000
AcRTDxfName
1000
SCALE
1000
AcRTDxfName
1000
SCALE
  0
SCALE
  5
D1D8
102
{ACAD_REACTORS
330
D1C8
102
}
330
D1C8
100
AcDbScale
 70
     0
300
10:1
140
10.0
141
1.0
290
     0
1001
ACAD
1000
AcRTDxfName
1000
SCALE
1000
AcRTDxfName
1000
SCALE
1000
AcRTDxfName
1000
SCALE
1000
AcRTDxfName
1000
SCALE
  0
SCALE
  5
D1D9
102
{ACAD_REACTORS
330
D1C8
102
}
330
D1C8
100
AcDbScale
 70
     0
300
100:1
140
100.0
141
1.0
290
     0
1001
ACAD
1000
AcRTDxfName
1000
SCALE
1000
AcRTDxfName
1000
SCALE
1000
AcRTDxfName
1000
SCALE
1000
AcRTDxfName
1000
SCALE
  0
ACDBSECTIONVIEWSTYLE
  5
13F93
102
{ACAD_XDICTIONARY
360
15BA8
102
}
102
{ACAD_REACTORS
330
13F92
102
}
330
13F92
100
AcDbModelDocViewStyle
 70
     0
  3
Metric50
290
     0
100
AcDbSectionViewStyle
 70
     0
 71
     0
 90
      102
 71
     1
340
11
 62
   256
 40
5.0
340
0
340
0
 62
   256
 40
5.0
300
I, O, Q, S, X, Z
 40
10.0
 90
        0
 40
2.5
 90
        0
 71
     2
340
16
 90
       25
 62
   256
340
16
 90
       50
 62
   256
 40
5.0
 40
2.5
 40
5.0
 71
     3
340
11
 62
   256
 40
5.0
 90
        0
 40
15.0
 90
        1
300
%<\AcVar ViewSectionStartId>%-%<\AcVar ViewSectionEndId>% (%<\AcVar ViewScale \f "%sn">%)
 71
     4
 62
   256
 62
   257
300
ANSI31
 40
1.0
 90
        0
290
     0
290
     0
 90
        6
 40
0.0
 40
1.570796326794896
 40
0.2617993877991494
 40
1.308996938995747
 40
-0.2617993877991494
 40
1.832595714594045
  0
TABLESTYLE
  5
7F
102
{ACAD_XDICTIONARY
360
D423
102
}
102
{ACAD_REACTORS
330
7E
102
}
330
7E
100
AcDbTableStyle
280
     0
  3
Standard
 70
     0
 71
     0
 40
1.5
 41
1.5
280
     0
281
     0
  7
Standard
140
4.5
170
     2
 62
     0
 63
     7
283
     0
 90
        4
 91
        0
  1

274
    -2
284
     1
 64
     0
275
    -2
285
     1
 65
     0
276
    -2
286
     1
 66
     0
277
    -2
287
     1
 67
     0
278
    -2
288
     1
 68
     0
279
    -2
289
     1
 69
     0
  7
Standard
140
6.0
170
     5
 62
     0
 63
     7
283
     0
 90
        4
 91
        0
  1

274
    -2
284
     1
 64
     0
275
    -2
285
     1
 65
     0
276
    -2
286
     1
 66
     0
277
    -2
287
     1
 67
     0
278
    -2
288
     1
 68
     0
279
    -2
289
     1
 69
     0
  7
Standard
140
4.5
170
     5
 62
     0
 63
     7
283
     0
 90
        4
 91
        0
  1

274
    -2
284
     1
 64
     0
275
    -2
285
     1
 65
     0
276
    -2
286
     1
 66
     0
277
    -2
287
     1
 67
     0
278
    -2
288
     1
 68
     0
279
    -2
289
     1
 69
     0
  0
VISUALSTYLE
  5
D1BD
102
{ACAD_REACTORS
330
D1B7
102
}
330
D1B7
100
AcDbVisualStyle
  2
2dWireframe
 70
     4
177
     3
291
     0
 70
    58
 90
        0
176
     1
 90
        2
176
     1
 90
        0
176
     1
 90
        0
176
     1
 40
0.6
176
     1
 40
30.0
176
     1
 62
     7
176
     1
 90
        1
176
     1
 90
        4
176
     1
 62
     7
176
     1
 62
   257
176
     1
 90
        1
176
     1
 90
        1
176
     1
 40
1.0
176
     1
 90
        0
176
     1
 62
   257
176
     1
 40
1.0
176
     1
 90
        1
176
     1
 90
        6
176
     1
 90
        2
176
     1
 62
     7
176
     1
 90
        5
176
     1
 90
        0
176
     1
 90
        0
176
     1
290
     0
176
     1
 90
        1
176
     1
 40
0.0
176
     1
 90
        0
176
     1
290
     1
176
     1
290
     1
176
     1
290
     0
176
     1
290
     0
176
     1
290
     0
176
     1
290
     0
176
     1
290
     0
176
     1
290
     0
176
     1
290
     0
176
     1
 90
       50
176
     1
 40
0.0
176
     1
 40
1.0
176
     1
 90
        0
176
     1
 62
    18
176
     1
 90
       50
176
     1
 90
        3
176
     1
 62
     5
420
      255
176
     1
290
     0
176
     1
 90
       50
176
     1
 90
       50
176
     1
 90
       50
176
     1
290
     0
176
     1
 90
       50
176
     1
 62
   256
176
     0
 40
1.0
176
     0
 90
        2
176
     1
  1
strokes_ogs.tif
176
     1
290
     0
176
     1
 40
1.0
176
     1
 40
1.0
176
     1
1001
ACAD
1000
AcRTDxfName
1000
VISUALSTYLE
1000
AcRTDxfName
1000
VISUALSTYLE
1000
AcRTDxfName
1000
VISUALSTYLE
1000
AcRTDxfName
1000
VISUALSTYLE
1000
AcDbSavedByObjectVersion
1070
     0
  0
VISUALSTYLE
  5
D1BF
102
{ACAD_REACTORS
330
D1B7
102
}
330
D1B7
100
AcDbVisualStyle
  2
3D Hidden
 70
     6
177
     3
291
     0
 70
    58
 90
        1
176
     1
 90
        2
176
     1
 90
        2
176
     1
 90
        0
176
     1
 40
0.6
176
     1
 40
30.0
176
     1
 62
     7
176
     1
 90
        2
176
     1
 90
        2
176
     1
 62
     7
176
     1
 62
   257
176
     1
 90
        2
176
     1
 90
        1
176
     1
 40
40.0
176
     1
 90
        0
176
     1
 62
   257
176
     1
 40
1.0
176
     1
 90
        1
176
     1
 90
        6
176
     1
 90
        2
176
     1
 62
     7
176
     1
 90
        3
176
     1
 90
        0
176
     1
 90
        0
176
     1
290
     0
176
     1
 90
        1
176
     1
 40
0.0
176
     1
 90
        0
176
     1
290
     0
176
     1
290
     1
176
     1
290
     1
176
     1
290
     0
176
     1
290
     0
176
     1
290
     0
176
     1
290
     0
176
     1
290
     0
176
     1
290
     0
176
     1
 90
       50
176
     1
 40
0.0
176
     1
 40
1.0
176
     1
 90
        0
176
     1
 62
    18
176
     1
 90
       50
176
     1
 90
        3
176
     1
 62
     5
420
      255
176
     1
290
     0
176
     1
 90
       50
176
     1
 90
       50
176
     1
 90
       50
176
     1
290
     0
176
     1
 90
       50
176
     1
 62
   256
176
     0
 40
1.0
176
     0
 90
        2
176
     1
  1
strokes_ogs.tif
176
     1
290
     0
176
     1
 40
1.0
176
     1
 40
1.0
176
     1
1001
ACAD
1000
AcRTDxfName
1000
VISUALSTYLE
1000
AcRTDxfName
1000
VISUALSTYLE
1000
AcRTDxfName
1000
VISUALSTYLE
1000
AcRTDxfName
1000
VISUALSTYLE
1000
AcDbSavedByObjectVersion
1070
     0
  0
VISUALSTYLE
  5
D1BE
102
{ACAD_REACTORS
330
D1B7
102
}
330
D1B7
100
AcDbVisualStyle
  2
3dWireframe
 70
     5
177
     3
291
     0
 70
    58
 90
        0
176
     1
 90
        2
176
     1
 90
        0
176
     1
 90
        0
176
     1
 40
0.6
176
     1
 40
30.0
176
     1
 62
     7
176
     1
 90
        1
176
     1
 90
        4
176
     1
 62
     7
176
     1
 62
   257
176
     1
 90
        1
176
     1
 90
        1
176
     1
 40
1.0
176
     1
 90
        0
176
     1
 62
   257
176
     1
 40
1.0
176
     1
 90
        1
176
     1
 90
        6
176
     1
 90
        2
176
     1
 62
     7
176
     1
 90
        5
176
     1
 90
        0
176
     1
 90
        0
176
     1
290
     0
176
     1
 90
        1
176
     1
 40
0.0
176
     1
 90
        0
176
     1
290
     0
176
     1
290
     1
176
     1
290
     1
176
     1
290
     0
176
     1
290
     0
176
     1
290
     0
176
     1
290
     0
176
     1
290
     0
176
     1
290
     0
176
     1
 90
       50
176
     1
 40
0.0
176
     1
 40
1.0
176
     1
 90
        0
176
     1
 62
    18
176
     1
 90
       50
176
     1
 90
        3
176
     1
 62
     5
420
      255
176
     1
290
     0
176
     1
 90
       50
176
     1
 90
       50
176
     1
 90
       50
176
     1
290
     0
176
     1
 90
       50
176
     1
 62
   256
176
     0
 40
1.0
176
     0
 90
        2
176
     1
  1
strokes_ogs.tif
176
     1
290
     0
176
     1
 40
1.0
176
     1
 40
1.0
176
     1
1001
ACAD
1000
AcRTDxfName
1000
VISUALSTYLE
1000
AcRTDxfName
1000
VISUALSTYLE
1000
AcRTDxfName
1000
VISUALSTYLE
1000
AcRTDxfName
1000
VISUALSTYLE
1000
AcDbSavedByObjectVersion
1070
     0
  0
VISUALSTYLE
  5
D1BC
102
{ACAD_REACTORS
330
D1B7
102
}
330
D1B7
100
AcDbVisualStyle
  2
Basic
 70
     7
177
     3
291
     1
 70
    58
 90
        1
176
     1
 90
        0
176
     1
 90
        1
176
     1
 90
        0
176
     1
 40
0.6
176
     1
 40
30.0
176
     1
 62
     7
176
     1
 90
        0
176
     1
 90
        4
176
     1
 62
     7
176
     1
 62
   257
176
     1
 90
        1
176
     1
 90
        1
176
     1
 40
1.0
176
     1
 90
        8
176
     1
 62
     7
176
     1
 40
1.0
176
     1
 90
        1
176
     1
 90
        6
176
     1
 90
        2
176
     1
 62
     7
176
     1
 90
        5
176
     1
 90
        0
176
     1
 90
        0
176
     1
290
     0
176
     1
 90
        1
176
     1
 40
0.0
176
     1
 90
        0
176
     1
290
     0
176
     1
290
     1
176
     1
290
     1
176
     1
290
     0
176
     1
290
     0
176
     1
290
     0
176
     1
290
     0
176
     1
290
     0
176
     1
290
     0
176
     1
 90
       50
176
     1
 40
0.0
176
     1
 40
1.0
176
     1
 90
        0
176
     1
 62
    18
176
     1
 90
       50
176
     1
 90
        3
176
     1
 62
     5
420
      255
176
     1
290
     0
176
     1
 90
       50
176
     1
 90
       50
176
     1
 90
       50
176
     1
290
     0
176
     1
 90
       50
176
     1
 62
   256
176
     0
 40
1.0
176
     0
 90
        2
176
     1
  1
strokes_ogs.tif
176
     1
290
     0
176
     1
 40
1.0
176
     1
 40
1.0
176
     1
1001
ACAD
1000
AcRTDxfName
1000
VISUALSTYLE
1000
AcRTDxfName
1000
VISUALSTYLE
1000
AcRTDxfName
1000
VISUALSTYLE
1000
AcRTDxfName
1000
VISUALSTYLE
1000
AcDbSavedByObjectVersion
1070
     0
  0
VISUALSTYLE
  5
D1C3
102
{ACAD_REACTORS
330
D1B7
102
}
330
D1B7
100
AcDbVisualStyle
  2
Brighten
 70
    12
177
     3
291
     1
 70
    58
 90
        2
176
     1
 90
        2
176
     1
 90
        0
176
     1
 90
        0
176
     1
 40
0.6
176
     1
 40
30.0
176
     1
 62
     7
176
     1
 90
        1
176
     1
 90
        4
176
     1
 62
     7
176
     1
 62
   257
176
     1
 90
        1
176
     1
 90
        1
176
     1
 40
1.0
176
     1
 90
        8
176
     1
 62
     7
176
     1
 40
1.0
176
     1
 90
        1
176
     1
 90
        6
176
     1
 90
        2
176
     1
 62
     7
176
     1
 90
        5
176
     1
 90
        0
176
     1
 90
        0
176
     1
290
     0
176
     1
 90
        1
176
     1
 40
50.0
176
     1
 90
        0
176
     1
290
     0
176
     1
290
     1
176
     1
290
     1
176
     1
290
     0
176
     1
290
     0
176
     1
290
     0
176
     1
290
     0
176
     1
290
     0
176
     1
290
     0
176
     1
 90
       50
176
     1
 40
0.0
176
     1
 40
1.0
176
     1
 90
        0
176
     1
 62
    18
176
     1
 90
       50
176
     1
 90
        3
176
     1
 62
     5
420
      255
176
     1
290
     0
176
     1
 90
       50
176
     1
 90
       50
176
     1
 90
       50
176
     1
290
     0
176
     1
 90
       50
176
     1
 62
   256
176
     0
 40
1.0
176
     0
 90
        2
176
     1
  1
strokes_ogs.tif
176
     1
290
     0
176
     1
 40
1.0
176
     1
 40
1.0
176
     1
1001
ACAD
1000
AcRTDxfName
1000
VISUALSTYLE
1000
AcRTDxfName
1000
VISUALSTYLE
1000
AcRTDxfName
1000
VISUALSTYLE
1000
AcRTDxfName
1000
VISUALSTYLE
1000
AcDbSavedByObjectVersion
1070
     0
  0
VISUALSTYLE
  5
D1C7
102
{ACAD_REACTORS
330
D1B7
102
}
330
D1B7
100
AcDbVisualStyle
  2
ColorChange
 70
    16
177
     3
291
     1
 70
    58
 90
        2
176
     1
 90
        2
176
     1
 90
        3
176
     1
 90
        0
176
     1
 40
0.6
176
     1
 40
30.0
176
     1
 62
     8
176
     1
 90
        1
176
     1
 90
        4
176
     1
 62
     7
176
     1
 62
   257
176
     1
 90
        1
176
     1
 90
        1
176
     1
 40
1.0
176
     1
 90
        8
176
     1
 62
     8
176
     1
 40
1.0
176
     1
 90
        1
176
     1
 90
        6
176
     1
 90
        2
176
     1
 62
     7
176
     1
 90
        5
176
     1
 90
        0
176
     1
 90
        0
176
     1
290
     0
176
     1
 90
        1
176
     1
 40
0.0
176
     1
 90
        0
176
     1
290
     0
176
     1
290
     1
176
     1
290
     1
176
     1
290
     0
176
     1
290
     0
176
     1
290
     0
176
     1
290
     0
176
     1
290
     0
176
     1
290
     0
176
     1
 90
       50
176
     1
 40
0.0
176
     1
 40
1.0
176
     1
 90
        0
176
     1
 62
    18
176
     1
 90
       50
176
     1
 90
        3
176
     1
 62
     5
420
      255
176
     1
290
     0
176
     1
 90
       50
176
     1
 90
       50
176
     1
 90
       50
176
     1
290
     0
176
     1
 90
       50
176
     1
 62
   256
176
     0
 40
1.0
176
     0
 90
        2
176
     1
  1
strokes_ogs.tif
176
     1
290
     0
176
     1
 40
1.0
176
     1
 40
1.0
176
     1
1001
ACAD
1000
AcRTDxfName
1000
VISUALSTYLE
1000
AcRTDxfName
1000
VISUALSTYLE
1000
AcRTDxfName
1000
VISUALSTYLE
1000
AcRTDxfName
1000
VISUALSTYLE
1000
AcDbSavedByObjectVersion
1070
     0
  0
VISUALSTYLE
  5
D1C0
102
{ACAD_REACTORS
330
D1B7
102
}
330
D1B7
100
AcDbVisualStyle
  2
Conceptual
 70
     9
177
     3
291
     0
 70
    58
 90
        3
176
     1
 90
        2
176
     1
 90
        0
176
     1
 90
        0
176
     1
 40
0.6
176
     1
 40
30.0
176
     1
 62
     7
176
     1
 90
        2
176
     1
 90
        2
176
     1
 62
     7
176
     1
 62
   257
176
     1
 90
        1
176
     1
 90
        1
176
     1
 40
40.0
176
     1
 90
        8
176
     1
 62
     7
176
     1
 40
1.0
176
     1
 90
        1
176
     1
 90
        6
176
     1
 90
        2
176
     1
 62
     7
176
     1
 90
        3
176
     1
 90
        0
176
     1
 90
        0
176
     1
290
     0
176
     1
 90
        1
176
     1
 40
0.0
176
     1
 90
        0
176
     1
290
     0
176
     1
290
     1
176
     1
290
     1
176
     1
290
     0
176
     1
290
     0
176
     1
290
     0
176
     1
290
     0
176
     1
290
     0
176
     1
290
     0
176
     1
 90
       50
176
     1
 40
0.0
176
     1
 40
1.0
176
     1
 90
        0
176
     1
 62
    18
176
     1
 90
       50
176
     1
 90
        3
176
     1
 62
     5
420
      255
176
     1
290
     0
176
     1
 90
       50
176
     1
 90
       50
176
     1
 90
       50
176
     1
290
     0
176
     1
 90
       50
176
     1
 62
   256
176
     0
 40
1.0
176
     0
 90
        2
176
     1
  1
strokes_ogs.tif
176
     1
290
     0
176
     1
 40
1.0
176
     1
 40
1.0
176
     1
1001
ACAD
1000
AcRTDxfName
1000
VISUALSTYLE
1000
AcRTDxfName
1000
VISUALSTYLE
1000
AcRTDxfName
1000
VISUALSTYLE
1000
AcRTDxfName
1000
VISUALSTYLE
1000
AcDbSavedByObjectVersion
1070
     0
  0
VISUALSTYLE
  5
D1C2
102
{ACAD_REACTORS
330
D1B7
102
}
330
D1B7
100
AcDbVisualStyle
  2
Dim
 70
    11
177
     3
291
     1
 70
    58
 90
        2
176
     1
 90
        2
176
     1
 90
        0
176
     1
 90
        0
176
     1
 40
0.6
176
     1
 40
30.0
176
     1
 62
     7
176
     1
 90
        1
176
     1
 90
        4
176
     1
 62
     7
176
     1
 62
   257
176
     1
 90
        1
176
     1
 90
        1
176
     1
 40
1.0
176
     1
 90
        8
176
     1
 62
     7
176
     1
 40
1.0
176
     1
 90
        1
176
     1
 90
        6
176
     1
 90
        2
176
     1
 62
     7
176
     1
 90
        5
176
     1
 90
        0
176
     1
 90
        0
176
     1
290
     0
176
     1
 90
        1
176
     1
 40
-50.0
176
     1
 90
        0
176
     1
290
     0
176
     1
290
     1
176
     1
290
     1
176
     1
290
     0
176
     1
290
     0
176
     1
290
     0
176
     1
290
     0
176
     1
290
     0
176
     1
290
     0
176
     1
 90
       50
176
     1
 40
0.0
176
     1
 40
1.0
176
     1
 90
        0
176
     1
 62
    18
176
     1
 90
       50
176
     1
 90
        3
176
     1
 62
     5
420
      255
176
     1
290
     0
176
     1
 90
       50
176
     1
 90
       50
176
     1
 90
       50
176
     1
290
     0
176
     1
 90
       50
176
     1
 62
   256
176
     0
 40
1.0
176
     0
 90
        2
176
     1
  1
strokes_ogs.tif
176
     1
290
     0
176
     1
 40
1.0
176
     1
 40
1.0
176
     1
1001
ACAD
1000
AcRTDxfName
1000
VISUALSTYLE
1000
AcRTDxfName
1000
VISUALSTYLE
1000
AcRTDxfName
1000
VISUALSTYLE
1000
AcRTDxfName
1000
VISUALSTYLE
1000
AcDbSavedByObjectVersion
1070
     0
  0
VISUALSTYLE
  5
13F91
102
{ACAD_REACTORS
330
D1B7
102
}
330
D1B7
100
AcDbVisualStyle
  2
EdgeColorOff
 70
    22
177
     3
291
     1
 70
    58
 90
        2
176
     0
 90
        2
176
     0
 90
        0
176
     0
 90
        0
176
     0
 40
0.6
176
     0
 40
30.0
176
     0
 62
     7
420
 16777215
176
     0
 90
        1
176
     0
 90
        4
176
     0
 62
     7
176
     0
 62
   257
176
     0
 90
        1
176
     0
 90
        1
176
     0
 40
1.0
176
     0
 90
        8
176
     2
 62
     7
176
     0
 40
1.0
176
     0
 90
        1
176
     0
 90
        6
176
     0
 90
        2
176
     0
 62
     7
176
     0
 90
        5
176
     0
 90
        0
176
     0
 90
        0
176
     0
290
     0
176
     0
 90
        1
176
     0
 40
0.0
176
     0
 90
        0
176
     0
290
     0
176
     0
290
     1
176
     0
290
     1
176
     0
290
     0
176
     0
290
     0
176
     0
290
     0
176
     0
290
     0
176
     0
290
     0
176
     0
290
     0
176
     0
 90
       50
176
     0
 40
0.0
176
     0
 40
1.0
176
     0
 90
        0
176
     0
 62
    18
176
     0
 90
       50
176
     0
 90
        3
176
     0
 62
     5
420
      255
176
     0
290
     0
176
     0
 90
       50
176
     0
 90
       50
176
     0
 90
       50
176
     0
290
     0
176
     0
 90
       50
176
     0
 62
   256
176
     0
 40
1.0
176
     0
 90
        2
176
     0
  1
strokes_ogs.tif
176
     0
290
     0
176
     0
 40
1.0
176
     0
 40
1.0
176
     0
1001
ACAD
1000
AcDbSavedByObjectVersion
1070
     0
  0
VISUALSTYLE
  5
D1C6
102
{ACAD_REACTORS
330
D1B7
102
}
330
D1B7
100
AcDbVisualStyle
  2
Facepattern
 70
    15
177
     3
291
     1
 70
    58
 90
        2
176
     1
 90
        2
176
     1
 90
        0
176
     1
 90
        0
176
     1
 40
0.6
176
     1
 40
30.0
176
     1
 62
     7
176
     1
 90
        1
176
     1
 90
        4
176
     1
 62
     7
176
     1
 62
   257
176
     1
 90
        1
176
     1
 90
        1
176
     1
 40
1.0
176
     1
 90
        8
176
     1
 62
     7
176
     1
 40
1.0
176
     1
 90
        1
176
     1
 90
        6
176
     1
 90
        2
176
     1
 62
     7
176
     1
 90
        5
176
     1
 90
        0
176
     1
 90
        0
176
     1
290
     0
176
     1
 90
        1
176
     1
 40
0.0
176
     1
 90
        0
176
     1
290
     0
176
     1
290
     1
176
     1
290
     1
176
     1
290
     0
176
     1
290
     0
176
     1
290
     0
176
     1
290
     0
176
     1
290
     0
176
     1
290
     0
176
     1
 90
       50
176
     1
 40
0.0
176
     1
 40
1.0
176
     1
 90
        0
176
     1
 62
    18
176
     1
 90
       50
176
     1
 90
        3
176
     1
 62
     5
420
      255
176
     1
290
     0
176
     1
 90
       50
176
     1
 90
       50
176
     1
 90
       50
176
     1
290
     0
176
     1
 90
       50
176
     1
 62
   256
176
     0
 40
1.0
176
     0
 90
        2
176
     1
  1
strokes_ogs.tif
176
     1
290
     0
176
     1
 40
1.0
176
     1
 40
1.0
176
     1
1001
ACAD
1000
AcRTDxfName
1000
VISUALSTYLE
1000
AcRTDxfName
1000
VISUALSTYLE
1000
AcRTDxfName
1000
VISUALSTYLE
1000
AcRTDxfName
1000
VISUALSTYLE
1000
AcDbSavedByObjectVersion
1070
     0
  0
VISUALSTYLE
  5
D1B8
102
{ACAD_REACTORS
330
D1B7
102
}
330
D1B7
100
AcDbVisualStyle
  2
Flat
 70
     0
177
     3
291
     1
 70
    58
 90
        2
176
     1
 90
        1
176
     1
 90
        1
176
     1
 90
        2
176
     1
 40
0.6
176
     1
 40
30.0
176
     1
 62
     7
176
     1
 90
        0
176
     1
 90
        4
176
     1
 62
     7
176
     1
 62
   257
176
     1
 90
        1
176
     1
 90
        1
176
     1
 40
1.0
176
     1
 90
        8
176
     1
 62
     7
176
     1
 40
1.0
176
     1
 90
        1
176
     1
 90
        6
176
     1
 90
        2
176
     1
 62
     7
176
     1
 90
        5
176
     1
 90
        0
176
     1
 90
        0
176
     1
290
     0
176
     1
 90
       13
176
     1
 40
0.0
176
     1
 90
        0
176
     1
290
     0
176
     1
290
     1
176
     1
290
     1
176
     1
290
     0
176
     1
290
     0
176
     1
290
     0
176
     1
290
     0
176
     1
290
     0
176
     1
290
     0
176
     1
 90
       50
176
     1
 40
0.0
176
     1
 40
1.0
176
     1
 90
        0
176
     1
 62
    18
176
     1
 90
       50
176
     1
 90
        3
176
     1
 62
     5
420
      255
176
     1
290
     0
176
     1
 90
       50
176
     1
 90
       50
176
     1
 90
       50
176
     1
290
     0
176
     1
 90
       50
176
     1
 62
   256
176
     0
 40
1.0
176
     0
 90
        2
176
     1
  1
strokes_ogs.tif
176
     1
290
     0
176
     1
 40
1.0
176
     1
 40
1.0
176
     1
1001
ACAD
1000
AcRTDxfName
1000
VISUALSTYLE
1000
AcRTDxfName
1000
VISUALSTYLE
1000
AcRTDxfName
1000
VISUALSTYLE
1000
AcRTDxfName
1000
VISUALSTYLE
1000
AcDbSavedByObjectVersion
1070
     0
  0
VISUALSTYLE
  5
D1B9
102
{ACAD_REACTORS
330
D1B7
102
}
330
D1B7
100
AcDbVisualStyle
  2
FlatWithEdges
 70
     1
177
     3
291
     1
 70
    58
 90
        2
176
     1
 90
        1
176
     1
 90
        1
176
     1
 90
        2
176
     1
 40
0.6
176
     1
 40
30.0
176
     1
 62
     7
176
     1
 90
        1
176
     1
 90
        4
176
     1
 62
     7
176
     1
 62
   257
176
     1
 90
        1
176
     1
 90
        1
176
     1
 40
1.0
176
     1
 90
        0
176
     1
 62
   257
176
     1
 40
1.0
176
     1
 90
        1
176
     1
 90
        6
176
     1
 90
        2
176
     1
 62
     7
176
     1
 90
        5
176
     1
 90
        0
176
     1
 90
        0
176
     1
290
     0
176
     1
 90
       13
176
     1
 40
0.0
176
     1
 90
        0
176
     1
290
     0
176
     1
290
     1
176
     1
290
     1
176
     1
290
     0
176
     1
290
     0
176
     1
290
     0
176
     1
290
     0
176
     1
290
     0
176
     1
290
     0
176
     1
 90
       50
176
     1
 40
0.0
176
     1
 40
1.0
176
     1
 90
        0
176
     1
 62
    18
176
     1
 90
       50
176
     1
 90
        3
176
     1
 62
     5
420
      255
176
     1
290
     0
176
     1
 90
       50
176
     1
 90
       50
176
     1
 90
       50
176
     1
290
     0
176
     1
 90
       50
176
     1
 62
   256
176
     0
 40
1.0
176
     0
 90
        2
176
     1
  1
strokes_ogs.tif
176
     1
290
     0
176
     1
 40
1.0
176
     1
 40
1.0
176
     1
1001
ACAD
1000
AcRTDxfName
1000
VISUALSTYLE
1000
AcRTDxfName
1000
VISUALSTYLE
1000
AcRTDxfName
1000
VISUALSTYLE
1000
AcRTDxfName
1000
VISUALSTYLE
1000
AcDbSavedByObjectVersion
1070
     0
  0
VISUALSTYLE
  5
D1BA
102
{ACAD_REACTORS
330
D1B7
102
}
330
D1B7
100
AcDbVisualStyle
  2
Gouraud
 70
     2
177
     3
291
     1
 70
    58
 90
        2
176
     1
 90
        2
176
     1
 90
        1
176
     1
 90
        2
176
     1
 40
0.6
176
     1
 40
30.0
176
     1
 62
     7
176
     1
 90
        0
176
     1
 90
        4
176
     1
 62
     7
176
     1
 62
   257
176
     1
 90
        1
176
     1
 90
        1
176
     1
 40
1.0
176
     1
 90
        0
176
     1
 62
     7
176
     1
 40
1.0
176
     1
 90
        1
176
     1
 90
        6
176
     1
 90
        2
176
     1
 62
     7
176
     1
 90
        5
176
     1
 90
        0
176
     1
 90
        0
176
     1
290
     0
176
     1
 90
       13
176
     1
 40
0.0
176
     1
 90
        0
176
     1
290
     0
176
     1
290
     1
176
     1
290
     1
176
     1
290
     0
176
     1
290
     0
176
     1
290
     0
176
     1
290
     0
176
     1
290
     0
176
     1
290
     0
176
     1
 90
       50
176
     1
 40
0.0
176
     1
 40
1.0
176
     1
 90
        0
176
     1
 62
    18
176
     1
 90
       50
176
     1
 90
        3
176
     1
 62
     5
420
      255
176
     1
290
     0
176
     1
 90
       50
176
     1
 90
       50
176
     1
 90
       50
176
     1
290
     0
176
     1
 90
       50
176
     1
 62
   256
176
     0
 40
1.0
176
     0
 90
        2
176
     1
  1
strokes_ogs.tif
176
     1
290
     0
176
     1
 40
1.0
176
     1
 40
1.0
176
     1
1001
ACAD
1000
AcRTDxfName
1000
VISUALSTYLE
1000
AcRTDxfName
1000
VISUALSTYLE
1000
AcRTDxfName
1000
VISUALSTYLE
1000
AcRTDxfName
1000
VISUALSTYLE
1000
AcDbSavedByObjectVersion
1070
     0
  0
VISUALSTYLE
  5
D1BB
102
{ACAD_REACTORS
330
D1B7
102
}
330
D1B7
100
AcDbVisualStyle
  2
GouraudWithEdges
 70
     3
177
     3
291
     1
 70
    58
 90
        2
176
     1
 90
        2
176
     1
 90
        1
176
     1
 90
        2
176
     1
 40
0.6
176
     1
 40
30.0
176
     1
 62
     7
176
     1
 90
        1
176
     1
 90
        4
176
     1
 62
     7
176
     1
 62
   257
176
     1
 90
        1
176
     1
 90
        1
176
     1
 40
1.0
176
     1
 90
        0
176
     1
 62
   257
176
     1
 40
1.0
176
     1
 90
        1
176
     1
 90
        6
176
     1
 90
        2
176
     1
 62
     7
176
     1
 90
        5
176
     1
 90
        0
176
     1
 90
        0
176
     1
290
     0
176
     1
 90
       13
176
     1
 40
0.0
176
     1
 90
        0
176
     1
290
     0
176
     1
290
     1
176
     1
290
     1
176
     1
290
     0
176
     1
290
     0
176
     1
290
     0
176
     1
290
     0
176
     1
290
     0
176
     1
290
     0
176
     1
 90
       50
176
     1
 40
0.0
176
     1
 40
1.0
176
     1
 90
        0
176
     1
 62
    18
176
     1
 90
       50
176
     1
 90
        3
176
     1
 62
     5
420
      255
176
     1
290
     0
176
     1
 90
       50
176
     1
 90
       50
176
     1
 90
       50
176
     1
290
     0
176
     1
 90
       50
176
     1
 62
   256
176
     0
 40
1.0
176
     0
 90
        2
176
     1
  1
strokes_ogs.tif
176
     1
290
     0
176
     1
 40
1.0
176
     1
 40
1.0
176
     1
1001
ACAD
1000
AcRTDxfName
1000
VISUALSTYLE
1000
AcRTDxfName
1000
VISUALSTYLE
1000
AcRTDxfName
1000
VISUALSTYLE
1000
AcRTDxfName
1000
VISUALSTYLE
1000
AcDbSavedByObjectVersion
1070
     0
  0
VISUALSTYLE
  5
13F89
102
{ACAD_REACTORS
330
D1B7
102
}
330
D1B7
100
AcDbVisualStyle
  2
Hidden
 70
     6
177
     3
291
     0
 70
    58
 90
        1
176
     1
 90
        2
176
     1
 90
        2
176
     1
 90
        0
176
     1
 40
0.6
176
     1
 40
30.0
176
     1
 62
     7
420
 16777215
176
     1
 90
        2
176
     1
 90
        2
176
     1
 62
     7
176
     1
 62
   257
176
     1
 90
        2
176
     1
 90
        1
176
     1
 40
40.0
176
     1
 90
        0
176
     1
 62
   257
176
     1
 40
1.0
176
     1
 90
        1
176
     1
 90
        6
176
     1
 90
        2
176
     1
 62
     7
176
     1
 90
        3
176
     1
 90
        0
176
     1
 90
        0
176
     1
290
     0
176
     1
 90
        1
176
     1
 40
0.0
176
     1
 90
        0
176
     1
290
     0
176
     1
290
     1
176
     1
290
     1
176
     1
290
     0
176
     1
290
     0
176
     1
290
     0
176
     1
290
     0
176
     1
290
     0
176
     1
290
     0
176
     1
 90
       50
176
     1
 40
0.0
176
     1
 40
1.0
176
     1
 90
        0
176
     1
 62
    18
176
     1
 90
       50
176
     1
 90
        3
176
     1
 62
     5
420
      255
176
     1
290
     0
176
     1
 90
       50
176
     1
 90
       50
176
     1
 90
       50
176
     1
290
     0
176
     1
 90
       50
176
     1
 62
   256
176
     0
 40
1.0
176
     0
 90
        2
176
     1
  1
strokes_ogs.tif
176
     1
290
     0
176
     1
 40
1.0
176
     1
 40
1.0
176
     1
1001
ACAD
1000
AcDbSavedByObjectVersion
1070
     0
  0
VISUALSTYLE
  5
13F8F
102
{ACAD_REACTORS
330
D1B7
102
}
330
D1B7
100
AcDbVisualStyle
  2
JitterOff
 70
    20
177
     3
291
     1
 70
    58
 90
        2
176
     0
 90
        2
176
     0
 90
        0
176
     0
 90
        0
176
     0
 40
0.6
176
     0
 40
30.0
176
     0
 62
     7
420
 16777215
176
     0
 90
        1
176
     0
 90
        4
176
     0
 62
     7
176
     0
 62
   257
176
     0
 90
        1
176
     0
 90
        1
176
     0
 40
1.0
176
     0
 90
       10
176
     2
 62
     7
176
     0
 40
1.0
176
     0
 90
        1
176
     0
 90
        6
176
     0
 90
        2
176
     0
 62
     7
176
     0
 90
        5
176
     0
 90
        0
176
     0
 90
        0
176
     0
290
     0
176
     0
 90
        1
176
     0
 40
0.0
176
     0
 90
        0
176
     0
290
     0
176
     0
290
     1
176
     0
290
     1
176
     0
290
     0
176
     0
290
     0
176
     0
290
     0
176
     0
290
     0
176
     0
290
     0
176
     0
290
     0
176
     0
 90
       50
176
     0
 40
0.0
176
     0
 40
1.0
176
     0
 90
        0
176
     0
 62
    18
176
     0
 90
       50
176
     0
 90
        3
176
     0
 62
     5
420
      255
176
     0
290
     0
176
     0
 90
       50
176
     0
 90
       50
176
     0
 90
       50
176
     0
290
     0
176
     0
 90
       50
176
     0
 62
   256
176
     0
 40
1.0
176
     0
 90
        2
176
     0
  1
strokes_ogs.tif
176
     0
290
     0
176
     0
 40
1.0
176
     0
 40
1.0
176
     0
1001
ACAD
1000
AcDbSavedByObjectVersion
1070
     0
  0
VISUALSTYLE
  5
D1C5
102
{ACAD_REACTORS
330
D1B7
102
}
330
D1B7
100
AcDbVisualStyle
  2
Linepattern
 70
    14
177
     3
291
     1
 70
    58
 90
        2
176
     1
 90
        2
176
     1
 90
        0
176
     1
 90
        0
176
     1
 40
0.6
176
     1
 40
30.0
176
     1
 62
     7
176
     1
 90
        1
176
     1
 90
        4
176
     1
 62
     7
176
     1
 62
   257
176
     1
 90
        7
176
     1
 90
        7
176
     1
 40
1.0
176
     1
 90
        8
176
     1
 62
     7
176
     1
 40
1.0
176
     1
 90
        1
176
     1
 90
        6
176
     1
 90
        2
176
     1
 62
     7
176
     1
 90
        5
176
     1
 90
        0
176
     1
 90
        0
176
     1
290
     0
176
     1
 90
        1
176
     1
 40
0.0
176
     1
 90
        0
176
     1
290
     0
176
     1
290
     1
176
     1
290
     1
176
     1
290
     0
176
     1
290
     0
176
     1
290
     0
176
     1
290
     0
176
     1
290
     0
176
     1
290
     0
176
     1
 90
       50
176
     1
 40
0.0
176
     1
 40
1.0
176
     1
 90
        0
176
     1
 62
    18
176
     1
 90
       50
176
     1
 90
        3
176
     1
 62
     5
420
      255
176
     1
290
     0
176
     1
 90
       50
176
     1
 90
       50
176
     1
 90
       50
176
     1
290
     0
176
     1
 90
       50
176
     1
 62
   256
176
     0
 40
1.0
176
     0
 90
        2
176
     1
  1
strokes_ogs.tif
176
     1
290
     0
176
     1
 40
1.0
176
     1
 40
1.0
176
     1
1001
ACAD
1000
AcRTDxfName
1000
VISUALSTYLE
1000
AcRTDxfName
1000
VISUALSTYLE
1000
AcRTDxfName
1000
VISUALSTYLE
1000
AcRTDxfName
1000
VISUALSTYLE
1000
AcDbSavedByObjectVersion
1070
     0
  0
VISUALSTYLE
  5
13F90
102
{ACAD_REACTORS
330
D1B7
102
}
330
D1B7
100
AcDbVisualStyle
  2
OverhangOff
 70
    21
177
     3
291
     1
 70
    58
 90
        2
176
     0
 90
        2
176
     0
 90
        0
176
     0
 90
        0
176
     0
 40
0.6
176
     0
 40
30.0
176
     0
 62
     7
420
 16777215
176
     0
 90
        1
176
     0
 90
        4
176
     0
 62
     7
176
     0
 62
   257
176
     0
 90
        1
176
     0
 90
        1
176
     0
 40
1.0
176
     0
 90
        9
176
     2
 62
     7
176
     0
 40
1.0
176
     0
 90
        1
176
     0
 90
        6
176
     0
 90
        2
176
     0
 62
     7
176
     0
 90
        5
176
     0
 90
        0
176
     0
 90
        0
176
     0
290
     0
176
     0
 90
        1
176
     0
 40
0.0
176
     0
 90
        0
176
     0
290
     0
176
     0
290
     1
176
     0
290
     1
176
     0
290
     0
176
     0
290
     0
176
     0
290
     0
176
     0
290
     0
176
     0
290
     0
176
     0
290
     0
176
     0
 90
       50
176
     0
 40
0.0
176
     0
 40
1.0
176
     0
 90
        0
176
     0
 62
    18
176
     0
 90
       50
176
     0
 90
        3
176
     0
 62
     5
420
      255
176
     0
290
     0
176
     0
 90
       50
176
     0
 90
       50
176
     0
 90
       50
176
     0
290
     0
176
     0
 90
       50
176
     0
 62
   256
176
     0
 40
1.0
176
     0
 90
        2
176
     0
  1
strokes_ogs.tif
176
     0
290
     0
176
     0
 40
1.0
176
     0
 40
1.0
176
     0
1001
ACAD
1000
AcDbSavedByObjectVersion
1070
     0
  0
VISUALSTYLE
  5
D1C1
102
{ACAD_REACTORS
330
D1B7
102
}
330
D1B7
100
AcDbVisualStyle
  2
Realistic
 70
     8
177
     3
291
     0
 70
    58
 90
        2
176
     1
 90
        2
176
     1
 90
        0
176
     1
 90
        0
176
     1
 40
0.6
176
     1
 40
30.0
176
     1
 62
     7
176
     1
 90
        1
176
     1
 90
        0
176
     1
 62
     7
176
     1
 62
   257
176
     1
 90
        1
176
     1
 90
        1
176
     1
 40
1.0
176
     1
 90
        8
176
     1
 62
     8
176
     1
 40
1.0
176
     1
 90
        1
176
     1
 90
        6
176
     1
 90
        2
176
     1
 62
     7
176
     1
 90
        5
176
     1
 90
        0
176
     1
 90
        0
176
     1
290
     0
176
     1
 90
       13
176
     1
 40
0.0
176
     1
 90
        0
176
     1
290
     0
176
     1
290
     1
176
     1
290
     1
176
     1
290
     0
176
     1
290
     0
176
     1
290
     0
176
     1
290
     0
176
     1
290
     0
176
     1
290
     0
176
     1
 90
       50
176
     1
 40
0.0
176
     1
 40
1.0
176
     1
 90
        0
176
     1
 62
    18
176
     1
 90
       50
176
     1
 90
        3
176
     1
 62
     5
420
      255
176
     1
290
     0
176
     1
 90
       50
176
     1
 90
       50
176
     1
 90
       50
176
     1
290
     0
176
     1
 90
       50
176
     1
 62
   256
176
     0
 40
1.0
176
     0
 90
        2
176
     1
  1
strokes_ogs.tif
176
     1
290
     0
176
     1
 40
1.0
176
     1
 40
1.0
176
     1
1001
ACAD
1000
AcRTDxfName
1000
VISUALSTYLE
1000
AcRTDxfName
1000
VISUALSTYLE
1000
AcRTDxfName
1000
VISUALSTYLE
1000
AcRTDxfName
1000
VISUALSTYLE
1000
AcDbSavedByObjectVersion
1070
     0
  0
VISUALSTYLE
  5
13F8E
102
{ACAD_REACTORS
330
D1B7
102
}
330
D1B7
100
AcDbVisualStyle
  2
Shaded
 70
    27
177
     3
291
     0
 70
    58
 90
        2
176
     1
 90
        2
176
     1
 90
        1
176
     1
 90
        2
176
     1
 40
0.6
176
     1
 40
30.0
176
     1
 62
     7
420
 16777215
176
     1
 90
        0
176
     1
 90
        4
176
     1
 62
     7
176
     1
 62
   257
176
     1
 90
        1
176
     1
 90
        1
176
     1
 40
1.0
176
     1
 90
        8
176
     1
 62
   257
176
     1
 40
1.0
176
     1
 90
        1
176
     1
 90
        6
176
     1
 90
        2
176
     1
 62
     8
420
  7895160
176
     1
 90
        3
176
     1
 90
        0
176
     1
 90
        0
176
     1
290
     0
176
     1
 90
        5
176
     1
 40
0.0
176
     1
 90
        0
176
     1
290
     0
176
     1
290
     1
176
     1
290
     1
176
     1
290
     0
176
     1
290
     0
176
     1
290
     0
176
     1
290
     0
176
     1
290
     0
176
     1
290
     0
176
     1
 90
       50
176
     1
 40
0.0
176
     1
 40
1.0
176
     1
 90
        0
176
     1
 62
    18
176
     1
 90
       50
176
     1
 90
        3
176
     1
 62
     5
420
      255
176
     1
290
     0
176
     1
 90
       50
176
     1
 90
       50
176
     1
 90
       50
176
     1
290
     0
176
     1
 90
       50
176
     1
 62
   256
176
     0
 40
1.0
176
     0
 90
        2
176
     1
  1
strokes_ogs.tif
176
     1
290
     0
176
     1
 40
1.0
176
     1
 40
1.0
176
     1
1001
ACAD
1000
AcDbSavedByObjectVersion
1070
     0
  0
VISUALSTYLE
  5
13F8D
102
{ACAD_REACTORS
330
D1B7
102
}
330
D1B7
100
AcDbVisualStyle
  2
Shaded with edges
 70
    26
177
     3
291
     0
 70
    58
 90
        2
176
     1
 90
        2
176
     1
 90
        1
176
     1
 90
        2
176
     1
 40
0.6
176
     1
 40
30.0
176
     1
 62
     7
420
 16777215
176
     1
 90
        1
176
     1
 90
        2
176
     1
 62
     7
176
     1
 62
   257
176
     1
 90
        2
176
     1
 90
        1
176
     1
 40
1.0
176
     1
 90
        8
176
     1
 62
   257
176
     1
 40
1.0
176
     1
 90
        1
176
     1
 90
        6
176
     1
 90
        2
176
     1
 62
     7
176
     1
 90
        3
176
     1
 90
        0
176
     1
 90
        0
176
     1
290
     0
176
     1
 90
        5
176
     1
 40
0.0
176
     1
 90
        0
176
     1
290
     0
176
     1
290
     1
176
     1
290
     1
176
     1
290
     0
176
     1
290
     0
176
     1
290
     0
176
     1
290
     0
176
     1
290
     0
176
     1
290
     0
176
     1
 90
       50
176
     1
 40
0.0
176
     1
 40
1.0
176
     1
 90
        0
176
     1
 62
    18
176
     1
 90
       50
176
     1
 90
        3
176
     1
 62
     5
420
      255
176
     1
290
     0
176
     1
 90
       50
176
     1
 90
       50
176
     1
 90
       50
176
     1
290
     0
176
     1
 90
       50
176
     1
 62
   256
176
     0
 40
1.0
176
     0
 90
        2
176
     1
  1
strokes_ogs.tif
176
     1
290
     0
176
     1
 40
1.0
176
     1
 40
1.0
176
     1
1001
ACAD
1000
AcDbSavedByObjectVersion
1070
     0
  0
VISUALSTYLE
  5
13F8A
102
{ACAD_REACTORS
330
D1B7
102
}
330
D1B7
100
AcDbVisualStyle
  2
Shades of Gray
 70
    23
177
     3
291
     0
 70
    58
 90
        2
176
     1
 90
        2
176
     1
 90
        3
176
     1
 90
        0
176
     1
 40
0.6
176
     1
 40
30.0
176
     1
 62
     7
420
 16777215
176
     1
 90
        2
176
     1
 90
        2
176
     1
 62
     7
176
     1
 62
     7
176
     1
 90
        1
176
     1
 90
        1
176
     1
 40
40.0
176
     1
 90
        8
176
     1
 62
     7
176
     1
 40
1.0
176
     1
 90
        1
176
     1
 90
        6
176
     1
 90
        2
176
     1
 62
     7
176
     1
 90
        3
176
     1
 90
        0
176
     1
 90
        0
176
     1
290
     0
176
     1
 90
        1
176
     1
 40
0.0
176
     1
 90
        0
176
     1
290
     0
176
     1
290
     1
176
     1
290
     1
176
     1
290
     0
176
     1
290
     0
176
     1
290
     0
176
     1
290
     0
176
     1
290
     0
176
     1
290
     0
176
     1
 90
       50
176
     1
 40
0.0
176
     1
 40
1.0
176
     1
 90
        0
176
     1
 62
    18
176
     1
 90
       50
176
     1
 90
        3
176
     1
 62
     5
420
      255
176
     1
290
     0
176
     1
 90
       50
176
     1
 90
       50
176
     1
 90
       50
176
     1
290
     0
176
     1
 90
       50
176
     1
 62
   256
176
     0
 40
1.0
176
     0
 90
        2
176
     1
  1
strokes_ogs.tif
176
     1
290
     0
176
     1
 40
1.0
176
     1
 40
1.0
176
     1
1001
ACAD
1000
AcDbSavedByObjectVersion
1070
     0
  0
VISUALSTYLE
  5
13F8B
102
{ACAD_REACTORS
330
D1B7
102
}
330
D1B7
100
AcDbVisualStyle
  2
Sketchy
 70
    24
177
     3
291
     0
 70
    58
 90
        1
176
     1
 90
        2
176
     1
 90
        2
176
     1
 90
        0
176
     1
 40
0.6
176
     1
 40
30.0
176
     1
 62
     7
420
 16777215
176
     1
 90
        2
176
     1
 90
        2
176
     1
 62
     7
176
     1
 62
     7
176
     1
 90
        1
176
     1
 90
        1
176
     1
 40
40.0
176
     1
 90
       11
176
     1
 62
     7
176
     1
 40
1.0
176
     1
 90
        1
176
     1
 90
        6
176
     1
 90
        2
176
     1
 62
     7
176
     1
 90
        6
176
     1
 90
        0
176
     1
 90
        0
176
     1
290
     0
176
     1
 90
        1
176
     1
 40
0.0
176
     1
 90
        0
176
     1
290
     0
176
     1
290
     1
176
     1
290
     1
176
     1
290
     0
176
     1
290
     0
176
     1
290
     0
176
     1
290
     0
176
     1
290
     0
176
     1
290
     0
176
     1
 90
       50
176
     1
 40
0.0
176
     1
 40
1.0
176
     1
 90
        0
176
     1
 62
    18
176
     1
 90
       50
176
     1
 90
        3
176
     1
 62
     5
420
      255
176
     1
290
     0
176
     1
 90
       50
176
     1
 90
       50
176
     1
 90
       50
176
     1
290
     0
176
     1
 90
       50
176
     1
 62
   256
176
     0
 40
1.0
176
     0
 90
        2
176
     1
  1
strokes_ogs.tif
176
     1
290
     0
176
     1
 40
1.0
176
     1
 40
1.0
176
     1
1001
ACAD
1000
AcDbSavedByObjectVersion
1070
     0
  0
VISUALSTYLE
  5
D1C4
102
{ACAD_REACTORS
330
D1B7
102
}
330
D1B7
100
AcDbVisualStyle
  2
Thicken
 70
    13
177
     3
291
     1
 70
    58
 90
        2
176
     1
 90
        2
176
     1
 90
        0
176
     1
 90
        0
176
     1
 40
0.6
176
     1
 40
30.0
176
     1
 62
     7
176
     1
 90
        1
176
     1
 90
        4
176
     1
 62
     7
176
     1
 62
   257
176
     1
 90
        1
176
     1
 90
        1
176
     1
 40
1.0
176
     1
 90
       12
176
     1
 62
     7
176
     1
 40
1.0
176
     1
 90
        1
176
     1
 90
        6
176
     1
 90
        2
176
     1
 62
     7
176
     1
 90
        5
176
     1
 90
        0
176
     1
 90
        0
176
     1
290
     0
176
     1
 90
        1
176
     1
 40
0.0
176
     1
 90
        0
176
     1
290
     0
176
     1
290
     1
176
     1
290
     1
176
     1
290
     0
176
     1
290
     0
176
     1
290
     0
176
     1
290
     0
176
     1
290
     0
176
     1
290
     0
176
     1
 90
       50
176
     1
 40
0.0
176
     1
 40
1.0
176
     1
 90
        0
176
     1
 62
    18
176
     1
 90
       50
176
     1
 90
        3
176
     1
 62
     5
420
      255
176
     1
290
     0
176
     1
 90
       50
176
     1
 90
       50
176
     1
 90
       50
176
     1
290
     0
176
     1
 90
       50
176
     1
 62
   256
176
     0
 40
1.0
176
     0
 90
        2
176
     1
  1
strokes_ogs.tif
176
     1
290
     0
176
     1
 40
1.0
176
     1
 40
1.0
176
     1
1001
ACAD
1000
AcRTDxfName
1000
VISUALSTYLE
1000
AcRTDxfName
1000
VISUALSTYLE
1000
AcRTDxfName
1000
VISUALSTYLE
1000
AcRTDxfName
1000
VISUALSTYLE
1000
AcDbSavedByObjectVersion
1070
     0
  0
VISUALSTYLE
  5
13F88
102
{ACAD_REACTORS
330
D1B7
102
}
330
D1B7
100
AcDbVisualStyle
  2
Wireframe
 70
     5
177
     3
291
     0
 70
    58
 90
        0
176
     1
 90
        2
176
     1
 90
        0
176
     1
 90
        0
176
     1
 40
0.6
176
     1
 40
30.0
176
     1
 62
     7
420
 16777215
176
     1
 90
        1
176
     1
 90
        4
176
     1
 62
     7
176
     1
 62
   257
176
     1
 90
        1
176
     1
 90
        1
176
     1
 40
1.0
176
     1
 90
        0
176
     1
 62
   257
176
     1
 40
1.0
176
     1
 90
        1
176
     1
 90
        6
176
     1
 90
        2
176
     1
 62
     7
176
     1
 90
        3
176
     1
 90
        0
176
     1
 90
        0
176
     1
290
     0
176
     1
 90
        1
176
     1
 40
0.0
176
     1
 90
        0
176
     1
290
     0
176
     1
290
     1
176
     1
290
     1
176
     1
290
     0
176
     1
290
     0
176
     1
290
     0
176
     1
290
     0
176
     1
290
     0
176
     1
290
     0
176
     1
 90
       50
176
     1
 40
0.0
176
     1
 40
1.0
176
     1
 90
        0
176
     1
 62
    18
176
     1
 90
       50
176
     1
 90
        3
176
     1
 62
     5
420
      255
176
     1
290
     0
176
     1
 90
       50
176
     1
 90
       50
176
     1
 90
       50
176
     1
290
     0
176
     1
 90
       50
176
     1
 62
   256
176
     0
 40
1.0
176
     0
 90
        2
176
     1
  1
strokes_ogs.tif
176
     1
290
     0
176
     1
 40
1.0
176
     1
 40
1.0
176
     1
1001
ACAD
1000
AcDbSavedByObjectVersion
1070
     0
  0
VISUALSTYLE
  5
13F8C
102
{ACAD_REACTORS
330
D1B7
102
}
330
D1B7
100
AcDbVisualStyle
  2
X-Ray
 70
    25
177
     3
291
     0
 70
    58
 90
        2
176
     1
 90
        2
176
     1
 90
        1
176
     1
 90
        1
176
     1
 40
0.5
176
     1
 40
30.0
176
     1
 62
     7
420
 16777215
176
     1
 90
        1
176
     1
 90
        0
176
     1
 62
     7
176
     1
 62
   257
176
     1
 90
        1
176
     1
 90
        1
176
     1
 40
1.0
176
     1
 90
        8
176
     1
 62
     7
176
     1
 40
1.0
176
     1
 90
        1
176
     1
 90
        6
176
     1
 90
        2
176
     1
 62
     7
176
     1
 90
        3
176
     1
 90
        0
176
     1
 90
        0
176
     1
290
     0
176
     1
 90
       13
176
     1
 40
0.0
176
     1
 90
        0
176
     1
290
     0
176
     1
290
     1
176
     1
290
     1
176
     1
290
     0
176
     1
290
     0
176
     1
290
     0
176
     1
290
     0
176
     1
290
     0
176
     1
290
     0
176
     1
 90
       50
176
     1
 40
0.0
176
     1
 40
1.0
176
     1
 90
        0
176
     1
 62
    18
176
     1
 90
       50
176
     1
 90
        3
176
     1
 62
     5
420
      255
176
     1
290
     0
176
     1
 90
       50
176
     1
 90
       50
176
     1
 90
       50
176
     1
290
     0
176
     1
 90
       50
176
     1
 62
   256
176
     0
 40
1.0
176
     0
 90
        2
176
     1
  1
strokes_ogs.tif
176
     1
290
     0
176
     1
 40
1.0
176
     1
 40
1.0
176
     1
1001
ACAD
1000
AcDbSavedByObjectVersion
1070
     0
  0
DICTIONARYVAR
  5
D437
102
{ACAD_REACTORS
330
5E
102
}
330
5E
100
DictionaryVariables
280
     0
  1
1:1
  0
DICTIONARYVAR
  5
D436
102
{ACAD_REACTORS
330
5E
102
}
330
5E
100
DictionaryVariables
280
     0
  1
STANDARD
  0
DICTIONARYVAR
  5
84
102
{ACAD_REACTORS
330
5E
102
}
330
5E
100
DictionaryVariables
280
     0
  1
STANDARD
  0
DICTIONARYVAR
  5
159B9
102
{ACAD_REACTORS
330
5E
102
}
330
5E
100
DictionaryVariables
280
     0
  1
Metric50
  0
DICTIONARYVAR
  5
159BA
102
{ACAD_REACTORS
330
5E
102
}
330
5E
100
DictionaryVariables
280
     0
  1
Metric50
  0
DICTIONARYVAR
  5
5F
102
{ACAD_REACTORS
330
5E
102
}
330
5E
100
DictionaryVariables
280
     0
  1
2
  0
DICTIONARYVAR
  5
63
102
{ACAD_REACTORS
330
5E
102
}
330
5E
100
DictionaryVariables
280
     0
  1
1
  0
DICTIONARYVAR
  5
D439
102
{ACAD_REACTORS
330
5E
102
}
330
5E
100
DictionaryVariables
280
     0
  1
0
  0
DICTIONARYVAR
  5
159BD
102
{ACAD_REACTORS
330
5E
102
}
330
5E
100
DictionaryVariables
280
     0
  1
1
  0
DICTIONARYVAR
  5
159BE
102
{ACAD_REACTORS
330
5E
102
}
330
5E
100
DictionaryVariables
280
     0
  1
15
  0
DICTIONARYVAR
  5
159BC
102
{ACAD_REACTORS
330
5E
102
}
330
5E
100
DictionaryVariables
280
     0
  1
0
  0
DICTIONARYVAR
  5
159BB
102
{ACAD_REACTORS
330
5E
102
}
330
5E
100
DictionaryVariables
280
     0
  1
0
  0
DICTIONARYVAR
  5
C791
102
{ACAD_REACTORS
330
5E
102
}
330
5E
100
DictionaryVariables
280
     0
  1

  0
DICTIONARYVAR
  5
D438
102
{ACAD_REACTORS
330
5E
102
}
330
5E
100
DictionaryVariables
280
     0
  1
127
  0
DICTIONARY
  5
15BA7
102
{ACAD_REACTORS
330
15BA5
102
}
330
15BA5
100
AcDbDictionary
281
     1
  0
DICTIONARY
  5
15BA6
102
{ACAD_REACTORS
330
15BA5
102
}
330
15BA5
100
AcDbDictionary
281
     1
  3
2504157436032
350
15BA0
  3
2504157436048
350
15BA1
  3
2504157436064
350
15BA2
  3
2504157436080
350
15BA3
  3
2504157436096
350
15BA4
  0
DICTIONARY
  5
15BAA
330
13F95
100
AcDbDictionary
280
     1
281
     1
  3
ACAD_XREC_ROUNDTRIP
360
15BAB
  0
DICTIONARY
  5
79B
330
78E
100
AcDbDictionary
280
     1
281
     1
  0
DICTIONARY
  5
D1A8
330
D1A7
100
AcDbDictionary
280
     1
281
     1
  3
BUMPTILE
360
D1AA
  3
DIFFUSETILE
360
D1A9
  3
OPACITYTILE
360
D1AD
  3
REFLECTIONTILE
360
D1AC
  3
REFRACTIONTILE
360
D1AE
  3
SPECULARTILE
360
D1AB
  0
DICTIONARY
  5
D1A0
330
D19F
100
AcDbDictionary
280
     1
281
     1
  3
BUMPTILE
360
D1A2
  3
DIFFUSETILE
360
D1A1
  3
OPACITYTILE
360
D1A5
  3
REFLECTIONTILE
360
D1A4
  3
REFRACTIONTILE
360
D1A6
  3
SPECULARTILE
360
D1A3
  0
DICTIONARY
  5
D1B0
330
D1AF
100
AcDbDictionary
280
     1
281
     1
  3
BUMPTILE
360
D1B2
  3
DIFFUSETILE
360
D1B1
  3
OPACITYTILE
360
D1B5
  3
REFLECTIONTILE
360
D1B4
  3
REFRACTIONTILE
360
D1B6
  3
SPECULARTILE
360
D1B3
  0
DICTIONARY
  5
15BA8
330
13F93
100
AcDbDictionary
280
     1
281
     1
  3
ACAD_XREC_ROUNDTRIP
360
15BA9
  0
DICTIONARY
  5
D423
330
7F
100
AcDbDictionary
280
     1
281
     1
  3
ACAD_ROUNDTRIP_2008_TABLESTYLE_CELLSTYLEMAP
360
15B9E
  0
XRECORD
  5
15BA0
102
{ACAD_REACTORS
330
15BA6
102
}
330
15BA6
100
AcDbXrecord
280
     1
  1
AcDb_Thumbnail_Schema
102
{ATTRRECORD
341
15BA1
  2
AcDbDs::TreatedAsObjectData
280
     1
291
     1
102
ATTRRECORD}
102
{ATTRRECORD
341
15BA2
  2
AcDbDs::Legacy
280
     1
291
     1
102
ATTRRECORD}
  2
AcDbDs::ID
280
    10
 91
        8
102
{ATTRRECORD
341
15BA3
  2
AcDs:Indexable
280
     1
291
     1
102
ATTRRECORD}
102
{ATTRRECORD
341
15BA4
  2
AcDbDs::HandleAttribute
280
     7
282
     1
102
ATTRRECORD}
  2
Thumbnail_Data
280
    15
 91
        0
  0
XRECORD
  5
15BA1
102
{ACAD_REACTORS
330
15BA6
102
}
330
15BA6
100
AcDbXrecord
280
     1
  1
AcDbDs::TreatedAsObjectDataSchema
  2
AcDbDs::TreatedAsObjectData
280
     1
 91
        0
  0
XRECORD
  5
15BA2
102
{ACAD_REACTORS
330
15BA6
102
}
330
15BA6
100
AcDbXrecord
280
     1
  1
AcDbDs::LegacySchema
  2
AcDbDs::Legacy
280
     1
 91
        0
  0
XRECORD
  5
15BA3
102
{ACAD_REACTORS
330
15BA6
102
}
330
15BA6
100
AcDbXrecord
280
     1
  1
AcDbDs::IndexedPropertySchema
  2
AcDs:Indexable
280
     1
 91
        0
  0
XRECORD
  5
15BA4
102
{ACAD_REACTORS
330
15BA6
102
}
330
15BA6
100
AcDbXrecord
280
     1
  1
AcDbDs::HandleAttributeSchema
  2
AcDbDs::HandleAttribute
280
     7
 91
        1
284
     1
  0
XRECORD
  5
15BAB
102
{ACAD_REACTORS
330
15BAA
102
}
330
15BAA
100
AcDbXrecord
280
     1
102
DISPLAYNAME
  1
Metric50
102
FLAGS
 90
        0
  0
XRECORD
  5
D1AA
102
{ACAD_REACTORS
330
D1A8
102
}
330
D1A8
100
AcDbXrecord
280
     1
270
     1
271
     1
  0
XRECORD
  5
D1A9
102
{ACAD_REACTORS
330
D1A8
102
}
330
D1A8
100
AcDbXrecord
280
     1
270
     1
271
     1
  0
XRECORD
  5
D1AD
102
{ACAD_REACTORS
330
D1A8
102
}
330
D1A8
100
AcDbXrecord
280
     1
270
     1
271
     1
  0
XRECORD
  5
D1AC
102
{ACAD_REACTORS
330
D1A8
102
}
330
D1A8
100
AcDbXrecord
280
     1
270
     1
271
     1
  0
XRECORD
  5
D1AE
102
{ACAD_REACTORS
330
D1A8
102
}
330
D1A8
100
AcDbXrecord
280
     1
270
     1
271
     1
  0
XRECORD
  5
D1AB
102
{ACAD_REACTORS
330
D1A8
102
}
330
D1A8
100
AcDbXrecord
280
     1
270
     1
271
     1
  0
XRECORD
  5
D1A2
102
{ACAD_REACTORS
330
D1A0
102
}
330
D1A0
100
AcDbXrecord
280
     1
270
     1
271
     1
  0
XRECORD
  5
D1A1
102
{ACAD_REACTORS
330
D1A0
102
}
330
D1A0
100
AcDbXrecord
280
     1
270
     1
271
     1
  0
XRECORD
  5
D1A5
102
{ACAD_REACTORS
330
D1A0
102
}
330
D1A0
100
AcDbXrecord
280
     1
270
     1
271
     1
  0
XRECORD
  5
D1A4
102
{ACAD_REACTORS
330
D1A0
102
}
330
D1A0
100
AcDbXrecord
280
     1
270
     1
271
     1
  0
XRECORD
  5
D1A6
102
{ACAD_REACTORS
330
D1A0
102
}
330
D1A0
100
AcDbXrecord
280
     1
270
     1
271
     1
  0
XRECORD
  5
D1A3
102
{ACAD_REACTORS
330
D1A0
102
}
330
D1A0
100
AcDbXrecord
280
     1
270
     1
271
     1
  0
XRECORD
  5
D1B2
102
{ACAD_REACTORS
330
D1B0
102
}
330
D1B0
100
AcDbXrecord
280
     1
270
     1
271
     1
  0
XRECORD
  5
D1B1
102
{ACAD_REACTORS
330
D1B0
102
}
330
D1B0
100
AcDbXrecord
280
     1
270
     1
271
     1
  0
XRECORD
  5
D1B5
102
{ACAD_REACTORS
330
D1B0
102
}
330
D1B0
100
AcDbXrecord
280
     1
270
     1
271
     1
  0
XRECORD
  5
D1B4
102
{ACAD_REACTORS
330
D1B0
102
}
330
D1B0
100
AcDbXrecord
280
     1
270
     1
271
     1
  0
XRECORD
  5
D1B6
102
{ACAD_REACTORS
330
D1B0
102
}
330
D1B0
100
AcDbXrecord
280
     1
270
     1
271
     1
  0
XRECORD
  5
D1B3
102
{ACAD_REACTORS
330
D1B0
102
}
330
D1B0
100
AcDbXrecord
280
     1
270
     1
271
     1
  0
XRECORD
  5
15BA9
102
{ACAD_REACTORS
330
15BA8
102
}
330
15BA8
100
AcDbXrecord
280
     1
102
DISPLAYNAME
  1
Metric50
102
FLAGS
 90
        0
  0
CELLSTYLEMAP
  5
15B9E
102
{ACAD_REACTORS
330
D423
102
}
330
D423
100
AcDbCellStyleMap
 90
        3
300
CELLSTYLE
  1
TABLEFORMAT_BEGIN
 90
        5
170
     1
 91
        0
 92
    32768
 62
   257
 93
        1
300
CONTENTFORMAT
  1
CONTENTFORMAT_BEGIN
 90
        0
 91
        0
 92
        4
 93
        0
300

 40
0.0
140
1.0
 94
        5
 62
     0
340
11
144
6.0
309
CONTENTFORMAT_END
171
     1
301
MARGIN
  1
CELLMARGIN_BEGIN
 40
1.5
 40
1.5
 40
1.5
 40
1.5
 40
0.18
 40
0.18
309
CELLMARGIN_END
 94
        6
 95
        1
302
GRIDFORMAT
  1
GRIDFORMAT_BEGIN
 90
        0
 91
        1
 62
     0
 92
       -2
340
0
 93
        0
 40
0.045
309
GRIDFORMAT_END
 95
        2
302
GRIDFORMAT
  1
GRIDFORMAT_BEGIN
 90
        0
 91
        1
 62
     0
 92
       -2
340
0
 93
        0
 40
0.045
309
GRIDFORMAT_END
 95
        4
302
GRIDFORMAT
  1
GRIDFORMAT_BEGIN
 90
        0
 91
        1
 62
     0
 92
       -2
340
0
 93
        0
 40
0.045
309
GRIDFORMAT_END
 95
        8
302
GRIDFORMAT
  1
GRIDFORMAT_BEGIN
 90
        0
 91
        1
 62
     0
 92
       -2
340
0
 93
        0
 40
0.045
309
GRIDFORMAT_END
 95
       16
302
GRIDFORMAT
  1
GRIDFORMAT_BEGIN
 90
        0
 91
        1
 62
     0
 92
       -2
340
0
 93
        0
 40
0.045
309
GRIDFORMAT_END
 95
       32
302
GRIDFORMAT
  1
GRIDFORMAT_BEGIN
 90
        0
 91
        1
 62
     0
 92
       -2
340
0
 93
        0
 40
0.045
309
GRIDFORMAT_END
309
TABLEFORMAT_END
  1
CELLSTYLE_BEGIN
 90
        1
 91
        1
300
_TITLE
309
CELLSTYLE_END
300
CELLSTYLE
  1
TABLEFORMAT_BEGIN
 90
        5
170
     1
 91
        0
 92
        0
 62
   257
 93
        1
300
CONTENTFORMAT
  1
CONTENTFORMAT_BEGIN
 90
        0
 91
        0
 92
        4
 93
        0
300

 40
0.0
140
1.0
 94
        5
 62
     0
340
11
144
4.5
309
CONTENTFORMAT_END
171
     1
301
MARGIN
  1
CELLMARGIN_BEGIN
 40
1.5
 40
1.5
 40
1.5
 40
1.5
 40
0.18
 40
0.18
309
CELLMARGIN_END
 94
        6
 95
        1
302
GRIDFORMAT
  1
GRIDFORMAT_BEGIN
 90
        0
 91
        1
 62
     0
 92
       -2
340
0
 93
        0
 40
0.045
309
GRIDFORMAT_END
 95
        2
302
GRIDFORMAT
  1
GRIDFORMAT_BEGIN
 90
        0
 91
        1
 62
     0
 92
       -2
340
0
 93
        0
 40
0.045
309
GRIDFORMAT_END
 95
        4
302
GRIDFORMAT
  1
GRIDFORMAT_BEGIN
 90
        0
 91
        1
 62
     0
 92
       -2
340
0
 93
        0
 40
0.045
309
GRIDFORMAT_END
 95
        8
302
GRIDFORMAT
  1
GRIDFORMAT_BEGIN
 90
        0
 91
        1
 62
     0
 92
       -2
340
0
 93
        0
 40
0.045
309
GRIDFORMAT_END
 95
       16
302
GRIDFORMAT
  1
GRIDFORMAT_BEGIN
 90
        0
 91
        1
 62
     0
 92
       -2
340
0
 93
        0
 40
0.045
309
GRIDFORMAT_END
 95
       32
302
GRIDFORMAT
  1
GRIDFORMAT_BEGIN
 90
        0
 91
        1
 62
     0
 92
       -2
340
0
 93
        0
 40
0.045
309
GRIDFORMAT_END
309
TABLEFORMAT_END
  1
CELLSTYLE_BEGIN
 90
        2
 91
        1
300
_HEADER
309
CELLSTYLE_END
300
CELLSTYLE
  1
TABLEFORMAT_BEGIN
 90
        5
170
     1
 91
        0
 92
        0
 62
   257
 93
        1
300
CONTENTFORMAT
  1
CONTENTFORMAT_BEGIN
 90
        0
 91
        0
 92
        4
 93
        0
300

 40
0.0
140
1.0
 94
        2
 62
     0
340
11
144
4.5
309
CONTENTFORMAT_END
171
     1
301
MARGIN
  1
CELLMARGIN_BEGIN
 40
1.5
 40
1.5
 40
1.5
 40
1.5
 40
0.18
 40
0.18
309
CELLMARGIN_END
 94
        6
 95
        1
302
GRIDFORMAT
  1
GRIDFORMAT_BEGIN
 90
        0
 91
        1
 62
     0
 92
       -2
340
0
 93
        0
 40
0.045
309
GRIDFORMAT_END
 95
        2
302
GRIDFORMAT
  1
GRIDFORMAT_BEGIN
 90
        0
 91
        1
 62
     0
 92
       -2
340
0
 93
        0
 40
0.045
309
GRIDFORMAT_END
 95
        4
302
GRIDFORMAT
  1
GRIDFORMAT_BEGIN
 90
        0
 91
        1
 62
     0
 92
       -2
340
0
 93
        0
 40
0.045
309
GRIDFORMAT_END
 95
        8
302
GRIDFORMAT
  1
GRIDFORMAT_BEGIN
 90
        0
 91
        1
 62
     0
 92
       -2
340
0
 93
        0
 40
0.045
309
GRIDFORMAT_END
 95
       16
302
GRIDFORMAT
  1
GRIDFORMAT_BEGIN
 90
        0
 91
        1
 62
     0
 92
       -2
340
0
 93
        0
 40
0.045
309
GRIDFORMAT_END
 95
       32
302
GRIDFORMAT
  1
GRIDFORMAT_BEGIN
 90
        0
 91
        1
 62
     0
 92
       -2
340
0
 93
        0
 40
0.045
309
GRIDFORMAT_END
309
TABLEFORMAT_END
  1
CELLSTYLE_BEGIN
 90
        3
 91
        2
300
_DATA
309
CELLSTYLE_END
  0
ENDSEC
  0
SECTION
  2
ACDSDATA
 70
     2
 71
     8
  0
ACDSSCHEMA
 90
        0
  1
AcDb_Thumbnail_Schema
  2
AcDbDs::ID
280
    10
 91
        8
  2
Thumbnail_Data
280
    15
 91
        0
101
ACDSRECORD
 95
        0
 90
        1
  2
AcDbDs::TreatedAsObjectData
280
     1
291
     1
101
ACDSRECORD
 95
        0
 90
        2
  2
AcDbDs::Legacy
280
     1
291
     1
101
ACDSRECORD
  1
AcDbDs::ID
 90
        3
  2
AcDs:Indexable
280
     1
291
     1
101
ACDSRECORD
  1
AcDbDs::ID
 90
        4
  2
AcDbDs::HandleAttribute
280
     7
282
     1
  0
ACDSSCHEMA
 90
        1
  1
AcDbDs::TreatedAsObjectDataSchema
  2
AcDbDs::TreatedAsObjectData
280
     1
 91
        0
  0
ACDSSCHEMA
 90
        2
  1
AcDbDs::LegacySchema
  2
AcDbDs::Legacy
280
     1
 91
        0
  0
ACDSSCHEMA
 90
        3
  1
AcDbDs::IndexedPropertySchema
  2
AcDs:Indexable
280
     1
 91
        0
  0
ACDSSCHEMA
 90
        4
  1
AcDbDs::HandleAttributeSchema
  2
AcDbDs::HandleAttribute
280
     7
 91
        1
284
     1
  0
ACDSRECORD
 90
        0
  2
AcDbDs::ID
280
    10
320
22
  2
Thumbnail_Data
280
    15
 94
     2797
310
89504E470D0A1A0A0000000D49484452000001000000008108030000001837949D00000300504C5445000000FFFFFF0000000000000000000000000000000000000000000000000000000000330000660000990000CC0000FF0033000033330033660033990033CC0033FF0066000066330066660066990066CC0066FF0099
310
000099330099660099990099CC0099FF00CC0000CC3300CC6600CC9900CCCC00CCFF00FF0000FF3300FF6600FF9900FFCC00FFFF3300003300333300663300993300CC3300FF3333003333333333663333993333CC3333FF3366003366333366663366993366CC3366FF3399003399333399663399993399CC3399FF33CC00
310
33CC3333CC6633CC9933CCCC33CCFF33FF0033FF3333FF6633FF9933FFCC33FFFF6600006600336600666600996600CC6600FF6633006633336633666633996633CC6633FF6666006666336666666666996666CC6666FF6699006699336699666699996699CC6699FF66CC0066CC3366CC6666CC9966CCCC66CCFF66FF0066
310
FF3366FF6666FF9966FFCC66FFFF9900009900339900669900999900CC9900FF9933009933339933669933999933CC9933FF9966009966339966669966999966CC9966FF9999009999339999669999999999CC9999FF99CC0099CC3399CC6699CC9999CCCC99CCFF99FF0099FF3399FF6699FF9999FFCC99FFFFCC0000CC00
310
33CC0066CC0099CC00CCCC00FFCC3300CC3333CC3366CC3399CC33CCCC33FFCC6600CC6633CC6666CC6699CC66CCCC66FFCC9900CC9933CC9966CC9999CC99CCCC99FFCCCC00CCCC33CCCC66CCCC99CCCCCCCCCCFFCCFF00CCFF33CCFF66CCFF99CCFFCCCCFFFFFF0000FF0033FF0066FF0099FF00CCFF00FFFF3300FF3333
310
FF3366FF3399FF33CCFF33FFFF6600FF6633FF6666FF6699FF66CCFF66FFFF9900FF9933FF9966FF9999FF99CCFF99FFFFCC00FFCC33FFCC66FFCC99FFCCCCFFCCFFFFFF00FFFF33FFFF66FFFF99FFFFCCFFFFFF0000000D0D0D1A1A1A2828283535354343435050505D5D5D6B6B6B787878868686939393A1A1A1AEAEAEBB
310
BBBBC9C9C9D6D6D6E4E4E4F1F1F1FFFFFF0000000000000000000000000000000000000000000000000000000000003AE5ACE9000005F74944415478DAED9D4B9A83200C80B910F7DF65E335720DF65381F012502A03B1C27CD3E9A8A5F213F2025A2156B950D4234B4F008FECB505A06B5DCF93FFDE001ED7FD0B00AFEA10
310
3FBFF4145F09202A3F0300FFB9F007F0BF1DF9240017BAEB5AA786973C0840D436AC8E97FB152D1DC009006108BB0EDB8700C63CE9FF274840F00CBF97DC4499E04D8F6110808E92DB790C0C1E021DAC175EAF7D013888CD02F05200F87200F81C1D704C50AAFB0070B21234C2B76DA0F61FF360CBB64919E5A76453360B14
310
D5B9A958C2ADC4EBABD0BDC72C0940D3B739000AE2A2D2037038B06D1900A67198BCA7D4052595C90072D29EF6A9BC96C5B7EDF5BD9E07600F52CB152F00A6F5C9E5A73A400927CBA1662F0250280C00351B0014DEBE1D40CEB643010020C00E601F4BD3006049026E02104144A95F1729C1E06E264B008E028051AEC4BE16
310
08004C06E0357FACE3A56CB3021F93464FC9D021A9464C00EC57870560AE04E48CB14A6CD3A9047C00442A20AC160F1210036067053A0D81133328F89AC1EF0138F54FD9A5B21914BF68067D3E904814CD20303083FFE008B986BB3897BF04145CE1E660E8A3CA76D5978D2299EB804CB9190CA5EB7CF2C1909C1D0C55C361
310
F5FFE1B093329C9A10B9F8FAF384487BF2086A89919F5E21821732436F00509D3E7B01003715C701C0EEBBF45D2B819579C12BB3676301A0E8BDFAE7768DA325A0FBFAA7BB350E1F02FFACE90FE7306F0B902980663FA0B08C0645182CC55262B486CB270FD60127CDBB00408559BF3A80B0D5A52505C35C61EDBAA2F65F23
310
DFF73B57986AF4151601883289C1C19034A7944B6EC920C1773D18D2792EBA7D9D0C1152E401880B0BAB464F8DE9873825F0C5CC90AD1510A85675E60404E30643CD383023F49157735E75C909EA7488320714A83327080BCA68A804E81B85F06EEF2445C1D6A8A5EA1C40C14F183833A4A8397D24C09C33B9EE9A123C2130
310
7A66289D07B805E0535DF1757EB023DDC35400A03699292AB10357668672F56C57ADC04409D8E23EEB2B015B450788C9007C52D4DAEC9E3A807C8BDAE647AC7AE00FB702B26805384583E40788AE7E80F94796FC0076000A9EA0BCE509AA8A27C80F00D9EC9EB180995D2A99416600A449D04304E08BF5016692C7AE0DD2BF
310
7B48C91840B292A11AFEC88BA1F0B146CE1250CB5CB42744F29B4DF047007C9D045C001680E700B8B2E1B392E46FAB881180B57132D371E5FB2EEF9B6CAC880D00AE85218028867F2180B11F20C10F00BE1DC03B7580DF4E8F870377B787F306E09B87F9F6BA49C07876EB87008C7379780228BA4B451F7701F83500915063
310
7AC05E112C07C1D640910B00383C9A5BDE5209D8D2466D5103F14CA38AF82DE603B0193CB31806CCBA18DAC084FB92F9CB3941F46BBE69658C7B2405199FF8FC39519C2300E80E917E0FDBFEDC4AC23EAF99A6C5B7342DEE0EA09E1CD52F54FA62D34EBF890ECD96924002EC7EB2F90094DDAF60EECB6D5E50ED12A09C0404
310
43CA6F9B83F0044D9AB10010E9001A02CACD1A13905407A85807D0D49852517D7EC7889100478A910444BAA90380A8BE1000D09ED95D5D80980E00BB01C06B00CC2FEC1A960ECC0480DD00601B00D2FEAA1E3F8C03401620DAC7FB79D22601F44ABF6F2AD93B4C77A09B6F684C368304C0AEF1B17F1499416830831098C123
310
00B385D4EF2DA7675C00D82EBFA304457D0884128020DC7860E1088D00E075C0A7C5208255896F03A0C7023B00100080FF05407E806005C078BF327185E597DF06907385BD23E43D41E002600F800840100C01345A01001F0C1100F6C150180E4B1B0E53CE53615BF7A30D87310987838F5260170C59318813227E576B9B0E
310
F0DB60F1501FFA60889504E4937FAE3D072B9D3B807500C1DE58E497103901B0A5E7AA07520022FD0FD39418F2C80926F31C67DF2070BA3CC0CF972497635A031700F14EEE744628A7386BC7C38FD1893F653C208BF944FB2C00F95D5CDF4D0D55668C5A6792E6CE0BD424FD7C894CF943E81B26D1A602B8BB20EA0C007207
310
707399DC943B1E08005F01E0EDD3E3F3CB02B0002C000BC002B0002C000BC002B0002C000B40A7EADEFEBDC3CF2B0B40CFBADEFEEDF33F5CFE00A139026EF28B1B0A0000000049454E44AE426082F4327163AB9DB53F84B034DBC45E0B280000000049454E44AE4260820049454E44AE42608294D09AB5019619C12B00790A
310
B83205F2C8032388DC87EF2D83450DACB01E65B00AE4BB93038004001600405E050CBD7406D3975978868EEFA3EAE4E8AC2304434768CD0F88F093068CF8DBCE32E8AA65905CB002602C4357383A9D82BC50FE5C8080AF78828CBF7784187F3B6A3B534AE89223945F0A0060FDDDE1C386A6AE29EDB6D9F7B321BF34B8B817
310
C0F800C815965584615905B072859D498F07EB7AA5B299E31AC063FC05002F2FD918A2ADCA949498519D50B84C153400AA5E2D7FECF0E7979B75967EE311400962A4EBEC00605FFFE87DEDBA972A2A31AA2A3D7252237B02A0F4920D5F86CDD75D8D7C1E436ABE3E5FC112A642DA01A451AB06C0C96957AE25C3E06FC92342
310
53B9A0E6DC9290DD694004451A80ED50F5CBF330E21500F1117C04C06D51D1F2253A33A1011F8F0A5FE766DF13153E1DF0BF0E8B7F7372F4E7B3C30A4001280005A00014C07F03E0D7FFAAEC47E50BFEAEF0AFFF6569151515151515151515151515151515151515151595DF917F124BCA5A791737880000000049454E44AE
310
426082
  0
ACDSRECORD
 90
        0
  2
AcDbDs::ID
280
    10
320
78E
  2
Thumbnail_Data
280
    15
 94
     3155
310
89504E470D0A1A0A0000000D4948445200000100000000B408030000004C80028300000300504C54450D0D0DFFFFFF0D0D0D0000000000000000000000000000000000000000000000000000330000660000990000CC0000FF0033000033330033660033990033CC0033FF0066000066330066660066990066CC0066FF0099
310
000099330099660099990099CC0099FF00CC0000CC3300CC6600CC9900CCCC00CCFF00FF0000FF3300FF6600FF9900FFCC00FFFF3300003300333300663300993300CC3300FF3333003333333333663333993333CC3333FF3366003366333366663366993366CC3366FF3399003399333399663399993399CC3399FF33CC00
310
33CC3333CC6633CC9933CCCC33CCFF33FF0033FF3333FF6633FF9933FFCC33FFFF6600006600336600666600996600CC6600FF6633006633336633666633996633CC6633FF6666006666336666666666996666CC6666FF6699006699336699666699996699CC6699FF66CC0066CC3366CC6666CC9966CCCC66CCFF66FF0066
310
FF3366FF6666FF9966FFCC66FFFF9900009900339900669900999900CC9900FF9933009933339933669933999933CC9933FF9966009966339966669966999966CC9966FF9999009999339999669999999999CC9999FF99CC0099CC3399CC6699CC9999CCCC99CCFF99FF0099FF3399FF6699FF9999FFCC99FFFFCC0000CC00
310
33CC0066CC0099CC00CCCC00FFCC3300CC3333CC3366CC3399CC33CCCC33FFCC6600CC6633CC6666CC6699CC66CCCC66FFCC9900CC9933CC9966CC9999CC99CCCC99FFCCCC00CCCC33CCCC66CCCC99CCCCCCCCCCFFCCFF00CCFF33CCFF66CCFF99CCFFCCCCFFFFFF0000FF0033FF0066FF0099FF00CCFF00FFFF3300FF3333
310
FF3366FF3399FF33CCFF33FFFF6600FF6633FF6666FF6699FF66CCFF66FFFF9900FF9933FF9966FF9999FF99CCFF99FFFFCC00FFCC33FFCC66FFCC99FFCCCCFFCCFFFFFF00FFFF33FFFF66FFFF99FFFFCCFFFFFF0000000D0D0D1A1A1A2828283535354343435050505D5D5D6B6B6B787878868686939393A1A1A1AEAEAEBB
310
BBBBC9C9C9D6D6D6E4E4E4F1F1F1FFFFFF000000000000000000000000000000000000000000000000000000000000D3F30D920000090E4944415478DAED9D4B9AA4200C80B910F7DFB1F11A39C0F401D88F2F204040C0805ACACCD75D6D5922BF21841052E2EFDF9BCBDF9FF8136F2E1F800D807E6741005EF9F43F001F80
310
0800BCA990005EF4FC4701007C5D80D701C022677E3F1140F36D2FEDDEAE6B00B4A3BC16C01DB4D695006E21B3B7010043EE1F6E0BA05E1C5B6438FA00DC460986B776DCB432007050CBA7046FD005BCFB8162E12C6C0190BCEFD505AC458345921D80708D875E7DA00A001C74CF1E031DA169E02200C37AE7503550230190
310
57F48C00F24304DC400774B5D1E0CE7381670128E8351F805F0650A2387F1900BC5D07DC05804E79DB536F300100D1058012DEFF8206D502080FFB35160300C108C0289269D24A7BFF5199DFD492587A93B56B75CB8550F16B9C2652AB595D673E05C1EADF4900F6E1E4006829E569099072B9521A804EDC24988FEF659655
310
FB5A3202A0BBC07A576A5264996FBBEE8DC9A7E3D7688E030DC035616EB66938A70488CCD34C48B46C58AF7615199743740B59004BFB957DF023006CCD27ABAAEB025A789D36B2644A00A8E564A98CFC0C02B0BECB032067CD9600584FDD01684E0073FF1C0E20BC097B0F29009B1ED9016CAF1F2D01E15D9448C0FAA38704
310
5C0200480090D50108C0D37500763A230070340C5A001CA380B3BAF2D6159B219430F000559C5A94D192285C009467F91186CD5CD76943680180FE0C2DDCA562915E95528A029053DEB51270A50E401F4A3AE8BB7401713F00E92ED005C0154AD0983EE1C2D3A5C3E04043C83700D132E46B0C210AC0F2FAB68690669D0CE9
310
7881D08E070593A1F186D0FAC6320C9E9F0EAF76001C533B3084BA4D87698708B74F708F60CD38440E00C85E0E91AC4F90CB2354E21283039798E4758915394535935354733845710136B77824905E9998BAC0545C63D619AE8A3CE4036285AB17469856956E03606881DA35920FC0AF0280C2F0B55F0600AF04501B55D608
310
0076AFDC1EB305231EAD59220A022713AE0BF2151B80CEF1BB236B6C9580EB09C0B500EE31BE5D06E077DAFF2B00008C17D186977B7FDA839E77A919405DFBCFCC05A0F48E201B63EDC1F109D44D87A9F89BC3A9AF6CDFD94FD658800CBCADAAF659DB01B11E807D66D24EB3E29929FBD218925353A3A4AF46740181FB022D
310
23AD0074E867DA7D2F9AC923B4ADEFF972BAD728C5018084F4A70DC47A9FA0D2F33FB1FD8C1DC3E7BDC23A920005A8C64C1730ED35D26E8C55108C12303FEDC531ADD693A3404936AF30AE580953A3C44E51D2583EB6D0E08C53745D6501695BAFA327CABD36B854AC61AB6BAB37B93AD5B8BDA64E0236F9C73F3B03108BE4
310
8391FFADDEA31E80B69A156D51ABEC027AD3D494BFBD538CD05E97A4DFB54A306F06F001C063A01A02C05FE8AA1D0578768CC400A41C066015B9E3ABE1C71D361DC439002E40C2B9EC25D9A05E6172AEB6A9CE10023736B60340314293CC14B618A15C2593564D5D001800DC58026C1F708690C0F95A4E6E9A024209CAA14A
310
508ABC126C9FB5360D836E501A350CBA81977B3DADDD1012C30C215D66088D00B03551ADCF430D94003311B85A02163B7CEEFDE9C95097B980A96BAB57318B40E3745851D2C8182384B5AF5FE3B53A60AE7D36CAE289C06E0770C50899B89620FE532FC7AE06B0DC433411E8E21192C87EB1636F92F23809B8C427886ABC08
310
40260289DF2BEC59B06412D8CB1646A0C5F06ADF3C4D4EE2E07100CEAC02BD1E80F8007C003E00B705D092EAB028B003B21F793400A80770B78C925F42C577EB801F2C1F8061C9D5C3589D7701E8AECB3E00F706306038FB94E0BD00F8AE8C5452601059D7C78301F8A9A0C1CB482D12C7E1070000D5A0F0B5383CE7C9006E
310
68EC0F0590978BC2373E001F802703988088B011EB71A0024FA6644EA8870220B498CB02420020BE3B81AC5DF512944A002A7CA142094848FA94E80253DC2628AA2FEE3FAA1B00B44EA7505603FBDB9CA76900EB091480E50D0A80B6EFD3F5A1E1923A059DC325016E953E8EDB4381027A0DE32B5F1C95A90D32C2D6470030
310
4923C19C424A8B2E35A96A002825E77F2874171D107BD2A22911063025E203BCE3B01FDEAFA7F79448CB9D295B834BB0B6DDB1E5E5E5B8D58233B5B695001B00601275491B304289745B17F0254020002B154F0270CCFE1E44B085D2F401206D8232FB42A16C7D71FE93935D40DB762300368D8C182F018700A20428F51280
310
A2C4CA0028843FD0011D00881080600400310011021009005B10AF0BE1792200680360AB50E8C0CB00E85DF2D177F0FC3E008801E0ED419C0070C6D6DBE8008801A0AF11EE07C0EDEB403B3CAC21B45882670C21B363C4297C1DD9B9DA269CB44D37E7C33E8CECC78009009012203B48C07EE72512B0DF94CF0E00C115005D
310
BBC0C500442C01415C31230052095E0D201A05C05844EC5DE00900D6A7AD04B60C7A0F83B702B04F8C4600502100D51740C15CC0366288259807204FA40B21768CD44C86D6B980EE3F17902100194E874F4B803F1DD6290040CC0645E7D920F608C91E1E21F5048F50EC14F47D82672500ED1829F0098EF10861AFF0DECB4D
310
6F970A25AD9D4F80D32A60BE865D27A6BDC2305E02DC61CA4FEF05029C9600B45284179982FAA0C82BDC0100B50A1101001A406499ED00C2A8912C009B236AA85BBCF0304A5F40AC02151E4F0010D13148F5920E0B23150018D6EA0A01E484B262E5B00D002400304477E06019F7B453501AC3BACF02F0C5AB0240496223F0
310
52BE255F45779A7C8311407C6BDEC3010602100008DA1DD6E1059D41020627804C5013F7A688A230AAF391569C011250B467A6FA322E31CEA1E034E8205E00251D1C6A2F53F254DB43ECD800F4DB185400E04490E1E82EC07319C6C20AA066903F49E9A100042700AECEC6AA0447060BE3AC89E0E68838AD183A4B0439975D
310
9AFAC76E98F052487BA6030500671AFB1500FE2434D1838E52303C5D026EA503C60310E1060CD242CFAADE870310E1CE1C5F29C467FD1480B2BE30D00EB80A40A815C8EF18F2BF6800A7EAF93D009006109FF1A31270380CFE0480D70F832D83E5839460C994C199BBCE630C6EE3093C1B40F0255ED8312AF6E90F4D049051
310
209E3B0CE2CCD8D8E585A73A4802C00980FD96EAE703102EE986A0BE865AA07CEABEE48BE88F847D74E72E20C2850FF4BC8BDD06107E1E44018037150AC0BBCA07E003E000BCB33800EF2D1F8019C0BF379705C0CBCB7FA8E6475B530DA70B0000000049454E44AE426082
  0
ENDSEC
  0
EOF
