  0
SECTION
  2
HEADER
  9
$ACADVER
  1
AC1027
  9
$ACADMAINTVER
 70
   125
  9
$DWGCODEPAGE
  3
ANSI_932
  9
$LASTSAVEDBY
  1
D-mishima
  9
$REQUIREDVERSIONS
160
                 0
  9
$INSBASE
 10
0.0
 20
0.0
 30
0.0
  9
$EXTMIN
 10
0.0
 20
0.0
 30
0.0
  9
$EXTMAX
 10
4200.0
 20
2970.0
 30
0.0
  9
$LIMMIN
 10
0.0
 20
0.0
  9
$LIMMAX
 10
4200.0
 20
2970.0
  9
$ORTHOMODE
 70
     1
  9
$REGENMODE
 70
     1
  9
$FILLMODE
 70
     1
  9
$QTEXTMODE
 70
     0
  9
$MIRRTEXT
 70
     0
  9
$LTSCALE
 40
0.1
  9
$ATTMODE
 70
     1
  9
$TEXTSIZE
 40
25.0
  9
$TRACEWID
 40
1.0
  9
$TEXTSTYLE
  7
Standard
  9
$CLAYER
  8
実線
  9
$CELTYPE
  6
ByLayer
  9
$CECOLOR
 62
   256
  9
$CELTSCALE
 40
1.0
  9
$DISPSILH
 70
     0
  9
$DIMSCALE
 40
10.0
  9
$DIMASZ
 40
2.0
  9
$DIMEXO
 40
0.875
  9
$DIMDLI
 40
10.0
  9
$DIMRND
 40
0.0
  9
$DIMDLE
 40
0.0
  9
$DIMEXE
 40
1.0
  9
$DIMTP
 40
0.0
  9
$DIMTM
 40
0.0
  9
$DIMTXT
 40
2.5
  9
$DIMCEN
 40
0.0
  9
$DIMTSZ
 40
0.0
  9
$DIMTOL
 70
     0
  9
$DIMLIM
 70
     0
  9
$DIMTIH
 70
     0
  9
$DIMTOH
 70
     0
  9
$DIMSE1
 70
     0
  9
$DIMSE2
 70
     0
  9
$DIMTAD
 70
     1
  9
$DIMZIN
 70
     8
  9
$DIMBLK
  1

  9
$DIMASO
 70
     1
  9
$DIMSHO
 70
     1
  9
$DIMPOST
  1

  9
$DIMAPOST
  1

  9
$DIMALT
 70
     0
  9
$DIMALTD
 70
     2
  9
$DIMALTF
 40
25.4
  9
$DIMLFAC
 40
1.0
  9
$DIMTOFL
 70
     1
  9
$DIMTVP
 40
0.0
  9
$DIMTIX
 70
     0
  9
$DIMSOXD
 70
     0
  9
$DIMSAH
 70
     1
  9
$DIMBLK1
  1
OPEN
  9
$DIMBLK2
  1
OPEN
  9
$DIMSTYLE
  2
STANDARD
  9
$DIMCLRD
 70
     0
  9
$DIMCLRE
 70
     0
  9
$DIMCLRT
 70
     0
  9
$DIMTFAC
 40
1.0
  9
$DIMGAP
 40
0.875
  9
$DIMJUST
 70
     0
  9
$DIMSD1
 70
     0
  9
$DIMSD2
 70
     0
  9
$DIMTOLJ
 70
     1
  9
$DIMTZIN
 70
     0
  9
$DIMALTZ
 70
     0
  9
$DIMALTTZ
 70
     0
  9
$DIMUPT
 70
     0
  9
$DIMDEC
 70
     3
  9
$DIMTDEC
 70
     3
  9
$DIMALTU
 70
     2
  9
$DIMALTTD
 70
     2
  9
$DIMTXSTY
  7
Standard
  9
$DIMAUNIT
 70
     0
  9
$DIMADEC
 70
     0
  9
$DIMALTRND
 40
0.0
  9
$DIMAZIN
 70
     0
  9
$DIMDSEP
 70
    46
  9
$DIMATFIT
 70
     3
  9
$DIMFRAC
 70
     0
  9
$DIMLDRBLK
  1
OPEN
  9
$DIMLUNIT
 70
     2
  9
$DIMLWD
 70
    -2
  9
$DIMLWE
 70
    -2
  9
$DIMTMOVE
 70
     0
  9
$DIMFXL
 40
1.0
  9
$DIMFXLON
 70
     0
  9
$DIMJOGANG
 40
1.570796326794896
  9
$DIMTFILL
 70
     0
  9
$DIMTFILLCLR
 70
     0
  9
$DIMARCSYM
 70
     0
  9
$DIMLTYPE
  6

  9
$DIMLTEX1
  6

  9
$DIMLTEX2
  6

  9
$DIMTXTDIRECTION
 70
     0
  9
$LUNITS
 70
     2
  9
$LUPREC
 70
     4
  9
$SKETCHINC
 40
1.0
  9
$FILLETRAD
 40
0.0
  9
$AUNITS
 70
     0
  9
$AUPREC
 70
     0
  9
$MENU
  1
.
  9
$ELEVATION
 40
0.0
  9
$PELEVATION
 40
0.0
  9
$THICKNESS
 40
0.0
  9
$LIMCHECK
 70
     0
  9
$CHAMFERA
 40
0.0
  9
$CHAMFERB
 40
0.0
  9
$CHAMFERC
 40
0.0
  9
$CHAMFERD
 40
0.0
  9
$SKPOLY
 70
     0
  9
$TDCREATE
 40
2454064.449062500
  9
$TDUCREATE
 40
2454064.074062859
  9
$TDUPDATE
 40
2460315.417731482
  9
$TDUUPDATE
 40
2460315.042731481
  9
$TDINDWG
 40
3.8042402778
  9
$TDUSRTIMER
 40
3.8042178588
  9
$USRTIMER
 70
     1
  9
$ANGBASE
 50
0.0
  9
$ANGDIR
 70
     0
  9
$PDMODE
 70
     0
  9
$PDSIZE
 40
0.0
  9
$PLINEWID
 40
0.0
  9
$SPLFRAME
 70
     0
  9
$SPLINETYPE
 70
     6
  9
$SPLINESEGS
 70
     8
  9
$HANDSEED
  5
1994E
  9
$SURFTAB1
 70
     6
  9
$SURFTAB2
 70
     6
  9
$SURFTYPE
 70
     6
  9
$SURFU
 70
     6
  9
$SURFV
 70
     6
  9
$UCSBASE
  2

  9
$UCSNAME
  2

  9
$UCSORG
 10
0.0
 20
0.0
 30
0.0
  9
$UCSXDIR
 10
1.0
 20
0.0
 30
0.0
  9
$UCSYDIR
 10
0.0
 20
1.0
 30
0.0
  9
$UCSORTHOREF
  2

  9
$UCSORTHOVIEW
 70
     0
  9
$UCSORGTOP
 10
0.0
 20
0.0
 30
0.0
  9
$UCSORGBOTTOM
 10
0.0
 20
0.0
 30
0.0
  9
$UCSORGLEFT
 10
0.0
 20
0.0
 30
0.0
  9
$UCSORGRIGHT
 10
0.0
 20
0.0
 30
0.0
  9
$UCSORGFRONT
 10
0.0
 20
0.0
 30
0.0
  9
$UCSORGBACK
 10
0.0
 20
0.0
 30
0.0
  9
$PUCSBASE
  2

  9
$PUCSNAME
  2

  9
$PUCSORG
 10
0.0
 20
0.0
 30
0.0
  9
$PUCSXDIR
 10
1.0
 20
0.0
 30
0.0
  9
$PUCSYDIR
 10
0.0
 20
1.0
 30
0.0
  9
$PUCSORTHOREF
  2

  9
$PUCSORTHOVIEW
 70
     0
  9
$PUCSORGTOP
 10
0.0
 20
0.0
 30
0.0
  9
$PUCSORGBOTTOM
 10
0.0
 20
0.0
 30
0.0
  9
$PUCSORGLEFT
 10
0.0
 20
0.0
 30
0.0
  9
$PUCSORGRIGHT
 10
0.0
 20
0.0
 30
0.0
  9
$PUCSORGFRONT
 10
0.0
 20
0.0
 30
0.0
  9
$PUCSORGBACK
 10
0.0
 20
0.0
 30
0.0
  9
$USERI1
 70
     0
  9
$USERI2
 70
     0
  9
$USERI3
 70
     0
  9
$USERI4
 70
     0
  9
$USERI5
 70
     0
  9
$USERR1
 40
0.0
  9
$USERR2
 40
0.0
  9
$USERR3
 40
0.0
  9
$USERR4
 40
0.0
  9
$USERR5
 40
0.0
  9
$WORLDVIEW
 70
     1
  9
$SHADEDGE
 70
     3
  9
$SHADEDIF
 70
    70
  9
$TILEMODE
 70
     0
  9
$MAXACTVP
 70
    64
  9
$PINSBASE
 10
0.0
 20
0.0
 30
0.0
  9
$PLIMCHECK
 70
     0
  9
$PEXTMIN
 10
0.0000000000000853
 20
0.0
 30
0.0
  9
$PEXTMAX
 10
408.1991586685179
 20
285.1784963607788
 30
0.0
  9
$PLIMMIN
 10
-5.873748779296875
 20
-5.873749732971191
  9
$PLIMMAX
 10
414.0729064941406
 20
291.0522451400757
  9
$UNITMODE
 70
     0
  9
$VISRETAIN
 70
     1
  9
$PLINEGEN
 70
     0
  9
$PSLTSCALE
 70
     1
  9
$TREEDEPTH
 70
  3020
  9
$CMLSTYLE
  2
Standard
  9
$CMLJUST
 70
     0
  9
$CMLSCALE
 40
20.0
  9
$PROXYGRAPHICS
 70
     1
  9
$MEASUREMENT
 70
     1
  9
$CELWEIGHT
370
    -1
  9
$ENDCAPS
280
     0
  9
$JOINSTYLE
280
     0
  9
$LWDISPLAY
290
     0
  9
$INSUNITS
 70
     4
  9
$HYPERLINKBASE
  1

  9
$STYLESHEET
  1
SANKENTC.CTB
  9
$XEDIT
290
     1
  9
$CEPSNTYPE
380
     0
  9
$PSTYLEMODE
290
     1
  9
$FINGERPRINTGUID
  2
{072871F0-2771-4C56-B9BD-B27D0F751D9A}
  9
$VERSIONGUID
  2
{BDCA0F55-7034-4E44-BB83-09B265C9DA97}
  9
$EXTNAMES
290
     1
  9
$PSVPSCALE
 40
0.0
  9
$OLESTARTUP
290
     0
  9
$SORTENTS
280
   127
  9
$INDEXCTL
280
     0
  9
$HIDETEXT
280
     1
  9
$XCLIPFRAME
280
     2
  9
$HALOGAP
280
     0
  9
$OBSCOLOR
 70
   257
  9
$OBSLTYPE
280
     0
  9
$INTERSECTIONDISPLAY
280
     0
  9
$INTERSECTIONCOLOR
 70
   257
  9
$DIMASSOC
280
     2
  9
$PROJECTNAME
  1

  9
$CAMERADISPLAY
290
     0
  9
$LENSLENGTH
 40
50.0
  9
$CAMERAHEIGHT
 40
0.0
  9
$STEPSPERSEC
 40
2.0
  9
$STEPSIZE
 40
6.0
  9
$3DDWFPREC
 40
2.0
  9
$PSOLWIDTH
 40
0.25
  9
$PSOLHEIGHT
 40
4.0
  9
$LOFTANG1
 40
1.570796326794896
  9
$LOFTANG2
 40
1.570796326794896
  9
$LOFTMAG1
 40
0.0
  9
$LOFTMAG2
 40
0.0
  9
$LOFTPARAM
 70
     7
  9
$LOFTNORMALS
280
     1
  9
$LATITUDE
 40
37.795
  9
$LONGITUDE
 40
-122.394
  9
$NORTHDIRECTION
 40
0.0
  9
$TIMEZONE
 70
 -8000
  9
$LIGHTGLYPHDISPLAY
280
     1
  9
$TILEMODELIGHTSYNCH
280
     1
  9
$CMATERIAL
347
D7A4
  9
$SOLIDHIST
280
     0
  9
$SHOWHIST
280
     1
  9
$DWFFRAME
280
     2
  9
$DGNFRAME
280
     0
  9
$REALWORLDSCALE
290
     1
  9
$INTERFERECOLOR
 62
     1
  9
$INTERFEREOBJVS
345
D7C6
  9
$INTERFEREVPVS
346
17218
  9
$CSHADOW
280
     0
  9
$SHADOWPLANELOCATION
 40
0.0
  0
ENDSEC
  0
SECTION
  2
CLASSES
  0
CLASS
  1
ACDBDICTIONARYWDFLT
  2
AcDbDictionaryWithDefault
  3
ObjectDBX Classes
 90
        0
 91
        1
280
     0
281
     0
  0
CLASS
  1
DICTIONARYVAR
  2
AcDbDictionaryVar
  3
ObjectDBX Classes
 90
        0
 91
       17
280
     0
281
     0
  0
CLASS
  1
TABLESTYLE
  2
AcDbTableStyle
  3
ObjectDBX Classes
 90
     4095
 91
        1
280
     0
281
     0
  0
CLASS
  1
DIMASSOC
  2
AcDbDimAssoc
  3
"AcDbDimAssoc|Product Desc:     AcDim ARX App For Dimension|Company:          Autodesk, Inc.|WEB Address:      www.autodesk.com"
 90
        0
 91
        0
280
     0
281
     0
  0
CLASS
  1
SORTENTSTABLE
  2
AcDbSortentsTable
  3
ObjectDBX Classes
 90
        0
 91
        3
280
     0
281
     0
  0
CLASS
  1
MATERIAL
  2
AcDbMaterial
  3
ObjectDBX Classes
 90
     1153
 91
        3
280
     0
281
     0
  0
CLASS
  1
VISUALSTYLE
  2
AcDbVisualStyle
  3
ObjectDBX Classes
 90
     4095
 91
       26
280
     0
281
     0
  0
CLASS
  1
SCALE
  2
AcDbScale
  3
ObjectDBX Classes
 90
     1153
 91
       17
280
     0
281
     0
  0
CLASS
  1
MLEADERSTYLE
  2
AcDbMLeaderStyle
  3
ACDB_MLEADERSTYLE_CLASS
 90
     4095
 91
        1
280
     0
281
     0
  0
CLASS
  1
CELLSTYLEMAP
  2
AcDbCellStyleMap
  3
ObjectDBX Classes
 90
     1152
 91
        1
280
     0
281
     0
  0
CLASS
  1
AEC_REFEDIT_STATUS_TRACKER
  2
AecDbRefEditStatusTracker
  3
AecArchBase50|Product Desc: Autodesk Architectural Desktop 2007 |Company: Autodesk,Inc. |WEB Address: www.autodesk.com
 90
      129
 91
        0
280
     0
281
     0
  0
CLASS
  1
NPOCOLLECTION
  2
AcDbImpNonPersistentObjectsCollection
  3
ObjectDBX Classes
 90
     1153
 91
        0
280
     0
281
     0
  0
CLASS
  1
ACDBSECTIONVIEWSTYLE
  2
AcDbSectionViewStyle
  3
ObjectDBX Classes
 90
     1025
 91
        1
280
     0
281
     0
  0
CLASS
  1
ACDBDETAILVIEWSTYLE
  2
AcDbDetailViewStyle
  3
ObjectDBX Classes
 90
     1025
 91
        1
280
     0
281
     0
  0
ENDSEC
  0
SECTION
  2
TABLES
  0
TABLE
  2
VPORT
  5
8
102
{ACAD_XDICTIONARY
360
D80C
102
}
330
0
100
AcDbSymbolTable
 70
     1
1001
ACAD
1000
DbSaveVer
1071
      278
  0
VPORT
  5
1382E
330
8
100
AcDbSymbolTableRecord
100
AcDbViewportTableRecord
  2
*Active
 70
     0
 10
0.0
 20
0.0
 11
1.0
 21
1.0
 12
2100.000009778887
 22
1485.000006915069
 13
0.0
 23
0.0
 14
10.0
 24
10.0
 15
10.0
 25
10.0
 16
0.0
 26
0.0
 36
1.0
 17
0.0
 27
0.0
 37
0.0
 40
2995.786285400605
 41
1.976978417266187
 42
50.0
 43
0.0
 44
0.0
 50
0.0
 51
0.0
 71
     0
 72
  1000
 73
     1
 74
     3
 75
     0
 76
     0
 77
     0
 78
     0
281
     0
 65
     1
110
0.0
120
0.0
130
0.0
111
1.0
121
0.0
131
0.0
112
0.0
122
1.0
132
0.0
 79
     0
146
0.0
348
D7C2
 60
     3
 61
     5
292
     1
282
     1
141
0.0
142
0.0
 63
   250
421
  3355443
1001
ACAD_NAV_VCDISPLAY
1070
     3
  0
ENDTAB
  0
TABLE
  2
LTYPE
  5
5
330
0
100
AcDbSymbolTable
 70
     4
  0
LTYPE
  5
14
330
5
100
AcDbSymbolTableRecord
100
AcDbLinetypeTableRecord
  2
ByBlock
 70
     0
  3

 72
    65
 73
     0
 40
0.0
  0
LTYPE
  5
15
330
5
100
AcDbSymbolTableRecord
100
AcDbLinetypeTableRecord
  2
ByLayer
 70
     0
  3

 72
    65
 73
     0
 40
0.0
  0
LTYPE
  5
16
330
5
100
AcDbSymbolTableRecord
100
AcDbLinetypeTableRecord
  2
Continuous
 70
     0
  3
Solid line
 72
    65
 73
     0
 40
0.0
  0
LTYPE
  5
1D4
330
5
100
AcDbSymbolTableRecord
100
AcDbLinetypeTableRecord
  2
PHANTOM
 70
     0
  3
Phantom ______  __  __  ______  __  __  ______
 72
    65
 73
     6
 40
63.5
 49
31.75
 74
     0
 49
-6.349999999999997
 74
     0
 49
6.349999999999997
 74
     0
 49
-6.349999999999997
 74
     0
 49
6.349999999999997
 74
     0
 49
-6.349999999999997
 74
     0
  0
LTYPE
  5
1D5
330
5
100
AcDbSymbolTableRecord
100
AcDbLinetypeTableRecord
  2
CENTER
 70
     0
  3
Center ____ _ ____ _ ____ _ ____ _ ____ _ ____
 72
    65
 73
     4
 40
50.8
 49
31.75
 74
     0
 49
-6.349999999999997
 74
     0
 49
6.349999999999997
 74
     0
 49
-6.349999999999997
 74
     0
  0
LTYPE
  5
1D7
330
5
100
AcDbSymbolTableRecord
100
AcDbLinetypeTableRecord
  2
DASHED
 70
     0
  3
Dashed __ __ __ __ __ __ __ __ __ __ __ __ __ _
 72
    65
 73
     2
 40
19.05
 49
12.7
 74
     0
 49
-6.349999999999997
 74
     0
  0
ENDTAB
  0
TABLE
  2
LAYER
  5
2
102
{ACAD_XDICTIONARY
360
11D
102
}
330
0
100
AcDbSymbolTable
 70
     8
  0
LAYER
  5
10
102
{ACAD_XDICTIONARY
360
D7F2
102
}
330
2
100
AcDbSymbolTableRecord
100
AcDbLayerTableRecord
  2
0
 70
     0
 62
     7
  6
Continuous
370
    -3
390
F
347
D7B4
348
0
  0
LAYER
  5
13F
330
2
100
AcDbSymbolTableRecord
100
AcDbLayerTableRecord
  2
Defpoints
 70
     0
 62
     7
  6
Continuous
290
     0
370
    -3
390
F
347
D7B4
348
0
  0
LAYER
  5
1BF
102
{ACAD_XDICTIONARY
360
D7F6
102
}
330
2
100
AcDbSymbolTableRecord
100
AcDbLayerTableRecord
  2
図面枠
 70
     0
 62
     2
  6
Continuous
370
    -3
390
F
347
D7B4
348
0
1001
AcAecLayerStandard
1000

1000

  0
LAYER
  5
1C1
102
{ACAD_XDICTIONARY
360
D7FA
102
}
330
2
100
AcDbSymbolTableRecord
100
AcDbLayerTableRecord
  2
仮想線
 70
     0
 62
     6
  6
PHANTOM
370
    -3
390
F
347
D7B4
348
0
1001
AcAecLayerStandard
1000

1000

  0
LAYER
  5
1C3
102
{ACAD_XDICTIONARY
360
D7FE
102
}
330
2
100
AcDbSymbolTableRecord
100
AcDbLayerTableRecord
  2
寸法線
 70
     0
 62
     2
  6
Continuous
370
    -3
390
F
347
D7B4
348
0
1001
AcAecLayerStandard
1000

1000

  0
LAYER
  5
1C4
102
{ACAD_XDICTIONARY
360
D800
102
}
330
2
100
AcDbSymbolTableRecord
100
AcDbLayerTableRecord
  2
中心線
 70
     0
 62
     1
  6
CENTER
370
    -3
390
F
347
D7B4
348
0
1001
AcAecLayerStandard
1000

1000

  0
LAYER
  5
1C5
102
{ACAD_XDICTIONARY
360
D802
102
}
330
2
100
AcDbSymbolTableRecord
100
AcDbLayerTableRecord
  2
破線
 70
     0
 62
     4
  6
DASHED
370
    -3
390
F
347
D7B4
348
0
1001
AcAecLayerStandard
1000

1000

  0
LAYER
  5
82E
102
{ACAD_XDICTIONARY
360
D804
102
}
330
2
100
AcDbSymbolTableRecord
100
AcDbLayerTableRecord
  2
実線
 70
     0
 62
     7
  6
Continuous
370
    -3
390
F
347
D7B4
348
0
1001
AcAecLayerStandard
1000

1000

  0
ENDTAB
  0
TABLE
  2
STYLE
  5
3
330
0
100
AcDbSymbolTable
 70
     1
  0
STYLE
  5
11
330
3
100
AcDbSymbolTableRecord
100
AcDbTextStyleTableRecord
  2
Standard
 70
     0
 40
0.0
 41
1.0
 50
0.0
 71
     0
 42
25.0
  3
isocp.shx
  4
extfont2.shx
  0
ENDTAB
  0
TABLE
  2
VIEW
  5
6
330
0
100
AcDbSymbolTable
 70
     0
  0
ENDTAB
  0
TABLE
  2
UCS
  5
7
330
0
100
AcDbSymbolTable
 70
     0
  0
ENDTAB
  0
TABLE
  2
APPID
  5
9
330
0
100
AcDbSymbolTable
 70
    17
  0
APPID
  5
12
330
9
100
AcDbSymbolTableRecord
100
AcDbRegAppTableRecord
  2
ACAD
 70
     0
  0
APPID
  5
9E
330
9
100
AcDbSymbolTableRecord
100
AcDbRegAppTableRecord
  2
ACAD_PSEXT
 70
     0
  0
APPID
  5
1BE
330
9
100
AcDbSymbolTableRecord
100
AcDbRegAppTableRecord
  2
AcAecLayerStandard
 70
     0
  0
APPID
  5
1FF
330
9
100
AcDbSymbolTableRecord
100
AcDbRegAppTableRecord
  2
ACAD_EXEMPT_FROM_CAD_STANDARDS
 70
     0
  0
APPID
  5
1318
330
9
100
AcDbSymbolTableRecord
100
AcDbRegAppTableRecord
  2
ACAD_DSTYLE_DIMTEXT_FILL
 70
     0
  0
APPID
  5
1319
330
9
100
AcDbSymbolTableRecord
100
AcDbRegAppTableRecord
  2
ACAD_DSTYLE_DIMEXT_LENGTH
 70
     0
  0
APPID
  5
131A
330
9
100
AcDbSymbolTableRecord
100
AcDbRegAppTableRecord
  2
ACAD_DSTYLE_DIMEXT_ENABLED
 70
     0
  0
APPID
  5
131B
330
9
100
AcDbSymbolTableRecord
100
AcDbRegAppTableRecord
  2
ACAD_DSTYLE_DIM_LINETYPE
 70
     0
  0
APPID
  5
131C
330
9
100
AcDbSymbolTableRecord
100
AcDbRegAppTableRecord
  2
ACAD_DSTYLE_DIM_EXT1_LINETYPE
 70
     0
  0
APPID
  5
131D
330
9
100
AcDbSymbolTableRecord
100
AcDbRegAppTableRecord
  2
ACAD_DSTYLE_DIM_EXT2_LINETYPE
 70
     0
  0
APPID
  5
1439
330
9
100
AcDbSymbolTableRecord
100
AcDbRegAppTableRecord
  2
ACAD_DSTYLE_DIMJOGGED_JOGANGLE_SYMBOL
 70
     0
  0
APPID
  5
1CB2
330
9
100
AcDbSymbolTableRecord
100
AcDbRegAppTableRecord
  2
ACAD_DSTYLE_DIMARC_LENGTH_SYMBOL
 70
     0
  0
APPID
  5
356E
330
9
100
AcDbSymbolTableRecord
100
AcDbRegAppTableRecord
  2
ACAD_DIMASSOC_CALC_DIMLFAC
 70
     0
  0
APPID
  5
356F
330
9
100
AcDbSymbolTableRecord
100
AcDbRegAppTableRecord
  2
ACAD_DIMASSOC_DIMLFAC
 70
     0
  0
APPID
  5
3570
330
9
100
AcDbSymbolTableRecord
100
AcDbRegAppTableRecord
  2
ACAD_DIMASSOC_OVERRIDDEN_DIMLFAC
 70
     0
  0
APPID
  5
D7E1
330
9
100
AcDbSymbolTableRecord
100
AcDbRegAppTableRecord
  2
ACAD_MLEADERVER
 70
     0
  0
APPID
  5
17440
330
9
100
AcDbSymbolTableRecord
100
AcDbRegAppTableRecord
  2
ACAD_NAV_VCDISPLAY
 70
     0
  0
ENDTAB
  0
TABLE
  2
DIMSTYLE
  5
A
330
0
100
AcDbSymbolTable
 70
     1
100
AcDbDimStyleTable
 71
     1
340
C0F
  0
DIMSTYLE
105
C0F
102
{ACAD_REACTORS
330
18DD0
330
18ED0
330
18ED4
330
18ED5
330
18ED6
330
18ED7
330
18ED8
330
18ED9
330
18EDA
330
18EDB
330
18EDC
330
18EDD
330
18EDE
330
18EE7
330
18CA6
330
18CA7
330
18CA8
330
18CA9
330
18CAA
330
18CAB
330
18CAC
330
18CAD
330
18CAE
330
18CAF
330
18CB0
330
18CB1
330
18CFD
330
18CFF
330
18D00
330
18D31
330
18D32
330
18D53
330
1932C
330
1932D
330
197D1
330
197D8
330
197D9
330
197DA
330
197DB
330
197DC
330
197DD
330
197DE
330
197E1
102
}
330
A
100
AcDbSymbolTableRecord
100
AcDbDimStyleTableRecord
  2
STANDARD
 70
     0
 40
10.0
 41
2.0
 42
0.875
 43
10.0
 44
1.0
 50
89.99999999999998
 73
     0
 74
     0
 77
     1
 78
     8
140
2.5
141
0.0
147
0.875
172
     1
173
     1
271
     3
272
     3
340
11
341
C08
343
C08
344
C08
1001
ACAD_DSTYLE_DIMJOGGED_JOGANGLE_SYMBOL
1070
   384
1040
1.570796326794896
  0
ENDTAB
  0
TABLE
  2
BLOCK_RECORD
  5
1
330
0
100
AcDbSymbolTable
 70
    44
  0
BLOCK_RECORD
  5
1F
102
{ACAD_XDICTIONARY
360
5C91
102
}
330
1
100
AcDbSymbolTableRecord
100
AcDbBlockTableRecord
  2
*Model_Space
340
22
 70
     0
280
     1
281
     0
  0
BLOCK_RECORD
  5
78D
330
1
100
AcDbSymbolTableRecord
100
AcDbBlockTableRecord
  2
*Paper_Space
340
78E
 70
     0
280
     1
281
     0
  0
BLOCK_RECORD
  5
C08
102
{ACAD_XDICTIONARY
360
10075
102
}
330
1
100
AcDbSymbolTableRecord
100
AcDbBlockTableRecord
  2
_OPEN
340
0
102
{BLKREFS
331
19859
331
1985A
331
19862
331
19863
331
1986D
331
1986E
331
19876
331
19877
331
19881
331
19882
331
1988C
331
1988D
331
19895
331
19896
331
193F9
331
193FA
331
19404
331
19405
331
1940F
331
19410
331
19418
331
19419
331
19423
331
19424
331
1942C
331
1942D
331
19435
331
19436
331
19440
331
19441
331
1944B
331
1944C
331
19454
331
19455
331
1945D
331
1945E
331
19230
331
19231
331
19239
331
1923A
331
19244
331
19245
331
1924D
331
1924E
331
19256
331
19257
331
19260
331
19261
331
1926A
331
1926B
331
19273
331
19274
331
1927C
331
1927D
331
19285
331
19286
331
1928E
331
1928F
331
19299
331
1929A
331
192A4
331
192A5
331
19112
331
19113
331
1920A
331
1920B
331
19213
331
19214
331
1921C
331
1921D
331
192AF
331
192B0
331
193D3
331
193D4
331
193DC
331
193DD
331
193E5
331
193E6
331
193EE
331
193EF
331
1989E
331
1989F
331
198A9
331
198AA
331
198F3
331
198F4
102
}
 70
     0
280
     1
281
     0
  0
BLOCK_RECORD
  5
18EE8
330
1
100
AcDbSymbolTableRecord
100
AcDbBlockTableRecord
  2
*D1
340
0
 70
     0
280
     1
281
     0
  0
BLOCK_RECORD
  5
18F81
330
1
100
AcDbSymbolTableRecord
100
AcDbBlockTableRecord
  2
*D2
340
0
 70
     0
280
     1
281
     0
  0
BLOCK_RECORD
  5
18F8F
330
1
100
AcDbSymbolTableRecord
100
AcDbBlockTableRecord
  2
*D3
340
0
 70
     0
280
     1
281
     0
  0
BLOCK_RECORD
  5
18F9B
330
1
100
AcDbSymbolTableRecord
100
AcDbBlockTableRecord
  2
*D4
340
0
 70
     0
280
     1
281
     0
  0
BLOCK_RECORD
  5
18FA7
330
1
100
AcDbSymbolTableRecord
100
AcDbBlockTableRecord
  2
*D5
340
0
 70
     0
280
     1
281
     0
  0
BLOCK_RECORD
  5
18FB3
330
1
100
AcDbSymbolTableRecord
100
AcDbBlockTableRecord
  2
*D6
340
0
 70
     0
280
     1
281
     0
  0
BLOCK_RECORD
  5
18FC1
330
1
100
AcDbSymbolTableRecord
100
AcDbBlockTableRecord
  2
*D7
340
0
 70
     0
280
     1
281
     0
  0
BLOCK_RECORD
  5
18FCF
330
1
100
AcDbSymbolTableRecord
100
AcDbBlockTableRecord
  2
*D8
340
0
 70
     0
280
     1
281
     0
  0
BLOCK_RECORD
  5
18FDD
330
1
100
AcDbSymbolTableRecord
100
AcDbBlockTableRecord
  2
*D9
340
0
 70
     0
280
     1
281
     0
  0
BLOCK_RECORD
  5
18FE9
330
1
100
AcDbSymbolTableRecord
100
AcDbBlockTableRecord
  2
*D10
340
0
 70
     0
280
     1
281
     0
  0
BLOCK_RECORD
  5
18FF7
330
1
100
AcDbSymbolTableRecord
100
AcDbBlockTableRecord
  2
*D11
340
0
 70
     0
280
     1
281
     0
  0
BLOCK_RECORD
  5
19003
330
1
100
AcDbSymbolTableRecord
100
AcDbBlockTableRecord
  2
*D12
340
0
 70
     0
280
     1
281
     0
  0
BLOCK_RECORD
  5
1900F
330
1
100
AcDbSymbolTableRecord
100
AcDbBlockTableRecord
  2
*D13
340
0
 70
     0
280
     1
281
     0
  0
BLOCK_RECORD
  5
1901D
330
1
100
AcDbSymbolTableRecord
100
AcDbBlockTableRecord
  2
*D14
340
0
 70
     0
280
     1
281
     0
  0
BLOCK_RECORD
  5
1902B
330
1
100
AcDbSymbolTableRecord
100
AcDbBlockTableRecord
  2
*D15
340
0
 70
     0
280
     1
281
     0
  0
BLOCK_RECORD
  5
19037
330
1
100
AcDbSymbolTableRecord
100
AcDbBlockTableRecord
  2
*D16
340
0
 70
     0
280
     1
281
     0
  0
BLOCK_RECORD
  5
19043
330
1
100
AcDbSymbolTableRecord
100
AcDbBlockTableRecord
  2
*D17
340
0
 70
     0
280
     1
281
     0
  0
BLOCK_RECORD
  5
1904F
330
1
100
AcDbSymbolTableRecord
100
AcDbBlockTableRecord
  2
*D18
340
0
 70
     0
280
     1
281
     0
  0
BLOCK_RECORD
  5
1905D
330
1
100
AcDbSymbolTableRecord
100
AcDbBlockTableRecord
  2
*D19
340
0
 70
     0
280
     1
281
     0
  0
BLOCK_RECORD
  5
19069
330
1
100
AcDbSymbolTableRecord
100
AcDbBlockTableRecord
  2
*D20
340
0
 70
     0
280
     1
281
     0
  0
BLOCK_RECORD
  5
19075
330
1
100
AcDbSymbolTableRecord
100
AcDbBlockTableRecord
  2
*D21
340
0
 70
     0
280
     1
281
     0
  0
BLOCK_RECORD
  5
19083
330
1
100
AcDbSymbolTableRecord
100
AcDbBlockTableRecord
  2
*D22
340
0
 70
     0
280
     1
281
     0
  0
BLOCK_RECORD
  5
1908F
330
1
100
AcDbSymbolTableRecord
100
AcDbBlockTableRecord
  2
*D23
340
0
 70
     0
280
     1
281
     0
  0
BLOCK_RECORD
  5
1909C
330
1
100
AcDbSymbolTableRecord
100
AcDbBlockTableRecord
  2
*D24
340
0
 70
     0
280
     1
281
     0
  0
BLOCK_RECORD
  5
190A9
330
1
100
AcDbSymbolTableRecord
100
AcDbBlockTableRecord
  2
*D25
340
0
 70
     0
280
     1
281
     0
  0
BLOCK_RECORD
  5
190B5
330
1
100
AcDbSymbolTableRecord
100
AcDbBlockTableRecord
  2
*D26
340
0
 70
     0
280
     1
281
     0
  0
BLOCK_RECORD
  5
190C1
330
1
100
AcDbSymbolTableRecord
100
AcDbBlockTableRecord
  2
*D27
340
0
 70
     0
280
     1
281
     0
  0
BLOCK_RECORD
  5
190CD
330
1
100
AcDbSymbolTableRecord
100
AcDbBlockTableRecord
  2
*D28
340
0
 70
     0
280
     1
281
     0
  0
BLOCK_RECORD
  5
190D9
330
1
100
AcDbSymbolTableRecord
100
AcDbBlockTableRecord
  2
*D29
340
0
 70
     0
280
     1
281
     0
  0
BLOCK_RECORD
  5
190E5
330
1
100
AcDbSymbolTableRecord
100
AcDbBlockTableRecord
  2
*D30
340
0
 70
     0
280
     1
281
     0
  0
BLOCK_RECORD
  5
190F3
330
1
100
AcDbSymbolTableRecord
100
AcDbBlockTableRecord
  2
*D31
340
0
 70
     0
280
     1
281
     0
  0
BLOCK_RECORD
  5
19101
330
1
100
AcDbSymbolTableRecord
100
AcDbBlockTableRecord
  2
*D32
340
0
 70
     0
280
     1
281
     0
  0
BLOCK_RECORD
  5
1932F
330
1
100
AcDbSymbolTableRecord
100
AcDbBlockTableRecord
  2
*D33
340
0
 70
     0
280
     1
281
     0
  0
BLOCK_RECORD
  5
1933B
330
1
100
AcDbSymbolTableRecord
100
AcDbBlockTableRecord
  2
*D34
340
0
 70
     0
280
     1
281
     0
  0
BLOCK_RECORD
  5
197E2
330
1
100
AcDbSymbolTableRecord
100
AcDbBlockTableRecord
  2
*D35
340
0
 70
     0
280
     1
281
     0
  0
BLOCK_RECORD
  5
197EE
330
1
100
AcDbSymbolTableRecord
100
AcDbBlockTableRecord
  2
*D36
340
0
 70
     0
280
     1
281
     0
  0
BLOCK_RECORD
  5
197FA
330
1
100
AcDbSymbolTableRecord
100
AcDbBlockTableRecord
  2
*D37
340
0
 70
     0
280
     1
281
     0
  0
BLOCK_RECORD
  5
19808
330
1
100
AcDbSymbolTableRecord
100
AcDbBlockTableRecord
  2
*D38
340
0
 70
     0
280
     1
281
     0
  0
BLOCK_RECORD
  5
19814
330
1
100
AcDbSymbolTableRecord
100
AcDbBlockTableRecord
  2
*D39
340
0
 70
     0
280
     1
281
     0
  0
BLOCK_RECORD
  5
19822
330
1
100
AcDbSymbolTableRecord
100
AcDbBlockTableRecord
  2
*D40
340
0
 70
     0
280
     1
281
     0
  0
BLOCK_RECORD
  5
19830
330
1
100
AcDbSymbolTableRecord
100
AcDbBlockTableRecord
  2
*D41
340
0
 70
     0
280
     1
281
     0
  0
BLOCK_RECORD
  5
1983C
330
1
100
AcDbSymbolTableRecord
100
AcDbBlockTableRecord
  2
*D42
340
0
 70
     0
280
     1
281
     0
  0
BLOCK_RECORD
  5
19848
330
1
100
AcDbSymbolTableRecord
100
AcDbBlockTableRecord
  2
*D43
340
0
 70
     0
280
     1
281
     0
  0
ENDTAB
  0
ENDSEC
  0
SECTION
  2
BLOCKS
  0
BLOCK
  5
20
330
1F
100
AcDbEntity
  8
0
100
AcDbBlockBegin
  2
*Model_Space
 70
     0
 10
0.0
 20
0.0
 30
0.0
  3
*Model_Space
  1

  0
ENDBLK
  5
21
330
1F
100
AcDbEntity
  8
0
100
AcDbBlockEnd
  0
BLOCK
  5
78F
330
78D
100
AcDbEntity
 67
     1
  8
0
100
AcDbBlockBegin
  2
*Paper_Space
 70
     0
 10
0.0
 20
0.0
 30
0.0
  3
*Paper_Space
  1

  0
ENDBLK
  5
790
330
78D
100
AcDbEntity
 67
     1
  8
0
100
AcDbBlockEnd
  0
BLOCK
  5
C09
330
C08
100
AcDbEntity
  8
0
100
AcDbBlockBegin
  2
_OPEN
 70
     0
 10
0.0
 20
0.0
 30
0.0
  3
_OPEN
  1

  0
LINE
  5
C0A
330
C08
100
AcDbEntity
  8
0
  6
ByBlock
 62
     0
100
AcDbLine
 10
-1.0
 20
0.1666666666666666
 30
0.0
 11
0.0
 21
0.0
 31
0.0
  0
LINE
  5
C0B
330
C08
100
AcDbEntity
  8
0
  6
ByBlock
 62
     0
100
AcDbLine
 10
0.0
 20
0.0
 30
0.0
 11
-1.0
 21
-0.1666666666666666
 31
0.0
  0
LINE
  5
C0C
330
C08
100
AcDbEntity
  8
0
  6
ByBlock
 62
     0
100
AcDbLine
 10
0.0
 20
0.0
 30
0.0
 11
-1.0
 21
0.0
 31
0.0
  0
ENDBLK
  5
C0D
330
C08
100
AcDbEntity
  8
0
100
AcDbBlockEnd
  0
BLOCK
  5
18EE9
330
18EE8
100
AcDbEntity
  8
0
100
AcDbBlockBegin
  2
*D1
 70
     1
 10
0.0
 20
0.0
 30
0.0
  3
*D1
  1

  0
LINE
  5
1910F
330
18EE8
100
AcDbEntity
  8
寸法線
 62
     0
440
 16777216
370
    -2
100
AcDbLine
 10
2702.500011296659
 20
2372.750037219683
 30
0.0
 11
2702.500011296659
 21
2620.000000000003
 31
0.0
  0
LINE
  5
19110
330
18EE8
100
AcDbEntity
  8
寸法線
 62
     0
440
 16777216
370
    -2
100
AcDbLine
 10
2202.499991390134
 20
2388.750019850007
 30
0.0
 11
2202.499991390134
 21
2620.000000000003
 31
0.0
  0
LINE
  5
19111
330
18EE8
100
AcDbEntity
  8
寸法線
 62
     0
440
 16777216
370
    -2
100
AcDbLine
 10
2682.500011296659
 20
2610.000000000003
 30
0.0
 11
2222.499991390134
 21
2610.000000000003
 31
0.0
  0
INSERT
  5
19112
330
18EE8
100
AcDbEntity
  8
寸法線
 62
     0
440
 16777216
370
    -2
100
AcDbBlockReference
  2
_OPEN
 10
2702.500011296659
 20
2610.000000000003
 30
0.0
 41
20.0
 42
20.0
 43
20.0
  0
INSERT
  5
19113
330
18EE8
100
AcDbEntity
  8
寸法線
 62
     0
440
 16777216
370
    -2
100
AcDbBlockReference
  2
_OPEN
 10
2202.499991390134
 20
2610.000000000003
 30
0.0
 41
20.0
 42
20.0
 43
20.0
 50
180.0
  0
MTEXT
  5
19114
330
18EE8
100
AcDbEntity
  8
寸法線
 62
     0
440
 16777216
100
AcDbMText
 10
2452.499993842701
 20
2631.250000000003
 30
0.0
 40
25.0
 41
0.0
 46
0.0
 71
     5
 72
     1
  1
\A1;500
 73
     1
 44
1.0
  0
MTEXT
  5
19115
330
18EE8
100
AcDbEntity
  8
寸法線
 62
     0
440
 16777216
100
AcDbMText
 10
2452.499993842701
 20
2588.750000000003
 30
0.0
 40
25.0
 41
0.0
 46
0.0
 71
     5
 72
     1
  1
\A1;H型鋼（連結部）
 73
     1
 44
1.0
  0
POINT
  5
19116
330
18EE8
100
AcDbEntity
  8
Defpoints
 62
     0
440
 16777216
100
AcDbPoint
 10
2702.500011296659
 20
2364.000037219682
 30
0.0
  0
POINT
  5
19117
330
18EE8
100
AcDbEntity
  8
Defpoints
 62
     0
440
 16777216
100
AcDbPoint
 10
2202.499991390134
 20
2380.000019850007
 30
0.0
  0
POINT
  5
19118
330
18EE8
100
AcDbEntity
  8
Defpoints
 62
     0
440
 16777216
100
AcDbPoint
 10
2202.499991390134
 20
2610.000000000003
 30
0.0
  0
ENDBLK
  5
18EEA
330
18EE8
100
AcDbEntity
  8
0
100
AcDbBlockEnd
  0
BLOCK
  5
18F82
330
18F81
100
AcDbEntity
  8
0
100
AcDbBlockBegin
  2
*D2
 70
     1
 10
0.0
 20
0.0
 30
0.0
  3
*D2
  1

  0
LINE
  5
193CE
330
18F81
100
AcDbEntity
  8
寸法線
 62
     0
440
 16777216
370
    -2
100
AcDbLine
 10
1758.850452126469
 20
849.9999817553662
 30
0.0
 11
1757.600452126469
 21
849.9999817553662
 31
0.0
  0
LINE
  5
193CF
330
18F81
100
AcDbEntity
  8
寸法線
 62
     0
440
 16777216
370
    -2
100
AcDbLine
 10
1758.850452126469
 20
899.9999817553662
 30
0.0
 11
1757.600452126469
 21
899.9999817553662
 31
0.0
  0
LINE
  5
193D0
330
18F81
100
AcDbEntity
  8
寸法線
 62
     0
440
 16777216
370
    -2
100
AcDbLine
 10
1767.600452126468
 20
829.9999817553661
 30
0.0
 11
1767.600452126468
 21
809.9999817553662
 31
0.0
  0
LINE
  5
193D1
330
18F81
100
AcDbEntity
  8
寸法線
 62
     0
440
 16777216
370
    -2
100
AcDbLine
 10
1767.600452126468
 20
919.9999817553662
 30
0.0
 11
1767.600452126468
 21
939.9999817553661
 31
0.0
  0
LINE
  5
193D2
330
18F81
100
AcDbEntity
  8
寸法線
 62
     0
440
 16777216
370
    -2
100
AcDbLine
 10
1767.600452126468
 20
849.9999817553662
 30
0.0
 11
1767.600452126468
 21
899.9999817553662
 31
0.0
  0
INSERT
  5
193D3
330
18F81
100
AcDbEntity
  8
寸法線
 62
     0
440
 16777216
370
    -2
100
AcDbBlockReference
  2
_OPEN
 10
1767.600452126468
 20
849.9999817553662
 30
0.0
 41
20.0
 42
20.0
 43
20.0
 50
90.0
  0
INSERT
  5
193D4
330
18F81
100
AcDbEntity
  8
寸法線
 62
     0
440
 16777216
370
    -2
100
AcDbBlockReference
  2
_OPEN
 10
1767.600452126468
 20
899.9999817553662
 30
0.0
 41
20.0
 42
20.0
 43
20.0
 50
270.0
  0
MTEXT
  5
193D5
330
18F81
100
AcDbEntity
  8
寸法線
 62
     0
440
 16777216
100
AcDbMText
 10
1746.350452126468
 20
874.9999817553655
 30
0.0
 40
25.0
 41
0.0
 46
0.0
 71
     5
 72
     1
  1
\A1;%%C50
 11
0.0000000000000001
 21
1.0
 31
0.0
 73
     1
 44
1.0
  0
POINT
  5
193D6
330
18F81
100
AcDbEntity
  8
Defpoints
 62
     0
440
 16777216
100
AcDbPoint
 10
1767.600452126469
 20
849.9999817553662
 30
0.0
  0
POINT
  5
193D7
330
18F81
100
AcDbEntity
  8
Defpoints
 62
     0
440
 16777216
100
AcDbPoint
 10
1767.600452126469
 20
899.9999817553662
 30
0.0
  0
POINT
  5
193D8
330
18F81
100
AcDbEntity
  8
Defpoints
 62
     0
440
 16777216
100
AcDbPoint
 10
1767.600452126468
 20
899.9999817553662
 30
0.0
  0
ENDBLK
  5
18F83
330
18F81
100
AcDbEntity
  8
0
100
AcDbBlockEnd
  0
BLOCK
  5
18F90
330
18F8F
100
AcDbEntity
  8
0
100
AcDbBlockBegin
  2
*D3
 70
     1
 10
0.0
 20
0.0
 30
0.0
  3
*D3
  1

  0
LINE
  5
193D9
330
18F8F
100
AcDbEntity
  8
寸法線
 62
     0
440
 16777216
370
    -2
100
AcDbLine
 10
971.3438964149672
 20
581.2499782802229
 30
0.0
 11
971.3438964149672
 21
339.9999817553657
 31
0.0
  0
LINE
  5
193DA
330
18F8F
100
AcDbEntity
  8
寸法線
 62
     0
440
 16777216
370
    -2
100
AcDbLine
 10
1871.343896414967
 20
581.250000000004
 30
0.0
 11
1871.343896414967
 21
339.9999817553657
 31
0.0
  0
LINE
  5
193DB
330
18F8F
100
AcDbEntity
  8
寸法線
 62
     0
440
 16777216
370
    -2
100
AcDbLine
 10
991.3438964149673
 20
349.9999817553657
 30
0.0
 11
1851.343896414967
 21
349.9999817553657
 31
0.0
  0
INSERT
  5
193DC
330
18F8F
100
AcDbEntity
  8
寸法線
 62
     0
440
 16777216
370
    -2
100
AcDbBlockReference
  2
_OPEN
 10
971.3438964149672
 20
349.9999817553657
 30
0.0
 41
20.0
 42
20.0
 43
20.0
 50
180.0
  0
INSERT
  5
193DD
330
18F8F
100
AcDbEntity
  8
寸法線
 62
     0
440
 16777216
370
    -2
100
AcDbBlockReference
  2
_OPEN
 10
1871.343896414967
 20
349.9999817553657
 30
0.0
 41
20.0
 42
20.0
 43
20.0
  0
MTEXT
  5
193DE
330
18F8F
100
AcDbEntity
  8
寸法線
 62
     0
440
 16777216
100
AcDbMText
 10
1421.343896414967
 20
371.2499817553657
 30
0.0
 40
25.0
 41
0.0
 46
0.0
 71
     5
 72
     1
  1
\A1;900
 73
     1
 44
1.0
  0
POINT
  5
193DF
330
18F8F
100
AcDbEntity
  8
Defpoints
 62
     0
440
 16777216
100
AcDbPoint
 10
971.3438964149672
 20
589.9999782802228
 30
0.0
  0
POINT
  5
193E0
330
18F8F
100
AcDbEntity
  8
Defpoints
 62
     0
440
 16777216
100
AcDbPoint
 10
1871.343896414967
 20
590.0000000000041
 30
0.0
  0
POINT
  5
193E1
330
18F8F
100
AcDbEntity
  8
Defpoints
 62
     0
440
 16777216
100
AcDbPoint
 10
1871.343896414967
 20
349.9999817553657
 30
0.0
  0
ENDBLK
  5
18F91
330
18F8F
100
AcDbEntity
  8
0
100
AcDbBlockEnd
  0
BLOCK
  5
18F9C
330
18F9B
100
AcDbEntity
  8
0
100
AcDbBlockBegin
  2
*D4
 70
     1
 10
0.0
 20
0.0
 30
0.0
  3
*D4
  1

  0
LINE
  5
193E2
330
18F9B
100
AcDbEntity
  8
寸法線
 62
     0
440
 16777216
370
    -2
100
AcDbLine
 10
1019.343896414967
 20
591.2499817553658
 30
0.0
 11
1019.343896414967
 21
459.9999817553658
 31
0.0
  0
LINE
  5
193E3
330
18F9B
100
AcDbEntity
  8
寸法線
 62
     0
440
 16777216
370
    -2
100
AcDbLine
 10
1823.343896414967
 20
591.2499817553658
 30
0.0
 11
1823.343896414967
 21
459.9999817553658
 31
0.0
  0
LINE
  5
193E4
330
18F9B
100
AcDbEntity
  8
寸法線
 62
     0
440
 16777216
370
    -2
100
AcDbLine
 10
1039.343896414967
 20
469.9999817553657
 30
0.0
 11
1803.343896414967
 21
469.9999817553657
 31
0.0
  0
INSERT
  5
193E5
330
18F9B
100
AcDbEntity
  8
寸法線
 62
     0
440
 16777216
370
    -2
100
AcDbBlockReference
  2
_OPEN
 10
1019.343896414967
 20
469.9999817553657
 30
0.0
 41
20.0
 42
20.0
 43
20.0
 50
180.0
  0
INSERT
  5
193E6
330
18F9B
100
AcDbEntity
  8
寸法線
 62
     0
440
 16777216
370
    -2
100
AcDbBlockReference
  2
_OPEN
 10
1823.343896414967
 20
469.9999817553657
 30
0.0
 41
20.0
 42
20.0
 43
20.0
  0
MTEXT
  5
193E7
330
18F9B
100
AcDbEntity
  8
寸法線
 62
     0
440
 16777216
100
AcDbMText
 10
1421.343896414967
 20
491.2499817553658
 30
0.0
 40
25.0
 41
0.0
 46
0.0
 71
     5
 72
     1
  1
\A1;804
 73
     1
 44
1.0
  0
POINT
  5
193E8
330
18F9B
100
AcDbEntity
  8
Defpoints
 62
     0
440
 16777216
100
AcDbPoint
 10
1019.343896414967
 20
599.9999817553657
 30
0.0
  0
POINT
  5
193E9
330
18F9B
100
AcDbEntity
  8
Defpoints
 62
     0
440
 16777216
100
AcDbPoint
 10
1823.343896414967
 20
599.9999817553657
 30
0.0
  0
POINT
  5
193EA
330
18F9B
100
AcDbEntity
  8
Defpoints
 62
     0
440
 16777216
100
AcDbPoint
 10
1823.343896414967
 20
469.9999817553657
 30
0.0
  0
ENDBLK
  5
18F9D
330
18F9B
100
AcDbEntity
  8
0
100
AcDbBlockEnd
  0
BLOCK
  5
18FA8
330
18FA7
100
AcDbEntity
  8
0
100
AcDbBlockBegin
  2
*D5
 70
     1
 10
0.0
 20
0.0
 30
0.0
  3
*D5
  1

  0
LINE
  5
193EB
330
18FA7
100
AcDbEntity
  8
寸法線
 62
     0
440
 16777216
370
    -2
100
AcDbLine
 10
987.3438964149672
 20
581.2499817553657
 30
0.0
 11
987.3438964149672
 21
399.9999817553657
 31
0.0
  0
LINE
  5
193EC
330
18FA7
100
AcDbEntity
  8
寸法線
 62
     0
440
 16777216
370
    -2
100
AcDbLine
 10
1855.343896414967
 20
581.2499817553657
 30
0.0
 11
1855.343896414967
 21
399.9999817553657
 31
0.0
  0
LINE
  5
193ED
330
18FA7
100
AcDbEntity
  8
寸法線
 62
     0
440
 16777216
370
    -2
100
AcDbLine
 10
1007.343896414967
 20
409.9999817553657
 30
0.0
 11
1835.343896414967
 21
409.9999817553657
 31
0.0
  0
INSERT
  5
193EE
330
18FA7
100
AcDbEntity
  8
寸法線
 62
     0
440
 16777216
370
    -2
100
AcDbBlockReference
  2
_OPEN
 10
987.3438964149672
 20
409.9999817553657
 30
0.0
 41
20.0
 42
20.0
 43
20.0
 50
180.0
  0
INSERT
  5
193EF
330
18FA7
100
AcDbEntity
  8
寸法線
 62
     0
440
 16777216
370
    -2
100
AcDbBlockReference
  2
_OPEN
 10
1855.343896414967
 20
409.9999817553657
 30
0.0
 41
20.0
 42
20.0
 43
20.0
  0
MTEXT
  5
193F0
330
18FA7
100
AcDbEntity
  8
寸法線
 62
     0
440
 16777216
100
AcDbMText
 10
1421.343896414967
 20
431.2499817553657
 30
0.0
 40
25.0
 41
0.0
 46
0.0
 71
     5
 72
     1
  1
\A1;868
 73
     1
 44
1.0
  0
POINT
  5
193F1
330
18FA7
100
AcDbEntity
  8
Defpoints
 62
     0
440
 16777216
100
AcDbPoint
 10
987.3438964149672
 20
589.9999817553657
 30
0.0
  0
POINT
  5
193F2
330
18FA7
100
AcDbEntity
  8
Defpoints
 62
     0
440
 16777216
100
AcDbPoint
 10
1855.343896414967
 20
589.9999817553657
 30
0.0
  0
POINT
  5
193F3
330
18FA7
100
AcDbEntity
  8
Defpoints
 62
     0
440
 16777216
100
AcDbPoint
 10
1855.343896414967
 20
409.9999817553657
 30
0.0
  0
ENDBLK
  5
18FA9
330
18FA7
100
AcDbEntity
  8
0
100
AcDbBlockEnd
  0
BLOCK
  5
18FB4
330
18FB3
100
AcDbEntity
  8
0
100
AcDbBlockBegin
  2
*D6
 70
     1
 10
0.0
 20
0.0
 30
0.0
  3
*D6
  1

  0
LINE
  5
193F4
330
18FB3
100
AcDbEntity
  8
寸法線
 62
     0
440
 16777216
370
    -2
100
AcDbLine
 10
987.3438964149672
 20
581.250000000004
 30
0.0
 11
987.3438964149672
 21
459.9999817553658
 31
0.0
  0
LINE
  5
193F5
330
18FB3
100
AcDbEntity
  8
寸法線
 62
     0
440
 16777216
370
    -2
100
AcDbLine
 10
1019.343896414967
 20
591.2499817553658
 30
0.0
 11
1019.343896414967
 21
459.9999817553658
 31
0.0
  0
LINE
  5
193F6
330
18FB3
100
AcDbEntity
  8
寸法線
 62
     0
440
 16777216
370
    -2
100
AcDbLine
 10
967.3438964149672
 20
469.9999817553657
 30
0.0
 11
947.3438964149673
 21
469.9999817553657
 31
0.0
  0
LINE
  5
193F7
330
18FB3
100
AcDbEntity
  8
寸法線
 62
     0
440
 16777216
370
    -2
100
AcDbLine
 10
1039.343896414967
 20
469.9999817553657
 30
0.0
 11
1059.343896414967
 21
469.9999817553657
 31
0.0
  0
LINE
  5
193F8
330
18FB3
100
AcDbEntity
  8
寸法線
 62
     0
440
 16777216
370
    -2
100
AcDbLine
 10
987.3438964149672
 20
469.9999817553657
 30
0.0
 11
1019.343896414967
 21
469.9999817553657
 31
0.0
  0
INSERT
  5
193F9
330
18FB3
100
AcDbEntity
  8
寸法線
 62
     0
440
 16777216
370
    -2
100
AcDbBlockReference
  2
_OPEN
 10
987.3438964149672
 20
469.9999817553657
 30
0.0
 41
20.0
 42
20.0
 43
20.0
  0
INSERT
  5
193FA
330
18FB3
100
AcDbEntity
  8
寸法線
 62
     0
440
 16777216
370
    -2
100
AcDbBlockReference
  2
_OPEN
 10
1019.343896414967
 20
469.9999817553657
 30
0.0
 41
20.0
 42
20.0
 43
20.0
 50
180.0
  0
MTEXT
  5
193FB
330
18FB3
100
AcDbEntity
  8
寸法線
 62
     0
440
 16777216
100
AcDbMText
 10
1003.343896414967
 20
491.252442385287
 30
0.0
 40
25.0
 41
0.0
 46
0.0
 71
     5
 72
     1
  1
\A1;32
 73
     1
 44
1.0
  0
POINT
  5
193FC
330
18FB3
100
AcDbEntity
  8
Defpoints
 62
     0
440
 16777216
100
AcDbPoint
 10
987.3438964149672
 20
590.0000000000041
 30
0.0
  0
POINT
  5
193FD
330
18FB3
100
AcDbEntity
  8
Defpoints
 62
     0
440
 16777216
100
AcDbPoint
 10
1019.343896414967
 20
599.9999817553657
 30
0.0
  0
POINT
  5
193FE
330
18FB3
100
AcDbEntity
  8
Defpoints
 62
     0
440
 16777216
100
AcDbPoint
 10
1019.343896414967
 20
469.9999817553657
 30
0.0
  0
ENDBLK
  5
18FB5
330
18FB3
100
AcDbEntity
  8
0
100
AcDbBlockEnd
  0
BLOCK
  5
18FC2
330
18FC1
100
AcDbEntity
  8
0
100
AcDbBlockBegin
  2
*D7
 70
     1
 10
0.0
 20
0.0
 30
0.0
  3
*D7
  1

  0
LINE
  5
193FF
330
18FC1
100
AcDbEntity
  8
寸法線
 62
     0
440
 16777216
370
    -2
100
AcDbLine
 10
971.3438964149672
 20
581.250000000004
 30
0.0
 11
971.3438964149672
 21
399.9999817553657
 31
0.0
  0
LINE
  5
19400
330
18FC1
100
AcDbEntity
  8
寸法線
 62
     0
440
 16777216
370
    -2
100
AcDbLine
 10
987.3438964149672
 20
581.2499817553657
 30
0.0
 11
987.3438964149672
 21
399.9999817553657
 31
0.0
  0
LINE
  5
19401
330
18FC1
100
AcDbEntity
  8
寸法線
 62
     0
440
 16777216
370
    -2
100
AcDbLine
 10
951.3438964149672
 20
409.9999817553657
 30
0.0
 11
931.3438964149673
 21
409.9999817553657
 31
0.0
  0
LINE
  5
19402
330
18FC1
100
AcDbEntity
  8
寸法線
 62
     0
440
 16777216
370
    -2
100
AcDbLine
 10
1007.343896414967
 20
409.9999817553657
 30
0.0
 11
1027.343896414967
 21
409.9999817553657
 31
0.0
  0
LINE
  5
19403
330
18FC1
100
AcDbEntity
  8
寸法線
 62
     0
440
 16777216
370
    -2
100
AcDbLine
 10
971.3438964149672
 20
409.9999817553657
 30
0.0
 11
987.3438964149672
 21
409.9999817553657
 31
0.0
  0
INSERT
  5
19404
330
18FC1
100
AcDbEntity
  8
寸法線
 62
     0
440
 16777216
370
    -2
100
AcDbBlockReference
  2
_OPEN
 10
971.3438964149672
 20
409.9999817553657
 30
0.0
 41
20.0
 42
20.0
 43
20.0
  0
INSERT
  5
19405
330
18FC1
100
AcDbEntity
  8
寸法線
 62
     0
440
 16777216
370
    -2
100
AcDbBlockReference
  2
_OPEN
 10
987.3438964149672
 20
409.9999817553657
 30
0.0
 41
20.0
 42
20.0
 43
20.0
 50
180.0
  0
MTEXT
  5
19406
330
18FC1
100
AcDbEntity
  8
寸法線
 62
     0
440
 16777216
100
AcDbMText
 10
979.3438964149672
 20
431.2499817553657
 30
0.0
 40
25.0
 41
0.0
 46
0.0
 71
     5
 72
     1
  1
\A1;16
 73
     1
 44
1.0
  0
POINT
  5
19407
330
18FC1
100
AcDbEntity
  8
Defpoints
 62
     0
440
 16777216
100
AcDbPoint
 10
971.3438964149672
 20
590.0000000000041
 30
0.0
  0
POINT
  5
19408
330
18FC1
100
AcDbEntity
  8
Defpoints
 62
     0
440
 16777216
100
AcDbPoint
 10
987.3438964149672
 20
589.9999817553657
 30
0.0
  0
POINT
  5
19409
330
18FC1
100
AcDbEntity
  8
Defpoints
 62
     0
440
 16777216
100
AcDbPoint
 10
987.3438964149672
 20
409.9999817553657
 30
0.0
  0
ENDBLK
  5
18FC3
330
18FC1
100
AcDbEntity
  8
0
100
AcDbBlockEnd
  0
BLOCK
  5
18FD0
330
18FCF
100
AcDbEntity
  8
0
100
AcDbBlockBegin
  2
*D8
 70
     1
 10
0.0
 20
0.0
 30
0.0
  3
*D8
  1

  0
LINE
  5
1940A
330
18FCF
100
AcDbEntity
  8
寸法線
 62
     0
440
 16777216
370
    -2
100
AcDbLine
 10
1855.343896414967
 20
561.2499817553657
 30
0.0
 11
1855.343896414967
 21
399.9999817553657
 31
0.0
  0
LINE
  5
1940B
330
18FCF
100
AcDbEntity
  8
寸法線
 62
     0
440
 16777216
370
    -2
100
AcDbLine
 10
1871.343896414967
 20
581.2499817553657
 30
0.0
 11
1871.343896414967
 21
399.9999817553657
 31
0.0
  0
LINE
  5
1940C
330
18FCF
100
AcDbEntity
  8
寸法線
 62
     0
440
 16777216
370
    -2
100
AcDbLine
 10
1835.343896414967
 20
409.9999817553657
 30
0.0
 11
1815.343896414967
 21
409.9999817553657
 31
0.0
  0
LINE
  5
1940D
330
18FCF
100
AcDbEntity
  8
寸法線
 62
     0
440
 16777216
370
    -2
100
AcDbLine
 10
1891.343896414967
 20
409.9999817553657
 30
0.0
 11
1911.343896414967
 21
409.9999817553657
 31
0.0
  0
LINE
  5
1940E
330
18FCF
100
AcDbEntity
  8
寸法線
 62
     0
440
 16777216
370
    -2
100
AcDbLine
 10
1855.343896414967
 20
409.9999817553657
 30
0.0
 11
1871.343896414967
 21
409.9999817553657
 31
0.0
  0
INSERT
  5
1940F
330
18FCF
100
AcDbEntity
  8
寸法線
 62
     0
440
 16777216
370
    -2
100
AcDbBlockReference
  2
_OPEN
 10
1855.343896414967
 20
409.9999817553657
 30
0.0
 41
20.0
 42
20.0
 43
20.0
  0
INSERT
  5
19410
330
18FCF
100
AcDbEntity
  8
寸法線
 62
     0
440
 16777216
370
    -2
100
AcDbBlockReference
  2
_OPEN
 10
1871.343896414967
 20
409.9999817553657
 30
0.0
 41
20.0
 42
20.0
 43
20.0
 50
180.0
  0
MTEXT
  5
19411
330
18FCF
100
AcDbEntity
  8
寸法線
 62
     0
440
 16777216
100
AcDbMText
 10
1863.343896414967
 20
431.2499817553657
 30
0.0
 40
25.0
 41
0.0
 46
0.0
 71
     5
 72
     1
  1
\A1;16
 73
     1
 44
1.0
  0
POINT
  5
19412
330
18FCF
100
AcDbEntity
  8
Defpoints
 62
     0
440
 16777216
100
AcDbPoint
 10
1855.343896414967
 20
569.9999817553657
 30
0.0
  0
POINT
  5
19413
330
18FCF
100
AcDbEntity
  8
Defpoints
 62
     0
440
 16777216
100
AcDbPoint
 10
1871.343896414967
 20
589.9999817553657
 30
0.0
  0
POINT
  5
19414
330
18FCF
100
AcDbEntity
  8
Defpoints
 62
     0
440
 16777216
100
AcDbPoint
 10
1871.343896414967
 20
409.9999817553657
 30
0.0
  0
ENDBLK
  5
18FD1
330
18FCF
100
AcDbEntity
  8
0
100
AcDbBlockEnd
  0
BLOCK
  5
18FDE
330
18FDD
100
AcDbEntity
  8
0
100
AcDbBlockBegin
  2
*D9
 70
     1
 10
0.0
 20
0.0
 30
0.0
  3
*D9
  1

  0
LINE
  5
19415
330
18FDD
100
AcDbEntity
  8
寸法線
 62
     0
440
 16777216
370
    -2
100
AcDbLine
 10
1279.343896414967
 20
938.7499817553658
 30
0.0
 11
1279.343896414967
 21
1039.999981755366
 31
0.0
  0
LINE
  5
19416
330
18FDD
100
AcDbEntity
  8
寸法線
 62
     0
440
 16777216
370
    -2
100
AcDbLine
 10
1563.343896414967
 20
938.7500000000041
 30
0.0
 11
1563.343896414967
 21
1039.999981755366
 31
0.0
  0
LINE
  5
19417
330
18FDD
100
AcDbEntity
  8
寸法線
 62
     0
440
 16777216
370
    -2
100
AcDbLine
 10
1299.343896414967
 20
1029.999981755366
 30
0.0
 11
1543.343896414967
 21
1029.999981755366
 31
0.0
  0
INSERT
  5
19418
330
18FDD
100
AcDbEntity
  8
寸法線
 62
     0
440
 16777216
370
    -2
100
AcDbBlockReference
  2
_OPEN
 10
1279.343896414967
 20
1029.999981755366
 30
0.0
 41
20.0
 42
20.0
 43
20.0
 50
180.0
  0
INSERT
  5
19419
330
18FDD
100
AcDbEntity
  8
寸法線
 62
     0
440
 16777216
370
    -2
100
AcDbBlockReference
  2
_OPEN
 10
1563.343896414967
 20
1029.999981755366
 30
0.0
 41
20.0
 42
20.0
 43
20.0
  0
MTEXT
  5
1941A
330
18FDD
100
AcDbEntity
  8
寸法線
 62
     0
440
 16777216
100
AcDbMText
 10
1421.343896414967
 20
1051.252442385287
 30
0.0
 40
25.0
 41
0.0
 46
0.0
 71
     5
 72
     1
  1
\A1;284
 73
     1
 44
1.0
  0
POINT
  5
1941B
330
18FDD
100
AcDbEntity
  8
Defpoints
 62
     0
440
 16777216
100
AcDbPoint
 10
1279.343896414967
 20
929.9999817553658
 30
0.0
  0
POINT
  5
1941C
330
18FDD
100
AcDbEntity
  8
Defpoints
 62
     0
440
 16777216
100
AcDbPoint
 10
1563.343896414967
 20
930.0000000000041
 30
0.0
  0
POINT
  5
1941D
330
18FDD
100
AcDbEntity
  8
Defpoints
 62
     0
440
 16777216
100
AcDbPoint
 10
1563.343896414967
 20
1029.999981755366
 30
0.0
  0
ENDBLK
  5
18FDF
330
18FDD
100
AcDbEntity
  8
0
100
AcDbBlockEnd
  0
BLOCK
  5
18FEA
330
18FE9
100
AcDbEntity
  8
0
100
AcDbBlockBegin
  2
*D10
 70
     1
 10
0.0
 20
0.0
 30
0.0
  3
*D10
  1

  0
LINE
  5
1941E
330
18FE9
100
AcDbEntity
  8
寸法線
 62
     0
440
 16777216
370
    -2
100
AcDbLine
 10
1563.343896414967
 20
938.7500000000041
 30
0.0
 11
1563.343896414967
 21
1039.999981755366
 31
0.0
  0
LINE
  5
1941F
330
18FE9
100
AcDbEntity
  8
寸法線
 62
     0
440
 16777216
370
    -2
100
AcDbLine
 10
1579.343896414967
 20
938.7499817553658
 30
0.0
 11
1579.343896414967
 21
1039.999981755366
 31
0.0
  0
LINE
  5
19420
330
18FE9
100
AcDbEntity
  8
寸法線
 62
     0
440
 16777216
370
    -2
100
AcDbLine
 10
1543.343896414967
 20
1029.999981755366
 30
0.0
 11
1523.343896414967
 21
1029.999981755366
 31
0.0
  0
LINE
  5
19421
330
18FE9
100
AcDbEntity
  8
寸法線
 62
     0
440
 16777216
370
    -2
100
AcDbLine
 10
1599.343896414967
 20
1029.999981755366
 30
0.0
 11
1619.343896414967
 21
1029.999981755366
 31
0.0
  0
LINE
  5
19422
330
18FE9
100
AcDbEntity
  8
寸法線
 62
     0
440
 16777216
370
    -2
100
AcDbLine
 10
1563.343896414967
 20
1029.999981755366
 30
0.0
 11
1579.343896414967
 21
1029.999981755366
 31
0.0
  0
INSERT
  5
19423
330
18FE9
100
AcDbEntity
  8
寸法線
 62
     0
440
 16777216
370
    -2
100
AcDbBlockReference
  2
_OPEN
 10
1563.343896414967
 20
1029.999981755366
 30
0.0
 41
20.0
 42
20.0
 43
20.0
  0
INSERT
  5
19424
330
18FE9
100
AcDbEntity
  8
寸法線
 62
     0
440
 16777216
370
    -2
100
AcDbBlockReference
  2
_OPEN
 10
1579.343896414967
 20
1029.999981755366
 30
0.0
 41
20.0
 42
20.0
 43
20.0
 50
180.0
  0
MTEXT
  5
19425
330
18FE9
100
AcDbEntity
  8
寸法線
 62
     0
440
 16777216
100
AcDbMText
 10
1571.343896414967
 20
1051.249981755366
 30
0.0
 40
25.0
 41
0.0
 46
0.0
 71
     5
 72
     1
  1
\A1;16
 73
     1
 44
1.0
  0
POINT
  5
19426
330
18FE9
100
AcDbEntity
  8
Defpoints
 62
     0
440
 16777216
100
AcDbPoint
 10
1563.343896414967
 20
930.0000000000041
 30
0.0
  0
POINT
  5
19427
330
18FE9
100
AcDbEntity
  8
Defpoints
 62
     0
440
 16777216
100
AcDbPoint
 10
1579.343896414967
 20
929.9999817553658
 30
0.0
  0
POINT
  5
19428
330
18FE9
100
AcDbEntity
  8
Defpoints
 62
     0
440
 16777216
100
AcDbPoint
 10
1579.343896414967
 20
1029.999981755366
 30
0.0
  0
ENDBLK
  5
18FEB
330
18FE9
100
AcDbEntity
  8
0
100
AcDbBlockEnd
  0
BLOCK
  5
18FF8
330
18FF7
100
AcDbEntity
  8
0
100
AcDbBlockBegin
  2
*D11
 70
     1
 10
0.0
 20
0.0
 30
0.0
  3
*D11
  1

  0
LINE
  5
19429
330
18FF7
100
AcDbEntity
  8
寸法線
 62
     0
440
 16777216
370
    -2
100
AcDbLine
 10
1579.343896414967
 20
938.7499817553658
 30
0.0
 11
1579.343896414967
 21
1039.999981755366
 31
0.0
  0
LINE
  5
1942A
330
18FF7
100
AcDbEntity
  8
寸法線
 62
     0
440
 16777216
370
    -2
100
AcDbLine
 10
1855.343896414967
 20
918.7499817553657
 30
0.0
 11
1855.343896414967
 21
1039.999981755366
 31
0.0
  0
LINE
  5
1942B
330
18FF7
100
AcDbEntity
  8
寸法線
 62
     0
440
 16777216
370
    -2
100
AcDbLine
 10
1599.343896414967
 20
1029.999981755366
 30
0.0
 11
1835.343896414967
 21
1029.999981755366
 31
0.0
  0
INSERT
  5
1942C
330
18FF7
100
AcDbEntity
  8
寸法線
 62
     0
440
 16777216
370
    -2
100
AcDbBlockReference
  2
_OPEN
 10
1579.343896414967
 20
1029.999981755366
 30
0.0
 41
20.0
 42
20.0
 43
20.0
 50
180.0
  0
INSERT
  5
1942D
330
18FF7
100
AcDbEntity
  8
寸法線
 62
     0
440
 16777216
370
    -2
100
AcDbBlockReference
  2
_OPEN
 10
1855.343896414967
 20
1029.999981755366
 30
0.0
 41
20.0
 42
20.0
 43
20.0
  0
MTEXT
  5
1942E
330
18FF7
100
AcDbEntity
  8
寸法線
 62
     0
440
 16777216
100
AcDbMText
 10
1717.343896414967
 20
1051.252442385287
 30
0.0
 40
25.0
 41
0.0
 46
0.0
 71
     5
 72
     1
  1
\A1;276
 73
     1
 44
1.0
  0
POINT
  5
1942F
330
18FF7
100
AcDbEntity
  8
Defpoints
 62
     0
440
 16777216
100
AcDbPoint
 10
1579.343896414967
 20
929.9999817553658
 30
0.0
  0
POINT
  5
19430
330
18FF7
100
AcDbEntity
  8
Defpoints
 62
     0
440
 16777216
100
AcDbPoint
 10
1855.343896414967
 20
909.9999817553657
 30
0.0
  0
POINT
  5
19431
330
18FF7
100
AcDbEntity
  8
Defpoints
 62
     0
440
 16777216
100
AcDbPoint
 10
1855.343896414967
 20
1029.999981755366
 30
0.0
  0
ENDBLK
  5
18FF9
330
18FF7
100
AcDbEntity
  8
0
100
AcDbBlockEnd
  0
BLOCK
  5
19004
330
19003
100
AcDbEntity
  8
0
100
AcDbBlockBegin
  2
*D12
 70
     1
 10
0.0
 20
0.0
 30
0.0
  3
*D12
  1

  0
LINE
  5
19432
330
19003
100
AcDbEntity
  8
寸法線
 62
     0
440
 16777216
370
    -2
100
AcDbLine
 10
987.3438964149672
 20
918.7499817553657
 30
0.0
 11
987.3438964149672
 21
1039.999981755366
 31
0.0
  0
LINE
  5
19433
330
19003
100
AcDbEntity
  8
寸法線
 62
     0
440
 16777216
370
    -2
100
AcDbLine
 10
1263.343896414967
 20
938.7500000000041
 30
0.0
 11
1263.343896414967
 21
1039.999981755366
 31
0.0
  0
LINE
  5
19434
330
19003
100
AcDbEntity
  8
寸法線
 62
     0
440
 16777216
370
    -2
100
AcDbLine
 10
1007.343896414967
 20
1029.999981755366
 30
0.0
 11
1243.343896414967
 21
1029.999981755366
 31
0.0
  0
INSERT
  5
19435
330
19003
100
AcDbEntity
  8
寸法線
 62
     0
440
 16777216
370
    -2
100
AcDbBlockReference
  2
_OPEN
 10
987.3438964149672
 20
1029.999981755366
 30
0.0
 41
20.0
 42
20.0
 43
20.0
 50
180.0
  0
INSERT
  5
19436
330
19003
100
AcDbEntity
  8
寸法線
 62
     0
440
 16777216
370
    -2
100
AcDbBlockReference
  2
_OPEN
 10
1263.343896414967
 20
1029.999981755366
 30
0.0
 41
20.0
 42
20.0
 43
20.0
  0
MTEXT
  5
19437
330
19003
100
AcDbEntity
  8
寸法線
 62
     0
440
 16777216
100
AcDbMText
 10
1125.343896414967
 20
1051.252442385287
 30
0.0
 40
25.0
 41
0.0
 46
0.0
 71
     5
 72
     1
  1
\A1;276
 73
     1
 44
1.0
  0
POINT
  5
19438
330
19003
100
AcDbEntity
  8
Defpoints
 62
     0
440
 16777216
100
AcDbPoint
 10
987.3438964149672
 20
909.9999817553657
 30
0.0
  0
POINT
  5
19439
330
19003
100
AcDbEntity
  8
Defpoints
 62
     0
440
 16777216
100
AcDbPoint
 10
1263.343896414967
 20
930.0000000000041
 30
0.0
  0
POINT
  5
1943A
330
19003
100
AcDbEntity
  8
Defpoints
 62
     0
440
 16777216
100
AcDbPoint
 10
1263.343896414967
 20
1029.999981755366
 30
0.0
  0
ENDBLK
  5
19005
330
19003
100
AcDbEntity
  8
0
100
AcDbBlockEnd
  0
BLOCK
  5
19010
330
1900F
100
AcDbEntity
  8
0
100
AcDbBlockBegin
  2
*D13
 70
     1
 10
0.0
 20
0.0
 30
0.0
  3
*D13
  1

  0
LINE
  5
1943B
330
1900F
100
AcDbEntity
  8
寸法線
 62
     0
440
 16777216
370
    -2
100
AcDbLine
 10
1263.343896414967
 20
938.7500000000041
 30
0.0
 11
1263.343896414967
 21
1039.999981755366
 31
0.0
  0
LINE
  5
1943C
330
1900F
100
AcDbEntity
  8
寸法線
 62
     0
440
 16777216
370
    -2
100
AcDbLine
 10
1279.343896414967
 20
938.7499817553658
 30
0.0
 11
1279.343896414967
 21
1039.999981755366
 31
0.0
  0
LINE
  5
1943D
330
1900F
100
AcDbEntity
  8
寸法線
 62
     0
440
 16777216
370
    -2
100
AcDbLine
 10
1243.343896414967
 20
1029.999981755366
 30
0.0
 11
1223.343896414967
 21
1029.999981755366
 31
0.0
  0
LINE
  5
1943E
330
1900F
100
AcDbEntity
  8
寸法線
 62
     0
440
 16777216
370
    -2
100
AcDbLine
 10
1299.343896414967
 20
1029.999981755366
 30
0.0
 11
1319.343896414967
 21
1029.999981755366
 31
0.0
  0
LINE
  5
1943F
330
1900F
100
AcDbEntity
  8
寸法線
 62
     0
440
 16777216
370
    -2
100
AcDbLine
 10
1263.343896414967
 20
1029.999981755366
 30
0.0
 11
1279.343896414967
 21
1029.999981755366
 31
0.0
  0
INSERT
  5
19440
330
1900F
100
AcDbEntity
  8
寸法線
 62
     0
440
 16777216
370
    -2
100
AcDbBlockReference
  2
_OPEN
 10
1263.343896414967
 20
1029.999981755366
 30
0.0
 41
20.0
 42
20.0
 43
20.0
  0
INSERT
  5
19441
330
1900F
100
AcDbEntity
  8
寸法線
 62
     0
440
 16777216
370
    -2
100
AcDbBlockReference
  2
_OPEN
 10
1279.343896414967
 20
1029.999981755366
 30
0.0
 41
20.0
 42
20.0
 43
20.0
 50
180.0
  0
MTEXT
  5
19442
330
1900F
100
AcDbEntity
  8
寸法線
 62
     0
440
 16777216
100
AcDbMText
 10
1271.343896414967
 20
1051.249981755366
 30
0.0
 40
25.0
 41
0.0
 46
0.0
 71
     5
 72
     1
  1
\A1;16
 73
     1
 44
1.0
  0
POINT
  5
19443
330
1900F
100
AcDbEntity
  8
Defpoints
 62
     0
440
 16777216
100
AcDbPoint
 10
1263.343896414967
 20
930.0000000000041
 30
0.0
  0
POINT
  5
19444
330
1900F
100
AcDbEntity
  8
Defpoints
 62
     0
440
 16777216
100
AcDbPoint
 10
1279.343896414967
 20
929.9999817553658
 30
0.0
  0
POINT
  5
19445
330
1900F
100
AcDbEntity
  8
Defpoints
 62
     0
440
 16777216
100
AcDbPoint
 10
1279.343896414967
 20
1029.999981755366
 30
0.0
  0
ENDBLK
  5
19011
330
1900F
100
AcDbEntity
  8
0
100
AcDbBlockEnd
  0
BLOCK
  5
1901E
330
1901D
100
AcDbEntity
  8
0
100
AcDbBlockBegin
  2
*D14
 70
     1
 10
0.0
 20
0.0
 30
0.0
  3
*D14
  1

  0
LINE
  5
19446
330
1901D
100
AcDbEntity
  8
寸法線
 62
     0
440
 16777216
370
    -2
100
AcDbLine
 10
1855.343896414967
 20
581.250000000004
 30
0.0
 11
1855.343896414967
 21
459.9999817553658
 31
0.0
  0
LINE
  5
19447
330
1901D
100
AcDbEntity
  8
寸法線
 62
     0
440
 16777216
370
    -2
100
AcDbLine
 10
1823.343896414967
 20
591.2499817553658
 30
0.0
 11
1823.343896414967
 21
459.9999817553658
 31
0.0
  0
LINE
  5
19448
330
1901D
100
AcDbEntity
  8
寸法線
 62
     0
440
 16777216
370
    -2
100
AcDbLine
 10
1875.343896414967
 20
469.9999817553657
 30
0.0
 11
1895.343896414967
 21
469.9999817553657
 31
0.0
  0
LINE
  5
19449
330
1901D
100
AcDbEntity
  8
寸法線
 62
     0
440
 16777216
370
    -2
100
AcDbLine
 10
1803.343896414967
 20
469.9999817553657
 30
0.0
 11
1783.343896414967
 21
469.9999817553657
 31
0.0
  0
LINE
  5
1944A
330
1901D
100
AcDbEntity
  8
寸法線
 62
     0
440
 16777216
370
    -2
100
AcDbLine
 10
1855.343896414967
 20
469.9999817553657
 30
0.0
 11
1823.343896414967
 21
469.9999817553657
 31
0.0
  0
INSERT
  5
1944B
330
1901D
100
AcDbEntity
  8
寸法線
 62
     0
440
 16777216
370
    -2
100
AcDbBlockReference
  2
_OPEN
 10
1855.343896414967
 20
469.9999817553657
 30
0.0
 41
20.0
 42
20.0
 43
20.0
 50
180.0
  0
INSERT
  5
1944C
330
1901D
100
AcDbEntity
  8
寸法線
 62
     0
440
 16777216
370
    -2
100
AcDbBlockReference
  2
_OPEN
 10
1823.343896414967
 20
469.9999817553657
 30
0.0
 41
20.0
 42
20.0
 43
20.0
  0
MTEXT
  5
1944D
330
1901D
100
AcDbEntity
  8
寸法線
 62
     0
440
 16777216
100
AcDbMText
 10
1839.343896414967
 20
491.252442385287
 30
0.0
 40
25.0
 41
0.0
 46
0.0
 71
     5
 72
     1
  1
\A1;32
 73
     1
 44
1.0
  0
POINT
  5
1944E
330
1901D
100
AcDbEntity
  8
Defpoints
 62
     0
440
 16777216
100
AcDbPoint
 10
1855.343896414967
 20
590.0000000000041
 30
0.0
  0
POINT
  5
1944F
330
1901D
100
AcDbEntity
  8
Defpoints
 62
     0
440
 16777216
100
AcDbPoint
 10
1823.343896414967
 20
599.9999817553657
 30
0.0
  0
POINT
  5
19450
330
1901D
100
AcDbEntity
  8
Defpoints
 62
     0
440
 16777216
100
AcDbPoint
 10
1823.343896414967
 20
469.9999817553657
 30
0.0
  0
ENDBLK
  5
1901F
330
1901D
100
AcDbEntity
  8
0
100
AcDbBlockEnd
  0
BLOCK
  5
1902C
330
1902B
100
AcDbEntity
  8
0
100
AcDbBlockBegin
  2
*D15
 70
     1
 10
0.0
 20
0.0
 30
0.0
  3
*D15
  1

  0
LINE
  5
19207
330
1902B
100
AcDbEntity
  8
寸法線
 62
     0
440
 16777216
370
    -2
100
AcDbLine
 10
802.4999714836095
 20
1461.249999999998
 30
0.0
 11
802.4999714836095
 21
1299.999999999998
 31
0.0
  0
LINE
  5
19208
330
1902B
100
AcDbEntity
  8
寸法線
 62
     0
440
 16777216
370
    -2
100
AcDbLine
 10
1302.500006391522
 20
1451.250038922456
 30
0.0
 11
1302.500006391522
 21
1299.999999999998
 31
0.0
  0
LINE
  5
19209
330
1902B
100
AcDbEntity
  8
寸法線
 62
     0
440
 16777216
370
    -2
100
AcDbLine
 10
822.4999714836094
 20
1309.999999999998
 30
0.0
 11
1282.500006391522
 21
1309.999999999998
 31
0.0
  0
INSERT
  5
1920A
330
1902B
100
AcDbEntity
  8
寸法線
 62
     0
440
 16777216
370
    -2
100
AcDbBlockReference
  2
_OPEN
 10
802.4999714836095
 20
1309.999999999998
 30
0.0
 41
20.0
 42
20.0
 43
20.0
 50
180.0
  0
INSERT
  5
1920B
330
1902B
100
AcDbEntity
  8
寸法線
 62
     0
440
 16777216
370
    -2
100
AcDbBlockReference
  2
_OPEN
 10
1302.500006391522
 20
1309.999999999998
 30
0.0
 41
20.0
 42
20.0
 43
20.0
  0
MTEXT
  5
1920C
330
1902B
100
AcDbEntity
  8
寸法線
 62
     0
440
 16777216
100
AcDbMText
 10
1052.499988937567
 20
1331.249999999998
 30
0.0
 40
25.0
 41
0.0
 46
0.0
 71
     5
 72
     1
  1
\A1;500
 73
     1
 44
1.0
  0
POINT
  5
1920D
330
1902B
100
AcDbEntity
  8
Defpoints
 62
     0
440
 16777216
100
AcDbPoint
 10
802.4999714836095
 20
1469.999999999998
 30
0.0
  0
POINT
  5
1920E
330
1902B
100
AcDbEntity
  8
Defpoints
 62
     0
440
 16777216
100
AcDbPoint
 10
1302.500006391522
 20
1460.000038922456
 30
0.0
  0
POINT
  5
1920F
330
1902B
100
AcDbEntity
  8
Defpoints
 62
     0
440
 16777216
100
AcDbPoint
 10
1302.500006391522
 20
1309.999999999998
 30
0.0
  0
ENDBLK
  5
1902D
330
1902B
100
AcDbEntity
  8
0
100
AcDbBlockEnd
  0
BLOCK
  5
19038
330
19037
100
AcDbEntity
  8
0
100
AcDbBlockBegin
  2
*D16
 70
     1
 10
0.0
 20
0.0
 30
0.0
  3
*D16
  1

  0
LINE
  5
19210
330
19037
100
AcDbEntity
  8
寸法線
 62
     0
440
 16777216
370
    -2
100
AcDbLine
 10
2202.499936575698
 20
1451.250038922456
 30
0.0
 11
2202.499936575698
 21
1299.999999999998
 31
0.0
  0
LINE
  5
19211
330
19037
100
AcDbEntity
  8
寸法線
 62
     0
440
 16777216
370
    -2
100
AcDbLine
 10
1302.499991390134
 20
1451.250019850007
 30
0.0
 11
1302.499991390134
 21
1299.999999999998
 31
0.0
  0
LINE
  5
19212
330
19037
100
AcDbEntity
  8
寸法線
 62
     0
440
 16777216
370
    -2
100
AcDbLine
 10
2182.499936575698
 20
1309.999999999998
 30
0.0
 11
1322.499991390134
 21
1309.999999999998
 31
0.0
  0
INSERT
  5
19213
330
19037
100
AcDbEntity
  8
寸法線
 62
     0
440
 16777216
370
    -2
100
AcDbBlockReference
  2
_OPEN
 10
2202.499936575698
 20
1309.999999999998
 30
0.0
 41
20.0
 42
20.0
 43
20.0
  0
INSERT
  5
19214
330
19037
100
AcDbEntity
  8
寸法線
 62
     0
440
 16777216
370
    -2
100
AcDbBlockReference
  2
_OPEN
 10
1302.499991390134
 20
1309.999999999998
 30
0.0
 41
20.0
 42
20.0
 43
20.0
 50
180.0
  0
MTEXT
  5
19215
330
19037
100
AcDbEntity
  8
寸法線
 62
     0
440
 16777216
100
AcDbMText
 10
1752.499963982916
 20
1331.249999999998
 30
0.0
 40
25.0
 41
0.0
 46
0.0
 71
     5
 72
     1
  1
\A1;900
 73
     1
 44
1.0
  0
POINT
  5
19216
330
19037
100
AcDbEntity
  8
Defpoints
 62
     0
440
 16777216
100
AcDbPoint
 10
2202.499936575698
 20
1460.000038922456
 30
0.0
  0
POINT
  5
19217
330
19037
100
AcDbEntity
  8
Defpoints
 62
     0
440
 16777216
100
AcDbPoint
 10
1302.499991390134
 20
1460.000019850007
 30
0.0
  0
POINT
  5
19218
330
19037
100
AcDbEntity
  8
Defpoints
 62
     0
440
 16777216
100
AcDbPoint
 10
1302.499991390134
 20
1309.999999999998
 30
0.0
  0
ENDBLK
  5
19039
330
19037
100
AcDbEntity
  8
0
100
AcDbBlockEnd
  0
BLOCK
  5
19044
330
19043
100
AcDbEntity
  8
0
100
AcDbBlockBegin
  2
*D17
 70
     1
 10
0.0
 20
0.0
 30
0.0
  3
*D17
  1

  0
LINE
  5
19219
330
19043
100
AcDbEntity
  8
寸法線
 62
     0
440
 16777216
370
    -2
100
AcDbLine
 10
793.7499714836099
 20
1770.000037219675
 30
0.0
 11
672.4999714836091
 21
1770.000037219675
 31
0.0
  0
LINE
  5
1921A
330
19043
100
AcDbEntity
  8
寸法線
 62
     0
440
 16777216
370
    -2
100
AcDbLine
 10
793.7499714836099
 20
1469.999999999999
 30
0.0
 11
672.4999714836091
 21
1469.999999999999
 31
0.0
  0
LINE
  5
1921B
330
19043
100
AcDbEntity
  8
寸法線
 62
     0
440
 16777216
370
    -2
100
AcDbLine
 10
682.499971483609
 20
1750.000037219676
 30
0.0
 11
682.499971483609
 21
1489.999999999998
 31
0.0
  0
INSERT
  5
1921C
330
19043
100
AcDbEntity
  8
寸法線
 62
     0
440
 16777216
370
    -2
100
AcDbBlockReference
  2
_OPEN
 10
682.499971483609
 20
1770.000037219675
 30
0.0
 41
20.0
 42
20.0
 43
20.0
 50
90.0
  0
INSERT
  5
1921D
330
19043
100
AcDbEntity
  8
寸法線
 62
     0
440
 16777216
370
    -2
100
AcDbBlockReference
  2
_OPEN
 10
682.499971483609
 20
1469.999999999999
 30
0.0
 41
20.0
 42
20.0
 43
20.0
 50
270.0
  0
MTEXT
  5
1921E
330
19043
100
AcDbEntity
  8
寸法線
 62
     0
440
 16777216
100
AcDbMText
 10
661.2499714836094
 20
1620.000018609838
 30
0.0
 40
25.0
 41
0.0
 46
0.0
 71
     5
 72
     1
  1
\A1;300
 11
0.0000000000000001
 21
1.0
 31
0.0
 73
     1
 44
1.0
  0
POINT
  5
1921F
330
19043
100
AcDbEntity
  8
Defpoints
 62
     0
440
 16777216
100
AcDbPoint
 10
802.4999714836098
 20
1770.000037219675
 30
0.0
  0
POINT
  5
19220
330
19043
100
AcDbEntity
  8
Defpoints
 62
     0
440
 16777216
100
AcDbPoint
 10
802.4999714836098
 20
1469.999999999999
 30
0.0
  0
POINT
  5
19221
330
19043
100
AcDbEntity
  8
Defpoints
 62
     0
440
 16777216
100
AcDbPoint
 10
682.499971483609
 20
1469.999999999999
 30
0.0
  0
ENDBLK
  5
19045
330
19043
100
AcDbEntity
  8
0
100
AcDbBlockEnd
  0
BLOCK
  5
19050
330
1904F
100
AcDbEntity
  8
0
100
AcDbBlockBegin
  2
*D18
 70
     1
 10
0.0
 20
0.0
 30
0.0
  3
*D18
  1

  0
LINE
  5
198EE
330
1904F
100
AcDbEntity
  8
寸法線
 62
     0
440
 16777216
370
    -2
100
AcDbLine
 10
802.4999714836084
 20
2372.750037219683
 30
0.0
 11
802.4999714836084
 21
2539.999999999998
 31
0.0
  0
LINE
  5
198EF
330
1904F
100
AcDbEntity
  8
寸法線
 62
     0
440
 16777216
370
    -2
100
AcDbLine
 10
818.4999912967196
 20
2378.749999999998
 30
0.0
 11
818.4999912967196
 21
2539.999999999998
 31
0.0
  0
LINE
  5
198F0
330
1904F
100
AcDbEntity
  8
寸法線
 62
     0
440
 16777216
370
    -2
100
AcDbLine
 10
782.4999714836085
 20
2529.999999999998
 30
0.0
 11
762.4999714836085
 21
2529.999999999998
 31
0.0
  0
LINE
  5
198F1
330
1904F
100
AcDbEntity
  8
寸法線
 62
     0
440
 16777216
370
    -2
100
AcDbLine
 10
838.4999912967195
 20
2529.999999999998
 30
0.0
 11
858.4999912967196
 21
2529.999999999998
 31
0.0
  0
LINE
  5
198F2
330
1904F
100
AcDbEntity
  8
寸法線
 62
     0
440
 16777216
370
    -2
100
AcDbLine
 10
802.4999714836084
 20
2529.999999999998
 30
0.0
 11
818.4999912967196
 21
2529.999999999998
 31
0.0
  0
INSERT
  5
198F3
330
1904F
100
AcDbEntity
  8
寸法線
 62
     0
440
 16777216
370
    -2
100
AcDbBlockReference
  2
_OPEN
 10
802.4999714836084
 20
2529.999999999998
 30
0.0
 41
20.0
 42
20.0
 43
20.0
  0
INSERT
  5
198F4
330
1904F
100
AcDbEntity
  8
寸法線
 62
     0
440
 16777216
370
    -2
100
AcDbBlockReference
  2
_OPEN
 10
818.4999912967196
 20
2529.999999999998
 30
0.0
 41
20.0
 42
20.0
 43
20.0
 50
180.0
  0
MTEXT
  5
198F5
330
1904F
100
AcDbEntity
  8
寸法線
 62
     0
440
 16777216
100
AcDbMText
 10
810.499981390164
 20
2551.249999999998
 30
0.0
 40
25.0
 41
0.0
 46
0.0
 71
     5
 72
     1
  1
\A1;16
 73
     1
 44
1.0
  0
POINT
  5
198F6
330
1904F
100
AcDbEntity
  8
Defpoints
 62
     0
440
 16777216
100
AcDbPoint
 10
802.4999714836084
 20
2364.000037219682
 30
0.0
  0
POINT
  5
198F7
330
1904F
100
AcDbEntity
  8
Defpoints
 62
     0
440
 16777216
100
AcDbPoint
 10
818.4999912967196
 20
2369.999999999998
 30
0.0
  0
POINT
  5
198F8
330
1904F
100
AcDbEntity
  8
Defpoints
 62
     0
440
 16777216
100
AcDbPoint
 10
818.4999912967196
 20
2529.999999999998
 30
0.0
  0
ENDBLK
  5
19051
330
1904F
100
AcDbEntity
  8
0
100
AcDbBlockEnd
  0
BLOCK
  5
1905E
330
1905D
100
AcDbEntity
  8
0
100
AcDbBlockBegin
  2
*D19
 70
     1
 10
0.0
 20
0.0
 30
0.0
  3
*D19
  1

  0
LINE
  5
1922D
330
1905D
100
AcDbEntity
  8
寸法線
 62
     0
440
 16777216
370
    -2
100
AcDbLine
 10
818.4999912967196
 20
2378.749999999998
 30
0.0
 11
818.4999912967196
 21
2539.999999999998
 31
0.0
  0
LINE
  5
1922E
330
1905D
100
AcDbEntity
  8
寸法線
 62
     0
440
 16777216
370
    -2
100
AcDbLine
 10
1302.500059967627
 20
2388.750019849952
 30
0.0
 11
1302.500059967627
 21
2539.999999999998
 31
0.0
  0
LINE
  5
1922F
330
1905D
100
AcDbEntity
  8
寸法線
 62
     0
440
 16777216
370
    -2
100
AcDbLine
 10
838.4999912967195
 20
2529.999999999998
 30
0.0
 11
1282.500059967628
 21
2529.999999999998
 31
0.0
  0
INSERT
  5
19230
330
1905D
100
AcDbEntity
  8
寸法線
 62
     0
440
 16777216
370
    -2
100
AcDbBlockReference
  2
_OPEN
 10
818.4999912967196
 20
2529.999999999998
 30
0.0
 41
20.0
 42
20.0
 43
20.0
 50
180.0
  0
INSERT
  5
19231
330
1905D
100
AcDbEntity
  8
寸法線
 62
     0
440
 16777216
370
    -2
100
AcDbBlockReference
  2
_OPEN
 10
1302.500059967627
 20
2529.999999999998
 30
0.0
 41
20.0
 42
20.0
 43
20.0
  0
MTEXT
  5
19232
330
1905D
100
AcDbEntity
  8
寸法線
 62
     0
440
 16777216
100
AcDbMText
 10
1060.499998844121
 20
2551.249999999998
 30
0.0
 40
25.0
 41
0.0
 46
0.0
 71
     5
 72
     1
  1
\A1;484
 73
     1
 44
1.0
  0
POINT
  5
19233
330
1905D
100
AcDbEntity
  8
Defpoints
 62
     0
440
 16777216
100
AcDbPoint
 10
818.4999912967196
 20
2369.999999999998
 30
0.0
  0
POINT
  5
19234
330
1905D
100
AcDbEntity
  8
Defpoints
 62
     0
440
 16777216
100
AcDbPoint
 10
1302.500059967627
 20
2380.000019849952
 30
0.0
  0
POINT
  5
19235
330
1905D
100
AcDbEntity
  8
Defpoints
 62
     0
440
 16777216
100
AcDbPoint
 10
1302.500059967627
 20
2529.999999999998
 30
0.0
  0
ENDBLK
  5
1905F
330
1905D
100
AcDbEntity
  8
0
100
AcDbBlockEnd
  0
BLOCK
  5
1906A
330
19069
100
AcDbEntity
  8
0
100
AcDbBlockBegin
  2
*D20
 70
     1
 10
0.0
 20
0.0
 30
0.0
  3
*D20
  1

  0
LINE
  5
19236
330
19069
100
AcDbEntity
  8
寸法線
 62
     0
440
 16777216
370
    -2
100
AcDbLine
 10
809.7499912967201
 20
2369.999999999999
 30
0.0
 11
672.4999714836088
 21
2369.999999999999
 31
0.0
  0
LINE
  5
19237
330
19069
100
AcDbEntity
  8
寸法線
 62
     0
440
 16777216
370
    -2
100
AcDbLine
 10
809.7499912967201
 20
2069.999999999999
 30
0.0
 11
672.499971483609
 21
2069.999999999999
 31
0.0
  0
LINE
  5
19238
330
19069
100
AcDbEntity
  8
寸法線
 62
     0
440
 16777216
370
    -2
100
AcDbLine
 10
682.4999714836089
 20
2349.999999999999
 30
0.0
 11
682.4999714836089
 21
2089.999999999999
 31
0.0
  0
INSERT
  5
19239
330
19069
100
AcDbEntity
  8
寸法線
 62
     0
440
 16777216
370
    -2
100
AcDbBlockReference
  2
_OPEN
 10
682.4999714836089
 20
2369.999999999999
 30
0.0
 41
20.0
 42
20.0
 43
20.0
 50
90.0
  0
INSERT
  5
1923A
330
19069
100
AcDbEntity
  8
寸法線
 62
     0
440
 16777216
370
    -2
100
AcDbBlockReference
  2
_OPEN
 10
682.4999714836089
 20
2069.999999999999
 30
0.0
 41
20.0
 42
20.0
 43
20.0
 50
270.0
  0
MTEXT
  5
1923B
330
19069
100
AcDbEntity
  8
寸法線
 62
     0
440
 16777216
100
AcDbMText
 10
661.2499714836094
 20
2219.999999999998
 30
0.0
 40
25.0
 41
0.0
 46
0.0
 71
     5
 72
     1
  1
\A1;300
 11
0.0000000000000001
 21
1.0
 31
0.0
 73
     1
 44
1.0
  0
POINT
  5
1923C
330
19069
100
AcDbEntity
  8
Defpoints
 62
     0
440
 16777216
100
AcDbPoint
 10
818.4999912967199
 20
2369.999999999999
 30
0.0
  0
POINT
  5
1923D
330
19069
100
AcDbEntity
  8
Defpoints
 62
     0
440
 16777216
100
AcDbPoint
 10
818.4999912967199
 20
2069.999999999999
 30
0.0
  0
POINT
  5
1923E
330
19069
100
AcDbEntity
  8
Defpoints
 62
     0
440
 16777216
100
AcDbPoint
 10
682.4999714836089
 20
2069.999999999999
 30
0.0
  0
ENDBLK
  5
1906B
330
19069
100
AcDbEntity
  8
0
100
AcDbBlockEnd
  0
BLOCK
  5
19076
330
19075
100
AcDbEntity
  8
0
100
AcDbBlockBegin
  2
*D21
 70
     1
 10
0.0
 20
0.0
 30
0.0
  3
*D21
  1

  0
LINE
  5
1923F
330
19075
100
AcDbEntity
  8
寸法線
 62
     0
440
 16777216
370
    -2
100
AcDbLine
 10
2702.500011296659
 20
2372.750017369674
 30
0.0
 11
2702.500011296659
 21
2539.999999999998
 31
0.0
  0
LINE
  5
19240
330
19075
100
AcDbEntity
  8
寸法線
 62
     0
440
 16777216
370
    -2
100
AcDbLine
 10
2686.500011296659
 20
2378.749988421025
 30
0.0
 11
2686.500011296659
 21
2539.999999999998
 31
0.0
  0
LINE
  5
19241
330
19075
100
AcDbEntity
  8
寸法線
 62
     0
440
 16777216
370
    -2
100
AcDbLine
 10
2722.500011296659
 20
2529.999999999998
 30
0.0
 11
2742.500011296659
 21
2529.999999999998
 31
0.0
  0
LINE
  5
19242
330
19075
100
AcDbEntity
  8
寸法線
 62
     0
440
 16777216
370
    -2
100
AcDbLine
 10
2666.500011296659
 20
2529.999999999998
 30
0.0
 11
2646.500011296659
 21
2529.999999999998
 31
0.0
  0
LINE
  5
19243
330
19075
100
AcDbEntity
  8
寸法線
 62
     0
440
 16777216
370
    -2
100
AcDbLine
 10
2702.500011296659
 20
2529.999999999998
 30
0.0
 11
2686.500011296659
 21
2529.999999999998
 31
0.0
  0
INSERT
  5
19244
330
19075
100
AcDbEntity
  8
寸法線
 62
     0
440
 16777216
370
    -2
100
AcDbBlockReference
  2
_OPEN
 10
2702.500011296659
 20
2529.999999999998
 30
0.0
 41
20.0
 42
20.0
 43
20.0
 50
180.0
  0
INSERT
  5
19245
330
19075
100
AcDbEntity
  8
寸法線
 62
     0
440
 16777216
370
    -2
100
AcDbBlockReference
  2
_OPEN
 10
2686.500011296659
 20
2529.999999999998
 30
0.0
 41
20.0
 42
20.0
 43
20.0
  0
MTEXT
  5
19246
330
19075
100
AcDbEntity
  8
寸法線
 62
     0
440
 16777216
100
AcDbMText
 10
2694.500011296659
 20
2551.249999999998
 30
0.0
 40
25.0
 41
0.0
 46
0.0
 71
     5
 72
     1
  1
\A1;16
 73
     1
 44
1.0
  0
POINT
  5
19247
330
19075
100
AcDbEntity
  8
Defpoints
 62
     0
440
 16777216
100
AcDbPoint
 10
2702.500011296659
 20
2364.000017369674
 30
0.0
  0
POINT
  5
19248
330
19075
100
AcDbEntity
  8
Defpoints
 62
     0
440
 16777216
100
AcDbPoint
 10
2686.500011296659
 20
2369.999988421024
 30
0.0
  0
POINT
  5
19249
330
19075
100
AcDbEntity
  8
Defpoints
 62
     0
440
 16777216
100
AcDbPoint
 10
2686.500011296659
 20
2529.999999999998
 30
0.0
  0
ENDBLK
  5
19077
330
19075
100
AcDbEntity
  8
0
100
AcDbBlockEnd
  0
BLOCK
  5
19084
330
19083
100
AcDbEntity
  8
0
100
AcDbBlockBegin
  2
*D22
 70
     1
 10
0.0
 20
0.0
 30
0.0
  3
*D22
  1

  0
LINE
  5
1924A
330
19083
100
AcDbEntity
  8
寸法線
 62
     0
440
 16777216
370
    -2
100
AcDbLine
 10
2686.500011296659
 20
2378.749988421025
 30
0.0
 11
2686.500011296659
 21
2539.999999999998
 31
0.0
  0
LINE
  5
1924B
330
19083
100
AcDbEntity
  8
寸法線
 62
     0
440
 16777216
370
    -2
100
AcDbLine
 10
2202.499991390134
 20
2388.750001605376
 30
0.0
 11
2202.499991390134
 21
2539.999999999998
 31
0.0
  0
LINE
  5
1924C
330
19083
100
AcDbEntity
  8
寸法線
 62
     0
440
 16777216
370
    -2
100
AcDbLine
 10
2666.500011296659
 20
2529.999999999998
 30
0.0
 11
2222.499991390134
 21
2529.999999999998
 31
0.0
  0
INSERT
  5
1924D
330
19083
100
AcDbEntity
  8
寸法線
 62
     0
440
 16777216
370
    -2
100
AcDbBlockReference
  2
_OPEN
 10
2686.500011296659
 20
2529.999999999998
 30
0.0
 41
20.0
 42
20.0
 43
20.0
  0
INSERT
  5
1924E
330
19083
100
AcDbEntity
  8
寸法線
 62
     0
440
 16777216
370
    -2
100
AcDbBlockReference
  2
_OPEN
 10
2202.499991390134
 20
2529.999999999998
 30
0.0
 41
20.0
 42
20.0
 43
20.0
 50
180.0
  0
MTEXT
  5
1924F
330
19083
100
AcDbEntity
  8
寸法線
 62
     0
440
 16777216
100
AcDbMText
 10
2444.4999441231
 20
2551.249999999998
 30
0.0
 40
25.0
 41
0.0
 46
0.0
 71
     5
 72
     1
  1
\A1;484
 73
     1
 44
1.0
  0
POINT
  5
19250
330
19083
100
AcDbEntity
  8
Defpoints
 62
     0
440
 16777216
100
AcDbPoint
 10
2686.500011296659
 20
2369.999988421024
 30
0.0
  0
POINT
  5
19251
330
19083
100
AcDbEntity
  8
Defpoints
 62
     0
440
 16777216
100
AcDbPoint
 10
2202.499991390134
 20
2380.000001605376
 30
0.0
  0
POINT
  5
19252
330
19083
100
AcDbEntity
  8
Defpoints
 62
     0
440
 16777216
100
AcDbPoint
 10
2202.499991390134
 20
2529.999999999998
 30
0.0
  0
ENDBLK
  5
19085
330
19083
100
AcDbEntity
  8
0
100
AcDbBlockEnd
  0
BLOCK
  5
19090
330
1908F
100
AcDbEntity
  8
0
100
AcDbBlockBegin
  2
*D23
 70
     1
 10
0.0
 20
0.0
 30
0.0
  3
*D23
  1

  0
LINE
  5
19253
330
1908F
100
AcDbEntity
  8
寸法線
 62
     0
440
 16777216
370
    -2
100
AcDbLine
 10
802.4999714836084
 20
2372.750037219683
 30
0.0
 11
802.4999714836084
 21
2620.000000000003
 31
0.0
  0
LINE
  5
19254
330
1908F
100
AcDbEntity
  8
寸法線
 62
     0
440
 16777216
370
    -2
100
AcDbLine
 10
1302.499991390134
 20
2388.750019850007
 30
0.0
 11
1302.499991390134
 21
2620.000000000003
 31
0.0
  0
LINE
  5
19255
330
1908F
100
AcDbEntity
  8
寸法線
 62
     0
440
 16777216
370
    -2
100
AcDbLine
 10
822.4999714836085
 20
2610.000000000003
 30
0.0
 11
1282.499991390134
 21
2610.000000000003
 31
0.0
  0
INSERT
  5
19256
330
1908F
100
AcDbEntity
  8
寸法線
 62
     0
440
 16777216
370
    -2
100
AcDbBlockReference
  2
_OPEN
 10
802.4999714836084
 20
2610.000000000003
 30
0.0
 41
20.0
 42
20.0
 43
20.0
 50
180.0
  0
INSERT
  5
19257
330
1908F
100
AcDbEntity
  8
寸法線
 62
     0
440
 16777216
370
    -2
100
AcDbBlockReference
  2
_OPEN
 10
1302.499991390134
 20
2610.000000000003
 30
0.0
 41
20.0
 42
20.0
 43
20.0
  0
MTEXT
  5
19258
330
1908F
100
AcDbEntity
  8
寸法線
 62
     0
440
 16777216
100
AcDbMText
 10
1052.499988937567
 20
2631.250000000003
 30
0.0
 40
25.0
 41
0.0
 46
0.0
 71
     5
 72
     1
  1
\A1;500
 73
     1
 44
1.0
  0
MTEXT
  5
19259
330
1908F
100
AcDbEntity
  8
寸法線
 62
     0
440
 16777216
100
AcDbMText
 10
1052.499988937567
 20
2588.750000000003
 30
0.0
 40
25.0
 41
0.0
 46
0.0
 71
     5
 72
     1
  1
\A1;H型鋼（連結部）
 73
     1
 44
1.0
  0
POINT
  5
1925A
330
1908F
100
AcDbEntity
  8
Defpoints
 62
     0
440
 16777216
100
AcDbPoint
 10
802.4999714836084
 20
2364.000037219682
 30
0.0
  0
POINT
  5
1925B
330
1908F
100
AcDbEntity
  8
Defpoints
 62
     0
440
 16777216
100
AcDbPoint
 10
1302.499991390134
 20
2380.000019850007
 30
0.0
  0
POINT
  5
1925C
330
1908F
100
AcDbEntity
  8
Defpoints
 62
     0
440
 16777216
100
AcDbPoint
 10
1302.499991390134
 20
2610.000000000003
 30
0.0
  0
ENDBLK
  5
19091
330
1908F
100
AcDbEntity
  8
0
100
AcDbBlockEnd
  0
BLOCK
  5
1909D
330
1909C
100
AcDbEntity
  8
0
100
AcDbBlockBegin
  2
*D24
 70
     1
 10
0.0
 20
0.0
 30
0.0
  3
*D24
  1

  0
LINE
  5
1925D
330
1909C
100
AcDbEntity
  8
寸法線
 62
     0
440
 16777216
370
    -2
100
AcDbLine
 10
1302.499991390134
 20
2388.750019850007
 30
0.0
 11
1302.499991390134
 21
2619.999999999998
 31
0.0
  0
LINE
  5
1925E
330
1909C
100
AcDbEntity
  8
寸法線
 62
     0
440
 16777216
370
    -2
100
AcDbLine
 10
2202.499991390134
 20
2388.750001605376
 30
0.0
 11
2202.499991390134
 21
2619.999999999998
 31
0.0
  0
LINE
  5
1925F
330
1909C
100
AcDbEntity
  8
寸法線
 62
     0
440
 16777216
370
    -2
100
AcDbLine
 10
1322.499991390134
 20
2609.999999999998
 30
0.0
 11
2182.499991390134
 21
2609.999999999998
 31
0.0
  0
INSERT
  5
19260
330
1909C
100
AcDbEntity
  8
寸法線
 62
     0
440
 16777216
370
    -2
100
AcDbBlockReference
  2
_OPEN
 10
1302.499991390134
 20
2609.999999999998
 30
0.0
 41
20.0
 42
20.0
 43
20.0
 50
180.0
  0
INSERT
  5
19261
330
1909C
100
AcDbEntity
  8
寸法線
 62
     0
440
 16777216
370
    -2
100
AcDbBlockReference
  2
_OPEN
 10
2202.499991390134
 20
2609.999999999998
 30
0.0
 41
20.0
 42
20.0
 43
20.0
  0
MTEXT
  5
19262
330
1909C
100
AcDbEntity
  8
寸法線
 62
     0
440
 16777216
100
AcDbMText
 10
1752.499991390134
 20
2631.249999999998
 30
0.0
 40
25.0
 41
0.0
 46
0.0
 71
     5
 72
     1
  1
\A1;W=900
 73
     1
 44
1.0
  0
MTEXT
  5
19263
330
1909C
100
AcDbEntity
  8
寸法線
 62
     0
440
 16777216
100
AcDbMText
 10
1752.499991390134
 20
2588.749999999998
 30
0.0
 40
25.0
 41
0.0
 46
0.0
 71
     5
 72
     1
  1
\A1;空洞金具
 73
     1
 44
1.0
  0
POINT
  5
19264
330
1909C
100
AcDbEntity
  8
Defpoints
 62
     0
440
 16777216
100
AcDbPoint
 10
1302.499991390134
 20
2380.000019850007
 30
0.0
  0
POINT
  5
19265
330
1909C
100
AcDbEntity
  8
Defpoints
 62
     0
440
 16777216
100
AcDbPoint
 10
2202.499991390134
 20
2380.000001605376
 30
0.0
  0
POINT
  5
19266
330
1909C
100
AcDbEntity
  8
Defpoints
 62
     0
440
 16777216
100
AcDbPoint
 10
2202.499991390134
 20
2609.999999999998
 30
0.0
  0
ENDBLK
  5
1909E
330
1909C
100
AcDbEntity
  8
0
100
AcDbBlockEnd
  0
BLOCK
  5
190AA
330
190A9
100
AcDbEntity
  8
0
100
AcDbBlockBegin
  2
*D25
 70
     1
 10
0.0
 20
0.0
 30
0.0
  3
*D25
  1

  0
LINE
  5
19267
330
190A9
100
AcDbEntity
  8
寸法線
 62
     0
440
 16777216
370
    -2
100
AcDbLine
 10
802.4999714836095
 20
2372.750037219675
 30
0.0
 11
802.4999714836095
 21
2700.000000000005
 31
0.0
  0
LINE
  5
19268
330
190A9
100
AcDbEntity
  8
寸法線
 62
     0
440
 16777216
370
    -2
100
AcDbLine
 10
2702.500011296659
 20
2372.750017369674
 30
0.0
 11
2702.500011296659
 21
2700.000000000005
 31
0.0
  0
LINE
  5
19269
330
190A9
100
AcDbEntity
  8
寸法線
 62
     0
440
 16777216
370
    -2
100
AcDbLine
 10
822.4999714836094
 20
2690.000000000004
 30
0.0
 11
2682.500011296659
 21
2690.000000000004
 31
0.0
  0
INSERT
  5
1926A
330
190A9
100
AcDbEntity
  8
寸法線
 62
     0
440
 16777216
370
    -2
100
AcDbBlockReference
  2
_OPEN
 10
802.4999714836095
 20
2690.000000000004
 30
0.0
 41
20.0
 42
20.0
 43
20.0
 50
180.0
  0
INSERT
  5
1926B
330
190A9
100
AcDbEntity
  8
寸法線
 62
     0
440
 16777216
370
    -2
100
AcDbBlockReference
  2
_OPEN
 10
2702.500011296659
 20
2690.000000000004
 30
0.0
 41
20.0
 42
20.0
 43
20.0
  0
MTEXT
  5
1926C
330
190A9
100
AcDbEntity
  8
寸法線
 62
     0
440
 16777216
100
AcDbMText
 10
1752.499991390134
 20
2711.250000000004
 30
0.0
 40
25.0
 41
0.0
 46
0.0
 71
     5
 72
     1
  1
\A1;スルーサーＢ L=1900
 73
     1
 44
1.0
  0
POINT
  5
1926D
330
190A9
100
AcDbEntity
  8
Defpoints
 62
     0
440
 16777216
100
AcDbPoint
 10
802.4999714836095
 20
2364.000037219675
 30
0.0
  0
POINT
  5
1926E
330
190A9
100
AcDbEntity
  8
Defpoints
 62
     0
440
 16777216
100
AcDbPoint
 10
2702.500011296659
 20
2364.000017369674
 30
0.0
  0
POINT
  5
1926F
330
190A9
100
AcDbEntity
  8
Defpoints
 62
     0
440
 16777216
100
AcDbPoint
 10
2702.500011296659
 20
2690.000000000004
 30
0.0
  0
ENDBLK
  5
190AB
330
190A9
100
AcDbEntity
  8
0
100
AcDbBlockEnd
  0
BLOCK
  5
190B6
330
190B5
100
AcDbEntity
  8
0
100
AcDbBlockBegin
  2
*D26
 70
     1
 10
0.0
 20
0.0
 30
0.0
  3
*D26
  1

  0
LINE
  5
19270
330
190B5
100
AcDbEntity
  8
寸法線
 62
     0
440
 16777216
370
    -2
100
AcDbLine
 10
2702.500006415172
 20
1461.249968964709
 30
0.0
 11
2702.500002788663
 21
1299.999988755009
 31
0.0
  0
LINE
  5
19271
330
190B5
100
AcDbEntity
  8
寸法線
 62
     0
440
 16777216
370
    -2
100
AcDbLine
 10
2202.49993637891
 20
1451.250038922456
 30
0.0
 11
2202.499932977299
 21
1300.000000000003
 31
0.0
  0
LINE
  5
19272
330
190B5
100
AcDbEntity
  8
寸法線
 62
     0
440
 16777216
370
    -2
100
AcDbLine
 10
2682.500003013563
 20
1309.999989204809
 30
0.0
 11
2222.499933202199
 21
1309.999999550203
 31
0.0
  0
INSERT
  5
19273
330
190B5
100
AcDbEntity
  8
寸法線
 62
     0
440
 16777216
370
    -2
100
AcDbBlockReference
  2
_OPEN
 10
2702.500003013563
 20
1309.999988755009
 30
0.0
 41
20.0
 42
20.0
 43
20.0
 50
359.9999987114188
  0
INSERT
  5
19274
330
190B5
100
AcDbEntity
  8
寸法線
 62
     0
440
 16777216
370
    -2
100
AcDbBlockReference
  2
_OPEN
 10
2202.499933202199
 20
1310.000000000003
 30
0.0
 41
20.0
 42
20.0
 43
20.0
 50
179.9999987114188
  0
MTEXT
  5
19275
330
190B5
100
AcDbEntity
  8
寸法線
 62
     0
440
 16777216
100
AcDbMText
 10
2452.499971959401
 20
1331.249994377506
 30
0.0
 40
25.0
 41
0.0
 46
0.0
 71
     5
 72
     1
  1
\A1;500
 11
0.9999999999999998
 21
-0.000000022489985
 31
0.0
 73
     1
 44
1.0
  0
POINT
  5
19276
330
190B5
100
AcDbEntity
  8
Defpoints
 62
     0
440
 16777216
100
AcDbPoint
 10
2702.500006611959
 20
1469.999968964709
 30
0.0
  0
POINT
  5
19277
330
190B5
100
AcDbEntity
  8
Defpoints
 62
     0
440
 16777216
100
AcDbPoint
 10
2202.499936575698
 20
1460.000038922456
 30
0.0
  0
POINT
  5
19278
330
190B5
100
AcDbEntity
  8
Defpoints
 62
     0
440
 16777216
100
AcDbPoint
 10
2202.499933202199
 20
1310.000000000003
 30
0.0
  0
ENDBLK
  5
190B7
330
190B5
100
AcDbEntity
  8
0
100
AcDbBlockEnd
  0
BLOCK
  5
190C2
330
190C1
100
AcDbEntity
  8
0
100
AcDbBlockBegin
  2
*D27
 70
     1
 10
0.0
 20
0.0
 30
0.0
  3
*D27
  1

  0
LINE
  5
19279
330
190C1
100
AcDbEntity
  8
寸法線
 62
     0
440
 16777216
370
    -2
100
AcDbLine
 10
2711.249971483611
 20
2364.000056194722
 30
0.0
 11
2832.499991296718
 21
2364.000056194722
 31
0.0
  0
LINE
  5
1927A
330
190C1
100
AcDbEntity
  8
寸法線
 62
     0
440
 16777216
370
    -2
100
AcDbLine
 10
2711.249971483611
 20
2075.999981755368
 30
0.0
 11
2832.499991296718
 21
2075.999981755368
 31
0.0
  0
LINE
  5
1927B
330
190C1
100
AcDbEntity
  8
寸法線
 62
     0
440
 16777216
370
    -2
100
AcDbLine
 10
2822.499991296718
 20
2344.000056194722
 30
0.0
 11
2822.499991296718
 21
2095.999981755368
 31
0.0
  0
INSERT
  5
1927C
330
190C1
100
AcDbEntity
  8
寸法線
 62
     0
440
 16777216
370
    -2
100
AcDbBlockReference
  2
_OPEN
 10
2822.499991296718
 20
2364.000056194722
 30
0.0
 41
20.0
 42
20.0
 43
20.0
 50
90.0
  0
INSERT
  5
1927D
330
190C1
100
AcDbEntity
  8
寸法線
 62
     0
440
 16777216
370
    -2
100
AcDbBlockReference
  2
_OPEN
 10
2822.499991296718
 20
2075.999981755368
 30
0.0
 41
20.0
 42
20.0
 43
20.0
 50
270.0
  0
MTEXT
  5
1927E
330
190C1
100
AcDbEntity
  8
寸法線
 62
     0
440
 16777216
100
AcDbMText
 10
2801.247530666797
 20
2220.000018975044
 30
0.0
 40
25.0
 41
0.0
 46
0.0
 71
     5
 72
     1
  1
\A1;288
 11
0.0000000000000001
 21
1.0
 31
0.0
 73
     1
 44
1.0
  0
POINT
  5
1927F
330
190C1
100
AcDbEntity
  8
Defpoints
 62
     0
440
 16777216
100
AcDbPoint
 10
2702.499971483611
 20
2364.000056194722
 30
0.0
  0
POINT
  5
19280
330
190C1
100
AcDbEntity
  8
Defpoints
 62
     0
440
 16777216
100
AcDbPoint
 10
2702.499971483611
 20
2075.999981755368
 30
0.0
  0
POINT
  5
19281
330
190C1
100
AcDbEntity
  8
Defpoints
 62
     0
440
 16777216
100
AcDbPoint
 10
2822.499991296718
 20
2075.999981755368
 30
0.0
  0
ENDBLK
  5
190C3
330
190C1
100
AcDbEntity
  8
0
100
AcDbBlockEnd
  0
BLOCK
  5
190CE
330
190CD
100
AcDbEntity
  8
0
100
AcDbBlockBegin
  2
*D28
 70
     1
 10
0.0
 20
0.0
 30
0.0
  3
*D28
  1

  0
LINE
  5
19282
330
190CD
100
AcDbEntity
  8
寸法線
 62
     0
440
 16777216
370
    -2
100
AcDbLine
 10
3397.499991296718
 20
2061.250018975044
 30
0.0
 11
3397.499991296718
 21
1939.999999161934
 31
0.0
  0
LINE
  5
19283
330
190CD
100
AcDbEntity
  8
寸法線
 62
     0
440
 16777216
370
    -2
100
AcDbLine
 10
3097.499991296718
 20
2061.250018975044
 30
0.0
 11
3097.499991296718
 21
1939.999999161934
 31
0.0
  0
LINE
  5
19284
330
190CD
100
AcDbEntity
  8
寸法線
 62
     0
440
 16777216
370
    -2
100
AcDbLine
 10
3377.499991296718
 20
1949.999999161934
 30
0.0
 11
3117.499991296718
 21
1949.999999161934
 31
0.0
  0
INSERT
  5
19285
330
190CD
100
AcDbEntity
  8
寸法線
 62
     0
440
 16777216
370
    -2
100
AcDbBlockReference
  2
_OPEN
 10
3397.499991296718
 20
1949.999999161934
 30
0.0
 41
20.0
 42
20.0
 43
20.0
  0
INSERT
  5
19286
330
190CD
100
AcDbEntity
  8
寸法線
 62
     0
440
 16777216
370
    -2
100
AcDbBlockReference
  2
_OPEN
 10
3097.499991296718
 20
1949.999999161934
 30
0.0
 41
20.0
 42
20.0
 43
20.0
 50
180.0
  0
MTEXT
  5
19287
330
190CD
100
AcDbEntity
  8
寸法線
 62
     0
440
 16777216
100
AcDbMText
 10
3247.499991296718
 20
1971.249999161934
 30
0.0
 40
25.0
 41
0.0
 46
0.0
 71
     5
 72
     1
  1
\A1;300
 73
     1
 44
1.0
  0
POINT
  5
19288
330
190CD
100
AcDbEntity
  8
Defpoints
 62
     0
440
 16777216
100
AcDbPoint
 10
3397.499991296718
 20
2070.000018975044
 30
0.0
  0
POINT
  5
19289
330
190CD
100
AcDbEntity
  8
Defpoints
 62
     0
440
 16777216
100
AcDbPoint
 10
3097.499991296718
 20
2070.000018975044
 30
0.0
  0
POINT
  5
1928A
330
190CD
100
AcDbEntity
  8
Defpoints
 62
     0
440
 16777216
100
AcDbPoint
 10
3097.499991296718
 20
1949.999999161934
 30
0.0
  0
ENDBLK
  5
190CF
330
190CD
100
AcDbEntity
  8
0
100
AcDbBlockEnd
  0
BLOCK
  5
190DA
330
190D9
100
AcDbEntity
  8
0
100
AcDbBlockBegin
  2
*D29
 70
     1
 10
0.0
 20
0.0
 30
0.0
  3
*D29
  1

  0
LINE
  5
1928B
330
190D9
100
AcDbEntity
  8
寸法線
 62
     0
440
 16777216
370
    -2
100
AcDbLine
 10
3088.74999129672
 20
2370.000018975044
 30
0.0
 11
2967.499991296718
 21
2370.000018975044
 31
0.0
  0
LINE
  5
1928C
330
190D9
100
AcDbEntity
  8
寸法線
 62
     0
440
 16777216
370
    -2
100
AcDbLine
 10
3088.74999129672
 20
2070.000018975045
 30
0.0
 11
2967.499991296718
 21
2070.000018975045
 31
0.0
  0
LINE
  5
1928D
330
190D9
100
AcDbEntity
  8
寸法線
 62
     0
440
 16777216
370
    -2
100
AcDbLine
 10
2977.499991296718
 20
2350.000018975044
 30
0.0
 11
2977.499991296718
 21
2090.000018975045
 31
0.0
  0
INSERT
  5
1928E
330
190D9
100
AcDbEntity
  8
寸法線
 62
     0
440
 16777216
370
    -2
100
AcDbBlockReference
  2
_OPEN
 10
2977.499991296718
 20
2370.000018975044
 30
0.0
 41
20.0
 42
20.0
 43
20.0
 50
90.0
  0
INSERT
  5
1928F
330
190D9
100
AcDbEntity
  8
寸法線
 62
     0
440
 16777216
370
    -2
100
AcDbBlockReference
  2
_OPEN
 10
2977.499991296718
 20
2070.000018975045
 30
0.0
 41
20.0
 42
20.0
 43
20.0
 50
270.0
  0
MTEXT
  5
19290
330
190D9
100
AcDbEntity
  8
寸法線
 62
     0
440
 16777216
100
AcDbMText
 10
2956.249991296718
 20
2220.000018975044
 30
0.0
 40
25.0
 41
0.0
 46
0.0
 71
     5
 72
     1
  1
\A1;300
 11
0.0000000000000001
 21
1.0
 31
0.0
 73
     1
 44
1.0
  0
POINT
  5
19291
330
190D9
100
AcDbEntity
  8
Defpoints
 62
     0
440
 16777216
100
AcDbPoint
 10
3097.49999129672
 20
2370.000018975044
 30
0.0
  0
POINT
  5
19292
330
190D9
100
AcDbEntity
  8
Defpoints
 62
     0
440
 16777216
100
AcDbPoint
 10
3097.49999129672
 20
2070.000018975045
 30
0.0
  0
POINT
  5
19293
330
190D9
100
AcDbEntity
  8
Defpoints
 62
     0
440
 16777216
100
AcDbPoint
 10
2977.499991296718
 20
2070.000018975045
 30
0.0
  0
ENDBLK
  5
190DB
330
190D9
100
AcDbEntity
  8
0
100
AcDbBlockEnd
  0
BLOCK
  5
190E6
330
190E5
100
AcDbEntity
  8
0
100
AcDbBlockBegin
  2
*D30
 70
     1
 10
0.0
 20
0.0
 30
0.0
  3
*D30
  1

  0
LINE
  5
19294
330
190E5
100
AcDbEntity
  8
寸法線
 62
     0
440
 16777216
370
    -2
100
AcDbLine
 10
2211.250250641966
 20
1470.000034820449
 30
0.0
 11
2372.499951670498
 21
1470.000034820449
 31
0.0
  0
LINE
  5
19295
330
190E5
100
AcDbEntity
  8
寸法線
 62
     0
440
 16777216
370
    -2
100
AcDbLine
 10
2311.362001843626
 20
1495.000195900154
 30
0.0
 11
2372.499951670498
 21
1495.000195900154
 31
0.0
  0
LINE
  5
19296
330
190E5
100
AcDbEntity
  8
寸法線
 62
     0
440
 16777216
370
    -2
100
AcDbLine
 10
2362.499951670498
 20
1450.000034820449
 30
0.0
 11
2362.499951670498
 21
1430.000034820449
 31
0.0
  0
LINE
  5
19297
330
190E5
100
AcDbEntity
  8
寸法線
 62
     0
440
 16777216
370
    -2
100
AcDbLine
 10
2362.499951670498
 20
1515.000195900154
 30
0.0
 11
2362.499951670498
 21
1535.000195900154
 31
0.0
  0
LINE
  5
19298
330
190E5
100
AcDbEntity
  8
寸法線
 62
     0
440
 16777216
370
    -2
100
AcDbLine
 10
2362.499951670498
 20
1470.000034820449
 30
0.0
 11
2362.499951670498
 21
1495.000195900154
 31
0.0
  0
INSERT
  5
19299
330
190E5
100
AcDbEntity
  8
寸法線
 62
     0
440
 16777216
370
    -2
100
AcDbBlockReference
  2
_OPEN
 10
2362.499951670498
 20
1470.000034820449
 30
0.0
 41
20.0
 42
20.0
 43
20.0
 50
90.0
  0
INSERT
  5
1929A
330
190E5
100
AcDbEntity
  8
寸法線
 62
     0
440
 16777216
370
    -2
100
AcDbBlockReference
  2
_OPEN
 10
2362.499951670498
 20
1495.000195900154
 30
0.0
 41
20.0
 42
20.0
 43
20.0
 50
270.0
  0
MTEXT
  5
1929B
330
190E5
100
AcDbEntity
  8
寸法線
 62
     0
440
 16777216
100
AcDbMText
 10
2341.247491040576
 20
1482.500115360301
 30
0.0
 40
25.0
 41
0.0
 46
0.0
 71
     5
 72
     1
  1
\A1;25
 11
0.0000000000000001
 21
1.0
 31
0.0
 73
     1
 44
1.0
  0
POINT
  5
1929C
330
190E5
100
AcDbEntity
  8
Defpoints
 62
     0
440
 16777216
100
AcDbPoint
 10
2202.500250641966
 20
1470.000034820449
 30
0.0
  0
POINT
  5
1929D
330
190E5
100
AcDbEntity
  8
Defpoints
 62
     0
440
 16777216
100
AcDbPoint
 10
2302.612001843626
 20
1495.000195900154
 30
0.0
  0
POINT
  5
1929E
330
190E5
100
AcDbEntity
  8
Defpoints
 62
     0
440
 16777216
100
AcDbPoint
 10
2362.499951670498
 20
1495.000195900154
 30
0.0
  0
ENDBLK
  5
190E7
330
190E5
100
AcDbEntity
  8
0
100
AcDbBlockEnd
  0
BLOCK
  5
190F4
330
190F3
100
AcDbEntity
  8
0
100
AcDbBlockBegin
  2
*D31
 70
     1
 10
0.0
 20
0.0
 30
0.0
  3
*D31
  1

  0
LINE
  5
1929F
330
190F3
100
AcDbEntity
  8
寸法線
 62
     0
440
 16777216
370
    -2
100
AcDbLine
 10
2291.249951670498
 20
1752.999997600776
 30
0.0
 11
2372.499951670496
 21
1752.999997600776
 31
0.0
  0
LINE
  5
192A0
330
190F3
100
AcDbEntity
  8
寸法線
 62
     0
440
 16777216
370
    -2
100
AcDbLine
 10
2291.249951670498
 20
1736.999997600776
 30
0.0
 11
2372.499951670496
 21
1736.999997600776
 31
0.0
  0
LINE
  5
192A1
330
190F3
100
AcDbEntity
  8
寸法線
 62
     0
440
 16777216
370
    -2
100
AcDbLine
 10
2362.499951670496
 20
1772.999997600776
 30
0.0
 11
2362.499951670496
 21
1792.999997600776
 31
0.0
  0
LINE
  5
192A2
330
190F3
100
AcDbEntity
  8
寸法線
 62
     0
440
 16777216
370
    -2
100
AcDbLine
 10
2362.499951670496
 20
1716.999997600776
 30
0.0
 11
2362.499951670496
 21
1696.999997600776
 31
0.0
  0
LINE
  5
192A3
330
190F3
100
AcDbEntity
  8
寸法線
 62
     0
440
 16777216
370
    -2
100
AcDbLine
 10
2362.499951670496
 20
1752.999997600776
 30
0.0
 11
2362.499951670496
 21
1736.999997600776
 31
0.0
  0
INSERT
  5
192A4
330
190F3
100
AcDbEntity
  8
寸法線
 62
     0
440
 16777216
370
    -2
100
AcDbBlockReference
  2
_OPEN
 10
2362.499951670496
 20
1752.999997600776
 30
0.0
 41
20.0
 42
20.0
 43
20.0
 50
270.0
  0
INSERT
  5
192A5
330
190F3
100
AcDbEntity
  8
寸法線
 62
     0
440
 16777216
370
    -2
100
AcDbBlockReference
  2
_OPEN
 10
2362.499951670496
 20
1736.999997600776
 30
0.0
 41
20.0
 42
20.0
 43
20.0
 50
90.0
  0
MTEXT
  5
192A6
330
190F3
100
AcDbEntity
  8
寸法線
 62
     0
440
 16777216
100
AcDbMText
 10
2341.249951670496
 20
1744.999997600775
 30
0.0
 40
25.0
 41
0.0
 46
0.0
 71
     5
 72
     1
  1
\A1;16
 11
0.0000000000000001
 21
1.0
 31
0.0
 73
     1
 44
1.0
  0
POINT
  5
192A7
330
190F3
100
AcDbEntity
  8
Defpoints
 62
     0
440
 16777216
100
AcDbPoint
 10
2282.499951670498
 20
1752.999997600776
 30
0.0
  0
POINT
  5
192A8
330
190F3
100
AcDbEntity
  8
Defpoints
 62
     0
440
 16777216
100
AcDbPoint
 10
2282.499951670498
 20
1736.999997600776
 30
0.0
  0
POINT
  5
192A9
330
190F3
100
AcDbEntity
  8
Defpoints
 62
     0
440
 16777216
100
AcDbPoint
 10
2362.499951670496
 20
1736.999997600776
 30
0.0
  0
ENDBLK
  5
190F5
330
190F3
100
AcDbEntity
  8
0
100
AcDbBlockEnd
  0
BLOCK
  5
19102
330
19101
100
AcDbEntity
  8
0
100
AcDbBlockBegin
  2
*D32
 70
     1
 10
0.0
 20
0.0
 30
0.0
  3
*D32
  1

  0
LINE
  5
192AA
330
19101
100
AcDbEntity
  8
寸法線
 62
     0
440
 16777216
370
    -2
100
AcDbLine
 10
2527.749991483544
 20
2225.999980149993
 30
0.0
 11
2446.499911857463
 21
2225.999980149993
 31
0.0
  0
LINE
  5
192AB
330
19101
100
AcDbEntity
  8
寸法線
 62
     0
440
 16777216
370
    -2
100
AcDbLine
 10
2527.749991483544
 20
2213.999980149994
 30
0.0
 11
2446.499911857463
 21
2213.999980149994
 31
0.0
  0
LINE
  5
192AC
330
19101
100
AcDbEntity
  8
寸法線
 62
     0
440
 16777216
370
    -2
100
AcDbLine
 10
2456.499911857463
 20
2245.999980149994
 30
0.0
 11
2456.499911857463
 21
2265.999980149993
 31
0.0
  0
LINE
  5
192AD
330
19101
100
AcDbEntity
  8
寸法線
 62
     0
440
 16777216
370
    -2
100
AcDbLine
 10
2456.499911857463
 20
2193.999980149993
 30
0.0
 11
2456.499911857463
 21
2173.999980149993
 31
0.0
  0
LINE
  5
192AE
330
19101
100
AcDbEntity
  8
寸法線
 62
     0
440
 16777216
370
    -2
100
AcDbLine
 10
2456.499911857463
 20
2225.999980149993
 30
0.0
 11
2456.499911857463
 21
2213.999980149994
 31
0.0
  0
INSERT
  5
192AF
330
19101
100
AcDbEntity
  8
寸法線
 62
     0
440
 16777216
370
    -2
100
AcDbBlockReference
  2
_OPEN
 10
2456.499911857463
 20
2225.999980149993
 30
0.0
 41
20.0
 42
20.0
 43
20.0
 50
270.0
  0
INSERT
  5
192B0
330
19101
100
AcDbEntity
  8
寸法線
 62
     0
440
 16777216
370
    -2
100
AcDbBlockReference
  2
_OPEN
 10
2456.499911857463
 20
2213.999980149994
 30
0.0
 41
20.0
 42
20.0
 43
20.0
 50
90.0
  0
MTEXT
  5
192B1
330
19101
100
AcDbEntity
  8
寸法線
 62
     0
440
 16777216
100
AcDbMText
 10
2435.247451227542
 20
2219.999980149992
 30
0.0
 40
25.0
 41
0.0
 46
0.0
 71
     5
 72
     1
  1
\A1;12
 11
0.0000000000000001
 21
1.0
 31
0.0
 73
     1
 44
1.0
  0
POINT
  5
192B2
330
19101
100
AcDbEntity
  8
Defpoints
 62
     0
440
 16777216
100
AcDbPoint
 10
2536.499991483544
 20
2225.999980149993
 30
0.0
  0
POINT
  5
192B3
330
19101
100
AcDbEntity
  8
Defpoints
 62
     0
440
 16777216
100
AcDbPoint
 10
2536.499991483544
 20
2213.999980149994
 30
0.0
  0
POINT
  5
192B4
330
19101
100
AcDbEntity
  8
Defpoints
 62
     0
440
 16777216
100
AcDbPoint
 10
2456.499911857463
 20
2213.999980149994
 30
0.0
  0
ENDBLK
  5
19103
330
19101
100
AcDbEntity
  8
0
100
AcDbBlockEnd
  0
BLOCK
  5
19330
330
1932F
100
AcDbEntity
  8
0
100
AcDbBlockBegin
  2
*D33
 70
     1
 10
0.0
 20
0.0
 30
0.0
  3
*D33
  1

  0
LINE
  5
19451
330
1932F
100
AcDbEntity
  8
寸法線
 62
     0
440
 16777216
370
    -2
100
AcDbLine
 10
491.3440319841019
 20
581.249999999975
 30
0.0
 11
491.3440319841019
 21
459.999999999975
 31
0.0
  0
LINE
  5
19452
330
1932F
100
AcDbEntity
  8
寸法線
 62
     0
440
 16777216
370
    -2
100
AcDbLine
 10
811.344031984102
 20
581.249999999975
 30
0.0
 11
811.344031984102
 21
459.999999999975
 31
0.0
  0
LINE
  5
19453
330
1932F
100
AcDbEntity
  8
寸法線
 62
     0
440
 16777216
370
    -2
100
AcDbLine
 10
511.344031984102
 20
469.9999999999749
 30
0.0
 11
791.3440319841019
 21
469.9999999999749
 31
0.0
  0
INSERT
  5
19454
330
1932F
100
AcDbEntity
  8
寸法線
 62
     0
440
 16777216
370
    -2
100
AcDbBlockReference
  2
_OPEN
 10
491.3440319841019
 20
469.9999999999749
 30
0.0
 41
20.0
 42
20.0
 43
20.0
 50
180.0
  0
INSERT
  5
19455
330
1932F
100
AcDbEntity
  8
寸法線
 62
     0
440
 16777216
370
    -2
100
AcDbBlockReference
  2
_OPEN
 10
811.344031984102
 20
469.9999999999749
 30
0.0
 41
20.0
 42
20.0
 43
20.0
  0
MTEXT
  5
19456
330
1932F
100
AcDbEntity
  8
寸法線
 62
     0
440
 16777216
100
AcDbMText
 10
651.344031984102
 20
491.2524606298962
 30
0.0
 40
25.0
 41
0.0
 46
0.0
 71
     5
 72
     1
  1
\A1;320
 73
     1
 44
1.0
  0
POINT
  5
19457
330
1932F
100
AcDbEntity
  8
Defpoints
 62
     0
440
 16777216
100
AcDbPoint
 10
491.3440319841019
 20
589.9999999999749
 30
0.0
  0
POINT
  5
19458
330
1932F
100
AcDbEntity
  8
Defpoints
 62
     0
440
 16777216
100
AcDbPoint
 10
811.344031984102
 20
589.9999999999749
 30
0.0
  0
POINT
  5
19459
330
1932F
100
AcDbEntity
  8
Defpoints
 62
     0
440
 16777216
100
AcDbPoint
 10
811.344031984102
 20
469.9999999999749
 30
0.0
  0
ENDBLK
  5
19331
330
1932F
100
AcDbEntity
  8
0
100
AcDbBlockEnd
  0
BLOCK
  5
1933C
330
1933B
100
AcDbEntity
  8
0
100
AcDbBlockBegin
  2
*D34
 70
     1
 10
0.0
 20
0.0
 30
0.0
  3
*D34
  1

  0
LINE
  5
1945A
330
1933B
100
AcDbEntity
  8
寸法線
 62
     0
440
 16777216
370
    -2
100
AcDbLine
 10
482.5939680158619
 20
589.9999999999752
 30
0.0
 11
361.3439680158616
 21
589.9999999999752
 31
0.0
  0
LINE
  5
1945B
330
1933B
100
AcDbEntity
  8
寸法線
 62
     0
440
 16777216
370
    -2
100
AcDbLine
 10
482.5939680158619
 20
909.9999999999754
 30
0.0
 11
361.3439680158615
 21
909.9999999999754
 31
0.0
  0
LINE
  5
1945C
330
1933B
100
AcDbEntity
  8
寸法線
 62
     0
440
 16777216
370
    -2
100
AcDbLine
 10
371.3439680158616
 20
609.9999999999752
 30
0.0
 11
371.3439680158615
 21
889.9999999999755
 31
0.0
  0
INSERT
  5
1945D
330
1933B
100
AcDbEntity
  8
寸法線
 62
     0
440
 16777216
370
    -2
100
AcDbBlockReference
  2
_OPEN
 10
371.3439680158616
 20
589.9999999999752
 30
0.0
 41
20.0
 42
20.0
 43
20.0
 50
270.0
  0
INSERT
  5
1945E
330
1933B
100
AcDbEntity
  8
寸法線
 62
     0
440
 16777216
370
    -2
100
AcDbBlockReference
  2
_OPEN
 10
371.3439680158615
 20
909.9999999999754
 30
0.0
 41
20.0
 42
20.0
 43
20.0
 50
90.0
  0
MTEXT
  5
1945F
330
1933B
100
AcDbEntity
  8
寸法線
 62
     0
440
 16777216
100
AcDbMText
 10
350.0915073859405
 20
749.999999999975
 30
0.0
 40
25.0
 41
0.0
 46
0.0
 71
     5
 72
     1
  1
\A1;320
 11
0.0000000000000001
 21
1.0
 31
0.0
 73
     1
 44
1.0
  0
POINT
  5
19460
330
1933B
100
AcDbEntity
  8
Defpoints
 62
     0
440
 16777216
100
AcDbPoint
 10
491.3439680158619
 20
589.9999999999752
 30
0.0
  0
POINT
  5
19461
330
1933B
100
AcDbEntity
  8
Defpoints
 62
     0
440
 16777216
100
AcDbPoint
 10
491.3439680158619
 20
909.9999999999754
 30
0.0
  0
POINT
  5
19462
330
1933B
100
AcDbEntity
  8
Defpoints
 62
     0
440
 16777216
100
AcDbPoint
 10
371.3439680158615
 20
909.9999999999754
 30
0.0
  0
ENDBLK
  5
1933D
330
1933B
100
AcDbEntity
  8
0
100
AcDbBlockEnd
  0
BLOCK
  5
197E3
330
197E2
100
AcDbEntity
  8
0
100
AcDbBlockBegin
  2
*D35
 70
     1
 10
0.0
 20
0.0
 30
0.0
  3
*D35
  1

  0
LINE
  5
19856
330
197E2
100
AcDbEntity
  8
寸法線
 62
     0
440
 16777216
370
    -2
100
AcDbLine
 10
2622.357121199085
 20
713.0784308422436
 30
0.0
 11
2622.680645006211
 21
711.8710235566815
 31
0.0
  0
LINE
  5
19857
330
197E2
100
AcDbEntity
  8
寸法線
 62
     0
440
 16777216
370
    -2
100
AcDbLine
 10
2830.331469693096
 20
786.9223227247946
 30
0.0
 11
2830.007945886349
 21
788.1297300089398
 31
0.0
  0
LINE
  5
19858
330
197E2
100
AcDbEntity
  8
寸法線
 62
     0
440
 16777216
370
    -2
100
AcDbLine
 10
2639.410971080688
 20
726.7066627219384
 30
0.0
 11
2813.277619811873
 21
773.2940908436829
 31
0.0
  0
INSERT
  5
19859
330
197E2
100
AcDbEntity
  8
寸法線
 62
     0
440
 16777216
370
    -2
100
AcDbBlockReference
  2
_OPEN
 10
2620.092454555004
 20
721.5302818195233
 30
0.0
 41
20.0
 42
20.0
 43
20.0
 50
195.0000000010816
  0
INSERT
  5
1985A
330
197E2
100
AcDbEntity
  8
寸法線
 62
     0
440
 16777216
370
    -2
100
AcDbBlockReference
  2
_OPEN
 10
2832.596136337557
 20
778.470471746098
 30
0.0
 41
20.0
 42
20.0
 43
20.0
 50
15.00000000108161
  0
MTEXT
  5
1985B
330
197E2
100
AcDbEntity
  8
寸法線
 62
     0
440
 16777216
100
AcDbMText
 10
2759.480786930962
 20
780.8814391821741
 30
0.0
 40
25.0
 41
0.0
 46
0.0
 71
     5
 72
     1
  1
\A1;%%C220
 11
0.9659258262841825
 21
0.2588190451207553
 31
0.0
 73
     1
 44
1.0
  0
POINT
  5
1985C
330
197E2
100
AcDbEntity
  8
Defpoints
 62
     0
440
 16777216
100
AcDbPoint
 10
2620.092454554279
 20
721.5302818222302
 30
0.0
  0
POINT
  5
1985D
330
197E2
100
AcDbEntity
  8
Defpoints
 62
     0
440
 16777216
100
AcDbPoint
 10
2832.596136337902
 20
778.470471744808
 30
0.0
  0
POINT
  5
1985E
330
197E2
100
AcDbEntity
  8
Defpoints
 62
     0
440
 16777216
100
AcDbPoint
 10
2832.596136337557
 20
778.470471746098
 30
0.0
  0
ENDBLK
  5
197E4
330
197E2
100
AcDbEntity
  8
0
100
AcDbBlockEnd
  0
BLOCK
  5
197EF
330
197EE
100
AcDbEntity
  8
0
100
AcDbBlockBegin
  2
*D36
 70
     1
 10
0.0
 20
0.0
 30
0.0
  3
*D36
  1

  0
LINE
  5
1985F
330
197EE
100
AcDbEntity
  8
寸法線
 62
     0
440
 16777216
370
    -2
100
AcDbLine
 10
2031.344327430211
 20
566.2503767835191
 30
0.0
 11
2031.344327430211
 21
459.9999817553658
 31
0.0
  0
LINE
  5
19860
330
197EE
100
AcDbEntity
  8
寸法線
 62
     0
440
 16777216
370
    -2
100
AcDbLine
 10
2281.344327430211
 20
566.2503767835191
 30
0.0
 11
2281.344327430211
 21
459.9999817553658
 31
0.0
  0
LINE
  5
19861
330
197EE
100
AcDbEntity
  8
寸法線
 62
     0
440
 16777216
370
    -2
100
AcDbLine
 10
2051.344327430211
 20
469.9999817553657
 30
0.0
 11
2261.344327430211
 21
469.9999817553657
 31
0.0
  0
INSERT
  5
19862
330
197EE
100
AcDbEntity
  8
寸法線
 62
     0
440
 16777216
370
    -2
100
AcDbBlockReference
  2
_OPEN
 10
2031.344327430211
 20
469.9999817553657
 30
0.0
 41
20.0
 42
20.0
 43
20.0
 50
180.0
  0
INSERT
  5
19863
330
197EE
100
AcDbEntity
  8
寸法線
 62
     0
440
 16777216
370
    -2
100
AcDbBlockReference
  2
_OPEN
 10
2281.344327430211
 20
469.9999817553657
 30
0.0
 41
20.0
 42
20.0
 43
20.0
  0
MTEXT
  5
19864
330
197EE
100
AcDbEntity
  8
寸法線
 62
     0
440
 16777216
100
AcDbMText
 10
2156.344327430211
 20
491.252442385287
 30
0.0
 40
25.0
 41
0.0
 46
0.0
 71
     5
 72
     1
  1
\A1;250
 73
     1
 44
1.0
  0
POINT
  5
19865
330
197EE
100
AcDbEntity
  8
Defpoints
 62
     0
440
 16777216
100
AcDbPoint
 10
2031.344327430211
 20
575.0003767835192
 30
0.0
  0
POINT
  5
19866
330
197EE
100
AcDbEntity
  8
Defpoints
 62
     0
440
 16777216
100
AcDbPoint
 10
2281.344327430211
 20
575.0003767835192
 30
0.0
  0
POINT
  5
19867
330
197EE
100
AcDbEntity
  8
Defpoints
 62
     0
440
 16777216
100
AcDbPoint
 10
2281.344327430211
 20
469.9999817553657
 30
0.0
  0
ENDBLK
  5
197F0
330
197EE
100
AcDbEntity
  8
0
100
AcDbBlockEnd
  0
BLOCK
  5
197FB
330
197FA
100
AcDbEntity
  8
0
100
AcDbBlockBegin
  2
*D37
 70
     1
 10
0.0
 20
0.0
 30
0.0
  3
*D37
  1

  0
LINE
  5
19868
330
197FA
100
AcDbEntity
  8
寸法線
 62
     0
440
 16777216
370
    -2
100
AcDbLine
 10
2281.344327430211
 20
566.2503767835191
 30
0.0
 11
2281.344327430211
 21
459.9999817553658
 31
0.0
  0
LINE
  5
19869
330
197FA
100
AcDbEntity
  8
寸法線
 62
     0
440
 16777216
370
    -2
100
AcDbLine
 10
2316.343928399088
 20
581.2499817553657
 30
0.0
 11
2316.343928399088
 21
459.9999817553658
 31
0.0
  0
LINE
  5
1986A
330
197FA
100
AcDbEntity
  8
寸法線
 62
     0
440
 16777216
370
    -2
100
AcDbLine
 10
2261.344327430211
 20
469.9999817553657
 30
0.0
 11
2241.344327430211
 21
469.9999817553657
 31
0.0
  0
LINE
  5
1986B
330
197FA
100
AcDbEntity
  8
寸法線
 62
     0
440
 16777216
370
    -2
100
AcDbLine
 10
2336.343928399088
 20
469.9999817553657
 30
0.0
 11
2356.343928399088
 21
469.9999817553657
 31
0.0
  0
LINE
  5
1986C
330
197FA
100
AcDbEntity
  8
寸法線
 62
     0
440
 16777216
370
    -2
100
AcDbLine
 10
2281.344327430211
 20
469.9999817553657
 30
0.0
 11
2316.343928399088
 21
469.9999817553657
 31
0.0
  0
INSERT
  5
1986D
330
197FA
100
AcDbEntity
  8
寸法線
 62
     0
440
 16777216
370
    -2
100
AcDbBlockReference
  2
_OPEN
 10
2281.344327430211
 20
469.9999817553657
 30
0.0
 41
20.0
 42
20.0
 43
20.0
  0
INSERT
  5
1986E
330
197FA
100
AcDbEntity
  8
寸法線
 62
     0
440
 16777216
370
    -2
100
AcDbBlockReference
  2
_OPEN
 10
2316.343928399088
 20
469.9999817553657
 30
0.0
 41
20.0
 42
20.0
 43
20.0
 50
180.0
  0
MTEXT
  5
1986F
330
197FA
100
AcDbEntity
  8
寸法線
 62
     0
440
 16777216
100
AcDbMText
 10
2298.844127914649
 20
491.2499817553658
 30
0.0
 40
25.0
 41
0.0
 46
0.0
 71
     5
 72
     1
  1
\A1;35
 73
     1
 44
1.0
  0
POINT
  5
19870
330
197FA
100
AcDbEntity
  8
Defpoints
 62
     0
440
 16777216
100
AcDbPoint
 10
2281.344327430211
 20
575.0003767835192
 30
0.0
  0
POINT
  5
19871
330
197FA
100
AcDbEntity
  8
Defpoints
 62
     0
440
 16777216
100
AcDbPoint
 10
2316.343928399088
 20
589.9999817553657
 30
0.0
  0
POINT
  5
19872
330
197FA
100
AcDbEntity
  8
Defpoints
 62
     0
440
 16777216
100
AcDbPoint
 10
2316.343928399088
 20
469.9999817553657
 30
0.0
  0
ENDBLK
  5
197FC
330
197FA
100
AcDbEntity
  8
0
100
AcDbBlockEnd
  0
BLOCK
  5
19809
330
19808
100
AcDbEntity
  8
0
100
AcDbBlockBegin
  2
*D38
 70
     1
 10
0.0
 20
0.0
 30
0.0
  3
*D38
  1

  0
LINE
  5
19873
330
19808
100
AcDbEntity
  8
寸法線
 62
     0
440
 16777216
370
    -2
100
AcDbLine
 10
2340.094327430212
 20
625.0003767835194
 30
0.0
 11
2446.343928399088
 21
625.0003767835194
 31
0.0
  0
LINE
  5
19874
330
19808
100
AcDbEntity
  8
寸法線
 62
     0
440
 16777216
370
    -2
100
AcDbLine
 10
2340.094327430212
 20
875.0003767835195
 30
0.0
 11
2446.343928399088
 21
875.0003767835195
 31
0.0
  0
LINE
  5
19875
330
19808
100
AcDbEntity
  8
寸法線
 62
     0
440
 16777216
370
    -2
100
AcDbLine
 10
2436.343928399088
 20
645.0003767835194
 30
0.0
 11
2436.343928399088
 21
855.0003767835196
 31
0.0
  0
INSERT
  5
19876
330
19808
100
AcDbEntity
  8
寸法線
 62
     0
440
 16777216
370
    -2
100
AcDbBlockReference
  2
_OPEN
 10
2436.343928399088
 20
625.0003767835194
 30
0.0
 41
20.0
 42
20.0
 43
20.0
 50
270.0
  0
INSERT
  5
19877
330
19808
100
AcDbEntity
  8
寸法線
 62
     0
440
 16777216
370
    -2
100
AcDbBlockReference
  2
_OPEN
 10
2436.343928399088
 20
875.0003767835195
 30
0.0
 41
20.0
 42
20.0
 43
20.0
 50
90.0
  0
MTEXT
  5
19878
330
19808
100
AcDbEntity
  8
寸法線
 62
     0
440
 16777216
100
AcDbMText
 10
2415.091467769166
 20
750.0003767835192
 30
0.0
 40
25.0
 41
0.0
 46
0.0
 71
     5
 72
     1
  1
\A1;250
 11
0.0000000000000001
 21
1.0
 31
0.0
 73
     1
 44
1.0
  0
POINT
  5
19879
330
19808
100
AcDbEntity
  8
Defpoints
 62
     0
440
 16777216
100
AcDbPoint
 10
2331.344327430212
 20
625.0003767835194
 30
0.0
  0
POINT
  5
1987A
330
19808
100
AcDbEntity
  8
Defpoints
 62
     0
440
 16777216
100
AcDbPoint
 10
2331.344327430212
 20
875.0003767835195
 30
0.0
  0
POINT
  5
1987B
330
19808
100
AcDbEntity
  8
Defpoints
 62
     0
440
 16777216
100
AcDbPoint
 10
2436.343928399088
 20
875.0003767835195
 30
0.0
  0
ENDBLK
  5
1980A
330
19808
100
AcDbEntity
  8
0
100
AcDbBlockEnd
  0
BLOCK
  5
19815
330
19814
100
AcDbEntity
  8
0
100
AcDbBlockBegin
  2
*D39
 70
     1
 10
0.0
 20
0.0
 30
0.0
  3
*D39
  1

  0
LINE
  5
1987C
330
19814
100
AcDbEntity
  8
寸法線
 62
     0
440
 16777216
370
    -2
100
AcDbLine
 10
2325.093928399089
 20
589.9999817553659
 30
0.0
 11
2446.343928399088
 21
589.9999817553659
 31
0.0
  0
LINE
  5
1987D
330
19814
100
AcDbEntity
  8
寸法線
 62
     0
440
 16777216
370
    -2
100
AcDbLine
 10
2340.094327430212
 20
625.0003767835194
 30
0.0
 11
2446.343928399088
 21
625.0003767835194
 31
0.0
  0
LINE
  5
1987E
330
19814
100
AcDbEntity
  8
寸法線
 62
     0
440
 16777216
370
    -2
100
AcDbLine
 10
2436.343928399088
 20
569.9999817553659
 30
0.0
 11
2436.343928399088
 21
549.999981755366
 31
0.0
  0
LINE
  5
1987F
330
19814
100
AcDbEntity
  8
寸法線
 62
     0
440
 16777216
370
    -2
100
AcDbLine
 10
2436.343928399088
 20
645.0003767835194
 30
0.0
 11
2436.343928399088
 21
665.0003767835194
 31
0.0
  0
LINE
  5
19880
330
19814
100
AcDbEntity
  8
寸法線
 62
     0
440
 16777216
370
    -2
100
AcDbLine
 10
2436.343928399088
 20
589.9999817553659
 30
0.0
 11
2436.343928399088
 21
625.0003767835194
 31
0.0
  0
INSERT
  5
19881
330
19814
100
AcDbEntity
  8
寸法線
 62
     0
440
 16777216
370
    -2
100
AcDbBlockReference
  2
_OPEN
 10
2436.343928399088
 20
589.9999817553659
 30
0.0
 41
20.0
 42
20.0
 43
20.0
 50
90.0
  0
INSERT
  5
19882
330
19814
100
AcDbEntity
  8
寸法線
 62
     0
440
 16777216
370
    -2
100
AcDbBlockReference
  2
_OPEN
 10
2436.343928399088
 20
625.0003767835194
 30
0.0
 41
20.0
 42
20.0
 43
20.0
 50
270.0
  0
MTEXT
  5
19883
330
19814
100
AcDbEntity
  8
寸法線
 62
     0
440
 16777216
100
AcDbMText
 10
2415.093928399088
 20
607.5001792694418
 30
0.0
 40
25.0
 41
0.0
 46
0.0
 71
     5
 72
     1
  1
\A1;35
 11
0.0000000000000001
 21
1.0
 31
0.0
 73
     1
 44
1.0
  0
POINT
  5
19884
330
19814
100
AcDbEntity
  8
Defpoints
 62
     0
440
 16777216
100
AcDbPoint
 10
2316.343928399088
 20
589.9999817553659
 30
0.0
  0
POINT
  5
19885
330
19814
100
AcDbEntity
  8
Defpoints
 62
     0
440
 16777216
100
AcDbPoint
 10
2331.344327430212
 20
625.0003767835194
 30
0.0
  0
POINT
  5
19886
330
19814
100
AcDbEntity
  8
Defpoints
 62
     0
440
 16777216
100
AcDbPoint
 10
2436.343928399088
 20
625.0003767835194
 30
0.0
  0
ENDBLK
  5
19816
330
19814
100
AcDbEntity
  8
0
100
AcDbBlockEnd
  0
BLOCK
  5
19823
330
19822
100
AcDbEntity
  8
0
100
AcDbBlockBegin
  2
*D40
 70
     1
 10
0.0
 20
0.0
 30
0.0
  3
*D40
  1

  0
LINE
  5
19887
330
19822
100
AcDbEntity
  8
寸法線
 62
     0
440
 16777216
370
    -2
100
AcDbLine
 10
2340.094327430212
 20
875.0003767835195
 30
0.0
 11
2446.343928399088
 21
875.0003767835195
 31
0.0
  0
LINE
  5
19888
330
19822
100
AcDbEntity
  8
寸法線
 62
     0
440
 16777216
370
    -2
100
AcDbLine
 10
2325.093928399089
 20
909.9999817553662
 30
0.0
 11
2446.343928399088
 21
909.9999817553662
 31
0.0
  0
LINE
  5
19889
330
19822
100
AcDbEntity
  8
寸法線
 62
     0
440
 16777216
370
    -2
100
AcDbLine
 10
2436.343928399088
 20
855.0003767835196
 30
0.0
 11
2436.343928399088
 21
835.0003767835197
 31
0.0
  0
LINE
  5
1988A
330
19822
100
AcDbEntity
  8
寸法線
 62
     0
440
 16777216
370
    -2
100
AcDbLine
 10
2436.343928399088
 20
929.9999817553661
 30
0.0
 11
2436.343928399088
 21
949.9999817553662
 31
0.0
  0
LINE
  5
1988B
330
19822
100
AcDbEntity
  8
寸法線
 62
     0
440
 16777216
370
    -2
100
AcDbLine
 10
2436.343928399088
 20
875.0003767835195
 30
0.0
 11
2436.343928399088
 21
909.9999817553662
 31
0.0
  0
INSERT
  5
1988C
330
19822
100
AcDbEntity
  8
寸法線
 62
     0
440
 16777216
370
    -2
100
AcDbBlockReference
  2
_OPEN
 10
2436.343928399088
 20
875.0003767835195
 30
0.0
 41
20.0
 42
20.0
 43
20.0
 50
90.0
  0
INSERT
  5
1988D
330
19822
100
AcDbEntity
  8
寸法線
 62
     0
440
 16777216
370
    -2
100
AcDbBlockReference
  2
_OPEN
 10
2436.343928399088
 20
909.9999817553662
 30
0.0
 41
20.0
 42
20.0
 43
20.0
 50
270.0
  0
MTEXT
  5
1988E
330
19822
100
AcDbEntity
  8
寸法線
 62
     0
440
 16777216
100
AcDbMText
 10
2415.093928399088
 20
892.500179269442
 30
0.0
 40
25.0
 41
0.0
 46
0.0
 71
     5
 72
     1
  1
\A1;35
 11
0.0000000000000001
 21
1.0
 31
0.0
 73
     1
 44
1.0
  0
POINT
  5
1988F
330
19822
100
AcDbEntity
  8
Defpoints
 62
     0
440
 16777216
100
AcDbPoint
 10
2331.344327430212
 20
875.0003767835195
 30
0.0
  0
POINT
  5
19890
330
19822
100
AcDbEntity
  8
Defpoints
 62
     0
440
 16777216
100
AcDbPoint
 10
2316.343928399088
 20
909.9999817553662
 30
0.0
  0
POINT
  5
19891
330
19822
100
AcDbEntity
  8
Defpoints
 62
     0
440
 16777216
100
AcDbPoint
 10
2436.343928399088
 20
909.9999817553662
 30
0.0
  0
ENDBLK
  5
19824
330
19822
100
AcDbEntity
  8
0
100
AcDbBlockEnd
  0
BLOCK
  5
19831
330
19830
100
AcDbEntity
  8
0
100
AcDbBlockBegin
  2
*D41
 70
     1
 10
0.0
 20
0.0
 30
0.0
  3
*D41
  1

  0
LINE
  5
19892
330
19830
100
AcDbEntity
  8
寸法線
 62
     0
440
 16777216
370
    -2
100
AcDbLine
 10
2546.344295446091
 20
561.2503767835192
 30
0.0
 11
2546.344295446091
 21
459.9999817553658
 31
0.0
  0
LINE
  5
19893
330
19830
100
AcDbEntity
  8
寸法線
 62
     0
440
 16777216
370
    -2
100
AcDbLine
 10
2906.344295446091
 20
561.2503767835192
 30
0.0
 11
2906.344295446091
 21
459.9999817553658
 31
0.0
  0
LINE
  5
19894
330
19830
100
AcDbEntity
  8
寸法線
 62
     0
440
 16777216
370
    -2
100
AcDbLine
 10
2566.344295446091
 20
469.9999817553657
 30
0.0
 11
2886.344295446091
 21
469.9999817553657
 31
0.0
  0
INSERT
  5
19895
330
19830
100
AcDbEntity
  8
寸法線
 62
     0
440
 16777216
370
    -2
100
AcDbBlockReference
  2
_OPEN
 10
2546.344295446091
 20
469.9999817553657
 30
0.0
 41
20.0
 42
20.0
 43
20.0
 50
180.0
  0
INSERT
  5
19896
330
19830
100
AcDbEntity
  8
寸法線
 62
     0
440
 16777216
370
    -2
100
AcDbBlockReference
  2
_OPEN
 10
2906.344295446091
 20
469.9999817553657
 30
0.0
 41
20.0
 42
20.0
 43
20.0
  0
MTEXT
  5
19897
330
19830
100
AcDbEntity
  8
寸法線
 62
     0
440
 16777216
100
AcDbMText
 10
2726.344726461335
 20
491.2499817553658
 30
0.0
 40
25.0
 41
0.0
 46
0.0
 71
     5
 72
     1
  1
\A1;360
 73
     1
 44
1.0
  0
POINT
  5
19898
330
19830
100
AcDbEntity
  8
Defpoints
 62
     0
440
 16777216
100
AcDbPoint
 10
2546.344295446091
 20
570.0003767835191
 30
0.0
  0
POINT
  5
19899
330
19830
100
AcDbEntity
  8
Defpoints
 62
     0
440
 16777216
100
AcDbPoint
 10
2906.344295446091
 20
570.0003767835191
 30
0.0
  0
POINT
  5
1989A
330
19830
100
AcDbEntity
  8
Defpoints
 62
     0
440
 16777216
100
AcDbPoint
 10
2906.344295446091
 20
469.9999817553657
 30
0.0
  0
ENDBLK
  5
19832
330
19830
100
AcDbEntity
  8
0
100
AcDbBlockEnd
  0
BLOCK
  5
1983D
330
1983C
100
AcDbEntity
  8
0
100
AcDbBlockBegin
  2
*D42
 70
     1
 10
0.0
 20
0.0
 30
0.0
  3
*D42
  1

  0
LINE
  5
1989B
330
1983C
100
AcDbEntity
  8
寸法線
 62
     0
440
 16777216
370
    -2
100
AcDbLine
 10
2915.094295446092
 20
570.0003767835194
 30
0.0
 11
3016.344327430211
 21
570.0003767835194
 31
0.0
  0
LINE
  5
1989C
330
1983C
100
AcDbEntity
  8
寸法線
 62
     0
440
 16777216
370
    -2
100
AcDbLine
 10
2915.094295446092
 20
930.0003767835196
 30
0.0
 11
3016.344327430211
 21
930.0003767835196
 31
0.0
  0
LINE
  5
1989D
330
1983C
100
AcDbEntity
  8
寸法線
 62
     0
440
 16777216
370
    -2
100
AcDbLine
 10
3006.344327430211
 20
590.0003767835194
 30
0.0
 11
3006.344327430211
 21
910.0003767835197
 31
0.0
  0
INSERT
  5
1989E
330
1983C
100
AcDbEntity
  8
寸法線
 62
     0
440
 16777216
370
    -2
100
AcDbBlockReference
  2
_OPEN
 10
3006.344327430211
 20
570.0003767835194
 30
0.0
 41
20.0
 42
20.0
 43
20.0
 50
270.0
  0
INSERT
  5
1989F
330
1983C
100
AcDbEntity
  8
寸法線
 62
     0
440
 16777216
370
    -2
100
AcDbBlockReference
  2
_OPEN
 10
3006.344327430211
 20
930.0003767835196
 30
0.0
 41
20.0
 42
20.0
 43
20.0
 50
90.0
  0
MTEXT
  5
198A0
330
1983C
100
AcDbEntity
  8
寸法線
 62
     0
440
 16777216
100
AcDbMText
 10
2985.094327430211
 20
750.0003767835192
 30
0.0
 40
25.0
 41
0.0
 46
0.0
 71
     5
 72
     1
  1
\A1;360
 11
0.0000000000000001
 21
1.0
 31
0.0
 73
     1
 44
1.0
  0
POINT
  5
198A1
330
1983C
100
AcDbEntity
  8
Defpoints
 62
     0
440
 16777216
100
AcDbPoint
 10
2906.344295446092
 20
570.0003767835194
 30
0.0
  0
POINT
  5
198A2
330
1983C
100
AcDbEntity
  8
Defpoints
 62
     0
440
 16777216
100
AcDbPoint
 10
2906.344295446092
 20
930.0003767835196
 30
0.0
  0
POINT
  5
198A3
330
1983C
100
AcDbEntity
  8
Defpoints
 62
     0
440
 16777216
100
AcDbPoint
 10
3006.344327430211
 20
930.0003767835196
 30
0.0
  0
ENDBLK
  5
1983E
330
1983C
100
AcDbEntity
  8
0
100
AcDbBlockEnd
  0
BLOCK
  5
19849
330
19848
100
AcDbEntity
  8
0
100
AcDbBlockBegin
  2
*D43
 70
     1
 10
0.0
 20
0.0
 30
0.0
  3
*D43
  1

  0
LINE
  5
198A4
330
19848
100
AcDbEntity
  8
寸法線
 62
     0
440
 16777216
370
    -2
100
AcDbLine
 10
2031.344263461971
 20
566.2503767835191
 30
0.0
 11
2031.344263461971
 21
459.9999817553658
 31
0.0
  0
LINE
  5
198A5
330
19848
100
AcDbEntity
  8
寸法線
 62
     0
440
 16777216
370
    -2
100
AcDbLine
 10
1996.344662493094
 20
581.2499817553657
 30
0.0
 11
1996.344662493094
 21
459.9999817553658
 31
0.0
  0
LINE
  5
198A6
330
19848
100
AcDbEntity
  8
寸法線
 62
     0
440
 16777216
370
    -2
100
AcDbLine
 10
2051.34426346197
 20
469.9999817553657
 30
0.0
 11
2071.344263461971
 21
469.9999817553657
 31
0.0
  0
LINE
  5
198A7
330
19848
100
AcDbEntity
  8
寸法線
 62
     0
440
 16777216
370
    -2
100
AcDbLine
 10
1976.344662493094
 20
469.9999817553657
 30
0.0
 11
1956.344662493094
 21
469.9999817553657
 31
0.0
  0
LINE
  5
198A8
330
19848
100
AcDbEntity
  8
寸法線
 62
     0
440
 16777216
370
    -2
100
AcDbLine
 10
2031.344263461971
 20
469.9999817553657
 30
0.0
 11
1996.344662493094
 21
469.9999817553657
 31
0.0
  0
INSERT
  5
198A9
330
19848
100
AcDbEntity
  8
寸法線
 62
     0
440
 16777216
370
    -2
100
AcDbBlockReference
  2
_OPEN
 10
2031.344263461971
 20
469.9999817553657
 30
0.0
 41
20.0
 42
20.0
 43
20.0
 50
180.0
  0
INSERT
  5
198AA
330
19848
100
AcDbEntity
  8
寸法線
 62
     0
440
 16777216
370
    -2
100
AcDbBlockReference
  2
_OPEN
 10
1996.344662493094
 20
469.9999817553657
 30
0.0
 41
20.0
 42
20.0
 43
20.0
  0
MTEXT
  5
198AB
330
19848
100
AcDbEntity
  8
寸法線
 62
     0
440
 16777216
100
AcDbMText
 10
2013.844462977532
 20
491.2499817553658
 30
0.0
 40
25.0
 41
0.0
 46
0.0
 71
     5
 72
     1
  1
\A1;35
 73
     1
 44
1.0
  0
POINT
  5
198AC
330
19848
100
AcDbEntity
  8
Defpoints
 62
     0
440
 16777216
100
AcDbPoint
 10
2031.344263461971
 20
575.0003767835192
 30
0.0
  0
POINT
  5
198AD
330
19848
100
AcDbEntity
  8
Defpoints
 62
     0
440
 16777216
100
AcDbPoint
 10
1996.344662493094
 20
589.9999817553657
 30
0.0
  0
POINT
  5
198AE
330
19848
100
AcDbEntity
  8
Defpoints
 62
     0
440
 16777216
100
AcDbPoint
 10
1996.344662493094
 20
469.9999817553657
 30
0.0
  0
ENDBLK
  5
1984A
330
19848
100
AcDbEntity
  8
0
100
AcDbBlockEnd
  0
ENDSEC
  0
SECTION
  2
ENTITIES
  0
LWPOLYLINE
  5
6107
330
1F
100
AcDbEntity
  8
Defpoints
100
AcDbPolyline
 90
        4
 70
     1
 43
0.0
 10
0.0
 20
0.0
 10
4200.0
 20
0.0
 10
4200.0
 20
2970.0
 10
0.0
 20
2970.0
  0
LWPOLYLINE
  5
610F
330
1F
100
AcDbEntity
  8
Defpoints
100
AcDbPolyline
 90
        4
 70
     1
 43
0.0
 10
69.00399999999999
 20
69.1075
 10
4130.996
 20
69.10750000000007
 10
4130.996
 20
2900.8925
 10
69.00399999999999
 20
2900.8925
  0
TEXT
  5
18C9F
330
1F
100
AcDbEntity
  8
寸法線
100
AcDbText
 10
3086.457537936397
 20
606.7561391440013
 30
0.0
 40
25.0
  1
※　H型鋼（連結部）の長さは、切梁メーカー仕様または施工条件により
 11
3086.457537936397
 21
606.7561391440013
 31
0.0
100
AcDbText
 73
     1
  0
TEXT
  5
18CA0
330
1F
100
AcDbEntity
  8
寸法線
100
AcDbText
 10
3086.457537936397
 20
656.7561391440013
 30
0.0
 40
25.0
  1
※　H型鋼（連結部）の穴開け位置は、切梁メーカー仕様による。
 11
3086.457537936397
 21
656.7561391440013
 31
0.0
100
AcDbText
 73
     1
  0
TEXT
  5
18CA1
330
1F
100
AcDbEntity
  8
寸法線
100
AcDbText
 10
3086.457537936397
 20
556.7561391440013
 30
0.0
 40
25.0
  1
　　変更する場合がある。
 11
3086.457537936397
 21
556.7561391440013
 31
0.0
100
AcDbText
 73
     1
  0
TEXT
  5
18CA2
330
1F
100
AcDbEntity
  8
寸法線
100
AcDbText
 10
3086.457537936397
 20
506.7561391440013
 30
0.0
 40
25.0
  1
※　空洞金具部は鉄筋防錆剤塗装仕上げ。
 11
3086.457537936397
 21
506.7561391440013
 31
0.0
100
AcDbText
 73
     1
  0
TEXT
  5
18CA3
330
1F
100
AcDbEntity
  8
寸法線
100
AcDbText
 10
3086.457537936397
 20
456.7561391440013
 30
0.0
 40
25.0
  1
※　H型鋼（連結部）は赤さび塗装仕上げ。
 11
3086.457537936397
 21
456.7561391440013
 31
0.0
100
AcDbText
 73
     1
  0
LINE
  5
18CA4
330
1F
100
AcDbEntity
  8
中心線
100
AcDbLine
 10
777.4999714836094
 20
2220.000037450854
 30
0.0
 11
2727.49997148361
 21
2220.000037276722
 31
0.0
  0
LINE
  5
18CA5
330
1F
100
AcDbEntity
  8
中心線
100
AcDbLine
 10
777.4999714836094
 20
1620.000037450854
 30
0.0
 11
2727.49997148361
 21
1620.000037215619
 31
0.0
  0
DIMENSION
  5
18CA6
330
1F
100
AcDbEntity
  8
寸法線
100
AcDbDimension
280
     0
  2
*D15
 10
1302.500006391522
 20
1309.999999999998
 30
0.0
 11
1052.499988937567
 21
1309.999999999998
 31
0.0
 70
   160
 71
     5
 42
500.0000349079128
 73
     0
 74
     0
 75
     0
  3
STANDARD
100
AcDbAlignedDimension
 13
802.4999714836095
 23
1469.999999999998
 33
0.0
 14
1302.500006391522
 24
1460.000038922456
 34
0.0
100
AcDbRotatedDimension
  0
DIMENSION
  5
18CA7
330
1F
100
AcDbEntity
  8
寸法線
100
AcDbDimension
280
     0
  2
*D16
 10
1302.499991390134
 20
1309.999999999998
 30
0.0
 11
1752.499963982916
 21
1331.249999999998
 31
0.0
 70
    32
 71
     5
 42
899.9999451855638
 73
     0
 74
     0
 75
     0
  3
STANDARD
100
AcDbAlignedDimension
 13
2202.499936575698
 23
1460.000038922456
 33
0.0
 14
1302.499991390134
 24
1460.000019850007
 34
0.0
 50
180.0
100
AcDbRotatedDimension
  0
DIMENSION
  5
18CA8
330
1F
100
AcDbEntity
  8
寸法線
100
AcDbDimension
280
     0
  2
*D17
 10
682.499971483609
 20
1469.999999999999
 30
0.0
 11
682.4999714836094
 21
1620.000018609838
 31
0.0
 70
   160
 71
     5
 42
300.0000372196769
 73
     0
 74
     0
 75
     0
  3
STANDARD
100
AcDbAlignedDimension
 13
802.4999714836095
 23
1770.000037219675
 33
0.0
 14
802.4999714836095
 24
1469.999999999998
 34
0.0
 50
90.0
100
AcDbRotatedDimension
  0
DIMENSION
  5
18CA9
330
1F
100
AcDbEntity
  8
寸法線
100
AcDbDimension
280
     0
  2
*D18
 10
818.4999912967196
 20
2529.999999999998
 30
0.0
 11
810.499981390164
 21
2529.999999999998
 31
0.0
 70
   160
 71
     5
 42
16.00001981311107
 73
     0
 74
     0
 75
     0
  3
STANDARD
100
AcDbAlignedDimension
 13
802.4999714836084
 23
2364.000037219682
 33
0.0
 14
818.4999912967196
 24
2369.999999999998
 34
0.0
100
AcDbRotatedDimension
  0
DIMENSION
  5
18CAA
330
1F
100
AcDbEntity
  8
寸法線
100
AcDbDimension
280
     0
  2
*D19
 10
1302.500059967627
 20
2529.999999999998
 30
0.0
 11
1060.499998844121
 21
2529.999999999998
 31
0.0
 70
   160
 71
     5
 42
484.0000686709081
 73
     0
 74
     0
 75
     0
  3
STANDARD
100
AcDbAlignedDimension
 13
818.4999912967196
 23
2369.999999999998
 33
0.0
 14
1302.500059967627
 24
2380.000019849952
 34
0.0
100
AcDbRotatedDimension
  0
DIMENSION
  5
18CAB
330
1F
100
AcDbEntity
  8
寸法線
100
AcDbDimension
280
     0
  2
*D20
 10
682.4999714836089
 20
2069.999999999999
 30
0.0
 11
682.4999714836094
 21
2219.999999999998
 31
0.0
 70
   160
 71
     5
 42
300.0
 73
     0
 74
     0
 75
     0
  3
STANDARD
100
AcDbAlignedDimension
 13
818.4999912967196
 23
2369.999999999998
 33
0.0
 14
818.4999912967196
 24
2069.999999999998
 34
0.0
 50
90.0
100
AcDbRotatedDimension
  0
DIMENSION
  5
18CAC
330
1F
100
AcDbEntity
  8
寸法線
100
AcDbDimension
280
     0
  2
*D21
 10
2686.500011296659
 20
2529.999999999998
 30
0.0
 11
2694.500011296659
 21
2529.999999999998
 31
0.0
 70
   160
 71
     5
 42
16.0
 73
     0
 74
     0
 75
     0
  3
STANDARD
100
AcDbAlignedDimension
 13
2702.500011296659
 23
2364.000017369674
 33
0.0
 14
2686.500011296659
 24
2369.999988421024
 34
0.0
 50
180.0
100
AcDbRotatedDimension
  0
DIMENSION
  5
18CAD
330
1F
100
AcDbEntity
  8
寸法線
100
AcDbDimension
280
     0
  2
*D22
 10
2202.499991390134
 20
2529.999999999998
 30
0.0
 11
2444.4999441231
 21
2529.999999999998
 31
0.0
 70
   160
 71
     5
 42
484.0000199065253
 73
     0
 74
     0
 75
     0
  3
STANDARD
100
AcDbAlignedDimension
 13
2686.500011296659
 23
2369.999988421024
 33
0.0
 14
2202.499991390134
 24
2380.000001605376
 34
0.0
 50
180.0
100
AcDbRotatedDimension
  0
DIMENSION
  5
18CAE
330
1F
100
AcDbEntity
  8
寸法線
100
AcDbDimension
280
     0
  2
*D23
 10
1302.499991390134
 20
2610.000000000003
 30
0.0
 11
1052.499988937567
 21
2610.000000000003
 31
0.0
 70
   160
  1
<>\XH型鋼（連結部）
 71
     5
 42
500.0000199065253
 73
     0
 74
     0
 75
     0
  3
STANDARD
100
AcDbAlignedDimension
 13
802.4999714836084
 23
2364.000037219682
 33
0.0
 14
1302.499991390134
 24
2380.000019850007
 34
0.0
100
AcDbRotatedDimension
  0
DIMENSION
  5
18CAF
330
1F
100
AcDbEntity
  8
寸法線
100
AcDbDimension
280
     0
  2
*D24
 10
2202.499991390134
 20
2609.999999999998
 30
0.0
 11
1752.499991390134
 21
2609.999999999998
 31
0.0
 70
    32
  1
W=<>\X空洞金具
 71
     5
 42
900.0
 73
     0
 74
     0
 75
     0
  3
STANDARD
100
AcDbAlignedDimension
 13
1302.499991390134
 23
2380.000019850007
 33
0.0
 14
2202.499991390134
 24
2380.000001605376
 34
0.0
100
AcDbRotatedDimension
  0
DIMENSION
  5
18CB0
330
1F
100
AcDbEntity
  8
寸法線
100
AcDbDimension
280
     0
  2
*D25
 10
2702.500011296659
 20
2690.000000000004
 30
0.0
 11
1752.499991390134
 21
2711.250000000004
 31
0.0
 70
    32
  1
スルーサーＢ L=<>
 71
     5
 42
1900.000039813049
 73
     0
 74
     0
 75
     0
  3
STANDARD
100
AcDbAlignedDimension
 13
802.4999714836095
 23
2364.000037219675
 33
0.0
 14
2702.500011296659
 24
2364.000017369674
 34
0.0
100
AcDbRotatedDimension
  0
DIMENSION
  5
18CB1
330
1F
100
AcDbEntity
  8
寸法線
100
AcDbDimension
280
     0
  2
*D26
 10
2202.499933202199
 20
1310.000000000003
 30
0.0
 11
2452.499971481489
 21
1309.999994377506
 31
0.0
 70
   160
 71
     5
 42
500.0000698113636
 73
     0
 74
     0
 75
     0
  3
STANDARD
100
AcDbAlignedDimension
 13
2702.500006611959
 23
1469.999968964709
 33
0.0
 14
2202.499936575698
 24
1460.000038922456
 34
0.0
 50
179.9999987114188
100
AcDbRotatedDimension
  0
LINE
  5
18CB2
330
1F
100
AcDbEntity
  8
実線
100
AcDbLine
 10
1318.499991390134
 20
2060.000019850007
 30
0.0
 11
1318.499991390134
 21
2380.000019850007
 31
0.0
  0
LINE
  5
18CB3
330
1F
100
AcDbEntity
  8
実線
100
AcDbLine
 10
1302.499991390134
 20
2380.000001605376
 30
0.0
 11
1318.499991390134
 21
2380.000001605376
 31
0.0
  0
LINE
  5
18CB4
330
1F
100
AcDbEntity
  8
実線
100
AcDbLine
 10
1302.499991390134
 20
2060.000001605376
 30
0.0
 11
1318.499991390134
 21
2060.000001605376
 31
0.0
  0
LINE
  5
18CB5
330
1F
100
AcDbEntity
  8
実線
100
AcDbLine
 10
2186.499991390134
 20
2060.000019850007
 30
0.0
 11
2186.499991390134
 21
2380.000019850007
 31
0.0
  0
LINE
  5
18CB6
330
1F
100
AcDbEntity
  8
実線
100
AcDbLine
 10
2186.499991390134
 20
2380.000001605376
 30
0.0
 11
2202.499991390134
 21
2380.000001605376
 31
0.0
  0
LINE
  5
18CB7
330
1F
100
AcDbEntity
  8
実線
100
AcDbLine
 10
2186.499991390134
 20
2060.000001605376
 30
0.0
 11
2202.499991390134
 21
2060.000001605376
 31
0.0
  0
LINE
  5
18CB8
330
1F
100
AcDbEntity
  8
実線
100
AcDbLine
 10
1330.499991390134
 20
2115.000001605376
 30
0.0
 11
1350.499991390134
 21
2115.000001605376
 31
0.0
  0
LINE
  5
18CB9
330
1F
100
AcDbEntity
  8
実線
100
AcDbLine
 10
1350.499991390134
 20
2115.000001605376
 30
0.0
 11
1350.499991390134
 21
2325.000001605376
 31
0.0
  0
LINE
  5
18CBA
330
1F
100
AcDbEntity
  8
実線
100
AcDbLine
 10
2154.499991390134
 20
2115.000001605376
 30
0.0
 11
2154.499991390134
 21
2325.000001605376
 31
0.0
  0
LINE
  5
18CBB
330
1F
100
AcDbEntity
  8
実線
100
AcDbLine
 10
2154.499991390134
 20
2115.000001605376
 30
0.0
 11
2174.499991390134
 21
2115.000001605376
 31
0.0
  0
LINE
  5
18CBC
330
1F
100
AcDbEntity
  8
実線
100
AcDbLine
 10
1318.499991390134
 20
2127.000001605376
 30
0.0
 11
1330.499991390134
 21
2115.000001605376
 31
0.0
  0
LINE
  5
18CBD
330
1F
100
AcDbEntity
  8
実線
100
AcDbLine
 10
2174.499991390134
 20
2115.000001605376
 30
0.0
 11
2186.499991390134
 21
2127.000001605376
 31
0.0
  0
LINE
  5
18CBE
330
1F
100
AcDbEntity
  8
実線
100
AcDbLine
 10
1318.499991390134
 20
2120.000001605376
 30
0.0
 11
1325.499991390134
 21
2120.000001605376
 31
0.0
  0
LINE
  5
18CBF
330
1F
100
AcDbEntity
  8
実線
100
AcDbLine
 10
2179.499991390134
 20
2120.000001605376
 30
0.0
 11
2186.499991390134
 21
2120.000001605376
 31
0.0
  0
LINE
  5
18CC0
330
1F
100
AcDbEntity
  8
破線
100
AcDbLine
 10
1325.499991390134
 20
2120.000001605376
 30
0.0
 11
1350.499991390134
 21
2120.000001605376
 31
0.0
  0
LINE
  5
18CC1
330
1F
100
AcDbEntity
  8
破線
100
AcDbLine
 10
2154.499991390134
 20
2120.000001605376
 30
0.0
 11
2179.499991390134
 21
2120.000001605376
 31
0.0
  0
LINE
  5
18CC2
330
1F
100
AcDbEntity
  8
破線
100
AcDbLine
 10
1318.499991390134
 20
2079.000001605376
 30
0.0
 11
1350.499991390134
 21
2079.000001605376
 31
0.0
  0
LINE
  5
18CC3
330
1F
100
AcDbEntity
  8
破線
100
AcDbLine
 10
1350.499991390134
 20
2079.000001605376
 30
0.0
 11
1350.499991390134
 21
2070.000001605376
 31
0.0
  0
LINE
  5
18CC4
330
1F
100
AcDbEntity
  8
破線
100
AcDbLine
 10
2154.499991390134
 20
2320.000001605376
 30
0.0
 11
2179.499991390134
 21
2320.000001605376
 31
0.0
  0
LINE
  5
18CC5
330
1F
100
AcDbEntity
  8
実線
100
AcDbLine
 10
1350.499991390134
 20
2320.000001605376
 30
0.0
 11
1594.499991390136
 21
2320.000001605376
 31
0.0
  0
LINE
  5
18CC6
330
1F
100
AcDbEntity
  8
実線
100
AcDbLine
 10
2179.499991390134
 20
2320.000001605376
 30
0.0
 11
2186.499991390134
 21
2320.000001605376
 31
0.0
  0
LINE
  5
18CC7
330
1F
100
AcDbEntity
  8
実線
100
AcDbLine
 10
1318.499991390134
 20
2370.000001605376
 30
0.0
 11
1594.499991390136
 21
2370.000001605376
 31
0.0
  0
LINE
  5
18CC8
330
1F
100
AcDbEntity
  8
実線
100
AcDbLine
 10
2154.499991390134
 20
2325.000001605376
 30
0.0
 11
2174.499991390134
 21
2325.000001605376
 31
0.0
  0
LINE
  5
18CC9
330
1F
100
AcDbEntity
  8
実線
100
AcDbLine
 10
2174.499991390134
 20
2325.000001605376
 30
0.0
 11
2186.499991390134
 21
2313.000001605376
 31
0.0
  0
LINE
  5
18CCA
330
1F
100
AcDbEntity
  8
破線
100
AcDbLine
 10
1318.499991390134
 20
2361.000001605376
 30
0.0
 11
1350.499991390134
 21
2361.000001605376
 31
0.0
  0
LINE
  5
18CCB
330
1F
100
AcDbEntity
  8
破線
100
AcDbLine
 10
1350.499991390134
 20
2361.000001605376
 30
0.0
 11
1350.499991390134
 21
2370.000001605376
 31
0.0
  0
LINE
  5
18CCC
330
1F
100
AcDbEntity
  8
破線
100
AcDbLine
 10
1325.499991390134
 20
2320.000001605376
 30
0.0
 11
1350.499991390134
 21
2320.000001605376
 31
0.0
  0
LINE
  5
18CCD
330
1F
100
AcDbEntity
  8
実線
100
AcDbLine
 10
1330.499991390134
 20
2325.000001605376
 30
0.0
 11
1350.499991390134
 21
2325.000001605376
 31
0.0
  0
LINE
  5
18CCE
330
1F
100
AcDbEntity
  8
実線
100
AcDbLine
 10
1318.499991390134
 20
2313.000001605376
 30
0.0
 11
1330.499991390134
 21
2325.000001605376
 31
0.0
  0
LINE
  5
18CCF
330
1F
100
AcDbEntity
  8
実線
100
AcDbLine
 10
1318.499991390134
 20
2320.000001605376
 30
0.0
 11
1325.499991390134
 21
2320.000001605376
 31
0.0
  0
LINE
  5
18CD0
330
1F
100
AcDbEntity
  8
破線
100
AcDbLine
 10
2186.499991390134
 20
2079.000001605376
 30
0.0
 11
2154.499991390134
 21
2079.000001605376
 31
0.0
  0
LINE
  5
18CD1
330
1F
100
AcDbEntity
  8
破線
100
AcDbLine
 10
2154.499991390134
 20
2079.000001605376
 30
0.0
 11
2154.499991390134
 21
2070.000001605376
 31
0.0
  0
LINE
  5
18CD2
330
1F
100
AcDbEntity
  8
破線
100
AcDbLine
 10
2154.499991390134
 20
2361.000001605376
 30
0.0
 11
2154.499991390134
 21
2370.000001605376
 31
0.0
  0
LINE
  5
18CD3
330
1F
100
AcDbEntity
  8
破線
100
AcDbLine
 10
2186.499991390134
 20
2361.000001605376
 30
0.0
 11
2154.499991390134
 21
2361.000001605376
 31
0.0
  0
LINE
  5
18CD4
330
1F
100
AcDbEntity
  8
破線
100
AcDbLine
 10
1318.499991390134
 20
2224.500001605376
 30
0.0
 11
1350.499991390134
 21
2224.500001605376
 31
0.0
  0
LINE
  5
18CD5
330
1F
100
AcDbEntity
  8
破線
100
AcDbLine
 10
1318.499991390134
 20
2215.500001605376
 30
0.0
 11
1350.499991390134
 21
2215.500001605376
 31
0.0
  0
LINE
  5
18CD6
330
1F
100
AcDbEntity
  8
破線
100
AcDbLine
 10
2154.499991390134
 20
2224.500001605376
 30
0.0
 11
2186.499991390134
 21
2224.500001605376
 31
0.0
  0
LINE
  5
18CD7
330
1F
100
AcDbEntity
  8
破線
100
AcDbLine
 10
2154.499991390134
 20
2215.500001605376
 30
0.0
 11
2186.499991390134
 21
2215.500001605376
 31
0.0
  0
LINE
  5
18CD8
330
1F
100
AcDbEntity
  8
実線
100
AcDbLine
 10
1302.499991390134
 20
1460.000019850007
 30
0.0
 11
1302.499991390134
 21
1780.000019850007
 31
0.0
  0
LINE
  5
18CD9
330
1F
100
AcDbEntity
  8
実線
100
AcDbLine
 10
1318.499991390134
 20
1460.000019850007
 30
0.0
 11
1318.499991390134
 21
1780.000019850007
 31
0.0
  0
LINE
  5
18CDA
330
1F
100
AcDbEntity
  8
実線
100
AcDbLine
 10
1302.499991390134
 20
1780.000001605376
 30
0.0
 11
1318.499991390134
 21
1780.000001605376
 31
0.0
  0
LINE
  5
18CDB
330
1F
100
AcDbEntity
  8
実線
100
AcDbLine
 10
1302.499991390134
 20
1460.000001605376
 30
0.0
 11
1318.499991390134
 21
1460.000001605376
 31
0.0
  0
LINE
  5
18CDC
330
1F
100
AcDbEntity
  8
実線
100
AcDbLine
 10
2186.499991390134
 20
1460.000019850007
 30
0.0
 11
2186.499991390134
 21
1780.000019850007
 31
0.0
  0
LINE
  5
18CDD
330
1F
100
AcDbEntity
  8
実線
100
AcDbLine
 10
2186.499991390134
 20
1780.000001605376
 30
0.0
 11
2202.499991390134
 21
1780.000001605376
 31
0.0
  0
LINE
  5
18CDE
330
1F
100
AcDbEntity
  8
実線
100
AcDbLine
 10
2186.499991390134
 20
1460.000001605376
 30
0.0
 11
2202.499991390134
 21
1460.000001605376
 31
0.0
  0
LINE
  5
18CDF
330
1F
100
AcDbEntity
  8
実線
100
AcDbLine
 10
1330.499991390134
 20
1515.000001605376
 30
0.0
 11
1350.499991390134
 21
1515.000001605376
 31
0.0
  0
LINE
  5
18CE0
330
1F
100
AcDbEntity
  8
実線
100
AcDbLine
 10
1350.499991390134
 20
1515.000001605376
 30
0.0
 11
1350.499991390134
 21
1725.000001605376
 31
0.0
  0
LINE
  5
18CE1
330
1F
100
AcDbEntity
  8
実線
100
AcDbLine
 10
2154.499991390134
 20
1515.000001605376
 30
0.0
 11
2154.499991390134
 21
1725.000001605376
 31
0.0
  0
LINE
  5
18CE2
330
1F
100
AcDbEntity
  8
実線
100
AcDbLine
 10
2154.499991390134
 20
1515.000001605376
 30
0.0
 11
2174.499991390134
 21
1515.000001605376
 31
0.0
  0
LINE
  5
18CE3
330
1F
100
AcDbEntity
  8
実線
100
AcDbLine
 10
1318.499991390134
 20
1527.000001605376
 30
0.0
 11
1330.499991390134
 21
1515.000001605376
 31
0.0
  0
LINE
  5
18CE4
330
1F
100
AcDbEntity
  8
実線
100
AcDbLine
 10
2174.499991390134
 20
1515.000001605376
 30
0.0
 11
2186.499991390134
 21
1527.000001605376
 31
0.0
  0
LINE
  5
18CE5
330
1F
100
AcDbEntity
  8
実線
100
AcDbLine
 10
1318.499991390134
 20
1520.000001605376
 30
0.0
 11
1325.499991390134
 21
1520.000001605376
 31
0.0
  0
LINE
  5
18CE6
330
1F
100
AcDbEntity
  8
実線
100
AcDbLine
 10
2179.499991390134
 20
1520.000001605376
 30
0.0
 11
2186.499991390134
 21
1520.000001605376
 31
0.0
  0
LINE
  5
18CE7
330
1F
100
AcDbEntity
  8
破線
100
AcDbLine
 10
1325.499991390134
 20
1520.000001605376
 30
0.0
 11
1350.499991390134
 21
1520.000001605376
 31
0.0
  0
LINE
  5
18CE8
330
1F
100
AcDbEntity
  8
破線
100
AcDbLine
 10
2154.499991390134
 20
1520.000001605376
 30
0.0
 11
2179.499991390134
 21
1520.000001605376
 31
0.0
  0
LINE
  5
18CE9
330
1F
100
AcDbEntity
  8
破線
100
AcDbLine
 10
1318.499991390134
 20
1479.000001605376
 30
0.0
 11
1350.499991390134
 21
1479.000001605376
 31
0.0
  0
LINE
  5
18CEA
330
1F
100
AcDbEntity
  8
破線
100
AcDbLine
 10
1350.499991390134
 20
1479.000001605376
 30
0.0
 11
1350.499991390134
 21
1470.000001605376
 31
0.0
  0
LINE
  5
18CEB
330
1F
100
AcDbEntity
  8
破線
100
AcDbLine
 10
2154.499991390134
 20
1720.000001605376
 30
0.0
 11
2179.499991390134
 21
1720.000001605376
 31
0.0
  0
LINE
  5
18CEC
330
1F
100
AcDbEntity
  8
実線
100
AcDbLine
 10
2179.499991390134
 20
1720.000001605376
 30
0.0
 11
2186.499991390134
 21
1720.000001605376
 31
0.0
  0
LINE
  5
18CED
330
1F
100
AcDbEntity
  8
実線
100
AcDbLine
 10
2154.499991390134
 20
1725.000001605376
 30
0.0
 11
2174.499991390134
 21
1725.000001605376
 31
0.0
  0
LINE
  5
18CEE
330
1F
100
AcDbEntity
  8
実線
100
AcDbLine
 10
2174.499991390134
 20
1725.000001605376
 30
0.0
 11
2186.499991390134
 21
1713.000001605376
 31
0.0
  0
LINE
  5
18CEF
330
1F
100
AcDbEntity
  8
破線
100
AcDbLine
 10
1318.499991390134
 20
1761.000001605376
 30
0.0
 11
1350.499991390134
 21
1761.000001605376
 31
0.0
  0
LINE
  5
18CF0
330
1F
100
AcDbEntity
  8
破線
100
AcDbLine
 10
1350.499991390134
 20
1761.000001605376
 30
0.0
 11
1350.499991390134
 21
1770.000001605376
 31
0.0
  0
LINE
  5
18CF1
330
1F
100
AcDbEntity
  8
破線
100
AcDbLine
 10
1325.499991390134
 20
1720.000001605376
 30
0.0
 11
1350.499991390134
 21
1720.000001605376
 31
0.0
  0
LINE
  5
18CF2
330
1F
100
AcDbEntity
  8
実線
100
AcDbLine
 10
1330.499991390134
 20
1725.000001605376
 30
0.0
 11
1350.499991390134
 21
1725.000001605376
 31
0.0
  0
LINE
  5
18CF3
330
1F
100
AcDbEntity
  8
実線
100
AcDbLine
 10
1318.499991390134
 20
1713.000001605376
 30
0.0
 11
1330.499991390134
 21
1725.000001605376
 31
0.0
  0
LINE
  5
18CF4
330
1F
100
AcDbEntity
  8
実線
100
AcDbLine
 10
1318.499991390134
 20
1720.000001605376
 30
0.0
 11
1325.499991390134
 21
1720.000001605376
 31
0.0
  0
LINE
  5
18CF5
330
1F
100
AcDbEntity
  8
破線
100
AcDbLine
 10
2186.499991390134
 20
1479.000001605376
 30
0.0
 11
2154.499991390134
 21
1479.000001605376
 31
0.0
  0
LINE
  5
18CF6
330
1F
100
AcDbEntity
  8
破線
100
AcDbLine
 10
2154.499991390134
 20
1479.000001605376
 30
0.0
 11
2154.499991390134
 21
1470.000001605376
 31
0.0
  0
LINE
  5
18CF7
330
1F
100
AcDbEntity
  8
破線
100
AcDbLine
 10
2154.499991390134
 20
1761.000001605376
 30
0.0
 11
2154.499991390134
 21
1770.000001605376
 31
0.0
  0
LINE
  5
18CF8
330
1F
100
AcDbEntity
  8
破線
100
AcDbLine
 10
2186.499991390134
 20
1761.000001605376
 30
0.0
 11
2154.499991390134
 21
1761.000001605376
 31
0.0
  0
LINE
  5
18CF9
330
1F
100
AcDbEntity
  8
破線
100
AcDbLine
 10
1318.499991390134
 20
1624.500001605376
 30
0.0
 11
1350.499991390134
 21
1624.500001605376
 31
0.0
  0
LINE
  5
18CFA
330
1F
100
AcDbEntity
  8
破線
100
AcDbLine
 10
1318.499991390134
 20
1615.500001605376
 30
0.0
 11
1350.499991390134
 21
1615.500001605376
 31
0.0
  0
LINE
  5
18CFB
330
1F
100
AcDbEntity
  8
破線
100
AcDbLine
 10
2154.499991390134
 20
1624.500001605376
 30
0.0
 11
2186.499991390134
 21
1624.500001605376
 31
0.0
  0
LINE
  5
18CFC
330
1F
100
AcDbEntity
  8
破線
100
AcDbLine
 10
2154.499991390134
 20
1615.500001605376
 30
0.0
 11
2186.499991390134
 21
1615.500001605376
 31
0.0
  0
DIMENSION
  5
18CFD
330
1F
100
AcDbEntity
  8
寸法線
100
AcDbDimension
280
     0
  2
*D27
 10
2822.499991296718
 20
2075.999981755368
 30
0.0
 11
2822.499991296718
 21
2220.000018975044
 31
0.0
 70
   160
 71
     5
 42
288.0000744393537
 73
     0
 74
     0
 75
     0
  3
STANDARD
100
AcDbAlignedDimension
 13
2702.49997148361
 23
2364.000056194721
 33
0.0
 14
2702.49997148361
 24
2075.999981755368
 34
0.0
 50
90.0
100
AcDbRotatedDimension
  0
LINE
  5
18CFE
330
1F
100
AcDbEntity
  8
中心線
100
AcDbLine
 10
3247.499991296718
 20
2045.000018975045
 30
0.0
 11
3247.499991296718
 21
2395.000018975045
 31
0.0
  0
DIMENSION
  5
18CFF
330
1F
100
AcDbEntity
  8
寸法線
100
AcDbDimension
280
     0
  2
*D28
 10
3097.499991296718
 20
1949.999999161934
 30
0.0
 11
3247.499991296718
 21
1949.999999161934
 31
0.0
 70
   160
 71
     5
 42
300.0
 73
     0
 74
     0
 75
     0
  3
STANDARD
100
AcDbAlignedDimension
 13
3397.499991296718
 23
2070.000018975044
 33
0.0
 14
3097.499991296718
 24
2070.000018975044
 34
0.0
100
AcDbRotatedDimension
  0
DIMENSION
  5
18D00
330
1F
100
AcDbEntity
  8
寸法線
100
AcDbDimension
280
     0
  2
*D29
 10
2977.499991296718
 20
2070.000018975045
 30
0.0
 11
2977.499991296718
 21
2220.000018975044
 31
0.0
 70
   160
 71
     5
 42
299.9999999999991
 73
     0
 74
     0
 75
     0
  3
STANDARD
100
AcDbAlignedDimension
 13
3097.499991296718
 23
2370.000018975044
 33
0.0
 14
3097.499991296718
 24
2070.000018975044
 34
0.0
 50
270.0
100
AcDbRotatedDimension
  0
LINE
  5
18D01
330
1F
100
AcDbEntity
  8
中心線
100
AcDbLine
 10
3422.499991296718
 20
2220.000018975044
 30
0.0
 11
3072.499991296718
 21
2220.000018975044
 31
0.0
  0
LINE
  5
18D02
330
1F
100
AcDbEntity
  8
中心線
100
AcDbLine
 10
1292.500094975159
 20
2345.000001605376
 30
0.0
 11
2212.50009497516
 21
2345.000001605376
 31
0.0
  0
LINE
  5
18D03
330
1F
100
AcDbEntity
  8
中心線
100
AcDbLine
 10
1292.500153788347
 20
2094.999974316122
 30
0.0
 11
2212.500153788301
 21
2095.000171928417
 31
0.0
  0
LINE
  5
18D04
330
1F
100
AcDbEntity
  8
中心線
100
AcDbLine
 10
1207.429552474726
 20
1745.000019850007
 30
0.0
 11
2302.611943080734
 21
1745.000019850007
 31
0.0
  0
LINE
  5
18D05
330
1F
100
AcDbEntity
  8
中心線
100
AcDbLine
 10
1207.429611237683
 20
1494.999916102851
 30
0.0
 11
2302.612001843625
 21
1495.000195900154
 31
0.0
  0
LINE
  5
18D06
330
1F
100
AcDbEntity
  8
実線
100
AcDbLine
 10
2702.499971483615
 20
1770.000034820441
 30
0.0
 11
2702.499971483615
 21
1470.000034820441
 31
0.0
  0
LINE
  5
18D07
330
1F
100
AcDbEntity
  8
破線
100
AcDbLine
 10
2676.499971483614
 20
1624.999997600775
 30
0.0
 11
2686.499971483615
 21
1634.999997600775
 31
0.0
  0
LINE
  5
18D08
330
1F
100
AcDbEntity
  8
仮想線
100
AcDbLine
 10
2680.499971483614
 20
1624.999997600775
 30
0.0
 11
2686.499971483615
 21
1630.999997600775
 31
0.0
  0
LINE
  5
18D09
330
1F
100
AcDbEntity
  8
破線
100
AcDbLine
 10
2676.499971483614
 20
1614.999997600761
 30
0.0
 11
2686.499971483615
 21
1604.99999760076
 31
0.0
  0
LINE
  5
18D0A
330
1F
100
AcDbEntity
  8
仮想線
100
AcDbLine
 10
2680.499971483614
 20
1614.999997600761
 30
0.0
 11
2686.499971483615
 21
1608.99999760076
 31
0.0
  0
LINE
  5
18D0B
330
1F
100
AcDbEntity
  8
破線
100
AcDbLine
 10
2686.499971483615
 20
1744.999997600775
 30
0.0
 11
2661.499951670498
 21
1744.999997600775
 31
0.0
  0
LINE
  5
18D0C
330
1F
100
AcDbEntity
  8
破線
100
AcDbLine
 10
2536.499971483615
 20
1655.000034820441
 30
0.0
 11
2536.499971483615
 21
1624.999997600775
 31
0.0
  0
LINE
  5
18D0D
330
1F
100
AcDbEntity
  8
破線
100
AcDbLine
 10
2661.499951670498
 20
1744.999997600775
 30
0.0
 11
2536.499971483615
 21
1655.000034820441
 31
0.0
  0
LINE
  5
18D0E
330
1F
100
AcDbEntity
  8
破線
100
AcDbLine
 10
2536.499971483615
 20
1584.999960381094
 30
0.0
 11
2536.499971483615
 21
1614.999997600761
 31
0.0
  0
LINE
  5
18D0F
330
1F
100
AcDbEntity
  8
破線
100
AcDbLine
 10
2661.499951670498
 20
1494.99999760076
 30
0.0
 11
2536.499971483615
 21
1584.999960381094
 31
0.0
  0
LINE
  5
18D10
330
1F
100
AcDbEntity
  8
破線
100
AcDbLine
 10
2686.499971483615
 20
1494.99999760076
 30
0.0
 11
2661.499951670498
 21
1494.99999760076
 31
0.0
  0
LINE
  5
18D11
330
1F
100
AcDbEntity
  8
実線
100
AcDbLine
 10
2202.499951670498
 20
1470.00014647947
 30
0.0
 11
2702.499971483615
 21
1470.000034820441
 31
0.0
  0
LINE
  5
18D12
330
1F
100
AcDbEntity
  8
破線
100
AcDbLine
 10
2202.499951670498
 20
1615.000072040122
 30
0.0
 11
2686.499971483615
 21
1615.000072040122
 31
0.0
  0
LINE
  5
18D13
330
1F
100
AcDbEntity
  8
破線
100
AcDbLine
 10
2202.499951670498
 20
1625.000072040122
 30
0.0
 11
2686.499971483615
 21
1625.000072040122
 31
0.0
  0
LINE
  5
18D14
330
1F
100
AcDbEntity
  8
実線
100
AcDbLine
 10
2202.499951670498
 20
1769.999997600775
 30
0.0
 11
2702.499971483615
 21
1770.000034820441
 31
0.0
  0
LINE
  5
18D15
330
1F
100
AcDbEntity
  8
実線
100
AcDbLine
 10
2686.499971483615
 20
1769.999997600775
 30
0.0
 11
2686.499971483615
 21
1470.00014647947
 31
0.0
  0
LINE
  5
18D16
330
1F
100
AcDbEntity
  8
破線
100
AcDbLine
 10
2202.499951670498
 20
1752.999997600775
 30
0.0
 11
2282.499951670498
 21
1752.999997600775
 31
0.0
  0
LINE
  5
18D17
330
1F
100
AcDbEntity
  8
破線
100
AcDbLine
 10
2202.499951670498
 20
1736.999997600775
 30
0.0
 11
2282.499951670498
 21
1736.999997600775
 31
0.0
  0
LINE
  5
18D18
330
1F
100
AcDbEntity
  8
破線
100
AcDbLine
 10
2282.499951670498
 20
1752.999997600775
 30
0.0
 11
2282.499951670498
 21
1736.999997600775
 31
0.0
  0
LINE
  5
18D19
330
1F
100
AcDbEntity
  8
破線
100
AcDbLine
 10
2202.499951670498
 20
1487.000146479469
 30
0.0
 11
2282.499951670498
 21
1487.000146479469
 31
0.0
  0
LINE
  5
18D1A
330
1F
100
AcDbEntity
  8
破線
100
AcDbLine
 10
2202.499951670498
 20
1503.00014647947
 30
0.0
 11
2282.499951670498
 21
1503.00014647947
 31
0.0
  0
LINE
  5
18D1B
330
1F
100
AcDbEntity
  8
破線
100
AcDbLine
 10
2282.499951670498
 20
1487.000146479469
 30
0.0
 11
2282.499951670498
 21
1503.00014647947
 31
0.0
  0
LINE
  5
18D1C
330
1F
100
AcDbEntity
  8
実線
100
AcDbLine
 10
2202.499991390133
 20
1460.000017450781
 30
0.0
 11
2202.499991390133
 21
1780.000037300791
 31
0.0
  0
LINE
  5
18D1D
330
1F
100
AcDbEntity
  8
中心線
100
AcDbLine
 10
2652.499971483615
 20
1729.841529581485
 30
0.0
 11
2652.499971483615
 21
1659.841566801166
 31
0.0
  0
LINE
  5
18D1E
330
1F
100
AcDbEntity
  8
中心線
100
AcDbLine
 10
2687.499952873773
 20
1694.841548191333
 30
0.0
 11
2617.499990093448
 21
1694.841548191333
 31
0.0
  0
CIRCLE
  5
18D1F
330
1F
100
AcDbEntity
  8
実線
100
AcDbCircle
 10
2652.499971483615
 20
1694.841548191333
 30
0.0
 40
12.5
  0
LINE
  5
18D20
330
1F
100
AcDbEntity
  8
中心線
100
AcDbLine
 10
2652.499971483615
 20
1509.841629581489
 30
0.0
 11
2652.499971483615
 21
1579.841592361823
 31
0.0
  0
LINE
  5
18D21
330
1F
100
AcDbEntity
  8
中心線
100
AcDbLine
 10
2687.499952873773
 20
1544.841610971656
 30
0.0
 11
2617.499990093448
 21
1544.841610971656
 31
0.0
  0
CIRCLE
  5
18D22
330
1F
100
AcDbEntity
  8
実線
100
AcDbCircle
 10
2652.499971483615
 20
1544.841610971656
 30
0.0
 40
12.5
  0
LINE
  5
18D23
330
1F
100
AcDbEntity
  8
中心線
100
AcDbLine
 10
2552.499971483615
 20
1729.841529581485
 30
0.0
 11
2552.499971483615
 21
1659.841566801166
 31
0.0
  0
LINE
  5
18D24
330
1F
100
AcDbEntity
  8
中心線
100
AcDbLine
 10
2587.499952873774
 20
1694.841548191333
 30
0.0
 11
2517.499990093448
 21
1694.841548191333
 31
0.0
  0
CIRCLE
  5
18D25
330
1F
100
AcDbEntity
  8
実線
100
AcDbCircle
 10
2552.499971483615
 20
1694.841548191333
 30
0.0
 40
12.5
  0
LINE
  5
18D26
330
1F
100
AcDbEntity
  8
中心線
100
AcDbLine
 10
2552.499971483615
 20
1509.841629581489
 30
0.0
 11
2552.499971483615
 21
1579.841592361823
 31
0.0
  0
LINE
  5
18D27
330
1F
100
AcDbEntity
  8
中心線
100
AcDbLine
 10
2587.499952873774
 20
1544.841610971656
 30
0.0
 11
2517.499990093448
 21
1544.841610971656
 31
0.0
  0
CIRCLE
  5
18D28
330
1F
100
AcDbEntity
  8
実線
100
AcDbCircle
 10
2552.499971483615
 20
1544.841610971656
 30
0.0
 40
12.5
  0
LINE
  5
18D29
330
1F
100
AcDbEntity
  8
中心線
100
AcDbLine
 10
2452.499971483614
 20
1729.841529581485
 30
0.0
 11
2452.499971483614
 21
1659.841566801166
 31
0.0
  0
LINE
  5
18D2A
330
1F
100
AcDbEntity
  8
中心線
100
AcDbLine
 10
2487.499952873774
 20
1694.841548191333
 30
0.0
 11
2417.499990093447
 21
1694.841548191333
 31
0.0
  0
CIRCLE
  5
18D2B
330
1F
100
AcDbEntity
  8
実線
100
AcDbCircle
 10
2452.499971483614
 20
1694.841548191333
 30
0.0
 40
12.5
  0
LINE
  5
18D2C
330
1F
100
AcDbEntity
  8
中心線
100
AcDbLine
 10
2452.499971483614
 20
1509.841629581489
 30
0.0
 11
2452.499971483614
 21
1579.841592361823
 31
0.0
  0
LINE
  5
18D2D
330
1F
100
AcDbEntity
  8
中心線
100
AcDbLine
 10
2487.499952873774
 20
1544.841610971656
 30
0.0
 11
2417.499990093447
 21
1544.841610971656
 31
0.0
  0
CIRCLE
  5
18D2E
330
1F
100
AcDbEntity
  8
実線
100
AcDbCircle
 10
2452.499971483614
 20
1544.841610971656
 30
0.0
 40
12.5
  0
LINE
  5
18D2F
330
1F
100
AcDbEntity
  8
中心線
100
AcDbLine
 10
2676.500310174712
 20
1719.938370542914
 30
0.0
 11
2712.500329987821
 21
1719.938370542914
 31
0.0
  0
LINE
  5
18D30
330
1F
100
AcDbEntity
  8
中心線
100
AcDbLine
 10
2676.500310174712
 20
1519.938444266409
 30
0.0
 11
2712.500329987821
 21
1519.938444266409
 31
0.0
  0
DIMENSION
  5
18D31
330
1F
100
AcDbEntity
  8
寸法線
100
AcDbDimension
280
     0
  2
*D30
 10
2362.499951670498
 20
1495.000195900154
 30
0.0
 11
2362.499951670498
 21
1482.500115360301
 31
0.0
 70
   160
 71
     5
 42
25.00016107970532
 73
     0
 74
     0
 75
     0
  3
STANDARD
100
AcDbAlignedDimension
 13
2202.500250641965
 23
1470.000034820448
 33
0.0
 14
2302.612001843625
 24
1495.000195900154
 34
0.0
 50
90.0
100
AcDbRotatedDimension
  0
DIMENSION
  5
18D32
330
1F
100
AcDbEntity
  8
寸法線
100
AcDbDimension
280
     0
  2
*D31
 10
2362.499951670496
 20
1736.999997600776
 30
0.0
 11
2362.499951670496
 21
1744.999997600775
 31
0.0
 70
   160
 71
     5
 42
16.0
 73
     0
 74
     0
 75
     0
  3
STANDARD
100
AcDbAlignedDimension
 13
2282.499951670498
 23
1752.999997600775
 33
0.0
 14
2282.499951670498
 24
1736.999997600775
 34
0.0
 50
270.0
100
AcDbRotatedDimension
1001
ACAD
1000
DSTYLE
1002
{
1070
   271
1070
     1
1002
}
  0
LINE
  5
18D33
330
1F
100
AcDbEntity
  8
実線
100
AcDbLine
 10
2702.500011296659
 20
2364.000017369674
 30
0.0
 11
2702.500011296659
 21
2076.000017369674
 31
0.0
  0
LINE
  5
18D34
330
1F
100
AcDbEntity
  8
実線
100
AcDbLine
 10
2686.500011296659
 20
2369.999988421024
 30
0.0
 11
2686.500011296659
 21
2070.000017369673
 31
0.0
  0
LINE
  5
18D35
330
1F
100
AcDbEntity
  8
実線
100
AcDbLine
 10
2686.500011296659
 20
2369.999988421024
 30
0.0
 11
2202.499991483543
 21
2369.999980149993
 31
0.0
  0
LINE
  5
18D36
330
1F
100
AcDbEntity
  8
実線
100
AcDbLine
 10
2686.500011296659
 20
2354.999980149993
 30
0.0
 11
2202.499991483543
 21
2354.999980149993
 31
0.0
  0
LINE
  5
18D37
330
1F
100
AcDbEntity
  8
実線
100
AcDbLine
 10
2282.500011296659
 20
2354.999980149993
 30
0.0
 11
2282.500011296659
 21
2335.000017369674
 31
0.0
  0
LINE
  5
18D38
330
1F
100
AcDbEntity
  8
実線
100
AcDbLine
 10
2232.499991483543
 20
2304.999980149993
 30
0.0
 11
2202.499991483543
 21
2304.999980149993
 31
0.0
  0
LINE
  5
18D39
330
1F
100
AcDbEntity
  8
実線
100
AcDbLine
 10
2282.500011296659
 20
2335.000017369674
 30
0.0
 11
2232.499991483543
 21
2304.999980149993
 31
0.0
  0
LINE
  5
18D3A
330
1F
100
AcDbEntity
  8
実線
100
AcDbLine
 10
2702.500011296659
 20
2364.000017369674
 30
0.0
 11
2686.500011296659
 21
2364.000017369674
 31
0.0
  0
LINE
  5
18D3B
330
1F
100
AcDbEntity
  8
仮想線
100
AcDbLine
 10
2686.500011296659
 20
2369.999988421024
 30
0.0
 11
2692.499982348018
 21
2364.000017369674
 31
0.0
  0
LINE
  5
18D3C
330
1F
100
AcDbEntity
  8
実線
100
AcDbLine
 10
2686.500011296659
 20
2225.999980149993
 30
0.0
 11
2536.499991483543
 21
2225.999980149993
 31
0.0
  0
LINE
  5
18D3D
330
1F
100
AcDbEntity
  8
実線
100
AcDbLine
 10
2686.500011296659
 20
2213.999980149992
 30
0.0
 11
2536.499991483543
 21
2213.999980149992
 31
0.0
  0
LINE
  5
18D3E
330
1F
100
AcDbEntity
  8
実線
100
AcDbLine
 10
2536.499991483543
 20
2225.999980149993
 30
0.0
 11
2536.499991483543
 21
2213.999980149992
 31
0.0
  0
LINE
  5
18D3F
330
1F
100
AcDbEntity
  8
実線
100
AcDbLine
 10
2212.500011296659
 20
2354.999980149993
 30
0.0
 11
2202.499991483543
 21
2344.999980149992
 31
0.0
  0
LINE
  5
18D40
330
1F
100
AcDbEntity
  8
仮想線
100
AcDbLine
 10
2208.50000337141
 20
2354.999980149993
 30
0.0
 11
2202.499991483543
 21
2348.999980149993
 31
0.0
  0
LINE
  5
18D41
330
1F
100
AcDbEntity
  8
仮想線
100
AcDbLine
 10
2202.499982426664
 20
2376.000003503459
 30
0.0
 11
2208.500005780138
 21
2369.999980149993
 31
0.0
  0
LINE
  5
18D42
330
1F
100
AcDbEntity
  8
実線
100
AcDbLine
 10
2686.500011296659
 20
2069.999970926072
 30
0.0
 11
2202.499991483543
 21
2069.999980149992
 31
0.0
  0
LINE
  5
18D43
330
1F
100
AcDbEntity
  8
実線
100
AcDbLine
 10
2686.500011296659
 20
2084.999980149992
 30
0.0
 11
2202.499991483543
 21
2084.999980149992
 31
0.0
  0
LINE
  5
18D44
330
1F
100
AcDbEntity
  8
実線
100
AcDbLine
 10
2282.500011296659
 20
2084.999980149992
 30
0.0
 11
2282.500011296659
 21
2104.999942930312
 31
0.0
  0
LINE
  5
18D45
330
1F
100
AcDbEntity
  8
実線
100
AcDbLine
 10
2232.499991483543
 20
2134.999980149993
 30
0.0
 11
2202.499991483543
 21
2134.999980149993
 31
0.0
  0
LINE
  5
18D46
330
1F
100
AcDbEntity
  8
実線
100
AcDbLine
 10
2282.500011296659
 20
2104.999942930312
 30
0.0
 11
2232.499991483543
 21
2134.999980149993
 31
0.0
  0
LINE
  5
18D47
330
1F
100
AcDbEntity
  8
実線
100
AcDbLine
 10
2702.500011296659
 20
2075.999942930312
 30
0.0
 11
2686.500011296659
 21
2075.999942930312
 31
0.0
  0
LINE
  5
18D48
330
1F
100
AcDbEntity
  8
仮想線
100
AcDbLine
 10
2686.500011296659
 20
2069.999971878946
 30
0.0
 11
2692.499982348018
 21
2075.999942930312
 31
0.0
  0
LINE
  5
18D49
330
1F
100
AcDbEntity
  8
実線
100
AcDbLine
 10
2212.500011296659
 20
2084.999980149992
 30
0.0
 11
2202.499991483543
 21
2094.999980149992
 31
0.0
  0
LINE
  5
18D4A
330
1F
100
AcDbEntity
  8
仮想線
100
AcDbLine
 10
2208.50000337141
 20
2084.999980149992
 30
0.0
 11
2202.499991483543
 21
2090.999980149993
 31
0.0
  0
LINE
  5
18D4B
330
1F
100
AcDbEntity
  8
仮想線
100
AcDbLine
 10
2202.499982426664
 20
2063.999956796512
 30
0.0
 11
2208.500005780138
 21
2069.999980149992
 31
0.0
  0
LINE
  5
18D4C
330
1F
100
AcDbEntity
  8
実線
100
AcDbLine
 10
2202.499991390134
 20
2059.999999999998
 30
0.0
 11
2202.499991390134
 21
2380.000019850008
 31
0.0
  0
LINE
  5
18D4D
330
1F
100
AcDbEntity
  8
中心線
100
AcDbLine
 10
2652.500075921344
 20
2380.000075267175
 30
0.0
 11
2652.500075921344
 21
2345.000075267175
 31
0.0
  0
LINE
  5
18D4E
330
1F
100
AcDbEntity
  8
中心線
100
AcDbLine
 10
2652.500075921344
 20
2060.00000081751
 30
0.0
 11
2652.500075921344
 21
2095.00000081751
 31
0.0
  0
LINE
  5
18D4F
330
1F
100
AcDbEntity
  8
中心線
100
AcDbLine
 10
2552.500075921344
 20
2380.000075267175
 30
0.0
 11
2552.500075921344
 21
2345.000075267175
 31
0.0
  0
LINE
  5
18D50
330
1F
100
AcDbEntity
  8
中心線
100
AcDbLine
 10
2552.500075921344
 20
2060.00000081751
 30
0.0
 11
2552.500075921344
 21
2095.00000081751
 31
0.0
  0
LINE
  5
18D51
330
1F
100
AcDbEntity
  8
中心線
100
AcDbLine
 10
2452.500075921344
 20
2380.000075267175
 30
0.0
 11
2452.500075921344
 21
2345.000075267175
 31
0.0
  0
LINE
  5
18D52
330
1F
100
AcDbEntity
  8
中心線
100
AcDbLine
 10
2452.500075921344
 20
2060.00000081751
 30
0.0
 11
2452.500075921344
 21
2095.00000081751
 31
0.0
  0
DIMENSION
  5
18D53
330
1F
100
AcDbEntity
  8
寸法線
100
AcDbDimension
280
     0
  2
*D32
 10
2456.499911857463
 20
2213.999980149994
 30
0.0
 11
2456.499911857463
 21
2219.999980149992
 31
0.0
 70
   160
 71
     5
 42
12.0
 73
     0
 74
     0
 75
     0
  3
STANDARD
100
AcDbAlignedDimension
 13
2536.499991483543
 23
2225.999980149993
 33
0.0
 14
2536.499991483543
 24
2213.999980149992
 34
0.0
 50
90.0
100
AcDbRotatedDimension
1001
ACAD
1000
DSTYLE
1002
{
1070
   140
1040
2.5
1002
}
  0
LEADER
  5
18D56
330
1F
100
AcDbEntity
  8
寸法線
100
AcDbLeader
  3
STANDARD
 76
     3
 10
2610.41791613803
 20
2225.999980149993
 30
0.0
 10
2583.131430781832
 20
2282.918720975546
 30
0.0
 10
2418.964795895983
 20
2282.918720975546
 30
0.0
1001
ACAD
1000
DSTYLE
1002
{
1070
   147
1040
0.875
1070
    77
1070
     0
1002
}
  0
TEXT
  5
18D57
330
1F
100
AcDbEntity
  8
寸法線
100
AcDbText
 10
2431.048097448499
 20
2291.66872097556
 30
0.0
 40
25.0
  1
ﾘﾌﾞﾌﾟﾚｰﾄ②
 72
     2
 11
2574.381430781832
 21
2291.66872097556
 31
0.0
100
AcDbText
 73
     1
  0
LINE
  5
18D58
330
1F
100
AcDbEntity
  8
中心線
100
AcDbLine
 10
2676.500050922878
 20
2145.000054231363
 30
0.0
 11
2712.500070735987
 21
2145.000054231363
 31
0.0
  0
LINE
  5
18D59
330
1F
100
AcDbEntity
  8
中心線
100
AcDbLine
 10
2676.500050922878
 20
2295.123235339457
 30
0.0
 11
2712.500070735987
 21
2295.123235339457
 31
0.0
  0
TEXT
  5
18D5A
330
1F
100
AcDbEntity
  8
寸法線
100
AcDbText
 10
3245.862600575055
 20
2497.218402119426
 30
0.0
 40
25.0
  1
主材連結用孔
 72
     2
 11
3419.195933908388
 21
2522.218402119426
 31
0.0
100
AcDbText
 73
     3
  0
LEADER
  5
18D5B
330
1F
100
AcDbEntity
  8
寸法線
100
AcDbLeader
  3
STANDARD
 76
     3
 10
3155.714199671211
 20
2304.422198121884
 30
0.0
 10
3247.500009906555
 20
2490.000048847115
 30
0.0
 10
3421.246439142068
 20
2490.000048847115
 30
0.0
211
-1.0
221
0.0
231
0.0
1001
ACAD
1000
DSTYLE
1002
{
1070
   147
1040
0.875
1070
    77
1070
     0
1002
}
  0
LINE
  5
18D5C
330
1F
100
AcDbEntity
  8
中心線
100
AcDbLine
 10
3147.500009906555
 20
2110.000057397991
 30
0.0
 11
3147.500009906555
 21
2180.000020178317
 31
0.0
  0
CIRCLE
  5
18D5D
330
1F
100
AcDbEntity
  8
実線
100
AcDbCircle
 10
3147.500009906555
 20
2145.000038788154
 30
0.0
 40
12.5
  0
LINE
  5
18D5E
330
1F
100
AcDbEntity
  8
中心線
100
AcDbLine
 10
3182.499991296718
 20
2145.000038788154
 30
0.0
 11
3112.500028516392
 21
2145.000038788154
 31
0.0
  0
LINE
  5
18D5F
330
1F
100
AcDbEntity
  8
中心線
100
AcDbLine
 10
3147.500009906555
 20
2330.000020178317
 30
0.0
 11
3147.500009906555
 21
2260.000057397991
 31
0.0
  0
CIRCLE
  5
18D60
330
1F
100
AcDbEntity
  8
実線
100
AcDbCircle
 10
3147.500009906555
 20
2295.000038788154
 30
0.0
 40
12.5
  0
LINE
  5
18D61
330
1F
100
AcDbEntity
  8
中心線
100
AcDbLine
 10
3182.499991296718
 20
2295.000038788154
 30
0.0
 11
3112.500028516392
 21
2295.000038788154
 31
0.0
  0
LINE
  5
18D62
330
1F
100
AcDbEntity
  8
中心線
100
AcDbLine
 10
3347.500047126228
 20
2110.000057397991
 30
0.0
 11
3347.500047126228
 21
2180.000020178317
 31
0.0
  0
CIRCLE
  5
18D63
330
1F
100
AcDbEntity
  8
実線
100
AcDbCircle
 10
3347.500047126228
 20
2145.000038788154
 30
0.0
 40
12.5
  0
LINE
  5
18D64
330
1F
100
AcDbEntity
  8
中心線
100
AcDbLine
 10
3312.500065736065
 20
2145.000038788154
 30
0.0
 11
3382.500028516392
 21
2145.000038788154
 31
0.0
  0
LINE
  5
18D65
330
1F
100
AcDbEntity
  8
中心線
100
AcDbLine
 10
3347.500047126228
 20
2330.000020178317
 30
0.0
 11
3347.500047126228
 21
2260.000057397991
 31
0.0
  0
CIRCLE
  5
18D66
330
1F
100
AcDbEntity
  8
実線
100
AcDbCircle
 10
3347.500047126228
 20
2295.000038788154
 30
0.0
 40
12.5
  0
LINE
  5
18D67
330
1F
100
AcDbEntity
  8
中心線
100
AcDbLine
 10
3312.500065736065
 20
2295.000038788154
 30
0.0
 11
3382.500028516392
 21
2295.000038788154
 31
0.0
  0
LINE
  5
18D68
330
1F
100
AcDbEntity
  8
実線
100
AcDbLine
 10
3097.500028516392
 20
2076.000038788154
 30
0.0
 11
3397.500028516392
 21
2076.000038788154
 31
0.0
  0
LINE
  5
18D69
330
1F
100
AcDbEntity
  8
実線
100
AcDbLine
 10
3097.500028516392
 20
2364.000038788154
 30
0.0
 11
3397.500028516392
 21
2364.000038788154
 31
0.0
  0
LINE
  5
18D6A
330
1F
100
AcDbEntity
  8
破線
100
AcDbLine
 10
3097.500028516392
 20
2085.000018975045
 30
0.0
 11
3229.500028516392
 21
2085.000018975045
 31
0.0
  0
LINE
  5
18D6B
330
1F
100
AcDbEntity
  8
破線
100
AcDbLine
 10
3242.500028516392
 20
2342.000058601263
 30
0.0
 11
3242.500028516392
 21
2098.000018975045
 31
0.0
  0
ARC
  5
18D6C
330
1F
100
AcDbEntity
  8
破線
100
AcDbCircle
 10
3229.500028516392
 20
2098.000018975045
 30
0.0
 40
13.0
100
AcDbArc
 50
270.0
 51
0.0
  0
LINE
  5
18D6D
330
1F
100
AcDbEntity
  8
破線
100
AcDbLine
 10
3097.500028516392
 20
2355.000058601263
 30
0.0
 11
3229.500028516392
 21
2355.000058601263
 31
0.0
  0
ARC
  5
18D6E
330
1F
100
AcDbEntity
  8
破線
100
AcDbCircle
 10
3229.500028516392
 20
2342.000058601263
 30
0.0
 40
13.0
100
AcDbArc
 50
0.0
 51
90.0
  0
LINE
  5
18D6F
330
1F
100
AcDbEntity
  8
破線
100
AcDbLine
 10
3397.500028516395
 20
2085.000018975045
 30
0.0
 11
3265.500028516392
 21
2085.000018975045
 31
0.0
  0
LINE
  5
18D70
330
1F
100
AcDbEntity
  8
破線
100
AcDbLine
 10
3252.500028516391
 20
2342.000058601263
 30
0.0
 11
3252.500028516391
 21
2098.000018975045
 31
0.0
  0
ARC
  5
18D71
330
1F
100
AcDbEntity
  8
破線
100
AcDbCircle
 10
3265.500028516392
 20
2098.000018975045
 30
0.0
 40
13.0
100
AcDbArc
 50
180.0
 51
270.0
  0
LINE
  5
18D72
330
1F
100
AcDbEntity
  8
破線
100
AcDbLine
 10
3397.500028516395
 20
2355.000058601263
 30
0.0
 11
3265.500028516392
 21
2355.000058601263
 31
0.0
  0
ARC
  5
18D73
330
1F
100
AcDbEntity
  8
破線
100
AcDbCircle
 10
3265.500028516392
 20
2342.000058601263
 30
0.0
 40
13.0
100
AcDbArc
 50
90.0
 51
180.0
  0
LINE
  5
18D74
330
1F
100
AcDbEntity
  8
破線
100
AcDbLine
 10
3122.499991296718
 20
2214.000038788154
 30
0.0
 11
3242.500028516392
 21
2214.000038788154
 31
0.0
  0
LINE
  5
18D75
330
1F
100
AcDbEntity
  8
破線
100
AcDbLine
 10
3122.499991296718
 20
2226.000038788154
 30
0.0
 11
3242.500028516392
 21
2226.000038788154
 31
0.0
  0
LINE
  5
18D76
330
1F
100
AcDbEntity
  8
破線
100
AcDbLine
 10
3122.499991296718
 20
2214.000038788154
 30
0.0
 11
3122.499991296718
 21
2226.000038788154
 31
0.0
  0
LINE
  5
18D77
330
1F
100
AcDbEntity
  8
破線
100
AcDbLine
 10
3372.500065736065
 20
2214.000038788154
 30
0.0
 11
3252.500028516391
 21
2214.000038788154
 31
0.0
  0
LINE
  5
18D78
330
1F
100
AcDbEntity
  8
破線
100
AcDbLine
 10
3372.500065736065
 20
2226.000038788154
 30
0.0
 11
3252.500028516391
 21
2226.000038788154
 31
0.0
  0
LINE
  5
18D79
330
1F
100
AcDbEntity
  8
破線
100
AcDbLine
 10
3372.500065736065
 20
2214.000038788154
 30
0.0
 11
3372.500065736065
 21
2226.000038788154
 31
0.0
  0
LINE
  5
18D7A
330
1F
100
AcDbEntity
  8
実線
100
AcDbLine
 10
3397.500028516392
 20
2370.000038788154
 30
0.0
 11
3397.500028516392
 21
2070.000038788154
 31
0.0
  0
LINE
  5
18D7B
330
1F
100
AcDbEntity
  8
実線
100
AcDbLine
 10
3097.500028516392
 20
2370.000038788154
 30
0.0
 11
3097.500028516392
 21
2070.000038788154
 31
0.0
  0
LINE
  5
18D7C
330
1F
100
AcDbEntity
  8
実線
100
AcDbLine
 10
3097.500028516392
 20
2070.000038788154
 30
0.0
 11
3397.500028516392
 21
2070.000038788154
 31
0.0
  0
LINE
  5
18D7D
330
1F
100
AcDbEntity
  8
実線
100
AcDbLine
 10
3097.500028516392
 20
2370.000038788154
 30
0.0
 11
3397.500028516392
 21
2370.000038788154
 31
0.0
  0
LINE
  5
18D7E
330
1F
100
AcDbEntity
  8
実線
100
AcDbLine
 10
802.4999714836084
 20
2364.000037219682
 30
0.0
 11
802.4999714836084
 21
2076.000037219682
 31
0.0
  0
LINE
  5
18D7F
330
1F
100
AcDbEntity
  8
実線
100
AcDbLine
 10
818.4999714836084
 20
2370.000008271034
 30
0.0
 11
818.4999714836084
 21
2070.000037219682
 31
0.0
  0
LINE
  5
18D80
330
1F
100
AcDbEntity
  8
実線
100
AcDbLine
 10
818.4999714836084
 20
2370.000008271034
 30
0.0
 11
1302.499991296725
 21
2370.000000000001
 31
0.0
  0
LINE
  5
18D81
330
1F
100
AcDbEntity
  8
実線
100
AcDbLine
 10
818.4999714836084
 20
2355.000000000002
 30
0.0
 11
1302.499991296725
 21
2355.000000000002
 31
0.0
  0
LINE
  5
18D82
330
1F
100
AcDbEntity
  8
実線
100
AcDbLine
 10
1222.499971483608
 20
2355.000000000002
 30
0.0
 11
1222.499971483608
 21
2335.000037219682
 31
0.0
  0
LINE
  5
18D83
330
1F
100
AcDbEntity
  8
実線
100
AcDbLine
 10
1272.499991296725
 20
2305.000000000001
 30
0.0
 11
1302.499991296725
 21
2305.000000000001
 31
0.0
  0
LINE
  5
18D84
330
1F
100
AcDbEntity
  8
実線
100
AcDbLine
 10
1222.499971483608
 20
2335.000037219682
 30
0.0
 11
1272.499991296725
 21
2305.000000000001
 31
0.0
  0
LINE
  5
18D85
330
1F
100
AcDbEntity
  8
実線
100
AcDbLine
 10
802.4999714836084
 20
2364.000037219682
 30
0.0
 11
818.4999714836084
 21
2364.000037219682
 31
0.0
  0
LINE
  5
18D86
330
1F
100
AcDbEntity
  8
仮想線
100
AcDbLine
 10
818.4999714836084
 20
2370.000008271034
 30
0.0
 11
812.5000004322501
 21
2364.000037219682
 31
0.0
  0
LINE
  5
18D87
330
1F
100
AcDbEntity
  8
実線
100
AcDbLine
 10
818.4999714836084
 20
2226.000000000002
 30
0.0
 11
968.4999912967251
 21
2226.000000000002
 31
0.0
  0
LINE
  5
18D88
330
1F
100
AcDbEntity
  8
実線
100
AcDbLine
 10
818.4999714836084
 20
2214.000000000002
 30
0.0
 11
968.4999912967251
 21
2214.000000000002
 31
0.0
  0
LINE
  5
18D89
330
1F
100
AcDbEntity
  8
実線
100
AcDbLine
 10
968.4999912967251
 20
2226.000000000002
 30
0.0
 11
968.4999912967251
 21
2214.000000000002
 31
0.0
  0
LINE
  5
18D8A
330
1F
100
AcDbEntity
  8
実線
100
AcDbLine
 10
1292.499971483608
 20
2355.000000000002
 30
0.0
 11
1302.499991296725
 21
2345.000000000001
 31
0.0
  0
LINE
  5
18D8B
330
1F
100
AcDbEntity
  8
仮想線
100
AcDbLine
 10
1296.499979408858
 20
2355.000000000002
 30
0.0
 11
1302.499991296725
 21
2349.000000000001
 31
0.0
  0
LINE
  5
18D8C
330
1F
100
AcDbEntity
  8
仮想線
100
AcDbLine
 10
1302.500000353604
 20
2376.000023353468
 30
0.0
 11
1296.49997700013
 21
2370.000000000001
 31
0.0
  0
LINE
  5
18D8D
330
1F
100
AcDbEntity
  8
実線
100
AcDbLine
 10
818.4999714836084
 20
2069.999990776081
 30
0.0
 11
1302.499991296725
 21
2070.000000000002
 31
0.0
  0
LINE
  5
18D8E
330
1F
100
AcDbEntity
  8
実線
100
AcDbLine
 10
818.4999714836084
 20
2085.000000000002
 30
0.0
 11
1302.499991296725
 21
2085.000000000002
 31
0.0
  0
LINE
  5
18D8F
330
1F
100
AcDbEntity
  8
実線
100
AcDbLine
 10
1222.499971483608
 20
2085.000000000002
 30
0.0
 11
1222.499971483608
 21
2104.99996278032
 31
0.0
  0
LINE
  5
18D90
330
1F
100
AcDbEntity
  8
実線
100
AcDbLine
 10
1272.499991296725
 20
2135.000000000002
 30
0.0
 11
1302.499991296725
 21
2135.000000000002
 31
0.0
  0
LINE
  5
18D91
330
1F
100
AcDbEntity
  8
実線
100
AcDbLine
 10
1222.499971483608
 20
2104.99996278032
 30
0.0
 11
1272.499991296725
 21
2135.000000000002
 31
0.0
  0
LINE
  5
18D92
330
1F
100
AcDbEntity
  8
実線
100
AcDbLine
 10
802.4999714836084
 20
2075.99996278032
 30
0.0
 11
818.4999714836084
 21
2075.99996278032
 31
0.0
  0
LINE
  5
18D93
330
1F
100
AcDbEntity
  8
仮想線
100
AcDbLine
 10
818.4999714836084
 20
2069.999991728955
 30
0.0
 11
812.5000004322501
 21
2075.99996278032
 31
0.0
  0
LINE
  5
18D94
330
1F
100
AcDbEntity
  8
実線
100
AcDbLine
 10
1292.499971483608
 20
2085.000000000002
 30
0.0
 11
1302.499991296725
 21
2095.000000000001
 31
0.0
  0
LINE
  5
18D95
330
1F
100
AcDbEntity
  8
仮想線
100
AcDbLine
 10
1296.499979408858
 20
2085.000000000002
 30
0.0
 11
1302.499991296725
 21
2091.000000000001
 31
0.0
  0
LINE
  5
18D96
330
1F
100
AcDbEntity
  8
仮想線
100
AcDbLine
 10
1302.500000353604
 20
2063.99997664652
 30
0.0
 11
1296.49997700013
 21
2070.000000000002
 31
0.0
  0
LINE
  5
18D97
330
1F
100
AcDbEntity
  8
実線
100
AcDbLine
 10
1302.499991390134
 20
2060.000019850007
 30
0.0
 11
1302.499991390134
 21
2380.000019850007
 31
0.0
  0
LINE
  5
18D98
330
1F
100
AcDbEntity
  8
中心線
100
AcDbLine
 10
852.499906858924
 20
2380.000095117184
 30
0.0
 11
852.499906858924
 21
2345.000095117184
 31
0.0
  0
LINE
  5
18D99
330
1F
100
AcDbEntity
  8
中心線
100
AcDbLine
 10
852.499906858924
 20
2060.000020667519
 30
0.0
 11
852.499906858924
 21
2095.000020667519
 31
0.0
  0
LINE
  5
18D9A
330
1F
100
AcDbEntity
  8
中心線
100
AcDbLine
 10
952.499906858924
 20
2380.000095117184
 30
0.0
 11
952.499906858924
 21
2345.000095117184
 31
0.0
  0
LINE
  5
18D9B
330
1F
100
AcDbEntity
  8
中心線
100
AcDbLine
 10
952.499906858924
 20
2060.000020667519
 30
0.0
 11
952.499906858924
 21
2095.000020667519
 31
0.0
  0
LINE
  5
18D9C
330
1F
100
AcDbEntity
  8
中心線
100
AcDbLine
 10
1052.499906858924
 20
2380.000095117184
 30
0.0
 11
1052.499906858924
 21
2345.000095117184
 31
0.0
  0
LINE
  5
18D9D
330
1F
100
AcDbEntity
  8
中心線
100
AcDbLine
 10
1052.499906858924
 20
2060.000020667519
 30
0.0
 11
1052.499906858924
 21
2095.000020667519
 31
0.0
  0
LINE
  5
18D9E
330
1F
100
AcDbEntity
  8
中心線
100
AcDbLine
 10
792.500011109827
 20
2145.000056711711
 30
0.0
 11
828.5000309229362
 21
2145.000056711711
 31
0.0
  0
LINE
  5
18D9F
330
1F
100
AcDbEntity
  8
中心線
100
AcDbLine
 10
792.500011109827
 20
2295.123237819791
 30
0.0
 11
828.5000309229362
 21
2295.123237819791
 31
0.0
  0
LINE
  5
18DA0
330
1F
100
AcDbEntity
  8
実線
100
AcDbLine
 10
802.5000112966509
 20
1770.000037219667
 30
0.0
 11
802.5000112966509
 21
1470.000037219668
 31
0.0
  0
LINE
  5
18DA1
330
1F
100
AcDbEntity
  8
破線
100
AcDbLine
 10
828.5000112966509
 20
1625.000000000001
 30
0.0
 11
818.5000112966509
 21
1635.000000000001
 31
0.0
  0
LINE
  5
18DA2
330
1F
100
AcDbEntity
  8
仮想線
100
AcDbLine
 10
824.5000112966508
 20
1625.000000000001
 30
0.0
 11
818.5000112966509
 21
1631.000000000001
 31
0.0
  0
LINE
  5
18DA3
330
1F
100
AcDbEntity
  8
破線
100
AcDbLine
 10
828.5000112966509
 20
1614.999999999987
 30
0.0
 11
818.5000112966509
 21
1604.999999999987
 31
0.0
  0
LINE
  5
18DA4
330
1F
100
AcDbEntity
  8
仮想線
100
AcDbLine
 10
824.5000112966508
 20
1614.999999999987
 30
0.0
 11
818.5000112966509
 21
1608.999999999987
 31
0.0
  0
LINE
  5
18DA5
330
1F
100
AcDbEntity
  8
破線
100
AcDbLine
 10
818.5000112966509
 20
1745.000000000001
 30
0.0
 11
843.5000311097683
 21
1745.000000000001
 31
0.0
  0
LINE
  5
18DA6
330
1F
100
AcDbEntity
  8
破線
100
AcDbLine
 10
968.5000112966509
 20
1655.000037219668
 30
0.0
 11
968.5000112966509
 21
1625.000000000001
 31
0.0
  0
LINE
  5
18DA7
330
1F
100
AcDbEntity
  8
破線
100
AcDbLine
 10
843.5000311097683
 20
1745.000000000001
 30
0.0
 11
968.5000112966509
 21
1655.000037219668
 31
0.0
  0
LINE
  5
18DA8
330
1F
100
AcDbEntity
  8
破線
100
AcDbLine
 10
968.5000112966509
 20
1584.99996278032
 30
0.0
 11
968.5000112966509
 21
1614.999999999987
 31
0.0
  0
LINE
  5
18DA9
330
1F
100
AcDbEntity
  8
破線
100
AcDbLine
 10
843.5000311097683
 20
1494.999999999987
 30
0.0
 11
968.5000112966509
 21
1584.99996278032
 31
0.0
  0
LINE
  5
18DAA
330
1F
100
AcDbEntity
  8
破線
100
AcDbLine
 10
818.5000112966509
 20
1494.999999999987
 30
0.0
 11
843.5000311097683
 21
1494.999999999987
 31
0.0
  0
LINE
  5
18DAB
330
1F
100
AcDbEntity
  8
実線
100
AcDbLine
 10
1302.500031109768
 20
1470.000148878696
 30
0.0
 11
802.5000112966509
 21
1470.000037219668
 31
0.0
  0
LINE
  5
18DAC
330
1F
100
AcDbEntity
  8
破線
100
AcDbLine
 10
1302.500031109768
 20
1615.000074439349
 30
0.0
 11
818.5000112966509
 21
1615.000074439349
 31
0.0
  0
LINE
  5
18DAD
330
1F
100
AcDbEntity
  8
破線
100
AcDbLine
 10
1302.500031109768
 20
1625.000074439349
 30
0.0
 11
818.5000112966509
 21
1625.000074439349
 31
0.0
  0
LINE
  5
18DAE
330
1F
100
AcDbEntity
  8
実線
100
AcDbLine
 10
1302.500031109768
 20
1770.000000000001
 30
0.0
 11
802.5000112966509
 21
1770.000037219667
 31
0.0
  0
LINE
  5
18DAF
330
1F
100
AcDbEntity
  8
実線
100
AcDbLine
 10
818.5000112966509
 20
1770.000000000001
 30
0.0
 11
818.5000112966509
 21
1470.000148878696
 31
0.0
  0
LINE
  5
18DB0
330
1F
100
AcDbEntity
  8
破線
100
AcDbLine
 10
1302.500031109768
 20
1753.000000000001
 30
0.0
 11
1222.500031109767
 21
1753.000000000001
 31
0.0
  0
LINE
  5
18DB1
330
1F
100
AcDbEntity
  8
破線
100
AcDbLine
 10
1302.500031109768
 20
1737.000000000001
 30
0.0
 11
1222.500031109767
 21
1737.000000000001
 31
0.0
  0
LINE
  5
18DB2
330
1F
100
AcDbEntity
  8
破線
100
AcDbLine
 10
1222.500031109767
 20
1753.000000000001
 30
0.0
 11
1222.500031109767
 21
1737.000000000001
 31
0.0
  0
LINE
  5
18DB3
330
1F
100
AcDbEntity
  8
破線
100
AcDbLine
 10
1302.500031109768
 20
1487.000148878696
 30
0.0
 11
1222.500031109767
 21
1487.000148878696
 31
0.0
  0
LINE
  5
18DB4
330
1F
100
AcDbEntity
  8
破線
100
AcDbLine
 10
1302.500031109768
 20
1503.000148878696
 30
0.0
 11
1222.500031109767
 21
1503.000148878696
 31
0.0
  0
LINE
  5
18DB5
330
1F
100
AcDbEntity
  8
破線
100
AcDbLine
 10
1222.500031109767
 20
1487.000148878696
 30
0.0
 11
1222.500031109767
 21
1503.000148878696
 31
0.0
  0
LINE
  5
18DB6
330
1F
100
AcDbEntity
  8
中心線
100
AcDbLine
 10
852.5000112966509
 20
1729.841531980711
 30
0.0
 11
852.5000112966509
 21
1659.841569200392
 31
0.0
  0
LINE
  5
18DB7
330
1F
100
AcDbEntity
  8
中心線
100
AcDbLine
 10
817.5000299064913
 20
1694.841550590559
 30
0.0
 11
887.4999926868186
 21
1694.841550590559
 31
0.0
  0
CIRCLE
  5
18DB8
330
1F
100
AcDbEntity
  8
実線
100
AcDbCircle
 10
852.5000112966509
 20
1694.841550590559
 30
0.0
 40
12.5
  0
LINE
  5
18DB9
330
1F
100
AcDbEntity
  8
中心線
100
AcDbLine
 10
852.5000112966509
 20
1509.841631980716
 30
0.0
 11
852.5000112966509
 21
1579.84159476105
 31
0.0
  0
LINE
  5
18DBA
330
1F
100
AcDbEntity
  8
中心線
100
AcDbLine
 10
817.5000299064913
 20
1544.841613370883
 30
0.0
 11
887.4999926868186
 21
1544.841613370883
 31
0.0
  0
CIRCLE
  5
18DBB
330
1F
100
AcDbEntity
  8
実線
100
AcDbCircle
 10
852.5000112966509
 20
1544.841613370883
 30
0.0
 40
12.5
  0
LINE
  5
18DBC
330
1F
100
AcDbEntity
  8
中心線
100
AcDbLine
 10
952.5000112966509
 20
1729.841531980711
 30
0.0
 11
952.5000112966509
 21
1659.841569200392
 31
0.0
  0
LINE
  5
18DBD
330
1F
100
AcDbEntity
  8
中心線
100
AcDbLine
 10
917.5000299064913
 20
1694.841550590559
 30
0.0
 11
987.4999926868186
 21
1694.841550590559
 31
0.0
  0
CIRCLE
  5
18DBE
330
1F
100
AcDbEntity
  8
実線
100
AcDbCircle
 10
952.5000112966509
 20
1694.841550590559
 30
0.0
 40
12.5
  0
LINE
  5
18DBF
330
1F
100
AcDbEntity
  8
中心線
100
AcDbLine
 10
952.5000112966509
 20
1509.841631980716
 30
0.0
 11
952.5000112966509
 21
1579.84159476105
 31
0.0
  0
LINE
  5
18DC0
330
1F
100
AcDbEntity
  8
中心線
100
AcDbLine
 10
917.5000299064913
 20
1544.841613370883
 30
0.0
 11
987.4999926868186
 21
1544.841613370883
 31
0.0
  0
CIRCLE
  5
18DC1
330
1F
100
AcDbEntity
  8
実線
100
AcDbCircle
 10
952.5000112966509
 20
1544.841613370883
 30
0.0
 40
12.5
  0
LINE
  5
18DC2
330
1F
100
AcDbEntity
  8
中心線
100
AcDbLine
 10
1052.500011296651
 20
1729.841531980711
 30
0.0
 11
1052.500011296651
 21
1659.841569200392
 31
0.0
  0
LINE
  5
18DC3
330
1F
100
AcDbEntity
  8
中心線
100
AcDbLine
 10
1017.500029906492
 20
1694.841550590559
 30
0.0
 11
1087.499992686818
 21
1694.841550590559
 31
0.0
  0
CIRCLE
  5
18DC4
330
1F
100
AcDbEntity
  8
実線
100
AcDbCircle
 10
1052.500011296651
 20
1694.841550590559
 30
0.0
 40
12.5
  0
LINE
  5
18DC5
330
1F
100
AcDbEntity
  8
中心線
100
AcDbLine
 10
1052.500011296651
 20
1509.841631980716
 30
0.0
 11
1052.500011296651
 21
1579.84159476105
 31
0.0
  0
LINE
  5
18DC6
330
1F
100
AcDbEntity
  8
中心線
100
AcDbLine
 10
1017.500029906492
 20
1544.841613370883
 30
0.0
 11
1087.499992686818
 21
1544.841613370883
 31
0.0
  0
CIRCLE
  5
18DC7
330
1F
100
AcDbEntity
  8
実線
100
AcDbCircle
 10
1052.500011296651
 20
1544.841613370883
 30
0.0
 40
12.5
  0
LEADER
  5
18DC8
330
1F
100
AcDbEntity
  8
寸法線
100
AcDbLeader
  3
STANDARD
 76
     3
 10
858.7500112966509
 20
1705.666868137852
 30
0.0
 10
941.98931355882
 20
1849.841568842517
 30
0.0
 10
1209.64949049364
 20
1849.841568842517
 30
0.0
211
-1.0
221
0.0
231
0.0
1001
ACAD
1000
DSTYLE
1002
{
1070
   147
1040
0.875
1070
    77
1070
     0
1002
}
  0
TEXT
  5
18DC9
330
1F
100
AcDbEntity
  8
寸法線
100
AcDbText
 10
950.7393135588159
 20
1858.591568842517
 30
0.0
 40
25.0
  1
ｶﾊﾞｰﾌﾟﾚｰﾄ連結用孔
 72
     2
 11
1199.072646892149
 21
1883.591568842517
 31
0.0
100
AcDbText
 73
     3
  0
LINE
  5
18DCA
330
1F
100
AcDbEntity
  8
中心線
100
AcDbLine
 10
792.5000509228693
 20
1719.938355572479
 30
0.0
 11
828.5000707359795
 21
1719.938355572479
 31
0.0
  0
LINE
  5
18DCB
330
1F
100
AcDbEntity
  8
中心線
100
AcDbLine
 10
792.5000509228693
 20
1519.93842929596
 30
0.0
 11
828.5000707359795
 21
1519.93842929596
 31
0.0
  0
TEXT
  5
18DCC
330
1F
100
AcDbEntity
  8
寸法線
100
AcDbText
 10
2283.524518928215
 20
2162.749983117269
 30
0.0
 40
25.0
  1
ﾘﾌﾞﾌﾟﾚｰﾄ①
 72
     2
 11
2426.857852261549
 21
2162.749983117269
 31
0.0
100
AcDbText
 73
     1
  0
LEADER
  5
18DCD
330
1F
100
AcDbEntity
  8
寸法線
100
AcDbLeader
  3
STANDARD
 76
     3
 10
2236.999997740442
 20
2104.499983117269
 30
0.0
 10
2271.499997740443
 20
2153.999983117269
 30
0.0
 10
2435.824055189597
 20
2153.999983117269
 30
0.0
211
-1.0
221
0.0
231
0.0
1001
ACAD
1000
DSTYLE
1002
{
1070
   147
1040
0.875
1070
    77
1070
     0
1002
}
  0
LEADER
  5
18DCE
330
1F
100
AcDbEntity
  8
寸法線
100
AcDbLeader
  3
STANDARD
 76
     3
 10
2458.74997148361
 20
1705.666865738618
 30
0.0
 10
2541.989273745781
 20
1849.841566443283
 30
0.0
 10
2809.649450680601
 20
1849.841566443283
 30
0.0
211
-1.0
221
0.0
231
0.0
1001
ACAD
1000
DSTYLE
1002
{
1070
   147
1040
0.875
1070
    77
1070
     0
1002
}
  0
TEXT
  5
18DCF
330
1F
100
AcDbEntity
  8
寸法線
100
AcDbText
 10
2550.739273745775
 20
1858.591566443283
 30
0.0
 40
25.0
  1
ｶﾊﾞｰﾌﾟﾚｰﾄ連結用孔
 72
     2
 11
2799.072607079108
 21
1883.591566443283
 31
0.0
100
AcDbText
 73
     3
  0
DIMENSION
  5
18DD0
330
1F
100
AcDbEntity
  8
寸法線
100
AcDbDimension
280
     0
  2
*D1
 10
2202.499991390134
 20
2610.000000000003
 30
0.0
 11
2452.499993842701
 21
2610.000000000003
 31
0.0
 70
   160
  1
<>\XH型鋼（連結部）
 71
     5
 42
500.0000199065253
 73
     0
 74
     0
 75
     0
  3
STANDARD
100
AcDbAlignedDimension
 13
2702.500011296659
 23
2364.000037219682
 33
0.0
 14
2202.499991390134
 24
2380.000019850007
 34
0.0
 50
180.0
100
AcDbRotatedDimension
  0
LINE
  5
18DD1
330
1F
100
AcDbEntity
  8
実線
100
AcDbLine
 10
1594.499991390135
 20
2040.000019850007
 30
0.0
 11
1594.499991390135
 21
2400.000019850007
 31
0.0
  0
LINE
  5
18DD2
330
1F
100
AcDbEntity
  8
実線
100
AcDbLine
 10
1610.499991390133
 20
2040.000019850007
 30
0.0
 11
1610.499991390135
 21
2400.000019850007
 31
0.0
  0
LINE
  5
18DD3
330
1F
100
AcDbEntity
  8
実線
100
AcDbLine
 10
1594.499991390135
 20
2400.000001605376
 30
0.0
 11
1610.499991390135
 21
2400.000001605376
 31
0.0
  0
LINE
  5
18DD4
330
1F
100
AcDbEntity
  8
実線
100
AcDbLine
 10
1594.499991390135
 20
2040.000001605376
 30
0.0
 11
1610.499991390133
 21
2040.000001605376
 31
0.0
  0
LINE
  5
18DD5
330
1F
100
AcDbEntity
  8
破線
100
AcDbLine
 10
1594.50009497516
 20
2370.000001605376
 30
0.0
 11
1610.499887805107
 21
2370.000001605376
 31
0.0
  0
LINE
  5
18DD6
330
1F
100
AcDbEntity
  8
破線
100
AcDbLine
 10
1594.50009497516
 20
2320.000001605376
 30
0.0
 11
1610.499991390135
 21
2320.000001605376
 31
0.0
  0
LINE
  5
18DD7
330
1F
100
AcDbEntity
  8
破線
100
AcDbLine
 10
1594.50009497516
 20
2120.000001605376
 30
0.0
 11
1610.499991390133
 21
2120.000001605376
 31
0.0
  0
LINE
  5
18DD8
330
1F
100
AcDbEntity
  8
破線
100
AcDbLine
 10
1594.50009497516
 20
2070.000001605376
 30
0.0
 11
1610.499887805107
 21
2070.000001605376
 31
0.0
  0
LINE
  5
18DD9
330
1F
100
AcDbEntity
  8
実線
100
AcDbLine
 10
1350.499991390134
 20
2120.000038094638
 30
0.0
 11
1594.499991390136
 21
2120.000038094638
 31
0.0
  0
LINE
  5
18DDA
330
1F
100
AcDbEntity
  8
実線
100
AcDbLine
 10
1318.499991390134
 20
2070.000038094638
 30
0.0
 11
1594.499991390136
 21
2070.000038094638
 31
0.0
  0
LINE
  5
18DDB
330
1F
100
AcDbEntity
  8
実線
100
AcDbLine
 10
1594.499991390135
 20
1440.000019827418
 30
0.0
 11
1594.499991390135
 21
1800.000019827418
 31
0.0
  0
LINE
  5
18DDC
330
1F
100
AcDbEntity
  8
実線
100
AcDbLine
 10
1610.499991390133
 20
1440.000019827418
 30
0.0
 11
1610.499991390135
 21
1800.000019827418
 31
0.0
  0
LINE
  5
18DDD
330
1F
100
AcDbEntity
  8
実線
100
AcDbLine
 10
1594.499991390135
 20
1800.000001582787
 30
0.0
 11
1610.499991390135
 21
1800.000001582787
 31
0.0
  0
LINE
  5
18DDE
330
1F
100
AcDbEntity
  8
実線
100
AcDbLine
 10
1594.499991390135
 20
1440.000001582787
 30
0.0
 11
1610.499991390133
 21
1440.000001582787
 31
0.0
  0
LINE
  5
18DDF
330
1F
100
AcDbEntity
  8
破線
100
AcDbLine
 10
1594.50009497516
 20
1770.000001582787
 30
0.0
 11
1610.499887805107
 21
1770.000001582787
 31
0.0
  0
LINE
  5
18DE0
330
1F
100
AcDbEntity
  8
破線
100
AcDbLine
 10
1594.50009497516
 20
1720.000001582787
 30
0.0
 11
1610.499991390135
 21
1720.000001582787
 31
0.0
  0
LINE
  5
18DE1
330
1F
100
AcDbEntity
  8
破線
100
AcDbLine
 10
1594.50009497516
 20
1520.000001582787
 30
0.0
 11
1610.499991390133
 21
1520.000001582787
 31
0.0
  0
LINE
  5
18DE2
330
1F
100
AcDbEntity
  8
破線
100
AcDbLine
 10
1594.50009497516
 20
1470.000001582787
 30
0.0
 11
1610.499887805107
 21
1470.000001582787
 31
0.0
  0
LINE
  5
18DE3
330
1F
100
AcDbEntity
  8
実線
100
AcDbLine
 10
1594.499991390131
 20
1720.000001582788
 30
0.0
 11
1350.499991390131
 21
1720.0000015828
 31
0.0
  0
LINE
  5
18DE4
330
1F
100
AcDbEntity
  8
実線
100
AcDbLine
 10
1594.499991390134
 20
1770.000001582788
 30
0.0
 11
1318.499991390134
 21
1770.000001582802
 31
0.0
  0
LINE
  5
18DE5
330
1F
100
AcDbEntity
  8
実線
100
AcDbLine
 10
1594.499553544735
 20
1520.000108128307
 30
0.0
 11
1350.499553546594
 21
1520.000957548817
 31
0.0
  0
LINE
  5
18DE6
330
1F
100
AcDbEntity
  8
実線
100
AcDbLine
 10
1594.499334621923
 20
1470.000108128786
 30
0.0
 11
1318.499334624089
 21
1470.001097659896
 31
0.0
  0
LINE
  5
18DE7
330
1F
100
AcDbEntity
  8
実線
100
AcDbLine
 10
1894.499991390135
 20
2040.000019850007
 30
0.0
 11
1894.499991390135
 21
2400.000019850007
 31
0.0
  0
LINE
  5
18DE8
330
1F
100
AcDbEntity
  8
実線
100
AcDbLine
 10
1910.499991390133
 20
2040.000019850007
 30
0.0
 11
1910.499991390135
 21
2400.000019850007
 31
0.0
  0
LINE
  5
18DE9
330
1F
100
AcDbEntity
  8
実線
100
AcDbLine
 10
1894.499991390135
 20
2400.000001605376
 30
0.0
 11
1910.499991390135
 21
2400.000001605376
 31
0.0
  0
LINE
  5
18DEA
330
1F
100
AcDbEntity
  8
実線
100
AcDbLine
 10
1894.499991390135
 20
2040.000001605376
 30
0.0
 11
1910.499991390133
 21
2040.000001605376
 31
0.0
  0
LINE
  5
18DEB
330
1F
100
AcDbEntity
  8
破線
100
AcDbLine
 10
1894.50009497516
 20
2370.000001605376
 30
0.0
 11
1910.499887805107
 21
2370.000001605376
 31
0.0
  0
LINE
  5
18DEC
330
1F
100
AcDbEntity
  8
破線
100
AcDbLine
 10
1894.50009497516
 20
2320.000001605376
 30
0.0
 11
1910.499991390135
 21
2320.000001605376
 31
0.0
  0
LINE
  5
18DED
330
1F
100
AcDbEntity
  8
破線
100
AcDbLine
 10
1894.50009497516
 20
2120.000001605376
 30
0.0
 11
1910.499991390133
 21
2120.000001605376
 31
0.0
  0
LINE
  5
18DEE
330
1F
100
AcDbEntity
  8
破線
100
AcDbLine
 10
1894.50009497516
 20
2070.000001605376
 30
0.0
 11
1910.499887805107
 21
2070.000001605376
 31
0.0
  0
LINE
  5
18DEF
330
1F
100
AcDbEntity
  8
実線
100
AcDbLine
 10
1894.499991390135
 20
1440.000019827418
 30
0.0
 11
1894.499991390135
 21
1800.000019827418
 31
0.0
  0
LINE
  5
18DF0
330
1F
100
AcDbEntity
  8
実線
100
AcDbLine
 10
1910.499991390133
 20
1440.000019827418
 30
0.0
 11
1910.499991390135
 21
1800.000019827418
 31
0.0
  0
LINE
  5
18DF1
330
1F
100
AcDbEntity
  8
実線
100
AcDbLine
 10
1894.499991390135
 20
1800.000001582787
 30
0.0
 11
1910.499991390135
 21
1800.000001582787
 31
0.0
  0
LINE
  5
18DF2
330
1F
100
AcDbEntity
  8
実線
100
AcDbLine
 10
1894.499991390135
 20
1440.000001582787
 30
0.0
 11
1910.499991390133
 21
1440.000001582787
 31
0.0
  0
LINE
  5
18DF3
330
1F
100
AcDbEntity
  8
破線
100
AcDbLine
 10
1894.50009497516
 20
1770.000001582787
 30
0.0
 11
1910.499887805107
 21
1770.000001582787
 31
0.0
  0
LINE
  5
18DF4
330
1F
100
AcDbEntity
  8
破線
100
AcDbLine
 10
1894.50009497516
 20
1720.000001582787
 30
0.0
 11
1910.499991390135
 21
1720.000001582787
 31
0.0
  0
LINE
  5
18DF5
330
1F
100
AcDbEntity
  8
破線
100
AcDbLine
 10
1894.50009497516
 20
1520.000001582787
 30
0.0
 11
1910.499991390133
 21
1520.000001582787
 31
0.0
  0
LINE
  5
18DF6
330
1F
100
AcDbEntity
  8
破線
100
AcDbLine
 10
1894.50009497516
 20
1470.000001582787
 30
0.0
 11
1910.499887805107
 21
1470.000001582787
 31
0.0
  0
LINE
  5
18DF7
330
1F
100
AcDbEntity
  8
実線
100
AcDbLine
 10
2154.499991390134
 20
2320.000001605376
 30
0.0
 11
1910.499991390132
 21
2320.000001605376
 31
0.0
  0
LINE
  5
18DF8
330
1F
100
AcDbEntity
  8
実線
100
AcDbLine
 10
2186.499991390134
 20
2370.000001605376
 30
0.0
 11
1910.499991390132
 21
2370.000001605376
 31
0.0
  0
LINE
  5
18DF9
330
1F
100
AcDbEntity
  8
実線
100
AcDbLine
 10
2154.499991390134
 20
2120.000038094638
 30
0.0
 11
1910.499991390132
 21
2120.000038094638
 31
0.0
  0
LINE
  5
18DFA
330
1F
100
AcDbEntity
  8
実線
100
AcDbLine
 10
2186.499991390134
 20
2070.000038094638
 30
0.0
 11
1910.499991390132
 21
2070.000038094638
 31
0.0
  0
LINE
  5
18DFB
330
1F
100
AcDbEntity
  8
実線
100
AcDbLine
 10
1910.499991390136
 20
1720.000001582788
 30
0.0
 11
2154.499991390137
 21
1720.0000015828
 31
0.0
  0
LINE
  5
18DFC
330
1F
100
AcDbEntity
  8
実線
100
AcDbLine
 10
1910.499991390134
 20
1770.000001582788
 30
0.0
 11
2186.499991390134
 21
1770.000001582802
 31
0.0
  0
LINE
  5
18DFD
330
1F
100
AcDbEntity
  8
実線
100
AcDbLine
 10
1910.500429235532
 20
1520.000108128307
 30
0.0
 11
2154.500429233674
 21
1520.000957548817
 31
0.0
  0
LINE
  5
18DFE
330
1F
100
AcDbEntity
  8
実線
100
AcDbLine
 10
1910.500648158344
 20
1470.000108128786
 30
0.0
 11
2186.500648156179
 21
1470.001097659896
 31
0.0
  0
LINE
  5
18DFF
330
1F
100
AcDbEntity
  8
実線
100
AcDbLine
 10
1610.499887805107
 20
2370.000001605376
 30
0.0
 11
1894.50009497516
 21
2370.000001605376
 31
0.0
  0
LINE
  5
18E00
330
1F
100
AcDbEntity
  8
実線
100
AcDbLine
 10
1610.499991390135
 20
2320.000001605376
 30
0.0
 11
1894.50009497516
 21
2320.000001605376
 31
0.0
  0
LINE
  5
18E01
330
1F
100
AcDbEntity
  8
実線
100
AcDbLine
 10
1610.499991390133
 20
2120.000001605376
 30
0.0
 11
1894.50009497516
 21
2120.000001605376
 31
0.0
  0
LINE
  5
18E02
330
1F
100
AcDbEntity
  8
実線
100
AcDbLine
 10
1610.499887805107
 20
2070.000001605376
 30
0.0
 11
1894.50009497516
 21
2070.000001605376
 31
0.0
  0
LINE
  5
18E03
330
1F
100
AcDbEntity
  8
実線
100
AcDbLine
 10
1610.499887805107
 20
1769.999984056326
 30
0.0
 11
1894.50009497516
 21
1769.999984056326
 31
0.0
  0
LINE
  5
18E04
330
1F
100
AcDbEntity
  8
実線
100
AcDbLine
 10
1610.499991390135
 20
1719.999984056325
 30
0.0
 11
1894.50009497516
 21
1719.999984056325
 31
0.0
  0
LINE
  5
18E05
330
1F
100
AcDbEntity
  8
実線
100
AcDbLine
 10
1610.499991390133
 20
1519.999984056326
 30
0.0
 11
1894.50009497516
 21
1519.999984056326
 31
0.0
  0
LINE
  5
18E06
330
1F
100
AcDbEntity
  8
実線
100
AcDbLine
 10
1610.499887805107
 20
1469.999984056325
 30
0.0
 11
1894.50009497516
 21
1469.999984056325
 31
0.0
  0
LINE
  5
18E85
330
1F
100
AcDbEntity
  8
実線
100
AcDbLine
 10
971.3438964149672
 20
590.0000000000041
 30
0.0
 11
971.3438964149672
 21
910.000000000004
 31
0.0
  0
LINE
  5
18E86
330
1F
100
AcDbEntity
  8
実線
100
AcDbLine
 10
987.3438964149672
 20
590.0000000000041
 30
0.0
 11
987.3438964149672
 21
910.000000000004
 31
0.0
  0
LINE
  5
18E87
330
1F
100
AcDbEntity
  8
実線
100
AcDbLine
 10
971.3438964149672
 20
909.9999817553657
 30
0.0
 11
987.3438964149672
 21
909.9999817553657
 31
0.0
  0
LINE
  5
18E88
330
1F
100
AcDbEntity
  8
実線
100
AcDbLine
 10
971.3438964149672
 20
589.9999817553657
 30
0.0
 11
987.3438964149672
 21
589.9999817553657
 31
0.0
  0
LINE
  5
18E89
330
1F
100
AcDbEntity
  8
実線
100
AcDbLine
 10
1855.343896414967
 20
590.0000000000041
 30
0.0
 11
1855.343896414967
 21
910.000000000004
 31
0.0
  0
LINE
  5
18E8A
330
1F
100
AcDbEntity
  8
実線
100
AcDbLine
 10
1871.343896414967
 20
590.0000000000041
 30
0.0
 11
1871.343896414967
 21
910.000000000004
 31
0.0
  0
LINE
  5
18E8B
330
1F
100
AcDbEntity
  8
実線
100
AcDbLine
 10
1855.343896414967
 20
909.9999817553657
 30
0.0
 11
1871.343896414967
 21
909.9999817553657
 31
0.0
  0
LINE
  5
18E8C
330
1F
100
AcDbEntity
  8
実線
100
AcDbLine
 10
1855.343896414967
 20
589.9999817553657
 30
0.0
 11
1871.343896414967
 21
589.9999817553657
 31
0.0
  0
LINE
  5
18E8D
330
1F
100
AcDbEntity
  8
実線
100
AcDbLine
 10
999.3438964149673
 20
644.9999817553657
 30
0.0
 11
1019.343896414967
 21
644.9999817553657
 31
0.0
  0
LINE
  5
18E8E
330
1F
100
AcDbEntity
  8
実線
100
AcDbLine
 10
1019.343896414967
 20
644.9999817553657
 30
0.0
 11
1019.343896414967
 21
854.9999817553658
 31
0.0
  0
LINE
  5
18E8F
330
1F
100
AcDbEntity
  8
実線
100
AcDbLine
 10
1823.343896414967
 20
644.9999817553657
 30
0.0
 11
1823.343896414967
 21
854.9999817553658
 31
0.0
  0
LINE
  5
18E90
330
1F
100
AcDbEntity
  8
実線
100
AcDbLine
 10
1823.343896414967
 20
644.9999817553657
 30
0.0
 11
1843.343896414967
 21
644.9999817553657
 31
0.0
  0
LINE
  5
18E91
330
1F
100
AcDbEntity
  8
実線
100
AcDbLine
 10
987.3438964149672
 20
656.9999817553657
 30
0.0
 11
999.3438964149673
 21
644.9999817553657
 31
0.0
  0
LINE
  5
18E92
330
1F
100
AcDbEntity
  8
実線
100
AcDbLine
 10
1843.343896414967
 20
644.9999817553657
 30
0.0
 11
1855.343896414967
 21
656.9999817553657
 31
0.0
  0
LINE
  5
18E93
330
1F
100
AcDbEntity
  8
実線
100
AcDbLine
 10
987.3438964149672
 20
649.9999817553657
 30
0.0
 11
994.3438964149672
 21
649.9999817553657
 31
0.0
  0
LINE
  5
18E94
330
1F
100
AcDbEntity
  8
実線
100
AcDbLine
 10
1848.343896414967
 20
649.9999817553657
 30
0.0
 11
1855.343896414967
 21
649.9999817553657
 31
0.0
  0
LINE
  5
18E95
330
1F
100
AcDbEntity
  8
破線
100
AcDbLine
 10
994.3438964149672
 20
649.9999817553657
 30
0.0
 11
1019.343896414967
 21
649.9999817553657
 31
0.0
  0
LINE
  5
18E96
330
1F
100
AcDbEntity
  8
破線
100
AcDbLine
 10
1823.343896414967
 20
649.9999817553657
 30
0.0
 11
1848.343896414967
 21
649.9999817553657
 31
0.0
  0
LINE
  5
18E97
330
1F
100
AcDbEntity
  8
破線
100
AcDbLine
 10
987.3438964149672
 20
608.9999817553657
 30
0.0
 11
1019.343896414967
 21
608.9999817553657
 31
0.0
  0
LINE
  5
18E98
330
1F
100
AcDbEntity
  8
破線
100
AcDbLine
 10
1019.343896414967
 20
608.9999817553657
 30
0.0
 11
1019.343896414967
 21
599.9999817553657
 31
0.0
  0
LINE
  5
18E99
330
1F
100
AcDbEntity
  8
中心線
100
AcDbLine
 10
956.3439999999818
 20
749.9999817553657
 30
0.0
 11
1886.343999999982
 21
749.9999817553657
 31
0.0
  0
LINE
  5
18E9A
330
1F
100
AcDbEntity
  8
中心線
100
AcDbLine
 10
961.3439999999819
 20
874.9999817553657
 30
0.0
 11
1881.343999999982
 21
874.9999817553657
 31
0.0
  0
LINE
  5
18E9B
330
1F
100
AcDbEntity
  8
破線
100
AcDbLine
 10
1823.343896414967
 20
849.9999817553657
 30
0.0
 11
1848.343896414967
 21
849.9999817553657
 31
0.0
  0
LINE
  5
18E9C
330
1F
100
AcDbEntity
  8
実線
100
AcDbLine
 10
1019.343896414967
 20
849.9999817553657
 30
0.0
 11
1263.343896414965
 21
849.9999817553657
 31
0.0
  0
LINE
  5
18E9D
330
1F
100
AcDbEntity
  8
実線
100
AcDbLine
 10
1848.343896414967
 20
849.9999817553657
 30
0.0
 11
1855.343896414967
 21
849.9999817553657
 31
0.0
  0
LINE
  5
18E9E
330
1F
100
AcDbEntity
  8
実線
100
AcDbLine
 10
987.3439999999819
 20
899.9999817553657
 30
0.0
 11
1263.343999999982
 21
899.9999817553657
 31
0.0
  0
LINE
  5
18E9F
330
1F
100
AcDbEntity
  8
実線
100
AcDbLine
 10
1823.343896414967
 20
854.9999817553658
 30
0.0
 11
1843.343896414967
 21
854.9999817553658
 31
0.0
  0
LINE
  5
18EA0
330
1F
100
AcDbEntity
  8
実線
100
AcDbLine
 10
1843.343896414967
 20
854.9999817553658
 30
0.0
 11
1855.343896414967
 21
842.9999817553657
 31
0.0
  0
LINE
  5
18EA1
330
1F
100
AcDbEntity
  8
破線
100
AcDbLine
 10
987.3438964149672
 20
890.9999817553657
 30
0.0
 11
1019.343896414967
 21
890.9999817553657
 31
0.0
  0
LINE
  5
18EA2
330
1F
100
AcDbEntity
  8
破線
100
AcDbLine
 10
1019.343896414967
 20
890.9999817553657
 30
0.0
 11
1019.343896414967
 21
899.9999817553657
 31
0.0
  0
LINE
  5
18EA3
330
1F
100
AcDbEntity
  8
破線
100
AcDbLine
 10
994.3438964149672
 20
849.9999817553657
 30
0.0
 11
1019.343896414967
 21
849.9999817553657
 31
0.0
  0
LINE
  5
18EA4
330
1F
100
AcDbEntity
  8
実線
100
AcDbLine
 10
999.3438964149673
 20
854.9999817553658
 30
0.0
 11
1019.343896414967
 21
854.9999817553658
 31
0.0
  0
LINE
  5
18EA5
330
1F
100
AcDbEntity
  8
実線
100
AcDbLine
 10
987.3438964149672
 20
842.9999817553657
 30
0.0
 11
999.3438964149673
 21
854.9999817553658
 31
0.0
  0
LINE
  5
18EA6
330
1F
100
AcDbEntity
  8
実線
100
AcDbLine
 10
987.3438964149672
 20
849.9999817553657
 30
0.0
 11
994.3438964149672
 21
849.9999817553657
 31
0.0
  0
LINE
  5
18EA7
330
1F
100
AcDbEntity
  8
破線
100
AcDbLine
 10
1855.343896414967
 20
608.9999817553657
 30
0.0
 11
1823.343896414967
 21
608.9999817553657
 31
0.0
  0
LINE
  5
18EA8
330
1F
100
AcDbEntity
  8
破線
100
AcDbLine
 10
1823.343896414967
 20
608.9999817553657
 30
0.0
 11
1823.343896414967
 21
599.9999817553657
 31
0.0
  0
LINE
  5
18EA9
330
1F
100
AcDbEntity
  8
破線
100
AcDbLine
 10
1823.343896414967
 20
890.9999817553657
 30
0.0
 11
1823.343896414967
 21
899.9999817553657
 31
0.0
  0
LINE
  5
18EAA
330
1F
100
AcDbEntity
  8
破線
100
AcDbLine
 10
1855.343896414967
 20
890.9999817553657
 30
0.0
 11
1823.343896414967
 21
890.9999817553657
 31
0.0
  0
LINE
  5
18EAB
330
1F
100
AcDbEntity
  8
破線
100
AcDbLine
 10
987.3438964149672
 20
754.4999817553657
 30
0.0
 11
1019.343896414967
 21
754.4999817553657
 31
0.0
  0
LINE
  5
18EAC
330
1F
100
AcDbEntity
  8
破線
100
AcDbLine
 10
987.3438964149672
 20
745.4999817553657
 30
0.0
 11
1019.343896414967
 21
745.4999817553657
 31
0.0
  0
LINE
  5
18EAD
330
1F
100
AcDbEntity
  8
破線
100
AcDbLine
 10
1823.343896414967
 20
754.4999817553657
 30
0.0
 11
1855.343896414967
 21
754.4999817553657
 31
0.0
  0
LINE
  5
18EAE
330
1F
100
AcDbEntity
  8
破線
100
AcDbLine
 10
1823.343896414967
 20
745.4999817553657
 30
0.0
 11
1855.343896414967
 21
745.4999817553657
 31
0.0
  0
LINE
  5
18EAF
330
1F
100
AcDbEntity
  8
実線
100
AcDbLine
 10
1279.343896414965
 20
849.9999817553657
 30
0.0
 11
1563.343896414965
 21
849.9999817553675
 31
0.0
  0
LINE
  5
18EB0
330
1F
100
AcDbEntity
  8
実線
100
AcDbLine
 10
1279.343896414967
 20
899.9999817553657
 30
0.0
 11
1563.343896414967
 21
899.9999817553657
 31
0.0
  0
LINE
  5
18EB1
330
1F
100
AcDbEntity
  8
実線
100
AcDbLine
 10
1563.343896414967
 20
569.9999817553657
 30
0.0
 11
1579.343896414967
 21
569.9999817553657
 31
0.0
  0
LINE
  5
18EB2
330
1F
100
AcDbEntity
  8
実線
100
AcDbLine
 10
1823.343999999982
 20
849.9999817553657
 30
0.0
 11
1579.343896414965
 21
849.9999817553657
 31
0.0
  0
LINE
  5
18EB3
330
1F
100
AcDbEntity
  8
実線
100
AcDbLine
 10
1855.343896414967
 20
899.9999817553657
 30
0.0
 11
1579.343896414967
 21
899.9999817553657
 31
0.0
  0
LINE
  5
18EB4
330
1F
100
AcDbEntity
  8
中心線
100
AcDbLine
 10
961.3439999999819
 20
624.9999817553657
 30
0.0
 11
1881.343999999982
 21
624.9999817553657
 31
0.0
  0
LINE
  5
18EB5
330
1F
100
AcDbEntity
  8
実線
100
AcDbLine
 10
1019.343896414967
 20
649.9999817553657
 30
0.0
 11
1263.343896414965
 21
649.9999817553657
 31
0.0
  0
LINE
  5
18EB6
330
1F
100
AcDbEntity
  8
実線
100
AcDbLine
 10
987.3439999999819
 20
599.9999817553657
 30
0.0
 11
1263.343999999982
 21
599.9999817553657
 31
0.0
  0
LINE
  5
18EB7
330
1F
100
AcDbEntity
  8
実線
100
AcDbLine
 10
1279.343896414965
 20
649.9999817553657
 30
0.0
 11
1563.343896414965
 21
649.9999817553657
 31
0.0
  0
LINE
  5
18EB8
330
1F
100
AcDbEntity
  8
実線
100
AcDbLine
 10
1279.343896414967
 20
599.9999817553657
 30
0.0
 11
1563.343896414967
 21
599.9999817553657
 31
0.0
  0
LINE
  5
18EB9
330
1F
100
AcDbEntity
  8
実線
100
AcDbLine
 10
1823.343999999982
 20
649.9999817553657
 30
0.0
 11
1579.343896414965
 21
649.9999817553657
 31
0.0
  0
LINE
  5
18EBA
330
1F
100
AcDbEntity
  8
実線
100
AcDbLine
 10
1855.343896414967
 20
599.9999817553657
 30
0.0
 11
1579.343896414967
 21
599.9999817553657
 31
0.0
  0
LINE
  5
18EBB
330
1F
100
AcDbEntity
  8
実線
100
AcDbLine
 10
1263.343896414967
 20
570.0000000000041
 30
0.0
 11
1263.343896414967
 21
930.0000000000041
 31
0.0
  0
LINE
  5
18EBC
330
1F
100
AcDbEntity
  8
実線
100
AcDbLine
 10
1279.343896414967
 20
570.0000000000041
 30
0.0
 11
1279.343896414967
 21
930.0000000000041
 31
0.0
  0
LINE
  5
18EBD
330
1F
100
AcDbEntity
  8
実線
100
AcDbLine
 10
1263.343896414967
 20
929.9999817553658
 30
0.0
 11
1279.343896414967
 21
929.9999817553658
 31
0.0
  0
LINE
  5
18EBE
330
1F
100
AcDbEntity
  8
実線
100
AcDbLine
 10
1263.343896414967
 20
569.9999817553657
 30
0.0
 11
1279.343896414967
 21
569.9999817553657
 31
0.0
  0
LINE
  5
18EBF
330
1F
100
AcDbEntity
  8
破線
100
AcDbLine
 10
1263.343999999982
 20
899.9999817553657
 30
0.0
 11
1279.343792829952
 21
899.9999817553657
 31
0.0
  0
LINE
  5
18EC0
330
1F
100
AcDbEntity
  8
破線
100
AcDbLine
 10
1263.343999999982
 20
599.9999817553657
 30
0.0
 11
1279.343792829952
 21
599.9999817553657
 31
0.0
  0
LINE
  5
18EC1
330
1F
100
AcDbEntity
  8
実線
100
AcDbLine
 10
1563.343896414967
 20
570.0000000000041
 30
0.0
 11
1563.343896414967
 21
930.0000000000041
 31
0.0
  0
LINE
  5
18EC2
330
1F
100
AcDbEntity
  8
実線
100
AcDbLine
 10
1579.343896414967
 20
570.0000000000041
 30
0.0
 11
1579.343896414967
 21
930.0000000000041
 31
0.0
  0
LINE
  5
18EC3
330
1F
100
AcDbEntity
  8
実線
100
AcDbLine
 10
1563.343896414967
 20
929.9999817553658
 30
0.0
 11
1579.343896414967
 21
929.9999817553658
 31
0.0
  0
LINE
  5
18EC4
330
1F
100
AcDbEntity
  8
破線
100
AcDbLine
 10
1563.343999999982
 20
899.9999817553657
 30
0.0
 11
1579.343792829952
 21
899.9999817553657
 31
0.0
  0
LINE
  5
18EC5
330
1F
100
AcDbEntity
  8
破線
100
AcDbLine
 10
1563.343999999982
 20
599.9999817553657
 30
0.0
 11
1579.343792829952
 21
599.9999817553657
 31
0.0
  0
LINE
  5
18EC6
330
1F
100
AcDbEntity
  8
破線
100
AcDbLine
 10
1263.343896414967
 20
649.9999817553657
 30
0.0
 11
1279.343689244909
 21
649.9999817553657
 31
0.0
  0
LINE
  5
18EC7
330
1F
100
AcDbEntity
  8
破線
100
AcDbLine
 10
1263.343896414967
 20
849.9999817553657
 30
0.0
 11
1279.343689244909
 21
849.9999817553657
 31
0.0
  0
LINE
  5
18EC8
330
1F
100
AcDbEntity
  8
破線
100
AcDbLine
 10
1563.343896414967
 20
649.9999817553657
 30
0.0
 11
1579.343689244909
 21
649.9999817553657
 31
0.0
  0
LINE
  5
18EC9
330
1F
100
AcDbEntity
  8
破線
100
AcDbLine
 10
1563.343896414967
 20
849.9999817553657
 30
0.0
 11
1579.343689244909
 21
849.9999817553657
 31
0.0
  0
LINE
  5
18ECA
330
1F
100
AcDbEntity
  8
仮想線
100
AcDbLine
 10
1042.806948669137
 20
539.9999817553657
 30
0.0
 11
1042.806948669137
 21
959.9999817553657
 31
0.0
  0
TEXT
  5
18ECB
330
1F
100
AcDbEntity
  8
寸法線
100
AcDbText
 10
1092.462171036184
 20
938.7999817553657
 30
0.0
 40
21.0
  1
Ａ
 72
     4
 11
1102.262171036184
 21
949.9999817553657
 31
0.0
100
AcDbText
  0
TEXT
  5
18ECC
330
1F
100
AcDbEntity
  8
寸法線
100
AcDbText
 10
1092.462171036184
 20
538.7999817553657
 30
0.0
 40
21.0
  1
Ａ
 72
     4
 11
1102.262171036184
 21
549.9999817553657
 31
0.0
100
AcDbText
  0
LINE
  5
18ECD
330
1F
100
AcDbEntity
  8
仮想線
100
AcDbLine
 10
1334.806948669137
 20
539.9999817553657
 30
0.0
 11
1334.806948669137
 21
959.9999817553657
 31
0.0
  0
TEXT
  5
18ECE
330
1F
100
AcDbEntity
  8
寸法線
100
AcDbText
 10
1383.762171036184
 20
938.7999817553657
 30
0.0
 40
21.0
  1
Ｂ
 72
     4
 11
1394.262171036184
 21
949.9999817553657
 31
0.0
100
AcDbText
  0
TEXT
  5
18ECF
330
1F
100
AcDbEntity
  8
寸法線
100
AcDbText
 10
1383.762171036184
 20
538.7999817553657
 30
0.0
 40
21.0
  1
Ｂ
 72
     4
 11
1394.262171036184
 21
549.9999817553657
 31
0.0
100
AcDbText
  0
DIMENSION
  5
18ED0
330
1F
100
AcDbEntity
  8
寸法線
100
AcDbDimension
280
     0
  2
*D2
 10
1767.600452126468
 20
899.9999817553662
 30
0.0
 11
1767.600452126468
 21
874.9999817553655
 31
0.0
 70
   160
  1
%%C<>
 71
     5
 42
50.0
 73
     0
 74
     0
 75
     0
  3
STANDARD
100
AcDbAlignedDimension
 13
1767.600452126468
 23
849.9999817553657
 33
0.0
 14
1767.600452126468
 24
899.9999817553657
 34
0.0
 50
90.0
100
AcDbRotatedDimension
  0
LINE
  5
18ED1
330
1F
100
AcDbEntity
  8
仮想線
100
AcDbLine
 10
1634.806948669137
 20
540.0000000000041
 30
0.0
 11
1634.806948669137
 21
960.000000000004
 31
0.0
  0
TEXT
  5
18ED2
330
1F
100
AcDbEntity
  8
寸法線
100
AcDbText
 10
1683.762171036184
 20
938.800000000004
 30
0.0
 40
21.0
  1
Ｂ
 72
     4
 11
1694.262171036184
 21
950.000000000004
 31
0.0
100
AcDbText
  0
TEXT
  5
18ED3
330
1F
100
AcDbEntity
  8
寸法線
100
AcDbText
 10
1683.762171036184
 20
538.800000000004
 30
0.0
 40
21.0
  1
Ｂ
 72
     4
 11
1694.262171036184
 21
550.000000000004
 31
0.0
100
AcDbText
  0
DIMENSION
  5
18ED4
330
1F
100
AcDbEntity
  8
寸法線
100
AcDbDimension
280
     0
  2
*D3
 10
1871.343896414967
 20
349.9999817553657
 30
0.0
 11
1421.343896414967
 21
371.2499817553657
 31
0.0
 70
    32
 71
     5
 42
900.0
 73
     0
 74
     0
 75
     0
  3
STANDARD
100
AcDbAlignedDimension
 13
971.3438964149672
 23
589.9999782802228
 33
0.0
 14
1871.343896414967
 24
590.0000000000041
 34
0.0
100
AcDbRotatedDimension
  0
DIMENSION
  5
18ED5
330
1F
100
AcDbEntity
  8
寸法線
100
AcDbDimension
280
     0
  2
*D4
 10
1823.343896414967
 20
469.9999817553657
 30
0.0
 11
1421.343896414967
 21
491.2499817553658
 31
0.0
 70
    32
 71
     5
 42
804.0
 73
     0
 74
     0
 75
     0
  3
STANDARD
100
AcDbAlignedDimension
 13
1019.343896414967
 23
599.9999817553657
 33
0.0
 14
1823.343896414967
 24
599.9999817553657
 34
0.0
100
AcDbRotatedDimension
  0
DIMENSION
  5
18ED6
330
1F
100
AcDbEntity
  8
寸法線
100
AcDbDimension
280
     0
  2
*D5
 10
1855.343896414967
 20
409.9999817553657
 30
0.0
 11
1421.343896414967
 21
431.2499817553657
 31
0.0
 70
    32
 71
     5
 42
868.0
 73
     0
 74
     0
 75
     0
  3
STANDARD
100
AcDbAlignedDimension
 13
987.3438964149672
 23
589.9999817553657
 33
0.0
 14
1855.343896414967
 24
589.9999817553657
 34
0.0
100
AcDbRotatedDimension
  0
DIMENSION
  5
18ED7
330
1F
100
AcDbEntity
  8
寸法線
100
AcDbDimension
280
     0
  2
*D6
 10
1019.343896414967
 20
469.9999817553657
 30
0.0
 11
1003.343896414967
 21
469.9999817553657
 31
0.0
 70
   160
 71
     5
 42
32.0
 73
     0
 74
     0
 75
     0
  3
STANDARD
100
AcDbAlignedDimension
 13
987.3438964149672
 23
590.0000000000041
 33
0.0
 14
1019.343896414967
 24
599.9999817553657
 34
0.0
100
AcDbRotatedDimension
  0
DIMENSION
  5
18ED8
330
1F
100
AcDbEntity
  8
寸法線
100
AcDbDimension
280
     0
  2
*D7
 10
987.3438964149672
 20
409.9999817553657
 30
0.0
 11
979.3438964149672
 21
409.9999817553657
 31
0.0
 70
   160
 71
     5
 42
16.0
 73
     0
 74
     0
 75
     0
  3
STANDARD
100
AcDbAlignedDimension
 13
971.3438964149672
 23
590.0000000000041
 33
0.0
 14
987.3438964149672
 24
589.9999817553657
 34
0.0
100
AcDbRotatedDimension
1001
ACAD
1000
DSTYLE
1002
{
1070
   279
1070
     0
1002
}
  0
DIMENSION
  5
18ED9
330
1F
100
AcDbEntity
  8
寸法線
100
AcDbDimension
280
     0
  2
*D8
 10
1871.343896414967
 20
409.9999817553657
 30
0.0
 11
1863.343896414967
 21
409.9999817553657
 31
0.0
 70
   160
 71
     5
 42
16.0
 73
     0
 74
     0
 75
     0
  3
STANDARD
100
AcDbAlignedDimension
 13
1855.343896414967
 23
569.9999817553657
 33
0.0
 14
1871.343896414967
 24
589.9999817553657
 34
0.0
100
AcDbRotatedDimension
1001
ACAD
1000
DSTYLE
1002
{
1070
   279
1070
     0
1002
}
  0
DIMENSION
  5
18EDA
330
1F
100
AcDbEntity
  8
寸法線
100
AcDbDimension
280
     0
  2
*D9
 10
1563.343896414967
 20
1029.999981755366
 30
0.0
 11
1421.343896414967
 21
1051.252442385287
 31
0.0
 70
    32
 71
     5
 42
284.0
 73
     0
 74
     0
 75
     0
  3
STANDARD
100
AcDbAlignedDimension
 13
1279.343896414967
 23
929.9999817553658
 33
0.0
 14
1563.343896414967
 24
930.0000000000041
 34
0.0
100
AcDbRotatedDimension
  0
DIMENSION
  5
18EDB
330
1F
100
AcDbEntity
  8
寸法線
100
AcDbDimension
280
     0
  2
*D10
 10
1579.343896414967
 20
1029.999981755366
 30
0.0
 11
1571.343896414967
 21
1029.999981755366
 31
0.0
 70
   160
 71
     5
 42
16.0
 73
     0
 74
     0
 75
     0
  3
STANDARD
100
AcDbAlignedDimension
 13
1563.343896414967
 23
930.0000000000041
 33
0.0
 14
1579.343896414967
 24
929.9999817553658
 34
0.0
100
AcDbRotatedDimension
1001
ACAD
1000
DSTYLE
1002
{
1070
   279
1070
     0
1002
}
  0
DIMENSION
  5
18EDC
330
1F
100
AcDbEntity
  8
寸法線
100
AcDbDimension
280
     0
  2
*D11
 10
1855.343896414967
 20
1029.999981755366
 30
0.0
 11
1717.343896414967
 21
1051.252442385287
 31
0.0
 70
    32
 71
     5
 42
276.0
 73
     0
 74
     0
 75
     0
  3
STANDARD
100
AcDbAlignedDimension
 13
1579.343896414967
 23
929.9999817553658
 33
0.0
 14
1855.343896414967
 24
909.9999817553657
 34
0.0
100
AcDbRotatedDimension
1001
ACAD
1000
DSTYLE
1002
{
1070
   279
1070
     1
1002
}
  0
DIMENSION
  5
18EDD
330
1F
100
AcDbEntity
  8
寸法線
100
AcDbDimension
280
     0
  2
*D12
 10
1263.343896414967
 20
1029.999981755366
 30
0.0
 11
1125.343896414967
 21
1051.252442385287
 31
0.0
 70
    32
 71
     5
 42
276.0
 73
     0
 74
     0
 75
     0
  3
STANDARD
100
AcDbAlignedDimension
 13
987.3438964149672
 23
909.9999817553657
 33
0.0
 14
1263.343896414967
 24
930.0000000000041
 34
0.0
100
AcDbRotatedDimension
  0
DIMENSION
  5
18EDE
330
1F
100
AcDbEntity
  8
寸法線
100
AcDbDimension
280
     0
  2
*D13
 10
1279.343896414967
 20
1029.999981755366
 30
0.0
 11
1271.343896414967
 21
1029.999981755366
 31
0.0
 70
   160
 71
     5
 42
16.0
 73
     0
 74
     0
 75
     0
  3
STANDARD
100
AcDbAlignedDimension
 13
1263.343896414967
 23
930.0000000000041
 33
0.0
 14
1279.343896414967
 24
929.9999817553658
 34
0.0
100
AcDbRotatedDimension
1001
ACAD
1000
DSTYLE
1002
{
1070
   279
1070
     0
1002
}
  0
LEADER
  5
18EDF
330
1F
100
AcDbEntity
  8
寸法線
100
AcDbLeader
  3
STANDARD
 76
     2
 10
1042.806948669137
 20
949.9999817553657
 30
0.0
 10
1090.203683854982
 20
949.9999817553657
 30
0.0
1001
ACAD
1000
DSTYLE
1002
{
1070
   147
1040
0.875
1070
    77
1070
     0
1070
    49
1040
0.5
1002
}
  0
LEADER
  5
18EE0
330
1F
100
AcDbEntity
  8
寸法線
100
AcDbLeader
  3
STANDARD
 76
     2
 10
1042.806948669137
 20
549.9999817553657
 30
0.0
 10
1090.203683854982
 20
549.9999817553657
 30
0.0
1001
ACAD
1000
DSTYLE
1002
{
1070
   147
1040
0.875
1070
    77
1070
     0
1070
    49
1040
0.5
1002
}
  0
LEADER
  5
18EE1
330
1F
100
AcDbEntity
  8
寸法線
100
AcDbLeader
  3
STANDARD
 76
     2
 10
1334.806948669137
 20
949.9999817553657
 30
0.0
 10
1382.203683854982
 20
949.9999817553657
 30
0.0
1001
ACAD
1000
DSTYLE
1002
{
1070
   147
1040
0.875
1070
    77
1070
     0
1070
    49
1040
0.5
1002
}
  0
LEADER
  5
18EE2
330
1F
100
AcDbEntity
  8
寸法線
100
AcDbLeader
  3
STANDARD
 76
     2
 10
1334.806948669137
 20
549.9999817553657
 30
0.0
 10
1382.203683854982
 20
549.9999817553657
 30
0.0
1001
ACAD
1000
DSTYLE
1002
{
1070
   147
1040
0.875
1070
    77
1070
     0
1070
    49
1040
0.5
1002
}
  0
LEADER
  5
18EE3
330
1F
100
AcDbEntity
  8
寸法線
100
AcDbLeader
  3
STANDARD
 76
     2
 10
1634.806948669137
 20
950.000000000004
 30
0.0
 10
1682.203683854982
 20
950.000000000004
 30
0.0
1001
ACAD
1000
DSTYLE
1002
{
1070
   147
1040
0.875
1070
    77
1070
     0
1070
    49
1040
0.5
1002
}
  0
LEADER
  5
18EE4
330
1F
100
AcDbEntity
  8
寸法線
100
AcDbLeader
  3
STANDARD
 76
     2
 10
1634.806948669137
 20
550.000000000004
 30
0.0
 10
1682.203683854982
 20
550.000000000004
 30
0.0
1001
ACAD
1000
DSTYLE
1002
{
1070
   147
1040
0.875
1070
    77
1070
     0
1070
    49
1040
0.5
1002
}
  0
LINE
  5
18EE5
330
1F
100
AcDbEntity
  8
寸法線
100
AcDbLine
 10
1261.343896414967
 20
1149.999981755366
 30
0.0
 11
1581.343896414967
 21
1149.999981755366
 31
0.0
  0
TEXT
  5
18EE6
330
1F
100
AcDbEntity
  8
寸法線
100
AcDbText
 10
1270.093896414967
 20
1158.749981755366
 30
0.0
 40
37.5
  1
空洞金具詳細図
 72
     1
 11
1421.343896414967
 21
1158.749981755366
 31
0.0
100
AcDbText
 73
     1
  0
DIMENSION
  5
18EE7
330
1F
100
AcDbEntity
  8
寸法線
100
AcDbDimension
280
     0
  2
*D14
 10
1823.343896414967
 20
469.9999817553657
 30
0.0
 11
1839.343896414967
 21
469.9999817553657
 31
0.0
 70
   160
 71
     5
 42
32.0
 73
     0
 74
     0
 75
     0
  3
STANDARD
100
AcDbAlignedDimension
 13
1855.343896414967
 23
590.0000000000041
 33
0.0
 14
1823.343896414967
 24
599.9999817553657
 34
0.0
 50
180.0
100
AcDbRotatedDimension
  0
LINE
  5
19301
330
1F
100
AcDbEntity
  8
中心線
100
AcDbLine
 10
466.3439999999818
 20
749.9999817553657
 30
0.0
 11
836.3439999999819
 21
749.9999817553657
 31
0.0
  0
LINE
  5
19302
330
1F
100
AcDbEntity
  8
実線
100
AcDbLine
 10
491.3440319841019
 20
909.999999999975
 30
0.0
 11
811.344031984102
 21
909.999999999975
 31
0.0
  0
LINE
  5
19303
330
1F
100
AcDbEntity
  8
実線
100
AcDbLine
 10
491.3440319841019
 20
589.9999999999749
 30
0.0
 11
811.344031984102
 21
589.9999999999749
 31
0.0
  0
LINE
  5
19304
330
1F
100
AcDbEntity
  8
実線
100
AcDbLine
 10
491.3440319841019
 20
589.9999999999749
 30
0.0
 11
491.3440319841019
 21
909.999999999975
 31
0.0
  0
LINE
  5
19305
330
1F
100
AcDbEntity
  8
実線
100
AcDbLine
 10
811.344031984102
 20
589.9999999999749
 30
0.0
 11
811.344031984102
 21
909.999999999975
 31
0.0
  0
LINE
  5
19306
330
1F
100
AcDbEntity
  8
中心線
100
AcDbLine
 10
476.3440295738973
 20
874.9999817553657
 30
0.0
 11
576.3440295738973
 21
874.9999817553657
 31
0.0
  0
LINE
  5
19307
330
1F
100
AcDbEntity
  8
中心線
100
AcDbLine
 10
476.3440295738973
 20
624.9999817553657
 30
0.0
 11
576.3440295738973
 21
624.9999817553657
 31
0.0
  0
LINE
  5
19308
330
1F
100
AcDbEntity
  8
中心線
100
AcDbLine
 10
526.3440295738973
 20
924.9999817553657
 30
0.0
 11
526.3440295738973
 21
824.9999817553657
 31
0.0
  0
LINE
  5
19309
330
1F
100
AcDbEntity
  8
中心線
100
AcDbLine
 10
776.3440295738973
 20
924.9999817553657
 30
0.0
 11
776.3440295738973
 21
824.9999817553657
 31
0.0
  0
CIRCLE
  5
1930A
330
1F
100
AcDbEntity
  8
破線
100
AcDbCircle
 10
526.3440295738973
 20
624.9999817553657
 30
0.0
 40
25.0
  0
CIRCLE
  5
1930B
330
1F
100
AcDbEntity
  8
破線
100
AcDbCircle
 10
526.3440295738973
 20
874.9999817553657
 30
0.0
 40
25.0
  0
CIRCLE
  5
1930C
330
1F
100
AcDbEntity
  8
破線
100
AcDbCircle
 10
776.3440295738973
 20
874.9999817553657
 30
0.0
 40
25.0
  0
CIRCLE
  5
1930D
330
1F
100
AcDbEntity
  8
破線
100
AcDbCircle
 10
776.3440295738973
 20
624.9999817553657
 30
0.0
 40
25.0
  0
LINE
  5
1930E
330
1F
100
AcDbEntity
  8
中心線
100
AcDbLine
 10
726.3440295738973
 20
624.9999817553657
 30
0.0
 11
826.3440295738973
 21
624.9999817553657
 31
0.0
  0
LINE
  5
1930F
330
1F
100
AcDbEntity
  8
中心線
100
AcDbLine
 10
776.3440295738973
 20
674.9999817553657
 30
0.0
 11
776.3440295738973
 21
574.9999817553657
 31
0.0
  0
LINE
  5
19310
330
1F
100
AcDbEntity
  8
中心線
100
AcDbLine
 10
526.3440295738973
 20
674.9999817553657
 30
0.0
 11
526.3440295738973
 21
574.9999817553657
 31
0.0
  0
LINE
  5
19311
330
1F
100
AcDbEntity
  8
中心線
100
AcDbLine
 10
726.3440295738973
 20
874.9999817553657
 30
0.0
 11
826.3440295738973
 21
874.9999817553657
 31
0.0
  0
LINE
  5
19312
330
1F
100
AcDbEntity
  8
破線
100
AcDbLine
 10
756.3440295738973
 20
599.9999817553657
 30
0.0
 11
546.3440295738974
 21
599.9999817553657
 31
0.0
  0
LINE
  5
19313
330
1F
100
AcDbEntity
  8
破線
100
AcDbLine
 10
756.3440295738973
 20
608.9999817553657
 30
0.0
 11
546.3440295738974
 21
608.9999817553657
 31
0.0
  0
LINE
  5
19314
330
1F
100
AcDbEntity
  8
破線
100
AcDbLine
 10
546.3440295738974
 20
599.9999817553657
 30
0.0
 11
546.3440295738974
 21
608.9999817553657
 31
0.0
  0
LINE
  5
19315
330
1F
100
AcDbEntity
  8
破線
100
AcDbLine
 10
756.3440295738973
 20
599.9999817553657
 30
0.0
 11
756.3440295738973
 21
608.9999817553657
 31
0.0
  0
LINE
  5
19316
330
1F
100
AcDbEntity
  8
破線
100
AcDbLine
 10
510.3440295738973
 20
644.9999817553657
 30
0.0
 11
510.3440295738973
 21
854.9999817553658
 31
0.0
  0
LINE
  5
19317
330
1F
100
AcDbEntity
  8
破線
100
AcDbLine
 10
501.3440295738973
 20
644.9999817553657
 30
0.0
 11
501.3440295738973
 21
854.9999817553658
 31
0.0
  0
LINE
  5
19318
330
1F
100
AcDbEntity
  8
破線
100
AcDbLine
 10
501.3440295738973
 20
644.9999817553657
 30
0.0
 11
510.3440295738973
 21
644.9999817553657
 31
0.0
  0
LINE
  5
19319
330
1F
100
AcDbEntity
  8
破線
100
AcDbLine
 10
501.3440295738973
 20
854.9999817553658
 30
0.0
 11
510.3440295738973
 21
854.9999817553658
 31
0.0
  0
LINE
  5
1931A
330
1F
100
AcDbEntity
  8
破線
100
AcDbLine
 10
546.3440295738974
 20
899.9999817553657
 30
0.0
 11
756.3440295738973
 21
899.9999817553657
 31
0.0
  0
LINE
  5
1931B
330
1F
100
AcDbEntity
  8
破線
100
AcDbLine
 10
546.3440295738974
 20
890.9999817553657
 30
0.0
 11
756.3440295738973
 21
890.9999817553657
 31
0.0
  0
LINE
  5
1931C
330
1F
100
AcDbEntity
  8
破線
100
AcDbLine
 10
546.3440295738974
 20
899.9999817553657
 30
0.0
 11
546.3440295738974
 21
890.9999817553657
 31
0.0
  0
LINE
  5
1931D
330
1F
100
AcDbEntity
  8
破線
100
AcDbLine
 10
756.3440295738973
 20
899.9999817553657
 30
0.0
 11
756.3440295738973
 21
890.9999817553657
 31
0.0
  0
LINE
  5
1931E
330
1F
100
AcDbEntity
  8
破線
100
AcDbLine
 10
792.3440295738974
 20
854.9999817553658
 30
0.0
 11
792.3440295738974
 21
644.9999817553657
 31
0.0
  0
LINE
  5
1931F
330
1F
100
AcDbEntity
  8
破線
100
AcDbLine
 10
801.3440295738973
 20
854.9999817553658
 30
0.0
 11
801.3440295738973
 21
644.9999817553657
 31
0.0
  0
LINE
  5
19320
330
1F
100
AcDbEntity
  8
破線
100
AcDbLine
 10
801.3440295738973
 20
644.9999817553657
 30
0.0
 11
792.3440295738974
 21
644.9999817553657
 31
0.0
  0
LINE
  5
19321
330
1F
100
AcDbEntity
  8
破線
100
AcDbLine
 10
801.3440295738973
 20
854.9999817553658
 30
0.0
 11
792.3440295738974
 21
854.9999817553658
 31
0.0
  0
LINE
  5
19322
330
1F
100
AcDbEntity
  8
破線
100
AcDbLine
 10
511.3440295738974
 20
754.4999817553657
 30
0.0
 11
791.3440295738974
 21
754.4999817553657
 31
0.0
  0
LINE
  5
19323
330
1F
100
AcDbEntity
  8
破線
100
AcDbLine
 10
511.3440295738974
 20
745.4999817553657
 30
0.0
 11
791.3440295738974
 21
745.4999817553657
 31
0.0
  0
LINE
  5
19324
330
1F
100
AcDbEntity
  8
破線
100
AcDbLine
 10
511.3440295738974
 20
745.4999817553657
 30
0.0
 11
511.3440295738974
 21
754.4999817553657
 31
0.0
  0
LINE
  5
19325
330
1F
100
AcDbEntity
  8
破線
100
AcDbLine
 10
791.3440295738974
 20
754.4999817553657
 30
0.0
 11
791.3440295738974
 21
745.4999817553657
 31
0.0
  0
LINE
  5
19326
330
1F
100
AcDbEntity
  8
破線
100
AcDbLine
 10
646.8440295738973
 20
889.4999817553657
 30
0.0
 11
646.8440295738973
 21
754.4999817553657
 31
0.0
  0
LINE
  5
19327
330
1F
100
AcDbEntity
  8
破線
100
AcDbLine
 10
655.8440295738973
 20
889.4999817553657
 30
0.0
 11
655.8440295738973
 21
754.4999817553657
 31
0.0
  0
LINE
  5
19328
330
1F
100
AcDbEntity
  8
破線
100
AcDbLine
 10
655.8440295738973
 20
745.4999817553657
 30
0.0
 11
655.8440295738973
 21
610.4999817553657
 31
0.0
  0
LINE
  5
19329
330
1F
100
AcDbEntity
  8
破線
100
AcDbLine
 10
646.8440295738973
 20
745.4999817553657
 30
0.0
 11
646.8440295738973
 21
610.4999817553657
 31
0.0
  0
LINE
  5
1932A
330
1F
100
AcDbEntity
  8
破線
100
AcDbLine
 10
646.8440295738973
 20
889.4999817553657
 30
0.0
 11
655.8440295738973
 21
889.4999817553657
 31
0.0
  0
LINE
  5
1932B
330
1F
100
AcDbEntity
  8
破線
100
AcDbLine
 10
646.8440295738973
 20
610.4999817553657
 30
0.0
 11
655.8440295738973
 21
610.4999817553657
 31
0.0
  0
DIMENSION
  5
1932C
330
1F
100
AcDbEntity
  8
寸法線
100
AcDbDimension
280
     0
  2
*D33
 10
811.344031984102
 20
469.9999999999749
 30
0.0
 11
651.344031984102
 21
469.9999999999749
 31
0.0
 70
   160
 71
     5
 42
320.0
 73
     0
 74
     0
 75
     0
  3
STANDARD
100
AcDbAlignedDimension
 13
491.3440319841019
 23
589.9999999999749
 33
0.0
 14
811.344031984102
 24
589.9999999999749
 34
0.0
100
AcDbRotatedDimension
  0
DIMENSION
  5
1932D
330
1F
100
AcDbEntity
  8
寸法線
100
AcDbDimension
280
     0
  2
*D34
 10
371.3439680158615
 20
909.9999999999754
 30
0.0
 11
371.3439680158617
 21
749.999999999975
 31
0.0
 70
   160
 71
     5
 42
320.0000000000001
 73
     0
 74
     0
 75
     0
  3
STANDARD
100
AcDbAlignedDimension
 13
491.3439680158616
 23
589.9999999999749
 33
0.0
 14
491.3439680158616
 24
909.999999999975
 34
0.0
 50
90.0
100
AcDbRotatedDimension
  0
LINE
  5
1932E
330
1F
100
AcDbEntity
  8
中心線
100
AcDbLine
 10
651.3439999999818
 20
564.9999817553657
 30
0.0
 11
651.3439999999818
 21
934.9999817553657
 31
0.0
  0
LINE
  5
19792
330
1F
100
AcDbEntity
  8
実線
100
AcDbLine
 10
2261.344295446091
 20
600.0003767835192
 30
0.0
 11
2051.34429544609
 21
600.0003767835192
 31
0.0
  0
LINE
  5
19793
330
1F
100
AcDbEntity
  8
実線
100
AcDbLine
 10
2261.344295446091
 20
609.0003767835192
 30
0.0
 11
2051.34429544609
 21
609.0003767835192
 31
0.0
  0
LINE
  5
19794
330
1F
100
AcDbEntity
  8
実線
100
AcDbLine
 10
2051.34429544609
 20
891.0003767835192
 30
0.0
 11
2261.344295446091
 21
891.0003767835192
 31
0.0
  0
LINE
  5
19795
330
1F
100
AcDbEntity
  8
実線
100
AcDbLine
 10
2051.34429544609
 20
900.0003767835192
 30
0.0
 11
2261.344295446091
 21
900.0003767835192
 31
0.0
  0
LINE
  5
19796
330
1F
100
AcDbEntity
  8
実線
100
AcDbLine
 10
1996.343896414967
 20
589.9999817553657
 30
0.0
 11
2316.343896414967
 21
589.9999817553657
 31
0.0
  0
LINE
  5
19797
330
1F
100
AcDbEntity
  8
実線
100
AcDbLine
 10
1996.343896414967
 20
909.9999817553657
 30
0.0
 11
2316.343896414967
 21
909.9999817553657
 31
0.0
  0
LINE
  5
19798
330
1F
100
AcDbEntity
  8
中心線
100
AcDbLine
 10
1986.343896414967
 20
750.0003767835192
 30
0.0
 11
2326.343896414968
 21
750.0003767835192
 31
0.0
  0
LINE
  5
19799
330
1F
100
AcDbEntity
  8
実線
100
AcDbLine
 10
2051.34429544609
 20
900.0003767835192
 30
0.0
 11
2051.34429544609
 21
891.0003767835192
 31
0.0
  0
LINE
  5
1979A
330
1F
100
AcDbEntity
  8
中心線
100
AcDbLine
 10
2031.344295446091
 20
925.0003767835192
 30
0.0
 11
2031.344295446091
 21
825.0003767835192
 31
0.0
  0
CIRCLE
  5
1979B
330
1F
100
AcDbEntity
  8
実線
100
AcDbCircle
 10
2031.344295446091
 20
875.0003767835192
 30
0.0
 40
25.0
  0
LINE
  5
1979C
330
1F
100
AcDbEntity
  8
実線
100
AcDbLine
 10
1996.343896414967
 20
589.9999817553657
 30
0.0
 11
1996.343896414967
 21
909.9999817553657
 31
0.0
  0
LINE
  5
1979D
330
1F
100
AcDbEntity
  8
中心線
100
AcDbLine
 10
1981.34429544609
 20
625.0003767835192
 30
0.0
 11
2081.344295446091
 21
625.0003767835192
 31
0.0
  0
LINE
  5
1979E
330
1F
100
AcDbEntity
  8
中心線
100
AcDbLine
 10
1981.34429544609
 20
875.0003767835192
 30
0.0
 11
2081.344295446091
 21
875.0003767835192
 31
0.0
  0
LINE
  5
1979F
330
1F
100
AcDbEntity
  8
実線
100
AcDbLine
 10
2006.344295446091
 20
645.0003767835191
 30
0.0
 11
2006.344295446091
 21
855.0003767835191
 31
0.0
  0
LINE
  5
197A0
330
1F
100
AcDbEntity
  8
実線
100
AcDbLine
 10
2015.344295446091
 20
645.0003767835191
 30
0.0
 11
2015.344295446091
 21
855.0003767835191
 31
0.0
  0
LINE
  5
197A1
330
1F
100
AcDbEntity
  8
中心線
100
AcDbLine
 10
2031.344295446091
 20
675.0003767835192
 30
0.0
 11
2031.344295446091
 21
575.0003767835192
 31
0.0
  0
CIRCLE
  5
197A2
330
1F
100
AcDbEntity
  8
実線
100
AcDbCircle
 10
2031.344295446091
 20
625.0003767835192
 30
0.0
 40
25.0
  0
LINE
  5
197A3
330
1F
100
AcDbEntity
  8
実線
100
AcDbLine
 10
2051.34429544609
 20
600.0003767835192
 30
0.0
 11
2051.34429544609
 21
609.0003767835192
 31
0.0
  0
LINE
  5
197A4
330
1F
100
AcDbEntity
  8
実線
100
AcDbLine
 10
2006.344295446091
 20
645.0003767835191
 30
0.0
 11
2015.344295446091
 21
645.0003767835191
 31
0.0
  0
LINE
  5
197A5
330
1F
100
AcDbEntity
  8
実線
100
AcDbLine
 10
2006.344295446091
 20
855.0003767835191
 30
0.0
 11
2015.344295446091
 21
855.0003767835191
 31
0.0
  0
LINE
  5
197A6
330
1F
100
AcDbEntity
  8
実線
100
AcDbLine
 10
2261.344295446091
 20
900.0003767835192
 30
0.0
 11
2261.344295446091
 21
891.0003767835192
 31
0.0
  0
LINE
  5
197A7
330
1F
100
AcDbEntity
  8
中心線
100
AcDbLine
 10
2281.344295446091
 20
925.0003767835192
 30
0.0
 11
2281.344295446091
 21
825.0003767835192
 31
0.0
  0
CIRCLE
  5
197A8
330
1F
100
AcDbEntity
  8
実線
100
AcDbCircle
 10
2281.344295446091
 20
875.0003767835192
 30
0.0
 40
25.0
  0
LINE
  5
197A9
330
1F
100
AcDbEntity
  8
実線
100
AcDbLine
 10
2316.343896414967
 20
589.9999817553657
 30
0.0
 11
2316.343896414967
 21
909.9999817553657
 31
0.0
  0
LINE
  5
197AA
330
1F
100
AcDbEntity
  8
中心線
100
AcDbLine
 10
2156.344295446091
 20
919.9999817553658
 30
0.0
 11
2156.344295446091
 21
579.9999817553657
 31
0.0
  0
LINE
  5
197AB
330
1F
100
AcDbEntity
  8
実線
100
AcDbLine
 10
2306.344295446091
 20
855.0003767835191
 30
0.0
 11
2306.344295446091
 21
645.0003767835191
 31
0.0
  0
LINE
  5
197AC
330
1F
100
AcDbEntity
  8
実線
100
AcDbLine
 10
2297.344295446091
 20
855.0003767835191
 30
0.0
 11
2297.344295446091
 21
645.0003767835191
 31
0.0
  0
LINE
  5
197AD
330
1F
100
AcDbEntity
  8
中心線
100
AcDbLine
 10
2231.344295446091
 20
625.0003767835192
 30
0.0
 11
2331.344295446091
 21
625.0003767835192
 31
0.0
  0
CIRCLE
  5
197AE
330
1F
100
AcDbEntity
  8
実線
100
AcDbCircle
 10
2281.344295446091
 20
625.0003767835192
 30
0.0
 40
25.0
  0
LINE
  5
197AF
330
1F
100
AcDbEntity
  8
実線
100
AcDbLine
 10
2261.344295446091
 20
600.0003767835192
 30
0.0
 11
2261.344295446091
 21
609.0003767835192
 31
0.0
  0
LINE
  5
197B0
330
1F
100
AcDbEntity
  8
中心線
100
AcDbLine
 10
2281.344295446091
 20
675.0003767835192
 30
0.0
 11
2281.344295446091
 21
575.0003767835192
 31
0.0
  0
LINE
  5
197B1
330
1F
100
AcDbEntity
  8
実線
100
AcDbLine
 10
2306.344295446091
 20
645.0003767835191
 30
0.0
 11
2297.344295446091
 21
645.0003767835191
 31
0.0
  0
LINE
  5
197B2
330
1F
100
AcDbEntity
  8
中心線
100
AcDbLine
 10
2231.344295446091
 20
875.0003767835192
 30
0.0
 11
2331.344295446091
 21
875.0003767835192
 31
0.0
  0
LINE
  5
197B3
330
1F
100
AcDbEntity
  8
実線
100
AcDbLine
 10
2306.344295446091
 20
855.0003767835191
 30
0.0
 11
2297.344295446091
 21
855.0003767835191
 31
0.0
  0
LINE
  5
197B4
330
1F
100
AcDbEntity
  8
実線
100
AcDbLine
 10
2160.844295446091
 20
889.5003767835191
 30
0.0
 11
2160.844295446091
 21
754.5003767835192
 31
0.0
  0
LINE
  5
197B5
330
1F
100
AcDbEntity
  8
実線
100
AcDbLine
 10
2151.844295446091
 20
889.5003767835191
 30
0.0
 11
2151.844295446091
 21
754.5003767835192
 31
0.0
  0
LINE
  5
197B6
330
1F
100
AcDbEntity
  8
実線
100
AcDbLine
 10
2016.344295446091
 20
754.5003767835192
 30
0.0
 11
2296.344295446091
 21
754.5003767835192
 31
0.0
  0
LINE
  5
197B7
330
1F
100
AcDbEntity
  8
実線
100
AcDbLine
 10
2016.344295446091
 20
745.5003767835192
 30
0.0
 11
2296.344295446091
 21
745.5003767835192
 31
0.0
  0
LINE
  5
197B8
330
1F
100
AcDbEntity
  8
実線
100
AcDbLine
 10
2160.844295446091
 20
745.5003767835192
 30
0.0
 11
2160.844295446091
 21
610.5003767835191
 31
0.0
  0
LINE
  5
197B9
330
1F
100
AcDbEntity
  8
実線
100
AcDbLine
 10
2151.844295446091
 20
745.5003767835192
 30
0.0
 11
2151.844295446091
 21
610.5003767835191
 31
0.0
  0
LINE
  5
197BA
330
1F
100
AcDbEntity
  8
実線
100
AcDbLine
 10
2296.344295446091
 20
754.5003767835192
 30
0.0
 11
2296.344295446091
 21
745.5003767835192
 31
0.0
  0
LINE
  5
197BB
330
1F
100
AcDbEntity
  8
実線
100
AcDbLine
 10
2016.344295446091
 20
745.5003767835192
 30
0.0
 11
2016.344295446091
 21
754.5003767835192
 31
0.0
  0
LINE
  5
197BC
330
1F
100
AcDbEntity
  8
実線
100
AcDbLine
 10
2151.844295446091
 20
610.5003767835191
 30
0.0
 11
2160.844295446091
 21
610.5003767835191
 31
0.0
  0
LINE
  5
197BD
330
1F
100
AcDbEntity
  8
実線
100
AcDbLine
 10
2151.844295446091
 20
889.5003767835191
 30
0.0
 11
2160.844295446091
 21
889.5003767835191
 31
0.0
  0
LINE
  5
197BE
330
1F
100
AcDbEntity
  8
実線
100
AcDbLine
 10
2546.344295446091
 20
570.0003767835191
 30
0.0
 11
2906.344295446091
 21
570.0003767835191
 31
0.0
  0
LINE
  5
197BF
330
1F
100
AcDbEntity
  8
実線
100
AcDbLine
 10
2546.344295446091
 20
930.0003767835191
 30
0.0
 11
2906.344295446091
 21
930.0003767835191
 31
0.0
  0
CIRCLE
  5
197C0
330
1F
100
AcDbEntity
  8
実線
100
AcDbCircle
 10
2726.344295446091
 20
750.0003767835192
 30
0.0
 40
110.0
  0
LINE
  5
197C1
330
1F
100
AcDbEntity
  8
実線
100
AcDbLine
 10
2546.344295446091
 20
570.0003767835191
 30
0.0
 11
2546.344295446091
 21
930.0003767835191
 31
0.0
  0
LINE
  5
197C2
330
1F
100
AcDbEntity
  8
中心線
100
AcDbLine
 10
2726.344295446091
 20
940.0003767835192
 30
0.0
 11
2726.344295446091
 21
560.0003767835191
 31
0.0
  0
CIRCLE
  5
197C3
330
1F
100
AcDbEntity
  8
実線
100
AcDbCircle
 10
2601.344295446091
 20
625.0003767835192
 30
0.0
 40
25.25
  0
LINE
  5
197C4
330
1F
100
AcDbEntity
  8
中心線
100
AcDbLine
 10
2601.344295446091
 20
675.0003767835192
 30
0.0
 11
2601.344295446091
 21
575.0003767835192
 31
0.0
  0
LINE
  5
197C5
330
1F
100
AcDbEntity
  8
中心線
100
AcDbLine
 10
2551.344295446091
 20
625.0003767835192
 30
0.0
 11
2651.344295446091
 21
625.0003767835192
 31
0.0
  0
LINE
  5
197C6
330
1F
100
AcDbEntity
  8
中心線
100
AcDbLine
 10
2601.344295446091
 20
925.0003767835192
 30
0.0
 11
2601.344295446091
 21
825.0003767835192
 31
0.0
  0
LINE
  5
197C7
330
1F
100
AcDbEntity
  8
中心線
100
AcDbLine
 10
2551.344295446091
 20
875.0003767835192
 30
0.0
 11
2651.344295446091
 21
875.0003767835192
 31
0.0
  0
CIRCLE
  5
197C8
330
1F
100
AcDbEntity
  8
実線
100
AcDbCircle
 10
2601.344295446091
 20
875.0003767835192
 30
0.0
 40
25.25
  0
LINE
  5
197C9
330
1F
100
AcDbEntity
  8
実線
100
AcDbLine
 10
2906.344295446091
 20
570.0003767835191
 30
0.0
 11
2906.344295446091
 21
930.0003767835191
 31
0.0
  0
CIRCLE
  5
197CA
330
1F
100
AcDbEntity
  8
実線
100
AcDbCircle
 10
2851.344295446091
 20
625.0003767835192
 30
0.0
 40
25.25
  0
LINE
  5
197CB
330
1F
100
AcDbEntity
  8
中心線
100
AcDbLine
 10
2851.344295446091
 20
675.0003767835192
 30
0.0
 11
2851.344295446091
 21
575.0003767835192
 31
0.0
  0
LINE
  5
197CC
330
1F
100
AcDbEntity
  8
中心線
100
AcDbLine
 10
2801.344295446091
 20
625.0003767835192
 30
0.0
 11
2901.34429544609
 21
625.0003767835192
 31
0.0
  0
LINE
  5
197CD
330
1F
100
AcDbEntity
  8
中心線
100
AcDbLine
 10
2851.344295446091
 20
925.0003767835192
 30
0.0
 11
2851.344295446091
 21
825.0003767835192
 31
0.0
  0
CIRCLE
  5
197CE
330
1F
100
AcDbEntity
  8
実線
100
AcDbCircle
 10
2851.344295446091
 20
875.0003767835192
 30
0.0
 40
25.25
  0
LINE
  5
197CF
330
1F
100
AcDbEntity
  8
中心線
100
AcDbLine
 10
2801.344295446091
 20
875.0003767835192
 30
0.0
 11
2901.34429544609
 21
875.0003767835192
 31
0.0
  0
LINE
  5
197D0
330
1F
100
AcDbEntity
  8
中心線
100
AcDbLine
 10
2536.344295446091
 20
750.0003767835192
 30
0.0
 11
2916.344295446091
 21
750.0003767835192
 31
0.0
  0
DIMENSION
  5
197D1
330
1F
100
AcDbEntity
  8
寸法線
100
AcDbDimension
280
     0
  2
*D35
 10
2832.596136337557
 20
778.470471746098
 30
0.0
 11
2764.981328497665
 21
760.3531385876453
 31
0.0
 70
   160
  1
%%C<>
 71
     5
 42
220.0000000000332
 73
     0
 74
     0
 75
     0
  3
STANDARD
100
AcDbAlignedDimension
 13
2620.09245455428
 23
721.5302818222303
 33
0.0
 14
2832.596136337902
 24
778.470471744808
 34
0.0
 50
15.00000000108161
100
AcDbRotatedDimension
  0
CIRCLE
  5
197D2
330
1F
100
AcDbEntity
  8
実線
100
AcDbCircle
 10
2601.344295446091
 20
625.0003767835192
 30
0.0
 40
26.5
  0
CIRCLE
  5
197D3
330
1F
100
AcDbEntity
  8
実線
100
AcDbCircle
 10
2601.344295446091
 20
875.0003767835192
 30
0.0
 40
26.5
  0
CIRCLE
  5
197D4
330
1F
100
AcDbEntity
  8
実線
100
AcDbCircle
 10
2851.344295446091
 20
875.0003767835192
 30
0.0
 40
26.5
  0
CIRCLE
  5
197D5
330
1F
100
AcDbEntity
  8
実線
100
AcDbCircle
 10
2851.344295446091
 20
625.0003767835192
 30
0.0
 40
26.5
  0
TEXT
  5
197D6
330
1F
100
AcDbEntity
  8
寸法線
100
AcDbText
 10
2086.343896414967
 20
396.7288559204066
 30
0.0
 40
25.0
  1
断面Ａ－Ａ
 72
     1
 11
2156.343896414967
 21
396.7288559204066
 31
0.0
100
AcDbText
 73
     1
  0
LINE
  5
197D7
330
1F
100
AcDbEntity
  8
寸法線
100
AcDbLine
 10
2077.593896414967
 20
390.0000310830697
 30
0.0
 11
2235.093896414968
 21
390.0000310830697
 31
0.0
  0
DIMENSION
  5
197D8
330
1F
100
AcDbEntity
  8
寸法線
100
AcDbDimension
280
     0
  2
*D36
 10
2281.344327430211
 20
469.9999817553657
 30
0.0
 11
2156.344327430211
 21
469.9999817553657
 31
0.0
 70
   160
 71
     5
 42
250.0
 73
     0
 74
     0
 75
     0
  3
STANDARD
100
AcDbAlignedDimension
 13
2031.344327430211
 23
575.0003767835192
 33
0.0
 14
2281.344327430211
 24
575.0003767835192
 34
0.0
100
AcDbRotatedDimension
  0
DIMENSION
  5
197D9
330
1F
100
AcDbEntity
  8
寸法線
100
AcDbDimension
280
     0
  2
*D37
 10
2316.343928399088
 20
469.9999817553657
 30
0.0
 11
2298.844127914649
 21
469.9999817553657
 31
0.0
 70
   160
 71
     5
 42
34.99960096887662
 73
     0
 74
     0
 75
     0
  3
STANDARD
100
AcDbAlignedDimension
 13
2281.344327430211
 23
575.0003767835192
 33
0.0
 14
2316.343928399088
 24
589.9999817553657
 34
0.0
100
AcDbRotatedDimension
  0
DIMENSION
  5
197DA
330
1F
100
AcDbEntity
  8
寸法線
100
AcDbDimension
280
     0
  2
*D38
 10
2436.343928399088
 20
875.0003767835195
 30
0.0
 11
2436.343928399088
 21
750.0003767835192
 31
0.0
 70
   160
 71
     5
 42
250.0000000000001
 73
     0
 74
     0
 75
     0
  3
STANDARD
100
AcDbAlignedDimension
 13
2331.344327430211
 23
625.0003767835192
 33
0.0
 14
2331.344327430211
 24
875.0003767835192
 34
0.0
 50
90.0
100
AcDbRotatedDimension
  0
DIMENSION
  5
197DB
330
1F
100
AcDbEntity
  8
寸法線
100
AcDbDimension
280
     0
  2
*D39
 10
2436.343928399088
 20
625.0003767835194
 30
0.0
 11
2436.343928399088
 21
607.5001792694418
 31
0.0
 70
   160
 71
     5
 42
35.00039502815344
 73
     0
 74
     0
 75
     0
  3
STANDARD
100
AcDbAlignedDimension
 13
2316.343928399088
 23
589.9999817553657
 33
0.0
 14
2331.344327430211
 24
625.0003767835192
 34
0.0
 50
90.0
100
AcDbRotatedDimension
  0
DIMENSION
  5
197DC
330
1F
100
AcDbEntity
  8
寸法線
100
AcDbDimension
280
     0
  2
*D40
 10
2436.343928399088
 20
909.9999817553662
 30
0.0
 11
2436.343928399088
 21
892.500179269442
 31
0.0
 70
   160
 71
     5
 42
34.99960497184657
 73
     0
 74
     0
 75
     0
  3
STANDARD
100
AcDbAlignedDimension
 13
2331.344327430211
 23
875.0003767835192
 33
0.0
 14
2316.343928399088
 24
909.9999817553657
 34
0.0
 50
90.0
100
AcDbRotatedDimension
  0
DIMENSION
  5
197DD
330
1F
100
AcDbEntity
  8
寸法線
100
AcDbDimension
280
     0
  2
*D41
 10
2906.344295446091
 20
469.9999817553657
 30
0.0
 11
2726.344726461335
 21
469.9999817553657
 31
0.0
 70
   160
 71
     5
 42
360.0
 73
     0
 74
     0
 75
     0
  3
STANDARD
100
AcDbAlignedDimension
 13
2546.344295446091
 23
570.0003767835191
 33
0.0
 14
2906.344295446091
 24
570.0003767835191
 34
0.0
100
AcDbRotatedDimension
  0
DIMENSION
  5
197DE
330
1F
100
AcDbEntity
  8
寸法線
100
AcDbDimension
280
     0
  2
*D42
 10
3006.344327430211
 20
930.0003767835196
 30
0.0
 11
3006.344327430211
 21
750.0003767835192
 31
0.0
 70
   160
 71
     5
 42
360.0000000000001
 73
     0
 74
     0
 75
     0
  3
STANDARD
100
AcDbAlignedDimension
 13
2906.344295446091
 23
570.0003767835191
 33
0.0
 14
2906.344295446091
 24
930.0003767835191
 34
0.0
 50
90.0
100
AcDbRotatedDimension
  0
LINE
  5
197DF
330
1F
100
AcDbEntity
  8
寸法線
100
AcDbLine
 10
2646.077315628528
 20
390.0000310830697
 30
0.0
 11
2806.611275263654
 21
390.0000310830697
 31
0.0
  0
TEXT
  5
197E0
330
1F
100
AcDbEntity
  8
寸法線
100
AcDbText
 10
2657.47958286805
 20
396.7288559204066
 30
0.0
 40
24.0
  1
断面Ｂ－Ｂ
100
AcDbText
  0
DIMENSION
  5
197E1
330
1F
100
AcDbEntity
  8
寸法線
100
AcDbDimension
280
     0
  2
*D43
 10
1996.344662493094
 20
469.9999817553657
 30
0.0
 11
2013.844462977532
 21
469.9999817553657
 31
0.0
 70
   160
 71
     5
 42
34.99960096887662
 73
     0
 74
     0
 75
     0
  3
STANDARD
100
AcDbAlignedDimension
 13
2031.344263461971
 23
575.0003767835192
 33
0.0
 14
1996.344662493094
 24
589.9999817553657
 34
0.0
 50
180.0
100
AcDbRotatedDimension
  0
TEXT
  5
1991F
330
1F
100
AcDbEntity
  8
寸法線
100
AcDbText
 10
2494.625296701937
 20
2125.929265116776
 30
0.0
 40
25.0
  1
ｴﾝﾄﾞﾌﾟﾚｰﾄ
 11
2494.625296701937
 21
2125.929265116776
 31
0.0
100
AcDbText
 73
     1
  0
LEADER
  5
19920
330
1F
100
AcDbEntity
  8
寸法線
100
AcDbLeader
  3
STANDARD
 76
     2
 10
2686.499976388739
 20
2119.999970926072
 30
0.0
 10
2492.335237114004
 20
2119.999970926072
 30
0.0
1001
ACAD
1000
DSTYLE
1002
{
1070
   147
1040
0.875
1070
    77
1070
     0
1002
}
  0
VIEWPORT
  5
794
330
78D
100
AcDbEntity
 67
     1
  8
0
100
AcDbViewport
 10
204.0995798351864
 20
142.5892483948869
 30
0.0
 40
569.0885909000408
 41
287.8577661393947
 68
     1
 69
     1
 12
204.0995798351864
 22
142.5892483948869
 13
0.0
 23
0.0
 14
10.0
 24
10.0
 15
10.0
 25
10.0
 16
0.0
 26
0.0
 36
1.0
 17
0.0
 27
0.0
 37
0.0
 42
50.0
 43
0.0
 44
0.0
 45
287.8577661393947
 50
0.0
 51
0.0
 72
  1000
 90
    32800
  1

281
     0
 71
     1
 74
     0
110
0.0
120
0.0
130
0.0
111
1.0
121
0.0
131
0.0
112
0.0
122
1.0
132
0.0
 79
     0
146
0.0
170
     0
 61
     5
348
D7C2
292
     1
282
     1
141
0.0
142
0.0
 63
   250
421
  3355443
  0
VIEWPORT
  5
796
330
78D
100
AcDbEntity
 67
     1
  8
Defpoints
100
AcDbViewport
 10
204.099579334259
 20
142.5892481803894
 30
0.0
 40
408.1991586685178
 41
285.1784963607788
 68
     2
 69
     2
 12
2100.207206595808
 22
1486.804522350007
 13
0.0
 23
0.0
 14
10.0
 24
10.0
 15
10.0
 25
10.0
 16
0.0
 26
0.0
 36
1.0
 17
0.0
 27
0.0
 37
0.0
 42
50.0
 43
0.0
 44
0.0
 45
2851.784980677949
 50
0.0
 51
0.0
 72
  1000
 90
    32864
  1

281
     0
 71
     1
 74
     0
110
0.0
120
0.0
130
0.0
111
1.0
121
0.0
131
0.0
112
0.0
122
1.0
132
0.0
 79
     0
146
0.0
170
     0
 61
     5
348
D7C2
292
     1
282
     1
141
0.0
142
0.0
 63
   250
421
  3355443
  0
LINE
  5
9A2
330
78D
100
AcDbEntity
 67
     1
  8
図面枠
100
AcDbLine
 10
14.0996
 20
6.589249999999998
 30
0.0
 11
14.0996
 21
278.58925
 31
0.0
  0
LINE
  5
9A3
330
78D
100
AcDbEntity
 67
     1
  8
図面枠
100
AcDbLine
 10
404.0995999999998
 20
6.589249999999998
 30
0.0
 11
404.0995999999998
 21
278.58925
 31
0.0
  0
LINE
  5
9A4
330
78D
100
AcDbEntity
 67
     1
  8
図面枠
100
AcDbLine
 10
14.0996
 20
278.58925
 30
0.0
 11
404.0995999999998
 21
278.58925
 31
0.0
  0
LINE
  5
9A5
330
78D
100
AcDbEntity
 67
     1
  8
図面枠
100
AcDbLine
 10
14.0996
 20
6.589249999999998
 30
0.0
 11
404.0995999999998
 21
6.589249999999991
 31
0.0
  0
LINE
  5
9BB
330
78D
100
AcDbEntity
 67
     1
  8
図面枠
100
AcDbLine
 10
289.0996
 20
36.58924999999999
 30
0.0
 11
404.0995999999998
 21
36.58924999999999
 31
0.0
  0
LINE
  5
9BC
330
78D
100
AcDbEntity
 67
     1
  8
図面枠
100
AcDbLine
 10
289.0996
 20
30.58924999999999
 30
0.0
 11
404.0995999999998
 21
30.58924999999999
 31
0.0
  0
LINE
  5
9BE
330
78D
100
AcDbEntity
 67
     1
  8
図面枠
100
AcDbLine
 10
289.0996
 20
36.5893
 30
0.0
 11
289.0996
 21
6.589249999999991
 31
0.0
  0
LINE
  5
9C4
330
78D
100
AcDbEntity
 67
     1
  8
図面枠
100
AcDbLine
 10
289.0996
 20
18.58924999999999
 30
0.0
 11
404.0995999999998
 21
18.58924999999999
 31
0.0
  0
LINE
  5
9D0
330
78D
100
AcDbEntity
 67
     1
  8
図面枠
100
AcDbLine
 10
352.0996
 20
36.58924999999999
 30
0.0
 11
352.0996
 21
6.589249999999991
 31
0.0
  0
LINE
  5
9D2
330
78D
100
AcDbEntity
 67
     1
  8
図面枠
100
AcDbLine
 10
304.0996
 20
24.58924999999999
 30
0.0
 11
349.0996
 21
24.58924999999999
 31
0.0
  0
TEXT
  5
9ED
330
78D
100
AcDbEntity
 67
     1
  8
図面枠
100
AcDbText
 10
289.97465
 20
27.21424999999999
 30
0.0
 40
2.5
  1
名　称
 11
289.97465
 21
29.71424999999999
 31
0.0
100
AcDbText
 73
     3
  0
TEXT
  5
A52
330
78D
100
AcDbEntity
 67
     1
  8
図面枠
100
AcDbText
 10
352.97465
 20
27.21424999999999
 30
0.0
 40
2.5
  1
摘　要
 11
352.97465
 21
29.71424999999999
 31
0.0
100
AcDbText
 73
     3
  0
TEXT
  5
A53
330
78D
100
AcDbEntity
 67
     1
  8
図面枠
100
AcDbText
 10
352.9746
 20
15.21424999999999
 30
0.0
 40
2.5
  1
型　式
 11
352.9746
 21
17.71424999999999
 31
0.0
100
AcDbText
 73
     3
  0
TEXT
  5
A59
330
78D
100
AcDbEntity
 67
     1
  8
図面枠
100
AcDbText
 10
313.5162666666667
 20
26.33924999999999
 30
0.0
 40
2.5
  1
スルーサーＢ構造図
 72
     1
 11
326.5996
 21
26.33924999999999
 31
0.0
100
AcDbText
 73
     1
  0
TEXT
  5
A5A
330
78D
100
AcDbEntity
 67
     1
  8
図面枠
100
AcDbText
 10
317.7861157480315
 20
20.33924999999999
 30
0.0
 40
2.5
  1
切り梁H-300
 72
     1
 11
326.5996
 21
22.83924999999999
 31
0.0
100
AcDbText
 73
     3
  0
TEXT
  5
A63
330
78D
100
AcDbEntity
 67
     1
  8
図面枠
100
AcDbText
 10
368.0162666666667
 20
8.33924999999999
 30
0.0
 40
2.5
  1
Ｈ３０－Ｗ９０
 72
     1
 11
378.0996
 21
8.33924999999999
 31
0.0
100
AcDbText
 73
     1
  0
TEXT
  5
933A
330
78D
100
AcDbEntity
 67
     1
  8
図面枠
100
AcDbText
 10
300.0162781896648
 20
10.58922126233957
 30
0.0
 40
4.0
  1
三研テクノクリエイト
 11
300.0162781896648
 21
12.58922126233957
 31
0.0
100
AcDbText
 73
     2
  0
TEXT
  5
933B
330
78D
100
AcDbEntity
 67
     1
  8
図面枠
100
AcDbText
 10
294.2496115229981
 20
12.83922126233957
 30
0.0
 40
2.0
  1
株式
 72
     2
 11
298.5162781896648
 21
12.83922126233957
 31
0.0
100
AcDbText
 73
     1
  0
TEXT
  5
933C
330
78D
100
AcDbEntity
 67
     1
  8
図面枠
100
AcDbText
 10
294.2496115229981
 20
10.33922126233957
 30
0.0
 40
2.0
  1
会社
 72
     2
 11
298.5162781896648
 21
12.33922126233957
 31
0.0
100
AcDbText
 73
     3
  0
LINE
  5
13395
330
78D
100
AcDbEntity
 67
     1
  8
図面枠
100
AcDbLine
 10
234.0996
 20
15.58924999999999
 30
0.0
 11
289.0996
 21
15.58924999999999
 31
0.0
  0
LINE
  5
13396
330
78D
100
AcDbEntity
 67
     1
  8
図面枠
100
AcDbLine
 10
234.0996
 20
15.58924999999999
 30
0.0
 11
234.0996
 21
6.589249999999991
 31
0.0
  0
LINE
  5
13398
330
78D
100
AcDbEntity
 67
     1
  8
図面枠
100
AcDbLine
 10
289.0996
 20
15.58924999999999
 30
0.0
 11
289.0996
 21
6.589249999999991
 31
0.0
  0
LINE
  5
13399
330
78D
100
AcDbEntity
 67
     1
  8
図面枠
100
AcDbLine
 10
234.0996
 20
6.589249999999991
 30
0.0
 11
289.0996
 21
6.589249999999991
 31
0.0
  0
LINE
  5
1340C
330
78D
100
AcDbEntity
 67
     1
  8
図面枠
100
AcDbLine
 10
383.0996
 20
36.58930000000001
 30
0.0
 11
383.0996
 21
30.58925000000002
 31
0.0
  0
LINE
  5
1340D
330
78D
100
AcDbEntity
 67
     1
  8
図面枠
100
AcDbLine
 10
312.0996
 20
36.58925000000002
 30
0.0
 11
312.0996
 21
30.58925000000002
 31
0.0
  0
TEXT
  5
1340E
330
78D
100
AcDbEntity
 67
     1
  8
図面枠
100
AcDbText
 10
289.9746
 20
32.33925000000002
 30
0.0
 40
2.5
  1
重量
 11
289.9746
 21
32.33925000000002
 31
0.0
100
AcDbText
 73
     1
  0
TEXT
  5
1340F
330
78D
100
AcDbEntity
 67
     1
  8
図面枠
100
AcDbText
 10
312.9746
 20
32.33930000000001
 30
0.0
 40
2.5
  1
表面仕上げ
 41
0.8
 11
312.9746
 21
32.33930000000001
 31
0.0
100
AcDbText
 73
     1
  0
TEXT
  5
13410
330
78D
100
AcDbEntity
 67
     1
  8
図面枠
100
AcDbText
 10
352.9746
 20
32.33925000000002
 30
0.0
 40
2.5
  1
日付
 11
352.9746
 21
32.33925000000002
 31
0.0
100
AcDbText
 73
     1
  0
TEXT
  5
13411
330
78D
100
AcDbEntity
 67
     1
  8
図面枠
100
AcDbText
 10
383.9746
 20
32.33925000000002
 30
0.0
 40
2.5
  1
尺度
 11
383.9746
 21
32.33925000000002
 31
0.0
100
AcDbText
 73
     1
  0
TEXT
  5
13412
330
78D
100
AcDbEntity
 67
     1
  8
図面枠
100
AcDbText
 10
300.3079
 20
32.33925000000002
 30
0.0
 40
2.5
  1
226kg
 11
300.3079
 21
32.33925000000002
 31
0.0
100
AcDbText
 73
     1
  0
TEXT
  5
13413
330
78D
100
AcDbEntity
 67
     1
  8
図面枠
100
AcDbText
 10
328.3079
 20
32.33930000000001
 30
0.0
 40
2.5
  1
鉄筋防錆剤
 41
0.8
 11
328.3079
 21
32.33930000000001
 31
0.0
100
AcDbText
 73
     1
  0
TEXT
  5
13415
330
78D
100
AcDbEntity
 67
     1
  8
図面枠
100
AcDbText
 10
394.3079
 20
32.33925000000002
 30
0.0
 40
2.5
  1
1/10
 11
394.3079
 21
32.33925000000002
 31
0.0
100
AcDbText
 73
     1
  0
TEXT
  5
13416
330
78D
100
AcDbEntity
 67
     1
  8
図面枠
100
AcDbText
 10
364.7662666666667
 20
20.86240908820162
 30
0.0
 40
2.5
  1
Ｈ３０－Ｗシリーズ
 72
     1
 11
378.0996
 21
20.86240908820162
 31
0.0
100
AcDbText
 73
     1
  0
TEXT
  5
170B7
330
78D
100
AcDbEntity
 67
     1
  8
図面枠
100
AcDbText
 10
235.7315942762783
 20
8.887940134352902
 30
0.0
 40
4.0
  1
スクラップ重量　164kg
 72
     1
 11
261.5040816496935
 21
8.887940134352902
 31
0.0
100
AcDbText
  0
TEXT
  5
194B3
330
78D
100
AcDbEntity
 67
     1
  8
図面枠
100
AcDbText
 10
363.3079
 20
32.33925000000002
 30
0.0
 40
2.5
  1
2024.01.01
 11
363.3079
 21
32.33925000000002
 31
0.0
100
AcDbText
 73
     1
  0
ENDSEC
  0
SECTION
  2
OBJECTS
  0
DICTIONARY
  5
C
330
0
100
AcDbDictionary
281
     1
  3
ACAD_CIP_PREVIOUS_PRODUCT_INFO
350
1722A
  3
ACAD_COLOR
350
6B
  3
ACAD_DETAILVIEWSTYLE
350
17224
  3
ACAD_GROUP
350
D
  3
ACAD_LAYOUT
350
1A
  3
ACAD_MATERIAL
350
6A
  3
ACAD_MLEADERSTYLE
350
D7DF
  3
ACAD_MLINESTYLE
350
17
  3
ACAD_PLOTSETTINGS
350
19
  3
ACAD_PLOTSTYLENAME
350
E
  3
ACAD_SCALELIST
350
D7CD
  3
ACAD_SECTIONVIEWSTYLE
350
17222
  3
ACAD_TABLESTYLE
350
7E
  3
ACAD_VISUALSTYLE
350
D7BC
  3
AcadDim
350
89BC
  3
ACDB_RECOMPOSE_DATA
350
19941
  3
ACDBHEADERROUNDTRIPXREC
350
13830
  3
AcDbVariableDictionary
350
5E
  3
AcDsDecomposeData
350
19947
  3
AEC_PROPERTY_SET_DEFS
350
D95F
  0
DICTIONARY
  5
D80C
330
8
100
AcDbDictionary
280
     1
281
     1
  0
DICTIONARY
  5
11D
330
2
100
AcDbDictionary
280
     1
281
     1
  3
ACAD_LAYERFILTERS
360
98AE
  3
ACAD_LAYERSTATES
360
11E
  3
ACLYDICTIONARY
360
98AD
  0
DICTIONARY
  5
D7F2
330
10
100
AcDbDictionary
280
     1
281
     1
  3
ADSK_XREC_LAYER_RECONCILED
360
D7F3
  0
DICTIONARY
  5
D7F6
330
1BF
100
AcDbDictionary
280
     1
281
     1
  3
ADSK_XREC_LAYER_RECONCILED
360
D7F7
  0
DICTIONARY
  5
D7FA
330
1C1
100
AcDbDictionary
280
     1
281
     1
  3
ADSK_XREC_LAYER_RECONCILED
360
D7FB
  0
DICTIONARY
  5
D7FE
330
1C3
100
AcDbDictionary
280
     1
281
     1
  3
ADSK_XREC_LAYER_RECONCILED
360
D7FF
  0
DICTIONARY
  5
D800
330
1C4
100
AcDbDictionary
280
     1
281
     1
  3
ADSK_XREC_LAYER_RECONCILED
360
D801
  0
DICTIONARY
  5
D802
330
1C5
100
AcDbDictionary
280
     1
281
     1
  3
ADSK_XREC_LAYER_RECONCILED
360
D803
  0
DICTIONARY
  5
D804
330
82E
100
AcDbDictionary
280
     1
281
     1
  3
ADSK_XREC_LAYER_RECONCILED
360
D805
  0
DICTIONARY
  5
5C91
330
1F
100
AcDbDictionary
280
     1
281
     1
  3
ACAD_SORTENTS
360
5C92
  0
DICTIONARY
  5
10075
330
C08
100
AcDbDictionary
280
     1
281
     1
  3
ACAD_SORTENTS
360
137A4
  0
XRECORD
  5
1722A
102
{ACAD_REACTORS
330
C
102
}
330
C
100
AcDbXrecord
280
     1
300
ACD
300
2023
300

  0
DICTIONARY
  5
6B
102
{ACAD_REACTORS
330
C
102
}
330
C
100
AcDbDictionary
281
     1
  0
DICTIONARY
  5
17224
102
{ACAD_REACTORS
330
C
102
}
330
C
100
AcDbDictionary
281
     1
  3
Metric50
350
17225
  0
DICTIONARY
  5
D
102
{ACAD_REACTORS
330
C
102
}
330
C
100
AcDbDictionary
281
     1
  0
DICTIONARY
  5
1A
102
{ACAD_REACTORS
330
C
102
}
330
C
100
AcDbDictionary
281
     1
  3
Model
350
22
  3
レイアウト1
350
78E
  0
DICTIONARY
  5
6A
102
{ACAD_REACTORS
330
C
102
}
330
C
100
AcDbDictionary
281
     1
  3
ByBlock
350
D7AC
  3
ByLayer
350
D7A4
  3
Global
350
D7B4
  0
DICTIONARY
  5
D7DF
102
{ACAD_REACTORS
330
C
102
}
330
C
100
AcDbDictionary
281
     1
  3
Standard
350
D7E0
  0
DICTIONARY
  5
17
102
{ACAD_REACTORS
330
C
102
}
330
C
100
AcDbDictionary
281
     1
  3
Standard
350
18
  0
DICTIONARY
  5
19
102
{ACAD_REACTORS
330
C
102
}
330
C
100
AcDbDictionary
281
     1
  0
ACDBDICTIONARYWDFLT
  5
E
102
{ACAD_REACTORS
330
C
102
}
330
C
100
AcDbDictionary
281
     1
  3
Normal
350
F
100
AcDbDictionaryWithDefault
340
F
  0
DICTIONARY
  5
D7CD
102
{ACAD_REACTORS
330
C
102
}
330
C
100
AcDbDictionary
281
     1
  3
A0
350
D7CE
  3
A1
350
D7CF
  3
A2
350
D7D0
  3
A3
350
D7D1
  3
A4
350
D7D2
  3
A5
350
D7D3
  3
A6
350
D7D4
  3
A7
350
D7D5
  3
A8
350
D7D6
  3
A9
350
D7D7
  3
B0
350
D7D8
  3
B1
350
D7D9
  3
B2
350
D7DA
  3
B3
350
D7DB
  3
B4
350
D7DC
  3
B5
350
D7DD
  3
B6
350
D7DE
  0
DICTIONARY
  5
17222
102
{ACAD_REACTORS
330
C
102
}
330
C
100
AcDbDictionary
281
     1
  3
Metric50
350
17223
  0
DICTIONARY
  5
7E
102
{ACAD_REACTORS
330
C
102
}
330
C
100
AcDbDictionary
281
     1
  3
Standard
350
7F
  0
DICTIONARY
  5
D7BC
102
{ACAD_REACTORS
330
C
102
}
330
C
100
AcDbDictionary
281
     1
  3
2dWireframe
350
D7C2
  3
3D Hidden
350
D7C4
  3
3dWireframe
350
D7C3
  3
Basic
350
D7C1
  3
Brighten
350
D7C8
  3
ColorChange
350
D7CC
  3
Conceptual
350
D7C5
  3
Dim
350
D7C7
  3
EdgeColorOff
350
17221
  3
Facepattern
350
D7CB
  3
Flat
350
D7BD
  3
FlatWithEdges
350
D7BE
  3
Gouraud
350
D7BF
  3
GouraudWithEdges
350
D7C0
  3
Hidden
350
17219
  3
JitterOff
350
1721F
  3
Linepattern
350
D7CA
  3
OverhangOff
350
17220
  3
Realistic
350
D7C6
  3
Shaded
350
1721E
  3
Shaded with edges
350
1721D
  3
Shades of Gray
350
1721A
  3
Sketchy
350
1721B
  3
Thicken
350
D7C9
  3
Wireframe
350
17218
  3
X-Ray
350
1721C
  0
XRECORD
  5
89BC
102
{ACAD_REACTORS
330
C
102
}
330
C
100
AcDbXrecord
280
     1
 90
   990106
  3

 60
     0
 61
     0
 62
     1
 63
     3
 64
     0
 65
     0
 66
     0
 67
     3
 68
     1
 69
     0
 70
     0
 71
     0
 72
     0
 40
0.0
170
     0
  0
XRECORD
  5
19941
102
{ACAD_REACTORS
330
C
102
}
330
C
100
AcDbXrecord
280
     1
 90
        1
330
7F
  0
DICTIONARY
  5
13830
102
{ACAD_REACTORS
330
C
102
}
330
C
100
AcDbDictionary
281
     1
  0
DICTIONARY
  5
5E
102
{ACAD_REACTORS
330
C
102
}
330
C
100
AcDbDictionary
281
     1
  3
CANNOSCALE
350
D81A
  3
CMLEADERSTYLE
350
D819
  3
CTABLESTYLE
350
84
  3
CVIEWDETAILSTYLE
350
17CDD
  3
CVIEWSECTIONSTYLE
350
17CDE
  3
DIMASSOC
350
5F
  3
HIDETEXT
350
63
  3
INDEXCTL
350
D81C
  3
LAYEREVAL
350
17CE1
  3
LAYERNOTIFY
350
17CE2
  3
LIGHTINGUNITS
350
17CE0
  3
MSLTSCALE
350
17CDF
  3
PROJECTNAME
350
D798
  3
SORTENTS
350
D81B
  0
DICTIONARY
  5
19947
102
{ACAD_REACTORS
330
C
102
}
330
C
100
AcDbDictionary
281
     1
  3
AcDsRecords
350
19949
  3
AcDsSchemas
350
19948
1001
ACAD
1070
     2
  0
DICTIONARY
  5
D95F
102
{ACAD_REACTORS
330
C
102
}
330
C
100
AcDbDictionary
281
     1
  0
DICTIONARY
  5
98AE
102
{ACAD_REACTORS
330
11D
102
}
330
11D
100
AcDbDictionary
281
     1
  0
DICTIONARY
  5
11E
102
{ACAD_REACTORS
330
11D
102
}
330
11D
100
AcDbDictionary
281
     1
  0
DICTIONARY
  5
98AD
102
{ACAD_REACTORS
330
11D
102
}
330
11D
100
AcDbDictionary
281
     1
1001
ACAD
1000
<All
  0
XRECORD
  5
D7F3
102
{ACAD_REACTORS
330
D7F2
102
}
330
D7F2
100
AcDbXrecord
280
     1
290
     1
  0
XRECORD
  5
D7F7
102
{ACAD_REACTORS
330
D7F6
102
}
330
D7F6
100
AcDbXrecord
280
     1
290
     1
  0
XRECORD
  5
D7FB
102
{ACAD_REACTORS
330
D7FA
102
}
330
D7FA
100
AcDbXrecord
280
     1
290
     1
  0
XRECORD
  5
D7FF
102
{ACAD_REACTORS
330
D7FE
102
}
330
D7FE
100
AcDbXrecord
280
     1
290
     1
  0
XRECORD
  5
D801
102
{ACAD_REACTORS
330
D800
102
}
330
D800
100
AcDbXrecord
280
     1
290
     1
  0
XRECORD
  5
D803
102
{ACAD_REACTORS
330
D802
102
}
330
D802
100
AcDbXrecord
280
     1
290
     1
  0
XRECORD
  5
D805
102
{ACAD_REACTORS
330
D804
102
}
330
D804
100
AcDbXrecord
280
     1
290
     1
  0
SORTENTSTABLE
  5
5C92
102
{ACAD_REACTORS
330
5C91
102
}
330
5C91
100
AcDbSortentsTable
330
1F
331
6107
  5
7B29
331
610F
  5
7B2A
  0
SORTENTSTABLE
  5
137A4
102
{ACAD_REACTORS
330
10075
102
}
330
10075
100
AcDbSortentsTable
330
C08
  0
ACDBDETAILVIEWSTYLE
  5
17225
102
{ACAD_XDICTIONARY
360
1994C
102
}
102
{ACAD_REACTORS
330
17224
102
}
330
17224
100
AcDbModelDocViewStyle
 70
     0
  3
Metric50
290
     0
100
AcDbDetailViewStyle
 70
     0
 71
     0
 90
        3
 71
     1
340
11
 62
   256
 40
5.0
340
0
 62
   256
 40
5.0
300

 40
0.0
280
     1
 71
     2
340
16
 90
       25
 62
   256
 71
     3
340
11
 62
   256
 40
5.0
 90
        0
 40
15.0
 90
        1
300
%<\AcVar ViewDetailId>% (%<\AcVar ViewScale \f "%sn">%)
 71
     4
340
16
 90
       25
 62
   256
340
16
 90
       25
 62
   256
280
     0
  0
LAYOUT
  5
22
102
{ACAD_REACTORS
330
1A
102
}
330
1A
100
AcDbPlotSettings
  1

  2
none_device
  4
ISO_A4_(210.00_x_297.00_MM)
  6

 40
7.5
 41
20.0
 42
7.5
 43
20.0
 44
210.0
 45
297.0
 46
11.54999923706054
 47
-13.65000009536743
 48
0.0
 49
0.0
140
0.0
141
0.0
142
1.0
143
8.704084754739808
 70
 11952
 72
     1
 73
     0
 74
     0
  7

 75
     0
147
0.1148885871608098
 76
     0
 77
     2
 78
   300
148
0.0
149
0.0
100
AcDbLayout
  1
Model
 70
     1
 71
     0
 10
0.0
 20
0.0
 11
12.0
 21
9.0
 12
0.0
 22
0.0
 32
0.0
 14
0.0
 24
0.0
 34
0.0
 15
0.0
 25
0.0
 35
0.0
146
0.0
 13
0.0
 23
0.0
 33
0.0
 16
1.0
 26
0.0
 36
0.0
 17
0.0
 27
1.0
 37
0.0
 76
     0
330
1F
331
1382E
1001
ACAD_PSEXT
1000
None
1000
None
1000
Not applicable
1000
The layout will not be plotted unless a new plotter configuration name is selected.
1070
     0
  0
LAYOUT
  5
78E
102
{ACAD_XDICTIONARY
360
79B
102
}
102
{ACAD_REACTORS
330
1A
102
}
330
1A
100
AcDbPlotSettings
  1

  2
RICOH MP C2503 JPN RPCS V2
  4
A3
  6

 40
5.873749732971191
 41
5.873748779296875
 42
5.873748779296875
 43
5.873748779296875
 44
296.9259948730469
 45
419.9466552734374
 46
0.0
 47
0.0
 48
0.0
 49
0.0
140
0.0
141
0.0
142
1.0
143
1.0
 70
   688
 72
     1
 73
     1
 74
     5
  7
monochrome.ctb
 75
    16
147
1.0
 76
     0
 77
     2
 78
   300
148
0.0
149
0.0
100
AcDbLayout
  1
レイアウト1
 70
     1
 71
     1
 10
-5.873748779296875
 20
-5.873749732971191
 11
414.0729064941406
 21
291.0522451400757
 12
0.0
 22
0.0
 32
0.0
 14
0.0000000000000853
 24
0.0
 34
0.0
 15
408.1991586685179
 25
285.1784963607788
 35
0.0
146
0.0
 13
0.0
 23
0.0
 33
0.0
 16
1.0
 26
0.0
 36
0.0
 17
0.0
 27
1.0
 37
0.0
 76
     0
330
78D
331
794
1001
ACAD_PSEXT
1000
RICOH MP C2503 JPN RPCS V2
1000
RICOH MP C2503 JPN RPCS V2
1000
IP_192.168.24.100
1000
RPCS Driver (For Windows)
1070
     0
  0
MATERIAL
  5
D7AC
102
{ACAD_XDICTIONARY
360
D7AD
102
}
102
{ACAD_REACTORS
330
6A
102
}
330
6A
100
AcDbMaterial
  1
ByBlock
 72
     0
 43
0.0008202099737533
 43
0.0
 43
0.0
 43
0.0
 43
0.0
 43
0.0008202099737533
 43
0.0
 43
0.0
 43
0.0
 43
0.0
 43
1.0
 43
0.0
 43
0.0
 43
0.0
 43
0.0
 43
1.0
 77
     0
 47
0.0008202099737533
 47
0.0
 47
0.0
 47
0.0
 47
0.0
 47
0.0008202099737533
 47
0.0
 47
0.0
 47
0.0
 47
0.0
 47
1.0
 47
0.0
 47
0.0
 47
0.0
 47
0.0
 47
1.0
171
     0
 49
0.0008202099737533
 49
0.0
 49
0.0
 49
0.0
 49
0.0
 49
0.0008202099737533
 49
0.0
 49
0.0
 49
0.0
 49
0.0
 49
1.0
 49
0.0
 49
0.0
 49
0.0
 49
0.0
 49
1.0
175
     0
142
0.0008202099737533
142
0.0
142
0.0
142
0.0
142
0.0
142
0.0008202099737533
142
0.0
142
0.0
142
0.0
142
0.0
142
1.0
142
0.0
142
0.0
142
0.0
142
0.0
142
1.0
179
     0
144
0.0008202099737533
144
0.0
144
0.0
144
0.0
144
0.0
144
0.0008202099737533
144
0.0
144
0.0
144
0.0
144
0.0
144
1.0
144
0.0
144
0.0
144
0.0
144
0.0
144
1.0
147
0.0008202099737533
147
0.0
147
0.0
147
0.0
147
0.0
147
0.0008202099737533
147
0.0
147
0.0
147
0.0
147
0.0
147
1.0
147
0.0
147
0.0
147
0.0
147
0.0
147
1.0
  0
MATERIAL
  5
D7A4
102
{ACAD_XDICTIONARY
360
D7A5
102
}
102
{ACAD_REACTORS
330
6A
102
}
330
6A
100
AcDbMaterial
  1
ByLayer
 72
     0
 43
0.0008202099737533
 43
0.0
 43
0.0
 43
0.0
 43
0.0
 43
0.0008202099737533
 43
0.0
 43
0.0
 43
0.0
 43
0.0
 43
1.0
 43
0.0
 43
0.0
 43
0.0
 43
0.0
 43
1.0
 77
     0
 47
0.0008202099737533
 47
0.0
 47
0.0
 47
0.0
 47
0.0
 47
0.0008202099737533
 47
0.0
 47
0.0
 47
0.0
 47
0.0
 47
1.0
 47
0.0
 47
0.0
 47
0.0
 47
0.0
 47
1.0
171
     0
 49
0.0008202099737533
 49
0.0
 49
0.0
 49
0.0
 49
0.0
 49
0.0008202099737533
 49
0.0
 49
0.0
 49
0.0
 49
0.0
 49
1.0
 49
0.0
 49
0.0
 49
0.0
 49
0.0
 49
1.0
175
     0
142
0.0008202099737533
142
0.0
142
0.0
142
0.0
142
0.0
142
0.0008202099737533
142
0.0
142
0.0
142
0.0
142
0.0
142
1.0
142
0.0
142
0.0
142
0.0
142
0.0
142
1.0
179
     0
144
0.0008202099737533
144
0.0
144
0.0
144
0.0
144
0.0
144
0.0008202099737533
144
0.0
144
0.0
144
0.0
144
0.0
144
1.0
144
0.0
144
0.0
144
0.0
144
0.0
144
1.0
147
0.0008202099737533
147
0.0
147
0.0
147
0.0
147
0.0
147
0.0008202099737533
147
0.0
147
0.0
147
0.0
147
0.0
147
1.0
147
0.0
147
0.0
147
0.0
147
0.0
147
1.0
  0
MATERIAL
  5
D7B4
102
{ACAD_XDICTIONARY
360
D7B5
102
}
102
{ACAD_REACTORS
330
6A
102
}
330
6A
100
AcDbMaterial
  1
Global
 72
     0
 43
0.0008202099737533
 43
0.0
 43
0.0
 43
0.0
 43
0.0
 43
0.0008202099737533
 43
0.0
 43
0.0
 43
0.0
 43
0.0
 43
1.0
 43
0.0
 43
0.0
 43
0.0
 43
0.0
 43
1.0
 77
     0
 47
0.0008202099737533
 47
0.0
 47
0.0
 47
0.0
 47
0.0
 47
0.0008202099737533
 47
0.0
 47
0.0
 47
0.0
 47
0.0
 47
1.0
 47
0.0
 47
0.0
 47
0.0
 47
0.0
 47
1.0
171
     0
 49
0.0008202099737533
 49
0.0
 49
0.0
 49
0.0
 49
0.0
 49
0.0008202099737533
 49
0.0
 49
0.0
 49
0.0
 49
0.0
 49
1.0
 49
0.0
 49
0.0
 49
0.0
 49
0.0
 49
1.0
175
     0
142
0.0008202099737533
142
0.0
142
0.0
142
0.0
142
0.0
142
0.0008202099737533
142
0.0
142
0.0
142
0.0
142
0.0
142
1.0
142
0.0
142
0.0
142
0.0
142
0.0
142
1.0
179
     0
144
0.0008202099737533
144
0.0
144
0.0
144
0.0
144
0.0
144
0.0008202099737533
144
0.0
144
0.0
144
0.0
144
0.0
144
1.0
144
0.0
144
0.0
144
0.0
144
0.0
144
1.0
147
0.0008202099737533
147
0.0
147
0.0
147
0.0
147
0.0
147
0.0008202099737533
147
0.0
147
0.0
147
0.0
147
0.0
147
1.0
147
0.0
147
0.0
147
0.0
147
0.0
147
1.0
  0
MLEADERSTYLE
  5
D7E0
102
{ACAD_REACTORS
330
D7DF
102
}
330
D7DF
100
AcDbMLeaderStyle
179
     2
170
     2
171
     1
172
     0
 90
        2
 40
0.0
 41
0.0
173
     1
 91
-1056964608
340
14
 92
       -2
290
     1
 42
2.0
291
     1
 43
0.36
  3
Standard
 44
4.0
300

342
11
174
     1
178
     6
175
     1
176
     0
 93
-1056964608
 45
4.0
292
     0
297
     0
 46
4.0
 94
-1056964608
 47
1.0
 49
1.0
140
1.0
293
     1
141
0.0
294
     1
177
     0
142
1.0
295
     0
296
     0
143
0.125
271
     0
272
     9
273
     9
298
     0
1001
ACAD
1000
AcRTDxfName
1000
MLEADERSTYLE
1000
AcRTDxfName
1000
MLEADERSTYLE
1000
AcRTDxfName
1000
MLEADERSTYLE
1000
AcRTDxfName
1000
MLEADERSTYLE
1000
AcRTDxfName
1000
MLEADERSTYLE
1000
AcRTDxfName
1000
MLEADERSTYLE
1000
AcRTDxfName
1000
MLEADERSTYLE
1000
AcRTDxfName
1000
MLEADERSTYLE
  0
MLINESTYLE
  5
18
102
{ACAD_REACTORS
330
17
102
}
330
17
100
AcDbMlineStyle
  2
STANDARD
 70
     0
  3

 62
   256
 51
90.0
 52
90.0
 71
     2
 49
0.5
 62
   256
  6
BYLAYER
 49
-0.5
 62
   256
  6
BYLAYER
  0
ACDBPLACEHOLDER
  5
F
102
{ACAD_REACTORS
330
E
102
}
330
E
  0
SCALE
  5
D7CE
102
{ACAD_REACTORS
330
D7CD
102
}
330
D7CD
100
AcDbScale
 70
     0
300
1:1
140
1.0
141
1.0
290
     1
1001
ACAD
1000
AcRTDxfName
1000
SCALE
1000
AcRTDxfName
1000
SCALE
1000
AcRTDxfName
1000
SCALE
1000
AcRTDxfName
1000
SCALE
1000
AcRTDxfName
1000
SCALE
1000
AcRTDxfName
1000
SCALE
1000
AcRTDxfName
1000
SCALE
1000
AcRTDxfName
1000
SCALE
  0
SCALE
  5
D7CF
102
{ACAD_REACTORS
330
D7CD
102
}
330
D7CD
100
AcDbScale
 70
     0
300
1:2
140
1.0
141
2.0
290
     0
1001
ACAD
1000
AcRTDxfName
1000
SCALE
1000
AcRTDxfName
1000
SCALE
1000
AcRTDxfName
1000
SCALE
1000
AcRTDxfName
1000
SCALE
1000
AcRTDxfName
1000
SCALE
1000
AcRTDxfName
1000
SCALE
1000
AcRTDxfName
1000
SCALE
1000
AcRTDxfName
1000
SCALE
  0
SCALE
  5
D7D0
102
{ACAD_REACTORS
330
D7CD
102
}
330
D7CD
100
AcDbScale
 70
     0
300
1:4
140
1.0
141
4.0
290
     0
1001
ACAD
1000
AcRTDxfName
1000
SCALE
1000
AcRTDxfName
1000
SCALE
1000
AcRTDxfName
1000
SCALE
1000
AcRTDxfName
1000
SCALE
1000
AcRTDxfName
1000
SCALE
1000
AcRTDxfName
1000
SCALE
1000
AcRTDxfName
1000
SCALE
1000
AcRTDxfName
1000
SCALE
  0
SCALE
  5
D7D1
102
{ACAD_REACTORS
330
D7CD
102
}
330
D7CD
100
AcDbScale
 70
     0
300
1:5
140
1.0
141
5.0
290
     0
1001
ACAD
1000
AcRTDxfName
1000
SCALE
1000
AcRTDxfName
1000
SCALE
1000
AcRTDxfName
1000
SCALE
1000
AcRTDxfName
1000
SCALE
1000
AcRTDxfName
1000
SCALE
1000
AcRTDxfName
1000
SCALE
1000
AcRTDxfName
1000
SCALE
1000
AcRTDxfName
1000
SCALE
  0
SCALE
  5
D7D2
102
{ACAD_REACTORS
330
D7CD
102
}
330
D7CD
100
AcDbScale
 70
     0
300
1:8
140
1.0
141
8.0
290
     0
1001
ACAD
1000
AcRTDxfName
1000
SCALE
1000
AcRTDxfName
1000
SCALE
1000
AcRTDxfName
1000
SCALE
1000
AcRTDxfName
1000
SCALE
1000
AcRTDxfName
1000
SCALE
1000
AcRTDxfName
1000
SCALE
1000
AcRTDxfName
1000
SCALE
1000
AcRTDxfName
1000
SCALE
  0
SCALE
  5
D7D3
102
{ACAD_REACTORS
330
D7CD
102
}
330
D7CD
100
AcDbScale
 70
     0
300
1:10
140
1.0
141
10.0
290
     0
1001
ACAD
1000
AcRTDxfName
1000
SCALE
1000
AcRTDxfName
1000
SCALE
1000
AcRTDxfName
1000
SCALE
1000
AcRTDxfName
1000
SCALE
1000
AcRTDxfName
1000
SCALE
1000
AcRTDxfName
1000
SCALE
1000
AcRTDxfName
1000
SCALE
1000
AcRTDxfName
1000
SCALE
  0
SCALE
  5
D7D4
102
{ACAD_REACTORS
330
D7CD
102
}
330
D7CD
100
AcDbScale
 70
     0
300
1:16
140
1.0
141
16.0
290
     0
1001
ACAD
1000
AcRTDxfName
1000
SCALE
1000
AcRTDxfName
1000
SCALE
1000
AcRTDxfName
1000
SCALE
1000
AcRTDxfName
1000
SCALE
1000
AcRTDxfName
1000
SCALE
1000
AcRTDxfName
1000
SCALE
1000
AcRTDxfName
1000
SCALE
1000
AcRTDxfName
1000
SCALE
  0
SCALE
  5
D7D5
102
{ACAD_REACTORS
330
D7CD
102
}
330
D7CD
100
AcDbScale
 70
     0
300
1:20
140
1.0
141
20.0
290
     0
1001
ACAD
1000
AcRTDxfName
1000
SCALE
1000
AcRTDxfName
1000
SCALE
1000
AcRTDxfName
1000
SCALE
1000
AcRTDxfName
1000
SCALE
1000
AcRTDxfName
1000
SCALE
1000
AcRTDxfName
1000
SCALE
1000
AcRTDxfName
1000
SCALE
1000
AcRTDxfName
1000
SCALE
  0
SCALE
  5
D7D6
102
{ACAD_REACTORS
330
D7CD
102
}
330
D7CD
100
AcDbScale
 70
     0
300
1:30
140
1.0
141
30.0
290
     0
1001
ACAD
1000
AcRTDxfName
1000
SCALE
1000
AcRTDxfName
1000
SCALE
1000
AcRTDxfName
1000
SCALE
1000
AcRTDxfName
1000
SCALE
1000
AcRTDxfName
1000
SCALE
1000
AcRTDxfName
1000
SCALE
1000
AcRTDxfName
1000
SCALE
1000
AcRTDxfName
1000
SCALE
  0
SCALE
  5
D7D7
102
{ACAD_REACTORS
330
D7CD
102
}
330
D7CD
100
AcDbScale
 70
     0
300
1:40
140
1.0
141
40.0
290
     0
1001
ACAD
1000
AcRTDxfName
1000
SCALE
1000
AcRTDxfName
1000
SCALE
1000
AcRTDxfName
1000
SCALE
1000
AcRTDxfName
1000
SCALE
1000
AcRTDxfName
1000
SCALE
1000
AcRTDxfName
1000
SCALE
1000
AcRTDxfName
1000
SCALE
1000
AcRTDxfName
1000
SCALE
  0
SCALE
  5
D7D8
102
{ACAD_REACTORS
330
D7CD
102
}
330
D7CD
100
AcDbScale
 70
     0
300
1:50
140
1.0
141
50.0
290
     0
1001
ACAD
1000
AcRTDxfName
1000
SCALE
1000
AcRTDxfName
1000
SCALE
1000
AcRTDxfName
1000
SCALE
1000
AcRTDxfName
1000
SCALE
1000
AcRTDxfName
1000
SCALE
1000
AcRTDxfName
1000
SCALE
1000
AcRTDxfName
1000
SCALE
1000
AcRTDxfName
1000
SCALE
  0
SCALE
  5
D7D9
102
{ACAD_REACTORS
330
D7CD
102
}
330
D7CD
100
AcDbScale
 70
     0
300
1:100
140
1.0
141
100.0
290
     0
1001
ACAD
1000
AcRTDxfName
1000
SCALE
1000
AcRTDxfName
1000
SCALE
1000
AcRTDxfName
1000
SCALE
1000
AcRTDxfName
1000
SCALE
1000
AcRTDxfName
1000
SCALE
1000
AcRTDxfName
1000
SCALE
1000
AcRTDxfName
1000
SCALE
1000
AcRTDxfName
1000
SCALE
  0
SCALE
  5
D7DA
102
{ACAD_REACTORS
330
D7CD
102
}
330
D7CD
100
AcDbScale
 70
     0
300
2:1
140
2.0
141
1.0
290
     0
1001
ACAD
1000
AcRTDxfName
1000
SCALE
1000
AcRTDxfName
1000
SCALE
1000
AcRTDxfName
1000
SCALE
1000
AcRTDxfName
1000
SCALE
1000
AcRTDxfName
1000
SCALE
1000
AcRTDxfName
1000
SCALE
1000
AcRTDxfName
1000
SCALE
1000
AcRTDxfName
1000
SCALE
  0
SCALE
  5
D7DB
102
{ACAD_REACTORS
330
D7CD
102
}
330
D7CD
100
AcDbScale
 70
     0
300
4:1
140
4.0
141
1.0
290
     0
1001
ACAD
1000
AcRTDxfName
1000
SCALE
1000
AcRTDxfName
1000
SCALE
1000
AcRTDxfName
1000
SCALE
1000
AcRTDxfName
1000
SCALE
1000
AcRTDxfName
1000
SCALE
1000
AcRTDxfName
1000
SCALE
1000
AcRTDxfName
1000
SCALE
1000
AcRTDxfName
1000
SCALE
  0
SCALE
  5
D7DC
102
{ACAD_REACTORS
330
D7CD
102
}
330
D7CD
100
AcDbScale
 70
     0
300
8:1
140
8.0
141
1.0
290
     0
1001
ACAD
1000
AcRTDxfName
1000
SCALE
1000
AcRTDxfName
1000
SCALE
1000
AcRTDxfName
1000
SCALE
1000
AcRTDxfName
1000
SCALE
1000
AcRTDxfName
1000
SCALE
1000
AcRTDxfName
1000
SCALE
1000
AcRTDxfName
1000
SCALE
1000
AcRTDxfName
1000
SCALE
  0
SCALE
  5
D7DD
102
{ACAD_REACTORS
330
D7CD
102
}
330
D7CD
100
AcDbScale
 70
     0
300
10:1
140
10.0
141
1.0
290
     0
1001
ACAD
1000
AcRTDxfName
1000
SCALE
1000
AcRTDxfName
1000
SCALE
1000
AcRTDxfName
1000
SCALE
1000
AcRTDxfName
1000
SCALE
1000
AcRTDxfName
1000
SCALE
1000
AcRTDxfName
1000
SCALE
1000
AcRTDxfName
1000
SCALE
1000
AcRTDxfName
1000
SCALE
  0
SCALE
  5
D7DE
102
{ACAD_REACTORS
330
D7CD
102
}
330
D7CD
100
AcDbScale
 70
     0
300
100:1
140
100.0
141
1.0
290
     0
1001
ACAD
1000
AcRTDxfName
1000
SCALE
1000
AcRTDxfName
1000
SCALE
1000
AcRTDxfName
1000
SCALE
1000
AcRTDxfName
1000
SCALE
1000
AcRTDxfName
1000
SCALE
1000
AcRTDxfName
1000
SCALE
1000
AcRTDxfName
1000
SCALE
1000
AcRTDxfName
1000
SCALE
  0
ACDBSECTIONVIEWSTYLE
  5
17223
102
{ACAD_XDICTIONARY
360
1994A
102
}
102
{ACAD_REACTORS
330
17222
102
}
330
17222
100
AcDbModelDocViewStyle
 70
     0
  3
Metric50
290
     0
100
AcDbSectionViewStyle
 70
     0
 71
     0
 90
      102
 71
     1
340
11
 62
   256
 40
5.0
340
0
340
0
 62
   256
 40
5.0
300
I, O, Q, S, X, Z
 40
10.0
 90
        0
 40
2.5
 90
        0
 71
     2
340
16
 90
       25
 62
   256
340
16
 90
       50
 62
   256
 40
5.0
 40
2.5
 40
5.0
 71
     3
340
11
 62
   256
 40
5.0
 90
        0
 40
15.0
 90
        1
300
%<\AcVar ViewSectionStartId>%-%<\AcVar ViewSectionEndId>% (%<\AcVar ViewScale \f "%sn">%)
 71
     4
 62
   256
 62
   257
300
ANSI31
 40
1.0
 90
        0
290
     0
290
     0
 90
        6
 40
0.0
 40
1.570796326794896
 40
0.2617993877991494
 40
1.308996938995747
 40
-0.2617993877991494
 40
1.832595714594046
  0
TABLESTYLE
  5
7F
102
{ACAD_XDICTIONARY
360
D806
102
}
102
{ACAD_REACTORS
330
7E
102
}
330
7E
100
AcDbTableStyle
280
     0
  3
Standard
 70
     0
 71
     0
 40
1.5
 41
1.5
280
     0
281
     0
  7
Standard
140
4.5
170
     2
 62
     0
 63
     7
283
     0
 90
        4
 91
        0
  1

274
    -2
284
     1
 64
     0
275
    -2
285
     1
 65
     0
276
    -2
286
     1
 66
     0
277
    -2
287
     1
 67
     0
278
    -2
288
     1
 68
     0
279
    -2
289
     1
 69
     0
  7
Standard
140
6.0
170
     5
 62
     0
 63
     7
283
     0
 90
        4
 91
        0
  1

274
    -2
284
     1
 64
     0
275
    -2
285
     1
 65
     0
276
    -2
286
     1
 66
     0
277
    -2
287
     1
 67
     0
278
    -2
288
     1
 68
     0
279
    -2
289
     1
 69
     0
  7
Standard
140
4.5
170
     5
 62
     0
 63
     7
283
     0
 90
        4
 91
        0
  1

274
    -2
284
     1
 64
     0
275
    -2
285
     1
 65
     0
276
    -2
286
     1
 66
     0
277
    -2
287
     1
 67
     0
278
    -2
288
     1
 68
     0
279
    -2
289
     1
 69
     0
  0
VISUALSTYLE
  5
D7C2
102
{ACAD_REACTORS
330
D7BC
102
}
330
D7BC
100
AcDbVisualStyle
  2
2dWireframe
 70
     4
177
     3
291
     0
 70
    58
 90
        0
176
     1
 90
        2
176
     1
 90
        0
176
     1
 90
        0
176
     1
 40
0.6
176
     1
 40
30.0
176
     1
 62
     7
176
     1
 90
        1
176
     1
 90
        4
176
     1
 62
     7
176
     1
 62
   257
176
     1
 90
        1
176
     1
 90
        1
176
     1
 40
1.0
176
     1
 90
        0
176
     1
 62
   257
176
     1
 40
1.0
176
     1
 90
        1
176
     1
 90
        6
176
     1
 90
        2
176
     1
 62
     7
176
     1
 90
        5
176
     1
 90
        0
176
     1
 90
        0
176
     1
290
     0
176
     1
 90
        1
176
     1
 40
0.0
176
     1
 90
        0
176
     1
290
     1
176
     1
290
     1
176
     1
290
     0
176
     1
290
     0
176
     1
290
     0
176
     1
290
     0
176
     1
290
     0
176
     1
290
     0
176
     1
290
     0
176
     1
 90
       50
176
     1
 40
0.0
176
     1
 40
1.0
176
     1
 90
        0
176
     1
 62
    18
420
        0
176
     1
 90
       50
176
     1
 90
        3
176
     1
 62
     5
420
      255
176
     1
290
     0
176
     1
 90
       50
176
     1
 90
       50
176
     1
 90
       50
176
     1
290
     0
176
     1
 90
       50
176
     1
 62
   256
176
     0
 40
1.0
176
     0
 90
        2
176
     1
  1
strokes_ogs.tif
176
     1
290
     0
176
     1
 40
1.0
176
     1
 40
1.0
176
     1
1001
ACAD
1000
AcRTDxfName
1000
VISUALSTYLE
1000
AcRTDxfName
1000
VISUALSTYLE
1000
AcRTDxfName
1000
VISUALSTYLE
1000
AcRTDxfName
1000
VISUALSTYLE
1000
AcRTDxfName
1000
VISUALSTYLE
1000
AcRTDxfName
1000
VISUALSTYLE
1000
AcRTDxfName
1000
VISUALSTYLE
1000
AcRTDxfName
1000
VISUALSTYLE
1000
AcDbSavedByObjectVersion
1070
     0
  0
VISUALSTYLE
  5
D7C4
102
{ACAD_REACTORS
330
D7BC
102
}
330
D7BC
100
AcDbVisualStyle
  2
3D Hidden
 70
     6
177
     3
291
     0
 70
    58
 90
        1
176
     1
 90
        2
176
     1
 90
        2
176
     1
 90
        0
176
     1
 40
0.6
176
     1
 40
30.0
176
     1
 62
     7
176
     1
 90
        2
176
     1
 90
        2
176
     1
 62
     7
176
     1
 62
   257
176
     1
 90
        2
176
     1
 90
        1
176
     1
 40
40.0
176
     1
 90
        0
176
     1
 62
   257
176
     1
 40
1.0
176
     1
 90
        1
176
     1
 90
        6
176
     1
 90
        2
176
     1
 62
     7
176
     1
 90
        3
176
     1
 90
        0
176
     1
 90
        0
176
     1
290
     0
176
     1
 90
        1
176
     1
 40
0.0
176
     1
 90
        0
176
     1
290
     0
176
     1
290
     1
176
     1
290
     1
176
     1
290
     0
176
     1
290
     0
176
     1
290
     0
176
     1
290
     0
176
     1
290
     0
176
     1
290
     0
176
     1
 90
       50
176
     1
 40
0.0
176
     1
 40
1.0
176
     1
 90
        0
176
     1
 62
    18
420
        0
176
     1
 90
       50
176
     1
 90
        3
176
     1
 62
     5
420
      255
176
     1
290
     0
176
     1
 90
       50
176
     1
 90
       50
176
     1
 90
       50
176
     1
290
     0
176
     1
 90
       50
176
     1
 62
   256
176
     0
 40
1.0
176
     0
 90
        2
176
     1
  1
strokes_ogs.tif
176
     1
290
     0
176
     1
 40
1.0
176
     1
 40
1.0
176
     1
1001
ACAD
1000
AcRTDxfName
1000
VISUALSTYLE
1000
AcRTDxfName
1000
VISUALSTYLE
1000
AcRTDxfName
1000
VISUALSTYLE
1000
AcRTDxfName
1000
VISUALSTYLE
1000
AcRTDxfName
1000
VISUALSTYLE
1000
AcRTDxfName
1000
VISUALSTYLE
1000
AcRTDxfName
1000
VISUALSTYLE
1000
AcRTDxfName
1000
VISUALSTYLE
1000
AcDbSavedByObjectVersion
1070
     0
  0
VISUALSTYLE
  5
D7C3
102
{ACAD_REACTORS
330
D7BC
102
}
330
D7BC
100
AcDbVisualStyle
  2
3dWireframe
 70
     5
177
     3
291
     0
 70
    58
 90
        0
176
     1
 90
        2
176
     1
 90
        0
176
     1
 90
        0
176
     1
 40
0.6
176
     1
 40
30.0
176
     1
 62
     7
176
     1
 90
        1
176
     1
 90
        4
176
     1
 62
     7
176
     1
 62
   257
176
     1
 90
        1
176
     1
 90
        1
176
     1
 40
1.0
176
     1
 90
        0
176
     1
 62
   257
176
     1
 40
1.0
176
     1
 90
        1
176
     1
 90
        6
176
     1
 90
        2
176
     1
 62
     7
176
     1
 90
        5
176
     1
 90
        0
176
     1
 90
        0
176
     1
290
     0
176
     1
 90
        1
176
     1
 40
0.0
176
     1
 90
        0
176
     1
290
     0
176
     1
290
     1
176
     1
290
     1
176
     1
290
     0
176
     1
290
     0
176
     1
290
     0
176
     1
290
     0
176
     1
290
     0
176
     1
290
     0
176
     1
 90
       50
176
     1
 40
0.0
176
     1
 40
1.0
176
     1
 90
        0
176
     1
 62
    18
420
        0
176
     1
 90
       50
176
     1
 90
        3
176
     1
 62
     5
420
      255
176
     1
290
     0
176
     1
 90
       50
176
     1
 90
       50
176
     1
 90
       50
176
     1
290
     0
176
     1
 90
       50
176
     1
 62
   256
176
     0
 40
1.0
176
     0
 90
        2
176
     1
  1
strokes_ogs.tif
176
     1
290
     0
176
     1
 40
1.0
176
     1
 40
1.0
176
     1
1001
ACAD
1000
AcRTDxfName
1000
VISUALSTYLE
1000
AcRTDxfName
1000
VISUALSTYLE
1000
AcRTDxfName
1000
VISUALSTYLE
1000
AcRTDxfName
1000
VISUALSTYLE
1000
AcRTDxfName
1000
VISUALSTYLE
1000
AcRTDxfName
1000
VISUALSTYLE
1000
AcRTDxfName
1000
VISUALSTYLE
1000
AcRTDxfName
1000
VISUALSTYLE
1000
AcDbSavedByObjectVersion
1070
     0
  0
VISUALSTYLE
  5
D7C1
102
{ACAD_REACTORS
330
D7BC
102
}
330
D7BC
100
AcDbVisualStyle
  2
Basic
 70
     7
177
     3
291
     1
 70
    58
 90
        1
176
     1
 90
        0
176
     1
 90
        1
176
     1
 90
        0
176
     1
 40
0.6
176
     1
 40
30.0
176
     1
 62
     7
176
     1
 90
        0
176
     1
 90
        4
176
     1
 62
     7
176
     1
 62
   257
176
     1
 90
        1
176
     1
 90
        1
176
     1
 40
1.0
176
     1
 90
        8
176
     1
 62
     7
176
     1
 40
1.0
176
     1
 90
        1
176
     1
 90
        6
176
     1
 90
        2
176
     1
 62
     7
176
     1
 90
        5
176
     1
 90
        0
176
     1
 90
        0
176
     1
290
     0
176
     1
 90
        1
176
     1
 40
0.0
176
     1
 90
        0
176
     1
290
     0
176
     1
290
     1
176
     1
290
     1
176
     1
290
     0
176
     1
290
     0
176
     1
290
     0
176
     1
290
     0
176
     1
290
     0
176
     1
290
     0
176
     1
 90
       50
176
     1
 40
0.0
176
     1
 40
1.0
176
     1
 90
        0
176
     1
 62
    18
420
        0
176
     1
 90
       50
176
     1
 90
        3
176
     1
 62
     5
420
      255
176
     1
290
     0
176
     1
 90
       50
176
     1
 90
       50
176
     1
 90
       50
176
     1
290
     0
176
     1
 90
       50
176
     1
 62
   256
176
     0
 40
1.0
176
     0
 90
        2
176
     1
  1
strokes_ogs.tif
176
     1
290
     0
176
     1
 40
1.0
176
     1
 40
1.0
176
     1
1001
ACAD
1000
AcRTDxfName
1000
VISUALSTYLE
1000
AcRTDxfName
1000
VISUALSTYLE
1000
AcRTDxfName
1000
VISUALSTYLE
1000
AcRTDxfName
1000
VISUALSTYLE
1000
AcRTDxfName
1000
VISUALSTYLE
1000
AcRTDxfName
1000
VISUALSTYLE
1000
AcRTDxfName
1000
VISUALSTYLE
1000
AcRTDxfName
1000
VISUALSTYLE
1000
AcDbSavedByObjectVersion
1070
     0
  0
VISUALSTYLE
  5
D7C8
102
{ACAD_REACTORS
330
D7BC
102
}
330
D7BC
100
AcDbVisualStyle
  2
Brighten
 70
    12
177
     3
291
     1
 70
    58
 90
        2
176
     1
 90
        2
176
     1
 90
        0
176
     1
 90
        0
176
     1
 40
0.6
176
     1
 40
30.0
176
     1
 62
     7
176
     1
 90
        1
176
     1
 90
        4
176
     1
 62
     7
176
     1
 62
   257
176
     1
 90
        1
176
     1
 90
        1
176
     1
 40
1.0
176
     1
 90
        8
176
     1
 62
     7
176
     1
 40
1.0
176
     1
 90
        1
176
     1
 90
        6
176
     1
 90
        2
176
     1
 62
     7
176
     1
 90
        5
176
     1
 90
        0
176
     1
 90
        0
176
     1
290
     0
176
     1
 90
        1
176
     1
 40
50.0
176
     1
 90
        0
176
     1
290
     0
176
     1
290
     1
176
     1
290
     1
176
     1
290
     0
176
     1
290
     0
176
     1
290
     0
176
     1
290
     0
176
     1
290
     0
176
     1
290
     0
176
     1
 90
       50
176
     1
 40
0.0
176
     1
 40
1.0
176
     1
 90
        0
176
     1
 62
    18
420
        0
176
     1
 90
       50
176
     1
 90
        3
176
     1
 62
     5
420
      255
176
     1
290
     0
176
     1
 90
       50
176
     1
 90
       50
176
     1
 90
       50
176
     1
290
     0
176
     1
 90
       50
176
     1
 62
   256
176
     0
 40
1.0
176
     0
 90
        2
176
     1
  1
strokes_ogs.tif
176
     1
290
     0
176
     1
 40
1.0
176
     1
 40
1.0
176
     1
1001
ACAD
1000
AcRTDxfName
1000
VISUALSTYLE
1000
AcRTDxfName
1000
VISUALSTYLE
1000
AcRTDxfName
1000
VISUALSTYLE
1000
AcRTDxfName
1000
VISUALSTYLE
1000
AcRTDxfName
1000
VISUALSTYLE
1000
AcRTDxfName
1000
VISUALSTYLE
1000
AcRTDxfName
1000
VISUALSTYLE
1000
AcRTDxfName
1000
VISUALSTYLE
1000
AcDbSavedByObjectVersion
1070
     0
  0
VISUALSTYLE
  5
D7CC
102
{ACAD_REACTORS
330
D7BC
102
}
330
D7BC
100
AcDbVisualStyle
  2
ColorChange
 70
    16
177
     3
291
     1
 70
    58
 90
        2
176
     1
 90
        2
176
     1
 90
        3
176
     1
 90
        0
176
     1
 40
0.6
176
     1
 40
30.0
176
     1
 62
     8
176
     1
 90
        1
176
     1
 90
        4
176
     1
 62
     7
176
     1
 62
   257
176
     1
 90
        1
176
     1
 90
        1
176
     1
 40
1.0
176
     1
 90
        8
176
     1
 62
     8
176
     1
 40
1.0
176
     1
 90
        1
176
     1
 90
        6
176
     1
 90
        2
176
     1
 62
     7
176
     1
 90
        5
176
     1
 90
        0
176
     1
 90
        0
176
     1
290
     0
176
     1
 90
        1
176
     1
 40
0.0
176
     1
 90
        0
176
     1
290
     0
176
     1
290
     1
176
     1
290
     1
176
     1
290
     0
176
     1
290
     0
176
     1
290
     0
176
     1
290
     0
176
     1
290
     0
176
     1
290
     0
176
     1
 90
       50
176
     1
 40
0.0
176
     1
 40
1.0
176
     1
 90
        0
176
     1
 62
    18
420
        0
176
     1
 90
       50
176
     1
 90
        3
176
     1
 62
     5
420
      255
176
     1
290
     0
176
     1
 90
       50
176
     1
 90
       50
176
     1
 90
       50
176
     1
290
     0
176
     1
 90
       50
176
     1
 62
   256
176
     0
 40
1.0
176
     0
 90
        2
176
     1
  1
strokes_ogs.tif
176
     1
290
     0
176
     1
 40
1.0
176
     1
 40
1.0
176
     1
1001
ACAD
1000
AcRTDxfName
1000
VISUALSTYLE
1000
AcRTDxfName
1000
VISUALSTYLE
1000
AcRTDxfName
1000
VISUALSTYLE
1000
AcRTDxfName
1000
VISUALSTYLE
1000
AcRTDxfName
1000
VISUALSTYLE
1000
AcRTDxfName
1000
VISUALSTYLE
1000
AcRTDxfName
1000
VISUALSTYLE
1000
AcRTDxfName
1000
VISUALSTYLE
1000
AcDbSavedByObjectVersion
1070
     0
  0
VISUALSTYLE
  5
D7C5
102
{ACAD_REACTORS
330
D7BC
102
}
330
D7BC
100
AcDbVisualStyle
  2
Conceptual
 70
     9
177
     3
291
     0
 70
    58
 90
        3
176
     1
 90
        2
176
     1
 90
        0
176
     1
 90
        0
176
     1
 40
0.6
176
     1
 40
30.0
176
     1
 62
     7
176
     1
 90
        2
176
     1
 90
        2
176
     1
 62
     7
176
     1
 62
   257
176
     1
 90
        1
176
     1
 90
        1
176
     1
 40
40.0
176
     1
 90
        8
176
     1
 62
     7
176
     1
 40
1.0
176
     1
 90
        1
176
     1
 90
        6
176
     1
 90
        2
176
     1
 62
     7
176
     1
 90
        3
176
     1
 90
        0
176
     1
 90
        0
176
     1
290
     0
176
     1
 90
        1
176
     1
 40
0.0
176
     1
 90
        0
176
     1
290
     0
176
     1
290
     1
176
     1
290
     1
176
     1
290
     0
176
     1
290
     0
176
     1
290
     0
176
     1
290
     0
176
     1
290
     0
176
     1
290
     0
176
     1
 90
       50
176
     1
 40
0.0
176
     1
 40
1.0
176
     1
 90
        0
176
     1
 62
    18
420
        0
176
     1
 90
       50
176
     1
 90
        3
176
     1
 62
     5
420
      255
176
     1
290
     0
176
     1
 90
       50
176
     1
 90
       50
176
     1
 90
       50
176
     1
290
     0
176
     1
 90
       50
176
     1
 62
   256
176
     0
 40
1.0
176
     0
 90
        2
176
     1
  1
strokes_ogs.tif
176
     1
290
     0
176
     1
 40
1.0
176
     1
 40
1.0
176
     1
1001
ACAD
1000
AcRTDxfName
1000
VISUALSTYLE
1000
AcRTDxfName
1000
VISUALSTYLE
1000
AcRTDxfName
1000
VISUALSTYLE
1000
AcRTDxfName
1000
VISUALSTYLE
1000
AcRTDxfName
1000
VISUALSTYLE
1000
AcRTDxfName
1000
VISUALSTYLE
1000
AcRTDxfName
1000
VISUALSTYLE
1000
AcRTDxfName
1000
VISUALSTYLE
1000
AcDbSavedByObjectVersion
1070
     0
  0
VISUALSTYLE
  5
D7C7
102
{ACAD_REACTORS
330
D7BC
102
}
330
D7BC
100
AcDbVisualStyle
  2
Dim
 70
    11
177
     3
291
     1
 70
    58
 90
        2
176
     1
 90
        2
176
     1
 90
        0
176
     1
 90
        0
176
     1
 40
0.6
176
     1
 40
30.0
176
     1
 62
     7
176
     1
 90
        1
176
     1
 90
        4
176
     1
 62
     7
176
     1
 62
   257
176
     1
 90
        1
176
     1
 90
        1
176
     1
 40
1.0
176
     1
 90
        8
176
     1
 62
     7
176
     1
 40
1.0
176
     1
 90
        1
176
     1
 90
        6
176
     1
 90
        2
176
     1
 62
     7
176
     1
 90
        5
176
     1
 90
        0
176
     1
 90
        0
176
     1
290
     0
176
     1
 90
        1
176
     1
 40
-50.0
176
     1
 90
        0
176
     1
290
     0
176
     1
290
     1
176
     1
290
     1
176
     1
290
     0
176
     1
290
     0
176
     1
290
     0
176
     1
290
     0
176
     1
290
     0
176
     1
290
     0
176
     1
 90
       50
176
     1
 40
0.0
176
     1
 40
1.0
176
     1
 90
        0
176
     1
 62
    18
420
        0
176
     1
 90
       50
176
     1
 90
        3
176
     1
 62
     5
420
      255
176
     1
290
     0
176
     1
 90
       50
176
     1
 90
       50
176
     1
 90
       50
176
     1
290
     0
176
     1
 90
       50
176
     1
 62
   256
176
     0
 40
1.0
176
     0
 90
        2
176
     1
  1
strokes_ogs.tif
176
     1
290
     0
176
     1
 40
1.0
176
     1
 40
1.0
176
     1
1001
ACAD
1000
AcRTDxfName
1000
VISUALSTYLE
1000
AcRTDxfName
1000
VISUALSTYLE
1000
AcRTDxfName
1000
VISUALSTYLE
1000
AcRTDxfName
1000
VISUALSTYLE
1000
AcRTDxfName
1000
VISUALSTYLE
1000
AcRTDxfName
1000
VISUALSTYLE
1000
AcRTDxfName
1000
VISUALSTYLE
1000
AcRTDxfName
1000
VISUALSTYLE
1000
AcDbSavedByObjectVersion
1070
     0
  0
VISUALSTYLE
  5
17221
102
{ACAD_REACTORS
330
D7BC
102
}
330
D7BC
100
AcDbVisualStyle
  2
EdgeColorOff
 70
    22
177
     3
291
     1
 70
    58
 90
        2
176
     0
 90
        2
176
     0
 90
        0
176
     0
 90
        0
176
     0
 40
0.6
176
     0
 40
30.0
176
     0
 62
     7
420
 16777215
176
     0
 90
        1
176
     0
 90
        4
176
     0
 62
     7
176
     0
 62
   257
176
     0
 90
        1
176
     0
 90
        1
176
     0
 40
1.0
176
     0
 90
        8
176
     2
 62
     7
176
     0
 40
1.0
176
     0
 90
        1
176
     0
 90
        6
176
     0
 90
        2
176
     0
 62
     7
176
     0
 90
        5
176
     0
 90
        0
176
     0
 90
        0
176
     0
290
     0
176
     0
 90
        1
176
     0
 40
0.0
176
     0
 90
        0
176
     0
290
     0
176
     0
290
     1
176
     0
290
     1
176
     0
290
     0
176
     0
290
     0
176
     0
290
     0
176
     0
290
     0
176
     0
290
     0
176
     0
290
     0
176
     0
 90
       50
176
     0
 40
0.0
176
     0
 40
1.0
176
     0
 90
        0
176
     0
 62
    18
420
        0
176
     0
 90
       50
176
     0
 90
        3
176
     0
 62
     5
420
      255
176
     0
290
     0
176
     0
 90
       50
176
     0
 90
       50
176
     0
 90
       50
176
     0
290
     0
176
     0
 90
       50
176
     0
 62
   256
176
     0
 40
1.0
176
     0
 90
        2
176
     0
  1
strokes_ogs.tif
176
     0
290
     0
176
     0
 40
1.0
176
     0
 40
1.0
176
     0
1001
ACAD
1000
AcDbSavedByObjectVersion
1070
     0
  0
VISUALSTYLE
  5
D7CB
102
{ACAD_REACTORS
330
D7BC
102
}
330
D7BC
100
AcDbVisualStyle
  2
Facepattern
 70
    15
177
     3
291
     1
 70
    58
 90
        2
176
     1
 90
        2
176
     1
 90
        0
176
     1
 90
        0
176
     1
 40
0.6
176
     1
 40
30.0
176
     1
 62
     7
176
     1
 90
        1
176
     1
 90
        4
176
     1
 62
     7
176
     1
 62
   257
176
     1
 90
        1
176
     1
 90
        1
176
     1
 40
1.0
176
     1
 90
        8
176
     1
 62
     7
176
     1
 40
1.0
176
     1
 90
        1
176
     1
 90
        6
176
     1
 90
        2
176
     1
 62
     7
176
     1
 90
        5
176
     1
 90
        0
176
     1
 90
        0
176
     1
290
     0
176
     1
 90
        1
176
     1
 40
0.0
176
     1
 90
        0
176
     1
290
     0
176
     1
290
     1
176
     1
290
     1
176
     1
290
     0
176
     1
290
     0
176
     1
290
     0
176
     1
290
     0
176
     1
290
     0
176
     1
290
     0
176
     1
 90
       50
176
     1
 40
0.0
176
     1
 40
1.0
176
     1
 90
        0
176
     1
 62
    18
420
        0
176
     1
 90
       50
176
     1
 90
        3
176
     1
 62
     5
420
      255
176
     1
290
     0
176
     1
 90
       50
176
     1
 90
       50
176
     1
 90
       50
176
     1
290
     0
176
     1
 90
       50
176
     1
 62
   256
176
     0
 40
1.0
176
     0
 90
        2
176
     1
  1
strokes_ogs.tif
176
     1
290
     0
176
     1
 40
1.0
176
     1
 40
1.0
176
     1
1001
ACAD
1000
AcRTDxfName
1000
VISUALSTYLE
1000
AcRTDxfName
1000
VISUALSTYLE
1000
AcRTDxfName
1000
VISUALSTYLE
1000
AcRTDxfName
1000
VISUALSTYLE
1000
AcRTDxfName
1000
VISUALSTYLE
1000
AcRTDxfName
1000
VISUALSTYLE
1000
AcRTDxfName
1000
VISUALSTYLE
1000
AcRTDxfName
1000
VISUALSTYLE
1000
AcDbSavedByObjectVersion
1070
     0
  0
VISUALSTYLE
  5
D7BD
102
{ACAD_REACTORS
330
D7BC
102
}
330
D7BC
100
AcDbVisualStyle
  2
Flat
 70
     0
177
     3
291
     1
 70
    58
 90
        2
176
     1
 90
        1
176
     1
 90
        1
176
     1
 90
        2
176
     1
 40
0.6
176
     1
 40
30.0
176
     1
 62
     7
176
     1
 90
        0
176
     1
 90
        4
176
     1
 62
     7
176
     1
 62
   257
176
     1
 90
        1
176
     1
 90
        1
176
     1
 40
1.0
176
     1
 90
        8
176
     1
 62
     7
176
     1
 40
1.0
176
     1
 90
        1
176
     1
 90
        6
176
     1
 90
        2
176
     1
 62
     7
176
     1
 90
        5
176
     1
 90
        0
176
     1
 90
        0
176
     1
290
     0
176
     1
 90
       13
176
     1
 40
0.0
176
     1
 90
        0
176
     1
290
     0
176
     1
290
     1
176
     1
290
     1
176
     1
290
     0
176
     1
290
     0
176
     1
290
     0
176
     1
290
     0
176
     1
290
     0
176
     1
290
     0
176
     1
 90
       50
176
     1
 40
0.0
176
     1
 40
1.0
176
     1
 90
        0
176
     1
 62
    18
420
        0
176
     1
 90
       50
176
     1
 90
        3
176
     1
 62
     5
420
      255
176
     1
290
     0
176
     1
 90
       50
176
     1
 90
       50
176
     1
 90
       50
176
     1
290
     0
176
     1
 90
       50
176
     1
 62
   256
176
     0
 40
1.0
176
     0
 90
        2
176
     1
  1
strokes_ogs.tif
176
     1
290
     0
176
     1
 40
1.0
176
     1
 40
1.0
176
     1
1001
ACAD
1000
AcRTDxfName
1000
VISUALSTYLE
1000
AcRTDxfName
1000
VISUALSTYLE
1000
AcRTDxfName
1000
VISUALSTYLE
1000
AcRTDxfName
1000
VISUALSTYLE
1000
AcRTDxfName
1000
VISUALSTYLE
1000
AcRTDxfName
1000
VISUALSTYLE
1000
AcRTDxfName
1000
VISUALSTYLE
1000
AcRTDxfName
1000
VISUALSTYLE
1000
AcDbSavedByObjectVersion
1070
     0
  0
VISUALSTYLE
  5
D7BE
102
{ACAD_REACTORS
330
D7BC
102
}
330
D7BC
100
AcDbVisualStyle
  2
FlatWithEdges
 70
     1
177
     3
291
     1
 70
    58
 90
        2
176
     1
 90
        1
176
     1
 90
        1
176
     1
 90
        2
176
     1
 40
0.6
176
     1
 40
30.0
176
     1
 62
     7
176
     1
 90
        1
176
     1
 90
        4
176
     1
 62
     7
176
     1
 62
   257
176
     1
 90
        1
176
     1
 90
        1
176
     1
 40
1.0
176
     1
 90
        0
176
     1
 62
   257
176
     1
 40
1.0
176
     1
 90
        1
176
     1
 90
        6
176
     1
 90
        2
176
     1
 62
     7
176
     1
 90
        5
176
     1
 90
        0
176
     1
 90
        0
176
     1
290
     0
176
     1
 90
       13
176
     1
 40
0.0
176
     1
 90
        0
176
     1
290
     0
176
     1
290
     1
176
     1
290
     1
176
     1
290
     0
176
     1
290
     0
176
     1
290
     0
176
     1
290
     0
176
     1
290
     0
176
     1
290
     0
176
     1
 90
       50
176
     1
 40
0.0
176
     1
 40
1.0
176
     1
 90
        0
176
     1
 62
    18
420
        0
176
     1
 90
       50
176
     1
 90
        3
176
     1
 62
     5
420
      255
176
     1
290
     0
176
     1
 90
       50
176
     1
 90
       50
176
     1
 90
       50
176
     1
290
     0
176
     1
 90
       50
176
     1
 62
   256
176
     0
 40
1.0
176
     0
 90
        2
176
     1
  1
strokes_ogs.tif
176
     1
290
     0
176
     1
 40
1.0
176
     1
 40
1.0
176
     1
1001
ACAD
1000
AcRTDxfName
1000
VISUALSTYLE
1000
AcRTDxfName
1000
VISUALSTYLE
1000
AcRTDxfName
1000
VISUALSTYLE
1000
AcRTDxfName
1000
VISUALSTYLE
1000
AcRTDxfName
1000
VISUALSTYLE
1000
AcRTDxfName
1000
VISUALSTYLE
1000
AcRTDxfName
1000
VISUALSTYLE
1000
AcRTDxfName
1000
VISUALSTYLE
1000
AcDbSavedByObjectVersion
1070
     0
  0
VISUALSTYLE
  5
D7BF
102
{ACAD_REACTORS
330
D7BC
102
}
330
D7BC
100
AcDbVisualStyle
  2
Gouraud
 70
     2
177
     3
291
     1
 70
    58
 90
        2
176
     1
 90
        2
176
     1
 90
        1
176
     1
 90
        2
176
     1
 40
0.6
176
     1
 40
30.0
176
     1
 62
     7
176
     1
 90
        0
176
     1
 90
        4
176
     1
 62
     7
176
     1
 62
   257
176
     1
 90
        1
176
     1
 90
        1
176
     1
 40
1.0
176
     1
 90
        0
176
     1
 62
     7
176
     1
 40
1.0
176
     1
 90
        1
176
     1
 90
        6
176
     1
 90
        2
176
     1
 62
     7
176
     1
 90
        5
176
     1
 90
        0
176
     1
 90
        0
176
     1
290
     0
176
     1
 90
       13
176
     1
 40
0.0
176
     1
 90
        0
176
     1
290
     0
176
     1
290
     1
176
     1
290
     1
176
     1
290
     0
176
     1
290
     0
176
     1
290
     0
176
     1
290
     0
176
     1
290
     0
176
     1
290
     0
176
     1
 90
       50
176
     1
 40
0.0
176
     1
 40
1.0
176
     1
 90
        0
176
     1
 62
    18
420
        0
176
     1
 90
       50
176
     1
 90
        3
176
     1
 62
     5
420
      255
176
     1
290
     0
176
     1
 90
       50
176
     1
 90
       50
176
     1
 90
       50
176
     1
290
     0
176
     1
 90
       50
176
     1
 62
   256
176
     0
 40
1.0
176
     0
 90
        2
176
     1
  1
strokes_ogs.tif
176
     1
290
     0
176
     1
 40
1.0
176
     1
 40
1.0
176
     1
1001
ACAD
1000
AcRTDxfName
1000
VISUALSTYLE
1000
AcRTDxfName
1000
VISUALSTYLE
1000
AcRTDxfName
1000
VISUALSTYLE
1000
AcRTDxfName
1000
VISUALSTYLE
1000
AcRTDxfName
1000
VISUALSTYLE
1000
AcRTDxfName
1000
VISUALSTYLE
1000
AcRTDxfName
1000
VISUALSTYLE
1000
AcRTDxfName
1000
VISUALSTYLE
1000
AcDbSavedByObjectVersion
1070
     0
  0
VISUALSTYLE
  5
D7C0
102
{ACAD_REACTORS
330
D7BC
102
}
330
D7BC
100
AcDbVisualStyle
  2
GouraudWithEdges
 70
     3
177
     3
291
     1
 70
    58
 90
        2
176
     1
 90
        2
176
     1
 90
        1
176
     1
 90
        2
176
     1
 40
0.6
176
     1
 40
30.0
176
     1
 62
     7
176
     1
 90
        1
176
     1
 90
        4
176
     1
 62
     7
176
     1
 62
   257
176
     1
 90
        1
176
     1
 90
        1
176
     1
 40
1.0
176
     1
 90
        0
176
     1
 62
   257
176
     1
 40
1.0
176
     1
 90
        1
176
     1
 90
        6
176
     1
 90
        2
176
     1
 62
     7
176
     1
 90
        5
176
     1
 90
        0
176
     1
 90
        0
176
     1
290
     0
176
     1
 90
       13
176
     1
 40
0.0
176
     1
 90
        0
176
     1
290
     0
176
     1
290
     1
176
     1
290
     1
176
     1
290
     0
176
     1
290
     0
176
     1
290
     0
176
     1
290
     0
176
     1
290
     0
176
     1
290
     0
176
     1
 90
       50
176
     1
 40
0.0
176
     1
 40
1.0
176
     1
 90
        0
176
     1
 62
    18
420
        0
176
     1
 90
       50
176
     1
 90
        3
176
     1
 62
     5
420
      255
176
     1
290
     0
176
     1
 90
       50
176
     1
 90
       50
176
     1
 90
       50
176
     1
290
     0
176
     1
 90
       50
176
     1
 62
   256
176
     0
 40
1.0
176
     0
 90
        2
176
     1
  1
strokes_ogs.tif
176
     1
290
     0
176
     1
 40
1.0
176
     1
 40
1.0
176
     1
1001
ACAD
1000
AcRTDxfName
1000
VISUALSTYLE
1000
AcRTDxfName
1000
VISUALSTYLE
1000
AcRTDxfName
1000
VISUALSTYLE
1000
AcRTDxfName
1000
VISUALSTYLE
1000
AcRTDxfName
1000
VISUALSTYLE
1000
AcRTDxfName
1000
VISUALSTYLE
1000
AcRTDxfName
1000
VISUALSTYLE
1000
AcRTDxfName
1000
VISUALSTYLE
1000
AcDbSavedByObjectVersion
1070
     0
  0
VISUALSTYLE
  5
17219
102
{ACAD_REACTORS
330
D7BC
102
}
330
D7BC
100
AcDbVisualStyle
  2
Hidden
 70
     6
177
     3
291
     0
 70
    58
 90
        1
176
     1
 90
        2
176
     1
 90
        2
176
     1
 90
        0
176
     1
 40
0.6
176
     1
 40
30.0
176
     1
 62
     7
420
 16777215
176
     1
 90
        2
176
     1
 90
        2
176
     1
 62
     7
176
     1
 62
   257
176
     1
 90
        2
176
     1
 90
        1
176
     1
 40
40.0
176
     1
 90
        0
176
     1
 62
   257
176
     1
 40
1.0
176
     1
 90
        1
176
     1
 90
        6
176
     1
 90
        2
176
     1
 62
     7
176
     1
 90
        3
176
     1
 90
        0
176
     1
 90
        0
176
     1
290
     0
176
     1
 90
        1
176
     1
 40
0.0
176
     1
 90
        0
176
     1
290
     0
176
     1
290
     1
176
     1
290
     1
176
     1
290
     0
176
     1
290
     0
176
     1
290
     0
176
     1
290
     0
176
     1
290
     0
176
     1
290
     0
176
     1
 90
       50
176
     1
 40
0.0
176
     1
 40
1.0
176
     1
 90
        0
176
     1
 62
    18
420
        0
176
     1
 90
       50
176
     1
 90
        3
176
     1
 62
     5
420
      255
176
     1
290
     0
176
     1
 90
       50
176
     1
 90
       50
176
     1
 90
       50
176
     1
290
     0
176
     1
 90
       50
176
     1
 62
   256
176
     0
 40
1.0
176
     0
 90
        2
176
     1
  1
strokes_ogs.tif
176
     1
290
     0
176
     1
 40
1.0
176
     1
 40
1.0
176
     1
1001
ACAD
1000
AcDbSavedByObjectVersion
1070
     0
  0
VISUALSTYLE
  5
1721F
102
{ACAD_REACTORS
330
D7BC
102
}
330
D7BC
100
AcDbVisualStyle
  2
JitterOff
 70
    20
177
     3
291
     1
 70
    58
 90
        2
176
     0
 90
        2
176
     0
 90
        0
176
     0
 90
        0
176
     0
 40
0.6
176
     0
 40
30.0
176
     0
 62
     7
420
 16777215
176
     0
 90
        1
176
     0
 90
        4
176
     0
 62
     7
176
     0
 62
   257
176
     0
 90
        1
176
     0
 90
        1
176
     0
 40
1.0
176
     0
 90
       10
176
     2
 62
     7
176
     0
 40
1.0
176
     0
 90
        1
176
     0
 90
        6
176
     0
 90
        2
176
     0
 62
     7
176
     0
 90
        5
176
     0
 90
        0
176
     0
 90
        0
176
     0
290
     0
176
     0
 90
        1
176
     0
 40
0.0
176
     0
 90
        0
176
     0
290
     0
176
     0
290
     1
176
     0
290
     1
176
     0
290
     0
176
     0
290
     0
176
     0
290
     0
176
     0
290
     0
176
     0
290
     0
176
     0
290
     0
176
     0
 90
       50
176
     0
 40
0.0
176
     0
 40
1.0
176
     0
 90
        0
176
     0
 62
    18
420
        0
176
     0
 90
       50
176
     0
 90
        3
176
     0
 62
     5
420
      255
176
     0
290
     0
176
     0
 90
       50
176
     0
 90
       50
176
     0
 90
       50
176
     0
290
     0
176
     0
 90
       50
176
     0
 62
   256
176
     0
 40
1.0
176
     0
 90
        2
176
     0
  1
strokes_ogs.tif
176
     0
290
     0
176
     0
 40
1.0
176
     0
 40
1.0
176
     0
1001
ACAD
1000
AcDbSavedByObjectVersion
1070
     0
  0
VISUALSTYLE
  5
D7CA
102
{ACAD_REACTORS
330
D7BC
102
}
330
D7BC
100
AcDbVisualStyle
  2
Linepattern
 70
    14
177
     3
291
     1
 70
    58
 90
        2
176
     1
 90
        2
176
     1
 90
        0
176
     1
 90
        0
176
     1
 40
0.6
176
     1
 40
30.0
176
     1
 62
     7
176
     1
 90
        1
176
     1
 90
        4
176
     1
 62
     7
176
     1
 62
   257
176
     1
 90
        7
176
     1
 90
        7
176
     1
 40
1.0
176
     1
 90
        8
176
     1
 62
     7
176
     1
 40
1.0
176
     1
 90
        1
176
     1
 90
        6
176
     1
 90
        2
176
     1
 62
     7
176
     1
 90
        5
176
     1
 90
        0
176
     1
 90
        0
176
     1
290
     0
176
     1
 90
        1
176
     1
 40
0.0
176
     1
 90
        0
176
     1
290
     0
176
     1
290
     1
176
     1
290
     1
176
     1
290
     0
176
     1
290
     0
176
     1
290
     0
176
     1
290
     0
176
     1
290
     0
176
     1
290
     0
176
     1
 90
       50
176
     1
 40
0.0
176
     1
 40
1.0
176
     1
 90
        0
176
     1
 62
    18
420
        0
176
     1
 90
       50
176
     1
 90
        3
176
     1
 62
     5
420
      255
176
     1
290
     0
176
     1
 90
       50
176
     1
 90
       50
176
     1
 90
       50
176
     1
290
     0
176
     1
 90
       50
176
     1
 62
   256
176
     0
 40
1.0
176
     0
 90
        2
176
     1
  1
strokes_ogs.tif
176
     1
290
     0
176
     1
 40
1.0
176
     1
 40
1.0
176
     1
1001
ACAD
1000
AcRTDxfName
1000
VISUALSTYLE
1000
AcRTDxfName
1000
VISUALSTYLE
1000
AcRTDxfName
1000
VISUALSTYLE
1000
AcRTDxfName
1000
VISUALSTYLE
1000
AcRTDxfName
1000
VISUALSTYLE
1000
AcRTDxfName
1000
VISUALSTYLE
1000
AcRTDxfName
1000
VISUALSTYLE
1000
AcRTDxfName
1000
VISUALSTYLE
1000
AcDbSavedByObjectVersion
1070
     0
  0
VISUALSTYLE
  5
17220
102
{ACAD_REACTORS
330
D7BC
102
}
330
D7BC
100
AcDbVisualStyle
  2
OverhangOff
 70
    21
177
     3
291
     1
 70
    58
 90
        2
176
     0
 90
        2
176
     0
 90
        0
176
     0
 90
        0
176
     0
 40
0.6
176
     0
 40
30.0
176
     0
 62
     7
420
 16777215
176
     0
 90
        1
176
     0
 90
        4
176
     0
 62
     7
176
     0
 62
   257
176
     0
 90
        1
176
     0
 90
        1
176
     0
 40
1.0
176
     0
 90
        9
176
     2
 62
     7
176
     0
 40
1.0
176
     0
 90
        1
176
     0
 90
        6
176
     0
 90
        2
176
     0
 62
     7
176
     0
 90
        5
176
     0
 90
        0
176
     0
 90
        0
176
     0
290
     0
176
     0
 90
        1
176
     0
 40
0.0
176
     0
 90
        0
176
     0
290
     0
176
     0
290
     1
176
     0
290
     1
176
     0
290
     0
176
     0
290
     0
176
     0
290
     0
176
     0
290
     0
176
     0
290
     0
176
     0
290
     0
176
     0
 90
       50
176
     0
 40
0.0
176
     0
 40
1.0
176
     0
 90
        0
176
     0
 62
    18
420
        0
176
     0
 90
       50
176
     0
 90
        3
176
     0
 62
     5
420
      255
176
     0
290
     0
176
     0
 90
       50
176
     0
 90
       50
176
     0
 90
       50
176
     0
290
     0
176
     0
 90
       50
176
     0
 62
   256
176
     0
 40
1.0
176
     0
 90
        2
176
     0
  1
strokes_ogs.tif
176
     0
290
     0
176
     0
 40
1.0
176
     0
 40
1.0
176
     0
1001
ACAD
1000
AcDbSavedByObjectVersion
1070
     0
  0
VISUALSTYLE
  5
D7C6
102
{ACAD_REACTORS
330
D7BC
102
}
330
D7BC
100
AcDbVisualStyle
  2
Realistic
 70
     8
177
     3
291
     0
 70
    58
 90
        2
176
     1
 90
        2
176
     1
 90
        0
176
     1
 90
        0
176
     1
 40
0.6
176
     1
 40
30.0
176
     1
 62
     7
176
     1
 90
        1
176
     1
 90
        0
176
     1
 62
     7
176
     1
 62
   257
176
     1
 90
        1
176
     1
 90
        1
176
     1
 40
1.0
176
     1
 90
        8
176
     1
 62
     8
176
     1
 40
1.0
176
     1
 90
        1
176
     1
 90
        6
176
     1
 90
        2
176
     1
 62
     7
176
     1
 90
        5
176
     1
 90
        0
176
     1
 90
        0
176
     1
290
     0
176
     1
 90
       13
176
     1
 40
0.0
176
     1
 90
        0
176
     1
290
     0
176
     1
290
     1
176
     1
290
     1
176
     1
290
     0
176
     1
290
     0
176
     1
290
     0
176
     1
290
     0
176
     1
290
     0
176
     1
290
     0
176
     1
 90
       50
176
     1
 40
0.0
176
     1
 40
1.0
176
     1
 90
        0
176
     1
 62
    18
420
        0
176
     1
 90
       50
176
     1
 90
        3
176
     1
 62
     5
420
      255
176
     1
290
     0
176
     1
 90
       50
176
     1
 90
       50
176
     1
 90
       50
176
     1
290
     0
176
     1
 90
       50
176
     1
 62
   256
176
     0
 40
1.0
176
     0
 90
        2
176
     1
  1
strokes_ogs.tif
176
     1
290
     0
176
     1
 40
1.0
176
     1
 40
1.0
176
     1
1001
ACAD
1000
AcRTDxfName
1000
VISUALSTYLE
1000
AcRTDxfName
1000
VISUALSTYLE
1000
AcRTDxfName
1000
VISUALSTYLE
1000
AcRTDxfName
1000
VISUALSTYLE
1000
AcRTDxfName
1000
VISUALSTYLE
1000
AcRTDxfName
1000
VISUALSTYLE
1000
AcRTDxfName
1000
VISUALSTYLE
1000
AcRTDxfName
1000
VISUALSTYLE
1000
AcDbSavedByObjectVersion
1070
     0
  0
VISUALSTYLE
  5
1721E
102
{ACAD_REACTORS
330
D7BC
102
}
330
D7BC
100
AcDbVisualStyle
  2
Shaded
 70
    27
177
     3
291
     0
 70
    58
 90
        2
176
     1
 90
        2
176
     1
 90
        1
176
     1
 90
        2
176
     1
 40
0.6
176
     1
 40
30.0
176
     1
 62
     7
420
 16777215
176
     1
 90
        0
176
     1
 90
        4
176
     1
 62
     7
176
     1
 62
   257
176
     1
 90
        1
176
     1
 90
        1
176
     1
 40
1.0
176
     1
 90
        8
176
     1
 62
   257
176
     1
 40
1.0
176
     1
 90
        1
176
     1
 90
        6
176
     1
 90
        2
176
     1
 62
     8
420
  7895160
176
     1
 90
        3
176
     1
 90
        0
176
     1
 90
        0
176
     1
290
     0
176
     1
 90
        5
176
     1
 40
0.0
176
     1
 90
        0
176
     1
290
     0
176
     1
290
     1
176
     1
290
     1
176
     1
290
     0
176
     1
290
     0
176
     1
290
     0
176
     1
290
     0
176
     1
290
     0
176
     1
290
     0
176
     1
 90
       50
176
     1
 40
0.0
176
     1
 40
1.0
176
     1
 90
        0
176
     1
 62
    18
420
        0
176
     1
 90
       50
176
     1
 90
        3
176
     1
 62
     5
420
      255
176
     1
290
     0
176
     1
 90
       50
176
     1
 90
       50
176
     1
 90
       50
176
     1
290
     0
176
     1
 90
       50
176
     1
 62
   256
176
     0
 40
1.0
176
     0
 90
        2
176
     1
  1
strokes_ogs.tif
176
     1
290
     0
176
     1
 40
1.0
176
     1
 40
1.0
176
     1
1001
ACAD
1000
AcDbSavedByObjectVersion
1070
     0
  0
VISUALSTYLE
  5
1721D
102
{ACAD_REACTORS
330
D7BC
102
}
330
D7BC
100
AcDbVisualStyle
  2
Shaded with edges
 70
    26
177
     3
291
     0
 70
    58
 90
        2
176
     1
 90
        2
176
     1
 90
        1
176
     1
 90
        2
176
     1
 40
0.6
176
     1
 40
30.0
176
     1
 62
     7
420
 16777215
176
     1
 90
        1
176
     1
 90
        2
176
     1
 62
     7
176
     1
 62
   257
176
     1
 90
        2
176
     1
 90
        1
176
     1
 40
1.0
176
     1
 90
        8
176
     1
 62
   257
176
     1
 40
1.0
176
     1
 90
        1
176
     1
 90
        6
176
     1
 90
        2
176
     1
 62
     7
176
     1
 90
        3
176
     1
 90
        0
176
     1
 90
        0
176
     1
290
     0
176
     1
 90
        5
176
     1
 40
0.0
176
     1
 90
        0
176
     1
290
     0
176
     1
290
     1
176
     1
290
     1
176
     1
290
     0
176
     1
290
     0
176
     1
290
     0
176
     1
290
     0
176
     1
290
     0
176
     1
290
     0
176
     1
 90
       50
176
     1
 40
0.0
176
     1
 40
1.0
176
     1
 90
        0
176
     1
 62
    18
420
        0
176
     1
 90
       50
176
     1
 90
        3
176
     1
 62
     5
420
      255
176
     1
290
     0
176
     1
 90
       50
176
     1
 90
       50
176
     1
 90
       50
176
     1
290
     0
176
     1
 90
       50
176
     1
 62
   256
176
     0
 40
1.0
176
     0
 90
        2
176
     1
  1
strokes_ogs.tif
176
     1
290
     0
176
     1
 40
1.0
176
     1
 40
1.0
176
     1
1001
ACAD
1000
AcDbSavedByObjectVersion
1070
     0
  0
VISUALSTYLE
  5
1721A
102
{ACAD_REACTORS
330
D7BC
102
}
330
D7BC
100
AcDbVisualStyle
  2
Shades of Gray
 70
    23
177
     3
291
     0
 70
    58
 90
        2
176
     1
 90
        2
176
     1
 90
        3
176
     1
 90
        0
176
     1
 40
0.6
176
     1
 40
30.0
176
     1
 62
     7
420
 16777215
176
     1
 90
        2
176
     1
 90
        2
176
     1
 62
     7
176
     1
 62
     7
176
     1
 90
        1
176
     1
 90
        1
176
     1
 40
40.0
176
     1
 90
        8
176
     1
 62
     7
176
     1
 40
1.0
176
     1
 90
        1
176
     1
 90
        6
176
     1
 90
        2
176
     1
 62
     7
176
     1
 90
        3
176
     1
 90
        0
176
     1
 90
        0
176
     1
290
     0
176
     1
 90
        1
176
     1
 40
0.0
176
     1
 90
        0
176
     1
290
     0
176
     1
290
     1
176
     1
290
     1
176
     1
290
     0
176
     1
290
     0
176
     1
290
     0
176
     1
290
     0
176
     1
290
     0
176
     1
290
     0
176
     1
 90
       50
176
     1
 40
0.0
176
     1
 40
1.0
176
     1
 90
        0
176
     1
 62
    18
420
        0
176
     1
 90
       50
176
     1
 90
        3
176
     1
 62
     5
420
      255
176
     1
290
     0
176
     1
 90
       50
176
     1
 90
       50
176
     1
 90
       50
176
     1
290
     0
176
     1
 90
       50
176
     1
 62
   256
176
     0
 40
1.0
176
     0
 90
        2
176
     1
  1
strokes_ogs.tif
176
     1
290
     0
176
     1
 40
1.0
176
     1
 40
1.0
176
     1
1001
ACAD
1000
AcDbSavedByObjectVersion
1070
     0
  0
VISUALSTYLE
  5
1721B
102
{ACAD_REACTORS
330
D7BC
102
}
330
D7BC
100
AcDbVisualStyle
  2
Sketchy
 70
    24
177
     3
291
     0
 70
    58
 90
        1
176
     1
 90
        2
176
     1
 90
        2
176
     1
 90
        0
176
     1
 40
0.6
176
     1
 40
30.0
176
     1
 62
     7
420
 16777215
176
     1
 90
        2
176
     1
 90
        2
176
     1
 62
     7
176
     1
 62
     7
176
     1
 90
        1
176
     1
 90
        1
176
     1
 40
40.0
176
     1
 90
       11
176
     1
 62
     7
176
     1
 40
1.0
176
     1
 90
        1
176
     1
 90
        6
176
     1
 90
        2
176
     1
 62
     7
176
     1
 90
        6
176
     1
 90
        0
176
     1
 90
        0
176
     1
290
     0
176
     1
 90
        1
176
     1
 40
0.0
176
     1
 90
        0
176
     1
290
     0
176
     1
290
     1
176
     1
290
     1
176
     1
290
     0
176
     1
290
     0
176
     1
290
     0
176
     1
290
     0
176
     1
290
     0
176
     1
290
     0
176
     1
 90
       50
176
     1
 40
0.0
176
     1
 40
1.0
176
     1
 90
        0
176
     1
 62
    18
420
        0
176
     1
 90
       50
176
     1
 90
        3
176
     1
 62
     5
420
      255
176
     1
290
     0
176
     1
 90
       50
176
     1
 90
       50
176
     1
 90
       50
176
     1
290
     0
176
     1
 90
       50
176
     1
 62
   256
176
     0
 40
1.0
176
     0
 90
        2
176
     1
  1
strokes_ogs.tif
176
     1
290
     0
176
     1
 40
1.0
176
     1
 40
1.0
176
     1
1001
ACAD
1000
AcDbSavedByObjectVersion
1070
     0
  0
VISUALSTYLE
  5
D7C9
102
{ACAD_REACTORS
330
D7BC
102
}
330
D7BC
100
AcDbVisualStyle
  2
Thicken
 70
    13
177
     3
291
     1
 70
    58
 90
        2
176
     1
 90
        2
176
     1
 90
        0
176
     1
 90
        0
176
     1
 40
0.6
176
     1
 40
30.0
176
     1
 62
     7
176
     1
 90
        1
176
     1
 90
        4
176
     1
 62
     7
176
     1
 62
   257
176
     1
 90
        1
176
     1
 90
        1
176
     1
 40
1.0
176
     1
 90
       12
176
     1
 62
     7
176
     1
 40
1.0
176
     1
 90
        1
176
     1
 90
        6
176
     1
 90
        2
176
     1
 62
     7
176
     1
 90
        5
176
     1
 90
        0
176
     1
 90
        0
176
     1
290
     0
176
     1
 90
        1
176
     1
 40
0.0
176
     1
 90
        0
176
     1
290
     0
176
     1
290
     1
176
     1
290
     1
176
     1
290
     0
176
     1
290
     0
176
     1
290
     0
176
     1
290
     0
176
     1
290
     0
176
     1
290
     0
176
     1
 90
       50
176
     1
 40
0.0
176
     1
 40
1.0
176
     1
 90
        0
176
     1
 62
    18
420
        0
176
     1
 90
       50
176
     1
 90
        3
176
     1
 62
     5
420
      255
176
     1
290
     0
176
     1
 90
       50
176
     1
 90
       50
176
     1
 90
       50
176
     1
290
     0
176
     1
 90
       50
176
     1
 62
   256
176
     0
 40
1.0
176
     0
 90
        2
176
     1
  1
strokes_ogs.tif
176
     1
290
     0
176
     1
 40
1.0
176
     1
 40
1.0
176
     1
1001
ACAD
1000
AcRTDxfName
1000
VISUALSTYLE
1000
AcRTDxfName
1000
VISUALSTYLE
1000
AcRTDxfName
1000
VISUALSTYLE
1000
AcRTDxfName
1000
VISUALSTYLE
1000
AcRTDxfName
1000
VISUALSTYLE
1000
AcRTDxfName
1000
VISUALSTYLE
1000
AcRTDxfName
1000
VISUALSTYLE
1000
AcRTDxfName
1000
VISUALSTYLE
1000
AcDbSavedByObjectVersion
1070
     0
  0
VISUALSTYLE
  5
17218
102
{ACAD_REACTORS
330
D7BC
102
}
330
D7BC
100
AcDbVisualStyle
  2
Wireframe
 70
     5
177
     3
291
     0
 70
    58
 90
        0
176
     1
 90
        2
176
     1
 90
        0
176
     1
 90
        0
176
     1
 40
0.6
176
     1
 40
30.0
176
     1
 62
     7
420
 16777215
176
     1
 90
        1
176
     1
 90
        4
176
     1
 62
     7
176
     1
 62
   257
176
     1
 90
        1
176
     1
 90
        1
176
     1
 40
1.0
176
     1
 90
        0
176
     1
 62
   257
176
     1
 40
1.0
176
     1
 90
        1
176
     1
 90
        6
176
     1
 90
        2
176
     1
 62
     7
176
     1
 90
        3
176
     1
 90
        0
176
     1
 90
        0
176
     1
290
     0
176
     1
 90
        1
176
     1
 40
0.0
176
     1
 90
        0
176
     1
290
     0
176
     1
290
     1
176
     1
290
     1
176
     1
290
     0
176
     1
290
     0
176
     1
290
     0
176
     1
290
     0
176
     1
290
     0
176
     1
290
     0
176
     1
 90
       50
176
     1
 40
0.0
176
     1
 40
1.0
176
     1
 90
        0
176
     1
 62
    18
420
        0
176
     1
 90
       50
176
     1
 90
        3
176
     1
 62
     5
420
      255
176
     1
290
     0
176
     1
 90
       50
176
     1
 90
       50
176
     1
 90
       50
176
     1
290
     0
176
     1
 90
       50
176
     1
 62
   256
176
     0
 40
1.0
176
     0
 90
        2
176
     1
  1
strokes_ogs.tif
176
     1
290
     0
176
     1
 40
1.0
176
     1
 40
1.0
176
     1
1001
ACAD
1000
AcDbSavedByObjectVersion
1070
     0
  0
VISUALSTYLE
  5
1721C
102
{ACAD_REACTORS
330
D7BC
102
}
330
D7BC
100
AcDbVisualStyle
  2
X-Ray
 70
    25
177
     3
291
     0
 70
    58
 90
        2
176
     1
 90
        2
176
     1
 90
        1
176
     1
 90
        1
176
     1
 40
0.5
176
     1
 40
30.0
176
     1
 62
     7
420
 16777215
176
     1
 90
        1
176
     1
 90
        0
176
     1
 62
     7
176
     1
 62
   257
176
     1
 90
        1
176
     1
 90
        1
176
     1
 40
1.0
176
     1
 90
        8
176
     1
 62
     7
176
     1
 40
1.0
176
     1
 90
        1
176
     1
 90
        6
176
     1
 90
        2
176
     1
 62
     7
176
     1
 90
        3
176
     1
 90
        0
176
     1
 90
        0
176
     1
290
     0
176
     1
 90
       13
176
     1
 40
0.0
176
     1
 90
        0
176
     1
290
     0
176
     1
290
     1
176
     1
290
     1
176
     1
290
     0
176
     1
290
     0
176
     1
290
     0
176
     1
290
     0
176
     1
290
     0
176
     1
290
     0
176
     1
 90
       50
176
     1
 40
0.0
176
     1
 40
1.0
176
     1
 90
        0
176
     1
 62
    18
420
        0
176
     1
 90
       50
176
     1
 90
        3
176
     1
 62
     5
420
      255
176
     1
290
     0
176
     1
 90
       50
176
     1
 90
       50
176
     1
 90
       50
176
     1
290
     0
176
     1
 90
       50
176
     1
 62
   256
176
     0
 40
1.0
176
     0
 90
        2
176
     1
  1
strokes_ogs.tif
176
     1
290
     0
176
     1
 40
1.0
176
     1
 40
1.0
176
     1
1001
ACAD
1000
AcDbSavedByObjectVersion
1070
     0
  0
DICTIONARYVAR
  5
D81A
102
{ACAD_REACTORS
330
5E
102
}
330
5E
100
DictionaryVariables
280
     0
  1
1:1
  0
DICTIONARYVAR
  5
D819
102
{ACAD_REACTORS
330
5E
102
}
330
5E
100
DictionaryVariables
280
     0
  1
STANDARD
  0
DICTIONARYVAR
  5
84
102
{ACAD_REACTORS
330
5E
102
}
330
5E
100
DictionaryVariables
280
     0
  1
STANDARD
  0
DICTIONARYVAR
  5
17CDD
102
{ACAD_REACTORS
330
5E
102
}
330
5E
100
DictionaryVariables
280
     0
  1
Metric50
  0
DICTIONARYVAR
  5
17CDE
102
{ACAD_REACTORS
330
5E
102
}
330
5E
100
DictionaryVariables
280
     0
  1
Metric50
  0
DICTIONARYVAR
  5
5F
102
{ACAD_REACTORS
330
5E
102
}
330
5E
100
DictionaryVariables
280
     0
  1
2
  0
DICTIONARYVAR
  5
63
102
{ACAD_REACTORS
330
5E
102
}
330
5E
100
DictionaryVariables
280
     0
  1
1
  0
DICTIONARYVAR
  5
D81C
102
{ACAD_REACTORS
330
5E
102
}
330
5E
100
DictionaryVariables
280
     0
  1
0
  0
DICTIONARYVAR
  5
17CE1
102
{ACAD_REACTORS
330
5E
102
}
330
5E
100
DictionaryVariables
280
     0
  1
1
  0
DICTIONARYVAR
  5
17CE2
102
{ACAD_REACTORS
330
5E
102
}
330
5E
100
DictionaryVariables
280
     0
  1
15
  0
DICTIONARYVAR
  5
17CE0
102
{ACAD_REACTORS
330
5E
102
}
330
5E
100
DictionaryVariables
280
     0
  1
0
  0
DICTIONARYVAR
  5
17CDF
102
{ACAD_REACTORS
330
5E
102
}
330
5E
100
DictionaryVariables
280
     0
  1
0
  0
DICTIONARYVAR
  5
D798
102
{ACAD_REACTORS
330
5E
102
}
330
5E
100
DictionaryVariables
280
     0
  1

  0
DICTIONARYVAR
  5
D81B
102
{ACAD_REACTORS
330
5E
102
}
330
5E
100
DictionaryVariables
280
     0
  1
127
  0
DICTIONARY
  5
19949
102
{ACAD_REACTORS
330
19947
102
}
330
19947
100
AcDbDictionary
281
     1
  0
DICTIONARY
  5
19948
102
{ACAD_REACTORS
330
19947
102
}
330
19947
100
AcDbDictionary
281
     1
  3
2504157314720
350
19942
  3
2504157314736
350
19943
  3
2504157314752
350
19944
  3
2504157314768
350
19945
  3
2504157314784
350
19946
  0
DICTIONARY
  5
1994C
330
17225
100
AcDbDictionary
280
     1
281
     1
  3
ACAD_XREC_ROUNDTRIP
360
1994D
  0
DICTIONARY
  5
79B
330
78E
100
AcDbDictionary
280
     1
281
     1
  0
DICTIONARY
  5
D7AD
330
D7AC
100
AcDbDictionary
280
     1
281
     1
  3
BUMPTILE
360
D7AF
  3
DIFFUSETILE
360
D7AE
  3
OPACITYTILE
360
D7B2
  3
REFLECTIONTILE
360
D7B1
  3
REFRACTIONTILE
360
D7B3
  3
SPECULARTILE
360
D7B0
  0
DICTIONARY
  5
D7A5
330
D7A4
100
AcDbDictionary
280
     1
281
     1
  3
BUMPTILE
360
D7A7
  3
DIFFUSETILE
360
D7A6
  3
OPACITYTILE
360
D7AA
  3
REFLECTIONTILE
360
D7A9
  3
REFRACTIONTILE
360
D7AB
  3
SPECULARTILE
360
D7A8
  0
DICTIONARY
  5
D7B5
330
D7B4
100
AcDbDictionary
280
     1
281
     1
  3
BUMPTILE
360
D7B7
  3
DIFFUSETILE
360
D7B6
  3
OPACITYTILE
360
D7BA
  3
REFLECTIONTILE
360
D7B9
  3
REFRACTIONTILE
360
D7BB
  3
SPECULARTILE
360
D7B8
  0
DICTIONARY
  5
1994A
330
17223
100
AcDbDictionary
280
     1
281
     1
  3
ACAD_XREC_ROUNDTRIP
360
1994B
  0
DICTIONARY
  5
D806
330
7F
100
AcDbDictionary
280
     1
281
     1
  3
ACAD_ROUNDTRIP_2008_TABLESTYLE_CELLSTYLEMAP
360
19940
  0
XRECORD
  5
19942
102
{ACAD_REACTORS
330
19948
102
}
330
19948
100
AcDbXrecord
280
     1
  1
AcDb_Thumbnail_Schema
102
{ATTRRECORD
341
19943
  2
AcDbDs::TreatedAsObjectData
280
     1
291
     1
102
ATTRRECORD}
102
{ATTRRECORD
341
19944
  2
AcDbDs::Legacy
280
     1
291
     1
102
ATTRRECORD}
  2
AcDbDs::ID
280
    10
 91
        8
102
{ATTRRECORD
341
19945
  2
AcDs:Indexable
280
     1
291
     1
102
ATTRRECORD}
102
{ATTRRECORD
341
19946
  2
AcDbDs::HandleAttribute
280
     7
282
     1
102
ATTRRECORD}
  2
Thumbnail_Data
280
    15
 91
        0
  0
XRECORD
  5
19943
102
{ACAD_REACTORS
330
19948
102
}
330
19948
100
AcDbXrecord
280
     1
  1
AcDbDs::TreatedAsObjectDataSchema
  2
AcDbDs::TreatedAsObjectData
280
     1
 91
        0
  0
XRECORD
  5
19944
102
{ACAD_REACTORS
330
19948
102
}
330
19948
100
AcDbXrecord
280
     1
  1
AcDbDs::LegacySchema
  2
AcDbDs::Legacy
280
     1
 91
        0
  0
XRECORD
  5
19945
102
{ACAD_REACTORS
330
19948
102
}
330
19948
100
AcDbXrecord
280
     1
  1
AcDbDs::IndexedPropertySchema
  2
AcDs:Indexable
280
     1
 91
        0
  0
XRECORD
  5
19946
102
{ACAD_REACTORS
330
19948
102
}
330
19948
100
AcDbXrecord
280
     1
  1
AcDbDs::HandleAttributeSchema
  2
AcDbDs::HandleAttribute
280
     7
 91
        1
284
     1
  0
XRECORD
  5
1994D
102
{ACAD_REACTORS
330
1994C
102
}
330
1994C
100
AcDbXrecord
280
     1
102
DISPLAYNAME
  1
Metric50
102
FLAGS
 90
        0
  0
XRECORD
  5
D7AF
102
{ACAD_REACTORS
330
D7AD
102
}
330
D7AD
100
AcDbXrecord
280
     1
270
     1
271
     1
  0
XRECORD
  5
D7AE
102
{ACAD_REACTORS
330
D7AD
102
}
330
D7AD
100
AcDbXrecord
280
     1
270
     1
271
     1
  0
XRECORD
  5
D7B2
102
{ACAD_REACTORS
330
D7AD
102
}
330
D7AD
100
AcDbXrecord
280
     1
270
     1
271
     1
  0
XRECORD
  5
D7B1
102
{ACAD_REACTORS
330
D7AD
102
}
330
D7AD
100
AcDbXrecord
280
     1
270
     1
271
     1
  0
XRECORD
  5
D7B3
102
{ACAD_REACTORS
330
D7AD
102
}
330
D7AD
100
AcDbXrecord
280
     1
270
     1
271
     1
  0
XRECORD
  5
D7B0
102
{ACAD_REACTORS
330
D7AD
102
}
330
D7AD
100
AcDbXrecord
280
     1
270
     1
271
     1
  0
XRECORD
  5
D7A7
102
{ACAD_REACTORS
330
D7A5
102
}
330
D7A5
100
AcDbXrecord
280
     1
270
     1
271
     1
  0
XRECORD
  5
D7A6
102
{ACAD_REACTORS
330
D7A5
102
}
330
D7A5
100
AcDbXrecord
280
     1
270
     1
271
     1
  0
XRECORD
  5
D7AA
102
{ACAD_REACTORS
330
D7A5
102
}
330
D7A5
100
AcDbXrecord
280
     1
270
     1
271
     1
  0
XRECORD
  5
D7A9
102
{ACAD_REACTORS
330
D7A5
102
}
330
D7A5
100
AcDbXrecord
280
     1
270
     1
271
     1
  0
XRECORD
  5
D7AB
102
{ACAD_REACTORS
330
D7A5
102
}
330
D7A5
100
AcDbXrecord
280
     1
270
     1
271
     1
  0
XRECORD
  5
D7A8
102
{ACAD_REACTORS
330
D7A5
102
}
330
D7A5
100
AcDbXrecord
280
     1
270
     1
271
     1
  0
XRECORD
  5
D7B7
102
{ACAD_REACTORS
330
D7B5
102
}
330
D7B5
100
AcDbXrecord
280
     1
270
     1
271
     1
  0
XRECORD
  5
D7B6
102
{ACAD_REACTORS
330
D7B5
102
}
330
D7B5
100
AcDbXrecord
280
     1
270
     1
271
     1
  0
XRECORD
  5
D7BA
102
{ACAD_REACTORS
330
D7B5
102
}
330
D7B5
100
AcDbXrecord
280
     1
270
     1
271
     1
  0
XRECORD
  5
D7B9
102
{ACAD_REACTORS
330
D7B5
102
}
330
D7B5
100
AcDbXrecord
280
     1
270
     1
271
     1
  0
XRECORD
  5
D7BB
102
{ACAD_REACTORS
330
D7B5
102
}
330
D7B5
100
AcDbXrecord
280
     1
270
     1
271
     1
  0
XRECORD
  5
D7B8
102
{ACAD_REACTORS
330
D7B5
102
}
330
D7B5
100
AcDbXrecord
280
     1
270
     1
271
     1
  0
XRECORD
  5
1994B
102
{ACAD_REACTORS
330
1994A
102
}
330
1994A
100
AcDbXrecord
280
     1
102
DISPLAYNAME
  1
Metric50
102
FLAGS
 90
        0
  0
CELLSTYLEMAP
  5
19940
102
{ACAD_REACTORS
330
D806
102
}
330
D806
100
AcDbCellStyleMap
 90
        3
300
CELLSTYLE
  1
TABLEFORMAT_BEGIN
 90
        5
170
     1
 91
        0
 92
    32768
 62
   257
 93
        1
300
CONTENTFORMAT
  1
CONTENTFORMAT_BEGIN
 90
        0
 91
        0
 92
        4
 93
        0
300

 40
0.0
140
1.0
 94
        5
 62
     0
340
11
144
6.0
309
CONTENTFORMAT_END
171
     1
301
MARGIN
  1
CELLMARGIN_BEGIN
 40
1.5
 40
1.5
 40
1.5
 40
1.5
 40
0.18
 40
0.18
309
CELLMARGIN_END
 94
        6
 95
        1
302
GRIDFORMAT
  1
GRIDFORMAT_BEGIN
 90
        0
 91
        1
 62
     0
 92
       -2
340
0
 93
        0
 40
0.045
309
GRIDFORMAT_END
 95
        2
302
GRIDFORMAT
  1
GRIDFORMAT_BEGIN
 90
        0
 91
        1
 62
     0
 92
       -2
340
0
 93
        0
 40
0.045
309
GRIDFORMAT_END
 95
        4
302
GRIDFORMAT
  1
GRIDFORMAT_BEGIN
 90
        0
 91
        1
 62
     0
 92
       -2
340
0
 93
        0
 40
0.045
309
GRIDFORMAT_END
 95
        8
302
GRIDFORMAT
  1
GRIDFORMAT_BEGIN
 90
        0
 91
        1
 62
     0
 92
       -2
340
0
 93
        0
 40
0.045
309
GRIDFORMAT_END
 95
       16
302
GRIDFORMAT
  1
GRIDFORMAT_BEGIN
 90
        0
 91
        1
 62
     0
 92
       -2
340
0
 93
        0
 40
0.045
309
GRIDFORMAT_END
 95
       32
302
GRIDFORMAT
  1
GRIDFORMAT_BEGIN
 90
        0
 91
        1
 62
     0
 92
       -2
340
0
 93
        0
 40
0.045
309
GRIDFORMAT_END
309
TABLEFORMAT_END
  1
CELLSTYLE_BEGIN
 90
        1
 91
        1
300
_TITLE
309
CELLSTYLE_END
300
CELLSTYLE
  1
TABLEFORMAT_BEGIN
 90
        5
170
     1
 91
        0
 92
        0
 62
   257
 93
        1
300
CONTENTFORMAT
  1
CONTENTFORMAT_BEGIN
 90
        0
 91
        0
 92
        4
 93
        0
300

 40
0.0
140
1.0
 94
        5
 62
     0
340
11
144
4.5
309
CONTENTFORMAT_END
171
     1
301
MARGIN
  1
CELLMARGIN_BEGIN
 40
1.5
 40
1.5
 40
1.5
 40
1.5
 40
0.18
 40
0.18
309
CELLMARGIN_END
 94
        6
 95
        1
302
GRIDFORMAT
  1
GRIDFORMAT_BEGIN
 90
        0
 91
        1
 62
     0
 92
       -2
340
0
 93
        0
 40
0.045
309
GRIDFORMAT_END
 95
        2
302
GRIDFORMAT
  1
GRIDFORMAT_BEGIN
 90
        0
 91
        1
 62
     0
 92
       -2
340
0
 93
        0
 40
0.045
309
GRIDFORMAT_END
 95
        4
302
GRIDFORMAT
  1
GRIDFORMAT_BEGIN
 90
        0
 91
        1
 62
     0
 92
       -2
340
0
 93
        0
 40
0.045
309
GRIDFORMAT_END
 95
        8
302
GRIDFORMAT
  1
GRIDFORMAT_BEGIN
 90
        0
 91
        1
 62
     0
 92
       -2
340
0
 93
        0
 40
0.045
309
GRIDFORMAT_END
 95
       16
302
GRIDFORMAT
  1
GRIDFORMAT_BEGIN
 90
        0
 91
        1
 62
     0
 92
       -2
340
0
 93
        0
 40
0.045
309
GRIDFORMAT_END
 95
       32
302
GRIDFORMAT
  1
GRIDFORMAT_BEGIN
 90
        0
 91
        1
 62
     0
 92
       -2
340
0
 93
        0
 40
0.045
309
GRIDFORMAT_END
309
TABLEFORMAT_END
  1
CELLSTYLE_BEGIN
 90
        2
 91
        1
300
_HEADER
309
CELLSTYLE_END
300
CELLSTYLE
  1
TABLEFORMAT_BEGIN
 90
        5
170
     1
 91
        0
 92
        0
 62
   257
 93
        1
300
CONTENTFORMAT
  1
CONTENTFORMAT_BEGIN
 90
        0
 91
        0
 92
        4
 93
        0
300

 40
0.0
140
1.0
 94
        2
 62
     0
340
11
144
4.5
309
CONTENTFORMAT_END
171
     1
301
MARGIN
  1
CELLMARGIN_BEGIN
 40
1.5
 40
1.5
 40
1.5
 40
1.5
 40
0.18
 40
0.18
309
CELLMARGIN_END
 94
        6
 95
        1
302
GRIDFORMAT
  1
GRIDFORMAT_BEGIN
 90
        0
 91
        1
 62
     0
 92
       -2
340
0
 93
        0
 40
0.045
309
GRIDFORMAT_END
 95
        2
302
GRIDFORMAT
  1
GRIDFORMAT_BEGIN
 90
        0
 91
        1
 62
     0
 92
       -2
340
0
 93
        0
 40
0.045
309
GRIDFORMAT_END
 95
        4
302
GRIDFORMAT
  1
GRIDFORMAT_BEGIN
 90
        0
 91
        1
 62
     0
 92
       -2
340
0
 93
        0
 40
0.045
309
GRIDFORMAT_END
 95
        8
302
GRIDFORMAT
  1
GRIDFORMAT_BEGIN
 90
        0
 91
        1
 62
     0
 92
       -2
340
0
 93
        0
 40
0.045
309
GRIDFORMAT_END
 95
       16
302
GRIDFORMAT
  1
GRIDFORMAT_BEGIN
 90
        0
 91
        1
 62
     0
 92
       -2
340
0
 93
        0
 40
0.045
309
GRIDFORMAT_END
 95
       32
302
GRIDFORMAT
  1
GRIDFORMAT_BEGIN
 90
        0
 91
        1
 62
     0
 92
       -2
340
0
 93
        0
 40
0.045
309
GRIDFORMAT_END
309
TABLEFORMAT_END
  1
CELLSTYLE_BEGIN
 90
        3
 91
        2
300
_DATA
309
CELLSTYLE_END
  0
ENDSEC
  0
SECTION
  2
ACDSDATA
 70
     2
 71
     8
  0
ACDSSCHEMA
 90
        0
  1
AcDb_Thumbnail_Schema
  2
AcDbDs::ID
280
    10
 91
        8
  2
Thumbnail_Data
280
    15
 91
        0
101
ACDSRECORD
 95
        0
 90
        1
  2
AcDbDs::TreatedAsObjectData
280
     1
291
     1
101
ACDSRECORD
 95
        0
 90
        2
  2
AcDbDs::Legacy
280
     1
291
     1
101
ACDSRECORD
  1
AcDbDs::ID
 90
        3
  2
AcDs:Indexable
280
     1
291
     1
101
ACDSRECORD
  1
AcDbDs::ID
 90
        4
  2
AcDbDs::HandleAttribute
280
     7
282
     1
  0
ACDSSCHEMA
 90
        1
  1
AcDbDs::TreatedAsObjectDataSchema
  2
AcDbDs::TreatedAsObjectData
280
     1
 91
        0
  0
ACDSSCHEMA
 90
        2
  1
AcDbDs::LegacySchema
  2
AcDbDs::Legacy
280
     1
 91
        0
  0
ACDSSCHEMA
 90
        3
  1
AcDbDs::IndexedPropertySchema
  2
AcDs:Indexable
280
     1
 91
        0
  0
ACDSSCHEMA
 90
        4
  1
AcDbDs::HandleAttributeSchema
  2
AcDbDs::HandleAttribute
280
     7
 91
        1
284
     1
  0
ACDSRECORD
 90
        0
  2
AcDbDs::ID
280
    10
320
22
  2
Thumbnail_Data
280
    15
 94
     2388
310
89504E470D0A1A0A0000000D49484452000001000000008108030000001837949D00000300504C5445000000FFFFFF0000000000000000000000000000000000000000000000000000000000330000660000990000CC0000FF0033000033330033660033990033CC0033FF0066000066330066660066990066CC0066FF0099
310
000099330099660099990099CC0099FF00CC0000CC3300CC6600CC9900CCCC00CCFF00FF0000FF3300FF6600FF9900FFCC00FFFF3300003300333300663300993300CC3300FF3333003333333333663333993333CC3333FF3366003366333366663366993366CC3366FF3399003399333399663399993399CC3399FF33CC00
310
33CC3333CC6633CC9933CCCC33CCFF33FF0033FF3333FF6633FF9933FFCC33FFFF6600006600336600666600996600CC6600FF6633006633336633666633996633CC6633FF6666006666336666666666996666CC6666FF6699006699336699666699996699CC6699FF66CC0066CC3366CC6666CC9966CCCC66CCFF66FF0066
310
FF3366FF6666FF9966FFCC66FFFF9900009900339900669900999900CC9900FF9933009933339933669933999933CC9933FF9966009966339966669966999966CC9966FF9999009999339999669999999999CC9999FF99CC0099CC3399CC6699CC9999CCCC99CCFF99FF0099FF3399FF6699FF9999FFCC99FFFFCC0000CC00
310
33CC0066CC0099CC00CCCC00FFCC3300CC3333CC3366CC3399CC33CCCC33FFCC6600CC6633CC6666CC6699CC66CCCC66FFCC9900CC9933CC9966CC9999CC99CCCC99FFCCCC00CCCC33CCCC66CCCC99CCCCCCCCCCFFCCFF00CCFF33CCFF66CCFF99CCFFCCCCFFFFFF0000FF0033FF0066FF0099FF00CCFF00FFFF3300FF3333
310
FF3366FF3399FF33CCFF33FFFF6600FF6633FF6666FF6699FF66CCFF66FFFF9900FF9933FF9966FF9999FF99CCFF99FFFFCC00FFCC33FFCC66FFCC99FFCCCCFFCCFFFFFF00FFFF33FFFF66FFFF99FFFFCCFFFFFF0000000D0D0D1A1A1A2828283535354343435050505D5D5D6B6B6B787878868686939393A1A1A1AEAEAEBB
310
BBBBC9C9C9D6D6D6E4E4E4F1F1F1FFFFFF0000000000000000000000000000000000000000000000000000000000003AE5ACE9000005934944415478DAED9D4D9683200C80B910F7DF65E335720DF623FF8982C5CA58A2F0DE744A2B8C7C84100271949AA9211991A9270091BD360174AD4B9EFCF70620AEFB278009600298
310
0086AB0E5F0D006DF2AF888F03806DEDCFE97F85E50700BA27B112707CEFC74D235F8A0570DC7BC79D4BBF9C4340A4046C6E1FDB0420972532708DC0ED00E8E0B5ED3825C6AC682E8B82005C13E37F180483D8016725A0A56C1B9D09E0B100F0ED43E0ED0050C90560AA19E100BC4E5A0C18937ECE25CC6F7325CCA0B2E9D4
310
AEC7BD00DC25450040D241A604C01073D0FF056D9372AF7A28007B99F69F98E6CD04157B14B31969A8959C6FC232587F0F0700A0548C896A4D0790ABC81C1F2AA400ACB0AC04EC772041027CDB9A00948C1C22014824C002184B02D8FD5E04407B3C03C87F010200181140493B1BDD0040934241DD63A8C9D79D00E89C8603
310
0025BD0F2B80CFB3807685D66ADC4B9EEF8003588B50003010801E3A200E7EE45720D7012A0C01A59EA604890FA0A004D5D04AB0CF34981A1A393C611A345609B6194258F00EC93184D82CC053A3298CB5334E324CE1CB8BA1E25A6011B3183A51492573CA6B004DCBE2279E0FC0337E81E70208A3E2B500A25E782580339B
310
265307FC088033652F3714F1F261A21F01E8B1B187AAC7EEE0EF24A003811E95FC4A02BA8FF509401400DCAF875B4CE17055ED54C9F000921F0B2F1DF00FCB1DEC13F1F283E5B0DEF49DF3E0352E87B54E1A2F56A20501F01E216D1B60F6CE9EF6F0260C348D77FFC802A0AC5763BD6DFF73DA27182AB295ACC2619DC9461A
310
00E3FCF646D5F73C9A36468C1F4D0D4EAF610024272EB8811F3D165F02B05E4F57913400607431B56D8C944B4A9300AFBC3776C0590948552C46A00E88C3F79A0E088A441A008833C0F7B380AF2456F4C2590065CE02696B2CCE00B1EBBC2A6B4A5AC78A7C05CE8494670AAB0BA6B0DE2CFEB52453B8B06F737A1D747EEF67
310
B4E570878392D8D12DF0E0D3E213C0043038003C8EFD2B797A8B3187336C4EEC1020B18FA5DE463CF848B0040C96268009600800F48909F842001DB5BA4800F8760053074C00AF0510031D8871C7324F0670839D3F3880FC8B35949E7F7F0300B56D27CF3C1D007D0C0AAA42E6D100D87360D23048D14087277DE917023647
310
21DF27E4262C54EA6966499280BB0A8000083117102228BE529BFF0C20B8F1DDDE4F8CE60B57A25ED27ECFFA43334B3A0A85C63774BF39E0FF9ADB14F04C6204E560005CA769F061AC0A20EE64D9374B8E8AE79925C647FAA0AF58CAF8B71900F8FD55086FCD375AE30E00C677BB6F799200DEE9150930490254A8D990767A
310
0908BBCC66640064F45200A994213A60CD241D9000808A00800100FFE2E56040006C3BF424004501A8044091A11EC402C290184F07E02500AA0E001980A814CC374B881B00C463516C168055331E2A417F2C0A0AB3406A67B8C8B61ED02BCAD1A64124919CDB69503748803665006408D8E861260C432AC1DE43200709DB06
310
439C20C69D05FE0F409E0518001E644FC2ED778FEB1D771A64000EA6C16807E4691051B57B1A6E02503084F4B12144CFBF5043087686103385155F526100E21E3BE93FDB845ADD650A2725D86A0AC79CBB96C48CD3354FC5146E93803C77DEB018A2005217E16709886EC21C31CF00D41743C5B6FE42028218D0E53001F051
310
07A4E0104C1520F1A46075397CE059CCB196A86E0350F2056E6E6DF31E0B00D40E00778860C5E35A70B5DDEB10C1FDAD57CE3F94BDE6A924EE60B08224DBEE62BE0F407CF84F1500163FA2BB07CC75C6E7FCB101146EE3C409A07A4BAA1FABF65D867B001432F52767EF6482C688B3A8F38D762B0150230028BB755B8640CB
310
5928FCE47B3E8E341D207CBECD64ADF6E1075FF0B04F90289E8B3B381A590320347C5EA95B4E418E0D4035E980C70218254D0013C00430014C0013C00430014C00FDAA7BFBFF1D969726809E75BDFDBFCF3F38FD012AE3098C59CB56E30000000049454E44AE42608218000680016000385DCCDBFFFB7CBF6900B8A28CAE13
310
8DB493FE01C4C13118CD5FFE950000000049454E44AE42608249454E44AE42608214FFE314FD5A00DF23606262626262626262626262626262626262626262626262626262626262626262626262F297E51FCB19DD00181C83D90000000049454E44AE426082
  0
ACDSRECORD
 90
        0
  2
AcDbDs::ID
280
    10
320
78E
  2
Thumbnail_Data
280
    15
 94
     3046
310
89504E470D0A1A0A0000000D4948445200000100000000B408030000004C80028300000300504C54450D0D0DFFFFFF0D0D0D0000000000000000000000000000000000000000000000000000330000660000990000CC0000FF0033000033330033660033990033CC0033FF0066000066330066660066990066CC0066FF0099
310
000099330099660099990099CC0099FF00CC0000CC3300CC6600CC9900CCCC00CCFF00FF0000FF3300FF6600FF9900FFCC00FFFF3300003300333300663300993300CC3300FF3333003333333333663333993333CC3333FF3366003366333366663366993366CC3366FF3399003399333399663399993399CC3399FF33CC00
310
33CC3333CC6633CC9933CCCC33CCFF33FF0033FF3333FF6633FF9933FFCC33FFFF6600006600336600666600996600CC6600FF6633006633336633666633996633CC6633FF6666006666336666666666996666CC6666FF6699006699336699666699996699CC6699FF66CC0066CC3366CC6666CC9966CCCC66CCFF66FF0066
310
FF3366FF6666FF9966FFCC66FFFF9900009900339900669900999900CC9900FF9933009933339933669933999933CC9933FF9966009966339966669966999966CC9966FF9999009999339999669999999999CC9999FF99CC0099CC3399CC6699CC9999CCCC99CCFF99FF0099FF3399FF6699FF9999FFCC99FFFFCC0000CC00
310
33CC0066CC0099CC00CCCC00FFCC3300CC3333CC3366CC3399CC33CCCC33FFCC6600CC6633CC6666CC6699CC66CCCC66FFCC9900CC9933CC9966CC9999CC99CCCC99FFCCCC00CCCC33CCCC66CCCC99CCCCCCCCCCFFCCFF00CCFF33CCFF66CCFF99CCFFCCCCFFFFFF0000FF0033FF0066FF0099FF00CCFF00FFFF3300FF3333
310
FF3366FF3399FF33CCFF33FFFF6600FF6633FF6666FF6699FF66CCFF66FFFF9900FF9933FF9966FF9999FF99CCFF99FFFFCC00FFCC33FFCC66FFCC99FFCCCCFFCCFFFFFF00FFFF33FFFF66FFFF99FFFFCCFFFFFF0000000D0D0D1A1A1A2828283535354343435050505D5D5D6B6B6B787878868686939393A1A1A1AEAEAEBB
310
BBBBC9C9C9D6D6D6E4E4E4F1F1F1FFFFFF000000000000000000000000000000000000000000000000000000000000D3F30D92000008744944415478DAED9D5BBAA3200C80B321F6FFC68BDBC802E62C80F7295E200444504054986F4E5B6A417E03841023FCFDFB72FAFB833FF8721A001600EA9B8900F8E4D51F0006000F
310
007E2905017CE8FA0F0003C00030000C006D00E8290796FF38CFB41F031098819F0DE00E9DA52F00375CAC7700C037024816D01C59E6073E0A004609142E730C82B74AC07A6EEC1C318EED480282EDEE1980D7B0120020B1CC7B00B05694E9AF9853C5FD003032621500803E00EC0640A501EB6AB127AABF320B94575AF07C
310
859CDF00F049008D15A1DE00200C009F0670B6CA01A00D00E56F3CFA5957009C54922E0190F31BFA77BF71290014ABD82DFF18806C02609B68A749C9D9BF80FEDDD2A484104E8E48F255989C4F6EF9139FE3B78F619F878A00CCF50B4B802E452AC992F27202590A806ED2BBE56FCDF2D6C76A792FE0079DE45403B02FD3E4
310
0BEF321C7781F52724D7D5E894777A1680D46FD7F6CBBB01ACBE46F95D4030E9DD041E8F012CA3C70240B501F013D8D851BFB3CD960096C1157B53A30760EE3E2B00DB956E94803A00A21200CD25A03E006A763B1C030800F91A0064C22387637816B0002ACF028874A4DB9D75F5189809408F9AA12EA06B40538F9D19CC1B
310
A5C77F27350020A9E223FDA40164EA011A8093E1E9393204E0578EF40048590B0062FD2EB0B61199F2CB24008904DCD4052A0120837F000098DC9B00541F04D1EC8A986676390D565384DCE99FBC7D9222340FD96700FCB2BCDD215CBD8B9EA308E96FF8522025CDD317AA5D4BF79122D47E315461398C6797C3D06E39BC7E
310
3BA9238348B62224A206116B11E100CCF4DF4211B24219B7089D4B518BD0DE9934B6089D4C4946D1B3764DA7CBE435E05500A0670015D300E09DF6370120B31F0C00DF0170C541670C82E38E913200B0F955EE0600F113ADE3D0BB2D88EB547019407597E6CAE5179180BA3EDD752B2800E0A9BDBF54178001A0C66A10DB09
310
D8350098DADE241F21F50400AE1D06EBC43531661E3C67E7A90B60BB5C2278E4BA5177CE28AA7F49877A52BEE80680915721E70FDC2A1CB64BA675011700295F48E80C80DE8B594E73F995E26D391BD287D4A24CF91AA894B22F0990BF0E2AF50E80F9EB5EDD4B0E1238EF2DE05AB298FF76D705F4F142EC4940011799B5E4
310
798741417F63002C1B927BAEB2D701AC25AF1B5E9D02F80D4FA22A00C1B7C66E0680FEDE603500CBA492A238B60720A5DD89DB49677C84A2E5A91E6681908F9008ABC2EF9680265DA0CB31804D835A45AD3B0D9AF2BB034055A0E28A100078E57F4A11C2EE1521AD99CB79840A2B42677D84682DA664EDFDD5DF5A4039C35F
310
B9D5A03043AD2D59F4B41AB4F680D0FC77DD1E2042A65F21FAB107EC7BE614300461ACF8BE6C82986703CDB20962B0F4474592BA7AE7E8FB00C05D650E0003C000D017007C2580BC6872894DEC3E9A5CA459B19079A95FF965F606E0E3E1F45E92068001600018000680E200B0D340E203402300CDB49831060C0003C000D0
310
1100F46EE1F3E362636F740B02B0513FECAB8DF86273F07D00585C17A4915EC0C9216FDE05A013EBC66D00C21211CD1A000680770170637BA037E0A3774C3ED72E00C89D339D68E4AFF99D9333BFDD72F03400792300E99E82E4003C799FBC2E30D1E2F1B0681B49D2446891F6A5D45C7200C03A6C48E714F4AB39487100F3
310
772E009DE50250E61BAF68164AD36323CDB93600B09EE516B3D084EE235E70DAB36762EE5E3C228ECE9A363718C7E14541D81786068BDB0E9696662300605CA37FFF74F5B363D8EAD2B45D169D26CFFB69F21CA2A62D4C22FDB97D3FB7D209A56862376E5E98D27E6C0B00C416186AF18CB39FD74EAAD2BBC0DC2E2A01DBDB
310
2D47B1E0A13D4880B92FC400900E809C2EB0DC13280800D2ACB90A13340CD818B079CB361C03F600800B0054E620481C5F9301CCEEE94B3FF92480B9E5CB93B26F01002E00B800001880BD374EB43C1B6E541147EADA00F04E00E801A093832A645E3A0080641670F5000A40EB01790084706681233DC05CF0650A5933EA6B
310
82E61E5E19026067720D20590F586F9032BF3E0240E32CB367313403704B177024600B2CEB884483B5C09D00DC3160593A486F4CF8D82CC00078B30032EB7C70758DCC5CDF5E0F80F37A80FB11AC153E667C8D9A649F03605F13B44F270DBD20798029849EE45A00008F871B5F0BB01BA4BCC590640184ED62685B0BEC2E86
310
4817305B1224672B72918BEDBB93CB61832477396C12B0C5EEBA1CD61FF396C3C12E00E4DA0317072B12C90611AE0748A1AE294262D72022730D227BB21F1F1B4C04FF3493980740D18314667681DF2FCCA05CCE24669ECBB05C763EEA6F92EF4CF2894651F42D978E9860A604108BB13953C9324C2F4E308A86C6FE343B7B
310
31005E95137F4406CD4901405E02128007BB9385CDE2519CFE43B201423BE14E80241F00EC0308EC0B84CED17BFA48C292B914806C05340140B4014E5F86F31BD19900828F42DFAF23E5BE11EB43C01720BB73522E002C060083C18B77AB8890A14F0B72BD49F6EFBE497BBC3D878547B729A50140AF1763A4B7A790E14CD1
310
AF033CD1084A89A707E444E14C06B02B57976E814911DAC3238EBA001400101FD130D2D331F747D716F756F387B448E36500E0190098345C46AB2D722756F1B8C2671CA5523AABB790B5BDC8793C957B9CD10BD90801698BA16B5D201E91298C3101B40F802F030300903CB2A9388084D93E0B4E6EB5E1189C092A1C3C1B40
310
1F63C0F933290000F890E097CF8EAA320BDC94101DFBEEB222090D82D139F7C900D224B0CC72B86B00BC2F4268CDE058889DFDDFF701C07D0081C9F49512703C0DBE024037D36037129030593E68104C5D4DDB859559065243C883010086F55DD3780F92BD6FC92805F0DC6930B8C041D7084D2400891DC060783C00BACCF5
310
1E458C7476E7921FB0079EDB1EBF798C432E11B0B70D91B86644EF4E8E20802FA510806FA5016000B000BE992C80EFA601E007E0DF979306F0F1F41FA49FBBA4AF80525E0000000049454E44AE4260822903609034014C0004C098C90218374D002B80C1D3F000FE032D6045CC8C423DFC0000000049454E44AE426082
  0
ENDSEC
  0
EOF
