  0
SECTION
  2
HEADER
  9
$ACADVER
  1
AC1027
  9
$ACADMAINTVER
 70
   125
  9
$DWGCODEPAGE
  3
ANSI_932
  9
$LASTSAVEDBY
  1
D-mishima
  9
$REQUIREDVERSIONS
160
                 0
  9
$INSBASE
 10
0.0
 20
0.0
 30
0.0
  9
$EXTMIN
 10
0.0
 20
0.0
 30
0.0
  9
$EXTMAX
 10
4200.0
 20
2970.0
 30
0.0
  9
$LIMMIN
 10
0.0
 20
0.0
  9
$LIMMAX
 10
4200.0
 20
2970.0
  9
$ORTHOMODE
 70
     1
  9
$REGENMODE
 70
     1
  9
$FILLMODE
 70
     1
  9
$QTEXTMODE
 70
     0
  9
$MIRRTEXT
 70
     0
  9
$LTSCALE
 40
0.1
  9
$ATTMODE
 70
     1
  9
$TEXTSIZE
 40
25.0
  9
$TRACEWID
 40
1.0
  9
$TEXTSTYLE
  7
Standard
  9
$CLAYER
  8
寸法線
  9
$CELTYPE
  6
ByLayer
  9
$CECOLOR
 62
   256
  9
$CELTSCALE
 40
1.0
  9
$DISPSILH
 70
     0
  9
$DIMSCALE
 40
10.0
  9
$DIMASZ
 40
2.0
  9
$DIMEXO
 40
0.875
  9
$DIMDLI
 40
10.0
  9
$DIMRND
 40
0.0
  9
$DIMDLE
 40
0.0
  9
$DIMEXE
 40
1.0
  9
$DIMTP
 40
0.0
  9
$DIMTM
 40
0.0
  9
$DIMTXT
 40
2.5
  9
$DIMCEN
 40
0.0
  9
$DIMTSZ
 40
0.0
  9
$DIMTOL
 70
     0
  9
$DIMLIM
 70
     0
  9
$DIMTIH
 70
     0
  9
$DIMTOH
 70
     0
  9
$DIMSE1
 70
     0
  9
$DIMSE2
 70
     0
  9
$DIMTAD
 70
     1
  9
$DIMZIN
 70
     8
  9
$DIMBLK
  1

  9
$DIMASO
 70
     1
  9
$DIMSHO
 70
     1
  9
$DIMPOST
  1

  9
$DIMAPOST
  1

  9
$DIMALT
 70
     0
  9
$DIMALTD
 70
     2
  9
$DIMALTF
 40
25.4
  9
$DIMLFAC
 40
1.0
  9
$DIMTOFL
 70
     1
  9
$DIMTVP
 40
0.0
  9
$DIMTIX
 70
     0
  9
$DIMSOXD
 70
     0
  9
$DIMSAH
 70
     1
  9
$DIMBLK1
  1
OPEN
  9
$DIMBLK2
  1
OPEN
  9
$DIMSTYLE
  2
STANDARD
  9
$DIMCLRD
 70
     0
  9
$DIMCLRE
 70
     0
  9
$DIMCLRT
 70
     0
  9
$DIMTFAC
 40
1.0
  9
$DIMGAP
 40
0.875
  9
$DIMJUST
 70
     0
  9
$DIMSD1
 70
     0
  9
$DIMSD2
 70
     0
  9
$DIMTOLJ
 70
     1
  9
$DIMTZIN
 70
     0
  9
$DIMALTZ
 70
     0
  9
$DIMALTTZ
 70
     0
  9
$DIMUPT
 70
     0
  9
$DIMDEC
 70
     3
  9
$DIMTDEC
 70
     3
  9
$DIMALTU
 70
     2
  9
$DIMALTTD
 70
     2
  9
$DIMTXSTY
  7
Standard
  9
$DIMAUNIT
 70
     0
  9
$DIMADEC
 70
     0
  9
$DIMALTRND
 40
0.0
  9
$DIMAZIN
 70
     0
  9
$DIMDSEP
 70
    46
  9
$DIMATFIT
 70
     3
  9
$DIMFRAC
 70
     0
  9
$DIMLDRBLK
  1
OPEN
  9
$DIMLUNIT
 70
     2
  9
$DIMLWD
 70
    -2
  9
$DIMLWE
 70
    -2
  9
$DIMTMOVE
 70
     0
  9
$DIMFXL
 40
1.0
  9
$DIMFXLON
 70
     0
  9
$DIMJOGANG
 40
1.570796326794896
  9
$DIMTFILL
 70
     0
  9
$DIMTFILLCLR
 70
     0
  9
$DIMARCSYM
 70
     0
  9
$DIMLTYPE
  6

  9
$DIMLTEX1
  6

  9
$DIMLTEX2
  6

  9
$DIMTXTDIRECTION
 70
     0
  9
$LUNITS
 70
     2
  9
$LUPREC
 70
     4
  9
$SKETCHINC
 40
1.0
  9
$FILLETRAD
 40
0.0
  9
$AUNITS
 70
     0
  9
$AUPREC
 70
     0
  9
$MENU
  1
.
  9
$ELEVATION
 40
0.0
  9
$PELEVATION
 40
0.0
  9
$THICKNESS
 40
0.0
  9
$LIMCHECK
 70
     0
  9
$CHAMFERA
 40
0.0
  9
$CHAMFERB
 40
0.0
  9
$CHAMFERC
 40
0.0
  9
$CHAMFERD
 40
0.0
  9
$SKPOLY
 70
     0
  9
$TDCREATE
 40
2454064.449062500
  9
$TDUCREATE
 40
2454064.074062859
  9
$TDUPDATE
 40
2460315.418032407
  9
$TDUUPDATE
 40
2460315.043032407
  9
$TDINDWG
 40
3.8536364468
  9
$TDUSRTIMER
 40
3.8536142245
  9
$USRTIMER
 70
     1
  9
$ANGBASE
 50
0.0
  9
$ANGDIR
 70
     0
  9
$PDMODE
 70
     0
  9
$PDSIZE
 40
0.0
  9
$PLINEWID
 40
0.0
  9
$SPLFRAME
 70
     0
  9
$SPLINETYPE
 70
     6
  9
$SPLINESEGS
 70
     8
  9
$HANDSEED
  5
141D5
  9
$SURFTAB1
 70
     6
  9
$SURFTAB2
 70
     6
  9
$SURFTYPE
 70
     6
  9
$SURFU
 70
     6
  9
$SURFV
 70
     6
  9
$UCSBASE
  2

  9
$UCSNAME
  2

  9
$UCSORG
 10
0.0
 20
0.0
 30
0.0
  9
$UCSXDIR
 10
1.0
 20
0.0
 30
0.0
  9
$UCSYDIR
 10
0.0
 20
1.0
 30
0.0
  9
$UCSORTHOREF
  2

  9
$UCSORTHOVIEW
 70
     0
  9
$UCSORGTOP
 10
0.0
 20
0.0
 30
0.0
  9
$UCSORGBOTTOM
 10
0.0
 20
0.0
 30
0.0
  9
$UCSORGLEFT
 10
0.0
 20
0.0
 30
0.0
  9
$UCSORGRIGHT
 10
0.0
 20
0.0
 30
0.0
  9
$UCSORGFRONT
 10
0.0
 20
0.0
 30
0.0
  9
$UCSORGBACK
 10
0.0
 20
0.0
 30
0.0
  9
$PUCSBASE
  2

  9
$PUCSNAME
  2

  9
$PUCSORG
 10
0.0
 20
0.0
 30
0.0
  9
$PUCSXDIR
 10
1.0
 20
0.0
 30
0.0
  9
$PUCSYDIR
 10
0.0
 20
1.0
 30
0.0
  9
$PUCSORTHOREF
  2

  9
$PUCSORTHOVIEW
 70
     0
  9
$PUCSORGTOP
 10
0.0
 20
0.0
 30
0.0
  9
$PUCSORGBOTTOM
 10
0.0
 20
0.0
 30
0.0
  9
$PUCSORGLEFT
 10
0.0
 20
0.0
 30
0.0
  9
$PUCSORGRIGHT
 10
0.0
 20
0.0
 30
0.0
  9
$PUCSORGFRONT
 10
0.0
 20
0.0
 30
0.0
  9
$PUCSORGBACK
 10
0.0
 20
0.0
 30
0.0
  9
$USERI1
 70
     0
  9
$USERI2
 70
     0
  9
$USERI3
 70
     0
  9
$USERI4
 70
     0
  9
$USERI5
 70
     0
  9
$USERR1
 40
0.0
  9
$USERR2
 40
0.0
  9
$USERR3
 40
0.0
  9
$USERR4
 40
0.0
  9
$USERR5
 40
0.0
  9
$WORLDVIEW
 70
     1
  9
$SHADEDGE
 70
     3
  9
$SHADEDIF
 70
    70
  9
$TILEMODE
 70
     0
  9
$MAXACTVP
 70
    64
  9
$PINSBASE
 10
0.0
 20
0.0
 30
0.0
  9
$PLIMCHECK
 70
     0
  9
$PEXTMIN
 10
0.0000000000000853
 20
0.0
 30
0.0
  9
$PEXTMAX
 10
408.1991586685179
 20
285.1784963607788
 30
0.0
  9
$PLIMMIN
 10
-5.873748779296875
 20
-5.873749732971191
  9
$PLIMMAX
 10
414.0729064941406
 20
291.0522451400757
  9
$UNITMODE
 70
     0
  9
$VISRETAIN
 70
     1
  9
$PLINEGEN
 70
     0
  9
$PSLTSCALE
 70
     1
  9
$TREEDEPTH
 70
  3020
  9
$CMLSTYLE
  2
Standard
  9
$CMLJUST
 70
     0
  9
$CMLSCALE
 40
20.0
  9
$PROXYGRAPHICS
 70
     1
  9
$MEASUREMENT
 70
     1
  9
$CELWEIGHT
370
    -1
  9
$ENDCAPS
280
     0
  9
$JOINSTYLE
280
     0
  9
$LWDISPLAY
290
     0
  9
$INSUNITS
 70
     4
  9
$HYPERLINKBASE
  1

  9
$STYLESHEET
  1
SANKENTC.CTB
  9
$XEDIT
290
     1
  9
$CEPSNTYPE
380
     0
  9
$PSTYLEMODE
290
     1
  9
$FINGERPRINTGUID
  2
{072871F0-2771-4C56-B9BD-B27D0F751D9A}
  9
$VERSIONGUID
  2
{111E8EB8-C0F8-FF4C-9398-254B2AF096CC}
  9
$EXTNAMES
290
     1
  9
$PSVPSCALE
 40
0.0
  9
$OLESTARTUP
290
     0
  9
$SORTENTS
280
   127
  9
$INDEXCTL
280
     0
  9
$HIDETEXT
280
     1
  9
$XCLIPFRAME
280
     2
  9
$HALOGAP
280
     0
  9
$OBSCOLOR
 70
   257
  9
$OBSLTYPE
280
     0
  9
$INTERSECTIONDISPLAY
280
     0
  9
$INTERSECTIONCOLOR
 70
   257
  9
$DIMASSOC
280
     2
  9
$PROJECTNAME
  1

  9
$CAMERADISPLAY
290
     0
  9
$LENSLENGTH
 40
50.0
  9
$CAMERAHEIGHT
 40
0.0
  9
$STEPSPERSEC
 40
2.0
  9
$STEPSIZE
 40
6.0
  9
$3DDWFPREC
 40
2.0
  9
$PSOLWIDTH
 40
0.25
  9
$PSOLHEIGHT
 40
4.0
  9
$LOFTANG1
 40
1.570795999999999
  9
$LOFTANG2
 40
1.570795999999999
  9
$LOFTMAG1
 40
0.0
  9
$LOFTMAG2
 40
0.0
  9
$LOFTPARAM
 70
     7
  9
$LOFTNORMALS
280
     1
  9
$LATITUDE
 40
37.795
  9
$LONGITUDE
 40
-122.394
  9
$NORTHDIRECTION
 40
0.0
  9
$TIMEZONE
 70
 -8000
  9
$LIGHTGLYPHDISPLAY
280
     1
  9
$TILEMODELIGHTSYNCH
280
     1
  9
$CMATERIAL
347
104B3
  9
$SOLIDHIST
280
     0
  9
$SHOWHIST
280
     1
  9
$DWFFRAME
280
     2
  9
$DGNFRAME
280
     0
  9
$REALWORLDSCALE
290
     1
  9
$INTERFERECOLOR
 62
     1
  9
$INTERFEREOBJVS
345
104D5
  9
$INTERFEREVPVS
346
11DEA
  9
$CSHADOW
280
     0
  9
$SHADOWPLANELOCATION
 40
0.0
  0
ENDSEC
  0
SECTION
  2
CLASSES
  0
CLASS
  1
ACDBDICTIONARYWDFLT
  2
AcDbDictionaryWithDefault
  3
ObjectDBX Classes
 90
        0
 91
        1
280
     0
281
     0
  0
CLASS
  1
DICTIONARYVAR
  2
AcDbDictionaryVar
  3
ObjectDBX Classes
 90
        0
 91
       17
280
     0
281
     0
  0
CLASS
  1
TABLESTYLE
  2
AcDbTableStyle
  3
ObjectDBX Classes
 90
     4095
 91
        1
280
     0
281
     0
  0
CLASS
  1
DIMASSOC
  2
AcDbDimAssoc
  3
"AcDbDimAssoc|Product Desc:     AcDim ARX App For Dimension|Company:          Autodesk, Inc.|WEB Address:      www.autodesk.com"
 90
        0
 91
        0
280
     0
281
     0
  0
CLASS
  1
SORTENTSTABLE
  2
AcDbSortentsTable
  3
ObjectDBX Classes
 90
        0
 91
        3
280
     0
281
     0
  0
CLASS
  1
MATERIAL
  2
AcDbMaterial
  3
ObjectDBX Classes
 90
     1153
 91
        3
280
     0
281
     0
  0
CLASS
  1
VISUALSTYLE
  2
AcDbVisualStyle
  3
ObjectDBX Classes
 90
     4095
 91
       26
280
     0
281
     0
  0
CLASS
  1
SCALE
  2
AcDbScale
  3
ObjectDBX Classes
 90
     1153
 91
       17
280
     0
281
     0
  0
CLASS
  1
MLEADERSTYLE
  2
AcDbMLeaderStyle
  3
ACDB_MLEADERSTYLE_CLASS
 90
     4095
 91
        1
280
     0
281
     0
  0
CLASS
  1
CELLSTYLEMAP
  2
AcDbCellStyleMap
  3
ObjectDBX Classes
 90
     1152
 91
        1
280
     0
281
     0
  0
CLASS
  1
AEC_REFEDIT_STATUS_TRACKER
  2
AecDbRefEditStatusTracker
  3
AecArchBase50|Product Desc: Autodesk Architectural Desktop 2007 |Company: Autodesk,Inc. |WEB Address: www.autodesk.com
 90
      129
 91
        0
280
     0
281
     0
  0
CLASS
  1
NPOCOLLECTION
  2
AcDbImpNonPersistentObjectsCollection
  3
ObjectDBX Classes
 90
     1153
 91
        0
280
     0
281
     0
  0
CLASS
  1
ACDBSECTIONVIEWSTYLE
  2
AcDbSectionViewStyle
  3
ObjectDBX Classes
 90
     1025
 91
        1
280
     0
281
     0
  0
CLASS
  1
ACDBDETAILVIEWSTYLE
  2
AcDbDetailViewStyle
  3
ObjectDBX Classes
 90
     1025
 91
        1
280
     0
281
     0
  0
ENDSEC
  0
SECTION
  2
TABLES
  0
TABLE
  2
VPORT
  5
8
102
{ACAD_XDICTIONARY
360
106CF
102
}
330
0
100
AcDbSymbolTable
 70
     1
1001
ACAD
1000
DbSaveVer
1071
      278
  0
VPORT
  5
10DB8
330
8
100
AcDbSymbolTableRecord
100
AcDbViewportTableRecord
  2
*Active
 70
     0
 10
0.0
 20
0.0
 11
1.0
 21
1.0
 12
2100.000009778888
 22
1485.00000691507
 13
0.0
 23
0.0
 14
10.0
 24
10.0
 15
10.0
 25
10.0
 16
0.0
 26
0.0
 36
1.0
 17
0.0
 27
0.0
 37
0.0
 40
2995.786285400605
 41
1.976978417266187
 42
50.0
 43
0.0
 44
0.0
 50
0.0
 51
0.0
 71
     0
 72
  1000
 73
     1
 74
     3
 75
     0
 76
     0
 77
     0
 78
     0
281
     0
 65
     1
110
0.0
120
0.0
130
0.0
111
1.0
121
0.0
131
0.0
112
0.0
122
1.0
132
0.0
 79
     0
146
0.0
348
104D1
 60
     3
 61
     5
292
     1
282
     1
141
0.0
142
0.0
 63
   250
421
  3355443
1001
ACAD_NAV_VCDISPLAY
1070
     3
  0
ENDTAB
  0
TABLE
  2
LTYPE
  5
5
330
0
100
AcDbSymbolTable
 70
     4
  0
LTYPE
  5
14
330
5
100
AcDbSymbolTableRecord
100
AcDbLinetypeTableRecord
  2
ByBlock
 70
     0
  3

 72
    65
 73
     0
 40
0.0
  0
LTYPE
  5
15
330
5
100
AcDbSymbolTableRecord
100
AcDbLinetypeTableRecord
  2
ByLayer
 70
     0
  3

 72
    65
 73
     0
 40
0.0
  0
LTYPE
  5
16
330
5
100
AcDbSymbolTableRecord
100
AcDbLinetypeTableRecord
  2
Continuous
 70
     0
  3
Solid line
 72
    65
 73
     0
 40
0.0
  0
LTYPE
  5
1D4
330
5
100
AcDbSymbolTableRecord
100
AcDbLinetypeTableRecord
  2
PHANTOM
 70
     0
  3
Phantom ______  __  __  ______  __  __  ______
 72
    65
 73
     6
 40
63.5
 49
31.75
 74
     0
 49
-6.349999999999997
 74
     0
 49
6.349999999999997
 74
     0
 49
-6.349999999999997
 74
     0
 49
6.349999999999997
 74
     0
 49
-6.349999999999997
 74
     0
  0
LTYPE
  5
1D5
330
5
100
AcDbSymbolTableRecord
100
AcDbLinetypeTableRecord
  2
CENTER
 70
     0
  3
Center ____ _ ____ _ ____ _ ____ _ ____ _ ____
 72
    65
 73
     4
 40
50.8
 49
31.75
 74
     0
 49
-6.349999999999997
 74
     0
 49
6.349999999999997
 74
     0
 49
-6.349999999999997
 74
     0
  0
LTYPE
  5
1D7
330
5
100
AcDbSymbolTableRecord
100
AcDbLinetypeTableRecord
  2
DASHED
 70
     0
  3
Dashed __ __ __ __ __ __ __ __ __ __ __ __ __ _
 72
    65
 73
     2
 40
19.05
 49
12.7
 74
     0
 49
-6.349999999999997
 74
     0
  0
ENDTAB
  0
TABLE
  2
LAYER
  5
2
102
{ACAD_XDICTIONARY
360
11D
102
}
330
0
100
AcDbSymbolTable
 70
     8
  0
LAYER
  5
10
102
{ACAD_XDICTIONARY
360
104FB
102
}
330
2
100
AcDbSymbolTableRecord
100
AcDbLayerTableRecord
  2
0
 70
     0
 62
     7
  6
Continuous
370
    -3
390
F
347
104C3
348
0
  0
LAYER
  5
13F
330
2
100
AcDbSymbolTableRecord
100
AcDbLayerTableRecord
  2
Defpoints
 70
     0
 62
     7
  6
Continuous
290
     0
370
    -3
390
F
347
104C3
348
0
  0
LAYER
  5
1BF
102
{ACAD_XDICTIONARY
360
104FF
102
}
330
2
100
AcDbSymbolTableRecord
100
AcDbLayerTableRecord
  2
図面枠
 70
     0
 62
     2
  6
Continuous
370
    -3
390
F
347
104C3
348
0
1001
AcAecLayerStandard
1000

1000

  0
LAYER
  5
1C1
102
{ACAD_XDICTIONARY
360
10503
102
}
330
2
100
AcDbSymbolTableRecord
100
AcDbLayerTableRecord
  2
仮想線
 70
     0
 62
     6
  6
PHANTOM
370
    -3
390
F
347
104C3
348
0
1001
AcAecLayerStandard
1000

1000

  0
LAYER
  5
1C3
102
{ACAD_XDICTIONARY
360
10507
102
}
330
2
100
AcDbSymbolTableRecord
100
AcDbLayerTableRecord
  2
寸法線
 70
     0
 62
     2
  6
Continuous
370
    -3
390
F
347
104C3
348
0
1001
AcAecLayerStandard
1000

1000

  0
LAYER
  5
1C4
102
{ACAD_XDICTIONARY
360
10509
102
}
330
2
100
AcDbSymbolTableRecord
100
AcDbLayerTableRecord
  2
中心線
 70
     0
 62
     1
  6
CENTER
370
    -3
390
F
347
104C3
348
0
1001
AcAecLayerStandard
1000

1000

  0
LAYER
  5
1C5
102
{ACAD_XDICTIONARY
360
1050B
102
}
330
2
100
AcDbSymbolTableRecord
100
AcDbLayerTableRecord
  2
破線
 70
     0
 62
     4
  6
DASHED
370
    -3
390
F
347
104C3
348
0
1001
AcAecLayerStandard
1000

1000

  0
LAYER
  5
82E
102
{ACAD_XDICTIONARY
360
1050D
102
}
330
2
100
AcDbSymbolTableRecord
100
AcDbLayerTableRecord
  2
実線
 70
     0
 62
     7
  6
Continuous
370
    -3
390
F
347
104C3
348
0
1001
AcAecLayerStandard
1000

1000

  0
ENDTAB
  0
TABLE
  2
STYLE
  5
3
330
0
100
AcDbSymbolTable
 70
     1
  0
STYLE
  5
11
330
3
100
AcDbSymbolTableRecord
100
AcDbTextStyleTableRecord
  2
Standard
 70
     0
 40
0.0
 41
1.0
 50
0.0
 71
     0
 42
25.0
  3
isocp.shx
  4
extfont2.shx
  0
ENDTAB
  0
TABLE
  2
VIEW
  5
6
330
0
100
AcDbSymbolTable
 70
     2
  0
ENDTAB
  0
TABLE
  2
UCS
  5
7
330
0
100
AcDbSymbolTable
 70
     0
  0
ENDTAB
  0
TABLE
  2
APPID
  5
9
330
0
100
AcDbSymbolTable
 70
    17
  0
APPID
  5
12
330
9
100
AcDbSymbolTableRecord
100
AcDbRegAppTableRecord
  2
ACAD
 70
     0
  0
APPID
  5
9E
330
9
100
AcDbSymbolTableRecord
100
AcDbRegAppTableRecord
  2
ACAD_PSEXT
 70
     0
  0
APPID
  5
1BE
330
9
100
AcDbSymbolTableRecord
100
AcDbRegAppTableRecord
  2
AcAecLayerStandard
 70
     0
  0
APPID
  5
1FF
330
9
100
AcDbSymbolTableRecord
100
AcDbRegAppTableRecord
  2
ACAD_EXEMPT_FROM_CAD_STANDARDS
 70
     0
  0
APPID
  5
1318
330
9
100
AcDbSymbolTableRecord
100
AcDbRegAppTableRecord
  2
ACAD_DSTYLE_DIMTEXT_FILL
 70
     0
  0
APPID
  5
1319
330
9
100
AcDbSymbolTableRecord
100
AcDbRegAppTableRecord
  2
ACAD_DSTYLE_DIMEXT_LENGTH
 70
     0
  0
APPID
  5
131A
330
9
100
AcDbSymbolTableRecord
100
AcDbRegAppTableRecord
  2
ACAD_DSTYLE_DIMEXT_ENABLED
 70
     0
  0
APPID
  5
131B
330
9
100
AcDbSymbolTableRecord
100
AcDbRegAppTableRecord
  2
ACAD_DSTYLE_DIM_LINETYPE
 70
     0
  0
APPID
  5
131C
330
9
100
AcDbSymbolTableRecord
100
AcDbRegAppTableRecord
  2
ACAD_DSTYLE_DIM_EXT1_LINETYPE
 70
     0
  0
APPID
  5
131D
330
9
100
AcDbSymbolTableRecord
100
AcDbRegAppTableRecord
  2
ACAD_DSTYLE_DIM_EXT2_LINETYPE
 70
     0
  0
APPID
  5
1439
330
9
100
AcDbSymbolTableRecord
100
AcDbRegAppTableRecord
  2
ACAD_DSTYLE_DIMJOGGED_JOGANGLE_SYMBOL
 70
     0
  0
APPID
  5
1CB2
330
9
100
AcDbSymbolTableRecord
100
AcDbRegAppTableRecord
  2
ACAD_DSTYLE_DIMARC_LENGTH_SYMBOL
 70
     0
  0
APPID
  5
356E
330
9
100
AcDbSymbolTableRecord
100
AcDbRegAppTableRecord
  2
ACAD_DIMASSOC_CALC_DIMLFAC
 70
     0
  0
APPID
  5
356F
330
9
100
AcDbSymbolTableRecord
100
AcDbRegAppTableRecord
  2
ACAD_DIMASSOC_DIMLFAC
 70
     0
  0
APPID
  5
3570
330
9
100
AcDbSymbolTableRecord
100
AcDbRegAppTableRecord
  2
ACAD_DIMASSOC_OVERRIDDEN_DIMLFAC
 70
     0
  0
APPID
  5
104F0
330
9
100
AcDbSymbolTableRecord
100
AcDbRegAppTableRecord
  2
ACAD_MLEADERVER
 70
     0
  0
APPID
  5
11E05
330
9
100
AcDbSymbolTableRecord
100
AcDbRegAppTableRecord
  2
ACAD_NAV_VCDISPLAY
 70
     0
  0
ENDTAB
  0
TABLE
  2
DIMSTYLE
  5
A
330
0
100
AcDbSymbolTable
 70
     1
100
AcDbDimStyleTable
 71
     1
340
C0F
  0
DIMSTYLE
105
C0F
102
{ACAD_REACTORS
330
12CC3
330
12CC4
330
12CE5
330
12C36
330
12C37
330
12C38
330
12C39
330
12C3A
330
12C3B
330
12C3C
330
12C3D
330
12C3E
330
12C3F
330
12C40
330
12C41
330
12C8F
330
12C91
330
12C92
330
12D62
330
13AD5
330
13AD6
330
13AD7
330
13AD8
330
13AD9
330
13ADA
330
13ADB
330
13ADC
330
13ADD
330
13ADE
330
13B3D
330
13B3E
330
13B3F
330
14058
330
1405F
330
14060
330
14061
330
14062
330
14063
330
14064
330
14065
330
14068
102
}
330
A
100
AcDbSymbolTableRecord
100
AcDbDimStyleTableRecord
  2
STANDARD
 70
     0
 40
10.0
 41
2.0
 42
0.875
 43
10.0
 44
1.0
 50
89.99999999999998
 73
     0
 74
     0
 77
     1
 78
     8
140
2.5
141
0.0
147
0.875
172
     1
173
     1
271
     3
272
     3
340
11
341
C08
343
C08
344
C08
1001
ACAD_DSTYLE_DIMJOGGED_JOGANGLE_SYMBOL
1070
   384
1040
1.570796326794896
  0
ENDTAB
  0
TABLE
  2
BLOCK_RECORD
  5
1
330
0
100
AcDbSymbolTable
 70
    42
  0
BLOCK_RECORD
  5
1F
102
{ACAD_XDICTIONARY
360
5C91
102
}
330
1
100
AcDbSymbolTableRecord
100
AcDbBlockTableRecord
  2
*Model_Space
340
22
 70
     0
280
     1
281
     0
  0
BLOCK_RECORD
  5
78D
330
1
100
AcDbSymbolTableRecord
100
AcDbBlockTableRecord
  2
*Paper_Space
340
78E
 70
     0
280
     1
281
     0
  0
BLOCK_RECORD
  5
C08
102
{ACAD_XDICTIONARY
360
10C4E
102
}
330
1
100
AcDbSymbolTableRecord
100
AcDbBlockTableRecord
  2
_OPEN
340
0
102
{BLKREFS
331
140E0
331
140E1
331
140E9
331
140EA
331
140F4
331
140F5
331
140FD
331
140FE
331
13C69
331
13C6A
331
13C72
331
13C73
331
13C7D
331
13C7E
331
13C86
331
13C87
331
13C91
331
13C92
331
13C9C
331
13C9D
331
13CA5
331
13CA6
331
13CB0
331
13CB1
331
13CB9
331
13CBA
331
13CC4
331
13CC5
331
13D26
331
13D27
331
13D31
331
13D32
331
13D3A
331
13D3B
331
13E31
331
13E32
331
13E3A
331
13E3B
331
13E43
331
13E44
331
13E57
331
13E58
331
13EDF
331
13EE0
331
13E60
331
13E61
331
13E6B
331
13E6C
331
13E74
331
13E75
331
13E7D
331
13E7E
331
13E87
331
13E88
331
13E91
331
13E92
331
13E9A
331
13E9B
331
13EA3
331
13EA4
331
13EAC
331
13EAD
331
13EB5
331
13EB6
331
13EC0
331
13EC1
331
13ECB
331
13ECC
331
13ED6
331
13ED7
331
14108
331
14109
331
14113
331
14114
331
1411C
331
1411D
331
14125
331
14126
331
14130
331
14131
331
1416C
331
1416D
102
}
 70
     0
280
     1
281
     0
  0
BLOCK_RECORD
  5
12E4D
330
1
100
AcDbSymbolTableRecord
100
AcDbBlockTableRecord
  2
*D1
340
0
 70
     0
280
     1
281
     0
  0
BLOCK_RECORD
  5
12E5B
330
1
100
AcDbSymbolTableRecord
100
AcDbBlockTableRecord
  2
*D2
340
0
 70
     0
280
     1
281
     0
  0
BLOCK_RECORD
  5
12E69
330
1
100
AcDbSymbolTableRecord
100
AcDbBlockTableRecord
  2
*D3
340
0
 70
     0
280
     1
281
     0
  0
BLOCK_RECORD
  5
12E77
330
1
100
AcDbSymbolTableRecord
100
AcDbBlockTableRecord
  2
*D4
340
0
 70
     0
280
     1
281
     0
  0
BLOCK_RECORD
  5
12E83
330
1
100
AcDbSymbolTableRecord
100
AcDbBlockTableRecord
  2
*D5
340
0
 70
     0
280
     1
281
     0
  0
BLOCK_RECORD
  5
12E8F
330
1
100
AcDbSymbolTableRecord
100
AcDbBlockTableRecord
  2
*D6
340
0
 70
     0
280
     1
281
     0
  0
BLOCK_RECORD
  5
12E9B
330
1
100
AcDbSymbolTableRecord
100
AcDbBlockTableRecord
  2
*D7
340
0
 70
     0
280
     1
281
     0
  0
BLOCK_RECORD
  5
12EA9
330
1
100
AcDbSymbolTableRecord
100
AcDbBlockTableRecord
  2
*D8
340
0
 70
     0
280
     1
281
     0
  0
BLOCK_RECORD
  5
12EB5
330
1
100
AcDbSymbolTableRecord
100
AcDbBlockTableRecord
  2
*D9
340
0
 70
     0
280
     1
281
     0
  0
BLOCK_RECORD
  5
12EC1
330
1
100
AcDbSymbolTableRecord
100
AcDbBlockTableRecord
  2
*D10
340
0
 70
     0
280
     1
281
     0
  0
BLOCK_RECORD
  5
12ECF
330
1
100
AcDbSymbolTableRecord
100
AcDbBlockTableRecord
  2
*D11
340
0
 70
     0
280
     1
281
     0
  0
BLOCK_RECORD
  5
12EDB
330
1
100
AcDbSymbolTableRecord
100
AcDbBlockTableRecord
  2
*D12
340
0
 70
     0
280
     1
281
     0
  0
BLOCK_RECORD
  5
12EE8
330
1
100
AcDbSymbolTableRecord
100
AcDbBlockTableRecord
  2
*D13
340
0
 70
     0
280
     1
281
     0
  0
BLOCK_RECORD
  5
12EF5
330
1
100
AcDbSymbolTableRecord
100
AcDbBlockTableRecord
  2
*D14
340
0
 70
     0
280
     1
281
     0
  0
BLOCK_RECORD
  5
12F01
330
1
100
AcDbSymbolTableRecord
100
AcDbBlockTableRecord
  2
*D15
340
0
 70
     0
280
     1
281
     0
  0
BLOCK_RECORD
  5
12F0D
330
1
100
AcDbSymbolTableRecord
100
AcDbBlockTableRecord
  2
*D16
340
0
 70
     0
280
     1
281
     0
  0
BLOCK_RECORD
  5
12F19
330
1
100
AcDbSymbolTableRecord
100
AcDbBlockTableRecord
  2
*D17
340
0
 70
     0
280
     1
281
     0
  0
BLOCK_RECORD
  5
12F25
330
1
100
AcDbSymbolTableRecord
100
AcDbBlockTableRecord
  2
*D18
340
0
 70
     0
280
     1
281
     0
  0
BLOCK_RECORD
  5
12F31
330
1
100
AcDbSymbolTableRecord
100
AcDbBlockTableRecord
  2
*D19
340
0
 70
     0
280
     1
281
     0
  0
BLOCK_RECORD
  5
13B4A
330
1
100
AcDbSymbolTableRecord
100
AcDbBlockTableRecord
  2
*D20
340
0
 70
     0
280
     1
281
     0
  0
BLOCK_RECORD
  5
13B56
330
1
100
AcDbSymbolTableRecord
100
AcDbBlockTableRecord
  2
*D21
340
0
 70
     0
280
     1
281
     0
  0
BLOCK_RECORD
  5
13B62
330
1
100
AcDbSymbolTableRecord
100
AcDbBlockTableRecord
  2
*D22
340
0
 70
     0
280
     1
281
     0
  0
BLOCK_RECORD
  5
13B70
330
1
100
AcDbSymbolTableRecord
100
AcDbBlockTableRecord
  2
*D23
340
0
 70
     0
280
     1
281
     0
  0
BLOCK_RECORD
  5
13B7C
330
1
100
AcDbSymbolTableRecord
100
AcDbBlockTableRecord
  2
*D24
340
0
 70
     0
280
     1
281
     0
  0
BLOCK_RECORD
  5
13B8A
330
1
100
AcDbSymbolTableRecord
100
AcDbBlockTableRecord
  2
*D25
340
0
 70
     0
280
     1
281
     0
  0
BLOCK_RECORD
  5
13B98
330
1
100
AcDbSymbolTableRecord
100
AcDbBlockTableRecord
  2
*D26
340
0
 70
     0
280
     1
281
     0
  0
BLOCK_RECORD
  5
13BA4
330
1
100
AcDbSymbolTableRecord
100
AcDbBlockTableRecord
  2
*D27
340
0
 70
     0
280
     1
281
     0
  0
BLOCK_RECORD
  5
13BB2
330
1
100
AcDbSymbolTableRecord
100
AcDbBlockTableRecord
  2
*D28
340
0
 70
     0
280
     1
281
     0
  0
BLOCK_RECORD
  5
13BBE
330
1
100
AcDbSymbolTableRecord
100
AcDbBlockTableRecord
  2
*D29
340
0
 70
     0
280
     1
281
     0
  0
BLOCK_RECORD
  5
13C40
330
1
100
AcDbSymbolTableRecord
100
AcDbBlockTableRecord
  2
*D30
340
0
 70
     0
280
     1
281
     0
  0
BLOCK_RECORD
  5
13C4C
330
1
100
AcDbSymbolTableRecord
100
AcDbBlockTableRecord
  2
*D31
340
0
 70
     0
280
     1
281
     0
  0
BLOCK_RECORD
  5
13C5A
330
1
100
AcDbSymbolTableRecord
100
AcDbBlockTableRecord
  2
*D32
340
0
 70
     0
280
     1
281
     0
  0
BLOCK_RECORD
  5
14069
330
1
100
AcDbSymbolTableRecord
100
AcDbBlockTableRecord
  2
*D33
340
0
 70
     0
280
     1
281
     0
  0
BLOCK_RECORD
  5
14075
330
1
100
AcDbSymbolTableRecord
100
AcDbBlockTableRecord
  2
*D34
340
0
 70
     0
280
     1
281
     0
  0
BLOCK_RECORD
  5
14081
330
1
100
AcDbSymbolTableRecord
100
AcDbBlockTableRecord
  2
*D35
340
0
 70
     0
280
     1
281
     0
  0
BLOCK_RECORD
  5
1408F
330
1
100
AcDbSymbolTableRecord
100
AcDbBlockTableRecord
  2
*D36
340
0
 70
     0
280
     1
281
     0
  0
BLOCK_RECORD
  5
1409B
330
1
100
AcDbSymbolTableRecord
100
AcDbBlockTableRecord
  2
*D37
340
0
 70
     0
280
     1
281
     0
  0
BLOCK_RECORD
  5
140A9
330
1
100
AcDbSymbolTableRecord
100
AcDbBlockTableRecord
  2
*D38
340
0
 70
     0
280
     1
281
     0
  0
BLOCK_RECORD
  5
140B7
330
1
100
AcDbSymbolTableRecord
100
AcDbBlockTableRecord
  2
*D39
340
0
 70
     0
280
     1
281
     0
  0
BLOCK_RECORD
  5
140C3
330
1
100
AcDbSymbolTableRecord
100
AcDbBlockTableRecord
  2
*D40
340
0
 70
     0
280
     1
281
     0
  0
BLOCK_RECORD
  5
140CF
330
1
100
AcDbSymbolTableRecord
100
AcDbBlockTableRecord
  2
*D41
340
0
 70
     0
280
     1
281
     0
  0
ENDTAB
  0
ENDSEC
  0
SECTION
  2
BLOCKS
  0
BLOCK
  5
20
330
1F
100
AcDbEntity
  8
0
100
AcDbBlockBegin
  2
*Model_Space
 70
     0
 10
0.0
 20
0.0
 30
0.0
  3
*Model_Space
  1

  0
ENDBLK
  5
21
330
1F
100
AcDbEntity
  8
0
100
AcDbBlockEnd
  0
BLOCK
  5
78F
330
78D
100
AcDbEntity
 67
     1
  8
0
100
AcDbBlockBegin
  2
*Paper_Space
 70
     0
 10
0.0
 20
0.0
 30
0.0
  3
*Paper_Space
  1

  0
ENDBLK
  5
790
330
78D
100
AcDbEntity
 67
     1
  8
0
100
AcDbBlockEnd
  0
BLOCK
  5
C09
330
C08
100
AcDbEntity
  8
0
100
AcDbBlockBegin
  2
_OPEN
 70
     0
 10
0.0
 20
0.0
 30
0.0
  3
_OPEN
  1

  0
LINE
  5
C0A
330
C08
100
AcDbEntity
  8
0
  6
ByBlock
 62
     0
100
AcDbLine
 10
-1.0
 20
0.1666666666666666
 30
0.0
 11
0.0
 21
0.0
 31
0.0
  0
LINE
  5
C0B
330
C08
100
AcDbEntity
  8
0
  6
ByBlock
 62
     0
100
AcDbLine
 10
0.0
 20
0.0
 30
0.0
 11
-1.0
 21
-0.1666666666666666
 31
0.0
  0
LINE
  5
C0C
330
C08
100
AcDbEntity
  8
0
  6
ByBlock
 62
     0
100
AcDbLine
 10
0.0
 20
0.0
 30
0.0
 11
-1.0
 21
0.0
 31
0.0
  0
ENDBLK
  5
C0D
330
C08
100
AcDbEntity
  8
0
100
AcDbBlockEnd
  0
BLOCK
  5
12E4E
330
12E4D
100
AcDbEntity
  8
0
100
AcDbBlockBegin
  2
*D1
 70
     1
 10
0.0
 20
0.0
 30
0.0
  3
*D1
  1

  0
LINE
  5
13EBB
330
12E4D
100
AcDbEntity
  8
寸法線
 62
     0
440
 16777216
370
    -2
100
AcDbLine
 10
2061.250250641966
 20
1470.000034820449
 30
0.0
 11
2222.499951670497
 21
1470.000034820449
 31
0.0
  0
LINE
  5
13EBC
330
12E4D
100
AcDbEntity
  8
寸法線
 62
     0
440
 16777216
370
    -2
100
AcDbLine
 10
2161.362001843626
 20
1495.000195900154
 30
0.0
 11
2222.499951670497
 21
1495.000195900154
 31
0.0
  0
LINE
  5
13EBD
330
12E4D
100
AcDbEntity
  8
寸法線
 62
     0
440
 16777216
370
    -2
100
AcDbLine
 10
2212.499951670498
 20
1450.000034820449
 30
0.0
 11
2212.499951670498
 21
1430.000034820449
 31
0.0
  0
LINE
  5
13EBE
330
12E4D
100
AcDbEntity
  8
寸法線
 62
     0
440
 16777216
370
    -2
100
AcDbLine
 10
2212.499951670498
 20
1515.000195900154
 30
0.0
 11
2212.499951670498
 21
1535.000195900154
 31
0.0
  0
LINE
  5
13EBF
330
12E4D
100
AcDbEntity
  8
寸法線
 62
     0
440
 16777216
370
    -2
100
AcDbLine
 10
2212.499951670498
 20
1470.000034820449
 30
0.0
 11
2212.499951670498
 21
1495.000195900154
 31
0.0
  0
INSERT
  5
13EC0
330
12E4D
100
AcDbEntity
  8
寸法線
 62
     0
440
 16777216
370
    -2
100
AcDbBlockReference
  2
_OPEN
 10
2212.499951670498
 20
1470.000034820449
 30
0.0
 41
20.0
 42
20.0
 43
20.0
 50
90.0
  0
INSERT
  5
13EC1
330
12E4D
100
AcDbEntity
  8
寸法線
 62
     0
440
 16777216
370
    -2
100
AcDbBlockReference
  2
_OPEN
 10
2212.499951670498
 20
1495.000195900154
 30
0.0
 41
20.0
 42
20.0
 43
20.0
 50
270.0
  0
MTEXT
  5
13EC2
330
12E4D
100
AcDbEntity
  8
寸法線
 62
     0
440
 16777216
100
AcDbMText
 10
2191.247491040576
 20
1482.500115360301
 30
0.0
 40
25.0
 41
0.0
 46
0.0
 71
     5
 72
     1
  1
\A1;25
 11
0.0000000000000001
 21
1.0
 31
0.0
 73
     1
 44
1.0
  0
POINT
  5
13EC3
330
12E4D
100
AcDbEntity
  8
Defpoints
 62
     0
440
 16777216
100
AcDbPoint
 10
2052.500250641966
 20
1470.000034820449
 30
0.0
  0
POINT
  5
13EC4
330
12E4D
100
AcDbEntity
  8
Defpoints
 62
     0
440
 16777216
100
AcDbPoint
 10
2152.612001843626
 20
1495.000195900154
 30
0.0
  0
POINT
  5
13EC5
330
12E4D
100
AcDbEntity
  8
Defpoints
 62
     0
440
 16777216
100
AcDbPoint
 10
2212.499951670498
 20
1495.000195900154
 30
0.0
  0
ENDBLK
  5
12E4F
330
12E4D
100
AcDbEntity
  8
0
100
AcDbBlockEnd
  0
BLOCK
  5
12E5C
330
12E5B
100
AcDbEntity
  8
0
100
AcDbBlockBegin
  2
*D2
 70
     1
 10
0.0
 20
0.0
 30
0.0
  3
*D2
  1

  0
LINE
  5
13EC6
330
12E5B
100
AcDbEntity
  8
寸法線
 62
     0
440
 16777216
370
    -2
100
AcDbLine
 10
2141.249951670499
 20
1752.999997600776
 30
0.0
 11
2222.499951670496
 21
1752.999997600776
 31
0.0
  0
LINE
  5
13EC7
330
12E5B
100
AcDbEntity
  8
寸法線
 62
     0
440
 16777216
370
    -2
100
AcDbLine
 10
2141.249951670499
 20
1736.999997600776
 30
0.0
 11
2222.499951670496
 21
1736.999997600776
 31
0.0
  0
LINE
  5
13EC8
330
12E5B
100
AcDbEntity
  8
寸法線
 62
     0
440
 16777216
370
    -2
100
AcDbLine
 10
2212.499951670496
 20
1772.999997600776
 30
0.0
 11
2212.499951670496
 21
1792.999997600776
 31
0.0
  0
LINE
  5
13EC9
330
12E5B
100
AcDbEntity
  8
寸法線
 62
     0
440
 16777216
370
    -2
100
AcDbLine
 10
2212.499951670496
 20
1716.999997600776
 30
0.0
 11
2212.499951670496
 21
1696.999997600776
 31
0.0
  0
LINE
  5
13ECA
330
12E5B
100
AcDbEntity
  8
寸法線
 62
     0
440
 16777216
370
    -2
100
AcDbLine
 10
2212.499951670496
 20
1752.999997600776
 30
0.0
 11
2212.499951670496
 21
1736.999997600776
 31
0.0
  0
INSERT
  5
13ECB
330
12E5B
100
AcDbEntity
  8
寸法線
 62
     0
440
 16777216
370
    -2
100
AcDbBlockReference
  2
_OPEN
 10
2212.499951670496
 20
1752.999997600776
 30
0.0
 41
20.0
 42
20.0
 43
20.0
 50
270.0
  0
INSERT
  5
13ECC
330
12E5B
100
AcDbEntity
  8
寸法線
 62
     0
440
 16777216
370
    -2
100
AcDbBlockReference
  2
_OPEN
 10
2212.499951670496
 20
1736.999997600776
 30
0.0
 41
20.0
 42
20.0
 43
20.0
 50
90.0
  0
MTEXT
  5
13ECD
330
12E5B
100
AcDbEntity
  8
寸法線
 62
     0
440
 16777216
100
AcDbMText
 10
2191.249951670496
 20
1744.999997600775
 30
0.0
 40
25.0
 41
0.0
 46
0.0
 71
     5
 72
     1
  1
\A1;16
 11
0.0000000000000001
 21
1.0
 31
0.0
 73
     1
 44
1.0
  0
POINT
  5
13ECE
330
12E5B
100
AcDbEntity
  8
Defpoints
 62
     0
440
 16777216
100
AcDbPoint
 10
2132.499951670498
 20
1752.999997600776
 30
0.0
  0
POINT
  5
13ECF
330
12E5B
100
AcDbEntity
  8
Defpoints
 62
     0
440
 16777216
100
AcDbPoint
 10
2132.499951670498
 20
1736.999997600776
 30
0.0
  0
POINT
  5
13ED0
330
12E5B
100
AcDbEntity
  8
Defpoints
 62
     0
440
 16777216
100
AcDbPoint
 10
2212.499951670496
 20
1736.999997600776
 30
0.0
  0
ENDBLK
  5
12E5D
330
12E5B
100
AcDbEntity
  8
0
100
AcDbBlockEnd
  0
BLOCK
  5
12E6A
330
12E69
100
AcDbEntity
  8
0
100
AcDbBlockBegin
  2
*D3
 70
     1
 10
0.0
 20
0.0
 30
0.0
  3
*D3
  1

  0
LINE
  5
13ED1
330
12E69
100
AcDbEntity
  8
寸法線
 62
     0
440
 16777216
370
    -2
100
AcDbLine
 10
2377.749991483543
 20
2225.999980149993
 30
0.0
 11
2296.499911857464
 21
2225.999980149993
 31
0.0
  0
LINE
  5
13ED2
330
12E69
100
AcDbEntity
  8
寸法線
 62
     0
440
 16777216
370
    -2
100
AcDbLine
 10
2377.749991483543
 20
2213.999980149994
 30
0.0
 11
2296.499911857464
 21
2213.999980149994
 31
0.0
  0
LINE
  5
13ED3
330
12E69
100
AcDbEntity
  8
寸法線
 62
     0
440
 16777216
370
    -2
100
AcDbLine
 10
2306.499911857463
 20
2245.999980149994
 30
0.0
 11
2306.499911857463
 21
2265.999980149993
 31
0.0
  0
LINE
  5
13ED4
330
12E69
100
AcDbEntity
  8
寸法線
 62
     0
440
 16777216
370
    -2
100
AcDbLine
 10
2306.499911857463
 20
2193.999980149993
 30
0.0
 11
2306.499911857463
 21
2173.999980149993
 31
0.0
  0
LINE
  5
13ED5
330
12E69
100
AcDbEntity
  8
寸法線
 62
     0
440
 16777216
370
    -2
100
AcDbLine
 10
2306.499911857463
 20
2225.999980149993
 30
0.0
 11
2306.499911857463
 21
2213.999980149994
 31
0.0
  0
INSERT
  5
13ED6
330
12E69
100
AcDbEntity
  8
寸法線
 62
     0
440
 16777216
370
    -2
100
AcDbBlockReference
  2
_OPEN
 10
2306.499911857463
 20
2225.999980149993
 30
0.0
 41
20.0
 42
20.0
 43
20.0
 50
270.0
  0
INSERT
  5
13ED7
330
12E69
100
AcDbEntity
  8
寸法線
 62
     0
440
 16777216
370
    -2
100
AcDbBlockReference
  2
_OPEN
 10
2306.499911857463
 20
2213.999980149994
 30
0.0
 41
20.0
 42
20.0
 43
20.0
 50
90.0
  0
MTEXT
  5
13ED8
330
12E69
100
AcDbEntity
  8
寸法線
 62
     0
440
 16777216
100
AcDbMText
 10
2285.247451227542
 20
2219.999980149992
 30
0.0
 40
25.0
 41
0.0
 46
0.0
 71
     5
 72
     1
  1
\A1;12
 11
0.0000000000000001
 21
1.0
 31
0.0
 73
     1
 44
1.0
  0
POINT
  5
13ED9
330
12E69
100
AcDbEntity
  8
Defpoints
 62
     0
440
 16777216
100
AcDbPoint
 10
2386.499991483543
 20
2225.999980149993
 30
0.0
  0
POINT
  5
13EDA
330
12E69
100
AcDbEntity
  8
Defpoints
 62
     0
440
 16777216
100
AcDbPoint
 10
2386.499991483543
 20
2213.999980149994
 30
0.0
  0
POINT
  5
13EDB
330
12E69
100
AcDbEntity
  8
Defpoints
 62
     0
440
 16777216
100
AcDbPoint
 10
2306.499911857463
 20
2213.999980149994
 30
0.0
  0
ENDBLK
  5
12E6B
330
12E69
100
AcDbEntity
  8
0
100
AcDbBlockEnd
  0
BLOCK
  5
12E78
330
12E77
100
AcDbEntity
  8
0
100
AcDbBlockBegin
  2
*D4
 70
     1
 10
0.0
 20
0.0
 30
0.0
  3
*D4
  1

  0
LINE
  5
13E2E
330
12E77
100
AcDbEntity
  8
寸法線
 62
     0
440
 16777216
370
    -2
100
AcDbLine
 10
952.4999714836095
 20
1461.249999999998
 30
0.0
 11
952.4999714836095
 21
1299.999999999998
 31
0.0
  0
LINE
  5
13E2F
330
12E77
100
AcDbEntity
  8
寸法線
 62
     0
440
 16777216
370
    -2
100
AcDbLine
 10
1452.500006391522
 20
1451.250038922456
 30
0.0
 11
1452.500006391522
 21
1299.999999999998
 31
0.0
  0
LINE
  5
13E30
330
12E77
100
AcDbEntity
  8
寸法線
 62
     0
440
 16777216
370
    -2
100
AcDbLine
 10
972.4999714836094
 20
1309.999999999998
 30
0.0
 11
1432.500006391522
 21
1309.999999999998
 31
0.0
  0
INSERT
  5
13E31
330
12E77
100
AcDbEntity
  8
寸法線
 62
     0
440
 16777216
370
    -2
100
AcDbBlockReference
  2
_OPEN
 10
952.4999714836095
 20
1309.999999999998
 30
0.0
 41
20.0
 42
20.0
 43
20.0
 50
180.0
  0
INSERT
  5
13E32
330
12E77
100
AcDbEntity
  8
寸法線
 62
     0
440
 16777216
370
    -2
100
AcDbBlockReference
  2
_OPEN
 10
1452.500006391522
 20
1309.999999999998
 30
0.0
 41
20.0
 42
20.0
 43
20.0
  0
MTEXT
  5
13E33
330
12E77
100
AcDbEntity
  8
寸法線
 62
     0
440
 16777216
100
AcDbMText
 10
1202.499988937567
 20
1331.249999999998
 30
0.0
 40
25.0
 41
0.0
 46
0.0
 71
     5
 72
     1
  1
\A1;500
 73
     1
 44
1.0
  0
POINT
  5
13E34
330
12E77
100
AcDbEntity
  8
Defpoints
 62
     0
440
 16777216
100
AcDbPoint
 10
952.4999714836095
 20
1469.999999999998
 30
0.0
  0
POINT
  5
13E35
330
12E77
100
AcDbEntity
  8
Defpoints
 62
     0
440
 16777216
100
AcDbPoint
 10
1452.500006391522
 20
1460.000038922456
 30
0.0
  0
POINT
  5
13E36
330
12E77
100
AcDbEntity
  8
Defpoints
 62
     0
440
 16777216
100
AcDbPoint
 10
1452.500006391522
 20
1309.999999999998
 30
0.0
  0
ENDBLK
  5
12E79
330
12E77
100
AcDbEntity
  8
0
100
AcDbBlockEnd
  0
BLOCK
  5
12E84
330
12E83
100
AcDbEntity
  8
0
100
AcDbBlockBegin
  2
*D5
 70
     1
 10
0.0
 20
0.0
 30
0.0
  3
*D5
  1

  0
LINE
  5
13E37
330
12E83
100
AcDbEntity
  8
寸法線
 62
     0
440
 16777216
370
    -2
100
AcDbLine
 10
2052.499936575697
 20
1451.250038922456
 30
0.0
 11
2052.499936575697
 21
1299.999999999998
 31
0.0
  0
LINE
  5
13E38
330
12E83
100
AcDbEntity
  8
寸法線
 62
     0
440
 16777216
370
    -2
100
AcDbLine
 10
1452.499991390134
 20
1451.250019850007
 30
0.0
 11
1452.499991390134
 21
1299.999999999998
 31
0.0
  0
LINE
  5
13E39
330
12E83
100
AcDbEntity
  8
寸法線
 62
     0
440
 16777216
370
    -2
100
AcDbLine
 10
2032.499936575698
 20
1309.999999999998
 30
0.0
 11
1472.499991390134
 21
1309.999999999998
 31
0.0
  0
INSERT
  5
13E3A
330
12E83
100
AcDbEntity
  8
寸法線
 62
     0
440
 16777216
370
    -2
100
AcDbBlockReference
  2
_OPEN
 10
2052.499936575697
 20
1309.999999999998
 30
0.0
 41
20.0
 42
20.0
 43
20.0
  0
INSERT
  5
13E3B
330
12E83
100
AcDbEntity
  8
寸法線
 62
     0
440
 16777216
370
    -2
100
AcDbBlockReference
  2
_OPEN
 10
1452.499991390134
 20
1309.999999999998
 30
0.0
 41
20.0
 42
20.0
 43
20.0
 50
180.0
  0
MTEXT
  5
13E3C
330
12E83
100
AcDbEntity
  8
寸法線
 62
     0
440
 16777216
100
AcDbMText
 10
1752.499963982916
 20
1331.249999999998
 30
0.0
 40
25.0
 41
0.0
 46
0.0
 71
     5
 72
     1
  1
\A1;600
 73
     1
 44
1.0
  0
POINT
  5
13E3D
330
12E83
100
AcDbEntity
  8
Defpoints
 62
     0
440
 16777216
100
AcDbPoint
 10
2052.499936575697
 20
1460.000038922456
 30
0.0
  0
POINT
  5
13E3E
330
12E83
100
AcDbEntity
  8
Defpoints
 62
     0
440
 16777216
100
AcDbPoint
 10
1452.499991390134
 20
1460.000019850007
 30
0.0
  0
POINT
  5
13E3F
330
12E83
100
AcDbEntity
  8
Defpoints
 62
     0
440
 16777216
100
AcDbPoint
 10
1452.499991390134
 20
1309.999999999998
 30
0.0
  0
ENDBLK
  5
12E85
330
12E83
100
AcDbEntity
  8
0
100
AcDbBlockEnd
  0
BLOCK
  5
12E90
330
12E8F
100
AcDbEntity
  8
0
100
AcDbBlockBegin
  2
*D6
 70
     1
 10
0.0
 20
0.0
 30
0.0
  3
*D6
  1

  0
LINE
  5
13E40
330
12E8F
100
AcDbEntity
  8
寸法線
 62
     0
440
 16777216
370
    -2
100
AcDbLine
 10
943.7499714836098
 20
1770.000037219675
 30
0.0
 11
822.4999714836092
 21
1770.000037219675
 31
0.0
  0
LINE
  5
13E41
330
12E8F
100
AcDbEntity
  8
寸法線
 62
     0
440
 16777216
370
    -2
100
AcDbLine
 10
943.7499714836098
 20
1469.999999999999
 30
0.0
 11
822.4999714836092
 21
1469.999999999999
 31
0.0
  0
LINE
  5
13E42
330
12E8F
100
AcDbEntity
  8
寸法線
 62
     0
440
 16777216
370
    -2
100
AcDbLine
 10
832.4999714836092
 20
1750.000037219676
 30
0.0
 11
832.4999714836092
 21
1489.999999999998
 31
0.0
  0
INSERT
  5
13E43
330
12E8F
100
AcDbEntity
  8
寸法線
 62
     0
440
 16777216
370
    -2
100
AcDbBlockReference
  2
_OPEN
 10
832.4999714836092
 20
1770.000037219675
 30
0.0
 41
20.0
 42
20.0
 43
20.0
 50
90.0
  0
INSERT
  5
13E44
330
12E8F
100
AcDbEntity
  8
寸法線
 62
     0
440
 16777216
370
    -2
100
AcDbBlockReference
  2
_OPEN
 10
832.4999714836092
 20
1469.999999999999
 30
0.0
 41
20.0
 42
20.0
 43
20.0
 50
270.0
  0
MTEXT
  5
13E45
330
12E8F
100
AcDbEntity
  8
寸法線
 62
     0
440
 16777216
100
AcDbMText
 10
811.2499714836094
 20
1620.000018609838
 30
0.0
 40
25.0
 41
0.0
 46
0.0
 71
     5
 72
     1
  1
\A1;300
 11
0.0000000000000001
 21
1.0
 31
0.0
 73
     1
 44
1.0
  0
POINT
  5
13E46
330
12E8F
100
AcDbEntity
  8
Defpoints
 62
     0
440
 16777216
100
AcDbPoint
 10
952.4999714836098
 20
1770.000037219675
 30
0.0
  0
POINT
  5
13E47
330
12E8F
100
AcDbEntity
  8
Defpoints
 62
     0
440
 16777216
100
AcDbPoint
 10
952.4999714836098
 20
1469.999999999999
 30
0.0
  0
POINT
  5
13E48
330
12E8F
100
AcDbEntity
  8
Defpoints
 62
     0
440
 16777216
100
AcDbPoint
 10
832.4999714836092
 20
1469.999999999999
 30
0.0
  0
ENDBLK
  5
12E91
330
12E8F
100
AcDbEntity
  8
0
100
AcDbBlockEnd
  0
BLOCK
  5
12E9C
330
12E9B
100
AcDbEntity
  8
0
100
AcDbBlockBegin
  2
*D7
 70
     1
 10
0.0
 20
0.0
 30
0.0
  3
*D7
  1

  0
LINE
  5
14167
330
12E9B
100
AcDbEntity
  8
寸法線
 62
     0
440
 16777216
370
    -2
100
AcDbLine
 10
952.4999714836084
 20
2372.750037219683
 30
0.0
 11
952.4999714836084
 21
2539.999999999998
 31
0.0
  0
LINE
  5
14168
330
12E9B
100
AcDbEntity
  8
寸法線
 62
     0
440
 16777216
370
    -2
100
AcDbLine
 10
968.4999912967196
 20
2378.749999999998
 30
0.0
 11
968.4999912967196
 21
2539.999999999998
 31
0.0
  0
LINE
  5
14169
330
12E9B
100
AcDbEntity
  8
寸法線
 62
     0
440
 16777216
370
    -2
100
AcDbLine
 10
932.4999714836085
 20
2529.999999999998
 30
0.0
 11
912.4999714836086
 21
2529.999999999998
 31
0.0
  0
LINE
  5
1416A
330
12E9B
100
AcDbEntity
  8
寸法線
 62
     0
440
 16777216
370
    -2
100
AcDbLine
 10
988.4999912967195
 20
2529.999999999998
 30
0.0
 11
1008.499991296719
 21
2529.999999999998
 31
0.0
  0
LINE
  5
1416B
330
12E9B
100
AcDbEntity
  8
寸法線
 62
     0
440
 16777216
370
    -2
100
AcDbLine
 10
952.4999714836084
 20
2529.999999999998
 30
0.0
 11
968.4999912967196
 21
2529.999999999998
 31
0.0
  0
INSERT
  5
1416C
330
12E9B
100
AcDbEntity
  8
寸法線
 62
     0
440
 16777216
370
    -2
100
AcDbBlockReference
  2
_OPEN
 10
952.4999714836084
 20
2529.999999999998
 30
0.0
 41
20.0
 42
20.0
 43
20.0
  0
INSERT
  5
1416D
330
12E9B
100
AcDbEntity
  8
寸法線
 62
     0
440
 16777216
370
    -2
100
AcDbBlockReference
  2
_OPEN
 10
968.4999912967196
 20
2529.999999999998
 30
0.0
 41
20.0
 42
20.0
 43
20.0
 50
180.0
  0
MTEXT
  5
1416E
330
12E9B
100
AcDbEntity
  8
寸法線
 62
     0
440
 16777216
100
AcDbMText
 10
960.499981390164
 20
2551.249999999998
 30
0.0
 40
25.0
 41
0.0
 46
0.0
 71
     5
 72
     1
  1
\A1;16
 73
     1
 44
1.0
  0
POINT
  5
1416F
330
12E9B
100
AcDbEntity
  8
Defpoints
 62
     0
440
 16777216
100
AcDbPoint
 10
952.4999714836084
 20
2364.000037219682
 30
0.0
  0
POINT
  5
14170
330
12E9B
100
AcDbEntity
  8
Defpoints
 62
     0
440
 16777216
100
AcDbPoint
 10
968.4999912967196
 20
2369.999999999998
 30
0.0
  0
POINT
  5
14171
330
12E9B
100
AcDbEntity
  8
Defpoints
 62
     0
440
 16777216
100
AcDbPoint
 10
968.4999912967196
 20
2529.999999999998
 30
0.0
  0
ENDBLK
  5
12E9D
330
12E9B
100
AcDbEntity
  8
0
100
AcDbBlockEnd
  0
BLOCK
  5
12EAA
330
12EA9
100
AcDbEntity
  8
0
100
AcDbBlockBegin
  2
*D8
 70
     1
 10
0.0
 20
0.0
 30
0.0
  3
*D8
  1

  0
LINE
  5
13E54
330
12EA9
100
AcDbEntity
  8
寸法線
 62
     0
440
 16777216
370
    -2
100
AcDbLine
 10
968.4999912967196
 20
2378.749999999998
 30
0.0
 11
968.4999912967196
 21
2539.999999999998
 31
0.0
  0
LINE
  5
13E55
330
12EA9
100
AcDbEntity
  8
寸法線
 62
     0
440
 16777216
370
    -2
100
AcDbLine
 10
1452.500059967628
 20
2388.750019849952
 30
0.0
 11
1452.500059967628
 21
2539.999999999998
 31
0.0
  0
LINE
  5
13E56
330
12EA9
100
AcDbEntity
  8
寸法線
 62
     0
440
 16777216
370
    -2
100
AcDbLine
 10
988.4999912967195
 20
2529.999999999998
 30
0.0
 11
1432.500059967628
 21
2529.999999999998
 31
0.0
  0
INSERT
  5
13E57
330
12EA9
100
AcDbEntity
  8
寸法線
 62
     0
440
 16777216
370
    -2
100
AcDbBlockReference
  2
_OPEN
 10
968.4999912967196
 20
2529.999999999998
 30
0.0
 41
20.0
 42
20.0
 43
20.0
 50
180.0
  0
INSERT
  5
13E58
330
12EA9
100
AcDbEntity
  8
寸法線
 62
     0
440
 16777216
370
    -2
100
AcDbBlockReference
  2
_OPEN
 10
1452.500059967628
 20
2529.999999999998
 30
0.0
 41
20.0
 42
20.0
 43
20.0
  0
MTEXT
  5
13E59
330
12EA9
100
AcDbEntity
  8
寸法線
 62
     0
440
 16777216
100
AcDbMText
 10
1210.499998844121
 20
2551.249999999998
 30
0.0
 40
25.0
 41
0.0
 46
0.0
 71
     5
 72
     1
  1
\A1;484
 73
     1
 44
1.0
  0
POINT
  5
13E5A
330
12EA9
100
AcDbEntity
  8
Defpoints
 62
     0
440
 16777216
100
AcDbPoint
 10
968.4999912967196
 20
2369.999999999998
 30
0.0
  0
POINT
  5
13E5B
330
12EA9
100
AcDbEntity
  8
Defpoints
 62
     0
440
 16777216
100
AcDbPoint
 10
1452.500059967628
 20
2380.000019849952
 30
0.0
  0
POINT
  5
13E5C
330
12EA9
100
AcDbEntity
  8
Defpoints
 62
     0
440
 16777216
100
AcDbPoint
 10
1452.500059967628
 20
2529.999999999998
 30
0.0
  0
ENDBLK
  5
12EAB
330
12EA9
100
AcDbEntity
  8
0
100
AcDbBlockEnd
  0
BLOCK
  5
12EB6
330
12EB5
100
AcDbEntity
  8
0
100
AcDbBlockBegin
  2
*D9
 70
     1
 10
0.0
 20
0.0
 30
0.0
  3
*D9
  1

  0
LINE
  5
13E5D
330
12EB5
100
AcDbEntity
  8
寸法線
 62
     0
440
 16777216
370
    -2
100
AcDbLine
 10
959.7499912967201
 20
2369.999999999999
 30
0.0
 11
822.4999714836089
 21
2369.999999999999
 31
0.0
  0
LINE
  5
13E5E
330
12EB5
100
AcDbEntity
  8
寸法線
 62
     0
440
 16777216
370
    -2
100
AcDbLine
 10
959.7499912967201
 20
2069.999999999999
 30
0.0
 11
822.4999714836091
 21
2069.999999999999
 31
0.0
  0
LINE
  5
13E5F
330
12EB5
100
AcDbEntity
  8
寸法線
 62
     0
440
 16777216
370
    -2
100
AcDbLine
 10
832.499971483609
 20
2349.999999999999
 30
0.0
 11
832.499971483609
 21
2089.999999999999
 31
0.0
  0
INSERT
  5
13E60
330
12EB5
100
AcDbEntity
  8
寸法線
 62
     0
440
 16777216
370
    -2
100
AcDbBlockReference
  2
_OPEN
 10
832.499971483609
 20
2369.999999999999
 30
0.0
 41
20.0
 42
20.0
 43
20.0
 50
90.0
  0
INSERT
  5
13E61
330
12EB5
100
AcDbEntity
  8
寸法線
 62
     0
440
 16777216
370
    -2
100
AcDbBlockReference
  2
_OPEN
 10
832.499971483609
 20
2069.999999999999
 30
0.0
 41
20.0
 42
20.0
 43
20.0
 50
270.0
  0
MTEXT
  5
13E62
330
12EB5
100
AcDbEntity
  8
寸法線
 62
     0
440
 16777216
100
AcDbMText
 10
811.2499714836094
 20
2219.999999999998
 30
0.0
 40
25.0
 41
0.0
 46
0.0
 71
     5
 72
     1
  1
\A1;300
 11
0.0000000000000001
 21
1.0
 31
0.0
 73
     1
 44
1.0
  0
POINT
  5
13E63
330
12EB5
100
AcDbEntity
  8
Defpoints
 62
     0
440
 16777216
100
AcDbPoint
 10
968.4999912967199
 20
2369.999999999999
 30
0.0
  0
POINT
  5
13E64
330
12EB5
100
AcDbEntity
  8
Defpoints
 62
     0
440
 16777216
100
AcDbPoint
 10
968.4999912967199
 20
2069.999999999999
 30
0.0
  0
POINT
  5
13E65
330
12EB5
100
AcDbEntity
  8
Defpoints
 62
     0
440
 16777216
100
AcDbPoint
 10
832.499971483609
 20
2069.999999999999
 30
0.0
  0
ENDBLK
  5
12EB7
330
12EB5
100
AcDbEntity
  8
0
100
AcDbBlockEnd
  0
BLOCK
  5
12EC2
330
12EC1
100
AcDbEntity
  8
0
100
AcDbBlockBegin
  2
*D10
 70
     1
 10
0.0
 20
0.0
 30
0.0
  3
*D10
  1

  0
LINE
  5
13E66
330
12EC1
100
AcDbEntity
  8
寸法線
 62
     0
440
 16777216
370
    -2
100
AcDbLine
 10
2552.500011296659
 20
2372.750017369674
 30
0.0
 11
2552.500011296659
 21
2539.999999999998
 31
0.0
  0
LINE
  5
13E67
330
12EC1
100
AcDbEntity
  8
寸法線
 62
     0
440
 16777216
370
    -2
100
AcDbLine
 10
2536.500011296659
 20
2378.749988421025
 30
0.0
 11
2536.500011296659
 21
2539.999999999998
 31
0.0
  0
LINE
  5
13E68
330
12EC1
100
AcDbEntity
  8
寸法線
 62
     0
440
 16777216
370
    -2
100
AcDbLine
 10
2572.500011296659
 20
2529.999999999998
 30
0.0
 11
2592.500011296659
 21
2529.999999999998
 31
0.0
  0
LINE
  5
13E69
330
12EC1
100
AcDbEntity
  8
寸法線
 62
     0
440
 16777216
370
    -2
100
AcDbLine
 10
2516.500011296659
 20
2529.999999999998
 30
0.0
 11
2496.500011296659
 21
2529.999999999998
 31
0.0
  0
LINE
  5
13E6A
330
12EC1
100
AcDbEntity
  8
寸法線
 62
     0
440
 16777216
370
    -2
100
AcDbLine
 10
2552.500011296659
 20
2529.999999999998
 30
0.0
 11
2536.500011296659
 21
2529.999999999998
 31
0.0
  0
INSERT
  5
13E6B
330
12EC1
100
AcDbEntity
  8
寸法線
 62
     0
440
 16777216
370
    -2
100
AcDbBlockReference
  2
_OPEN
 10
2552.500011296659
 20
2529.999999999998
 30
0.0
 41
20.0
 42
20.0
 43
20.0
 50
180.0
  0
INSERT
  5
13E6C
330
12EC1
100
AcDbEntity
  8
寸法線
 62
     0
440
 16777216
370
    -2
100
AcDbBlockReference
  2
_OPEN
 10
2536.500011296659
 20
2529.999999999998
 30
0.0
 41
20.0
 42
20.0
 43
20.0
  0
MTEXT
  5
13E6D
330
12EC1
100
AcDbEntity
  8
寸法線
 62
     0
440
 16777216
100
AcDbMText
 10
2544.500011296659
 20
2551.249999999998
 30
0.0
 40
25.0
 41
0.0
 46
0.0
 71
     5
 72
     1
  1
\A1;16
 73
     1
 44
1.0
  0
POINT
  5
13E6E
330
12EC1
100
AcDbEntity
  8
Defpoints
 62
     0
440
 16777216
100
AcDbPoint
 10
2552.500011296659
 20
2364.000017369674
 30
0.0
  0
POINT
  5
13E6F
330
12EC1
100
AcDbEntity
  8
Defpoints
 62
     0
440
 16777216
100
AcDbPoint
 10
2536.500011296659
 20
2369.999988421024
 30
0.0
  0
POINT
  5
13E70
330
12EC1
100
AcDbEntity
  8
Defpoints
 62
     0
440
 16777216
100
AcDbPoint
 10
2536.500011296659
 20
2529.999999999998
 30
0.0
  0
ENDBLK
  5
12EC3
330
12EC1
100
AcDbEntity
  8
0
100
AcDbBlockEnd
  0
BLOCK
  5
12ED0
330
12ECF
100
AcDbEntity
  8
0
100
AcDbBlockBegin
  2
*D11
 70
     1
 10
0.0
 20
0.0
 30
0.0
  3
*D11
  1

  0
LINE
  5
13E71
330
12ECF
100
AcDbEntity
  8
寸法線
 62
     0
440
 16777216
370
    -2
100
AcDbLine
 10
2536.500011296659
 20
2378.749988421025
 30
0.0
 11
2536.500011296659
 21
2539.999999999998
 31
0.0
  0
LINE
  5
13E72
330
12ECF
100
AcDbEntity
  8
寸法線
 62
     0
440
 16777216
370
    -2
100
AcDbLine
 10
2052.499991390134
 20
2388.750001605376
 30
0.0
 11
2052.499991390134
 21
2539.999999999998
 31
0.0
  0
LINE
  5
13E73
330
12ECF
100
AcDbEntity
  8
寸法線
 62
     0
440
 16777216
370
    -2
100
AcDbLine
 10
2516.500011296659
 20
2529.999999999998
 30
0.0
 11
2072.499991390134
 21
2529.999999999998
 31
0.0
  0
INSERT
  5
13E74
330
12ECF
100
AcDbEntity
  8
寸法線
 62
     0
440
 16777216
370
    -2
100
AcDbBlockReference
  2
_OPEN
 10
2536.500011296659
 20
2529.999999999998
 30
0.0
 41
20.0
 42
20.0
 43
20.0
  0
INSERT
  5
13E75
330
12ECF
100
AcDbEntity
  8
寸法線
 62
     0
440
 16777216
370
    -2
100
AcDbBlockReference
  2
_OPEN
 10
2052.499991390134
 20
2529.999999999998
 30
0.0
 41
20.0
 42
20.0
 43
20.0
 50
180.0
  0
MTEXT
  5
13E76
330
12ECF
100
AcDbEntity
  8
寸法線
 62
     0
440
 16777216
100
AcDbMText
 10
2294.499944123099
 20
2551.249999999998
 30
0.0
 40
25.0
 41
0.0
 46
0.0
 71
     5
 72
     1
  1
\A1;484
 73
     1
 44
1.0
  0
POINT
  5
13E77
330
12ECF
100
AcDbEntity
  8
Defpoints
 62
     0
440
 16777216
100
AcDbPoint
 10
2536.500011296659
 20
2369.999988421024
 30
0.0
  0
POINT
  5
13E78
330
12ECF
100
AcDbEntity
  8
Defpoints
 62
     0
440
 16777216
100
AcDbPoint
 10
2052.499991390134
 20
2380.000001605376
 30
0.0
  0
POINT
  5
13E79
330
12ECF
100
AcDbEntity
  8
Defpoints
 62
     0
440
 16777216
100
AcDbPoint
 10
2052.499991390134
 20
2529.999999999998
 30
0.0
  0
ENDBLK
  5
12ED1
330
12ECF
100
AcDbEntity
  8
0
100
AcDbBlockEnd
  0
BLOCK
  5
12EDC
330
12EDB
100
AcDbEntity
  8
0
100
AcDbBlockBegin
  2
*D12
 70
     1
 10
0.0
 20
0.0
 30
0.0
  3
*D12
  1

  0
LINE
  5
13E7A
330
12EDB
100
AcDbEntity
  8
寸法線
 62
     0
440
 16777216
370
    -2
100
AcDbLine
 10
952.4999714836084
 20
2372.750037219683
 30
0.0
 11
952.4999714836084
 21
2620.000000000003
 31
0.0
  0
LINE
  5
13E7B
330
12EDB
100
AcDbEntity
  8
寸法線
 62
     0
440
 16777216
370
    -2
100
AcDbLine
 10
1452.499991390134
 20
2388.750019850007
 30
0.0
 11
1452.499991390134
 21
2620.000000000003
 31
0.0
  0
LINE
  5
13E7C
330
12EDB
100
AcDbEntity
  8
寸法線
 62
     0
440
 16777216
370
    -2
100
AcDbLine
 10
972.4999714836085
 20
2610.000000000003
 30
0.0
 11
1432.499991390134
 21
2610.000000000003
 31
0.0
  0
INSERT
  5
13E7D
330
12EDB
100
AcDbEntity
  8
寸法線
 62
     0
440
 16777216
370
    -2
100
AcDbBlockReference
  2
_OPEN
 10
952.4999714836084
 20
2610.000000000003
 30
0.0
 41
20.0
 42
20.0
 43
20.0
 50
180.0
  0
INSERT
  5
13E7E
330
12EDB
100
AcDbEntity
  8
寸法線
 62
     0
440
 16777216
370
    -2
100
AcDbBlockReference
  2
_OPEN
 10
1452.499991390134
 20
2610.000000000003
 30
0.0
 41
20.0
 42
20.0
 43
20.0
  0
MTEXT
  5
13E7F
330
12EDB
100
AcDbEntity
  8
寸法線
 62
     0
440
 16777216
100
AcDbMText
 10
1202.499988937567
 20
2631.250000000003
 30
0.0
 40
25.0
 41
0.0
 46
0.0
 71
     5
 72
     1
  1
\A1;500
 73
     1
 44
1.0
  0
MTEXT
  5
13E80
330
12EDB
100
AcDbEntity
  8
寸法線
 62
     0
440
 16777216
100
AcDbMText
 10
1202.499988937567
 20
2588.750000000003
 30
0.0
 40
25.0
 41
0.0
 46
0.0
 71
     5
 72
     1
  1
\A1;H型鋼（連結部）
 73
     1
 44
1.0
  0
POINT
  5
13E81
330
12EDB
100
AcDbEntity
  8
Defpoints
 62
     0
440
 16777216
100
AcDbPoint
 10
952.4999714836084
 20
2364.000037219682
 30
0.0
  0
POINT
  5
13E82
330
12EDB
100
AcDbEntity
  8
Defpoints
 62
     0
440
 16777216
100
AcDbPoint
 10
1452.499991390134
 20
2380.000019850007
 30
0.0
  0
POINT
  5
13E83
330
12EDB
100
AcDbEntity
  8
Defpoints
 62
     0
440
 16777216
100
AcDbPoint
 10
1452.499991390134
 20
2610.000000000003
 30
0.0
  0
ENDBLK
  5
12EDD
330
12EDB
100
AcDbEntity
  8
0
100
AcDbBlockEnd
  0
BLOCK
  5
12EE9
330
12EE8
100
AcDbEntity
  8
0
100
AcDbBlockBegin
  2
*D13
 70
     1
 10
0.0
 20
0.0
 30
0.0
  3
*D13
  1

  0
LINE
  5
13E84
330
12EE8
100
AcDbEntity
  8
寸法線
 62
     0
440
 16777216
370
    -2
100
AcDbLine
 10
1452.499991390134
 20
2388.750019850007
 30
0.0
 11
1452.499991390134
 21
2619.999999999998
 31
0.0
  0
LINE
  5
13E85
330
12EE8
100
AcDbEntity
  8
寸法線
 62
     0
440
 16777216
370
    -2
100
AcDbLine
 10
2052.499991390134
 20
2388.750001605376
 30
0.0
 11
2052.499991390134
 21
2619.999999999998
 31
0.0
  0
LINE
  5
13E86
330
12EE8
100
AcDbEntity
  8
寸法線
 62
     0
440
 16777216
370
    -2
100
AcDbLine
 10
1472.499991390134
 20
2609.999999999998
 30
0.0
 11
2032.499991390134
 21
2609.999999999998
 31
0.0
  0
INSERT
  5
13E87
330
12EE8
100
AcDbEntity
  8
寸法線
 62
     0
440
 16777216
370
    -2
100
AcDbBlockReference
  2
_OPEN
 10
1452.499991390134
 20
2609.999999999998
 30
0.0
 41
20.0
 42
20.0
 43
20.0
 50
180.0
  0
INSERT
  5
13E88
330
12EE8
100
AcDbEntity
  8
寸法線
 62
     0
440
 16777216
370
    -2
100
AcDbBlockReference
  2
_OPEN
 10
2052.499991390134
 20
2609.999999999998
 30
0.0
 41
20.0
 42
20.0
 43
20.0
  0
MTEXT
  5
13E89
330
12EE8
100
AcDbEntity
  8
寸法線
 62
     0
440
 16777216
100
AcDbMText
 10
1752.499991390134
 20
2631.249999999998
 30
0.0
 40
25.0
 41
0.0
 46
0.0
 71
     5
 72
     1
  1
\A1;W=600
 73
     1
 44
1.0
  0
MTEXT
  5
13E8A
330
12EE8
100
AcDbEntity
  8
寸法線
 62
     0
440
 16777216
100
AcDbMText
 10
1752.499991390134
 20
2588.749999999998
 30
0.0
 40
25.0
 41
0.0
 46
0.0
 71
     5
 72
     1
  1
\A1;空洞金具
 73
     1
 44
1.0
  0
POINT
  5
13E8B
330
12EE8
100
AcDbEntity
  8
Defpoints
 62
     0
440
 16777216
100
AcDbPoint
 10
1452.499991390134
 20
2380.000019850007
 30
0.0
  0
POINT
  5
13E8C
330
12EE8
100
AcDbEntity
  8
Defpoints
 62
     0
440
 16777216
100
AcDbPoint
 10
2052.499991390134
 20
2380.000001605376
 30
0.0
  0
POINT
  5
13E8D
330
12EE8
100
AcDbEntity
  8
Defpoints
 62
     0
440
 16777216
100
AcDbPoint
 10
2052.499991390134
 20
2609.999999999998
 30
0.0
  0
ENDBLK
  5
12EEA
330
12EE8
100
AcDbEntity
  8
0
100
AcDbBlockEnd
  0
BLOCK
  5
12EF6
330
12EF5
100
AcDbEntity
  8
0
100
AcDbBlockBegin
  2
*D14
 70
     1
 10
0.0
 20
0.0
 30
0.0
  3
*D14
  1

  0
LINE
  5
13E8E
330
12EF5
100
AcDbEntity
  8
寸法線
 62
     0
440
 16777216
370
    -2
100
AcDbLine
 10
952.4999714836095
 20
2372.750037219675
 30
0.0
 11
952.4999714836095
 21
2700.000000000005
 31
0.0
  0
LINE
  5
13E8F
330
12EF5
100
AcDbEntity
  8
寸法線
 62
     0
440
 16777216
370
    -2
100
AcDbLine
 10
2552.500011296659
 20
2372.750017369674
 30
0.0
 11
2552.500011296659
 21
2700.000000000005
 31
0.0
  0
LINE
  5
13E90
330
12EF5
100
AcDbEntity
  8
寸法線
 62
     0
440
 16777216
370
    -2
100
AcDbLine
 10
972.4999714836094
 20
2690.000000000004
 30
0.0
 11
2532.500011296659
 21
2690.000000000004
 31
0.0
  0
INSERT
  5
13E91
330
12EF5
100
AcDbEntity
  8
寸法線
 62
     0
440
 16777216
370
    -2
100
AcDbBlockReference
  2
_OPEN
 10
952.4999714836095
 20
2690.000000000004
 30
0.0
 41
20.0
 42
20.0
 43
20.0
 50
180.0
  0
INSERT
  5
13E92
330
12EF5
100
AcDbEntity
  8
寸法線
 62
     0
440
 16777216
370
    -2
100
AcDbBlockReference
  2
_OPEN
 10
2552.500011296659
 20
2690.000000000004
 30
0.0
 41
20.0
 42
20.0
 43
20.0
  0
MTEXT
  5
13E93
330
12EF5
100
AcDbEntity
  8
寸法線
 62
     0
440
 16777216
100
AcDbMText
 10
1752.499991390134
 20
2711.250000000004
 30
0.0
 40
25.0
 41
0.0
 46
0.0
 71
     5
 72
     1
  1
\A1;スルーサーＢ L=1600
 73
     1
 44
1.0
  0
POINT
  5
13E94
330
12EF5
100
AcDbEntity
  8
Defpoints
 62
     0
440
 16777216
100
AcDbPoint
 10
952.4999714836095
 20
2364.000037219675
 30
0.0
  0
POINT
  5
13E95
330
12EF5
100
AcDbEntity
  8
Defpoints
 62
     0
440
 16777216
100
AcDbPoint
 10
2552.500011296659
 20
2364.000017369674
 30
0.0
  0
POINT
  5
13E96
330
12EF5
100
AcDbEntity
  8
Defpoints
 62
     0
440
 16777216
100
AcDbPoint
 10
2552.500011296659
 20
2690.000000000004
 30
0.0
  0
ENDBLK
  5
12EF7
330
12EF5
100
AcDbEntity
  8
0
100
AcDbBlockEnd
  0
BLOCK
  5
12F02
330
12F01
100
AcDbEntity
  8
0
100
AcDbBlockBegin
  2
*D15
 70
     1
 10
0.0
 20
0.0
 30
0.0
  3
*D15
  1

  0
LINE
  5
13E97
330
12F01
100
AcDbEntity
  8
寸法線
 62
     0
440
 16777216
370
    -2
100
AcDbLine
 10
2552.500006415173
 20
1461.249968964709
 30
0.0
 11
2552.500002788663
 21
1299.999988755006
 31
0.0
  0
LINE
  5
13E98
330
12F01
100
AcDbEntity
  8
寸法線
 62
     0
440
 16777216
370
    -2
100
AcDbLine
 10
2052.49993637891
 20
1451.250038922456
 30
0.0
 11
2052.499932977299
 21
1300.0
 31
0.0
  0
LINE
  5
13E99
330
12F01
100
AcDbEntity
  8
寸法線
 62
     0
440
 16777216
370
    -2
100
AcDbLine
 10
2532.500003013563
 20
1309.999989204806
 30
0.0
 11
2072.499933202199
 21
1309.999999550201
 31
0.0
  0
INSERT
  5
13E9A
330
12F01
100
AcDbEntity
  8
寸法線
 62
     0
440
 16777216
370
    -2
100
AcDbBlockReference
  2
_OPEN
 10
2552.500003013563
 20
1309.999988755006
 30
0.0
 41
20.0
 42
20.0
 43
20.0
 50
359.9999987114188
  0
INSERT
  5
13E9B
330
12F01
100
AcDbEntity
  8
寸法線
 62
     0
440
 16777216
370
    -2
100
AcDbBlockReference
  2
_OPEN
 10
2052.499933202199
 20
1310.0
 30
0.0
 41
20.0
 42
20.0
 43
20.0
 50
179.9999987114188
  0
MTEXT
  5
13E9C
330
12F01
100
AcDbEntity
  8
寸法線
 62
     0
440
 16777216
100
AcDbMText
 10
2302.499971959402
 20
1331.249994377503
 30
0.0
 40
25.0
 41
0.0
 46
0.0
 71
     5
 72
     1
  1
\A1;500
 11
0.9999999999999998
 21
-0.000000022489985
 31
0.0
 73
     1
 44
1.0
  0
POINT
  5
13E9D
330
12F01
100
AcDbEntity
  8
Defpoints
 62
     0
440
 16777216
100
AcDbPoint
 10
2552.50000661196
 20
1469.999968964709
 30
0.0
  0
POINT
  5
13E9E
330
12F01
100
AcDbEntity
  8
Defpoints
 62
     0
440
 16777216
100
AcDbPoint
 10
2052.499936575697
 20
1460.000038922456
 30
0.0
  0
POINT
  5
13E9F
330
12F01
100
AcDbEntity
  8
Defpoints
 62
     0
440
 16777216
100
AcDbPoint
 10
2052.499933202199
 20
1310.0
 30
0.0
  0
ENDBLK
  5
12F03
330
12F01
100
AcDbEntity
  8
0
100
AcDbBlockEnd
  0
BLOCK
  5
12F0E
330
12F0D
100
AcDbEntity
  8
0
100
AcDbBlockBegin
  2
*D16
 70
     1
 10
0.0
 20
0.0
 30
0.0
  3
*D16
  1

  0
LINE
  5
13EA0
330
12F0D
100
AcDbEntity
  8
寸法線
 62
     0
440
 16777216
370
    -2
100
AcDbLine
 10
2561.249971483611
 20
2364.000056194722
 30
0.0
 11
2682.499991296718
 21
2364.000056194722
 31
0.0
  0
LINE
  5
13EA1
330
12F0D
100
AcDbEntity
  8
寸法線
 62
     0
440
 16777216
370
    -2
100
AcDbLine
 10
2561.249971483611
 20
2075.999981755368
 30
0.0
 11
2682.499991296718
 21
2075.999981755368
 31
0.0
  0
LINE
  5
13EA2
330
12F0D
100
AcDbEntity
  8
寸法線
 62
     0
440
 16777216
370
    -2
100
AcDbLine
 10
2672.499991296718
 20
2344.000056194722
 30
0.0
 11
2672.499991296718
 21
2095.999981755368
 31
0.0
  0
INSERT
  5
13EA3
330
12F0D
100
AcDbEntity
  8
寸法線
 62
     0
440
 16777216
370
    -2
100
AcDbBlockReference
  2
_OPEN
 10
2672.499991296718
 20
2364.000056194722
 30
0.0
 41
20.0
 42
20.0
 43
20.0
 50
90.0
  0
INSERT
  5
13EA4
330
12F0D
100
AcDbEntity
  8
寸法線
 62
     0
440
 16777216
370
    -2
100
AcDbBlockReference
  2
_OPEN
 10
2672.499991296718
 20
2075.999981755368
 30
0.0
 41
20.0
 42
20.0
 43
20.0
 50
270.0
  0
MTEXT
  5
13EA5
330
12F0D
100
AcDbEntity
  8
寸法線
 62
     0
440
 16777216
100
AcDbMText
 10
2651.247530666797
 20
2220.000018975044
 30
0.0
 40
25.0
 41
0.0
 46
0.0
 71
     5
 72
     1
  1
\A1;288
 11
0.0000000000000001
 21
1.0
 31
0.0
 73
     1
 44
1.0
  0
POINT
  5
13EA6
330
12F0D
100
AcDbEntity
  8
Defpoints
 62
     0
440
 16777216
100
AcDbPoint
 10
2552.499971483611
 20
2364.000056194722
 30
0.0
  0
POINT
  5
13EA7
330
12F0D
100
AcDbEntity
  8
Defpoints
 62
     0
440
 16777216
100
AcDbPoint
 10
2552.499971483611
 20
2075.999981755368
 30
0.0
  0
POINT
  5
13EA8
330
12F0D
100
AcDbEntity
  8
Defpoints
 62
     0
440
 16777216
100
AcDbPoint
 10
2672.499991296718
 20
2075.999981755368
 30
0.0
  0
ENDBLK
  5
12F0F
330
12F0D
100
AcDbEntity
  8
0
100
AcDbBlockEnd
  0
BLOCK
  5
12F1A
330
12F19
100
AcDbEntity
  8
0
100
AcDbBlockBegin
  2
*D17
 70
     1
 10
0.0
 20
0.0
 30
0.0
  3
*D17
  1

  0
LINE
  5
13EA9
330
12F19
100
AcDbEntity
  8
寸法線
 62
     0
440
 16777216
370
    -2
100
AcDbLine
 10
3247.499991296718
 20
2061.250018975044
 30
0.0
 11
3247.499991296718
 21
1939.999999161934
 31
0.0
  0
LINE
  5
13EAA
330
12F19
100
AcDbEntity
  8
寸法線
 62
     0
440
 16777216
370
    -2
100
AcDbLine
 10
2947.499991296718
 20
2061.250018975044
 30
0.0
 11
2947.499991296718
 21
1939.999999161934
 31
0.0
  0
LINE
  5
13EAB
330
12F19
100
AcDbEntity
  8
寸法線
 62
     0
440
 16777216
370
    -2
100
AcDbLine
 10
3227.499991296717
 20
1949.999999161934
 30
0.0
 11
2967.499991296718
 21
1949.999999161934
 31
0.0
  0
INSERT
  5
13EAC
330
12F19
100
AcDbEntity
  8
寸法線
 62
     0
440
 16777216
370
    -2
100
AcDbBlockReference
  2
_OPEN
 10
3247.499991296718
 20
1949.999999161934
 30
0.0
 41
20.0
 42
20.0
 43
20.0
  0
INSERT
  5
13EAD
330
12F19
100
AcDbEntity
  8
寸法線
 62
     0
440
 16777216
370
    -2
100
AcDbBlockReference
  2
_OPEN
 10
2947.499991296718
 20
1949.999999161934
 30
0.0
 41
20.0
 42
20.0
 43
20.0
 50
180.0
  0
MTEXT
  5
13EAE
330
12F19
100
AcDbEntity
  8
寸法線
 62
     0
440
 16777216
100
AcDbMText
 10
3097.499991296718
 20
1971.249999161934
 30
0.0
 40
25.0
 41
0.0
 46
0.0
 71
     5
 72
     1
  1
\A1;300
 73
     1
 44
1.0
  0
POINT
  5
13EAF
330
12F19
100
AcDbEntity
  8
Defpoints
 62
     0
440
 16777216
100
AcDbPoint
 10
3247.499991296718
 20
2070.000018975044
 30
0.0
  0
POINT
  5
13EB0
330
12F19
100
AcDbEntity
  8
Defpoints
 62
     0
440
 16777216
100
AcDbPoint
 10
2947.499991296718
 20
2070.000018975044
 30
0.0
  0
POINT
  5
13EB1
330
12F19
100
AcDbEntity
  8
Defpoints
 62
     0
440
 16777216
100
AcDbPoint
 10
2947.499991296718
 20
1949.999999161934
 30
0.0
  0
ENDBLK
  5
12F1B
330
12F19
100
AcDbEntity
  8
0
100
AcDbBlockEnd
  0
BLOCK
  5
12F26
330
12F25
100
AcDbEntity
  8
0
100
AcDbBlockBegin
  2
*D18
 70
     1
 10
0.0
 20
0.0
 30
0.0
  3
*D18
  1

  0
LINE
  5
13EB2
330
12F25
100
AcDbEntity
  8
寸法線
 62
     0
440
 16777216
370
    -2
100
AcDbLine
 10
2938.749991296719
 20
2370.000018975044
 30
0.0
 11
2817.499991296718
 21
2370.000018975044
 31
0.0
  0
LINE
  5
13EB3
330
12F25
100
AcDbEntity
  8
寸法線
 62
     0
440
 16777216
370
    -2
100
AcDbLine
 10
2938.749991296719
 20
2070.000018975045
 30
0.0
 11
2817.499991296718
 21
2070.000018975045
 31
0.0
  0
LINE
  5
13EB4
330
12F25
100
AcDbEntity
  8
寸法線
 62
     0
440
 16777216
370
    -2
100
AcDbLine
 10
2827.499991296718
 20
2350.000018975045
 30
0.0
 11
2827.499991296718
 21
2090.000018975045
 31
0.0
  0
INSERT
  5
13EB5
330
12F25
100
AcDbEntity
  8
寸法線
 62
     0
440
 16777216
370
    -2
100
AcDbBlockReference
  2
_OPEN
 10
2827.499991296718
 20
2370.000018975044
 30
0.0
 41
20.0
 42
20.0
 43
20.0
 50
90.0
  0
INSERT
  5
13EB6
330
12F25
100
AcDbEntity
  8
寸法線
 62
     0
440
 16777216
370
    -2
100
AcDbBlockReference
  2
_OPEN
 10
2827.499991296718
 20
2070.000018975045
 30
0.0
 41
20.0
 42
20.0
 43
20.0
 50
270.0
  0
MTEXT
  5
13EB7
330
12F25
100
AcDbEntity
  8
寸法線
 62
     0
440
 16777216
100
AcDbMText
 10
2806.249991296718
 20
2220.000018975044
 30
0.0
 40
25.0
 41
0.0
 46
0.0
 71
     5
 72
     1
  1
\A1;300
 11
0.0000000000000001
 21
1.0
 31
0.0
 73
     1
 44
1.0
  0
POINT
  5
13EB8
330
12F25
100
AcDbEntity
  8
Defpoints
 62
     0
440
 16777216
100
AcDbPoint
 10
2947.499991296719
 20
2370.000018975044
 30
0.0
  0
POINT
  5
13EB9
330
12F25
100
AcDbEntity
  8
Defpoints
 62
     0
440
 16777216
100
AcDbPoint
 10
2947.499991296719
 20
2070.000018975045
 30
0.0
  0
POINT
  5
13EBA
330
12F25
100
AcDbEntity
  8
Defpoints
 62
     0
440
 16777216
100
AcDbPoint
 10
2827.499991296718
 20
2070.000018975045
 30
0.0
  0
ENDBLK
  5
12F27
330
12F25
100
AcDbEntity
  8
0
100
AcDbBlockEnd
  0
BLOCK
  5
12F32
330
12F31
100
AcDbEntity
  8
0
100
AcDbBlockBegin
  2
*D19
 70
     1
 10
0.0
 20
0.0
 30
0.0
  3
*D19
  1

  0
LINE
  5
13EDC
330
12F31
100
AcDbEntity
  8
寸法線
 62
     0
440
 16777216
370
    -2
100
AcDbLine
 10
2552.500011296659
 20
2372.750037219683
 30
0.0
 11
2552.500011296659
 21
2620.000000000003
 31
0.0
  0
LINE
  5
13EDD
330
12F31
100
AcDbEntity
  8
寸法線
 62
     0
440
 16777216
370
    -2
100
AcDbLine
 10
2052.499991390134
 20
2388.750019850007
 30
0.0
 11
2052.499991390134
 21
2620.000000000003
 31
0.0
  0
LINE
  5
13EDE
330
12F31
100
AcDbEntity
  8
寸法線
 62
     0
440
 16777216
370
    -2
100
AcDbLine
 10
2532.500011296659
 20
2610.000000000003
 30
0.0
 11
2072.499991390134
 21
2610.000000000003
 31
0.0
  0
INSERT
  5
13EDF
330
12F31
100
AcDbEntity
  8
寸法線
 62
     0
440
 16777216
370
    -2
100
AcDbBlockReference
  2
_OPEN
 10
2552.500011296659
 20
2610.000000000003
 30
0.0
 41
20.0
 42
20.0
 43
20.0
  0
INSERT
  5
13EE0
330
12F31
100
AcDbEntity
  8
寸法線
 62
     0
440
 16777216
370
    -2
100
AcDbBlockReference
  2
_OPEN
 10
2052.499991390134
 20
2610.000000000003
 30
0.0
 41
20.0
 42
20.0
 43
20.0
 50
180.0
  0
MTEXT
  5
13EE1
330
12F31
100
AcDbEntity
  8
寸法線
 62
     0
440
 16777216
100
AcDbMText
 10
2302.499993842701
 20
2631.250000000003
 30
0.0
 40
25.0
 41
0.0
 46
0.0
 71
     5
 72
     1
  1
\A1;500
 73
     1
 44
1.0
  0
MTEXT
  5
13EE2
330
12F31
100
AcDbEntity
  8
寸法線
 62
     0
440
 16777216
100
AcDbMText
 10
2302.499993842701
 20
2588.750000000003
 30
0.0
 40
25.0
 41
0.0
 46
0.0
 71
     5
 72
     1
  1
\A1;H型鋼（連結部）
 73
     1
 44
1.0
  0
POINT
  5
13EE3
330
12F31
100
AcDbEntity
  8
Defpoints
 62
     0
440
 16777216
100
AcDbPoint
 10
2552.500011296659
 20
2364.000037219682
 30
0.0
  0
POINT
  5
13EE4
330
12F31
100
AcDbEntity
  8
Defpoints
 62
     0
440
 16777216
100
AcDbPoint
 10
2052.499991390134
 20
2380.000019850007
 30
0.0
  0
POINT
  5
13EE5
330
12F31
100
AcDbEntity
  8
Defpoints
 62
     0
440
 16777216
100
AcDbPoint
 10
2052.499991390134
 20
2610.000000000003
 30
0.0
  0
ENDBLK
  5
12F33
330
12F31
100
AcDbEntity
  8
0
100
AcDbBlockEnd
  0
BLOCK
  5
13B4B
330
13B4A
100
AcDbEntity
  8
0
100
AcDbBlockBegin
  2
*D20
 70
     1
 10
0.0
 20
0.0
 30
0.0
  3
*D20
  1

  0
LINE
  5
13C66
330
13B4A
100
AcDbEntity
  8
寸法線
 62
     0
440
 16777216
370
    -2
100
AcDbLine
 10
499.9999999999995
 20
581.2500000000019
 30
0.0
 11
499.9999999999995
 21
489.9999817553635
 31
0.0
  0
LINE
  5
13C67
330
13B4A
100
AcDbEntity
  8
寸法線
 62
     0
440
 16777216
370
    -2
100
AcDbLine
 10
819.9999999999995
 20
581.2500000000019
 30
0.0
 11
819.9999999999995
 21
489.9999817553635
 31
0.0
  0
LINE
  5
13C68
330
13B4A
100
AcDbEntity
  8
寸法線
 62
     0
440
 16777216
370
    -2
100
AcDbLine
 10
519.9999999999995
 20
499.9999817553636
 30
0.0
 11
799.9999999999995
 21
499.9999817553636
 31
0.0
  0
INSERT
  5
13C69
330
13B4A
100
AcDbEntity
  8
寸法線
 62
     0
440
 16777216
370
    -2
100
AcDbBlockReference
  2
_OPEN
 10
499.9999999999995
 20
499.9999817553636
 30
0.0
 41
20.0
 42
20.0
 43
20.0
 50
180.0
  0
INSERT
  5
13C6A
330
13B4A
100
AcDbEntity
  8
寸法線
 62
     0
440
 16777216
370
    -2
100
AcDbBlockReference
  2
_OPEN
 10
819.9999999999995
 20
499.9999817553636
 30
0.0
 41
20.0
 42
20.0
 43
20.0
  0
MTEXT
  5
13C6B
330
13B4A
100
AcDbEntity
  8
寸法線
 62
     0
440
 16777216
100
AcDbMText
 10
659.9999999999995
 20
521.2524423852848
 30
0.0
 40
25.0
 41
0.0
 46
0.0
 71
     5
 72
     1
  1
\A1;320
 73
     1
 44
1.0
  0
POINT
  5
13C6C
330
13B4A
100
AcDbEntity
  8
Defpoints
 62
     0
440
 16777216
100
AcDbPoint
 10
499.9999999999995
 20
590.0000000000019
 30
0.0
  0
POINT
  5
13C6D
330
13B4A
100
AcDbEntity
  8
Defpoints
 62
     0
440
 16777216
100
AcDbPoint
 10
819.9999999999995
 20
590.0000000000019
 30
0.0
  0
POINT
  5
13C6E
330
13B4A
100
AcDbEntity
  8
Defpoints
 62
     0
440
 16777216
100
AcDbPoint
 10
819.9999999999995
 20
499.9999817553636
 30
0.0
  0
ENDBLK
  5
13B4C
330
13B4A
100
AcDbEntity
  8
0
100
AcDbBlockEnd
  0
BLOCK
  5
13B57
330
13B56
100
AcDbEntity
  8
0
100
AcDbBlockBegin
  2
*D21
 70
     1
 10
0.0
 20
0.0
 30
0.0
  3
*D21
  1

  0
LINE
  5
13C6F
330
13B56
100
AcDbEntity
  8
寸法線
 62
     0
440
 16777216
370
    -2
100
AcDbLine
 10
491.2499951795905
 20
590.0000000000021
 30
0.0
 11
399.9999975897949
 21
590.0000000000021
 31
0.0
  0
LINE
  5
13C70
330
13B56
100
AcDbEntity
  8
寸法線
 62
     0
440
 16777216
370
    -2
100
AcDbLine
 10
491.2499951795905
 20
910.0000000000024
 30
0.0
 11
399.9999975897948
 21
910.0000000000024
 31
0.0
  0
LINE
  5
13C71
330
13B56
100
AcDbEntity
  8
寸法線
 62
     0
440
 16777216
370
    -2
100
AcDbLine
 10
409.9999975897948
 20
610.0000000000021
 30
0.0
 11
409.9999975897948
 21
890.0000000000023
 31
0.0
  0
INSERT
  5
13C72
330
13B56
100
AcDbEntity
  8
寸法線
 62
     0
440
 16777216
370
    -2
100
AcDbBlockReference
  2
_OPEN
 10
409.9999975897948
 20
590.0000000000021
 30
0.0
 41
20.0
 42
20.0
 43
20.0
 50
270.0
  0
INSERT
  5
13C73
330
13B56
100
AcDbEntity
  8
寸法線
 62
     0
440
 16777216
370
    -2
100
AcDbBlockReference
  2
_OPEN
 10
409.9999975897947
 20
910.0000000000024
 30
0.0
 41
20.0
 42
20.0
 43
20.0
 50
90.0
  0
MTEXT
  5
13C74
330
13B56
100
AcDbEntity
  8
寸法線
 62
     0
440
 16777216
100
AcDbMText
 10
388.7475369598737
 20
750.0000000000019
 30
0.0
 40
25.0
 41
0.0
 46
0.0
 71
     5
 72
     1
  1
\A1;320
 11
0.0000000000000001
 21
1.0
 31
0.0
 73
     1
 44
1.0
  0
POINT
  5
13C75
330
13B56
100
AcDbEntity
  8
Defpoints
 62
     0
440
 16777216
100
AcDbPoint
 10
499.9999951795905
 20
590.0000000000021
 30
0.0
  0
POINT
  5
13C76
330
13B56
100
AcDbEntity
  8
Defpoints
 62
     0
440
 16777216
100
AcDbPoint
 10
499.9999951795905
 20
910.0000000000024
 30
0.0
  0
POINT
  5
13C77
330
13B56
100
AcDbEntity
  8
Defpoints
 62
     0
440
 16777216
100
AcDbPoint
 10
409.9999975897947
 20
910.0000000000024
 30
0.0
  0
ENDBLK
  5
13B58
330
13B56
100
AcDbEntity
  8
0
100
AcDbBlockEnd
  0
BLOCK
  5
13B63
330
13B62
100
AcDbEntity
  8
0
100
AcDbBlockBegin
  2
*D22
 70
     1
 10
0.0
 20
0.0
 30
0.0
  3
*D22
  1

  0
LINE
  5
13C78
330
13B62
100
AcDbEntity
  8
寸法線
 62
     0
440
 16777216
370
    -2
100
AcDbLine
 10
985.9999999999995
 20
581.2500182446402
 30
0.0
 11
985.9999999999995
 21
460.0000000000019
 31
0.0
  0
LINE
  5
13C79
330
13B62
100
AcDbEntity
  8
寸法線
 62
     0
440
 16777216
370
    -2
100
AcDbLine
 10
1017.999999999999
 20
591.2500000000019
 30
0.0
 11
1017.999999999999
 21
460.0000000000019
 31
0.0
  0
LINE
  5
13C7A
330
13B62
100
AcDbEntity
  8
寸法線
 62
     0
440
 16777216
370
    -2
100
AcDbLine
 10
965.9999999999994
 20
470.0000000000019
 30
0.0
 11
945.9999999999995
 21
470.0000000000019
 31
0.0
  0
LINE
  5
13C7B
330
13B62
100
AcDbEntity
  8
寸法線
 62
     0
440
 16777216
370
    -2
100
AcDbLine
 10
1037.999999999999
 20
470.0000000000019
 30
0.0
 11
1057.999999999999
 21
470.0000000000019
 31
0.0
  0
LINE
  5
13C7C
330
13B62
100
AcDbEntity
  8
寸法線
 62
     0
440
 16777216
370
    -2
100
AcDbLine
 10
985.9999999999995
 20
470.0000000000019
 30
0.0
 11
1017.999999999999
 21
470.0000000000019
 31
0.0
  0
INSERT
  5
13C7D
330
13B62
100
AcDbEntity
  8
寸法線
 62
     0
440
 16777216
370
    -2
100
AcDbBlockReference
  2
_OPEN
 10
985.9999999999995
 20
470.0000000000019
 30
0.0
 41
20.0
 42
20.0
 43
20.0
  0
INSERT
  5
13C7E
330
13B62
100
AcDbEntity
  8
寸法線
 62
     0
440
 16777216
370
    -2
100
AcDbBlockReference
  2
_OPEN
 10
1017.999999999999
 20
470.0000000000019
 30
0.0
 41
20.0
 42
20.0
 43
20.0
 50
180.0
  0
MTEXT
  5
13C7F
330
13B62
100
AcDbEntity
  8
寸法線
 62
     0
440
 16777216
100
AcDbMText
 10
1001.999999999999
 20
491.2524606299231
 30
0.0
 40
25.0
 41
0.0
 46
0.0
 71
     5
 72
     1
  1
\A1;32
 73
     1
 44
1.0
  0
POINT
  5
13C80
330
13B62
100
AcDbEntity
  8
Defpoints
 62
     0
440
 16777216
100
AcDbPoint
 10
985.9999999999995
 20
590.0000182446403
 30
0.0
  0
POINT
  5
13C81
330
13B62
100
AcDbEntity
  8
Defpoints
 62
     0
440
 16777216
100
AcDbPoint
 10
1017.999999999999
 20
600.0000000000019
 30
0.0
  0
POINT
  5
13C82
330
13B62
100
AcDbEntity
  8
Defpoints
 62
     0
440
 16777216
100
AcDbPoint
 10
1017.999999999999
 20
470.0000000000019
 30
0.0
  0
ENDBLK
  5
13B64
330
13B62
100
AcDbEntity
  8
0
100
AcDbBlockEnd
  0
BLOCK
  5
13B71
330
13B70
100
AcDbEntity
  8
0
100
AcDbBlockBegin
  2
*D23
 70
     1
 10
0.0
 20
0.0
 30
0.0
  3
*D23
  1

  0
LINE
  5
13C83
330
13B70
100
AcDbEntity
  8
寸法線
 62
     0
440
 16777216
370
    -2
100
AcDbLine
 10
1017.999999999999
 20
591.2500000000019
 30
0.0
 11
1017.999999999999
 21
460.0000000000019
 31
0.0
  0
LINE
  5
13C84
330
13B70
100
AcDbEntity
  8
寸法線
 62
     0
440
 16777216
370
    -2
100
AcDbLine
 10
1521.999999999999
 20
591.2500000000019
 30
0.0
 11
1521.999999999999
 21
460.0000000000019
 31
0.0
  0
LINE
  5
13C85
330
13B70
100
AcDbEntity
  8
寸法線
 62
     0
440
 16777216
370
    -2
100
AcDbLine
 10
1037.999999999999
 20
470.0000000000019
 30
0.0
 11
1501.999999999999
 21
470.0000000000019
 31
0.0
  0
INSERT
  5
13C86
330
13B70
100
AcDbEntity
  8
寸法線
 62
     0
440
 16777216
370
    -2
100
AcDbBlockReference
  2
_OPEN
 10
1017.999999999999
 20
470.0000000000019
 30
0.0
 41
20.0
 42
20.0
 43
20.0
 50
180.0
  0
INSERT
  5
13C87
330
13B70
100
AcDbEntity
  8
寸法線
 62
     0
440
 16777216
370
    -2
100
AcDbBlockReference
  2
_OPEN
 10
1521.999999999999
 20
470.0000000000019
 30
0.0
 41
20.0
 42
20.0
 43
20.0
  0
MTEXT
  5
13C88
330
13B70
100
AcDbEntity
  8
寸法線
 62
     0
440
 16777216
100
AcDbMText
 10
1269.999999999999
 20
491.2500000000019
 30
0.0
 40
25.0
 41
0.0
 46
0.0
 71
     5
 72
     1
  1
\A1;504
 73
     1
 44
1.0
  0
POINT
  5
13C89
330
13B70
100
AcDbEntity
  8
Defpoints
 62
     0
440
 16777216
100
AcDbPoint
 10
1017.999999999999
 20
600.0000000000019
 30
0.0
  0
POINT
  5
13C8A
330
13B70
100
AcDbEntity
  8
Defpoints
 62
     0
440
 16777216
100
AcDbPoint
 10
1521.999999999999
 20
600.0000000000019
 30
0.0
  0
POINT
  5
13C8B
330
13B70
100
AcDbEntity
  8
Defpoints
 62
     0
440
 16777216
100
AcDbPoint
 10
1521.999999999999
 20
470.0000000000019
 30
0.0
  0
ENDBLK
  5
13B72
330
13B70
100
AcDbEntity
  8
0
100
AcDbBlockEnd
  0
BLOCK
  5
13B7D
330
13B7C
100
AcDbEntity
  8
0
100
AcDbBlockBegin
  2
*D24
 70
     1
 10
0.0
 20
0.0
 30
0.0
  3
*D24
  1

  0
LINE
  5
13C8C
330
13B7C
100
AcDbEntity
  8
寸法線
 62
     0
440
 16777216
370
    -2
100
AcDbLine
 10
1521.999999999999
 20
591.2500000000019
 30
0.0
 11
1521.999999999999
 21
460.0000000000019
 31
0.0
  0
LINE
  5
13C8D
330
13B7C
100
AcDbEntity
  8
寸法線
 62
     0
440
 16777216
370
    -2
100
AcDbLine
 10
1553.999999999999
 20
581.2500182446402
 30
0.0
 11
1553.999999999999
 21
460.0000000000019
 31
0.0
  0
LINE
  5
13C8E
330
13B7C
100
AcDbEntity
  8
寸法線
 62
     0
440
 16777216
370
    -2
100
AcDbLine
 10
1501.999999999999
 20
470.0000000000019
 30
0.0
 11
1481.999999999999
 21
470.0000000000019
 31
0.0
  0
LINE
  5
13C8F
330
13B7C
100
AcDbEntity
  8
寸法線
 62
     0
440
 16777216
370
    -2
100
AcDbLine
 10
1574.0
 20
470.0000000000019
 30
0.0
 11
1593.999999999999
 21
470.0000000000019
 31
0.0
  0
LINE
  5
13C90
330
13B7C
100
AcDbEntity
  8
寸法線
 62
     0
440
 16777216
370
    -2
100
AcDbLine
 10
1521.999999999999
 20
470.0000000000019
 30
0.0
 11
1553.999999999999
 21
470.0000000000019
 31
0.0
  0
INSERT
  5
13C91
330
13B7C
100
AcDbEntity
  8
寸法線
 62
     0
440
 16777216
370
    -2
100
AcDbBlockReference
  2
_OPEN
 10
1521.999999999999
 20
470.0000000000019
 30
0.0
 41
20.0
 42
20.0
 43
20.0
  0
INSERT
  5
13C92
330
13B7C
100
AcDbEntity
  8
寸法線
 62
     0
440
 16777216
370
    -2
100
AcDbBlockReference
  2
_OPEN
 10
1553.999999999999
 20
470.0000000000019
 30
0.0
 41
20.0
 42
20.0
 43
20.0
 50
180.0
  0
MTEXT
  5
13C93
330
13B7C
100
AcDbEntity
  8
寸法線
 62
     0
440
 16777216
100
AcDbMText
 10
1537.999999999999
 20
491.2524606299231
 30
0.0
 40
25.0
 41
0.0
 46
0.0
 71
     5
 72
     1
  1
\A1;32
 73
     1
 44
1.0
  0
POINT
  5
13C94
330
13B7C
100
AcDbEntity
  8
Defpoints
 62
     0
440
 16777216
100
AcDbPoint
 10
1521.999999999999
 20
600.0000000000019
 30
0.0
  0
POINT
  5
13C95
330
13B7C
100
AcDbEntity
  8
Defpoints
 62
     0
440
 16777216
100
AcDbPoint
 10
1553.999999999999
 20
590.0000182446403
 30
0.0
  0
POINT
  5
13C96
330
13B7C
100
AcDbEntity
  8
Defpoints
 62
     0
440
 16777216
100
AcDbPoint
 10
1553.999999999999
 20
470.0000000000019
 30
0.0
  0
ENDBLK
  5
13B7E
330
13B7C
100
AcDbEntity
  8
0
100
AcDbBlockEnd
  0
BLOCK
  5
13B8B
330
13B8A
100
AcDbEntity
  8
0
100
AcDbBlockBegin
  2
*D25
 70
     1
 10
0.0
 20
0.0
 30
0.0
  3
*D25
  1

  0
LINE
  5
13C97
330
13B8A
100
AcDbEntity
  8
寸法線
 62
     0
440
 16777216
370
    -2
100
AcDbLine
 10
969.9999999999995
 20
581.2500182446402
 30
0.0
 11
969.9999999999995
 21
400.0000000000019
 31
0.0
  0
LINE
  5
13C98
330
13B8A
100
AcDbEntity
  8
寸法線
 62
     0
440
 16777216
370
    -2
100
AcDbLine
 10
985.9999999999995
 20
581.2500000000019
 30
0.0
 11
985.9999999999995
 21
400.0000000000019
 31
0.0
  0
LINE
  5
13C99
330
13B8A
100
AcDbEntity
  8
寸法線
 62
     0
440
 16777216
370
    -2
100
AcDbLine
 10
949.9999999999996
 20
410.0000000000019
 30
0.0
 11
929.9999999999995
 21
410.0000000000019
 31
0.0
  0
LINE
  5
13C9A
330
13B8A
100
AcDbEntity
  8
寸法線
 62
     0
440
 16777216
370
    -2
100
AcDbLine
 10
1005.999999999999
 20
410.0000000000019
 30
0.0
 11
1025.999999999999
 21
410.0000000000019
 31
0.0
  0
LINE
  5
13C9B
330
13B8A
100
AcDbEntity
  8
寸法線
 62
     0
440
 16777216
370
    -2
100
AcDbLine
 10
969.9999999999995
 20
410.0000000000019
 30
0.0
 11
985.9999999999995
 21
410.0000000000019
 31
0.0
  0
INSERT
  5
13C9C
330
13B8A
100
AcDbEntity
  8
寸法線
 62
     0
440
 16777216
370
    -2
100
AcDbBlockReference
  2
_OPEN
 10
969.9999999999995
 20
410.0000000000019
 30
0.0
 41
20.0
 42
20.0
 43
20.0
  0
INSERT
  5
13C9D
330
13B8A
100
AcDbEntity
  8
寸法線
 62
     0
440
 16777216
370
    -2
100
AcDbBlockReference
  2
_OPEN
 10
985.9999999999995
 20
410.0000000000019
 30
0.0
 41
20.0
 42
20.0
 43
20.0
 50
180.0
  0
MTEXT
  5
13C9E
330
13B8A
100
AcDbEntity
  8
寸法線
 62
     0
440
 16777216
100
AcDbMText
 10
977.9999999999995
 20
431.2500000000019
 30
0.0
 40
25.0
 41
0.0
 46
0.0
 71
     5
 72
     1
  1
\A1;16
 73
     1
 44
1.0
  0
POINT
  5
13C9F
330
13B8A
100
AcDbEntity
  8
Defpoints
 62
     0
440
 16777216
100
AcDbPoint
 10
969.9999999999995
 20
590.0000182446403
 30
0.0
  0
POINT
  5
13CA0
330
13B8A
100
AcDbEntity
  8
Defpoints
 62
     0
440
 16777216
100
AcDbPoint
 10
985.9999999999995
 20
590.0000000000019
 30
0.0
  0
POINT
  5
13CA1
330
13B8A
100
AcDbEntity
  8
Defpoints
 62
     0
440
 16777216
100
AcDbPoint
 10
985.9999999999995
 20
410.0000000000019
 30
0.0
  0
ENDBLK
  5
13B8C
330
13B8A
100
AcDbEntity
  8
0
100
AcDbBlockEnd
  0
BLOCK
  5
13B99
330
13B98
100
AcDbEntity
  8
0
100
AcDbBlockBegin
  2
*D26
 70
     1
 10
0.0
 20
0.0
 30
0.0
  3
*D26
  1

  0
LINE
  5
13CA2
330
13B98
100
AcDbEntity
  8
寸法線
 62
     0
440
 16777216
370
    -2
100
AcDbLine
 10
985.9999999999995
 20
581.2500000000019
 30
0.0
 11
985.9999999999995
 21
400.0000000000019
 31
0.0
  0
LINE
  5
13CA3
330
13B98
100
AcDbEntity
  8
寸法線
 62
     0
440
 16777216
370
    -2
100
AcDbLine
 10
1553.999999999999
 20
581.2500182446402
 30
0.0
 11
1553.999999999999
 21
400.0000000000019
 31
0.0
  0
LINE
  5
13CA4
330
13B98
100
AcDbEntity
  8
寸法線
 62
     0
440
 16777216
370
    -2
100
AcDbLine
 10
1005.999999999999
 20
410.0000000000019
 30
0.0
 11
1533.999999999999
 21
410.0000000000019
 31
0.0
  0
INSERT
  5
13CA5
330
13B98
100
AcDbEntity
  8
寸法線
 62
     0
440
 16777216
370
    -2
100
AcDbBlockReference
  2
_OPEN
 10
985.9999999999995
 20
410.0000000000019
 30
0.0
 41
20.0
 42
20.0
 43
20.0
 50
180.0
  0
INSERT
  5
13CA6
330
13B98
100
AcDbEntity
  8
寸法線
 62
     0
440
 16777216
370
    -2
100
AcDbBlockReference
  2
_OPEN
 10
1553.999999999999
 20
410.0000000000019
 30
0.0
 41
20.0
 42
20.0
 43
20.0
  0
MTEXT
  5
13CA7
330
13B98
100
AcDbEntity
  8
寸法線
 62
     0
440
 16777216
100
AcDbMText
 10
1269.999999999999
 20
431.2500000000019
 30
0.0
 40
25.0
 41
0.0
 46
0.0
 71
     5
 72
     1
  1
\A1;568
 73
     1
 44
1.0
  0
POINT
  5
13CA8
330
13B98
100
AcDbEntity
  8
Defpoints
 62
     0
440
 16777216
100
AcDbPoint
 10
985.9999999999995
 20
590.0000000000019
 30
0.0
  0
POINT
  5
13CA9
330
13B98
100
AcDbEntity
  8
Defpoints
 62
     0
440
 16777216
100
AcDbPoint
 10
1553.999999999999
 20
590.0000182446403
 30
0.0
  0
POINT
  5
13CAA
330
13B98
100
AcDbEntity
  8
Defpoints
 62
     0
440
 16777216
100
AcDbPoint
 10
1553.999999999999
 20
410.0000000000019
 30
0.0
  0
ENDBLK
  5
13B9A
330
13B98
100
AcDbEntity
  8
0
100
AcDbBlockEnd
  0
BLOCK
  5
13BA5
330
13BA4
100
AcDbEntity
  8
0
100
AcDbBlockBegin
  2
*D27
 70
     1
 10
0.0
 20
0.0
 30
0.0
  3
*D27
  1

  0
LINE
  5
13CAB
330
13BA4
100
AcDbEntity
  8
寸法線
 62
     0
440
 16777216
370
    -2
100
AcDbLine
 10
1553.999999999999
 20
581.2500182446402
 30
0.0
 11
1553.999999999999
 21
400.0000000000019
 31
0.0
  0
LINE
  5
13CAC
330
13BA4
100
AcDbEntity
  8
寸法線
 62
     0
440
 16777216
370
    -2
100
AcDbLine
 10
1569.999999999999
 20
581.2500000000019
 30
0.0
 11
1569.999999999999
 21
400.0000000000019
 31
0.0
  0
LINE
  5
13CAD
330
13BA4
100
AcDbEntity
  8
寸法線
 62
     0
440
 16777216
370
    -2
100
AcDbLine
 10
1533.999999999999
 20
410.0000000000019
 30
0.0
 11
1513.999999999999
 21
410.0000000000019
 31
0.0
  0
LINE
  5
13CAE
330
13BA4
100
AcDbEntity
  8
寸法線
 62
     0
440
 16777216
370
    -2
100
AcDbLine
 10
1589.999999999999
 20
410.0000000000019
 30
0.0
 11
1609.999999999999
 21
410.0000000000019
 31
0.0
  0
LINE
  5
13CAF
330
13BA4
100
AcDbEntity
  8
寸法線
 62
     0
440
 16777216
370
    -2
100
AcDbLine
 10
1553.999999999999
 20
410.0000000000019
 30
0.0
 11
1569.999999999999
 21
410.0000000000019
 31
0.0
  0
INSERT
  5
13CB0
330
13BA4
100
AcDbEntity
  8
寸法線
 62
     0
440
 16777216
370
    -2
100
AcDbBlockReference
  2
_OPEN
 10
1553.999999999999
 20
410.0000000000019
 30
0.0
 41
20.0
 42
20.0
 43
20.0
  0
INSERT
  5
13CB1
330
13BA4
100
AcDbEntity
  8
寸法線
 62
     0
440
 16777216
370
    -2
100
AcDbBlockReference
  2
_OPEN
 10
1569.999999999999
 20
410.0000000000019
 30
0.0
 41
20.0
 42
20.0
 43
20.0
 50
180.0
  0
MTEXT
  5
13CB2
330
13BA4
100
AcDbEntity
  8
寸法線
 62
     0
440
 16777216
100
AcDbMText
 10
1561.999999999999
 20
431.2500000000019
 30
0.0
 40
25.0
 41
0.0
 46
0.0
 71
     5
 72
     1
  1
\A1;16
 73
     1
 44
1.0
  0
POINT
  5
13CB3
330
13BA4
100
AcDbEntity
  8
Defpoints
 62
     0
440
 16777216
100
AcDbPoint
 10
1553.999999999999
 20
590.0000182446403
 30
0.0
  0
POINT
  5
13CB4
330
13BA4
100
AcDbEntity
  8
Defpoints
 62
     0
440
 16777216
100
AcDbPoint
 10
1569.999999999999
 20
590.0000000000019
 30
0.0
  0
POINT
  5
13CB5
330
13BA4
100
AcDbEntity
  8
Defpoints
 62
     0
440
 16777216
100
AcDbPoint
 10
1569.999999999999
 20
410.0000000000019
 30
0.0
  0
ENDBLK
  5
13BA6
330
13BA4
100
AcDbEntity
  8
0
100
AcDbBlockEnd
  0
BLOCK
  5
13BB3
330
13BB2
100
AcDbEntity
  8
0
100
AcDbBlockBegin
  2
*D28
 70
     1
 10
0.0
 20
0.0
 30
0.0
  3
*D28
  1

  0
LINE
  5
13CB6
330
13BB2
100
AcDbEntity
  8
寸法線
 62
     0
440
 16777216
370
    -2
100
AcDbLine
 10
969.9999999999995
 20
581.2500182446402
 30
0.0
 11
969.9999999999995
 21
340.0000000000019
 31
0.0
  0
LINE
  5
13CB7
330
13BB2
100
AcDbEntity
  8
寸法線
 62
     0
440
 16777216
370
    -2
100
AcDbLine
 10
1569.999999999999
 20
581.2500000000019
 30
0.0
 11
1569.999999999999
 21
340.0000000000019
 31
0.0
  0
LINE
  5
13CB8
330
13BB2
100
AcDbEntity
  8
寸法線
 62
     0
440
 16777216
370
    -2
100
AcDbLine
 10
989.9999999999995
 20
350.0000000000019
 30
0.0
 11
1550.0
 21
350.0000000000019
 31
0.0
  0
INSERT
  5
13CB9
330
13BB2
100
AcDbEntity
  8
寸法線
 62
     0
440
 16777216
370
    -2
100
AcDbBlockReference
  2
_OPEN
 10
969.9999999999995
 20
350.0000000000019
 30
0.0
 41
20.0
 42
20.0
 43
20.0
 50
180.0
  0
INSERT
  5
13CBA
330
13BB2
100
AcDbEntity
  8
寸法線
 62
     0
440
 16777216
370
    -2
100
AcDbBlockReference
  2
_OPEN
 10
1569.999999999999
 20
350.0000000000019
 30
0.0
 41
20.0
 42
20.0
 43
20.0
  0
MTEXT
  5
13CBB
330
13BB2
100
AcDbEntity
  8
寸法線
 62
     0
440
 16777216
100
AcDbMText
 10
1269.999999999999
 20
371.2500000000019
 30
0.0
 40
25.0
 41
0.0
 46
0.0
 71
     5
 72
     1
  1
\A1;600
 73
     1
 44
1.0
  0
POINT
  5
13CBC
330
13BB2
100
AcDbEntity
  8
Defpoints
 62
     0
440
 16777216
100
AcDbPoint
 10
969.9999999999995
 20
590.0000182446403
 30
0.0
  0
POINT
  5
13CBD
330
13BB2
100
AcDbEntity
  8
Defpoints
 62
     0
440
 16777216
100
AcDbPoint
 10
1569.999999999999
 20
590.0000000000019
 30
0.0
  0
POINT
  5
13CBE
330
13BB2
100
AcDbEntity
  8
Defpoints
 62
     0
440
 16777216
100
AcDbPoint
 10
1569.999999999999
 20
350.0000000000019
 30
0.0
  0
ENDBLK
  5
13BB4
330
13BB2
100
AcDbEntity
  8
0
100
AcDbBlockEnd
  0
BLOCK
  5
13BBF
330
13BBE
100
AcDbEntity
  8
0
100
AcDbBlockBegin
  2
*D29
 70
     1
 10
0.0
 20
0.0
 30
0.0
  3
*D29
  1

  0
LINE
  5
13CBF
330
13BBE
100
AcDbEntity
  8
寸法線
 62
     0
440
 16777216
370
    -2
100
AcDbLine
 10
1485.25
 20
850.0000000000024
 30
0.0
 11
1483.999999999999
 21
850.0000000000024
 31
0.0
  0
LINE
  5
13CC0
330
13BBE
100
AcDbEntity
  8
寸法線
 62
     0
440
 16777216
370
    -2
100
AcDbLine
 10
1485.25
 20
900.0000000000024
 30
0.0
 11
1483.999999999999
 21
900.0000000000024
 31
0.0
  0
LINE
  5
13CC1
330
13BBE
100
AcDbEntity
  8
寸法線
 62
     0
440
 16777216
370
    -2
100
AcDbLine
 10
1493.999999999999
 20
920.0000000000024
 30
0.0
 11
1493.999999999999
 21
940.0000000000023
 31
0.0
  0
LINE
  5
13CC2
330
13BBE
100
AcDbEntity
  8
寸法線
 62
     0
440
 16777216
370
    -2
100
AcDbLine
 10
1493.999999999999
 20
830.0000000000023
 30
0.0
 11
1493.999999999999
 21
742.4803149606109
 31
0.0
  0
LINE
  5
13CC3
330
13BBE
100
AcDbEntity
  8
寸法線
 62
     0
440
 16777216
370
    -2
100
AcDbLine
 10
1493.999999999999
 20
900.0000000000024
 30
0.0
 11
1493.999999999999
 21
850.0000000000024
 31
0.0
  0
INSERT
  5
13CC4
330
13BBE
100
AcDbEntity
  8
寸法線
 62
     0
440
 16777216
370
    -2
100
AcDbBlockReference
  2
_OPEN
 10
1493.999999999999
 20
900.0000000000024
 30
0.0
 41
20.0
 42
20.0
 43
20.0
 50
270.0
  0
INSERT
  5
13CC5
330
13BBE
100
AcDbEntity
  8
寸法線
 62
     0
440
 16777216
370
    -2
100
AcDbBlockReference
  2
_OPEN
 10
1493.999999999999
 20
850.0000000000024
 30
0.0
 41
20.0
 42
20.0
 43
20.0
 50
90.0
  0
MTEXT
  5
13CC6
330
13BBE
100
AcDbEntity
  8
寸法線
 62
     0
440
 16777216
100
AcDbMText
 10
1472.749999999999
 20
776.2401574802953
 30
0.0
 40
25.0
 41
0.0
 46
0.0
 71
     5
 72
     1
  1
\A1;%%C50
 11
0.0000000000000001
 21
1.0
 31
0.0
 73
     1
 44
1.0
  0
POINT
  5
13CC7
330
13BBE
100
AcDbEntity
  8
Defpoints
 62
     0
440
 16777216
100
AcDbPoint
 10
1494.0
 20
850.0000000000024
 30
0.0
  0
POINT
  5
13CC8
330
13BBE
100
AcDbEntity
  8
Defpoints
 62
     0
440
 16777216
100
AcDbPoint
 10
1494.0
 20
900.0000000000024
 30
0.0
  0
POINT
  5
13CC9
330
13BBE
100
AcDbEntity
  8
Defpoints
 62
     0
440
 16777216
100
AcDbPoint
 10
1493.999999999999
 20
900.0000000000024
 30
0.0
  0
ENDBLK
  5
13BC0
330
13BBE
100
AcDbEntity
  8
0
100
AcDbBlockEnd
  0
BLOCK
  5
13C41
330
13C40
100
AcDbEntity
  8
0
100
AcDbBlockBegin
  2
*D30
 70
     1
 10
0.0
 20
0.0
 30
0.0
  3
*D30
  1

  0
LINE
  5
13D23
330
13C40
100
AcDbEntity
  8
寸法線
 62
     0
440
 16777216
370
    -2
100
AcDbLine
 10
985.9999999999995
 20
918.7500000000019
 30
0.0
 11
985.9999999999995
 21
1040.000036489278
 31
0.0
  0
LINE
  5
13D24
330
13C40
100
AcDbEntity
  8
寸法線
 62
     0
440
 16777216
370
    -2
100
AcDbLine
 10
1261.999999999999
 20
938.7500182446402
 30
0.0
 11
1261.999999999999
 21
1040.000036489278
 31
0.0
  0
LINE
  5
13D25
330
13C40
100
AcDbEntity
  8
寸法線
 62
     0
440
 16777216
370
    -2
100
AcDbLine
 10
1005.999999999999
 20
1030.000036489278
 30
0.0
 11
1241.999999999999
 21
1030.000036489278
 31
0.0
  0
INSERT
  5
13D26
330
13C40
100
AcDbEntity
  8
寸法線
 62
     0
440
 16777216
370
    -2
100
AcDbBlockReference
  2
_OPEN
 10
985.9999999999995
 20
1030.000036489278
 30
0.0
 41
20.0
 42
20.0
 43
20.0
 50
180.0
  0
INSERT
  5
13D27
330
13C40
100
AcDbEntity
  8
寸法線
 62
     0
440
 16777216
370
    -2
100
AcDbBlockReference
  2
_OPEN
 10
1261.999999999999
 20
1030.000036489278
 30
0.0
 41
20.0
 42
20.0
 43
20.0
  0
MTEXT
  5
13D28
330
13C40
100
AcDbEntity
  8
寸法線
 62
     0
440
 16777216
100
AcDbMText
 10
1123.999999999999
 20
1051.252497119199
 30
0.0
 40
25.0
 41
0.0
 46
0.0
 71
     5
 72
     1
  1
\A1;276
 73
     1
 44
1.0
  0
POINT
  5
13D29
330
13C40
100
AcDbEntity
  8
Defpoints
 62
     0
440
 16777216
100
AcDbPoint
 10
985.9999999999995
 20
910.0000000000019
 30
0.0
  0
POINT
  5
13D2A
330
13C40
100
AcDbEntity
  8
Defpoints
 62
     0
440
 16777216
100
AcDbPoint
 10
1261.999999999999
 20
930.0000182446403
 30
0.0
  0
POINT
  5
13D2B
330
13C40
100
AcDbEntity
  8
Defpoints
 62
     0
440
 16777216
100
AcDbPoint
 10
1261.999999999999
 20
1030.000036489278
 30
0.0
  0
ENDBLK
  5
13C42
330
13C40
100
AcDbEntity
  8
0
100
AcDbBlockEnd
  0
BLOCK
  5
13C4D
330
13C4C
100
AcDbEntity
  8
0
100
AcDbBlockBegin
  2
*D31
 70
     1
 10
0.0
 20
0.0
 30
0.0
  3
*D31
  1

  0
LINE
  5
13D2C
330
13C4C
100
AcDbEntity
  8
寸法線
 62
     0
440
 16777216
370
    -2
100
AcDbLine
 10
1261.999999999999
 20
938.7500182446402
 30
0.0
 11
1261.999999999999
 21
1040.000036489278
 31
0.0
  0
LINE
  5
13D2D
330
13C4C
100
AcDbEntity
  8
寸法線
 62
     0
440
 16777216
370
    -2
100
AcDbLine
 10
1277.999999999999
 20
938.7500000000018
 30
0.0
 11
1277.999999999999
 21
1040.000036489278
 31
0.0
  0
LINE
  5
13D2E
330
13C4C
100
AcDbEntity
  8
寸法線
 62
     0
440
 16777216
370
    -2
100
AcDbLine
 10
1241.999999999999
 20
1030.000036489278
 30
0.0
 11
1221.999999999999
 21
1030.000036489278
 31
0.0
  0
LINE
  5
13D2F
330
13C4C
100
AcDbEntity
  8
寸法線
 62
     0
440
 16777216
370
    -2
100
AcDbLine
 10
1297.999999999999
 20
1030.000036489278
 30
0.0
 11
1317.999999999999
 21
1030.000036489278
 31
0.0
  0
LINE
  5
13D30
330
13C4C
100
AcDbEntity
  8
寸法線
 62
     0
440
 16777216
370
    -2
100
AcDbLine
 10
1261.999999999999
 20
1030.000036489278
 30
0.0
 11
1277.999999999999
 21
1030.000036489278
 31
0.0
  0
INSERT
  5
13D31
330
13C4C
100
AcDbEntity
  8
寸法線
 62
     0
440
 16777216
370
    -2
100
AcDbBlockReference
  2
_OPEN
 10
1261.999999999999
 20
1030.000036489278
 30
0.0
 41
20.0
 42
20.0
 43
20.0
  0
INSERT
  5
13D32
330
13C4C
100
AcDbEntity
  8
寸法線
 62
     0
440
 16777216
370
    -2
100
AcDbBlockReference
  2
_OPEN
 10
1277.999999999999
 20
1030.000036489278
 30
0.0
 41
20.0
 42
20.0
 43
20.0
 50
180.0
  0
MTEXT
  5
13D33
330
13C4C
100
AcDbEntity
  8
寸法線
 62
     0
440
 16777216
100
AcDbMText
 10
1269.999999999999
 20
1051.250036489278
 30
0.0
 40
25.0
 41
0.0
 46
0.0
 71
     5
 72
     1
  1
\A1;16
 73
     1
 44
1.0
  0
POINT
  5
13D34
330
13C4C
100
AcDbEntity
  8
Defpoints
 62
     0
440
 16777216
100
AcDbPoint
 10
1261.999999999999
 20
930.0000182446403
 30
0.0
  0
POINT
  5
13D35
330
13C4C
100
AcDbEntity
  8
Defpoints
 62
     0
440
 16777216
100
AcDbPoint
 10
1277.999999999999
 20
930.000000000002
 30
0.0
  0
POINT
  5
13D36
330
13C4C
100
AcDbEntity
  8
Defpoints
 62
     0
440
 16777216
100
AcDbPoint
 10
1277.999999999999
 20
1030.000036489278
 30
0.0
  0
ENDBLK
  5
13C4E
330
13C4C
100
AcDbEntity
  8
0
100
AcDbBlockEnd
  0
BLOCK
  5
13C5B
330
13C5A
100
AcDbEntity
  8
0
100
AcDbBlockBegin
  2
*D32
 70
     1
 10
0.0
 20
0.0
 30
0.0
  3
*D32
  1

  0
LINE
  5
13D37
330
13C5A
100
AcDbEntity
  8
寸法線
 62
     0
440
 16777216
370
    -2
100
AcDbLine
 10
1277.999999999999
 20
938.7500000000018
 30
0.0
 11
1277.999999999999
 21
1040.000036489278
 31
0.0
  0
LINE
  5
13D38
330
13C5A
100
AcDbEntity
  8
寸法線
 62
     0
440
 16777216
370
    -2
100
AcDbLine
 10
1553.999999999999
 20
918.7500182446402
 30
0.0
 11
1553.999999999999
 21
1040.000036489278
 31
0.0
  0
LINE
  5
13D39
330
13C5A
100
AcDbEntity
  8
寸法線
 62
     0
440
 16777216
370
    -2
100
AcDbLine
 10
1297.999999999999
 20
1030.000036489278
 30
0.0
 11
1533.999999999999
 21
1030.000036489278
 31
0.0
  0
INSERT
  5
13D3A
330
13C5A
100
AcDbEntity
  8
寸法線
 62
     0
440
 16777216
370
    -2
100
AcDbBlockReference
  2
_OPEN
 10
1277.999999999999
 20
1030.000036489278
 30
0.0
 41
20.0
 42
20.0
 43
20.0
 50
180.0
  0
INSERT
  5
13D3B
330
13C5A
100
AcDbEntity
  8
寸法線
 62
     0
440
 16777216
370
    -2
100
AcDbBlockReference
  2
_OPEN
 10
1553.999999999999
 20
1030.000036489278
 30
0.0
 41
20.0
 42
20.0
 43
20.0
  0
MTEXT
  5
13D3C
330
13C5A
100
AcDbEntity
  8
寸法線
 62
     0
440
 16777216
100
AcDbMText
 10
1415.999999999999
 20
1051.252497119199
 30
0.0
 40
25.0
 41
0.0
 46
0.0
 71
     5
 72
     1
  1
\A1;276
 73
     1
 44
1.0
  0
POINT
  5
13D3D
330
13C5A
100
AcDbEntity
  8
Defpoints
 62
     0
440
 16777216
100
AcDbPoint
 10
1277.999999999999
 20
930.000000000002
 30
0.0
  0
POINT
  5
13D3E
330
13C5A
100
AcDbEntity
  8
Defpoints
 62
     0
440
 16777216
100
AcDbPoint
 10
1553.999999999999
 20
910.0000182446402
 30
0.0
  0
POINT
  5
13D3F
330
13C5A
100
AcDbEntity
  8
Defpoints
 62
     0
440
 16777216
100
AcDbPoint
 10
1553.999999999999
 20
1030.000036489278
 30
0.0
  0
ENDBLK
  5
13C5C
330
13C5A
100
AcDbEntity
  8
0
100
AcDbBlockEnd
  0
BLOCK
  5
1406A
330
14069
100
AcDbEntity
  8
0
100
AcDbBlockBegin
  2
*D33
 70
     1
 10
0.0
 20
0.0
 30
0.0
  3
*D33
  1

  0
LINE
  5
140DD
330
14069
100
AcDbEntity
  8
寸法線
 62
     0
440
 16777216
370
    -2
100
AcDbLine
 10
2321.013224784118
 20
713.0784490868799
 30
0.0
 11
2321.336748591244
 21
711.8710418013177
 31
0.0
  0
LINE
  5
140DE
330
14069
100
AcDbEntity
  8
寸法線
 62
     0
440
 16777216
370
    -2
100
AcDbLine
 10
2528.987573278128
 20
786.9223409694308
 30
0.0
 11
2528.664049471381
 21
788.129748253576
 31
0.0
  0
LINE
  5
140DF
330
14069
100
AcDbEntity
  8
寸法線
 62
     0
440
 16777216
370
    -2
100
AcDbLine
 10
2338.06707466572
 20
726.7066809665745
 30
0.0
 11
2511.933723396905
 21
773.2941090883191
 31
0.0
  0
INSERT
  5
140E0
330
14069
100
AcDbEntity
  8
寸法線
 62
     0
440
 16777216
370
    -2
100
AcDbBlockReference
  2
_OPEN
 10
2318.748558140037
 20
721.5303000641595
 30
0.0
 41
20.0
 42
20.0
 43
20.0
 50
195.0000000010816
  0
INSERT
  5
140E1
330
14069
100
AcDbEntity
  8
寸法線
 62
     0
440
 16777216
370
    -2
100
AcDbBlockReference
  2
_OPEN
 10
2531.252239922589
 20
778.4704899907342
 30
0.0
 41
20.0
 42
20.0
 43
20.0
 50
15.00000000108161
  0
MTEXT
  5
140E2
330
14069
100
AcDbEntity
  8
寸法線
 62
     0
440
 16777216
100
AcDbMText
 10
2458.136890515994
 20
780.8814574268102
 30
0.0
 40
25.0
 41
0.0
 46
0.0
 71
     5
 72
     1
  1
\A1;%%C220
 11
0.9659258262841825
 21
0.2588190451207553
 31
0.0
 73
     1
 44
1.0
  0
POINT
  5
140E3
330
14069
100
AcDbEntity
  8
Defpoints
 62
     0
440
 16777216
100
AcDbPoint
 10
2318.748558139311
 20
721.5303000668665
 30
0.0
  0
POINT
  5
140E4
330
14069
100
AcDbEntity
  8
Defpoints
 62
     0
440
 16777216
100
AcDbPoint
 10
2531.252239922935
 20
778.4704899894442
 30
0.0
  0
POINT
  5
140E5
330
14069
100
AcDbEntity
  8
Defpoints
 62
     0
440
 16777216
100
AcDbPoint
 10
2531.252239922589
 20
778.4704899907342
 30
0.0
  0
ENDBLK
  5
1406B
330
14069
100
AcDbEntity
  8
0
100
AcDbBlockEnd
  0
BLOCK
  5
14076
330
14075
100
AcDbEntity
  8
0
100
AcDbBlockBegin
  2
*D34
 70
     1
 10
0.0
 20
0.0
 30
0.0
  3
*D34
  1

  0
LINE
  5
140E6
330
14075
100
AcDbEntity
  8
寸法線
 62
     0
440
 16777216
370
    -2
100
AcDbLine
 10
1730.000431015243
 20
566.2503950281553
 30
0.0
 11
1730.000431015243
 21
460.0000000000019
 31
0.0
  0
LINE
  5
140E7
330
14075
100
AcDbEntity
  8
寸法線
 62
     0
440
 16777216
370
    -2
100
AcDbLine
 10
1980.000431015243
 20
566.2503950281553
 30
0.0
 11
1980.000431015243
 21
460.0000000000019
 31
0.0
  0
LINE
  5
140E8
330
14075
100
AcDbEntity
  8
寸法線
 62
     0
440
 16777216
370
    -2
100
AcDbLine
 10
1750.000431015243
 20
470.0000000000019
 30
0.0
 11
1960.000431015243
 21
470.0000000000019
 31
0.0
  0
INSERT
  5
140E9
330
14075
100
AcDbEntity
  8
寸法線
 62
     0
440
 16777216
370
    -2
100
AcDbBlockReference
  2
_OPEN
 10
1730.000431015243
 20
470.0000000000019
 30
0.0
 41
20.0
 42
20.0
 43
20.0
 50
180.0
  0
INSERT
  5
140EA
330
14075
100
AcDbEntity
  8
寸法線
 62
     0
440
 16777216
370
    -2
100
AcDbBlockReference
  2
_OPEN
 10
1980.000431015243
 20
470.0000000000019
 30
0.0
 41
20.0
 42
20.0
 43
20.0
  0
MTEXT
  5
140EB
330
14075
100
AcDbEntity
  8
寸法線
 62
     0
440
 16777216
100
AcDbMText
 10
1855.000431015243
 20
491.2524606299231
 30
0.0
 40
25.0
 41
0.0
 46
0.0
 71
     5
 72
     1
  1
\A1;250
 73
     1
 44
1.0
  0
POINT
  5
140EC
330
14075
100
AcDbEntity
  8
Defpoints
 62
     0
440
 16777216
100
AcDbPoint
 10
1730.000431015243
 20
575.0003950281553
 30
0.0
  0
POINT
  5
140ED
330
14075
100
AcDbEntity
  8
Defpoints
 62
     0
440
 16777216
100
AcDbPoint
 10
1980.000431015243
 20
575.0003950281553
 30
0.0
  0
POINT
  5
140EE
330
14075
100
AcDbEntity
  8
Defpoints
 62
     0
440
 16777216
100
AcDbPoint
 10
1980.000431015243
 20
470.0000000000019
 30
0.0
  0
ENDBLK
  5
14077
330
14075
100
AcDbEntity
  8
0
100
AcDbBlockEnd
  0
BLOCK
  5
14082
330
14081
100
AcDbEntity
  8
0
100
AcDbBlockBegin
  2
*D35
 70
     1
 10
0.0
 20
0.0
 30
0.0
  3
*D35
  1

  0
LINE
  5
140EF
330
14081
100
AcDbEntity
  8
寸法線
 62
     0
440
 16777216
370
    -2
100
AcDbLine
 10
1980.000431015243
 20
566.2503950281553
 30
0.0
 11
1980.000431015243
 21
460.0000000000019
 31
0.0
  0
LINE
  5
140F0
330
14081
100
AcDbEntity
  8
寸法線
 62
     0
440
 16777216
370
    -2
100
AcDbLine
 10
2015.00003198412
 20
581.2500000000019
 30
0.0
 11
2015.00003198412
 21
460.0000000000019
 31
0.0
  0
LINE
  5
140F1
330
14081
100
AcDbEntity
  8
寸法線
 62
     0
440
 16777216
370
    -2
100
AcDbLine
 10
1960.000431015243
 20
470.0000000000019
 30
0.0
 11
1940.000431015243
 21
470.0000000000019
 31
0.0
  0
LINE
  5
140F2
330
14081
100
AcDbEntity
  8
寸法線
 62
     0
440
 16777216
370
    -2
100
AcDbLine
 10
2035.00003198412
 20
470.0000000000019
 30
0.0
 11
2055.000031984119
 21
470.0000000000019
 31
0.0
  0
LINE
  5
140F3
330
14081
100
AcDbEntity
  8
寸法線
 62
     0
440
 16777216
370
    -2
100
AcDbLine
 10
1980.000431015243
 20
470.0000000000019
 30
0.0
 11
2015.00003198412
 21
470.0000000000019
 31
0.0
  0
INSERT
  5
140F4
330
14081
100
AcDbEntity
  8
寸法線
 62
     0
440
 16777216
370
    -2
100
AcDbBlockReference
  2
_OPEN
 10
1980.000431015243
 20
470.0000000000019
 30
0.0
 41
20.0
 42
20.0
 43
20.0
  0
INSERT
  5
140F5
330
14081
100
AcDbEntity
  8
寸法線
 62
     0
440
 16777216
370
    -2
100
AcDbBlockReference
  2
_OPEN
 10
2015.00003198412
 20
470.0000000000019
 30
0.0
 41
20.0
 42
20.0
 43
20.0
 50
180.0
  0
MTEXT
  5
140F6
330
14081
100
AcDbEntity
  8
寸法線
 62
     0
440
 16777216
100
AcDbMText
 10
1997.500231499681
 20
491.2500000000019
 30
0.0
 40
25.0
 41
0.0
 46
0.0
 71
     5
 72
     1
  1
\A1;35
 73
     1
 44
1.0
  0
POINT
  5
140F7
330
14081
100
AcDbEntity
  8
Defpoints
 62
     0
440
 16777216
100
AcDbPoint
 10
1980.000431015243
 20
575.0003950281553
 30
0.0
  0
POINT
  5
140F8
330
14081
100
AcDbEntity
  8
Defpoints
 62
     0
440
 16777216
100
AcDbPoint
 10
2015.00003198412
 20
590.0000000000019
 30
0.0
  0
POINT
  5
140F9
330
14081
100
AcDbEntity
  8
Defpoints
 62
     0
440
 16777216
100
AcDbPoint
 10
2015.00003198412
 20
470.0000000000019
 30
0.0
  0
ENDBLK
  5
14083
330
14081
100
AcDbEntity
  8
0
100
AcDbBlockEnd
  0
BLOCK
  5
14090
330
1408F
100
AcDbEntity
  8
0
100
AcDbBlockBegin
  2
*D36
 70
     1
 10
0.0
 20
0.0
 30
0.0
  3
*D36
  1

  0
LINE
  5
140FA
330
1408F
100
AcDbEntity
  8
寸法線
 62
     0
440
 16777216
370
    -2
100
AcDbLine
 10
2038.750431015244
 20
625.0003950281556
 30
0.0
 11
2145.00003198412
 21
625.0003950281556
 31
0.0
  0
LINE
  5
140FB
330
1408F
100
AcDbEntity
  8
寸法線
 62
     0
440
 16777216
370
    -2
100
AcDbLine
 10
2038.750431015244
 20
875.0003950281557
 30
0.0
 11
2145.00003198412
 21
875.0003950281557
 31
0.0
  0
LINE
  5
140FC
330
1408F
100
AcDbEntity
  8
寸法線
 62
     0
440
 16777216
370
    -2
100
AcDbLine
 10
2135.00003198412
 20
645.0003950281556
 30
0.0
 11
2135.00003198412
 21
855.0003950281558
 31
0.0
  0
INSERT
  5
140FD
330
1408F
100
AcDbEntity
  8
寸法線
 62
     0
440
 16777216
370
    -2
100
AcDbBlockReference
  2
_OPEN
 10
2135.00003198412
 20
625.0003950281556
 30
0.0
 41
20.0
 42
20.0
 43
20.0
 50
270.0
  0
INSERT
  5
140FE
330
1408F
100
AcDbEntity
  8
寸法線
 62
     0
440
 16777216
370
    -2
100
AcDbBlockReference
  2
_OPEN
 10
2135.00003198412
 20
875.0003950281557
 30
0.0
 41
20.0
 42
20.0
 43
20.0
 50
90.0
  0
MTEXT
  5
140FF
330
1408F
100
AcDbEntity
  8
寸法線
 62
     0
440
 16777216
100
AcDbMText
 10
2113.747571354199
 20
750.0003950281553
 30
0.0
 40
25.0
 41
0.0
 46
0.0
 71
     5
 72
     1
  1
\A1;250
 11
0.0000000000000001
 21
1.0
 31
0.0
 73
     1
 44
1.0
  0
POINT
  5
14100
330
1408F
100
AcDbEntity
  8
Defpoints
 62
     0
440
 16777216
100
AcDbPoint
 10
2030.000431015244
 20
625.0003950281556
 30
0.0
  0
POINT
  5
14101
330
1408F
100
AcDbEntity
  8
Defpoints
 62
     0
440
 16777216
100
AcDbPoint
 10
2030.000431015244
 20
875.0003950281557
 30
0.0
  0
POINT
  5
14102
330
1408F
100
AcDbEntity
  8
Defpoints
 62
     0
440
 16777216
100
AcDbPoint
 10
2135.00003198412
 20
875.0003950281557
 30
0.0
  0
ENDBLK
  5
14091
330
1408F
100
AcDbEntity
  8
0
100
AcDbBlockEnd
  0
BLOCK
  5
1409C
330
1409B
100
AcDbEntity
  8
0
100
AcDbBlockBegin
  2
*D37
 70
     1
 10
0.0
 20
0.0
 30
0.0
  3
*D37
  1

  0
LINE
  5
14103
330
1409B
100
AcDbEntity
  8
寸法線
 62
     0
440
 16777216
370
    -2
100
AcDbLine
 10
2023.750031984121
 20
590.0000000000021
 30
0.0
 11
2145.00003198412
 21
590.0000000000021
 31
0.0
  0
LINE
  5
14104
330
1409B
100
AcDbEntity
  8
寸法線
 62
     0
440
 16777216
370
    -2
100
AcDbLine
 10
2038.750431015244
 20
625.0003950281556
 30
0.0
 11
2145.00003198412
 21
625.0003950281556
 31
0.0
  0
LINE
  5
14105
330
1409B
100
AcDbEntity
  8
寸法線
 62
     0
440
 16777216
370
    -2
100
AcDbLine
 10
2135.00003198412
 20
570.0000000000021
 30
0.0
 11
2135.00003198412
 21
550.0000000000021
 31
0.0
  0
LINE
  5
14106
330
1409B
100
AcDbEntity
  8
寸法線
 62
     0
440
 16777216
370
    -2
100
AcDbLine
 10
2135.00003198412
 20
645.0003950281556
 30
0.0
 11
2135.00003198412
 21
665.0003950281556
 31
0.0
  0
LINE
  5
14107
330
1409B
100
AcDbEntity
  8
寸法線
 62
     0
440
 16777216
370
    -2
100
AcDbLine
 10
2135.00003198412
 20
590.0000000000021
 30
0.0
 11
2135.00003198412
 21
625.0003950281556
 31
0.0
  0
INSERT
  5
14108
330
1409B
100
AcDbEntity
  8
寸法線
 62
     0
440
 16777216
370
    -2
100
AcDbBlockReference
  2
_OPEN
 10
2135.00003198412
 20
590.0000000000021
 30
0.0
 41
20.0
 42
20.0
 43
20.0
 50
90.0
  0
INSERT
  5
14109
330
1409B
100
AcDbEntity
  8
寸法線
 62
     0
440
 16777216
370
    -2
100
AcDbBlockReference
  2
_OPEN
 10
2135.00003198412
 20
625.0003950281556
 30
0.0
 41
20.0
 42
20.0
 43
20.0
 50
270.0
  0
MTEXT
  5
1410A
330
1409B
100
AcDbEntity
  8
寸法線
 62
     0
440
 16777216
100
AcDbMText
 10
2113.75003198412
 20
607.5001975140781
 30
0.0
 40
25.0
 41
0.0
 46
0.0
 71
     5
 72
     1
  1
\A1;35
 11
0.0000000000000001
 21
1.0
 31
0.0
 73
     1
 44
1.0
  0
POINT
  5
1410B
330
1409B
100
AcDbEntity
  8
Defpoints
 62
     0
440
 16777216
100
AcDbPoint
 10
2015.000031984121
 20
590.0000000000021
 30
0.0
  0
POINT
  5
1410C
330
1409B
100
AcDbEntity
  8
Defpoints
 62
     0
440
 16777216
100
AcDbPoint
 10
2030.000431015244
 20
625.0003950281556
 30
0.0
  0
POINT
  5
1410D
330
1409B
100
AcDbEntity
  8
Defpoints
 62
     0
440
 16777216
100
AcDbPoint
 10
2135.00003198412
 20
625.0003950281556
 30
0.0
  0
ENDBLK
  5
1409D
330
1409B
100
AcDbEntity
  8
0
100
AcDbBlockEnd
  0
BLOCK
  5
140AA
330
140A9
100
AcDbEntity
  8
0
100
AcDbBlockBegin
  2
*D38
 70
     1
 10
0.0
 20
0.0
 30
0.0
  3
*D38
  1

  0
LINE
  5
1410E
330
140A9
100
AcDbEntity
  8
寸法線
 62
     0
440
 16777216
370
    -2
100
AcDbLine
 10
2038.750431015244
 20
875.0003950281557
 30
0.0
 11
2145.00003198412
 21
875.0003950281557
 31
0.0
  0
LINE
  5
1410F
330
140A9
100
AcDbEntity
  8
寸法線
 62
     0
440
 16777216
370
    -2
100
AcDbLine
 10
2023.750031984121
 20
910.0000000000024
 30
0.0
 11
2145.00003198412
 21
910.0000000000024
 31
0.0
  0
LINE
  5
14110
330
140A9
100
AcDbEntity
  8
寸法線
 62
     0
440
 16777216
370
    -2
100
AcDbLine
 10
2135.00003198412
 20
855.0003950281558
 30
0.0
 11
2135.00003198412
 21
835.0003950281557
 31
0.0
  0
LINE
  5
14111
330
140A9
100
AcDbEntity
  8
寸法線
 62
     0
440
 16777216
370
    -2
100
AcDbLine
 10
2135.00003198412
 20
930.0000000000023
 30
0.0
 11
2135.00003198412
 21
950.0000000000024
 31
0.0
  0
LINE
  5
14112
330
140A9
100
AcDbEntity
  8
寸法線
 62
     0
440
 16777216
370
    -2
100
AcDbLine
 10
2135.00003198412
 20
875.0003950281557
 30
0.0
 11
2135.00003198412
 21
910.0000000000024
 31
0.0
  0
INSERT
  5
14113
330
140A9
100
AcDbEntity
  8
寸法線
 62
     0
440
 16777216
370
    -2
100
AcDbBlockReference
  2
_OPEN
 10
2135.00003198412
 20
875.0003950281557
 30
0.0
 41
20.0
 42
20.0
 43
20.0
 50
90.0
  0
INSERT
  5
14114
330
140A9
100
AcDbEntity
  8
寸法線
 62
     0
440
 16777216
370
    -2
100
AcDbBlockReference
  2
_OPEN
 10
2135.00003198412
 20
910.0000000000024
 30
0.0
 41
20.0
 42
20.0
 43
20.0
 50
270.0
  0
MTEXT
  5
14115
330
140A9
100
AcDbEntity
  8
寸法線
 62
     0
440
 16777216
100
AcDbMText
 10
2113.75003198412
 20
892.5001975140784
 30
0.0
 40
25.0
 41
0.0
 46
0.0
 71
     5
 72
     1
  1
\A1;35
 11
0.0000000000000001
 21
1.0
 31
0.0
 73
     1
 44
1.0
  0
POINT
  5
14116
330
140A9
100
AcDbEntity
  8
Defpoints
 62
     0
440
 16777216
100
AcDbPoint
 10
2030.000431015244
 20
875.0003950281557
 30
0.0
  0
POINT
  5
14117
330
140A9
100
AcDbEntity
  8
Defpoints
 62
     0
440
 16777216
100
AcDbPoint
 10
2015.000031984121
 20
910.0000000000024
 30
0.0
  0
POINT
  5
14118
330
140A9
100
AcDbEntity
  8
Defpoints
 62
     0
440
 16777216
100
AcDbPoint
 10
2135.00003198412
 20
910.0000000000024
 30
0.0
  0
ENDBLK
  5
140AB
330
140A9
100
AcDbEntity
  8
0
100
AcDbBlockEnd
  0
BLOCK
  5
140B8
330
140B7
100
AcDbEntity
  8
0
100
AcDbBlockBegin
  2
*D39
 70
     1
 10
0.0
 20
0.0
 30
0.0
  3
*D39
  1

  0
LINE
  5
14119
330
140B7
100
AcDbEntity
  8
寸法線
 62
     0
440
 16777216
370
    -2
100
AcDbLine
 10
2245.000399031123
 20
561.2503950281554
 30
0.0
 11
2245.000399031123
 21
460.0000000000019
 31
0.0
  0
LINE
  5
1411A
330
140B7
100
AcDbEntity
  8
寸法線
 62
     0
440
 16777216
370
    -2
100
AcDbLine
 10
2605.000399031123
 20
561.2503950281554
 30
0.0
 11
2605.000399031123
 21
460.0000000000019
 31
0.0
  0
LINE
  5
1411B
330
140B7
100
AcDbEntity
  8
寸法線
 62
     0
440
 16777216
370
    -2
100
AcDbLine
 10
2265.000399031123
 20
470.0000000000019
 30
0.0
 11
2585.000399031123
 21
470.0000000000019
 31
0.0
  0
INSERT
  5
1411C
330
140B7
100
AcDbEntity
  8
寸法線
 62
     0
440
 16777216
370
    -2
100
AcDbBlockReference
  2
_OPEN
 10
2245.000399031123
 20
470.0000000000019
 30
0.0
 41
20.0
 42
20.0
 43
20.0
 50
180.0
  0
INSERT
  5
1411D
330
140B7
100
AcDbEntity
  8
寸法線
 62
     0
440
 16777216
370
    -2
100
AcDbBlockReference
  2
_OPEN
 10
2605.000399031123
 20
470.0000000000019
 30
0.0
 41
20.0
 42
20.0
 43
20.0
  0
MTEXT
  5
1411E
330
140B7
100
AcDbEntity
  8
寸法線
 62
     0
440
 16777216
100
AcDbMText
 10
2425.000830046367
 20
491.2500000000019
 30
0.0
 40
25.0
 41
0.0
 46
0.0
 71
     5
 72
     1
  1
\A1;360
 73
     1
 44
1.0
  0
POINT
  5
1411F
330
140B7
100
AcDbEntity
  8
Defpoints
 62
     0
440
 16777216
100
AcDbPoint
 10
2245.000399031123
 20
570.0003950281553
 30
0.0
  0
POINT
  5
14120
330
140B7
100
AcDbEntity
  8
Defpoints
 62
     0
440
 16777216
100
AcDbPoint
 10
2605.000399031123
 20
570.0003950281553
 30
0.0
  0
POINT
  5
14121
330
140B7
100
AcDbEntity
  8
Defpoints
 62
     0
440
 16777216
100
AcDbPoint
 10
2605.000399031123
 20
470.0000000000019
 30
0.0
  0
ENDBLK
  5
140B9
330
140B7
100
AcDbEntity
  8
0
100
AcDbBlockEnd
  0
BLOCK
  5
140C4
330
140C3
100
AcDbEntity
  8
0
100
AcDbBlockBegin
  2
*D40
 70
     1
 10
0.0
 20
0.0
 30
0.0
  3
*D40
  1

  0
LINE
  5
14122
330
140C3
100
AcDbEntity
  8
寸法線
 62
     0
440
 16777216
370
    -2
100
AcDbLine
 10
2613.750399031124
 20
570.0003950281556
 30
0.0
 11
2715.000431015244
 21
570.0003950281556
 31
0.0
  0
LINE
  5
14123
330
140C3
100
AcDbEntity
  8
寸法線
 62
     0
440
 16777216
370
    -2
100
AcDbLine
 10
2613.750399031124
 20
930.0003950281558
 30
0.0
 11
2715.000431015244
 21
930.0003950281558
 31
0.0
  0
LINE
  5
14124
330
140C3
100
AcDbEntity
  8
寸法線
 62
     0
440
 16777216
370
    -2
100
AcDbLine
 10
2705.000431015244
 20
590.0003950281556
 30
0.0
 11
2705.000431015244
 21
910.0003950281559
 31
0.0
  0
INSERT
  5
14125
330
140C3
100
AcDbEntity
  8
寸法線
 62
     0
440
 16777216
370
    -2
100
AcDbBlockReference
  2
_OPEN
 10
2705.000431015244
 20
570.0003950281556
 30
0.0
 41
20.0
 42
20.0
 43
20.0
 50
270.0
  0
INSERT
  5
14126
330
140C3
100
AcDbEntity
  8
寸法線
 62
     0
440
 16777216
370
    -2
100
AcDbBlockReference
  2
_OPEN
 10
2705.000431015244
 20
930.0003950281558
 30
0.0
 41
20.0
 42
20.0
 43
20.0
 50
90.0
  0
MTEXT
  5
14127
330
140C3
100
AcDbEntity
  8
寸法線
 62
     0
440
 16777216
100
AcDbMText
 10
2683.750431015243
 20
750.0003950281553
 30
0.0
 40
25.0
 41
0.0
 46
0.0
 71
     5
 72
     1
  1
\A1;360
 11
0.0000000000000001
 21
1.0
 31
0.0
 73
     1
 44
1.0
  0
POINT
  5
14128
330
140C3
100
AcDbEntity
  8
Defpoints
 62
     0
440
 16777216
100
AcDbPoint
 10
2605.000399031124
 20
570.0003950281556
 30
0.0
  0
POINT
  5
14129
330
140C3
100
AcDbEntity
  8
Defpoints
 62
     0
440
 16777216
100
AcDbPoint
 10
2605.000399031124
 20
930.0003950281558
 30
0.0
  0
POINT
  5
1412A
330
140C3
100
AcDbEntity
  8
Defpoints
 62
     0
440
 16777216
100
AcDbPoint
 10
2705.000431015244
 20
930.0003950281558
 30
0.0
  0
ENDBLK
  5
140C5
330
140C3
100
AcDbEntity
  8
0
100
AcDbBlockEnd
  0
BLOCK
  5
140D0
330
140CF
100
AcDbEntity
  8
0
100
AcDbBlockBegin
  2
*D41
 70
     1
 10
0.0
 20
0.0
 30
0.0
  3
*D41
  1

  0
LINE
  5
1412B
330
140CF
100
AcDbEntity
  8
寸法線
 62
     0
440
 16777216
370
    -2
100
AcDbLine
 10
1730.000367047003
 20
566.2503950281553
 30
0.0
 11
1730.000367047003
 21
460.0000000000019
 31
0.0
  0
LINE
  5
1412C
330
140CF
100
AcDbEntity
  8
寸法線
 62
     0
440
 16777216
370
    -2
100
AcDbLine
 10
1695.000766078126
 20
581.2500000000019
 30
0.0
 11
1695.000766078126
 21
460.0000000000019
 31
0.0
  0
LINE
  5
1412D
330
140CF
100
AcDbEntity
  8
寸法線
 62
     0
440
 16777216
370
    -2
100
AcDbLine
 10
1750.000367047003
 20
470.0000000000019
 30
0.0
 11
1770.000367047003
 21
470.0000000000019
 31
0.0
  0
LINE
  5
1412E
330
140CF
100
AcDbEntity
  8
寸法線
 62
     0
440
 16777216
370
    -2
100
AcDbLine
 10
1675.000766078126
 20
470.0000000000019
 30
0.0
 11
1655.000766078126
 21
470.0000000000019
 31
0.0
  0
LINE
  5
1412F
330
140CF
100
AcDbEntity
  8
寸法線
 62
     0
440
 16777216
370
    -2
100
AcDbLine
 10
1730.000367047003
 20
470.0000000000019
 30
0.0
 11
1695.000766078126
 21
470.0000000000019
 31
0.0
  0
INSERT
  5
14130
330
140CF
100
AcDbEntity
  8
寸法線
 62
     0
440
 16777216
370
    -2
100
AcDbBlockReference
  2
_OPEN
 10
1730.000367047003
 20
470.0000000000019
 30
0.0
 41
20.0
 42
20.0
 43
20.0
 50
180.0
  0
INSERT
  5
14131
330
140CF
100
AcDbEntity
  8
寸法線
 62
     0
440
 16777216
370
    -2
100
AcDbBlockReference
  2
_OPEN
 10
1695.000766078126
 20
470.0000000000019
 30
0.0
 41
20.0
 42
20.0
 43
20.0
  0
MTEXT
  5
14132
330
140CF
100
AcDbEntity
  8
寸法線
 62
     0
440
 16777216
100
AcDbMText
 10
1712.500566562565
 20
491.2500000000019
 30
0.0
 40
25.0
 41
0.0
 46
0.0
 71
     5
 72
     1
  1
\A1;35
 73
     1
 44
1.0
  0
POINT
  5
14133
330
140CF
100
AcDbEntity
  8
Defpoints
 62
     0
440
 16777216
100
AcDbPoint
 10
1730.000367047003
 20
575.0003950281553
 30
0.0
  0
POINT
  5
14134
330
140CF
100
AcDbEntity
  8
Defpoints
 62
     0
440
 16777216
100
AcDbPoint
 10
1695.000766078126
 20
590.0000000000019
 30
0.0
  0
POINT
  5
14135
330
140CF
100
AcDbEntity
  8
Defpoints
 62
     0
440
 16777216
100
AcDbPoint
 10
1695.000766078126
 20
470.0000000000019
 30
0.0
  0
ENDBLK
  5
140D1
330
140CF
100
AcDbEntity
  8
0
100
AcDbBlockEnd
  0
ENDSEC
  0
SECTION
  2
ENTITIES
  0
LWPOLYLINE
  5
6107
330
1F
100
AcDbEntity
  8
Defpoints
100
AcDbPolyline
 90
        4
 70
     1
 43
0.0
 10
0.0
 20
0.0
 10
4200.0
 20
0.0
 10
4200.0
 20
2970.0
 10
0.0
 20
2970.0
  0
LWPOLYLINE
  5
610F
330
1F
100
AcDbEntity
  8
Defpoints
100
AcDbPolyline
 90
        4
 70
     1
 43
0.0
 10
69.00399999999999
 20
69.1075
 10
4130.996
 20
69.10750000000007
 10
4130.996
 20
2900.8925
 10
69.00399999999999
 20
2900.8925
  0
TEXT
  5
12C2F
330
1F
100
AcDbEntity
  8
寸法線
100
AcDbText
 10
2961.457537936397
 20
606.7561391440015
 30
0.0
 40
25.0
  1
※　H型鋼（連結部）の長さは、切梁メーカー仕様または施工条件により
 11
2961.457537936397
 21
606.7561391440015
 31
0.0
100
AcDbText
 73
     1
  0
TEXT
  5
12C30
330
1F
100
AcDbEntity
  8
寸法線
100
AcDbText
 10
2961.457537936397
 20
656.7561391440015
 30
0.0
 40
25.0
  1
※　H型鋼（連結部）の穴開け位置は、切梁メーカー仕様による。
 11
2961.457537936397
 21
656.7561391440015
 31
0.0
100
AcDbText
 73
     1
  0
TEXT
  5
12C31
330
1F
100
AcDbEntity
  8
寸法線
100
AcDbText
 10
2961.457537936397
 20
556.7561391440015
 30
0.0
 40
25.0
  1
　　変更する場合がある。
 11
2961.457537936397
 21
556.7561391440015
 31
0.0
100
AcDbText
 73
     1
  0
TEXT
  5
12C32
330
1F
100
AcDbEntity
  8
寸法線
100
AcDbText
 10
2961.457537936397
 20
506.7561391440015
 30
0.0
 40
25.0
  1
※　空洞金具部は鉄筋防錆剤塗装仕上げ。
 11
2961.457537936397
 21
506.7561391440015
 31
0.0
100
AcDbText
 73
     1
  0
TEXT
  5
12C33
330
1F
100
AcDbEntity
  8
寸法線
100
AcDbText
 10
2961.457537936397
 20
456.7561391440015
 30
0.0
 40
25.0
  1
※　H型鋼（連結部）は赤さび塗装仕上げ。
 11
2961.457537936397
 21
456.7561391440015
 31
0.0
100
AcDbText
 73
     1
  0
LINE
  5
12C34
330
1F
100
AcDbEntity
  8
中心線
100
AcDbLine
 10
927.4999714836095
 20
2220.000037450854
 30
0.0
 11
2577.49997148361
 21
2220.000037276722
 31
0.0
  0
LINE
  5
12C35
330
1F
100
AcDbEntity
  8
中心線
100
AcDbLine
 10
927.4999714836095
 20
1620.000037450854
 30
0.0
 11
2577.49997148361
 21
1620.000037215619
 31
0.0
  0
DIMENSION
  5
12C36
330
1F
100
AcDbEntity
  8
寸法線
100
AcDbDimension
280
     0
  2
*D4
 10
1452.500006391522
 20
1309.999999999998
 30
0.0
 11
1202.499988937567
 21
1309.999999999998
 31
0.0
 70
   160
 71
     5
 42
500.0000349079128
 73
     0
 74
     0
 75
     0
  3
STANDARD
100
AcDbAlignedDimension
 13
952.4999714836095
 23
1469.999999999998
 33
0.0
 14
1452.500006391522
 24
1460.000038922456
 34
0.0
100
AcDbRotatedDimension
  0
DIMENSION
  5
12C37
330
1F
100
AcDbEntity
  8
寸法線
100
AcDbDimension
280
     0
  2
*D5
 10
1452.499991390134
 20
1309.999999999998
 30
0.0
 11
1752.499963982916
 21
1331.249999999998
 31
0.0
 70
    32
 71
     5
 42
599.9999451855638
 73
     0
 74
     0
 75
     0
  3
STANDARD
100
AcDbAlignedDimension
 13
2052.499936575697
 23
1460.000038922456
 33
0.0
 14
1452.499991390134
 24
1460.000019850007
 34
0.0
 50
180.0
100
AcDbRotatedDimension
  0
DIMENSION
  5
12C38
330
1F
100
AcDbEntity
  8
寸法線
100
AcDbDimension
280
     0
  2
*D6
 10
832.4999714836092
 20
1469.999999999999
 30
0.0
 11
832.4999714836094
 21
1620.000018609838
 31
0.0
 70
   160
 71
     5
 42
300.0000372196769
 73
     0
 74
     0
 75
     0
  3
STANDARD
100
AcDbAlignedDimension
 13
952.4999714836095
 23
1770.000037219675
 33
0.0
 14
952.4999714836095
 24
1469.999999999998
 34
0.0
 50
90.0
100
AcDbRotatedDimension
  0
DIMENSION
  5
12C39
330
1F
100
AcDbEntity
  8
寸法線
100
AcDbDimension
280
     0
  2
*D7
 10
968.4999912967196
 20
2529.999999999998
 30
0.0
 11
960.499981390164
 21
2529.999999999998
 31
0.0
 70
   160
 71
     5
 42
16.00001981311107
 73
     0
 74
     0
 75
     0
  3
STANDARD
100
AcDbAlignedDimension
 13
952.4999714836084
 23
2364.000037219682
 33
0.0
 14
968.4999912967196
 24
2369.999999999998
 34
0.0
100
AcDbRotatedDimension
  0
DIMENSION
  5
12C3A
330
1F
100
AcDbEntity
  8
寸法線
100
AcDbDimension
280
     0
  2
*D8
 10
1452.500059967628
 20
2529.999999999998
 30
0.0
 11
1210.499998844121
 21
2529.999999999998
 31
0.0
 70
   160
 71
     5
 42
484.0000686709081
 73
     0
 74
     0
 75
     0
  3
STANDARD
100
AcDbAlignedDimension
 13
968.4999912967196
 23
2369.999999999998
 33
0.0
 14
1452.500059967628
 24
2380.000019849952
 34
0.0
100
AcDbRotatedDimension
  0
DIMENSION
  5
12C3B
330
1F
100
AcDbEntity
  8
寸法線
100
AcDbDimension
280
     0
  2
*D9
 10
832.499971483609
 20
2069.999999999999
 30
0.0
 11
832.4999714836094
 21
2219.999999999998
 31
0.0
 70
   160
 71
     5
 42
300.0
 73
     0
 74
     0
 75
     0
  3
STANDARD
100
AcDbAlignedDimension
 13
968.4999912967196
 23
2369.999999999998
 33
0.0
 14
968.4999912967196
 24
2069.999999999998
 34
0.0
 50
90.0
100
AcDbRotatedDimension
  0
DIMENSION
  5
12C3C
330
1F
100
AcDbEntity
  8
寸法線
100
AcDbDimension
280
     0
  2
*D10
 10
2536.500011296659
 20
2529.999999999998
 30
0.0
 11
2544.500011296659
 21
2529.999999999998
 31
0.0
 70
   160
 71
     5
 42
16.0
 73
     0
 74
     0
 75
     0
  3
STANDARD
100
AcDbAlignedDimension
 13
2552.500011296659
 23
2364.000017369674
 33
0.0
 14
2536.500011296659
 24
2369.999988421024
 34
0.0
 50
180.0
100
AcDbRotatedDimension
  0
DIMENSION
  5
12C3D
330
1F
100
AcDbEntity
  8
寸法線
100
AcDbDimension
280
     0
  2
*D11
 10
2052.499991390134
 20
2529.999999999998
 30
0.0
 11
2294.499944123099
 21
2529.999999999998
 31
0.0
 70
   160
 71
     5
 42
484.0000199065253
 73
     0
 74
     0
 75
     0
  3
STANDARD
100
AcDbAlignedDimension
 13
2536.500011296659
 23
2369.999988421024
 33
0.0
 14
2052.499991390134
 24
2380.000001605376
 34
0.0
 50
180.0
100
AcDbRotatedDimension
  0
DIMENSION
  5
12C3E
330
1F
100
AcDbEntity
  8
寸法線
100
AcDbDimension
280
     0
  2
*D12
 10
1452.499991390134
 20
2610.000000000003
 30
0.0
 11
1202.499988937567
 21
2610.000000000003
 31
0.0
 70
   160
  1
<>\XH型鋼（連結部）
 71
     5
 42
500.0000199065253
 73
     0
 74
     0
 75
     0
  3
STANDARD
100
AcDbAlignedDimension
 13
952.4999714836084
 23
2364.000037219682
 33
0.0
 14
1452.499991390134
 24
2380.000019850007
 34
0.0
100
AcDbRotatedDimension
  0
DIMENSION
  5
12C3F
330
1F
100
AcDbEntity
  8
寸法線
100
AcDbDimension
280
     0
  2
*D13
 10
2052.499991390134
 20
2609.999999999998
 30
0.0
 11
1752.499991390134
 21
2609.999999999998
 31
0.0
 70
    32
  1
W=<>\X空洞金具
 71
     5
 42
600.0
 73
     0
 74
     0
 75
     0
  3
STANDARD
100
AcDbAlignedDimension
 13
1452.499991390134
 23
2380.000019850007
 33
0.0
 14
2052.499991390134
 24
2380.000001605376
 34
0.0
100
AcDbRotatedDimension
  0
DIMENSION
  5
12C40
330
1F
100
AcDbEntity
  8
寸法線
100
AcDbDimension
280
     0
  2
*D14
 10
2552.500011296659
 20
2690.000000000004
 30
0.0
 11
1752.499991390134
 21
2711.250000000004
 31
0.0
 70
    32
  1
スルーサーＢ L=<>
 71
     5
 42
1600.000039813049
 73
     0
 74
     0
 75
     0
  3
STANDARD
100
AcDbAlignedDimension
 13
952.4999714836095
 23
2364.000037219675
 33
0.0
 14
2552.500011296659
 24
2364.000017369674
 34
0.0
100
AcDbRotatedDimension
  0
DIMENSION
  5
12C41
330
1F
100
AcDbEntity
  8
寸法線
100
AcDbDimension
280
     0
  2
*D15
 10
2052.499933202199
 20
1310.0
 30
0.0
 11
2302.499971481489
 21
1309.999994377503
 31
0.0
 70
   160
 71
     5
 42
500.0000698113636
 73
     0
 74
     0
 75
     0
  3
STANDARD
100
AcDbAlignedDimension
 13
2552.500006611959
 23
1469.999968964709
 33
0.0
 14
2052.499936575697
 24
1460.000038922456
 34
0.0
 50
179.9999987114188
100
AcDbRotatedDimension
  0
LINE
  5
12C42
330
1F
100
AcDbEntity
  8
実線
100
AcDbLine
 10
1468.499991390134
 20
2060.000019850007
 30
0.0
 11
1468.499991390134
 21
2380.000019850007
 31
0.0
  0
LINE
  5
12C43
330
1F
100
AcDbEntity
  8
実線
100
AcDbLine
 10
1452.499991390134
 20
2380.000001605376
 30
0.0
 11
1468.499991390134
 21
2380.000001605376
 31
0.0
  0
LINE
  5
12C44
330
1F
100
AcDbEntity
  8
実線
100
AcDbLine
 10
1452.499991390134
 20
2060.000001605376
 30
0.0
 11
1468.499991390134
 21
2060.000001605376
 31
0.0
  0
LINE
  5
12C45
330
1F
100
AcDbEntity
  8
実線
100
AcDbLine
 10
2036.499991390134
 20
2060.000019850007
 30
0.0
 11
2036.499991390134
 21
2380.000019850007
 31
0.0
  0
LINE
  5
12C46
330
1F
100
AcDbEntity
  8
実線
100
AcDbLine
 10
2036.499991390134
 20
2380.000001605376
 30
0.0
 11
2052.499991390134
 21
2380.000001605376
 31
0.0
  0
LINE
  5
12C47
330
1F
100
AcDbEntity
  8
実線
100
AcDbLine
 10
2036.499991390134
 20
2060.000001605376
 30
0.0
 11
2052.499991390134
 21
2060.000001605376
 31
0.0
  0
LINE
  5
12C48
330
1F
100
AcDbEntity
  8
実線
100
AcDbLine
 10
1480.499991390134
 20
2115.000001605376
 30
0.0
 11
1500.499991390134
 21
2115.000001605376
 31
0.0
  0
LINE
  5
12C49
330
1F
100
AcDbEntity
  8
実線
100
AcDbLine
 10
1500.499991390134
 20
2115.000001605376
 30
0.0
 11
1500.499991390134
 21
2325.000001605376
 31
0.0
  0
LINE
  5
12C4A
330
1F
100
AcDbEntity
  8
実線
100
AcDbLine
 10
2004.499991390134
 20
2115.000001605376
 30
0.0
 11
2004.499991390134
 21
2325.000001605376
 31
0.0
  0
LINE
  5
12C4B
330
1F
100
AcDbEntity
  8
実線
100
AcDbLine
 10
2004.499991390134
 20
2115.000001605376
 30
0.0
 11
2024.499991390134
 21
2115.000001605376
 31
0.0
  0
LINE
  5
12C4C
330
1F
100
AcDbEntity
  8
実線
100
AcDbLine
 10
1468.499991390134
 20
2127.000001605376
 30
0.0
 11
1480.499991390134
 21
2115.000001605376
 31
0.0
  0
LINE
  5
12C4D
330
1F
100
AcDbEntity
  8
実線
100
AcDbLine
 10
2024.499991390134
 20
2115.000001605376
 30
0.0
 11
2036.499991390134
 21
2127.000001605376
 31
0.0
  0
LINE
  5
12C4E
330
1F
100
AcDbEntity
  8
実線
100
AcDbLine
 10
1468.499991390134
 20
2120.000001605376
 30
0.0
 11
1475.499991390134
 21
2120.000001605376
 31
0.0
  0
LINE
  5
12C4F
330
1F
100
AcDbEntity
  8
実線
100
AcDbLine
 10
2029.499991390134
 20
2120.000001605376
 30
0.0
 11
2036.499991390134
 21
2120.000001605376
 31
0.0
  0
LINE
  5
12C50
330
1F
100
AcDbEntity
  8
破線
100
AcDbLine
 10
1475.499991390134
 20
2120.000001605376
 30
0.0
 11
1500.499991390134
 21
2120.000001605376
 31
0.0
  0
LINE
  5
12C51
330
1F
100
AcDbEntity
  8
破線
100
AcDbLine
 10
2004.499991390134
 20
2120.000001605376
 30
0.0
 11
2029.499991390134
 21
2120.000001605376
 31
0.0
  0
LINE
  5
12C52
330
1F
100
AcDbEntity
  8
破線
100
AcDbLine
 10
1468.499991390134
 20
2079.000001605376
 30
0.0
 11
1500.499991390134
 21
2079.000001605376
 31
0.0
  0
LINE
  5
12C53
330
1F
100
AcDbEntity
  8
破線
100
AcDbLine
 10
1500.499991390134
 20
2079.000001605376
 30
0.0
 11
1500.499991390134
 21
2070.000001605376
 31
0.0
  0
LINE
  5
12C54
330
1F
100
AcDbEntity
  8
破線
100
AcDbLine
 10
2004.499991390134
 20
2320.000001605376
 30
0.0
 11
2029.499991390134
 21
2320.000001605376
 31
0.0
  0
LINE
  5
12C55
330
1F
100
AcDbEntity
  8
実線
100
AcDbLine
 10
1500.499991390134
 20
2320.000001605376
 30
0.0
 11
1744.499991390135
 21
2320.000001605376
 31
0.0
  0
LINE
  5
12C56
330
1F
100
AcDbEntity
  8
実線
100
AcDbLine
 10
1760.499991390133
 20
2320.000001605376
 30
0.0
 11
2004.499991390134
 21
2320.000001605376
 31
0.0
  0
LINE
  5
12C57
330
1F
100
AcDbEntity
  8
実線
100
AcDbLine
 10
2029.499991390134
 20
2320.000001605376
 30
0.0
 11
2036.499991390134
 21
2320.000001605376
 31
0.0
  0
LINE
  5
12C58
330
1F
100
AcDbEntity
  8
実線
100
AcDbLine
 10
1468.499991390134
 20
2370.000001605376
 30
0.0
 11
1744.499991390135
 21
2370.000001605376
 31
0.0
  0
LINE
  5
12C59
330
1F
100
AcDbEntity
  8
実線
100
AcDbLine
 10
1760.499991390133
 20
2370.000001605376
 30
0.0
 11
2036.499991390134
 21
2370.000001605376
 31
0.0
  0
LINE
  5
12C5A
330
1F
100
AcDbEntity
  8
実線
100
AcDbLine
 10
2004.499991390134
 20
2325.000001605376
 30
0.0
 11
2024.499991390134
 21
2325.000001605376
 31
0.0
  0
LINE
  5
12C5B
330
1F
100
AcDbEntity
  8
実線
100
AcDbLine
 10
2024.499991390134
 20
2325.000001605376
 30
0.0
 11
2036.499991390134
 21
2313.000001605376
 31
0.0
  0
LINE
  5
12C5C
330
1F
100
AcDbEntity
  8
破線
100
AcDbLine
 10
1468.499991390134
 20
2361.000001605376
 30
0.0
 11
1500.499991390134
 21
2361.000001605376
 31
0.0
  0
LINE
  5
12C5D
330
1F
100
AcDbEntity
  8
破線
100
AcDbLine
 10
1500.499991390134
 20
2361.000001605376
 30
0.0
 11
1500.499991390134
 21
2370.000001605376
 31
0.0
  0
LINE
  5
12C5E
330
1F
100
AcDbEntity
  8
破線
100
AcDbLine
 10
1475.499991390134
 20
2320.000001605376
 30
0.0
 11
1500.499991390134
 21
2320.000001605376
 31
0.0
  0
LINE
  5
12C5F
330
1F
100
AcDbEntity
  8
実線
100
AcDbLine
 10
1480.499991390134
 20
2325.000001605376
 30
0.0
 11
1500.499991390134
 21
2325.000001605376
 31
0.0
  0
LINE
  5
12C60
330
1F
100
AcDbEntity
  8
実線
100
AcDbLine
 10
1468.499991390134
 20
2313.000001605376
 30
0.0
 11
1480.499991390134
 21
2325.000001605376
 31
0.0
  0
LINE
  5
12C61
330
1F
100
AcDbEntity
  8
実線
100
AcDbLine
 10
1468.499991390134
 20
2320.000001605376
 30
0.0
 11
1475.499991390134
 21
2320.000001605376
 31
0.0
  0
LINE
  5
12C62
330
1F
100
AcDbEntity
  8
破線
100
AcDbLine
 10
2036.499991390134
 20
2079.000001605376
 30
0.0
 11
2004.499991390134
 21
2079.000001605376
 31
0.0
  0
LINE
  5
12C63
330
1F
100
AcDbEntity
  8
破線
100
AcDbLine
 10
2004.499991390134
 20
2079.000001605376
 30
0.0
 11
2004.499991390134
 21
2070.000001605376
 31
0.0
  0
LINE
  5
12C64
330
1F
100
AcDbEntity
  8
破線
100
AcDbLine
 10
2004.499991390134
 20
2361.000001605376
 30
0.0
 11
2004.499991390134
 21
2370.000001605376
 31
0.0
  0
LINE
  5
12C65
330
1F
100
AcDbEntity
  8
破線
100
AcDbLine
 10
2036.499991390134
 20
2361.000001605376
 30
0.0
 11
2004.499991390134
 21
2361.000001605376
 31
0.0
  0
LINE
  5
12C66
330
1F
100
AcDbEntity
  8
破線
100
AcDbLine
 10
1468.499991390134
 20
2224.500001605376
 30
0.0
 11
1500.499991390134
 21
2224.500001605376
 31
0.0
  0
LINE
  5
12C67
330
1F
100
AcDbEntity
  8
破線
100
AcDbLine
 10
1468.499991390134
 20
2215.500001605376
 30
0.0
 11
1500.499991390134
 21
2215.500001605376
 31
0.0
  0
LINE
  5
12C68
330
1F
100
AcDbEntity
  8
破線
100
AcDbLine
 10
2004.499991390134
 20
2224.500001605376
 30
0.0
 11
2036.499991390134
 21
2224.500001605376
 31
0.0
  0
LINE
  5
12C69
330
1F
100
AcDbEntity
  8
破線
100
AcDbLine
 10
2004.499991390134
 20
2215.500001605376
 30
0.0
 11
2036.499991390134
 21
2215.500001605376
 31
0.0
  0
LINE
  5
12C6A
330
1F
100
AcDbEntity
  8
実線
100
AcDbLine
 10
1452.499991390134
 20
1460.000019850007
 30
0.0
 11
1452.499991390134
 21
1780.000019850007
 31
0.0
  0
LINE
  5
12C6B
330
1F
100
AcDbEntity
  8
実線
100
AcDbLine
 10
1468.499991390134
 20
1460.000019850007
 30
0.0
 11
1468.499991390134
 21
1780.000019850007
 31
0.0
  0
LINE
  5
12C6C
330
1F
100
AcDbEntity
  8
実線
100
AcDbLine
 10
1452.499991390134
 20
1780.000001605376
 30
0.0
 11
1468.499991390134
 21
1780.000001605376
 31
0.0
  0
LINE
  5
12C6D
330
1F
100
AcDbEntity
  8
実線
100
AcDbLine
 10
1452.499991390134
 20
1460.000001605376
 30
0.0
 11
1468.499991390134
 21
1460.000001605376
 31
0.0
  0
LINE
  5
12C6E
330
1F
100
AcDbEntity
  8
実線
100
AcDbLine
 10
2036.499991390134
 20
1460.000019850007
 30
0.0
 11
2036.499991390134
 21
1780.000019850007
 31
0.0
  0
LINE
  5
12C6F
330
1F
100
AcDbEntity
  8
実線
100
AcDbLine
 10
2036.499991390134
 20
1780.000001605376
 30
0.0
 11
2052.499991390134
 21
1780.000001605376
 31
0.0
  0
LINE
  5
12C70
330
1F
100
AcDbEntity
  8
実線
100
AcDbLine
 10
2036.499991390134
 20
1460.000001605376
 30
0.0
 11
2052.499991390134
 21
1460.000001605376
 31
0.0
  0
LINE
  5
12C71
330
1F
100
AcDbEntity
  8
実線
100
AcDbLine
 10
1480.499991390134
 20
1515.000001605376
 30
0.0
 11
1500.499991390134
 21
1515.000001605376
 31
0.0
  0
LINE
  5
12C72
330
1F
100
AcDbEntity
  8
実線
100
AcDbLine
 10
1500.499991390134
 20
1515.000001605376
 30
0.0
 11
1500.499991390134
 21
1725.000001605376
 31
0.0
  0
LINE
  5
12C73
330
1F
100
AcDbEntity
  8
実線
100
AcDbLine
 10
2004.499991390134
 20
1515.000001605376
 30
0.0
 11
2004.499991390134
 21
1725.000001605376
 31
0.0
  0
LINE
  5
12C74
330
1F
100
AcDbEntity
  8
実線
100
AcDbLine
 10
2004.499991390134
 20
1515.000001605376
 30
0.0
 11
2024.499991390134
 21
1515.000001605376
 31
0.0
  0
LINE
  5
12C75
330
1F
100
AcDbEntity
  8
実線
100
AcDbLine
 10
1468.499991390134
 20
1527.000001605376
 30
0.0
 11
1480.499991390134
 21
1515.000001605376
 31
0.0
  0
LINE
  5
12C76
330
1F
100
AcDbEntity
  8
実線
100
AcDbLine
 10
2024.499991390134
 20
1515.000001605376
 30
0.0
 11
2036.499991390134
 21
1527.000001605376
 31
0.0
  0
LINE
  5
12C77
330
1F
100
AcDbEntity
  8
実線
100
AcDbLine
 10
1468.499991390134
 20
1520.000001605376
 30
0.0
 11
1475.499991390134
 21
1520.000001605376
 31
0.0
  0
LINE
  5
12C78
330
1F
100
AcDbEntity
  8
実線
100
AcDbLine
 10
2029.499991390134
 20
1520.000001605376
 30
0.0
 11
2036.499991390134
 21
1520.000001605376
 31
0.0
  0
LINE
  5
12C79
330
1F
100
AcDbEntity
  8
破線
100
AcDbLine
 10
1475.499991390134
 20
1520.000001605376
 30
0.0
 11
1500.499991390134
 21
1520.000001605376
 31
0.0
  0
LINE
  5
12C7A
330
1F
100
AcDbEntity
  8
破線
100
AcDbLine
 10
2004.499991390134
 20
1520.000001605376
 30
0.0
 11
2029.499991390134
 21
1520.000001605376
 31
0.0
  0
LINE
  5
12C7B
330
1F
100
AcDbEntity
  8
破線
100
AcDbLine
 10
1468.499991390134
 20
1479.000001605376
 30
0.0
 11
1500.499991390134
 21
1479.000001605376
 31
0.0
  0
LINE
  5
12C7C
330
1F
100
AcDbEntity
  8
破線
100
AcDbLine
 10
1500.499991390134
 20
1479.000001605376
 30
0.0
 11
1500.499991390134
 21
1470.000001605376
 31
0.0
  0
LINE
  5
12C7D
330
1F
100
AcDbEntity
  8
破線
100
AcDbLine
 10
2004.499991390134
 20
1720.000001605376
 30
0.0
 11
2029.499991390134
 21
1720.000001605376
 31
0.0
  0
LINE
  5
12C7E
330
1F
100
AcDbEntity
  8
実線
100
AcDbLine
 10
2029.499991390134
 20
1720.000001605376
 30
0.0
 11
2036.499991390134
 21
1720.000001605376
 31
0.0
  0
LINE
  5
12C7F
330
1F
100
AcDbEntity
  8
実線
100
AcDbLine
 10
2004.499991390134
 20
1725.000001605376
 30
0.0
 11
2024.499991390134
 21
1725.000001605376
 31
0.0
  0
LINE
  5
12C80
330
1F
100
AcDbEntity
  8
実線
100
AcDbLine
 10
2024.499991390134
 20
1725.000001605376
 30
0.0
 11
2036.499991390134
 21
1713.000001605376
 31
0.0
  0
LINE
  5
12C81
330
1F
100
AcDbEntity
  8
破線
100
AcDbLine
 10
1468.499991390134
 20
1761.000001605376
 30
0.0
 11
1500.499991390134
 21
1761.000001605376
 31
0.0
  0
LINE
  5
12C82
330
1F
100
AcDbEntity
  8
破線
100
AcDbLine
 10
1500.499991390134
 20
1761.000001605376
 30
0.0
 11
1500.499991390134
 21
1770.000001605376
 31
0.0
  0
LINE
  5
12C83
330
1F
100
AcDbEntity
  8
破線
100
AcDbLine
 10
1475.499991390134
 20
1720.000001605376
 30
0.0
 11
1500.499991390134
 21
1720.000001605376
 31
0.0
  0
LINE
  5
12C84
330
1F
100
AcDbEntity
  8
実線
100
AcDbLine
 10
1480.499991390134
 20
1725.000001605376
 30
0.0
 11
1500.499991390134
 21
1725.000001605376
 31
0.0
  0
LINE
  5
12C85
330
1F
100
AcDbEntity
  8
実線
100
AcDbLine
 10
1468.499991390134
 20
1713.000001605376
 30
0.0
 11
1480.499991390134
 21
1725.000001605376
 31
0.0
  0
LINE
  5
12C86
330
1F
100
AcDbEntity
  8
実線
100
AcDbLine
 10
1468.499991390134
 20
1720.000001605376
 30
0.0
 11
1475.499991390134
 21
1720.000001605376
 31
0.0
  0
LINE
  5
12C87
330
1F
100
AcDbEntity
  8
破線
100
AcDbLine
 10
2036.499991390134
 20
1479.000001605376
 30
0.0
 11
2004.499991390134
 21
1479.000001605376
 31
0.0
  0
LINE
  5
12C88
330
1F
100
AcDbEntity
  8
破線
100
AcDbLine
 10
2004.499991390134
 20
1479.000001605376
 30
0.0
 11
2004.499991390134
 21
1470.000001605376
 31
0.0
  0
LINE
  5
12C89
330
1F
100
AcDbEntity
  8
破線
100
AcDbLine
 10
2004.499991390134
 20
1761.000001605376
 30
0.0
 11
2004.499991390134
 21
1770.000001605376
 31
0.0
  0
LINE
  5
12C8A
330
1F
100
AcDbEntity
  8
破線
100
AcDbLine
 10
2036.499991390134
 20
1761.000001605376
 30
0.0
 11
2004.499991390134
 21
1761.000001605376
 31
0.0
  0
LINE
  5
12C8B
330
1F
100
AcDbEntity
  8
破線
100
AcDbLine
 10
1468.499991390134
 20
1624.500001605376
 30
0.0
 11
1500.499991390134
 21
1624.500001605376
 31
0.0
  0
LINE
  5
12C8C
330
1F
100
AcDbEntity
  8
破線
100
AcDbLine
 10
1468.499991390134
 20
1615.500001605376
 30
0.0
 11
1500.499991390134
 21
1615.500001605376
 31
0.0
  0
LINE
  5
12C8D
330
1F
100
AcDbEntity
  8
破線
100
AcDbLine
 10
2004.499991390134
 20
1624.500001605376
 30
0.0
 11
2036.499991390134
 21
1624.500001605376
 31
0.0
  0
LINE
  5
12C8E
330
1F
100
AcDbEntity
  8
破線
100
AcDbLine
 10
2004.499991390134
 20
1615.500001605376
 30
0.0
 11
2036.499991390134
 21
1615.500001605376
 31
0.0
  0
DIMENSION
  5
12C8F
330
1F
100
AcDbEntity
  8
寸法線
100
AcDbDimension
280
     0
  2
*D16
 10
2672.499991296718
 20
2075.999981755368
 30
0.0
 11
2672.499991296718
 21
2220.000018975044
 31
0.0
 70
   160
 71
     5
 42
288.0000744393537
 73
     0
 74
     0
 75
     0
  3
STANDARD
100
AcDbAlignedDimension
 13
2552.49997148361
 23
2364.000056194721
 33
0.0
 14
2552.49997148361
 24
2075.999981755368
 34
0.0
 50
90.0
100
AcDbRotatedDimension
  0
LINE
  5
12C90
330
1F
100
AcDbEntity
  8
中心線
100
AcDbLine
 10
3097.499991296718
 20
2045.000018975045
 30
0.0
 11
3097.499991296718
 21
2395.000018975045
 31
0.0
  0
DIMENSION
  5
12C91
330
1F
100
AcDbEntity
  8
寸法線
100
AcDbDimension
280
     0
  2
*D17
 10
2947.499991296718
 20
1949.999999161934
 30
0.0
 11
3097.499991296718
 21
1949.999999161934
 31
0.0
 70
   160
 71
     5
 42
300.0
 73
     0
 74
     0
 75
     0
  3
STANDARD
100
AcDbAlignedDimension
 13
3247.499991296718
 23
2070.000018975044
 33
0.0
 14
2947.499991296718
 24
2070.000018975044
 34
0.0
100
AcDbRotatedDimension
  0
DIMENSION
  5
12C92
330
1F
100
AcDbEntity
  8
寸法線
100
AcDbDimension
280
     0
  2
*D18
 10
2827.499991296718
 20
2070.000018975045
 30
0.0
 11
2827.499991296718
 21
2220.000018975044
 31
0.0
 70
   160
 71
     5
 42
299.9999999999991
 73
     0
 74
     0
 75
     0
  3
STANDARD
100
AcDbAlignedDimension
 13
2947.499991296718
 23
2370.000018975044
 33
0.0
 14
2947.499991296718
 24
2070.000018975044
 34
0.0
 50
270.0
100
AcDbRotatedDimension
  0
LINE
  5
12C93
330
1F
100
AcDbEntity
  8
中心線
100
AcDbLine
 10
3272.499991296718
 20
2220.000018975044
 30
0.0
 11
2922.499991296718
 21
2220.000018975044
 31
0.0
  0
LINE
  5
12C94
330
1F
100
AcDbEntity
  8
中心線
100
AcDbLine
 10
1442.500094975159
 20
2345.000001605376
 30
0.0
 11
2062.50009497516
 21
2345.000001605376
 31
0.0
  0
LINE
  5
12C95
330
1F
100
AcDbEntity
  8
中心線
100
AcDbLine
 10
1442.500153788347
 20
2094.999974316122
 30
0.0
 11
2062.500153788301
 21
2095.000171928417
 31
0.0
  0
LINE
  5
12C96
330
1F
100
AcDbEntity
  8
中心線
100
AcDbLine
 10
1357.429552474727
 20
1745.000019850007
 30
0.0
 11
2152.611943080734
 21
1745.000019850007
 31
0.0
  0
LINE
  5
12C97
330
1F
100
AcDbEntity
  8
中心線
100
AcDbLine
 10
1357.429611237683
 20
1494.999916102851
 30
0.0
 11
2152.612001843625
 21
1495.000195900154
 31
0.0
  0
LINE
  5
12C98
330
1F
100
AcDbEntity
  8
実線
100
AcDbLine
 10
2552.499971483615
 20
1770.000034820441
 30
0.0
 11
2552.499971483615
 21
1470.000034820441
 31
0.0
  0
LINE
  5
12C99
330
1F
100
AcDbEntity
  8
破線
100
AcDbLine
 10
2526.499971483614
 20
1624.999997600775
 30
0.0
 11
2536.499971483615
 21
1634.999997600775
 31
0.0
  0
LINE
  5
12C9A
330
1F
100
AcDbEntity
  8
仮想線
100
AcDbLine
 10
2530.499971483614
 20
1624.999997600775
 30
0.0
 11
2536.499971483615
 21
1630.999997600775
 31
0.0
  0
LINE
  5
12C9B
330
1F
100
AcDbEntity
  8
破線
100
AcDbLine
 10
2526.499971483614
 20
1614.999997600761
 30
0.0
 11
2536.499971483615
 21
1604.99999760076
 31
0.0
  0
LINE
  5
12C9C
330
1F
100
AcDbEntity
  8
仮想線
100
AcDbLine
 10
2530.499971483614
 20
1614.999997600761
 30
0.0
 11
2536.499971483615
 21
1608.99999760076
 31
0.0
  0
LINE
  5
12C9D
330
1F
100
AcDbEntity
  8
破線
100
AcDbLine
 10
2536.499971483615
 20
1744.999997600775
 30
0.0
 11
2511.499951670498
 21
1744.999997600775
 31
0.0
  0
LINE
  5
12C9E
330
1F
100
AcDbEntity
  8
破線
100
AcDbLine
 10
2386.499971483615
 20
1655.000034820441
 30
0.0
 11
2386.499971483615
 21
1624.999997600775
 31
0.0
  0
LINE
  5
12C9F
330
1F
100
AcDbEntity
  8
破線
100
AcDbLine
 10
2511.499951670498
 20
1744.999997600775
 30
0.0
 11
2386.499971483615
 21
1655.000034820441
 31
0.0
  0
LINE
  5
12CA0
330
1F
100
AcDbEntity
  8
破線
100
AcDbLine
 10
2386.499971483615
 20
1584.999960381094
 30
0.0
 11
2386.499971483615
 21
1614.999997600761
 31
0.0
  0
LINE
  5
12CA1
330
1F
100
AcDbEntity
  8
破線
100
AcDbLine
 10
2511.499951670498
 20
1494.99999760076
 30
0.0
 11
2386.499971483615
 21
1584.999960381094
 31
0.0
  0
LINE
  5
12CA2
330
1F
100
AcDbEntity
  8
破線
100
AcDbLine
 10
2536.499971483615
 20
1494.99999760076
 30
0.0
 11
2511.499951670498
 21
1494.99999760076
 31
0.0
  0
LINE
  5
12CA3
330
1F
100
AcDbEntity
  8
実線
100
AcDbLine
 10
2052.499951670498
 20
1470.00014647947
 30
0.0
 11
2552.499971483615
 21
1470.000034820441
 31
0.0
  0
LINE
  5
12CA4
330
1F
100
AcDbEntity
  8
破線
100
AcDbLine
 10
2052.499951670498
 20
1615.000072040122
 30
0.0
 11
2536.499971483615
 21
1615.000072040122
 31
0.0
  0
LINE
  5
12CA5
330
1F
100
AcDbEntity
  8
破線
100
AcDbLine
 10
2052.499951670498
 20
1625.000072040122
 30
0.0
 11
2536.499971483615
 21
1625.000072040122
 31
0.0
  0
LINE
  5
12CA6
330
1F
100
AcDbEntity
  8
実線
100
AcDbLine
 10
2052.499951670498
 20
1769.999997600775
 30
0.0
 11
2552.499971483615
 21
1770.000034820441
 31
0.0
  0
LINE
  5
12CA7
330
1F
100
AcDbEntity
  8
実線
100
AcDbLine
 10
2536.499971483615
 20
1769.999997600775
 30
0.0
 11
2536.499971483615
 21
1470.00014647947
 31
0.0
  0
LINE
  5
12CA8
330
1F
100
AcDbEntity
  8
破線
100
AcDbLine
 10
2052.499951670498
 20
1752.999997600775
 30
0.0
 11
2132.499951670498
 21
1752.999997600775
 31
0.0
  0
LINE
  5
12CA9
330
1F
100
AcDbEntity
  8
破線
100
AcDbLine
 10
2052.499951670498
 20
1736.999997600775
 30
0.0
 11
2132.499951670498
 21
1736.999997600775
 31
0.0
  0
LINE
  5
12CAA
330
1F
100
AcDbEntity
  8
破線
100
AcDbLine
 10
2132.499951670498
 20
1752.999997600775
 30
0.0
 11
2132.499951670498
 21
1736.999997600775
 31
0.0
  0
LINE
  5
12CAB
330
1F
100
AcDbEntity
  8
破線
100
AcDbLine
 10
2052.499951670498
 20
1487.000146479469
 30
0.0
 11
2132.499951670498
 21
1487.000146479469
 31
0.0
  0
LINE
  5
12CAC
330
1F
100
AcDbEntity
  8
破線
100
AcDbLine
 10
2052.499951670498
 20
1503.00014647947
 30
0.0
 11
2132.499951670498
 21
1503.00014647947
 31
0.0
  0
LINE
  5
12CAD
330
1F
100
AcDbEntity
  8
破線
100
AcDbLine
 10
2132.499951670498
 20
1487.000146479469
 30
0.0
 11
2132.499951670498
 21
1503.00014647947
 31
0.0
  0
LINE
  5
12CAE
330
1F
100
AcDbEntity
  8
実線
100
AcDbLine
 10
2052.499991390133
 20
1460.000017450781
 30
0.0
 11
2052.499991390133
 21
1780.000037300791
 31
0.0
  0
LINE
  5
12CAF
330
1F
100
AcDbEntity
  8
中心線
100
AcDbLine
 10
2502.499971483615
 20
1729.841529581485
 30
0.0
 11
2502.499971483615
 21
1659.841566801166
 31
0.0
  0
LINE
  5
12CB0
330
1F
100
AcDbEntity
  8
中心線
100
AcDbLine
 10
2537.499952873774
 20
1694.841548191333
 30
0.0
 11
2467.499990093447
 21
1694.841548191333
 31
0.0
  0
CIRCLE
  5
12CB1
330
1F
100
AcDbEntity
  8
実線
100
AcDbCircle
 10
2502.499971483615
 20
1694.841548191333
 30
0.0
 40
12.5
  0
LINE
  5
12CB2
330
1F
100
AcDbEntity
  8
中心線
100
AcDbLine
 10
2502.499971483615
 20
1509.841629581489
 30
0.0
 11
2502.499971483615
 21
1579.841592361823
 31
0.0
  0
LINE
  5
12CB3
330
1F
100
AcDbEntity
  8
中心線
100
AcDbLine
 10
2537.499952873774
 20
1544.841610971656
 30
0.0
 11
2467.499990093447
 21
1544.841610971656
 31
0.0
  0
CIRCLE
  5
12CB4
330
1F
100
AcDbEntity
  8
実線
100
AcDbCircle
 10
2502.499971483615
 20
1544.841610971656
 30
0.0
 40
12.5
  0
LINE
  5
12CB5
330
1F
100
AcDbEntity
  8
中心線
100
AcDbLine
 10
2402.499971483615
 20
1729.841529581485
 30
0.0
 11
2402.499971483615
 21
1659.841566801166
 31
0.0
  0
LINE
  5
12CB6
330
1F
100
AcDbEntity
  8
中心線
100
AcDbLine
 10
2437.499952873773
 20
1694.841548191333
 30
0.0
 11
2367.499990093447
 21
1694.841548191333
 31
0.0
  0
CIRCLE
  5
12CB7
330
1F
100
AcDbEntity
  8
実線
100
AcDbCircle
 10
2402.499971483615
 20
1694.841548191333
 30
0.0
 40
12.5
  0
LINE
  5
12CB8
330
1F
100
AcDbEntity
  8
中心線
100
AcDbLine
 10
2402.499971483615
 20
1509.841629581489
 30
0.0
 11
2402.499971483615
 21
1579.841592361823
 31
0.0
  0
LINE
  5
12CB9
330
1F
100
AcDbEntity
  8
中心線
100
AcDbLine
 10
2437.499952873773
 20
1544.841610971656
 30
0.0
 11
2367.499990093447
 21
1544.841610971656
 31
0.0
  0
CIRCLE
  5
12CBA
330
1F
100
AcDbEntity
  8
実線
100
AcDbCircle
 10
2402.499971483615
 20
1544.841610971656
 30
0.0
 40
12.5
  0
LINE
  5
12CBB
330
1F
100
AcDbEntity
  8
中心線
100
AcDbLine
 10
2302.499971483614
 20
1729.841529581485
 30
0.0
 11
2302.499971483614
 21
1659.841566801166
 31
0.0
  0
LINE
  5
12CBC
330
1F
100
AcDbEntity
  8
中心線
100
AcDbLine
 10
2337.499952873773
 20
1694.841548191333
 30
0.0
 11
2267.499990093448
 21
1694.841548191333
 31
0.0
  0
CIRCLE
  5
12CBD
330
1F
100
AcDbEntity
  8
実線
100
AcDbCircle
 10
2302.499971483614
 20
1694.841548191333
 30
0.0
 40
12.5
  0
LINE
  5
12CBE
330
1F
100
AcDbEntity
  8
中心線
100
AcDbLine
 10
2302.499971483614
 20
1509.841629581489
 30
0.0
 11
2302.499971483614
 21
1579.841592361823
 31
0.0
  0
LINE
  5
12CBF
330
1F
100
AcDbEntity
  8
中心線
100
AcDbLine
 10
2337.499952873773
 20
1544.841610971656
 30
0.0
 11
2267.499990093448
 21
1544.841610971656
 31
0.0
  0
CIRCLE
  5
12CC0
330
1F
100
AcDbEntity
  8
実線
100
AcDbCircle
 10
2302.499971483614
 20
1544.841610971656
 30
0.0
 40
12.5
  0
LINE
  5
12CC1
330
1F
100
AcDbEntity
  8
中心線
100
AcDbLine
 10
2526.500310174712
 20
1719.938370542914
 30
0.0
 11
2562.500329987821
 21
1719.938370542914
 31
0.0
  0
LINE
  5
12CC2
330
1F
100
AcDbEntity
  8
中心線
100
AcDbLine
 10
2526.500310174712
 20
1519.938444266409
 30
0.0
 11
2562.500329987821
 21
1519.938444266409
 31
0.0
  0
DIMENSION
  5
12CC3
330
1F
100
AcDbEntity
  8
寸法線
100
AcDbDimension
280
     0
  2
*D1
 10
2212.499951670498
 20
1495.000195900154
 30
0.0
 11
2212.499951670498
 21
1482.500115360301
 31
0.0
 70
   160
 71
     5
 42
25.00016107970532
 73
     0
 74
     0
 75
     0
  3
STANDARD
100
AcDbAlignedDimension
 13
2052.500250641965
 23
1470.000034820448
 33
0.0
 14
2152.612001843625
 24
1495.000195900154
 34
0.0
 50
90.0
100
AcDbRotatedDimension
  0
DIMENSION
  5
12CC4
330
1F
100
AcDbEntity
  8
寸法線
100
AcDbDimension
280
     0
  2
*D2
 10
2212.499951670496
 20
1736.999997600776
 30
0.0
 11
2212.499951670496
 21
1744.999997600775
 31
0.0
 70
   160
 71
     5
 42
16.0
 73
     0
 74
     0
 75
     0
  3
STANDARD
100
AcDbAlignedDimension
 13
2132.499951670498
 23
1752.999997600775
 33
0.0
 14
2132.499951670498
 24
1736.999997600775
 34
0.0
 50
270.0
100
AcDbRotatedDimension
1001
ACAD
1000
DSTYLE
1002
{
1070
   271
1070
     1
1002
}
  0
LINE
  5
12CC5
330
1F
100
AcDbEntity
  8
実線
100
AcDbLine
 10
2552.500011296659
 20
2364.000017369674
 30
0.0
 11
2552.500011296659
 21
2076.000017369674
 31
0.0
  0
LINE
  5
12CC6
330
1F
100
AcDbEntity
  8
実線
100
AcDbLine
 10
2536.500011296659
 20
2369.999988421024
 30
0.0
 11
2536.500011296659
 21
2070.000017369673
 31
0.0
  0
LINE
  5
12CC7
330
1F
100
AcDbEntity
  8
実線
100
AcDbLine
 10
2536.500011296659
 20
2369.999988421024
 30
0.0
 11
2052.499991483543
 21
2369.999980149993
 31
0.0
  0
LINE
  5
12CC8
330
1F
100
AcDbEntity
  8
実線
100
AcDbLine
 10
2536.500011296659
 20
2354.999980149993
 30
0.0
 11
2052.499991483543
 21
2354.999980149993
 31
0.0
  0
LINE
  5
12CC9
330
1F
100
AcDbEntity
  8
実線
100
AcDbLine
 10
2132.500011296659
 20
2354.999980149993
 30
0.0
 11
2132.500011296659
 21
2335.000017369674
 31
0.0
  0
LINE
  5
12CCA
330
1F
100
AcDbEntity
  8
実線
100
AcDbLine
 10
2082.499991483543
 20
2304.999980149993
 30
0.0
 11
2052.499991483543
 21
2304.999980149993
 31
0.0
  0
LINE
  5
12CCB
330
1F
100
AcDbEntity
  8
実線
100
AcDbLine
 10
2132.500011296659
 20
2335.000017369674
 30
0.0
 11
2082.499991483543
 21
2304.999980149993
 31
0.0
  0
LINE
  5
12CCC
330
1F
100
AcDbEntity
  8
実線
100
AcDbLine
 10
2552.500011296659
 20
2364.000017369674
 30
0.0
 11
2536.500011296659
 21
2364.000017369674
 31
0.0
  0
LINE
  5
12CCD
330
1F
100
AcDbEntity
  8
仮想線
100
AcDbLine
 10
2536.500011296659
 20
2369.999988421024
 30
0.0
 11
2542.499982348017
 21
2364.000017369674
 31
0.0
  0
LINE
  5
12CCE
330
1F
100
AcDbEntity
  8
実線
100
AcDbLine
 10
2536.500011296659
 20
2225.999980149993
 30
0.0
 11
2386.499991483542
 21
2225.999980149993
 31
0.0
  0
LINE
  5
12CCF
330
1F
100
AcDbEntity
  8
実線
100
AcDbLine
 10
2536.500011296659
 20
2213.999980149992
 30
0.0
 11
2386.499991483542
 21
2213.999980149992
 31
0.0
  0
LINE
  5
12CD0
330
1F
100
AcDbEntity
  8
実線
100
AcDbLine
 10
2386.499991483542
 20
2225.999980149993
 30
0.0
 11
2386.499991483542
 21
2213.999980149992
 31
0.0
  0
LINE
  5
12CD1
330
1F
100
AcDbEntity
  8
実線
100
AcDbLine
 10
2062.500011296659
 20
2354.999980149993
 30
0.0
 11
2052.499991483543
 21
2344.999980149992
 31
0.0
  0
LINE
  5
12CD2
330
1F
100
AcDbEntity
  8
仮想線
100
AcDbLine
 10
2058.50000337141
 20
2354.999980149993
 30
0.0
 11
2052.499991483543
 21
2348.999980149993
 31
0.0
  0
LINE
  5
12CD3
330
1F
100
AcDbEntity
  8
仮想線
100
AcDbLine
 10
2052.499982426663
 20
2376.000003503459
 30
0.0
 11
2058.500005780137
 21
2369.999980149993
 31
0.0
  0
LINE
  5
12CD4
330
1F
100
AcDbEntity
  8
実線
100
AcDbLine
 10
2536.500011296659
 20
2069.999970926072
 30
0.0
 11
2052.499991483543
 21
2069.999980149992
 31
0.0
  0
LINE
  5
12CD5
330
1F
100
AcDbEntity
  8
実線
100
AcDbLine
 10
2536.500011296659
 20
2084.999980149992
 30
0.0
 11
2052.499991483543
 21
2084.999980149992
 31
0.0
  0
LINE
  5
12CD6
330
1F
100
AcDbEntity
  8
実線
100
AcDbLine
 10
2132.500011296659
 20
2084.999980149992
 30
0.0
 11
2132.500011296659
 21
2104.999942930312
 31
0.0
  0
LINE
  5
12CD7
330
1F
100
AcDbEntity
  8
実線
100
AcDbLine
 10
2082.499991483543
 20
2134.999980149993
 30
0.0
 11
2052.499991483543
 21
2134.999980149993
 31
0.0
  0
LINE
  5
12CD8
330
1F
100
AcDbEntity
  8
実線
100
AcDbLine
 10
2132.500011296659
 20
2104.999942930312
 30
0.0
 11
2082.499991483543
 21
2134.999980149993
 31
0.0
  0
LINE
  5
12CD9
330
1F
100
AcDbEntity
  8
実線
100
AcDbLine
 10
2552.500011296659
 20
2075.999942930312
 30
0.0
 11
2536.500011296659
 21
2075.999942930312
 31
0.0
  0
LINE
  5
12CDA
330
1F
100
AcDbEntity
  8
仮想線
100
AcDbLine
 10
2536.500011296659
 20
2069.999971878946
 30
0.0
 11
2542.499982348017
 21
2075.999942930312
 31
0.0
  0
LINE
  5
12CDB
330
1F
100
AcDbEntity
  8
実線
100
AcDbLine
 10
2062.500011296659
 20
2084.999980149992
 30
0.0
 11
2052.499991483543
 21
2094.999980149992
 31
0.0
  0
LINE
  5
12CDC
330
1F
100
AcDbEntity
  8
仮想線
100
AcDbLine
 10
2058.50000337141
 20
2084.999980149992
 30
0.0
 11
2052.499991483543
 21
2090.999980149993
 31
0.0
  0
LINE
  5
12CDD
330
1F
100
AcDbEntity
  8
仮想線
100
AcDbLine
 10
2052.499982426663
 20
2063.999956796512
 30
0.0
 11
2058.500005780137
 21
2069.999980149992
 31
0.0
  0
LINE
  5
12CDE
330
1F
100
AcDbEntity
  8
実線
100
AcDbLine
 10
2052.499991390134
 20
2059.999999999998
 30
0.0
 11
2052.499991390134
 21
2380.000019850008
 31
0.0
  0
LINE
  5
12CDF
330
1F
100
AcDbEntity
  8
中心線
100
AcDbLine
 10
2502.500075921344
 20
2380.000075267175
 30
0.0
 11
2502.500075921344
 21
2345.000075267175
 31
0.0
  0
LINE
  5
12CE0
330
1F
100
AcDbEntity
  8
中心線
100
AcDbLine
 10
2502.500075921344
 20
2060.00000081751
 30
0.0
 11
2502.500075921344
 21
2095.00000081751
 31
0.0
  0
LINE
  5
12CE1
330
1F
100
AcDbEntity
  8
中心線
100
AcDbLine
 10
2402.500075921344
 20
2380.000075267175
 30
0.0
 11
2402.500075921344
 21
2345.000075267175
 31
0.0
  0
LINE
  5
12CE2
330
1F
100
AcDbEntity
  8
中心線
100
AcDbLine
 10
2402.500075921344
 20
2060.00000081751
 30
0.0
 11
2402.500075921344
 21
2095.00000081751
 31
0.0
  0
LINE
  5
12CE3
330
1F
100
AcDbEntity
  8
中心線
100
AcDbLine
 10
2302.500075921344
 20
2380.000075267175
 30
0.0
 11
2302.500075921344
 21
2345.000075267175
 31
0.0
  0
LINE
  5
12CE4
330
1F
100
AcDbEntity
  8
中心線
100
AcDbLine
 10
2302.500075921344
 20
2060.00000081751
 30
0.0
 11
2302.500075921344
 21
2095.00000081751
 31
0.0
  0
DIMENSION
  5
12CE5
330
1F
100
AcDbEntity
  8
寸法線
100
AcDbDimension
280
     0
  2
*D3
 10
2306.499911857463
 20
2213.999980149994
 30
0.0
 11
2306.499911857463
 21
2219.999980149992
 31
0.0
 70
   160
 71
     5
 42
12.0
 73
     0
 74
     0
 75
     0
  3
STANDARD
100
AcDbAlignedDimension
 13
2386.499991483542
 23
2225.999980149993
 33
0.0
 14
2386.499991483542
 24
2213.999980149992
 34
0.0
 50
90.0
100
AcDbRotatedDimension
1001
ACAD
1000
DSTYLE
1002
{
1070
   140
1040
2.5
1002
}
  0
LEADER
  5
12CE8
330
1F
100
AcDbEntity
  8
寸法線
100
AcDbLeader
  3
STANDARD
 76
     3
 10
2460.41791613803
 20
2225.999980149993
 30
0.0
 10
2433.131430781832
 20
2282.918720975546
 30
0.0
 10
2268.964795895983
 20
2282.918720975546
 30
0.0
1001
ACAD
1000
DSTYLE
1002
{
1070
   147
1040
0.875
1070
    77
1070
     0
1002
}
  0
TEXT
  5
12CE9
330
1F
100
AcDbEntity
  8
寸法線
100
AcDbText
 10
2281.048097448499
 20
2291.66872097556
 30
0.0
 40
25.0
  1
ﾘﾌﾞﾌﾟﾚｰﾄ②
 72
     2
 11
2424.381430781832
 21
2291.66872097556
 31
0.0
100
AcDbText
 73
     1
  0
LINE
  5
12CEA
330
1F
100
AcDbEntity
  8
中心線
100
AcDbLine
 10
2526.500050922878
 20
2145.000054231363
 30
0.0
 11
2562.500070735987
 21
2145.000054231363
 31
0.0
  0
LINE
  5
12CEB
330
1F
100
AcDbEntity
  8
中心線
100
AcDbLine
 10
2526.500050922878
 20
2295.123235339457
 30
0.0
 11
2562.500070735987
 21
2295.123235339457
 31
0.0
  0
TEXT
  5
12CEC
330
1F
100
AcDbEntity
  8
寸法線
100
AcDbText
 10
3095.862600575055
 20
2497.218402119426
 30
0.0
 40
25.0
  1
主材連結用孔
 72
     2
 11
3269.195933908388
 21
2522.218402119426
 31
0.0
100
AcDbText
 73
     3
  0
LEADER
  5
12CED
330
1F
100
AcDbEntity
  8
寸法線
100
AcDbLeader
  3
STANDARD
 76
     3
 10
3005.714199671211
 20
2304.422198121884
 30
0.0
 10
3097.500009906555
 20
2490.000048847115
 30
0.0
 10
3271.246439142068
 20
2490.000048847115
 30
0.0
211
-1.0
221
0.0
231
0.0
1001
ACAD
1000
DSTYLE
1002
{
1070
   147
1040
0.875
1070
    77
1070
     0
1002
}
  0
LINE
  5
12CEE
330
1F
100
AcDbEntity
  8
中心線
100
AcDbLine
 10
2997.500009906555
 20
2110.000057397991
 30
0.0
 11
2997.500009906555
 21
2180.000020178317
 31
0.0
  0
CIRCLE
  5
12CEF
330
1F
100
AcDbEntity
  8
実線
100
AcDbCircle
 10
2997.500009906555
 20
2145.000038788154
 30
0.0
 40
12.5
  0
LINE
  5
12CF0
330
1F
100
AcDbEntity
  8
中心線
100
AcDbLine
 10
3032.499991296718
 20
2145.000038788154
 30
0.0
 11
2962.500028516391
 21
2145.000038788154
 31
0.0
  0
LINE
  5
12CF1
330
1F
100
AcDbEntity
  8
中心線
100
AcDbLine
 10
2997.500009906555
 20
2330.000020178317
 30
0.0
 11
2997.500009906555
 21
2260.000057397991
 31
0.0
  0
CIRCLE
  5
12CF2
330
1F
100
AcDbEntity
  8
実線
100
AcDbCircle
 10
2997.500009906555
 20
2295.000038788154
 30
0.0
 40
12.5
  0
LINE
  5
12CF3
330
1F
100
AcDbEntity
  8
中心線
100
AcDbLine
 10
3032.499991296718
 20
2295.000038788154
 30
0.0
 11
2962.500028516391
 21
2295.000038788154
 31
0.0
  0
LINE
  5
12CF4
330
1F
100
AcDbEntity
  8
中心線
100
AcDbLine
 10
3197.500047126228
 20
2110.000057397991
 30
0.0
 11
3197.500047126228
 21
2180.000020178317
 31
0.0
  0
CIRCLE
  5
12CF5
330
1F
100
AcDbEntity
  8
実線
100
AcDbCircle
 10
3197.500047126228
 20
2145.000038788154
 30
0.0
 40
12.5
  0
LINE
  5
12CF6
330
1F
100
AcDbEntity
  8
中心線
100
AcDbLine
 10
3162.500065736065
 20
2145.000038788154
 30
0.0
 11
3232.500028516392
 21
2145.000038788154
 31
0.0
  0
LINE
  5
12CF7
330
1F
100
AcDbEntity
  8
中心線
100
AcDbLine
 10
3197.500047126228
 20
2330.000020178317
 30
0.0
 11
3197.500047126228
 21
2260.000057397991
 31
0.0
  0
CIRCLE
  5
12CF8
330
1F
100
AcDbEntity
  8
実線
100
AcDbCircle
 10
3197.500047126228
 20
2295.000038788154
 30
0.0
 40
12.5
  0
LINE
  5
12CF9
330
1F
100
AcDbEntity
  8
中心線
100
AcDbLine
 10
3162.500065736065
 20
2295.000038788154
 30
0.0
 11
3232.500028516392
 21
2295.000038788154
 31
0.0
  0
LINE
  5
12CFA
330
1F
100
AcDbEntity
  8
実線
100
AcDbLine
 10
2947.500028516392
 20
2076.000038788154
 30
0.0
 11
3247.500028516391
 21
2076.000038788154
 31
0.0
  0
LINE
  5
12CFB
330
1F
100
AcDbEntity
  8
実線
100
AcDbLine
 10
2947.500028516392
 20
2364.000038788154
 30
0.0
 11
3247.500028516391
 21
2364.000038788154
 31
0.0
  0
LINE
  5
12CFC
330
1F
100
AcDbEntity
  8
破線
100
AcDbLine
 10
2947.500028516392
 20
2085.000018975045
 30
0.0
 11
3079.500028516392
 21
2085.000018975045
 31
0.0
  0
LINE
  5
12CFD
330
1F
100
AcDbEntity
  8
破線
100
AcDbLine
 10
3092.500028516392
 20
2342.000058601263
 30
0.0
 11
3092.500028516392
 21
2098.000018975045
 31
0.0
  0
ARC
  5
12CFE
330
1F
100
AcDbEntity
  8
破線
100
AcDbCircle
 10
3079.500028516392
 20
2098.000018975045
 30
0.0
 40
13.0
100
AcDbArc
 50
270.0
 51
0.0
  0
LINE
  5
12CFF
330
1F
100
AcDbEntity
  8
破線
100
AcDbLine
 10
2947.500028516392
 20
2355.000058601263
 30
0.0
 11
3079.500028516392
 21
2355.000058601263
 31
0.0
  0
ARC
  5
12D00
330
1F
100
AcDbEntity
  8
破線
100
AcDbCircle
 10
3079.500028516392
 20
2342.000058601263
 30
0.0
 40
13.0
100
AcDbArc
 50
0.0
 51
90.0
  0
LINE
  5
12D01
330
1F
100
AcDbEntity
  8
破線
100
AcDbLine
 10
3247.500028516395
 20
2085.000018975045
 30
0.0
 11
3115.500028516392
 21
2085.000018975045
 31
0.0
  0
LINE
  5
12D02
330
1F
100
AcDbEntity
  8
破線
100
AcDbLine
 10
3102.500028516392
 20
2342.000058601263
 30
0.0
 11
3102.500028516392
 21
2098.000018975045
 31
0.0
  0
ARC
  5
12D03
330
1F
100
AcDbEntity
  8
破線
100
AcDbCircle
 10
3115.500028516392
 20
2098.000018975045
 30
0.0
 40
13.0
100
AcDbArc
 50
180.0
 51
270.0
  0
LINE
  5
12D04
330
1F
100
AcDbEntity
  8
破線
100
AcDbLine
 10
3247.500028516395
 20
2355.000058601263
 30
0.0
 11
3115.500028516392
 21
2355.000058601263
 31
0.0
  0
ARC
  5
12D05
330
1F
100
AcDbEntity
  8
破線
100
AcDbCircle
 10
3115.500028516392
 20
2342.000058601263
 30
0.0
 40
13.0
100
AcDbArc
 50
90.0
 51
180.0
  0
LINE
  5
12D06
330
1F
100
AcDbEntity
  8
破線
100
AcDbLine
 10
2972.499991296718
 20
2214.000038788154
 30
0.0
 11
3092.500028516392
 21
2214.000038788154
 31
0.0
  0
LINE
  5
12D07
330
1F
100
AcDbEntity
  8
破線
100
AcDbLine
 10
2972.499991296718
 20
2226.000038788154
 30
0.0
 11
3092.500028516392
 21
2226.000038788154
 31
0.0
  0
LINE
  5
12D08
330
1F
100
AcDbEntity
  8
破線
100
AcDbLine
 10
2972.499991296718
 20
2214.000038788154
 30
0.0
 11
2972.499991296718
 21
2226.000038788154
 31
0.0
  0
LINE
  5
12D09
330
1F
100
AcDbEntity
  8
破線
100
AcDbLine
 10
3222.500065736066
 20
2214.000038788154
 30
0.0
 11
3102.500028516392
 21
2214.000038788154
 31
0.0
  0
LINE
  5
12D0A
330
1F
100
AcDbEntity
  8
破線
100
AcDbLine
 10
3222.500065736066
 20
2226.000038788154
 30
0.0
 11
3102.500028516392
 21
2226.000038788154
 31
0.0
  0
LINE
  5
12D0B
330
1F
100
AcDbEntity
  8
破線
100
AcDbLine
 10
3222.500065736066
 20
2214.000038788154
 30
0.0
 11
3222.500065736066
 21
2226.000038788154
 31
0.0
  0
LINE
  5
12D0C
330
1F
100
AcDbEntity
  8
実線
100
AcDbLine
 10
3247.500028516391
 20
2370.000038788154
 30
0.0
 11
3247.500028516391
 21
2070.000038788154
 31
0.0
  0
LINE
  5
12D0D
330
1F
100
AcDbEntity
  8
実線
100
AcDbLine
 10
2947.500028516392
 20
2370.000038788154
 30
0.0
 11
2947.500028516392
 21
2070.000038788154
 31
0.0
  0
LINE
  5
12D0E
330
1F
100
AcDbEntity
  8
実線
100
AcDbLine
 10
2947.500028516392
 20
2070.000038788154
 30
0.0
 11
3247.500028516391
 21
2070.000038788154
 31
0.0
  0
LINE
  5
12D0F
330
1F
100
AcDbEntity
  8
実線
100
AcDbLine
 10
2947.500028516392
 20
2370.000038788154
 30
0.0
 11
3247.500028516391
 21
2370.000038788154
 31
0.0
  0
LINE
  5
12D10
330
1F
100
AcDbEntity
  8
実線
100
AcDbLine
 10
952.4999714836084
 20
2364.000037219682
 30
0.0
 11
952.4999714836084
 21
2076.000037219682
 31
0.0
  0
LINE
  5
12D11
330
1F
100
AcDbEntity
  8
実線
100
AcDbLine
 10
968.4999714836084
 20
2370.000008271034
 30
0.0
 11
968.4999714836084
 21
2070.000037219682
 31
0.0
  0
LINE
  5
12D12
330
1F
100
AcDbEntity
  8
実線
100
AcDbLine
 10
968.4999714836084
 20
2370.000008271034
 30
0.0
 11
1452.499991296725
 21
2370.000000000001
 31
0.0
  0
LINE
  5
12D13
330
1F
100
AcDbEntity
  8
実線
100
AcDbLine
 10
968.4999714836084
 20
2355.000000000002
 30
0.0
 11
1452.499991296725
 21
2355.000000000002
 31
0.0
  0
LINE
  5
12D14
330
1F
100
AcDbEntity
  8
実線
100
AcDbLine
 10
1372.499971483608
 20
2355.000000000002
 30
0.0
 11
1372.499971483608
 21
2335.000037219682
 31
0.0
  0
LINE
  5
12D15
330
1F
100
AcDbEntity
  8
実線
100
AcDbLine
 10
1422.499991296725
 20
2305.000000000001
 30
0.0
 11
1452.499991296725
 21
2305.000000000001
 31
0.0
  0
LINE
  5
12D16
330
1F
100
AcDbEntity
  8
実線
100
AcDbLine
 10
1372.499971483608
 20
2335.000037219682
 30
0.0
 11
1422.499991296725
 21
2305.000000000001
 31
0.0
  0
LINE
  5
12D17
330
1F
100
AcDbEntity
  8
実線
100
AcDbLine
 10
952.4999714836084
 20
2364.000037219682
 30
0.0
 11
968.4999714836084
 21
2364.000037219682
 31
0.0
  0
LINE
  5
12D18
330
1F
100
AcDbEntity
  8
仮想線
100
AcDbLine
 10
968.4999714836084
 20
2370.000008271034
 30
0.0
 11
962.5000004322501
 21
2364.000037219682
 31
0.0
  0
LINE
  5
12D19
330
1F
100
AcDbEntity
  8
実線
100
AcDbLine
 10
968.4999714836084
 20
2226.000000000002
 30
0.0
 11
1118.499991296725
 21
2226.000000000002
 31
0.0
  0
LINE
  5
12D1A
330
1F
100
AcDbEntity
  8
実線
100
AcDbLine
 10
968.4999714836084
 20
2214.000000000002
 30
0.0
 11
1118.499991296725
 21
2214.000000000002
 31
0.0
  0
LINE
  5
12D1B
330
1F
100
AcDbEntity
  8
実線
100
AcDbLine
 10
1118.499991296725
 20
2226.000000000002
 30
0.0
 11
1118.499991296725
 21
2214.000000000002
 31
0.0
  0
LINE
  5
12D1C
330
1F
100
AcDbEntity
  8
実線
100
AcDbLine
 10
1442.499971483608
 20
2355.000000000002
 30
0.0
 11
1452.499991296725
 21
2345.000000000001
 31
0.0
  0
LINE
  5
12D1D
330
1F
100
AcDbEntity
  8
仮想線
100
AcDbLine
 10
1446.499979408858
 20
2355.000000000002
 30
0.0
 11
1452.499991296725
 21
2349.000000000001
 31
0.0
  0
LINE
  5
12D1E
330
1F
100
AcDbEntity
  8
仮想線
100
AcDbLine
 10
1452.500000353604
 20
2376.000023353468
 30
0.0
 11
1446.49997700013
 21
2370.000000000001
 31
0.0
  0
LINE
  5
12D1F
330
1F
100
AcDbEntity
  8
実線
100
AcDbLine
 10
968.4999714836084
 20
2069.999990776081
 30
0.0
 11
1452.499991296725
 21
2070.000000000002
 31
0.0
  0
LINE
  5
12D20
330
1F
100
AcDbEntity
  8
実線
100
AcDbLine
 10
968.4999714836084
 20
2085.000000000002
 30
0.0
 11
1452.499991296725
 21
2085.000000000002
 31
0.0
  0
LINE
  5
12D21
330
1F
100
AcDbEntity
  8
実線
100
AcDbLine
 10
1372.499971483608
 20
2085.000000000002
 30
0.0
 11
1372.499971483608
 21
2104.99996278032
 31
0.0
  0
LINE
  5
12D22
330
1F
100
AcDbEntity
  8
実線
100
AcDbLine
 10
1422.499991296725
 20
2135.000000000002
 30
0.0
 11
1452.499991296725
 21
2135.000000000002
 31
0.0
  0
LINE
  5
12D23
330
1F
100
AcDbEntity
  8
実線
100
AcDbLine
 10
1372.499971483608
 20
2104.99996278032
 30
0.0
 11
1422.499991296725
 21
2135.000000000002
 31
0.0
  0
LINE
  5
12D24
330
1F
100
AcDbEntity
  8
実線
100
AcDbLine
 10
952.4999714836084
 20
2075.99996278032
 30
0.0
 11
968.4999714836084
 21
2075.99996278032
 31
0.0
  0
LINE
  5
12D25
330
1F
100
AcDbEntity
  8
仮想線
100
AcDbLine
 10
968.4999714836084
 20
2069.999991728955
 30
0.0
 11
962.5000004322501
 21
2075.99996278032
 31
0.0
  0
LINE
  5
12D26
330
1F
100
AcDbEntity
  8
実線
100
AcDbLine
 10
1442.499971483608
 20
2085.000000000002
 30
0.0
 11
1452.499991296725
 21
2095.000000000001
 31
0.0
  0
LINE
  5
12D27
330
1F
100
AcDbEntity
  8
仮想線
100
AcDbLine
 10
1446.499979408858
 20
2085.000000000002
 30
0.0
 11
1452.499991296725
 21
2091.000000000001
 31
0.0
  0
LINE
  5
12D28
330
1F
100
AcDbEntity
  8
仮想線
100
AcDbLine
 10
1452.500000353604
 20
2063.99997664652
 30
0.0
 11
1446.49997700013
 21
2070.000000000002
 31
0.0
  0
LINE
  5
12D29
330
1F
100
AcDbEntity
  8
実線
100
AcDbLine
 10
1452.499991390134
 20
2060.000019850007
 30
0.0
 11
1452.499991390134
 21
2380.000019850007
 31
0.0
  0
LINE
  5
12D2A
330
1F
100
AcDbEntity
  8
中心線
100
AcDbLine
 10
1002.499906858924
 20
2380.000095117184
 30
0.0
 11
1002.499906858924
 21
2345.000095117184
 31
0.0
  0
LINE
  5
12D2B
330
1F
100
AcDbEntity
  8
中心線
100
AcDbLine
 10
1002.499906858924
 20
2060.000020667519
 30
0.0
 11
1002.499906858924
 21
2095.000020667519
 31
0.0
  0
LINE
  5
12D2C
330
1F
100
AcDbEntity
  8
中心線
100
AcDbLine
 10
1102.499906858924
 20
2380.000095117184
 30
0.0
 11
1102.499906858924
 21
2345.000095117184
 31
0.0
  0
LINE
  5
12D2D
330
1F
100
AcDbEntity
  8
中心線
100
AcDbLine
 10
1102.499906858924
 20
2060.000020667519
 30
0.0
 11
1102.499906858924
 21
2095.000020667519
 31
0.0
  0
LINE
  5
12D2E
330
1F
100
AcDbEntity
  8
中心線
100
AcDbLine
 10
1202.499906858924
 20
2380.000095117184
 30
0.0
 11
1202.499906858924
 21
2345.000095117184
 31
0.0
  0
LINE
  5
12D2F
330
1F
100
AcDbEntity
  8
中心線
100
AcDbLine
 10
1202.499906858924
 20
2060.000020667519
 30
0.0
 11
1202.499906858924
 21
2095.000020667519
 31
0.0
  0
LINE
  5
12D30
330
1F
100
AcDbEntity
  8
中心線
100
AcDbLine
 10
942.500011109827
 20
2145.000056711711
 30
0.0
 11
978.5000309229362
 21
2145.000056711711
 31
0.0
  0
LINE
  5
12D31
330
1F
100
AcDbEntity
  8
中心線
100
AcDbLine
 10
942.500011109827
 20
2295.123237819791
 30
0.0
 11
978.5000309229362
 21
2295.123237819791
 31
0.0
  0
LINE
  5
12D32
330
1F
100
AcDbEntity
  8
実線
100
AcDbLine
 10
952.5000112966509
 20
1770.000037219667
 30
0.0
 11
952.5000112966509
 21
1470.000037219668
 31
0.0
  0
LINE
  5
12D33
330
1F
100
AcDbEntity
  8
破線
100
AcDbLine
 10
978.5000112966509
 20
1625.000000000001
 30
0.0
 11
968.5000112966509
 21
1635.000000000001
 31
0.0
  0
LINE
  5
12D34
330
1F
100
AcDbEntity
  8
仮想線
100
AcDbLine
 10
974.5000112966508
 20
1625.000000000001
 30
0.0
 11
968.5000112966509
 21
1631.000000000001
 31
0.0
  0
LINE
  5
12D35
330
1F
100
AcDbEntity
  8
破線
100
AcDbLine
 10
978.5000112966509
 20
1614.999999999987
 30
0.0
 11
968.5000112966509
 21
1604.999999999987
 31
0.0
  0
LINE
  5
12D36
330
1F
100
AcDbEntity
  8
仮想線
100
AcDbLine
 10
974.5000112966508
 20
1614.999999999987
 30
0.0
 11
968.5000112966509
 21
1608.999999999987
 31
0.0
  0
LINE
  5
12D37
330
1F
100
AcDbEntity
  8
破線
100
AcDbLine
 10
968.5000112966509
 20
1745.000000000001
 30
0.0
 11
993.5000311097683
 21
1745.000000000001
 31
0.0
  0
LINE
  5
12D38
330
1F
100
AcDbEntity
  8
破線
100
AcDbLine
 10
1118.500011296651
 20
1655.000037219668
 30
0.0
 11
1118.500011296651
 21
1625.000000000001
 31
0.0
  0
LINE
  5
12D39
330
1F
100
AcDbEntity
  8
破線
100
AcDbLine
 10
993.5000311097683
 20
1745.000000000001
 30
0.0
 11
1118.500011296651
 21
1655.000037219668
 31
0.0
  0
LINE
  5
12D3A
330
1F
100
AcDbEntity
  8
破線
100
AcDbLine
 10
1118.500011296651
 20
1584.99996278032
 30
0.0
 11
1118.500011296651
 21
1614.999999999987
 31
0.0
  0
LINE
  5
12D3B
330
1F
100
AcDbEntity
  8
破線
100
AcDbLine
 10
993.5000311097683
 20
1494.999999999987
 30
0.0
 11
1118.500011296651
 21
1584.99996278032
 31
0.0
  0
LINE
  5
12D3C
330
1F
100
AcDbEntity
  8
破線
100
AcDbLine
 10
968.5000112966509
 20
1494.999999999987
 30
0.0
 11
993.5000311097683
 21
1494.999999999987
 31
0.0
  0
LINE
  5
12D3D
330
1F
100
AcDbEntity
  8
実線
100
AcDbLine
 10
1452.500031109768
 20
1470.000148878696
 30
0.0
 11
952.5000112966509
 21
1470.000037219668
 31
0.0
  0
LINE
  5
12D3E
330
1F
100
AcDbEntity
  8
破線
100
AcDbLine
 10
1452.500031109768
 20
1615.000074439349
 30
0.0
 11
968.5000112966509
 21
1615.000074439349
 31
0.0
  0
LINE
  5
12D3F
330
1F
100
AcDbEntity
  8
破線
100
AcDbLine
 10
1452.500031109768
 20
1625.000074439349
 30
0.0
 11
968.5000112966509
 21
1625.000074439349
 31
0.0
  0
LINE
  5
12D40
330
1F
100
AcDbEntity
  8
実線
100
AcDbLine
 10
1452.500031109768
 20
1770.000000000001
 30
0.0
 11
952.5000112966509
 21
1770.000037219667
 31
0.0
  0
LINE
  5
12D41
330
1F
100
AcDbEntity
  8
実線
100
AcDbLine
 10
968.5000112966509
 20
1770.000000000001
 30
0.0
 11
968.5000112966509
 21
1470.000148878696
 31
0.0
  0
LINE
  5
12D42
330
1F
100
AcDbEntity
  8
破線
100
AcDbLine
 10
1452.500031109768
 20
1753.000000000001
 30
0.0
 11
1372.500031109767
 21
1753.000000000001
 31
0.0
  0
LINE
  5
12D43
330
1F
100
AcDbEntity
  8
破線
100
AcDbLine
 10
1452.500031109768
 20
1737.000000000001
 30
0.0
 11
1372.500031109767
 21
1737.000000000001
 31
0.0
  0
LINE
  5
12D44
330
1F
100
AcDbEntity
  8
破線
100
AcDbLine
 10
1372.500031109767
 20
1753.000000000001
 30
0.0
 11
1372.500031109767
 21
1737.000000000001
 31
0.0
  0
LINE
  5
12D45
330
1F
100
AcDbEntity
  8
破線
100
AcDbLine
 10
1452.500031109768
 20
1487.000148878696
 30
0.0
 11
1372.500031109767
 21
1487.000148878696
 31
0.0
  0
LINE
  5
12D46
330
1F
100
AcDbEntity
  8
破線
100
AcDbLine
 10
1452.500031109768
 20
1503.000148878696
 30
0.0
 11
1372.500031109767
 21
1503.000148878696
 31
0.0
  0
LINE
  5
12D47
330
1F
100
AcDbEntity
  8
破線
100
AcDbLine
 10
1372.500031109767
 20
1487.000148878696
 30
0.0
 11
1372.500031109767
 21
1503.000148878696
 31
0.0
  0
LINE
  5
12D48
330
1F
100
AcDbEntity
  8
中心線
100
AcDbLine
 10
1002.500011296651
 20
1729.841531980711
 30
0.0
 11
1002.500011296651
 21
1659.841569200392
 31
0.0
  0
LINE
  5
12D49
330
1F
100
AcDbEntity
  8
中心線
100
AcDbLine
 10
967.5000299064913
 20
1694.841550590559
 30
0.0
 11
1037.499992686818
 21
1694.841550590559
 31
0.0
  0
CIRCLE
  5
12D4A
330
1F
100
AcDbEntity
  8
実線
100
AcDbCircle
 10
1002.500011296651
 20
1694.841550590559
 30
0.0
 40
12.5
  0
LINE
  5
12D4B
330
1F
100
AcDbEntity
  8
中心線
100
AcDbLine
 10
1002.500011296651
 20
1509.841631980716
 30
0.0
 11
1002.500011296651
 21
1579.84159476105
 31
0.0
  0
LINE
  5
12D4C
330
1F
100
AcDbEntity
  8
中心線
100
AcDbLine
 10
967.5000299064913
 20
1544.841613370883
 30
0.0
 11
1037.499992686818
 21
1544.841613370883
 31
0.0
  0
CIRCLE
  5
12D4D
330
1F
100
AcDbEntity
  8
実線
100
AcDbCircle
 10
1002.500011296651
 20
1544.841613370883
 30
0.0
 40
12.5
  0
LINE
  5
12D4E
330
1F
100
AcDbEntity
  8
中心線
100
AcDbLine
 10
1102.500011296651
 20
1729.841531980711
 30
0.0
 11
1102.500011296651
 21
1659.841569200392
 31
0.0
  0
LINE
  5
12D4F
330
1F
100
AcDbEntity
  8
中心線
100
AcDbLine
 10
1067.500029906491
 20
1694.841550590559
 30
0.0
 11
1137.499992686819
 21
1694.841550590559
 31
0.0
  0
CIRCLE
  5
12D50
330
1F
100
AcDbEntity
  8
実線
100
AcDbCircle
 10
1102.500011296651
 20
1694.841550590559
 30
0.0
 40
12.5
  0
LINE
  5
12D51
330
1F
100
AcDbEntity
  8
中心線
100
AcDbLine
 10
1102.500011296651
 20
1509.841631980716
 30
0.0
 11
1102.500011296651
 21
1579.84159476105
 31
0.0
  0
LINE
  5
12D52
330
1F
100
AcDbEntity
  8
中心線
100
AcDbLine
 10
1067.500029906491
 20
1544.841613370883
 30
0.0
 11
1137.499992686819
 21
1544.841613370883
 31
0.0
  0
CIRCLE
  5
12D53
330
1F
100
AcDbEntity
  8
実線
100
AcDbCircle
 10
1102.500011296651
 20
1544.841613370883
 30
0.0
 40
12.5
  0
LINE
  5
12D54
330
1F
100
AcDbEntity
  8
中心線
100
AcDbLine
 10
1202.500011296651
 20
1729.841531980711
 30
0.0
 11
1202.500011296651
 21
1659.841569200392
 31
0.0
  0
LINE
  5
12D55
330
1F
100
AcDbEntity
  8
中心線
100
AcDbLine
 10
1167.500029906492
 20
1694.841550590559
 30
0.0
 11
1237.499992686818
 21
1694.841550590559
 31
0.0
  0
CIRCLE
  5
12D56
330
1F
100
AcDbEntity
  8
実線
100
AcDbCircle
 10
1202.500011296651
 20
1694.841550590559
 30
0.0
 40
12.5
  0
LINE
  5
12D57
330
1F
100
AcDbEntity
  8
中心線
100
AcDbLine
 10
1202.500011296651
 20
1509.841631980716
 30
0.0
 11
1202.500011296651
 21
1579.84159476105
 31
0.0
  0
LINE
  5
12D58
330
1F
100
AcDbEntity
  8
中心線
100
AcDbLine
 10
1167.500029906492
 20
1544.841613370883
 30
0.0
 11
1237.499992686818
 21
1544.841613370883
 31
0.0
  0
CIRCLE
  5
12D59
330
1F
100
AcDbEntity
  8
実線
100
AcDbCircle
 10
1202.500011296651
 20
1544.841613370883
 30
0.0
 40
12.5
  0
LEADER
  5
12D5A
330
1F
100
AcDbEntity
  8
寸法線
100
AcDbLeader
  3
STANDARD
 76
     3
 10
1008.750011296651
 20
1705.666868137852
 30
0.0
 10
1091.98931355882
 20
1849.841568842517
 30
0.0
 10
1359.64949049364
 20
1849.841568842517
 30
0.0
211
-1.0
221
0.0
231
0.0
1001
ACAD
1000
DSTYLE
1002
{
1070
   147
1040
0.875
1070
    77
1070
     0
1002
}
  0
TEXT
  5
12D5B
330
1F
100
AcDbEntity
  8
寸法線
100
AcDbText
 10
1100.739313558816
 20
1858.591568842517
 30
0.0
 40
25.0
  1
ｶﾊﾞｰﾌﾟﾚｰﾄ連結用孔
 72
     2
 11
1349.072646892149
 21
1883.591568842517
 31
0.0
100
AcDbText
 73
     3
  0
LINE
  5
12D5C
330
1F
100
AcDbEntity
  8
中心線
100
AcDbLine
 10
942.5000509228693
 20
1719.938355572479
 30
0.0
 11
978.5000707359795
 21
1719.938355572479
 31
0.0
  0
LINE
  5
12D5D
330
1F
100
AcDbEntity
  8
中心線
100
AcDbLine
 10
942.5000509228693
 20
1519.93842929596
 30
0.0
 11
978.5000707359795
 21
1519.93842929596
 31
0.0
  0
TEXT
  5
12D5E
330
1F
100
AcDbEntity
  8
寸法線
100
AcDbText
 10
2133.524518928215
 20
2162.749983117269
 30
0.0
 40
25.0
  1
ﾘﾌﾞﾌﾟﾚｰﾄ①
 72
     2
 11
2276.857852261549
 21
2162.749983117269
 31
0.0
100
AcDbText
 73
     1
  0
LEADER
  5
12D5F
330
1F
100
AcDbEntity
  8
寸法線
100
AcDbLeader
  3
STANDARD
 76
     3
 10
2086.999997740442
 20
2119.499983117269
 30
0.0
 10
2121.499997740443
 20
2153.999983117269
 30
0.0
 10
2285.824055189597
 20
2153.999983117269
 30
0.0
211
-1.0
221
0.0
231
0.0
1001
ACAD
1000
DSTYLE
1002
{
1070
   147
1040
0.875
1070
    77
1070
     0
1002
}
  0
LEADER
  5
12D60
330
1F
100
AcDbEntity
  8
寸法線
100
AcDbLeader
  3
STANDARD
 76
     3
 10
2308.74997148361
 20
1705.666865738618
 30
0.0
 10
2391.98927374578
 20
1849.841566443283
 30
0.0
 10
2659.6494506806
 20
1849.841566443283
 30
0.0
211
-1.0
221
0.0
231
0.0
1001
ACAD
1000
DSTYLE
1002
{
1070
   147
1040
0.875
1070
    77
1070
     0
1002
}
  0
TEXT
  5
12D61
330
1F
100
AcDbEntity
  8
寸法線
100
AcDbText
 10
2400.739273745775
 20
1858.591566443283
 30
0.0
 40
25.0
  1
ｶﾊﾞｰﾌﾟﾚｰﾄ連結用孔
 72
     2
 11
2649.072607079108
 21
1883.591566443283
 31
0.0
100
AcDbText
 73
     3
  0
DIMENSION
  5
12D62
330
1F
100
AcDbEntity
  8
寸法線
100
AcDbDimension
280
     0
  2
*D19
 10
2052.499991390134
 20
2610.000000000003
 30
0.0
 11
2302.499993842701
 21
2610.000000000003
 31
0.0
 70
   160
  1
<>\XH型鋼（連結部）
 71
     5
 42
500.0000199065253
 73
     0
 74
     0
 75
     0
  3
STANDARD
100
AcDbAlignedDimension
 13
2552.500011296659
 23
2364.000037219682
 33
0.0
 14
2052.499991390134
 24
2380.000019850007
 34
0.0
 50
180.0
100
AcDbRotatedDimension
  0
LINE
  5
12D63
330
1F
100
AcDbEntity
  8
実線
100
AcDbLine
 10
1744.499991390135
 20
2040.000019850007
 30
0.0
 11
1744.499991390135
 21
2400.000019850007
 31
0.0
  0
LINE
  5
12D64
330
1F
100
AcDbEntity
  8
実線
100
AcDbLine
 10
1760.499991390133
 20
2040.000019850007
 30
0.0
 11
1760.499991390135
 21
2400.000019850007
 31
0.0
  0
LINE
  5
12D65
330
1F
100
AcDbEntity
  8
実線
100
AcDbLine
 10
1744.499991390135
 20
2400.000001605376
 30
0.0
 11
1760.499991390135
 21
2400.000001605376
 31
0.0
  0
LINE
  5
12D66
330
1F
100
AcDbEntity
  8
実線
100
AcDbLine
 10
1744.499991390135
 20
2040.000001605376
 30
0.0
 11
1760.499991390133
 21
2040.000001605376
 31
0.0
  0
LINE
  5
12D67
330
1F
100
AcDbEntity
  8
破線
100
AcDbLine
 10
1744.50009497516
 20
2370.000001605376
 30
0.0
 11
1760.499887805107
 21
2370.000001605376
 31
0.0
  0
LINE
  5
12D68
330
1F
100
AcDbEntity
  8
破線
100
AcDbLine
 10
1744.50009497516
 20
2320.000001605376
 30
0.0
 11
1760.499991390135
 21
2320.000001605376
 31
0.0
  0
LINE
  5
12D69
330
1F
100
AcDbEntity
  8
破線
100
AcDbLine
 10
1744.50009497516
 20
2120.000001605376
 30
0.0
 11
1760.499991390133
 21
2120.000001605376
 31
0.0
  0
LINE
  5
12D6A
330
1F
100
AcDbEntity
  8
破線
100
AcDbLine
 10
1744.50009497516
 20
2070.000001605376
 30
0.0
 11
1760.499887805107
 21
2070.000001605376
 31
0.0
  0
LINE
  5
12D6B
330
1F
100
AcDbEntity
  8
実線
100
AcDbLine
 10
1500.499991390134
 20
2120.000038094638
 30
0.0
 11
1744.499991390135
 21
2120.000038094638
 31
0.0
  0
LINE
  5
12D6C
330
1F
100
AcDbEntity
  8
実線
100
AcDbLine
 10
1468.499991390134
 20
2070.000038094638
 30
0.0
 11
1744.499991390135
 21
2070.000038094638
 31
0.0
  0
LINE
  5
12D6D
330
1F
100
AcDbEntity
  8
実線
100
AcDbLine
 10
1760.500429235517
 20
2120.000108150895
 30
0.0
 11
2004.500429233658
 21
2120.000957571393
 31
0.0
  0
LINE
  5
12D6E
330
1F
100
AcDbEntity
  8
実線
100
AcDbLine
 10
1760.500648158326
 20
2070.000108151374
 30
0.0
 11
2036.50064815616
 21
2070.001097682471
 31
0.0
  0
LINE
  5
12D6F
330
1F
100
AcDbEntity
  8
実線
100
AcDbLine
 10
1760.499991390133
 20
1720.000001582787
 30
0.0
 11
2004.499991390134
 21
1720.000001582787
 31
0.0
  0
LINE
  5
12D70
330
1F
100
AcDbEntity
  8
実線
100
AcDbLine
 10
1760.499991390133
 20
1770.000001582787
 30
0.0
 11
2036.499991390134
 21
1770.000001582787
 31
0.0
  0
LINE
  5
12D71
330
1F
100
AcDbEntity
  8
実線
100
AcDbLine
 10
1744.499991390135
 20
1440.000019827418
 30
0.0
 11
1744.499991390135
 21
1800.000019827418
 31
0.0
  0
LINE
  5
12D72
330
1F
100
AcDbEntity
  8
実線
100
AcDbLine
 10
1760.499991390133
 20
1440.000019827418
 30
0.0
 11
1760.499991390135
 21
1800.000019827418
 31
0.0
  0
LINE
  5
12D73
330
1F
100
AcDbEntity
  8
実線
100
AcDbLine
 10
1744.499991390135
 20
1800.000001582787
 30
0.0
 11
1760.499991390135
 21
1800.000001582787
 31
0.0
  0
LINE
  5
12D74
330
1F
100
AcDbEntity
  8
実線
100
AcDbLine
 10
1744.499991390135
 20
1440.000001582787
 30
0.0
 11
1760.499991390133
 21
1440.000001582787
 31
0.0
  0
LINE
  5
12D75
330
1F
100
AcDbEntity
  8
破線
100
AcDbLine
 10
1744.50009497516
 20
1770.000001582787
 30
0.0
 11
1760.499887805107
 21
1770.000001582787
 31
0.0
  0
LINE
  5
12D76
330
1F
100
AcDbEntity
  8
破線
100
AcDbLine
 10
1744.50009497516
 20
1720.000001582787
 30
0.0
 11
1760.499991390135
 21
1720.000001582787
 31
0.0
  0
LINE
  5
12D77
330
1F
100
AcDbEntity
  8
破線
100
AcDbLine
 10
1744.50009497516
 20
1520.000001582787
 30
0.0
 11
1760.499991390133
 21
1520.000001582787
 31
0.0
  0
LINE
  5
12D78
330
1F
100
AcDbEntity
  8
破線
100
AcDbLine
 10
1744.50009497516
 20
1470.000001582787
 30
0.0
 11
1760.499887805107
 21
1470.000001582787
 31
0.0
  0
LINE
  5
12D79
330
1F
100
AcDbEntity
  8
実線
100
AcDbLine
 10
1760.500429235517
 20
1520.000108128306
 30
0.0
 11
2004.500429233658
 21
1520.000957548805
 31
0.0
  0
LINE
  5
12D7A
330
1F
100
AcDbEntity
  8
実線
100
AcDbLine
 10
1760.500648158326
 20
1470.000108128786
 30
0.0
 11
2036.50064815616
 21
1470.001097659882
 31
0.0
  0
LINE
  5
12D7B
330
1F
100
AcDbEntity
  8
実線
100
AcDbLine
 10
1744.499991390131
 20
1720.000001582788
 30
0.0
 11
1500.499991390131
 21
1720.0000015828
 31
0.0
  0
LINE
  5
12D7C
330
1F
100
AcDbEntity
  8
実線
100
AcDbLine
 10
1744.499991390133
 20
1770.000001582788
 30
0.0
 11
1468.499991390134
 21
1770.000001582802
 31
0.0
  0
LINE
  5
12D7D
330
1F
100
AcDbEntity
  8
実線
100
AcDbLine
 10
1744.499553544735
 20
1520.000108128307
 30
0.0
 11
1500.499553546594
 21
1520.000957548817
 31
0.0
  0
LINE
  5
12D7E
330
1F
100
AcDbEntity
  8
実線
100
AcDbLine
 10
1744.499334621923
 20
1470.000108128786
 30
0.0
 11
1468.499334624089
 21
1470.001097659896
 31
0.0
  0
LINE
  5
13A7C
330
1F
100
AcDbEntity
  8
中心線
100
AcDbLine
 10
489.9999999999995
 20
749.9999817553636
 30
0.0
 11
829.9999999999995
 21
749.9999817553636
 31
0.0
  0
LINE
  5
13A7D
330
1F
100
AcDbEntity
  8
実線
100
AcDbLine
 10
499.9999999999995
 20
910.0000000000019
 30
0.0
 11
819.9999999999995
 21
910.0000000000019
 31
0.0
  0
LINE
  5
13A7E
330
1F
100
AcDbEntity
  8
実線
100
AcDbLine
 10
499.9999999999995
 20
590.0000000000019
 30
0.0
 11
819.9999999999995
 21
590.0000000000019
 31
0.0
  0
LINE
  5
13A7F
330
1F
100
AcDbEntity
  8
実線
100
AcDbLine
 10
499.9999999999995
 20
590.0000000000019
 30
0.0
 11
499.9999999999995
 21
910.0000000000019
 31
0.0
  0
LINE
  5
13A80
330
1F
100
AcDbEntity
  8
中心線
100
AcDbLine
 10
659.9999975897949
 20
920.0000000000018
 30
0.0
 11
659.9999975897949
 21
580.0000000000019
 31
0.0
  0
LINE
  5
13A81
330
1F
100
AcDbEntity
  8
実線
100
AcDbLine
 10
819.9999999999995
 20
590.0000000000019
 30
0.0
 11
819.9999999999995
 21
910.0000000000019
 31
0.0
  0
LINE
  5
13A82
330
1F
100
AcDbEntity
  8
中心線
100
AcDbLine
 10
484.9999975897949
 20
874.9999817553636
 30
0.0
 11
584.9999975897949
 21
874.9999817553636
 31
0.0
  0
LINE
  5
13A83
330
1F
100
AcDbEntity
  8
中心線
100
AcDbLine
 10
484.9999975897949
 20
624.9999817553636
 30
0.0
 11
584.9999975897949
 21
624.9999817553636
 31
0.0
  0
LINE
  5
13A84
330
1F
100
AcDbEntity
  8
中心線
100
AcDbLine
 10
534.9999975897949
 20
924.9999817553636
 30
0.0
 11
534.9999975897949
 21
824.9999817553636
 31
0.0
  0
LINE
  5
13A85
330
1F
100
AcDbEntity
  8
中心線
100
AcDbLine
 10
784.9999975897949
 20
924.9999817553636
 30
0.0
 11
784.9999975897949
 21
824.9999817553636
 31
0.0
  0
CIRCLE
  5
13A86
330
1F
100
AcDbEntity
  8
破線
100
AcDbCircle
 10
534.9999975897949
 20
624.9999817553636
 30
0.0
 40
25.0
  0
CIRCLE
  5
13A87
330
1F
100
AcDbEntity
  8
破線
100
AcDbCircle
 10
534.9999975897949
 20
874.9999817553636
 30
0.0
 40
25.0
  0
CIRCLE
  5
13A88
330
1F
100
AcDbEntity
  8
破線
100
AcDbCircle
 10
784.9999975897949
 20
874.9999817553636
 30
0.0
 40
25.0
  0
CIRCLE
  5
13A89
330
1F
100
AcDbEntity
  8
破線
100
AcDbCircle
 10
784.9999975897949
 20
624.9999817553636
 30
0.0
 40
25.0
  0
LINE
  5
13A8A
330
1F
100
AcDbEntity
  8
中心線
100
AcDbLine
 10
734.9999975897949
 20
624.9999817553636
 30
0.0
 11
834.9999975897949
 21
624.9999817553636
 31
0.0
  0
LINE
  5
13A8B
330
1F
100
AcDbEntity
  8
中心線
100
AcDbLine
 10
784.9999975897949
 20
674.9999817553636
 30
0.0
 11
784.9999975897949
 21
574.9999817553636
 31
0.0
  0
LINE
  5
13A8C
330
1F
100
AcDbEntity
  8
中心線
100
AcDbLine
 10
534.9999975897949
 20
674.9999817553636
 30
0.0
 11
534.9999975897949
 21
574.9999817553636
 31
0.0
  0
LINE
  5
13A8D
330
1F
100
AcDbEntity
  8
中心線
100
AcDbLine
 10
734.9999975897949
 20
874.9999817553636
 30
0.0
 11
834.9999975897949
 21
874.9999817553636
 31
0.0
  0
LINE
  5
13A8E
330
1F
100
AcDbEntity
  8
破線
100
AcDbLine
 10
764.9999975897949
 20
599.9999817553636
 30
0.0
 11
554.9999975897949
 21
599.9999817553636
 31
0.0
  0
LINE
  5
13A8F
330
1F
100
AcDbEntity
  8
破線
100
AcDbLine
 10
764.9999975897949
 20
608.9999817553636
 30
0.0
 11
554.9999975897949
 21
608.9999817553636
 31
0.0
  0
LINE
  5
13A90
330
1F
100
AcDbEntity
  8
破線
100
AcDbLine
 10
554.9999975897949
 20
599.9999817553636
 30
0.0
 11
554.9999975897949
 21
608.9999817553636
 31
0.0
  0
LINE
  5
13A91
330
1F
100
AcDbEntity
  8
破線
100
AcDbLine
 10
764.9999975897949
 20
599.9999817553636
 30
0.0
 11
764.9999975897949
 21
608.9999817553636
 31
0.0
  0
LINE
  5
13A92
330
1F
100
AcDbEntity
  8
破線
100
AcDbLine
 10
518.9999975897949
 20
644.9999817553636
 30
0.0
 11
518.9999975897949
 21
854.9999817553636
 31
0.0
  0
LINE
  5
13A93
330
1F
100
AcDbEntity
  8
破線
100
AcDbLine
 10
509.9999975897949
 20
644.9999817553636
 30
0.0
 11
509.9999975897949
 21
854.9999817553636
 31
0.0
  0
LINE
  5
13A94
330
1F
100
AcDbEntity
  8
破線
100
AcDbLine
 10
509.9999975897949
 20
644.9999817553636
 30
0.0
 11
518.9999975897949
 21
644.9999817553636
 31
0.0
  0
LINE
  5
13A95
330
1F
100
AcDbEntity
  8
破線
100
AcDbLine
 10
509.9999975897949
 20
854.9999817553636
 30
0.0
 11
518.9999975897949
 21
854.9999817553636
 31
0.0
  0
LINE
  5
13A96
330
1F
100
AcDbEntity
  8
破線
100
AcDbLine
 10
554.9999975897949
 20
899.9999817553636
 30
0.0
 11
764.9999975897949
 21
899.9999817553636
 31
0.0
  0
LINE
  5
13A97
330
1F
100
AcDbEntity
  8
破線
100
AcDbLine
 10
554.9999975897949
 20
890.9999817553636
 30
0.0
 11
764.9999975897949
 21
890.9999817553636
 31
0.0
  0
LINE
  5
13A98
330
1F
100
AcDbEntity
  8
破線
100
AcDbLine
 10
554.9999975897949
 20
899.9999817553636
 30
0.0
 11
554.9999975897949
 21
890.9999817553636
 31
0.0
  0
LINE
  5
13A99
330
1F
100
AcDbEntity
  8
破線
100
AcDbLine
 10
764.9999975897949
 20
899.9999817553636
 30
0.0
 11
764.9999975897949
 21
890.9999817553636
 31
0.0
  0
LINE
  5
13A9A
330
1F
100
AcDbEntity
  8
破線
100
AcDbLine
 10
800.9999975897949
 20
854.9999817553636
 30
0.0
 11
800.9999975897949
 21
644.9999817553636
 31
0.0
  0
LINE
  5
13A9B
330
1F
100
AcDbEntity
  8
破線
100
AcDbLine
 10
809.9999975897949
 20
854.9999817553636
 30
0.0
 11
809.9999975897949
 21
644.9999817553636
 31
0.0
  0
LINE
  5
13A9C
330
1F
100
AcDbEntity
  8
破線
100
AcDbLine
 10
809.9999975897949
 20
644.9999817553636
 30
0.0
 11
800.9999975897949
 21
644.9999817553636
 31
0.0
  0
LINE
  5
13A9D
330
1F
100
AcDbEntity
  8
破線
100
AcDbLine
 10
809.9999975897949
 20
854.9999817553636
 30
0.0
 11
800.9999975897949
 21
854.9999817553636
 31
0.0
  0
LINE
  5
13A9E
330
1F
100
AcDbEntity
  8
実線
100
AcDbLine
 10
969.9999999999995
 20
590.0000182446403
 30
0.0
 11
969.9999999999995
 21
910.0000182446402
 31
0.0
  0
LINE
  5
13A9F
330
1F
100
AcDbEntity
  8
実線
100
AcDbLine
 10
985.9999999999995
 20
590.0000182446403
 30
0.0
 11
985.9999999999995
 21
910.0000182446402
 31
0.0
  0
LINE
  5
13AA0
330
1F
100
AcDbEntity
  8
実線
100
AcDbLine
 10
969.9999999999995
 20
910.0000000000019
 30
0.0
 11
985.9999999999995
 21
910.0000000000019
 31
0.0
  0
LINE
  5
13AA1
330
1F
100
AcDbEntity
  8
実線
100
AcDbLine
 10
969.9999999999995
 20
590.0000000000019
 30
0.0
 11
985.9999999999995
 21
590.0000000000019
 31
0.0
  0
LINE
  5
13AA2
330
1F
100
AcDbEntity
  8
実線
100
AcDbLine
 10
1553.999999999999
 20
590.0000182446403
 30
0.0
 11
1553.999999999999
 21
910.0000182446402
 31
0.0
  0
LINE
  5
13AA3
330
1F
100
AcDbEntity
  8
実線
100
AcDbLine
 10
1569.999999999999
 20
590.0000182446403
 30
0.0
 11
1569.999999999999
 21
910.0000182446402
 31
0.0
  0
LINE
  5
13AA4
330
1F
100
AcDbEntity
  8
実線
100
AcDbLine
 10
1553.999999999999
 20
910.0000000000019
 30
0.0
 11
1569.999999999999
 21
910.0000000000019
 31
0.0
  0
LINE
  5
13AA5
330
1F
100
AcDbEntity
  8
実線
100
AcDbLine
 10
1553.999999999999
 20
590.0000000000019
 30
0.0
 11
1569.999999999999
 21
590.0000000000019
 31
0.0
  0
LINE
  5
13AA6
330
1F
100
AcDbEntity
  8
実線
100
AcDbLine
 10
997.9999999999995
 20
645.0000000000019
 30
0.0
 11
1017.999999999999
 21
645.0000000000019
 31
0.0
  0
LINE
  5
13AA7
330
1F
100
AcDbEntity
  8
実線
100
AcDbLine
 10
1017.999999999999
 20
645.0000000000019
 30
0.0
 11
1017.999999999999
 21
855.000000000002
 31
0.0
  0
LINE
  5
13AA8
330
1F
100
AcDbEntity
  8
実線
100
AcDbLine
 10
1521.999999999999
 20
645.0000000000019
 30
0.0
 11
1521.999999999999
 21
855.000000000002
 31
0.0
  0
LINE
  5
13AA9
330
1F
100
AcDbEntity
  8
実線
100
AcDbLine
 10
1521.999999999999
 20
645.0000000000019
 30
0.0
 11
1541.999999999999
 21
645.0000000000019
 31
0.0
  0
LINE
  5
13AAA
330
1F
100
AcDbEntity
  8
実線
100
AcDbLine
 10
985.9999999999995
 20
657.0000000000019
 30
0.0
 11
997.9999999999995
 21
645.0000000000019
 31
0.0
  0
LINE
  5
13AAB
330
1F
100
AcDbEntity
  8
実線
100
AcDbLine
 10
1541.999999999999
 20
645.0000000000019
 30
0.0
 11
1553.999999999999
 21
657.0000000000019
 31
0.0
  0
LINE
  5
13AAC
330
1F
100
AcDbEntity
  8
実線
100
AcDbLine
 10
985.9999999999995
 20
650.0000000000019
 30
0.0
 11
992.9999999999996
 21
650.0000000000019
 31
0.0
  0
LINE
  5
13AAD
330
1F
100
AcDbEntity
  8
実線
100
AcDbLine
 10
986.0001035850141
 20
600.0000000000019
 30
0.0
 11
1262.000103585014
 21
600.0000000000019
 31
0.0
  0
LINE
  5
13AAE
330
1F
100
AcDbEntity
  8
実線
100
AcDbLine
 10
1546.999999999999
 20
650.0000000000019
 30
0.0
 11
1553.999999999999
 21
650.0000000000019
 31
0.0
  0
LINE
  5
13AAF
330
1F
100
AcDbEntity
  8
実線
100
AcDbLine
 10
1017.999999999999
 20
650.0000000000019
 30
0.0
 11
1262.000103585014
 21
650.0000000000019
 31
0.0
  0
LINE
  5
13AB0
330
1F
100
AcDbEntity
  8
破線
100
AcDbLine
 10
992.9999999999996
 20
650.0000000000019
 30
0.0
 11
1017.999999999999
 21
650.0000000000019
 31
0.0
  0
LINE
  5
13AB1
330
1F
100
AcDbEntity
  8
破線
100
AcDbLine
 10
1521.999999999999
 20
650.0000000000019
 30
0.0
 11
1546.999999999999
 21
650.0000000000019
 31
0.0
  0
LINE
  5
13AB2
330
1F
100
AcDbEntity
  8
中心線
100
AcDbLine
 10
960.0001035850141
 20
625.0000000000019
 30
0.0
 11
1580.000103585014
 21
625.0000000000019
 31
0.0
  0
LINE
  5
13AB3
330
1F
100
AcDbEntity
  8
破線
100
AcDbLine
 10
985.9999999999995
 20
609.0000000000019
 30
0.0
 11
1017.999999999999
 21
609.0000000000019
 31
0.0
  0
LINE
  5
13AB4
330
1F
100
AcDbEntity
  8
破線
100
AcDbLine
 10
1017.999999999999
 20
609.0000000000019
 30
0.0
 11
1017.999999999999
 21
600.0000000000019
 31
0.0
  0
LINE
  5
13AB5
330
1F
100
AcDbEntity
  8
中心線
100
AcDbLine
 10
955.0001035850142
 20
750.0000000000019
 30
0.0
 11
1585.000103585014
 21
750.0000000000019
 31
0.0
  0
LINE
  5
13AB6
330
1F
100
AcDbEntity
  8
中心線
100
AcDbLine
 10
960.0001035850141
 20
875.0000000000019
 30
0.0
 11
1580.000103585014
 21
875.0000000000019
 31
0.0
  0
LINE
  5
13AB7
330
1F
100
AcDbEntity
  8
破線
100
AcDbLine
 10
1521.999999999999
 20
850.0000000000019
 30
0.0
 11
1546.999999999999
 21
850.0000000000019
 31
0.0
  0
LINE
  5
13AB8
330
1F
100
AcDbEntity
  8
実線
100
AcDbLine
 10
1017.999999999999
 20
850.0000000000019
 30
0.0
 11
1262.000103585014
 21
850.0000000000019
 31
0.0
  0
LINE
  5
13AB9
330
1F
100
AcDbEntity
  8
実線
100
AcDbLine
 10
1546.999999999999
 20
850.0000000000019
 30
0.0
 11
1553.999999999999
 21
850.0000000000019
 31
0.0
  0
LINE
  5
13ABA
330
1F
100
AcDbEntity
  8
実線
100
AcDbLine
 10
986.0001035850141
 20
900.0000000000019
 30
0.0
 11
1262.000103585014
 21
900.0000000000019
 31
0.0
  0
LINE
  5
13ABB
330
1F
100
AcDbEntity
  8
実線
100
AcDbLine
 10
1521.999999999999
 20
855.000000000002
 30
0.0
 11
1541.999999999999
 21
855.000000000002
 31
0.0
  0
LINE
  5
13ABC
330
1F
100
AcDbEntity
  8
実線
100
AcDbLine
 10
1541.999999999999
 20
855.000000000002
 30
0.0
 11
1553.999999999999
 21
843.0000000000019
 31
0.0
  0
LINE
  5
13ABD
330
1F
100
AcDbEntity
  8
破線
100
AcDbLine
 10
985.9999999999995
 20
891.0000000000019
 30
0.0
 11
1017.999999999999
 21
891.0000000000019
 31
0.0
  0
LINE
  5
13ABE
330
1F
100
AcDbEntity
  8
破線
100
AcDbLine
 10
1017.999999999999
 20
891.0000000000019
 30
0.0
 11
1017.999999999999
 21
900.0000000000019
 31
0.0
  0
LINE
  5
13ABF
330
1F
100
AcDbEntity
  8
破線
100
AcDbLine
 10
992.9999999999996
 20
850.0000000000019
 30
0.0
 11
1017.999999999999
 21
850.0000000000019
 31
0.0
  0
LINE
  5
13AC0
330
1F
100
AcDbEntity
  8
実線
100
AcDbLine
 10
997.9999999999995
 20
855.000000000002
 30
0.0
 11
1017.999999999999
 21
855.000000000002
 31
0.0
  0
LINE
  5
13AC1
330
1F
100
AcDbEntity
  8
実線
100
AcDbLine
 10
985.9999999999995
 20
843.0000000000019
 30
0.0
 11
997.9999999999995
 21
855.000000000002
 31
0.0
  0
LINE
  5
13AC2
330
1F
100
AcDbEntity
  8
実線
100
AcDbLine
 10
985.9999999999995
 20
850.0000000000019
 30
0.0
 11
992.9999999999996
 21
850.0000000000019
 31
0.0
  0
LINE
  5
13AC3
330
1F
100
AcDbEntity
  8
破線
100
AcDbLine
 10
1553.999999999999
 20
609.0000000000019
 30
0.0
 11
1521.999999999999
 21
609.0000000000019
 31
0.0
  0
LINE
  5
13AC4
330
1F
100
AcDbEntity
  8
破線
100
AcDbLine
 10
1521.999999999999
 20
609.0000000000019
 30
0.0
 11
1521.999999999999
 21
600.0000000000019
 31
0.0
  0
LINE
  5
13AC5
330
1F
100
AcDbEntity
  8
破線
100
AcDbLine
 10
1521.999999999999
 20
891.0000000000019
 30
0.0
 11
1521.999999999999
 21
900.0000000000019
 31
0.0
  0
LINE
  5
13AC6
330
1F
100
AcDbEntity
  8
破線
100
AcDbLine
 10
1553.999999999999
 20
891.0000000000019
 30
0.0
 11
1521.999999999999
 21
891.0000000000019
 31
0.0
  0
LINE
  5
13AC7
330
1F
100
AcDbEntity
  8
破線
100
AcDbLine
 10
519.9999975897949
 20
754.4999817553636
 30
0.0
 11
799.9999975897949
 21
754.4999817553636
 31
0.0
  0
LINE
  5
13AC8
330
1F
100
AcDbEntity
  8
破線
100
AcDbLine
 10
519.9999975897949
 20
745.4999817553636
 30
0.0
 11
799.9999975897949
 21
745.4999817553636
 31
0.0
  0
LINE
  5
13AC9
330
1F
100
AcDbEntity
  8
破線
100
AcDbLine
 10
519.9999975897949
 20
745.4999817553636
 30
0.0
 11
519.9999975897949
 21
754.4999817553636
 31
0.0
  0
LINE
  5
13ACA
330
1F
100
AcDbEntity
  8
破線
100
AcDbLine
 10
799.9999975897949
 20
754.4999817553636
 30
0.0
 11
799.9999975897949
 21
745.4999817553636
 31
0.0
  0
LINE
  5
13ACB
330
1F
100
AcDbEntity
  8
破線
100
AcDbLine
 10
655.4999975897949
 20
889.4999817553635
 30
0.0
 11
655.4999975897949
 21
754.4999817553636
 31
0.0
  0
LINE
  5
13ACC
330
1F
100
AcDbEntity
  8
破線
100
AcDbLine
 10
664.4999975897949
 20
889.4999817553635
 30
0.0
 11
664.4999975897949
 21
754.4999817553636
 31
0.0
  0
LINE
  5
13ACD
330
1F
100
AcDbEntity
  8
破線
100
AcDbLine
 10
664.4999975897949
 20
745.4999817553636
 30
0.0
 11
664.4999975897949
 21
610.4999817553635
 31
0.0
  0
LINE
  5
13ACE
330
1F
100
AcDbEntity
  8
破線
100
AcDbLine
 10
655.4999975897949
 20
745.4999817553636
 30
0.0
 11
655.4999975897949
 21
610.4999817553635
 31
0.0
  0
LINE
  5
13ACF
330
1F
100
AcDbEntity
  8
破線
100
AcDbLine
 10
655.4999975897949
 20
889.4999817553635
 30
0.0
 11
664.4999975897949
 21
889.4999817553635
 31
0.0
  0
LINE
  5
13AD0
330
1F
100
AcDbEntity
  8
破線
100
AcDbLine
 10
655.4999975897949
 20
610.4999817553635
 30
0.0
 11
664.4999975897949
 21
610.4999817553635
 31
0.0
  0
LINE
  5
13AD1
330
1F
100
AcDbEntity
  8
破線
100
AcDbLine
 10
985.9999999999995
 20
754.5000000000019
 30
0.0
 11
1017.999999999999
 21
754.5000000000019
 31
0.0
  0
LINE
  5
13AD2
330
1F
100
AcDbEntity
  8
破線
100
AcDbLine
 10
985.9999999999995
 20
745.5000000000019
 30
0.0
 11
1017.999999999999
 21
745.5000000000019
 31
0.0
  0
LINE
  5
13AD3
330
1F
100
AcDbEntity
  8
破線
100
AcDbLine
 10
1521.999999999999
 20
754.5000000000019
 30
0.0
 11
1553.999999999999
 21
754.5000000000019
 31
0.0
  0
LINE
  5
13AD4
330
1F
100
AcDbEntity
  8
破線
100
AcDbLine
 10
1521.999999999999
 20
745.5000000000019
 30
0.0
 11
1553.999999999999
 21
745.5000000000019
 31
0.0
  0
DIMENSION
  5
13AD5
330
1F
100
AcDbEntity
  8
寸法線
100
AcDbDimension
280
     0
  2
*D20
 10
819.9999999999995
 20
499.9999817553636
 30
0.0
 11
659.9999999999995
 21
499.9999817553636
 31
0.0
 70
   160
 71
     5
 42
320.0
 73
     0
 74
     0
 75
     0
  3
STANDARD
100
AcDbAlignedDimension
 13
499.9999999999995
 23
590.0000000000019
 33
0.0
 14
819.9999999999995
 24
590.0000000000019
 34
0.0
100
AcDbRotatedDimension
  0
DIMENSION
  5
13AD6
330
1F
100
AcDbEntity
  8
寸法線
100
AcDbDimension
280
     0
  2
*D21
 10
409.9999975897947
 20
910.0000000000024
 30
0.0
 11
409.9999975897949
 21
750.0000000000019
 31
0.0
 70
   160
 71
     5
 42
320.0000000000001
 73
     0
 74
     0
 75
     0
  3
STANDARD
100
AcDbAlignedDimension
 13
499.9999951795903
 23
590.0000000000019
 33
0.0
 14
499.9999951795903
 24
910.0000000000019
 34
0.0
 50
90.0
100
AcDbRotatedDimension
  0
DIMENSION
  5
13AD7
330
1F
100
AcDbEntity
  8
寸法線
100
AcDbDimension
280
     0
  2
*D22
 10
1017.999999999999
 20
470.0000000000019
 30
0.0
 11
1001.999999999999
 21
470.0000000000019
 31
0.0
 70
   160
 71
     5
 42
32.0
 73
     0
 74
     0
 75
     0
  3
STANDARD
100
AcDbAlignedDimension
 13
985.9999999999995
 23
590.0000182446403
 33
0.0
 14
1017.999999999999
 24
600.0000000000019
 34
0.0
100
AcDbRotatedDimension
  0
DIMENSION
  5
13AD8
330
1F
100
AcDbEntity
  8
寸法線
100
AcDbDimension
280
     0
  2
*D23
 10
1521.999999999999
 20
470.0000000000019
 30
0.0
 11
1269.999999999999
 21
491.2500000000019
 31
0.0
 70
    32
 71
     5
 42
504.0
 73
     0
 74
     0
 75
     0
  3
STANDARD
100
AcDbAlignedDimension
 13
1017.999999999999
 23
600.0000000000019
 33
0.0
 14
1521.999999999999
 24
600.0000000000019
 34
0.0
100
AcDbRotatedDimension
  0
DIMENSION
  5
13AD9
330
1F
100
AcDbEntity
  8
寸法線
100
AcDbDimension
280
     0
  2
*D24
 10
1553.999999999999
 20
470.0000000000019
 30
0.0
 11
1537.999999999999
 21
470.0000000000019
 31
0.0
 70
   160
 71
     5
 42
32.0
 73
     0
 74
     0
 75
     0
  3
STANDARD
100
AcDbAlignedDimension
 13
1521.999999999999
 23
600.0000000000019
 33
0.0
 14
1553.999999999999
 24
590.0000182446403
 34
0.0
100
AcDbRotatedDimension
  0
DIMENSION
  5
13ADA
330
1F
100
AcDbEntity
  8
寸法線
100
AcDbDimension
280
     0
  2
*D25
 10
985.9999999999995
 20
410.0000000000019
 30
0.0
 11
977.9999999999995
 21
410.0000000000019
 31
0.0
 70
   160
 71
     5
 42
16.0
 73
     0
 74
     0
 75
     0
  3
STANDARD
100
AcDbAlignedDimension
 13
969.9999999999995
 23
590.0000182446403
 33
0.0
 14
985.9999999999995
 24
590.0000000000019
 34
0.0
100
AcDbRotatedDimension
1001
ACAD
1000
DSTYLE
1002
{
1070
   279
1070
     0
1002
}
  0
DIMENSION
  5
13ADB
330
1F
100
AcDbEntity
  8
寸法線
100
AcDbDimension
280
     0
  2
*D26
 10
1553.999999999999
 20
410.0000000000019
 30
0.0
 11
1269.999999999999
 21
431.2500000000019
 31
0.0
 70
    32
 71
     5
 42
568.0
 73
     0
 74
     0
 75
     0
  3
STANDARD
100
AcDbAlignedDimension
 13
985.9999999999995
 23
590.0000000000019
 33
0.0
 14
1553.999999999999
 24
590.0000182446403
 34
0.0
100
AcDbRotatedDimension
  0
DIMENSION
  5
13ADC
330
1F
100
AcDbEntity
  8
寸法線
100
AcDbDimension
280
     0
  2
*D27
 10
1569.999999999999
 20
410.0000000000019
 30
0.0
 11
1561.999999999999
 21
410.0000000000019
 31
0.0
 70
   160
 71
     5
 42
16.0
 73
     0
 74
     0
 75
     0
  3
STANDARD
100
AcDbAlignedDimension
 13
1553.999999999999
 23
590.0000182446403
 33
0.0
 14
1569.999999999999
 24
590.0000000000019
 34
0.0
100
AcDbRotatedDimension
1001
ACAD
1000
DSTYLE
1002
{
1070
   279
1070
     0
1002
}
  0
DIMENSION
  5
13ADD
330
1F
100
AcDbEntity
  8
寸法線
100
AcDbDimension
280
     0
  2
*D28
 10
1569.999999999999
 20
350.0000000000019
 30
0.0
 11
1269.999999999999
 21
371.2500000000019
 31
0.0
 70
    32
 71
     5
 42
600.0
 73
     0
 74
     0
 75
     0
  3
STANDARD
100
AcDbAlignedDimension
 13
969.9999999999995
 23
590.0000182446403
 33
0.0
 14
1569.999999999999
 24
590.0000000000019
 34
0.0
100
AcDbRotatedDimension
  0
DIMENSION
  5
13ADE
330
1F
100
AcDbEntity
  8
寸法線
100
AcDbDimension
280
     0
  2
*D29
 10
1493.999999999999
 20
900.0000000000024
 30
0.0
 11
1493.999999999999
 21
776.2401574802953
 31
0.0
 70
   160
  1
%%C<>
 71
     5
 42
50.0
 73
     0
 74
     0
 75
     0
  3
STANDARD
100
AcDbAlignedDimension
 13
1493.999999999999
 23
850.0000000000019
 33
0.0
 14
1493.999999999999
 24
900.0000000000019
 34
0.0
 50
90.0
100
AcDbRotatedDimension
  0
LINE
  5
13ADF
330
1F
100
AcDbEntity
  8
仮想線
100
AcDbLine
 10
1041.46305225417
 20
540.0000000000019
 30
0.0
 11
1041.46305225417
 21
960.0000000000019
 31
0.0
  0
TEXT
  5
13AE0
330
1F
100
AcDbEntity
  8
寸法線
100
AcDbText
 10
1091.118274621188
 20
938.8000000000019
 30
0.0
 40
21.0
  1
Ａ
 72
     4
 11
1100.918274621188
 21
950.0000000000019
 31
0.0
100
AcDbText
  0
TEXT
  5
13AE1
330
1F
100
AcDbEntity
  8
寸法線
100
AcDbText
 10
1091.118274621188
 20
538.8000000000018
 30
0.0
 40
21.0
  1
Ａ
 72
     4
 11
1100.918274621188
 21
550.0000000000019
 31
0.0
100
AcDbText
  0
LINE
  5
13AE2
330
1F
100
AcDbEntity
  8
実線
100
AcDbLine
 10
1261.999999999999
 20
570.0000182446403
 30
0.0
 11
1261.999999999999
 21
930.0000182446403
 31
0.0
  0
LINE
  5
13AE3
330
1F
100
AcDbEntity
  8
実線
100
AcDbLine
 10
1277.999999999999
 20
570.0000182446403
 30
0.0
 11
1277.999999999999
 21
930.0000182446403
 31
0.0
  0
LINE
  5
13AE4
330
1F
100
AcDbEntity
  8
実線
100
AcDbLine
 10
1261.999999999999
 20
930.000000000002
 30
0.0
 11
1277.999999999999
 21
930.000000000002
 31
0.0
  0
LINE
  5
13AE5
330
1F
100
AcDbEntity
  8
実線
100
AcDbLine
 10
1261.999999999999
 20
570.0000000000019
 30
0.0
 11
1277.999999999999
 21
570.0000000000019
 31
0.0
  0
LINE
  5
13AE6
330
1F
100
AcDbEntity
  8
実線
100
AcDbLine
 10
1521.999999999999
 20
850.0000000000019
 30
0.0
 11
1277.999896414956
 21
850.0000000000019
 31
0.0
  0
LINE
  5
13AE7
330
1F
100
AcDbEntity
  8
実線
100
AcDbLine
 10
1554.000103585014
 20
900.0000000000019
 30
0.0
 11
1277.999896414956
 21
900.0000000000019
 31
0.0
  0
LINE
  5
13AE8
330
1F
100
AcDbEntity
  8
実線
100
AcDbLine
 10
1554.000103585014
 20
600.0000000000019
 30
0.0
 11
1277.999896414956
 21
600.0000000000019
 31
0.0
  0
LINE
  5
13AE9
330
1F
100
AcDbEntity
  8
実線
100
AcDbLine
 10
1521.999999999999
 20
650.0000000000019
 30
0.0
 11
1277.999896414956
 21
650.0000000000019
 31
0.0
  0
LINE
  5
13AEA
330
1F
100
AcDbEntity
  8
破線
100
AcDbLine
 10
1262.000103585014
 20
900.0000000000019
 30
0.0
 11
1277.999896414956
 21
900.0000000000019
 31
0.0
  0
LINE
  5
13AEB
330
1F
100
AcDbEntity
  8
破線
100
AcDbLine
 10
1262.000103585014
 20
850.0000000000019
 30
0.0
 11
1277.999999999999
 21
850.0000000000019
 31
0.0
  0
LINE
  5
13AEC
330
1F
100
AcDbEntity
  8
破線
100
AcDbLine
 10
1262.000103585014
 20
650.0000000000019
 30
0.0
 11
1277.999999999999
 21
650.0000000000019
 31
0.0
  0
LINE
  5
13AED
330
1F
100
AcDbEntity
  8
破線
100
AcDbLine
 10
1262.000103585014
 20
600.0000000000019
 30
0.0
 11
1277.999896414956
 21
600.0000000000019
 31
0.0
  0
LINE
  5
13AEE
330
1F
100
AcDbEntity
  8
仮想線
100
AcDbLine
 10
1301.46305225417
 20
540.0000000000019
 30
0.0
 11
1301.46305225417
 21
960.0000000000019
 31
0.0
  0
TEXT
  5
13AEF
330
1F
100
AcDbEntity
  8
寸法線
100
AcDbText
 10
1350.418274621188
 20
938.8000000000019
 30
0.0
 40
21.0
  1
Ｂ
 72
     4
 11
1360.918274621188
 21
950.0000000000019
 31
0.0
100
AcDbText
  0
TEXT
  5
13AF0
330
1F
100
AcDbEntity
  8
寸法線
100
AcDbText
 10
1350.418274621188
 20
538.8000000000018
 30
0.0
 40
21.0
  1
Ｂ
 72
     4
 11
1360.918274621188
 21
550.0000000000019
 31
0.0
100
AcDbText
  0
DIMENSION
  5
13B3D
330
1F
100
AcDbEntity
  8
寸法線
100
AcDbDimension
280
     0
  2
*D30
 10
1261.999999999999
 20
1030.000036489278
 30
0.0
 11
1123.999999999999
 21
1051.252497119199
 31
0.0
 70
    32
 71
     5
 42
276.0
 73
     0
 74
     0
 75
     0
  3
STANDARD
100
AcDbAlignedDimension
 13
985.9999999999995
 23
910.0000000000019
 33
0.0
 14
1261.999999999999
 24
930.0000182446403
 34
0.0
100
AcDbRotatedDimension
  0
DIMENSION
  5
13B3E
330
1F
100
AcDbEntity
  8
寸法線
100
AcDbDimension
280
     0
  2
*D31
 10
1277.999999999999
 20
1030.000036489278
 30
0.0
 11
1269.999999999999
 21
1030.000036489278
 31
0.0
 70
   160
 71
     5
 42
16.0
 73
     0
 74
     0
 75
     0
  3
STANDARD
100
AcDbAlignedDimension
 13
1261.999999999999
 23
930.0000182446403
 33
0.0
 14
1277.999999999999
 24
930.000000000002
 34
0.0
100
AcDbRotatedDimension
1001
ACAD
1000
DSTYLE
1002
{
1070
   279
1070
     0
1002
}
  0
DIMENSION
  5
13B3F
330
1F
100
AcDbEntity
  8
寸法線
100
AcDbDimension
280
     0
  2
*D32
 10
1553.999999999999
 20
1030.000036489278
 30
0.0
 11
1415.999999999999
 21
1051.252497119199
 31
0.0
 70
    32
 71
     5
 42
276.0
 73
     0
 74
     0
 75
     0
  3
STANDARD
100
AcDbAlignedDimension
 13
1277.999999999999
 23
930.000000000002
 33
0.0
 14
1553.999999999999
 24
910.0000182446402
 34
0.0
100
AcDbRotatedDimension
1001
ACAD
1000
DSTYLE
1002
{
1070
   279
1070
     1
1002
}
  0
LEADER
  5
13B44
330
1F
100
AcDbEntity
  8
寸法線
100
AcDbLeader
  3
STANDARD
 76
     2
 10
1041.46305225417
 20
950.0000000000019
 30
0.0
 10
1088.859787439985
 20
950.0000000000019
 30
0.0
1001
ACAD
1000
DSTYLE
1002
{
1070
   147
1040
0.875
1070
    77
1070
     0
1070
    49
1040
0.5
1002
}
  0
LEADER
  5
13B45
330
1F
100
AcDbEntity
  8
寸法線
100
AcDbLeader
  3
STANDARD
 76
     2
 10
1041.46305225417
 20
550.0000000000019
 30
0.0
 10
1088.859787439985
 20
550.0000000000019
 30
0.0
1001
ACAD
1000
DSTYLE
1002
{
1070
   147
1040
0.875
1070
    77
1070
     0
1070
    49
1040
0.5
1002
}
  0
LEADER
  5
13B46
330
1F
100
AcDbEntity
  8
寸法線
100
AcDbLeader
  3
STANDARD
 76
     2
 10
1301.46305225417
 20
950.0000000000019
 30
0.0
 10
1348.859787439985
 20
950.0000000000019
 30
0.0
1001
ACAD
1000
DSTYLE
1002
{
1070
   147
1040
0.875
1070
    77
1070
     0
1070
    49
1040
0.5
1002
}
  0
LEADER
  5
13B47
330
1F
100
AcDbEntity
  8
寸法線
100
AcDbLeader
  3
STANDARD
 76
     2
 10
1301.46305225417
 20
550.0000000000019
 30
0.0
 10
1348.859787439985
 20
550.0000000000019
 30
0.0
1001
ACAD
1000
DSTYLE
1002
{
1070
   147
1040
0.875
1070
    77
1070
     0
1070
    49
1040
0.5
1002
}
  0
LINE
  5
13B48
330
1F
100
AcDbEntity
  8
寸法線
100
AcDbLine
 10
1109.999999999999
 20
1150.000036489278
 30
0.0
 11
1429.999999999999
 21
1150.000036489278
 31
0.0
  0
TEXT
  5
13B49
330
1F
100
AcDbEntity
  8
寸法線
100
AcDbText
 10
1118.749999999999
 20
1158.750036489278
 30
0.0
 40
37.5
  1
空洞金具詳細図
 72
     1
 11
1269.999999999999
 21
1158.750036489278
 31
0.0
100
AcDbText
 73
     1
  0
LINE
  5
14019
330
1F
100
AcDbEntity
  8
実線
100
AcDbLine
 10
1960.000399031123
 20
600.0003950281553
 30
0.0
 11
1750.000399031122
 21
600.0003950281553
 31
0.0
  0
LINE
  5
1401A
330
1F
100
AcDbEntity
  8
実線
100
AcDbLine
 10
1960.000399031123
 20
609.0003950281554
 30
0.0
 11
1750.000399031122
 21
609.0003950281554
 31
0.0
  0
LINE
  5
1401B
330
1F
100
AcDbEntity
  8
実線
100
AcDbLine
 10
1750.000399031122
 20
891.0003950281554
 30
0.0
 11
1960.000399031123
 21
891.0003950281554
 31
0.0
  0
LINE
  5
1401C
330
1F
100
AcDbEntity
  8
実線
100
AcDbLine
 10
1750.000399031122
 20
900.0003950281554
 30
0.0
 11
1960.000399031123
 21
900.0003950281554
 31
0.0
  0
LINE
  5
1401D
330
1F
100
AcDbEntity
  8
実線
100
AcDbLine
 10
1694.999999999999
 20
590.0000000000019
 30
0.0
 11
2015.0
 21
590.0000000000019
 31
0.0
  0
LINE
  5
1401E
330
1F
100
AcDbEntity
  8
実線
100
AcDbLine
 10
1694.999999999999
 20
910.0000000000019
 30
0.0
 11
2015.0
 21
910.0000000000019
 31
0.0
  0
LINE
  5
1401F
330
1F
100
AcDbEntity
  8
中心線
100
AcDbLine
 10
1684.999999999999
 20
750.0003950281553
 30
0.0
 11
2025.0
 21
750.0003950281553
 31
0.0
  0
LINE
  5
14020
330
1F
100
AcDbEntity
  8
実線
100
AcDbLine
 10
1750.000399031122
 20
900.0003950281554
 30
0.0
 11
1750.000399031122
 21
891.0003950281554
 31
0.0
  0
LINE
  5
14021
330
1F
100
AcDbEntity
  8
中心線
100
AcDbLine
 10
1730.000399031123
 20
925.0003950281554
 30
0.0
 11
1730.000399031123
 21
825.0003950281554
 31
0.0
  0
CIRCLE
  5
14022
330
1F
100
AcDbEntity
  8
実線
100
AcDbCircle
 10
1730.000399031123
 20
875.0003950281554
 30
0.0
 40
25.0
  0
LINE
  5
14023
330
1F
100
AcDbEntity
  8
実線
100
AcDbLine
 10
1694.999999999999
 20
590.0000000000019
 30
0.0
 11
1694.999999999999
 21
910.0000000000019
 31
0.0
  0
LINE
  5
14024
330
1F
100
AcDbEntity
  8
中心線
100
AcDbLine
 10
1680.000399031123
 20
625.0003950281553
 30
0.0
 11
1780.000399031123
 21
625.0003950281553
 31
0.0
  0
LINE
  5
14025
330
1F
100
AcDbEntity
  8
中心線
100
AcDbLine
 10
1680.000399031123
 20
875.0003950281554
 30
0.0
 11
1780.000399031123
 21
875.0003950281554
 31
0.0
  0
LINE
  5
14026
330
1F
100
AcDbEntity
  8
実線
100
AcDbLine
 10
1705.000399031123
 20
645.0003950281553
 30
0.0
 11
1705.000399031123
 21
855.0003950281553
 31
0.0
  0
LINE
  5
14027
330
1F
100
AcDbEntity
  8
実線
100
AcDbLine
 10
1714.000399031123
 20
645.0003950281553
 30
0.0
 11
1714.000399031123
 21
855.0003950281553
 31
0.0
  0
LINE
  5
14028
330
1F
100
AcDbEntity
  8
中心線
100
AcDbLine
 10
1730.000399031123
 20
675.0003950281553
 30
0.0
 11
1730.000399031123
 21
575.0003950281553
 31
0.0
  0
CIRCLE
  5
14029
330
1F
100
AcDbEntity
  8
実線
100
AcDbCircle
 10
1730.000399031123
 20
625.0003950281553
 30
0.0
 40
25.0
  0
LINE
  5
1402A
330
1F
100
AcDbEntity
  8
実線
100
AcDbLine
 10
1750.000399031122
 20
600.0003950281553
 30
0.0
 11
1750.000399031122
 21
609.0003950281554
 31
0.0
  0
LINE
  5
1402B
330
1F
100
AcDbEntity
  8
実線
100
AcDbLine
 10
1705.000399031123
 20
645.0003950281553
 30
0.0
 11
1714.000399031123
 21
645.0003950281553
 31
0.0
  0
LINE
  5
1402C
330
1F
100
AcDbEntity
  8
実線
100
AcDbLine
 10
1705.000399031123
 20
855.0003950281553
 30
0.0
 11
1714.000399031123
 21
855.0003950281553
 31
0.0
  0
LINE
  5
1402D
330
1F
100
AcDbEntity
  8
実線
100
AcDbLine
 10
1960.000399031123
 20
900.0003950281554
 30
0.0
 11
1960.000399031123
 21
891.0003950281554
 31
0.0
  0
LINE
  5
1402E
330
1F
100
AcDbEntity
  8
中心線
100
AcDbLine
 10
1980.000399031123
 20
925.0003950281554
 30
0.0
 11
1980.000399031123
 21
825.0003950281554
 31
0.0
  0
CIRCLE
  5
1402F
330
1F
100
AcDbEntity
  8
実線
100
AcDbCircle
 10
1980.000399031123
 20
875.0003950281554
 30
0.0
 40
25.0
  0
LINE
  5
14030
330
1F
100
AcDbEntity
  8
実線
100
AcDbLine
 10
2015.0
 20
590.0000000000019
 30
0.0
 11
2015.0
 21
910.0000000000019
 31
0.0
  0
LINE
  5
14031
330
1F
100
AcDbEntity
  8
中心線
100
AcDbLine
 10
1855.000399031123
 20
920.0000000000018
 30
0.0
 11
1855.000399031123
 21
580.0000000000019
 31
0.0
  0
LINE
  5
14032
330
1F
100
AcDbEntity
  8
実線
100
AcDbLine
 10
2005.000399031123
 20
855.0003950281553
 30
0.0
 11
2005.000399031123
 21
645.0003950281553
 31
0.0
  0
LINE
  5
14033
330
1F
100
AcDbEntity
  8
実線
100
AcDbLine
 10
1996.000399031123
 20
855.0003950281553
 30
0.0
 11
1996.000399031123
 21
645.0003950281553
 31
0.0
  0
LINE
  5
14034
330
1F
100
AcDbEntity
  8
中心線
100
AcDbLine
 10
1930.000399031123
 20
625.0003950281553
 30
0.0
 11
2030.000399031123
 21
625.0003950281553
 31
0.0
  0
CIRCLE
  5
14035
330
1F
100
AcDbEntity
  8
実線
100
AcDbCircle
 10
1980.000399031123
 20
625.0003950281553
 30
0.0
 40
25.0
  0
LINE
  5
14036
330
1F
100
AcDbEntity
  8
実線
100
AcDbLine
 10
1960.000399031123
 20
600.0003950281553
 30
0.0
 11
1960.000399031123
 21
609.0003950281554
 31
0.0
  0
LINE
  5
14037
330
1F
100
AcDbEntity
  8
中心線
100
AcDbLine
 10
1980.000399031123
 20
675.0003950281553
 30
0.0
 11
1980.000399031123
 21
575.0003950281553
 31
0.0
  0
LINE
  5
14038
330
1F
100
AcDbEntity
  8
実線
100
AcDbLine
 10
2005.000399031123
 20
645.0003950281553
 30
0.0
 11
1996.000399031123
 21
645.0003950281553
 31
0.0
  0
LINE
  5
14039
330
1F
100
AcDbEntity
  8
中心線
100
AcDbLine
 10
1930.000399031123
 20
875.0003950281554
 30
0.0
 11
2030.000399031123
 21
875.0003950281554
 31
0.0
  0
LINE
  5
1403A
330
1F
100
AcDbEntity
  8
実線
100
AcDbLine
 10
2005.000399031123
 20
855.0003950281553
 30
0.0
 11
1996.000399031123
 21
855.0003950281553
 31
0.0
  0
LINE
  5
1403B
330
1F
100
AcDbEntity
  8
実線
100
AcDbLine
 10
1859.500399031123
 20
889.5003950281553
 30
0.0
 11
1859.500399031123
 21
754.5003950281554
 31
0.0
  0
LINE
  5
1403C
330
1F
100
AcDbEntity
  8
実線
100
AcDbLine
 10
1850.500399031123
 20
889.5003950281553
 30
0.0
 11
1850.500399031123
 21
754.5003950281554
 31
0.0
  0
LINE
  5
1403D
330
1F
100
AcDbEntity
  8
実線
100
AcDbLine
 10
1715.000399031123
 20
754.5003950281554
 30
0.0
 11
1995.000399031123
 21
754.5003950281554
 31
0.0
  0
LINE
  5
1403E
330
1F
100
AcDbEntity
  8
実線
100
AcDbLine
 10
1715.000399031123
 20
745.5003950281553
 30
0.0
 11
1995.000399031123
 21
745.5003950281553
 31
0.0
  0
LINE
  5
1403F
330
1F
100
AcDbEntity
  8
実線
100
AcDbLine
 10
1859.500399031123
 20
745.5003950281553
 30
0.0
 11
1859.500399031123
 21
610.5003950281553
 31
0.0
  0
LINE
  5
14040
330
1F
100
AcDbEntity
  8
実線
100
AcDbLine
 10
1850.500399031123
 20
745.5003950281553
 30
0.0
 11
1850.500399031123
 21
610.5003950281553
 31
0.0
  0
LINE
  5
14041
330
1F
100
AcDbEntity
  8
実線
100
AcDbLine
 10
1995.000399031123
 20
754.5003950281554
 30
0.0
 11
1995.000399031123
 21
745.5003950281553
 31
0.0
  0
LINE
  5
14042
330
1F
100
AcDbEntity
  8
実線
100
AcDbLine
 10
1715.000399031123
 20
745.5003950281553
 30
0.0
 11
1715.000399031123
 21
754.5003950281554
 31
0.0
  0
LINE
  5
14043
330
1F
100
AcDbEntity
  8
実線
100
AcDbLine
 10
1850.500399031123
 20
610.5003950281553
 30
0.0
 11
1859.500399031123
 21
610.5003950281553
 31
0.0
  0
LINE
  5
14044
330
1F
100
AcDbEntity
  8
実線
100
AcDbLine
 10
1850.500399031123
 20
889.5003950281553
 30
0.0
 11
1859.500399031123
 21
889.5003950281553
 31
0.0
  0
LINE
  5
14045
330
1F
100
AcDbEntity
  8
実線
100
AcDbLine
 10
2245.000399031123
 20
570.0003950281553
 30
0.0
 11
2605.000399031123
 21
570.0003950281553
 31
0.0
  0
LINE
  5
14046
330
1F
100
AcDbEntity
  8
実線
100
AcDbLine
 10
2245.000399031123
 20
930.0003950281553
 30
0.0
 11
2605.000399031123
 21
930.0003950281553
 31
0.0
  0
CIRCLE
  5
14047
330
1F
100
AcDbEntity
  8
実線
100
AcDbCircle
 10
2425.000399031123
 20
750.0003950281553
 30
0.0
 40
110.0
  0
LINE
  5
14048
330
1F
100
AcDbEntity
  8
実線
100
AcDbLine
 10
2245.000399031123
 20
570.0003950281553
 30
0.0
 11
2245.000399031123
 21
930.0003950281553
 31
0.0
  0
LINE
  5
14049
330
1F
100
AcDbEntity
  8
中心線
100
AcDbLine
 10
2425.000399031123
 20
940.0003950281554
 30
0.0
 11
2425.000399031123
 21
560.0003950281553
 31
0.0
  0
CIRCLE
  5
1404A
330
1F
100
AcDbEntity
  8
実線
100
AcDbCircle
 10
2300.000399031123
 20
625.0003950281553
 30
0.0
 40
25.25
  0
LINE
  5
1404B
330
1F
100
AcDbEntity
  8
中心線
100
AcDbLine
 10
2300.000399031123
 20
675.0003950281553
 30
0.0
 11
2300.000399031123
 21
575.0003950281553
 31
0.0
  0
LINE
  5
1404C
330
1F
100
AcDbEntity
  8
中心線
100
AcDbLine
 10
2250.000399031123
 20
625.0003950281553
 30
0.0
 11
2350.000399031123
 21
625.0003950281553
 31
0.0
  0
LINE
  5
1404D
330
1F
100
AcDbEntity
  8
中心線
100
AcDbLine
 10
2300.000399031123
 20
925.0003950281554
 30
0.0
 11
2300.000399031123
 21
825.0003950281554
 31
0.0
  0
LINE
  5
1404E
330
1F
100
AcDbEntity
  8
中心線
100
AcDbLine
 10
2250.000399031123
 20
875.0003950281554
 30
0.0
 11
2350.000399031123
 21
875.0003950281554
 31
0.0
  0
CIRCLE
  5
1404F
330
1F
100
AcDbEntity
  8
実線
100
AcDbCircle
 10
2300.000399031123
 20
875.0003950281554
 30
0.0
 40
25.25
  0
LINE
  5
14050
330
1F
100
AcDbEntity
  8
実線
100
AcDbLine
 10
2605.000399031123
 20
570.0003950281553
 30
0.0
 11
2605.000399031123
 21
930.0003950281553
 31
0.0
  0
CIRCLE
  5
14051
330
1F
100
AcDbEntity
  8
実線
100
AcDbCircle
 10
2550.000399031123
 20
625.0003950281553
 30
0.0
 40
25.25
  0
LINE
  5
14052
330
1F
100
AcDbEntity
  8
中心線
100
AcDbLine
 10
2550.000399031123
 20
675.0003950281553
 30
0.0
 11
2550.000399031123
 21
575.0003950281553
 31
0.0
  0
LINE
  5
14053
330
1F
100
AcDbEntity
  8
中心線
100
AcDbLine
 10
2500.000399031123
 20
625.0003950281553
 30
0.0
 11
2600.000399031123
 21
625.0003950281553
 31
0.0
  0
LINE
  5
14054
330
1F
100
AcDbEntity
  8
中心線
100
AcDbLine
 10
2550.000399031123
 20
925.0003950281554
 30
0.0
 11
2550.000399031123
 21
825.0003950281554
 31
0.0
  0
CIRCLE
  5
14055
330
1F
100
AcDbEntity
  8
実線
100
AcDbCircle
 10
2550.000399031123
 20
875.0003950281554
 30
0.0
 40
25.25
  0
LINE
  5
14056
330
1F
100
AcDbEntity
  8
中心線
100
AcDbLine
 10
2500.000399031123
 20
875.0003950281554
 30
0.0
 11
2600.000399031123
 21
875.0003950281554
 31
0.0
  0
LINE
  5
14057
330
1F
100
AcDbEntity
  8
中心線
100
AcDbLine
 10
2235.000399031123
 20
750.0003950281553
 30
0.0
 11
2615.000399031123
 21
750.0003950281553
 31
0.0
  0
DIMENSION
  5
14058
330
1F
100
AcDbEntity
  8
寸法線
100
AcDbDimension
280
     0
  2
*D33
 10
2531.252239922589
 20
778.4704899907342
 30
0.0
 11
2463.637432082697
 21
760.3531568322815
 31
0.0
 70
   160
  1
%%C<>
 71
     5
 42
220.0000000000332
 73
     0
 74
     0
 75
     0
  3
STANDARD
100
AcDbAlignedDimension
 13
2318.748558139311
 23
721.5303000668665
 33
0.0
 14
2531.252239922935
 24
778.4704899894442
 34
0.0
 50
15.00000000108161
100
AcDbRotatedDimension
  0
CIRCLE
  5
14059
330
1F
100
AcDbEntity
  8
実線
100
AcDbCircle
 10
2300.000399031123
 20
625.0003950281553
 30
0.0
 40
26.5
  0
CIRCLE
  5
1405A
330
1F
100
AcDbEntity
  8
実線
100
AcDbCircle
 10
2300.000399031123
 20
875.0003950281554
 30
0.0
 40
26.5
  0
CIRCLE
  5
1405B
330
1F
100
AcDbEntity
  8
実線
100
AcDbCircle
 10
2550.000399031123
 20
875.0003950281554
 30
0.0
 40
26.5
  0
CIRCLE
  5
1405C
330
1F
100
AcDbEntity
  8
実線
100
AcDbCircle
 10
2550.000399031123
 20
625.0003950281553
 30
0.0
 40
26.5
  0
TEXT
  5
1405D
330
1F
100
AcDbEntity
  8
寸法線
100
AcDbText
 10
1784.999999999999
 20
396.7288741650428
 30
0.0
 40
25.0
  1
断面Ａ－Ａ
 72
     1
 11
1855.0
 21
396.7288741650428
 31
0.0
100
AcDbText
 73
     1
  0
LINE
  5
1405E
330
1F
100
AcDbEntity
  8
寸法線
100
AcDbLine
 10
1776.249999999999
 20
390.0000493277058
 30
0.0
 11
1933.749999999999
 21
390.0000493277058
 31
0.0
  0
DIMENSION
  5
1405F
330
1F
100
AcDbEntity
  8
寸法線
100
AcDbDimension
280
     0
  2
*D34
 10
1980.000431015243
 20
470.0000000000019
 30
0.0
 11
1855.000431015243
 21
470.0000000000019
 31
0.0
 70
   160
 71
     5
 42
250.0
 73
     0
 74
     0
 75
     0
  3
STANDARD
100
AcDbAlignedDimension
 13
1730.000431015243
 23
575.0003950281553
 33
0.0
 14
1980.000431015243
 24
575.0003950281553
 34
0.0
100
AcDbRotatedDimension
  0
DIMENSION
  5
14060
330
1F
100
AcDbEntity
  8
寸法線
100
AcDbDimension
280
     0
  2
*D35
 10
2015.00003198412
 20
470.0000000000019
 30
0.0
 11
1997.500231499681
 21
470.0000000000019
 31
0.0
 70
   160
 71
     5
 42
34.99960096887662
 73
     0
 74
     0
 75
     0
  3
STANDARD
100
AcDbAlignedDimension
 13
1980.000431015243
 23
575.0003950281553
 33
0.0
 14
2015.00003198412
 24
590.0000000000019
 34
0.0
100
AcDbRotatedDimension
  0
DIMENSION
  5
14061
330
1F
100
AcDbEntity
  8
寸法線
100
AcDbDimension
280
     0
  2
*D36
 10
2135.00003198412
 20
875.0003950281557
 30
0.0
 11
2135.00003198412
 21
750.0003950281553
 31
0.0
 70
   160
 71
     5
 42
250.0000000000001
 73
     0
 74
     0
 75
     0
  3
STANDARD
100
AcDbAlignedDimension
 13
2030.000431015243
 23
625.0003950281553
 33
0.0
 14
2030.000431015243
 24
875.0003950281554
 34
0.0
 50
90.0
100
AcDbRotatedDimension
  0
DIMENSION
  5
14062
330
1F
100
AcDbEntity
  8
寸法線
100
AcDbDimension
280
     0
  2
*D37
 10
2135.00003198412
 20
625.0003950281556
 30
0.0
 11
2135.00003198412
 21
607.5001975140781
 31
0.0
 70
   160
 71
     5
 42
35.00039502815344
 73
     0
 74
     0
 75
     0
  3
STANDARD
100
AcDbAlignedDimension
 13
2015.00003198412
 23
590.0000000000019
 33
0.0
 14
2030.000431015243
 24
625.0003950281553
 34
0.0
 50
90.0
100
AcDbRotatedDimension
  0
DIMENSION
  5
14063
330
1F
100
AcDbEntity
  8
寸法線
100
AcDbDimension
280
     0
  2
*D38
 10
2135.00003198412
 20
910.0000000000024
 30
0.0
 11
2135.00003198412
 21
892.5001975140784
 31
0.0
 70
   160
 71
     5
 42
34.99960497184657
 73
     0
 74
     0
 75
     0
  3
STANDARD
100
AcDbAlignedDimension
 13
2030.000431015243
 23
875.0003950281554
 33
0.0
 14
2015.00003198412
 24
910.0000000000019
 34
0.0
 50
90.0
100
AcDbRotatedDimension
  0
DIMENSION
  5
14064
330
1F
100
AcDbEntity
  8
寸法線
100
AcDbDimension
280
     0
  2
*D39
 10
2605.000399031123
 20
470.0000000000019
 30
0.0
 11
2425.000830046367
 21
470.0000000000019
 31
0.0
 70
   160
 71
     5
 42
360.0
 73
     0
 74
     0
 75
     0
  3
STANDARD
100
AcDbAlignedDimension
 13
2245.000399031123
 23
570.0003950281553
 33
0.0
 14
2605.000399031123
 24
570.0003950281553
 34
0.0
100
AcDbRotatedDimension
  0
DIMENSION
  5
14065
330
1F
100
AcDbEntity
  8
寸法線
100
AcDbDimension
280
     0
  2
*D40
 10
2705.000431015244
 20
930.0003950281558
 30
0.0
 11
2705.000431015243
 21
750.0003950281553
 31
0.0
 70
   160
 71
     5
 42
360.0000000000001
 73
     0
 74
     0
 75
     0
  3
STANDARD
100
AcDbAlignedDimension
 13
2605.000399031123
 23
570.0003950281553
 33
0.0
 14
2605.000399031123
 24
930.0003950281553
 34
0.0
 50
90.0
100
AcDbRotatedDimension
  0
LINE
  5
14066
330
1F
100
AcDbEntity
  8
寸法線
100
AcDbLine
 10
2344.73341921356
 20
390.0000493277058
 30
0.0
 11
2505.267378848686
 21
390.0000493277058
 31
0.0
  0
TEXT
  5
14067
330
1F
100
AcDbEntity
  8
寸法線
100
AcDbText
 10
2356.135686453082
 20
396.7288741650428
 30
0.0
 40
24.0
  1
断面Ｂ－Ｂ
100
AcDbText
  0
DIMENSION
  5
14068
330
1F
100
AcDbEntity
  8
寸法線
100
AcDbDimension
280
     0
  2
*D41
 10
1695.000766078126
 20
470.0000000000019
 30
0.0
 11
1712.500566562565
 21
470.0000000000019
 31
0.0
 70
   160
 71
     5
 42
34.99960096887662
 73
     0
 74
     0
 75
     0
  3
STANDARD
100
AcDbAlignedDimension
 13
1730.000367047003
 23
575.0003950281553
 33
0.0
 14
1695.000766078126
 24
590.0000000000019
 34
0.0
 50
180.0
100
AcDbRotatedDimension
  0
TEXT
  5
14198
330
1F
100
AcDbEntity
  8
寸法線
100
AcDbText
 10
2344.625295749063
 20
2125.929265116776
 30
0.0
 40
25.0
  1
ｴﾝﾄﾞﾌﾟﾚｰﾄ
 11
2344.625295749063
 21
2125.929265116776
 31
0.0
100
AcDbText
 73
     1
  0
LEADER
  5
14199
330
1F
100
AcDbEntity
  8
寸法線
100
AcDbLeader
  3
STANDARD
 76
     2
 10
2536.499975435865
 20
2119.999970926072
 30
0.0
 10
2342.33523616113
 20
2119.999970926072
 30
0.0
1001
ACAD
1000
DSTYLE
1002
{
1070
   147
1040
0.875
1070
    77
1070
     0
1002
}
  0
VIEWPORT
  5
794
330
78D
100
AcDbEntity
 67
     1
  8
0
100
AcDbViewport
 10
215.5519553564503
 20
142.589248394887
 30
0.0
 40
569.3067681613732
 41
287.9681250889042
 68
     1
 69
     1
 12
215.5519553564503
 22
142.589248394887
 13
0.0
 23
0.0
 14
10.0
 24
10.0
 15
10.0
 25
10.0
 16
0.0
 26
0.0
 36
1.0
 17
0.0
 27
0.0
 37
0.0
 42
50.0
 43
0.0
 44
0.0
 45
287.9681250889042
 50
0.0
 51
0.0
 72
  1000
 90
    32800
  1

281
     0
 71
     1
 74
     0
110
0.0
120
0.0
130
0.0
111
1.0
121
0.0
131
0.0
112
0.0
122
1.0
132
0.0
 79
     0
146
0.0
170
     0
 61
     5
348
104D1
292
     1
282
     1
141
0.0
142
0.0
 63
   250
421
  3355443
  0
VIEWPORT
  5
796
330
78D
100
AcDbEntity
 67
     1
  8
Defpoints
100
AcDbViewport
 10
204.099579334259
 20
142.5892481803894
 30
0.0
 40
408.1991586685178
 41
285.1784963607788
 68
     2
 69
     2
 12
2100.207206595808
 22
1486.804522350007
 13
0.0
 23
0.0
 14
10.0
 24
10.0
 15
10.0
 25
10.0
 16
0.0
 26
0.0
 36
1.0
 17
0.0
 27
0.0
 37
0.0
 42
50.0
 43
0.0
 44
0.0
 45
2851.784980677949
 50
0.0
 51
0.0
 72
  1000
 90
    32864
  1

281
     0
 71
     1
 74
     0
110
0.0
120
0.0
130
0.0
111
1.0
121
0.0
131
0.0
112
0.0
122
1.0
132
0.0
 79
     0
146
0.0
170
     0
 61
     5
348
104D1
292
     1
282
     1
141
0.0
142
0.0
 63
   250
421
  3355443
  0
LINE
  5
9A2
330
78D
100
AcDbEntity
 67
     1
  8
図面枠
100
AcDbLine
 10
14.0996
 20
6.589249999999998
 30
0.0
 11
14.0996
 21
278.58925
 31
0.0
  0
LINE
  5
9A3
330
78D
100
AcDbEntity
 67
     1
  8
図面枠
100
AcDbLine
 10
404.0995999999998
 20
6.589249999999998
 30
0.0
 11
404.0995999999998
 21
278.58925
 31
0.0
  0
LINE
  5
9A4
330
78D
100
AcDbEntity
 67
     1
  8
図面枠
100
AcDbLine
 10
14.0996
 20
278.58925
 30
0.0
 11
404.0995999999998
 21
278.58925
 31
0.0
  0
LINE
  5
9A5
330
78D
100
AcDbEntity
 67
     1
  8
図面枠
100
AcDbLine
 10
14.0996
 20
6.589249999999998
 30
0.0
 11
404.0995999999998
 21
6.589249999999991
 31
0.0
  0
LINE
  5
9BB
330
78D
100
AcDbEntity
 67
     1
  8
図面枠
100
AcDbLine
 10
289.0996
 20
36.58924999999999
 30
0.0
 11
404.0995999999998
 21
36.58924999999999
 31
0.0
  0
LINE
  5
9BC
330
78D
100
AcDbEntity
 67
     1
  8
図面枠
100
AcDbLine
 10
289.0996
 20
30.58924999999999
 30
0.0
 11
404.0995999999998
 21
30.58924999999999
 31
0.0
  0
LINE
  5
9BE
330
78D
100
AcDbEntity
 67
     1
  8
図面枠
100
AcDbLine
 10
289.0996
 20
36.5893
 30
0.0
 11
289.0996
 21
6.589249999999991
 31
0.0
  0
LINE
  5
9C4
330
78D
100
AcDbEntity
 67
     1
  8
図面枠
100
AcDbLine
 10
289.0996
 20
18.58924999999999
 30
0.0
 11
404.0995999999998
 21
18.58924999999999
 31
0.0
  0
LINE
  5
9CD
330
78D
100
AcDbEntity
 67
     1
  8
図面枠
100
AcDbLine
 10
352.0996
 20
36.5893
 30
0.0
 11
352.0996
 21
30.58924999999999
 31
0.0
  0
LINE
  5
9CF
330
78D
100
AcDbEntity
 67
     1
  8
図面枠
100
AcDbLine
 10
383.0996
 20
36.5893
 30
0.0
 11
383.0996
 21
30.58924999999999
 31
0.0
  0
LINE
  5
9D0
330
78D
100
AcDbEntity
 67
     1
  8
図面枠
100
AcDbLine
 10
352.0996
 20
30.58924999999999
 30
0.0
 11
352.0996
 21
6.589249999999991
 31
0.0
  0
LINE
  5
9D1
330
78D
100
AcDbEntity
 67
     1
  8
図面枠
100
AcDbLine
 10
312.0996
 20
36.58924999999999
 30
0.0
 11
312.0996
 21
30.58924999999999
 31
0.0
  0
LINE
  5
9D2
330
78D
100
AcDbEntity
 67
     1
  8
図面枠
100
AcDbLine
 10
304.0996
 20
24.58924999999999
 30
0.0
 11
349.0996
 21
24.58924999999999
 31
0.0
  0
TEXT
  5
9EB
330
78D
100
AcDbEntity
 67
     1
  8
図面枠
100
AcDbText
 10
289.9746
 20
32.33924999999999
 30
0.0
 40
2.5
  1
重量
 11
289.9746
 21
32.33924999999999
 31
0.0
100
AcDbText
 73
     1
  0
TEXT
  5
9ED
330
78D
100
AcDbEntity
 67
     1
  8
図面枠
100
AcDbText
 10
289.97465
 20
27.21424999999999
 30
0.0
 40
2.5
  1
名　称
 11
289.97465
 21
29.71424999999999
 31
0.0
100
AcDbText
 73
     3
  0
TEXT
  5
9EF
330
78D
100
AcDbEntity
 67
     1
  8
図面枠
100
AcDbText
 10
317.9143330949744
 20
32.33929999999999
 30
0.0
 40
2.5
  1
表面仕上げ
 41
0.8
 11
317.9143330949744
 21
32.33929999999999
 31
0.0
100
AcDbText
 73
     1
  0
TEXT
  5
A20
330
78D
100
AcDbEntity
 67
     1
  8
図面枠
100
AcDbText
 10
352.9746
 20
32.33924999999999
 30
0.0
 40
2.5
  1
日付
 11
352.9746
 21
32.33924999999999
 31
0.0
100
AcDbText
 73
     1
  0
TEXT
  5
A39
330
78D
100
AcDbEntity
 67
     1
  8
図面枠
100
AcDbText
 10
383.9746
 20
32.33924999999999
 30
0.0
 40
2.5
  1
尺度
 11
383.9746
 21
32.33924999999999
 31
0.0
100
AcDbText
 73
     1
  0
TEXT
  5
A59
330
78D
100
AcDbEntity
 67
     1
  8
図面枠
100
AcDbText
 10
313.5162666666667
 20
26.33924999999999
 30
0.0
 40
2.5
  1
スルーサーＢ構造図
 72
     1
 11
326.5996
 21
26.33924999999999
 31
0.0
100
AcDbText
 73
     1
  0
TEXT
  5
A5A
330
78D
100
AcDbEntity
 67
     1
  8
図面枠
100
AcDbText
 10
317.7861157480315
 20
20.33924999999999
 30
0.0
 40
2.5
  1
切り梁H-300
 72
     1
 11
326.5996
 21
22.83924999999999
 31
0.0
100
AcDbText
 73
     3
  0
TEXT
  5
A63
330
78D
100
AcDbEntity
 67
     1
  8
図面枠
100
AcDbText
 10
368.0162666666667
 20
8.33924999999999
 30
0.0
 40
2.5
  1
Ｈ３０－Ｗ６０
 72
     1
 11
378.0996
 21
8.33924999999999
 31
0.0
100
AcDbText
 73
     1
  0
TEXT
  5
9054
330
78D
100
AcDbEntity
 67
     1
  8
図面枠
100
AcDbText
 10
300.3079
 20
32.33924999999999
 30
0.0
 40
2.5
  1
197kg
 11
300.3079
 21
32.33924999999999
 31
0.0
100
AcDbText
 73
     1
  0
TEXT
  5
9055
330
78D
100
AcDbEntity
 67
     1
  8
図面枠
100
AcDbText
 10
331.2476330949744
 20
32.33929999999999
 30
0.0
 40
2.5
  1
鉄筋防錆剤
 41
0.8
 11
331.2476330949744
 21
32.33929999999999
 31
0.0
100
AcDbText
 73
     1
  0
TEXT
  5
9057
330
78D
100
AcDbEntity
 67
     1
  8
図面枠
100
AcDbText
 10
394.3079
 20
32.33924999999999
 30
0.0
 40
2.5
  1
1/10
 11
394.3079
 21
32.33924999999999
 31
0.0
100
AcDbText
 73
     1
  0
TEXT
  5
933A
330
78D
100
AcDbEntity
 67
     1
  8
図面枠
100
AcDbText
 10
300.0162781896648
 20
10.58922126233957
 30
0.0
 40
4.0
  1
三研テクノクリエイト
 11
300.0162781896648
 21
12.58922126233957
 31
0.0
100
AcDbText
 73
     2
  0
TEXT
  5
933B
330
78D
100
AcDbEntity
 67
     1
  8
図面枠
100
AcDbText
 10
294.2496115229981
 20
12.83922126233957
 30
0.0
 40
2.0
  1
株式
 72
     2
 11
298.5162781896648
 21
12.83922126233957
 31
0.0
100
AcDbText
 73
     1
  0
TEXT
  5
933C
330
78D
100
AcDbEntity
 67
     1
  8
図面枠
100
AcDbText
 10
294.2496115229981
 20
10.33922126233957
 30
0.0
 40
2.0
  1
会社
 72
     2
 11
298.5162781896648
 21
12.33922126233957
 31
0.0
100
AcDbText
 73
     3
  0
TEXT
  5
10C54
330
78D
100
AcDbEntity
 67
     1
  8
図面枠
100
AcDbText
 10
352.97465
 20
27.21424999999999
 30
0.0
 40
2.5
  1
摘　要
 11
352.97465
 21
29.71424999999999
 31
0.0
100
AcDbText
 73
     3
  0
TEXT
  5
10C55
330
78D
100
AcDbEntity
 67
     1
  8
図面枠
100
AcDbText
 10
352.9746
 20
15.21424999999999
 30
0.0
 40
2.5
  1
型　式
 11
352.9746
 21
17.71424999999999
 31
0.0
100
AcDbText
 73
     3
  0
TEXT
  5
10C56
330
78D
100
AcDbEntity
 67
     1
  8
図面枠
100
AcDbText
 10
364.7662666666667
 20
20.86240908820162
 30
0.0
 40
2.5
  1
Ｈ３０－Ｗシリーズ
 72
     1
 11
378.0996
 21
20.86240908820162
 31
0.0
100
AcDbText
 73
     1
  0
LINE
  5
10C74
330
78D
100
AcDbEntity
 67
     1
  8
図面枠
100
AcDbLine
 10
227.3699773983349
 20
19.86719851721268
 30
0.0
 11
282.3699773983349
 21
19.86719851721268
 31
0.0
  0
LINE
  5
10C75
330
78D
100
AcDbEntity
 67
     1
  8
図面枠
100
AcDbLine
 10
227.3699773983349
 20
19.86719851721268
 30
0.0
 11
227.3699773983349
 21
10.86719851721268
 31
0.0
  0
LINE
  5
10C77
330
78D
100
AcDbEntity
 67
     1
  8
図面枠
100
AcDbLine
 10
282.3699773983349
 20
19.86719851721268
 30
0.0
 11
282.3699773983349
 21
10.86719851721268
 31
0.0
  0
LINE
  5
10C78
330
78D
100
AcDbEntity
 67
     1
  8
図面枠
100
AcDbLine
 10
227.3699773983349
 20
10.86719851721268
 30
0.0
 11
282.3699773983349
 21
10.86719851721268
 31
0.0
  0
TEXT
  5
11C4D
330
78D
100
AcDbEntity
 67
     1
  8
図面枠
100
AcDbText
 10
229.0019716746131
 20
13.16588865156559
 30
0.0
 40
4.0
  1
スクラップ重量　164kg
 72
     1
 11
254.7744590480284
 21
13.16588865156559
 31
0.0
100
AcDbText
  0
TEXT
  5
13F26
330
78D
100
AcDbEntity
 67
     1
  8
図面枠
100
AcDbText
 10
363.3079
 20
32.33924999999999
 30
0.0
 40
2.5
  1
2024.01.01
 11
363.3079
 21
32.33924999999999
 31
0.0
100
AcDbText
 73
     1
  0
ENDSEC
  0
SECTION
  2
OBJECTS
  0
DICTIONARY
  5
C
330
0
100
AcDbDictionary
281
     1
  3
ACAD_CIP_PREVIOUS_PRODUCT_INFO
350
11DFC
  3
ACAD_COLOR
350
6B
  3
ACAD_DETAILVIEWSTYLE
350
11DF6
  3
ACAD_GROUP
350
D
  3
ACAD_LAYOUT
350
1A
  3
ACAD_MATERIAL
350
6A
  3
ACAD_MLEADERSTYLE
350
104EE
  3
ACAD_MLINESTYLE
350
17
  3
ACAD_PLOTSETTINGS
350
19
  3
ACAD_PLOTSTYLENAME
350
E
  3
ACAD_SCALELIST
350
104DC
  3
ACAD_SECTIONVIEWSTYLE
350
11DF4
  3
ACAD_TABLESTYLE
350
7E
  3
ACAD_VISUALSTYLE
350
104CB
  3
AcadDim
350
89BC
  3
ACDB_RECOMPOSE_DATA
350
141C8
  3
ACDBHEADERROUNDTRIPXREC
350
10DBA
  3
AcDbVariableDictionary
350
5E
  3
AcDsDecomposeData
350
141CE
  3
AEC_PROPERTY_SET_DEFS
350
10FA9
  0
DICTIONARY
  5
106CF
330
8
100
AcDbDictionary
280
     1
281
     1
  0
DICTIONARY
  5
11D
330
2
100
AcDbDictionary
280
     1
281
     1
  3
ACAD_LAYERFILTERS
360
98AE
  3
ACAD_LAYERSTATES
360
11E
  3
ACLYDICTIONARY
360
98AD
  0
DICTIONARY
  5
104FB
330
10
100
AcDbDictionary
280
     1
281
     1
  3
ADSK_XREC_LAYER_RECONCILED
360
104FC
  0
DICTIONARY
  5
104FF
330
1BF
100
AcDbDictionary
280
     1
281
     1
  3
ADSK_XREC_LAYER_RECONCILED
360
10500
  0
DICTIONARY
  5
10503
330
1C1
100
AcDbDictionary
280
     1
281
     1
  3
ADSK_XREC_LAYER_RECONCILED
360
10504
  0
DICTIONARY
  5
10507
330
1C3
100
AcDbDictionary
280
     1
281
     1
  3
ADSK_XREC_LAYER_RECONCILED
360
10508
  0
DICTIONARY
  5
10509
330
1C4
100
AcDbDictionary
280
     1
281
     1
  3
ADSK_XREC_LAYER_RECONCILED
360
1050A
  0
DICTIONARY
  5
1050B
330
1C5
100
AcDbDictionary
280
     1
281
     1
  3
ADSK_XREC_LAYER_RECONCILED
360
1050C
  0
DICTIONARY
  5
1050D
330
82E
100
AcDbDictionary
280
     1
281
     1
  3
ADSK_XREC_LAYER_RECONCILED
360
1050E
  0
DICTIONARY
  5
5C91
330
1F
100
AcDbDictionary
280
     1
281
     1
  3
ACAD_SORTENTS
360
5C92
  0
DICTIONARY
  5
10C4E
330
C08
100
AcDbDictionary
280
     1
281
     1
  3
ACAD_SORTENTS
360
10CB5
  0
XRECORD
  5
11DFC
102
{ACAD_REACTORS
330
C
102
}
330
C
100
AcDbXrecord
280
     1
300
ACD
300
2023
300

  0
DICTIONARY
  5
6B
102
{ACAD_REACTORS
330
C
102
}
330
C
100
AcDbDictionary
281
     1
  0
DICTIONARY
  5
11DF6
102
{ACAD_REACTORS
330
C
102
}
330
C
100
AcDbDictionary
281
     1
  3
Metric50
350
11DF7
  0
DICTIONARY
  5
D
102
{ACAD_REACTORS
330
C
102
}
330
C
100
AcDbDictionary
281
     1
  0
DICTIONARY
  5
1A
102
{ACAD_REACTORS
330
C
102
}
330
C
100
AcDbDictionary
281
     1
  3
Model
350
22
  3
レイアウト1
350
78E
  0
DICTIONARY
  5
6A
102
{ACAD_REACTORS
330
C
102
}
330
C
100
AcDbDictionary
281
     1
  3
ByBlock
350
104BB
  3
ByLayer
350
104B3
  3
Global
350
104C3
  0
DICTIONARY
  5
104EE
102
{ACAD_REACTORS
330
C
102
}
330
C
100
AcDbDictionary
281
     1
  3
Standard
350
104EF
  0
DICTIONARY
  5
17
102
{ACAD_REACTORS
330
C
102
}
330
C
100
AcDbDictionary
281
     1
  3
Standard
350
18
  0
DICTIONARY
  5
19
102
{ACAD_REACTORS
330
C
102
}
330
C
100
AcDbDictionary
281
     1
  0
ACDBDICTIONARYWDFLT
  5
E
102
{ACAD_REACTORS
330
C
102
}
330
C
100
AcDbDictionary
281
     1
  3
Normal
350
F
100
AcDbDictionaryWithDefault
340
F
  0
DICTIONARY
  5
104DC
102
{ACAD_REACTORS
330
C
102
}
330
C
100
AcDbDictionary
281
     1
  3
A0
350
104DD
  3
A1
350
104DE
  3
A2
350
104DF
  3
A3
350
104E0
  3
A4
350
104E1
  3
A5
350
104E2
  3
A6
350
104E3
  3
A7
350
104E4
  3
A8
350
104E5
  3
A9
350
104E6
  3
B0
350
104E7
  3
B1
350
104E8
  3
B2
350
104E9
  3
B3
350
104EA
  3
B4
350
104EB
  3
B5
350
104EC
  3
B6
350
104ED
  0
DICTIONARY
  5
11DF4
102
{ACAD_REACTORS
330
C
102
}
330
C
100
AcDbDictionary
281
     1
  3
Metric50
350
11DF5
  0
DICTIONARY
  5
7E
102
{ACAD_REACTORS
330
C
102
}
330
C
100
AcDbDictionary
281
     1
  3
Standard
350
7F
  0
DICTIONARY
  5
104CB
102
{ACAD_REACTORS
330
C
102
}
330
C
100
AcDbDictionary
281
     1
  3
2dWireframe
350
104D1
  3
3D Hidden
350
104D3
  3
3dWireframe
350
104D2
  3
Basic
350
104D0
  3
Brighten
350
104D7
  3
ColorChange
350
104DB
  3
Conceptual
350
104D4
  3
Dim
350
104D6
  3
EdgeColorOff
350
11DF3
  3
Facepattern
350
104DA
  3
Flat
350
104CC
  3
FlatWithEdges
350
104CD
  3
Gouraud
350
104CE
  3
GouraudWithEdges
350
104CF
  3
Hidden
350
11DEB
  3
JitterOff
350
11DF1
  3
Linepattern
350
104D9
  3
OverhangOff
350
11DF2
  3
Realistic
350
104D5
  3
Shaded
350
11DF0
  3
Shaded with edges
350
11DEF
  3
Shades of Gray
350
11DEC
  3
Sketchy
350
11DED
  3
Thicken
350
104D8
  3
Wireframe
350
11DEA
  3
X-Ray
350
11DEE
  0
XRECORD
  5
89BC
102
{ACAD_REACTORS
330
C
102
}
330
C
100
AcDbXrecord
280
     1
 90
   990106
  3

 60
     0
 61
     0
 62
     1
 63
     3
 64
     0
 65
     0
 66
     0
 67
     3
 68
     1
 69
     0
 70
     0
 71
     0
 72
     0
 40
0.0
170
     0
  0
XRECORD
  5
141C8
102
{ACAD_REACTORS
330
C
102
}
330
C
100
AcDbXrecord
280
     1
 90
        1
330
7F
  0
DICTIONARY
  5
10DBA
102
{ACAD_REACTORS
330
C
102
}
330
C
100
AcDbDictionary
281
     1
  0
DICTIONARY
  5
5E
102
{ACAD_REACTORS
330
C
102
}
330
C
100
AcDbDictionary
281
     1
  3
CANNOSCALE
350
106DD
  3
CMLEADERSTYLE
350
106DC
  3
CTABLESTYLE
350
84
  3
CVIEWDETAILSTYLE
350
11E06
  3
CVIEWSECTIONSTYLE
350
11E07
  3
DIMASSOC
350
5F
  3
HIDETEXT
350
63
  3
INDEXCTL
350
106DF
  3
LAYEREVAL
350
10E34
  3
LAYERNOTIFY
350
10E35
  3
LIGHTINGUNITS
350
10E33
  3
MSLTSCALE
350
10E32
  3
PROJECTNAME
350
10C5C
  3
SORTENTS
350
106DE
  0
DICTIONARY
  5
141CE
102
{ACAD_REACTORS
330
C
102
}
330
C
100
AcDbDictionary
281
     1
  3
AcDsRecords
350
141D0
  3
AcDsSchemas
350
141CF
1001
ACAD
1070
     2
  0
DICTIONARY
  5
10FA9
102
{ACAD_REACTORS
330
C
102
}
330
C
100
AcDbDictionary
281
     1
  0
DICTIONARY
  5
98AE
102
{ACAD_REACTORS
330
11D
102
}
330
11D
100
AcDbDictionary
281
     1
  0
DICTIONARY
  5
11E
102
{ACAD_REACTORS
330
11D
102
}
330
11D
100
AcDbDictionary
281
     1
  0
DICTIONARY
  5
98AD
102
{ACAD_REACTORS
330
11D
102
}
330
11D
100
AcDbDictionary
281
     1
1001
ACAD
1000
<All
  0
XRECORD
  5
104FC
102
{ACAD_REACTORS
330
104FB
102
}
330
104FB
100
AcDbXrecord
280
     1
290
     1
  0
XRECORD
  5
10500
102
{ACAD_REACTORS
330
104FF
102
}
330
104FF
100
AcDbXrecord
280
     1
290
     1
  0
XRECORD
  5
10504
102
{ACAD_REACTORS
330
10503
102
}
330
10503
100
AcDbXrecord
280
     1
290
     1
  0
XRECORD
  5
10508
102
{ACAD_REACTORS
330
10507
102
}
330
10507
100
AcDbXrecord
280
     1
290
     1
  0
XRECORD
  5
1050A
102
{ACAD_REACTORS
330
10509
102
}
330
10509
100
AcDbXrecord
280
     1
290
     1
  0
XRECORD
  5
1050C
102
{ACAD_REACTORS
330
1050B
102
}
330
1050B
100
AcDbXrecord
280
     1
290
     1
  0
XRECORD
  5
1050E
102
{ACAD_REACTORS
330
1050D
102
}
330
1050D
100
AcDbXrecord
280
     1
290
     1
  0
SORTENTSTABLE
  5
5C92
102
{ACAD_REACTORS
330
5C91
102
}
330
5C91
100
AcDbSortentsTable
330
1F
331
6107
  5
7B29
331
610F
  5
7B2A
  0
SORTENTSTABLE
  5
10CB5
102
{ACAD_REACTORS
330
10C4E
102
}
330
10C4E
100
AcDbSortentsTable
330
C08
  0
ACDBDETAILVIEWSTYLE
  5
11DF7
102
{ACAD_XDICTIONARY
360
141D3
102
}
102
{ACAD_REACTORS
330
11DF6
102
}
330
11DF6
100
AcDbModelDocViewStyle
 70
     0
  3
Metric50
290
     0
100
AcDbDetailViewStyle
 70
     0
 71
     0
 90
        3
 71
     1
340
11
 62
   256
 40
5.0
340
0
 62
   256
 40
5.0
300

 40
0.0
280
     1
 71
     2
340
16
 90
       25
 62
   256
 71
     3
340
11
 62
   256
 40
5.0
 90
        0
 40
15.0
 90
        1
300
%<\AcVar ViewDetailId>% (%<\AcVar ViewScale \f "%sn">%)
 71
     4
340
16
 90
       25
 62
   256
340
16
 90
       25
 62
   256
280
     0
  0
LAYOUT
  5
22
102
{ACAD_REACTORS
330
1A
102
}
330
1A
100
AcDbPlotSettings
  1

  2
none_device
  4
ISO_A4_(210.00_x_297.00_MM)
  6

 40
7.5
 41
20.0
 42
7.5
 43
20.0
 44
210.0
 45
297.0
 46
11.54999923706054
 47
-13.65000009536743
 48
0.0
 49
0.0
140
0.0
141
0.0
142
1.0
143
8.704084754739808
 70
 11952
 72
     1
 73
     0
 74
     0
  7

 75
     0
147
0.1148885871608098
 76
     0
 77
     2
 78
   300
148
0.0
149
0.0
100
AcDbLayout
  1
Model
 70
     1
 71
     0
 10
0.0
 20
0.0
 11
12.0
 21
9.0
 12
0.0
 22
0.0
 32
0.0
 14
0.0
 24
0.0
 34
0.0
 15
0.0
 25
0.0
 35
0.0
146
0.0
 13
0.0
 23
0.0
 33
0.0
 16
1.0
 26
0.0
 36
0.0
 17
0.0
 27
1.0
 37
0.0
 76
     0
330
1F
331
10DB8
1001
ACAD_PSEXT
1000
None
1000
None
1000
Not applicable
1000
The layout will not be plotted unless a new plotter configuration name is selected.
1070
     0
  0
LAYOUT
  5
78E
102
{ACAD_XDICTIONARY
360
79B
102
}
102
{ACAD_REACTORS
330
1A
102
}
330
1A
100
AcDbPlotSettings
  1

  2
RICOH MP C2503 JPN RPCS V2
  4
A3
  6

 40
5.873749732971191
 41
5.873748779296875
 42
5.873748779296875
 43
5.873748779296875
 44
296.9259948730469
 45
419.9466552734374
 46
0.0
 47
0.0
 48
0.0
 49
0.0
140
0.0
141
0.0
142
1.0
143
1.0
 70
   688
 72
     1
 73
     1
 74
     5
  7
monochrome.ctb
 75
    16
147
1.0
 76
     0
 77
     2
 78
   300
148
0.0
149
0.0
100
AcDbLayout
  1
レイアウト1
 70
     1
 71
     1
 10
-5.873748779296875
 20
-5.873749732971191
 11
414.0729064941406
 21
291.0522451400757
 12
0.0
 22
0.0
 32
0.0
 14
0.0000000000000853
 24
0.0
 34
0.0
 15
408.1991586685179
 25
285.1784963607788
 35
0.0
146
0.0
 13
0.0
 23
0.0
 33
0.0
 16
1.0
 26
0.0
 36
0.0
 17
0.0
 27
1.0
 37
0.0
 76
     0
330
78D
331
794
1001
ACAD_PSEXT
1000
RICOH MP C2503 JPN RPCS V2
1000
RICOH MP C2503 JPN RPCS V2
1000
IP_192.168.24.100
1000
RPCS Driver (For Windows)
1070
     0
  0
MATERIAL
  5
104BB
102
{ACAD_XDICTIONARY
360
104BC
102
}
102
{ACAD_REACTORS
330
6A
102
}
330
6A
100
AcDbMaterial
  1
ByBlock
 72
     0
 43
0.0008202099737533
 43
0.0
 43
0.0
 43
0.0
 43
0.0
 43
0.0008202099737533
 43
0.0
 43
0.0
 43
0.0
 43
0.0
 43
1.0
 43
0.0
 43
0.0
 43
0.0
 43
0.0
 43
1.0
 77
     0
 47
0.0008202099737533
 47
0.0
 47
0.0
 47
0.0
 47
0.0
 47
0.0008202099737533
 47
0.0
 47
0.0
 47
0.0
 47
0.0
 47
1.0
 47
0.0
 47
0.0
 47
0.0
 47
0.0
 47
1.0
171
     0
 49
0.0008202099737533
 49
0.0
 49
0.0
 49
0.0
 49
0.0
 49
0.0008202099737533
 49
0.0
 49
0.0
 49
0.0
 49
0.0
 49
1.0
 49
0.0
 49
0.0
 49
0.0
 49
0.0
 49
1.0
175
     0
142
0.0008202099737533
142
0.0
142
0.0
142
0.0
142
0.0
142
0.0008202099737533
142
0.0
142
0.0
142
0.0
142
0.0
142
1.0
142
0.0
142
0.0
142
0.0
142
0.0
142
1.0
179
     0
144
0.0008202099737533
144
0.0
144
0.0
144
0.0
144
0.0
144
0.0008202099737533
144
0.0
144
0.0
144
0.0
144
0.0
144
1.0
144
0.0
144
0.0
144
0.0
144
0.0
144
1.0
147
0.0008202099737533
147
0.0
147
0.0
147
0.0
147
0.0
147
0.0008202099737533
147
0.0
147
0.0
147
0.0
147
0.0
147
1.0
147
0.0
147
0.0
147
0.0
147
0.0
147
1.0
  0
MATERIAL
  5
104B3
102
{ACAD_XDICTIONARY
360
104B4
102
}
102
{ACAD_REACTORS
330
6A
102
}
330
6A
100
AcDbMaterial
  1
ByLayer
 72
     0
 43
0.0008202099737533
 43
0.0
 43
0.0
 43
0.0
 43
0.0
 43
0.0008202099737533
 43
0.0
 43
0.0
 43
0.0
 43
0.0
 43
1.0
 43
0.0
 43
0.0
 43
0.0
 43
0.0
 43
1.0
 77
     0
 47
0.0008202099737533
 47
0.0
 47
0.0
 47
0.0
 47
0.0
 47
0.0008202099737533
 47
0.0
 47
0.0
 47
0.0
 47
0.0
 47
1.0
 47
0.0
 47
0.0
 47
0.0
 47
0.0
 47
1.0
171
     0
 49
0.0008202099737533
 49
0.0
 49
0.0
 49
0.0
 49
0.0
 49
0.0008202099737533
 49
0.0
 49
0.0
 49
0.0
 49
0.0
 49
1.0
 49
0.0
 49
0.0
 49
0.0
 49
0.0
 49
1.0
175
     0
142
0.0008202099737533
142
0.0
142
0.0
142
0.0
142
0.0
142
0.0008202099737533
142
0.0
142
0.0
142
0.0
142
0.0
142
1.0
142
0.0
142
0.0
142
0.0
142
0.0
142
1.0
179
     0
144
0.0008202099737533
144
0.0
144
0.0
144
0.0
144
0.0
144
0.0008202099737533
144
0.0
144
0.0
144
0.0
144
0.0
144
1.0
144
0.0
144
0.0
144
0.0
144
0.0
144
1.0
147
0.0008202099737533
147
0.0
147
0.0
147
0.0
147
0.0
147
0.0008202099737533
147
0.0
147
0.0
147
0.0
147
0.0
147
1.0
147
0.0
147
0.0
147
0.0
147
0.0
147
1.0
  0
MATERIAL
  5
104C3
102
{ACAD_XDICTIONARY
360
104C4
102
}
102
{ACAD_REACTORS
330
6A
102
}
330
6A
100
AcDbMaterial
  1
Global
 72
     0
 43
0.0008202099737533
 43
0.0
 43
0.0
 43
0.0
 43
0.0
 43
0.0008202099737533
 43
0.0
 43
0.0
 43
0.0
 43
0.0
 43
1.0
 43
0.0
 43
0.0
 43
0.0
 43
0.0
 43
1.0
 77
     0
 47
0.0008202099737533
 47
0.0
 47
0.0
 47
0.0
 47
0.0
 47
0.0008202099737533
 47
0.0
 47
0.0
 47
0.0
 47
0.0
 47
1.0
 47
0.0
 47
0.0
 47
0.0
 47
0.0
 47
1.0
171
     0
 49
0.0008202099737533
 49
0.0
 49
0.0
 49
0.0
 49
0.0
 49
0.0008202099737533
 49
0.0
 49
0.0
 49
0.0
 49
0.0
 49
1.0
 49
0.0
 49
0.0
 49
0.0
 49
0.0
 49
1.0
175
     0
142
0.0008202099737533
142
0.0
142
0.0
142
0.0
142
0.0
142
0.0008202099737533
142
0.0
142
0.0
142
0.0
142
0.0
142
1.0
142
0.0
142
0.0
142
0.0
142
0.0
142
1.0
179
     0
144
0.0008202099737533
144
0.0
144
0.0
144
0.0
144
0.0
144
0.0008202099737533
144
0.0
144
0.0
144
0.0
144
0.0
144
1.0
144
0.0
144
0.0
144
0.0
144
0.0
144
1.0
147
0.0008202099737533
147
0.0
147
0.0
147
0.0
147
0.0
147
0.0008202099737533
147
0.0
147
0.0
147
0.0
147
0.0
147
1.0
147
0.0
147
0.0
147
0.0
147
0.0
147
1.0
  0
MLEADERSTYLE
  5
104EF
102
{ACAD_REACTORS
330
104EE
102
}
330
104EE
100
AcDbMLeaderStyle
179
     2
170
     2
171
     1
172
     0
 90
        2
 40
0.0
 41
0.0
173
     1
 91
-1056964608
340
14
 92
       -2
290
     1
 42
2.0
291
     1
 43
0.36
  3
Standard
 44
4.0
300

342
11
174
     1
178
     6
175
     1
176
     0
 93
-1056964608
 45
4.0
292
     0
297
     0
 46
4.0
 94
-1056964608
 47
1.0
 49
1.0
140
1.0
293
     1
141
0.0
294
     1
177
     0
142
1.0
295
     0
296
     0
143
0.125
271
     0
272
     9
273
     9
298
     0
1001
ACAD
1000
AcRTDxfName
1000
MLEADERSTYLE
1000
AcRTDxfName
1000
MLEADERSTYLE
1000
AcRTDxfName
1000
MLEADERSTYLE
1000
AcRTDxfName
1000
MLEADERSTYLE
1000
AcRTDxfName
1000
MLEADERSTYLE
1000
AcRTDxfName
1000
MLEADERSTYLE
1000
AcRTDxfName
1000
MLEADERSTYLE
1000
AcRTDxfName
1000
MLEADERSTYLE
  0
MLINESTYLE
  5
18
102
{ACAD_REACTORS
330
17
102
}
330
17
100
AcDbMlineStyle
  2
STANDARD
 70
     0
  3

 62
   256
 51
90.0
 52
90.0
 71
     2
 49
0.5
 62
   256
  6
BYLAYER
 49
-0.5
 62
   256
  6
BYLAYER
  0
ACDBPLACEHOLDER
  5
F
102
{ACAD_REACTORS
330
E
102
}
330
E
  0
SCALE
  5
104DD
102
{ACAD_REACTORS
330
104DC
102
}
330
104DC
100
AcDbScale
 70
     0
300
1:1
140
1.0
141
1.0
290
     1
1001
ACAD
1000
AcRTDxfName
1000
SCALE
1000
AcRTDxfName
1000
SCALE
1000
AcRTDxfName
1000
SCALE
1000
AcRTDxfName
1000
SCALE
1000
AcRTDxfName
1000
SCALE
1000
AcRTDxfName
1000
SCALE
1000
AcRTDxfName
1000
SCALE
1000
AcRTDxfName
1000
SCALE
  0
SCALE
  5
104DE
102
{ACAD_REACTORS
330
104DC
102
}
330
104DC
100
AcDbScale
 70
     0
300
1:2
140
1.0
141
2.0
290
     0
1001
ACAD
1000
AcRTDxfName
1000
SCALE
1000
AcRTDxfName
1000
SCALE
1000
AcRTDxfName
1000
SCALE
1000
AcRTDxfName
1000
SCALE
1000
AcRTDxfName
1000
SCALE
1000
AcRTDxfName
1000
SCALE
1000
AcRTDxfName
1000
SCALE
1000
AcRTDxfName
1000
SCALE
  0
SCALE
  5
104DF
102
{ACAD_REACTORS
330
104DC
102
}
330
104DC
100
AcDbScale
 70
     0
300
1:4
140
1.0
141
4.0
290
     0
1001
ACAD
1000
AcRTDxfName
1000
SCALE
1000
AcRTDxfName
1000
SCALE
1000
AcRTDxfName
1000
SCALE
1000
AcRTDxfName
1000
SCALE
1000
AcRTDxfName
1000
SCALE
1000
AcRTDxfName
1000
SCALE
1000
AcRTDxfName
1000
SCALE
1000
AcRTDxfName
1000
SCALE
  0
SCALE
  5
104E0
102
{ACAD_REACTORS
330
104DC
102
}
330
104DC
100
AcDbScale
 70
     0
300
1:5
140
1.0
141
5.0
290
     0
1001
ACAD
1000
AcRTDxfName
1000
SCALE
1000
AcRTDxfName
1000
SCALE
1000
AcRTDxfName
1000
SCALE
1000
AcRTDxfName
1000
SCALE
1000
AcRTDxfName
1000
SCALE
1000
AcRTDxfName
1000
SCALE
1000
AcRTDxfName
1000
SCALE
1000
AcRTDxfName
1000
SCALE
  0
SCALE
  5
104E1
102
{ACAD_REACTORS
330
104DC
102
}
330
104DC
100
AcDbScale
 70
     0
300
1:8
140
1.0
141
8.0
290
     0
1001
ACAD
1000
AcRTDxfName
1000
SCALE
1000
AcRTDxfName
1000
SCALE
1000
AcRTDxfName
1000
SCALE
1000
AcRTDxfName
1000
SCALE
1000
AcRTDxfName
1000
SCALE
1000
AcRTDxfName
1000
SCALE
1000
AcRTDxfName
1000
SCALE
1000
AcRTDxfName
1000
SCALE
  0
SCALE
  5
104E2
102
{ACAD_REACTORS
330
104DC
102
}
330
104DC
100
AcDbScale
 70
     0
300
1:10
140
1.0
141
10.0
290
     0
1001
ACAD
1000
AcRTDxfName
1000
SCALE
1000
AcRTDxfName
1000
SCALE
1000
AcRTDxfName
1000
SCALE
1000
AcRTDxfName
1000
SCALE
1000
AcRTDxfName
1000
SCALE
1000
AcRTDxfName
1000
SCALE
1000
AcRTDxfName
1000
SCALE
1000
AcRTDxfName
1000
SCALE
  0
SCALE
  5
104E3
102
{ACAD_REACTORS
330
104DC
102
}
330
104DC
100
AcDbScale
 70
     0
300
1:16
140
1.0
141
16.0
290
     0
1001
ACAD
1000
AcRTDxfName
1000
SCALE
1000
AcRTDxfName
1000
SCALE
1000
AcRTDxfName
1000
SCALE
1000
AcRTDxfName
1000
SCALE
1000
AcRTDxfName
1000
SCALE
1000
AcRTDxfName
1000
SCALE
1000
AcRTDxfName
1000
SCALE
1000
AcRTDxfName
1000
SCALE
  0
SCALE
  5
104E4
102
{ACAD_REACTORS
330
104DC
102
}
330
104DC
100
AcDbScale
 70
     0
300
1:20
140
1.0
141
20.0
290
     0
1001
ACAD
1000
AcRTDxfName
1000
SCALE
1000
AcRTDxfName
1000
SCALE
1000
AcRTDxfName
1000
SCALE
1000
AcRTDxfName
1000
SCALE
1000
AcRTDxfName
1000
SCALE
1000
AcRTDxfName
1000
SCALE
1000
AcRTDxfName
1000
SCALE
1000
AcRTDxfName
1000
SCALE
  0
SCALE
  5
104E5
102
{ACAD_REACTORS
330
104DC
102
}
330
104DC
100
AcDbScale
 70
     0
300
1:30
140
1.0
141
30.0
290
     0
1001
ACAD
1000
AcRTDxfName
1000
SCALE
1000
AcRTDxfName
1000
SCALE
1000
AcRTDxfName
1000
SCALE
1000
AcRTDxfName
1000
SCALE
1000
AcRTDxfName
1000
SCALE
1000
AcRTDxfName
1000
SCALE
1000
AcRTDxfName
1000
SCALE
1000
AcRTDxfName
1000
SCALE
  0
SCALE
  5
104E6
102
{ACAD_REACTORS
330
104DC
102
}
330
104DC
100
AcDbScale
 70
     0
300
1:40
140
1.0
141
40.0
290
     0
1001
ACAD
1000
AcRTDxfName
1000
SCALE
1000
AcRTDxfName
1000
SCALE
1000
AcRTDxfName
1000
SCALE
1000
AcRTDxfName
1000
SCALE
1000
AcRTDxfName
1000
SCALE
1000
AcRTDxfName
1000
SCALE
1000
AcRTDxfName
1000
SCALE
1000
AcRTDxfName
1000
SCALE
  0
SCALE
  5
104E7
102
{ACAD_REACTORS
330
104DC
102
}
330
104DC
100
AcDbScale
 70
     0
300
1:50
140
1.0
141
50.0
290
     0
1001
ACAD
1000
AcRTDxfName
1000
SCALE
1000
AcRTDxfName
1000
SCALE
1000
AcRTDxfName
1000
SCALE
1000
AcRTDxfName
1000
SCALE
1000
AcRTDxfName
1000
SCALE
1000
AcRTDxfName
1000
SCALE
1000
AcRTDxfName
1000
SCALE
1000
AcRTDxfName
1000
SCALE
  0
SCALE
  5
104E8
102
{ACAD_REACTORS
330
104DC
102
}
330
104DC
100
AcDbScale
 70
     0
300
1:100
140
1.0
141
100.0
290
     0
1001
ACAD
1000
AcRTDxfName
1000
SCALE
1000
AcRTDxfName
1000
SCALE
1000
AcRTDxfName
1000
SCALE
1000
AcRTDxfName
1000
SCALE
1000
AcRTDxfName
1000
SCALE
1000
AcRTDxfName
1000
SCALE
1000
AcRTDxfName
1000
SCALE
1000
AcRTDxfName
1000
SCALE
  0
SCALE
  5
104E9
102
{ACAD_REACTORS
330
104DC
102
}
330
104DC
100
AcDbScale
 70
     0
300
2:1
140
2.0
141
1.0
290
     0
1001
ACAD
1000
AcRTDxfName
1000
SCALE
1000
AcRTDxfName
1000
SCALE
1000
AcRTDxfName
1000
SCALE
1000
AcRTDxfName
1000
SCALE
1000
AcRTDxfName
1000
SCALE
1000
AcRTDxfName
1000
SCALE
1000
AcRTDxfName
1000
SCALE
1000
AcRTDxfName
1000
SCALE
  0
SCALE
  5
104EA
102
{ACAD_REACTORS
330
104DC
102
}
330
104DC
100
AcDbScale
 70
     0
300
4:1
140
4.0
141
1.0
290
     0
1001
ACAD
1000
AcRTDxfName
1000
SCALE
1000
AcRTDxfName
1000
SCALE
1000
AcRTDxfName
1000
SCALE
1000
AcRTDxfName
1000
SCALE
1000
AcRTDxfName
1000
SCALE
1000
AcRTDxfName
1000
SCALE
1000
AcRTDxfName
1000
SCALE
1000
AcRTDxfName
1000
SCALE
  0
SCALE
  5
104EB
102
{ACAD_REACTORS
330
104DC
102
}
330
104DC
100
AcDbScale
 70
     0
300
8:1
140
8.0
141
1.0
290
     0
1001
ACAD
1000
AcRTDxfName
1000
SCALE
1000
AcRTDxfName
1000
SCALE
1000
AcRTDxfName
1000
SCALE
1000
AcRTDxfName
1000
SCALE
1000
AcRTDxfName
1000
SCALE
1000
AcRTDxfName
1000
SCALE
1000
AcRTDxfName
1000
SCALE
1000
AcRTDxfName
1000
SCALE
  0
SCALE
  5
104EC
102
{ACAD_REACTORS
330
104DC
102
}
330
104DC
100
AcDbScale
 70
     0
300
10:1
140
10.0
141
1.0
290
     0
1001
ACAD
1000
AcRTDxfName
1000
SCALE
1000
AcRTDxfName
1000
SCALE
1000
AcRTDxfName
1000
SCALE
1000
AcRTDxfName
1000
SCALE
1000
AcRTDxfName
1000
SCALE
1000
AcRTDxfName
1000
SCALE
1000
AcRTDxfName
1000
SCALE
1000
AcRTDxfName
1000
SCALE
  0
SCALE
  5
104ED
102
{ACAD_REACTORS
330
104DC
102
}
330
104DC
100
AcDbScale
 70
     0
300
100:1
140
100.0
141
1.0
290
     0
1001
ACAD
1000
AcRTDxfName
1000
SCALE
1000
AcRTDxfName
1000
SCALE
1000
AcRTDxfName
1000
SCALE
1000
AcRTDxfName
1000
SCALE
1000
AcRTDxfName
1000
SCALE
1000
AcRTDxfName
1000
SCALE
1000
AcRTDxfName
1000
SCALE
1000
AcRTDxfName
1000
SCALE
  0
ACDBSECTIONVIEWSTYLE
  5
11DF5
102
{ACAD_XDICTIONARY
360
141D1
102
}
102
{ACAD_REACTORS
330
11DF4
102
}
330
11DF4
100
AcDbModelDocViewStyle
 70
     0
  3
Metric50
290
     0
100
AcDbSectionViewStyle
 70
     0
 71
     0
 90
      102
 71
     1
340
11
 62
   256
 40
5.0
340
0
340
0
 62
   256
 40
5.0
300
I, O, Q, S, X, Z
 40
10.0
 90
        0
 40
2.5
 90
        0
 71
     2
340
16
 90
       25
 62
   256
340
16
 90
       50
 62
   256
 40
5.0
 40
2.5
 40
5.0
 71
     3
340
11
 62
   256
 40
5.0
 90
        0
 40
15.0
 90
        1
300
%<\AcVar ViewSectionStartId>%-%<\AcVar ViewSectionEndId>% (%<\AcVar ViewScale \f "%sn">%)
 71
     4
 62
   256
 62
   257
300
ANSI31
 40
1.0
 90
        0
290
     0
290
     0
 90
        6
 40
0.0
 40
1.570796326794896
 40
0.2617993877991494
 40
1.308996938995747
 40
-0.2617993877991494
 40
1.832595714594046
  0
TABLESTYLE
  5
7F
102
{ACAD_XDICTIONARY
360
106C9
102
}
102
{ACAD_REACTORS
330
7E
102
}
330
7E
100
AcDbTableStyle
280
     0
  3
Standard
 70
     0
 71
     0
 40
1.5
 41
1.5
280
     0
281
     0
  7
Standard
140
4.5
170
     2
 62
     0
 63
     7
283
     0
 90
        4
 91
        0
  1

274
    -2
284
     1
 64
     0
275
    -2
285
     1
 65
     0
276
    -2
286
     1
 66
     0
277
    -2
287
     1
 67
     0
278
    -2
288
     1
 68
     0
279
    -2
289
     1
 69
     0
  7
Standard
140
6.0
170
     5
 62
     0
 63
     7
283
     0
 90
        4
 91
        0
  1

274
    -2
284
     1
 64
     0
275
    -2
285
     1
 65
     0
276
    -2
286
     1
 66
     0
277
    -2
287
     1
 67
     0
278
    -2
288
     1
 68
     0
279
    -2
289
     1
 69
     0
  7
Standard
140
4.5
170
     5
 62
     0
 63
     7
283
     0
 90
        4
 91
        0
  1

274
    -2
284
     1
 64
     0
275
    -2
285
     1
 65
     0
276
    -2
286
     1
 66
     0
277
    -2
287
     1
 67
     0
278
    -2
288
     1
 68
     0
279
    -2
289
     1
 69
     0
  0
VISUALSTYLE
  5
104D1
102
{ACAD_REACTORS
330
104CB
102
}
330
104CB
100
AcDbVisualStyle
  2
2dWireframe
 70
     4
177
     3
291
     0
 70
    58
 90
        0
176
     1
 90
        2
176
     1
 90
        0
176
     1
 90
        0
176
     1
 40
0.6
176
     1
 40
30.0
176
     1
 62
     7
176
     1
 90
        1
176
     1
 90
        4
176
     1
 62
     7
176
     1
 62
   257
176
     1
 90
        1
176
     1
 90
        1
176
     1
 40
1.0
176
     1
 90
        0
176
     1
 62
   257
176
     1
 40
1.0
176
     1
 90
        1
176
     1
 90
        6
176
     1
 90
        2
176
     1
 62
     7
176
     1
 90
        5
176
     1
 90
        0
176
     1
 90
        0
176
     1
290
     0
176
     1
 90
        1
176
     1
 40
0.0
176
     1
 90
        0
176
     1
290
     1
176
     1
290
     1
176
     1
290
     0
176
     1
290
     0
176
     1
290
     0
176
     1
290
     0
176
     1
290
     0
176
     1
290
     0
176
     1
290
     0
176
     1
 90
       50
176
     1
 40
0.0
176
     1
 40
1.0
176
     1
 90
        0
176
     1
 62
    18
420
        0
176
     1
 90
       50
176
     1
 90
        3
176
     1
 62
     5
420
      255
176
     1
290
     0
176
     1
 90
       50
176
     1
 90
       50
176
     1
 90
       50
176
     1
290
     0
176
     1
 90
       50
176
     1
 62
   256
176
     0
 40
1.0
176
     0
 90
        2
176
     1
  1
strokes_ogs.tif
176
     1
290
     0
176
     1
 40
1.0
176
     1
 40
1.0
176
     1
1001
ACAD
1000
AcRTDxfName
1000
VISUALSTYLE
1000
AcRTDxfName
1000
VISUALSTYLE
1000
AcRTDxfName
1000
VISUALSTYLE
1000
AcRTDxfName
1000
VISUALSTYLE
1000
AcRTDxfName
1000
VISUALSTYLE
1000
AcRTDxfName
1000
VISUALSTYLE
1000
AcRTDxfName
1000
VISUALSTYLE
1000
AcRTDxfName
1000
VISUALSTYLE
1000
AcDbSavedByObjectVersion
1070
     0
  0
VISUALSTYLE
  5
104D3
102
{ACAD_REACTORS
330
104CB
102
}
330
104CB
100
AcDbVisualStyle
  2
3D Hidden
 70
     6
177
     3
291
     0
 70
    58
 90
        1
176
     1
 90
        2
176
     1
 90
        2
176
     1
 90
        0
176
     1
 40
0.6
176
     1
 40
30.0
176
     1
 62
     7
176
     1
 90
        2
176
     1
 90
        2
176
     1
 62
     7
176
     1
 62
   257
176
     1
 90
        2
176
     1
 90
        1
176
     1
 40
40.0
176
     1
 90
        0
176
     1
 62
   257
176
     1
 40
1.0
176
     1
 90
        1
176
     1
 90
        6
176
     1
 90
        2
176
     1
 62
     7
176
     1
 90
        3
176
     1
 90
        0
176
     1
 90
        0
176
     1
290
     0
176
     1
 90
        1
176
     1
 40
0.0
176
     1
 90
        0
176
     1
290
     0
176
     1
290
     1
176
     1
290
     1
176
     1
290
     0
176
     1
290
     0
176
     1
290
     0
176
     1
290
     0
176
     1
290
     0
176
     1
290
     0
176
     1
 90
       50
176
     1
 40
0.0
176
     1
 40
1.0
176
     1
 90
        0
176
     1
 62
    18
420
        0
176
     1
 90
       50
176
     1
 90
        3
176
     1
 62
     5
420
      255
176
     1
290
     0
176
     1
 90
       50
176
     1
 90
       50
176
     1
 90
       50
176
     1
290
     0
176
     1
 90
       50
176
     1
 62
   256
176
     0
 40
1.0
176
     0
 90
        2
176
     1
  1
strokes_ogs.tif
176
     1
290
     0
176
     1
 40
1.0
176
     1
 40
1.0
176
     1
1001
ACAD
1000
AcRTDxfName
1000
VISUALSTYLE
1000
AcRTDxfName
1000
VISUALSTYLE
1000
AcRTDxfName
1000
VISUALSTYLE
1000
AcRTDxfName
1000
VISUALSTYLE
1000
AcRTDxfName
1000
VISUALSTYLE
1000
AcRTDxfName
1000
VISUALSTYLE
1000
AcRTDxfName
1000
VISUALSTYLE
1000
AcRTDxfName
1000
VISUALSTYLE
1000
AcDbSavedByObjectVersion
1070
     0
  0
VISUALSTYLE
  5
104D2
102
{ACAD_REACTORS
330
104CB
102
}
330
104CB
100
AcDbVisualStyle
  2
3dWireframe
 70
     5
177
     3
291
     0
 70
    58
 90
        0
176
     1
 90
        2
176
     1
 90
        0
176
     1
 90
        0
176
     1
 40
0.6
176
     1
 40
30.0
176
     1
 62
     7
176
     1
 90
        1
176
     1
 90
        4
176
     1
 62
     7
176
     1
 62
   257
176
     1
 90
        1
176
     1
 90
        1
176
     1
 40
1.0
176
     1
 90
        0
176
     1
 62
   257
176
     1
 40
1.0
176
     1
 90
        1
176
     1
 90
        6
176
     1
 90
        2
176
     1
 62
     7
176
     1
 90
        5
176
     1
 90
        0
176
     1
 90
        0
176
     1
290
     0
176
     1
 90
        1
176
     1
 40
0.0
176
     1
 90
        0
176
     1
290
     0
176
     1
290
     1
176
     1
290
     1
176
     1
290
     0
176
     1
290
     0
176
     1
290
     0
176
     1
290
     0
176
     1
290
     0
176
     1
290
     0
176
     1
 90
       50
176
     1
 40
0.0
176
     1
 40
1.0
176
     1
 90
        0
176
     1
 62
    18
420
        0
176
     1
 90
       50
176
     1
 90
        3
176
     1
 62
     5
420
      255
176
     1
290
     0
176
     1
 90
       50
176
     1
 90
       50
176
     1
 90
       50
176
     1
290
     0
176
     1
 90
       50
176
     1
 62
   256
176
     0
 40
1.0
176
     0
 90
        2
176
     1
  1
strokes_ogs.tif
176
     1
290
     0
176
     1
 40
1.0
176
     1
 40
1.0
176
     1
1001
ACAD
1000
AcRTDxfName
1000
VISUALSTYLE
1000
AcRTDxfName
1000
VISUALSTYLE
1000
AcRTDxfName
1000
VISUALSTYLE
1000
AcRTDxfName
1000
VISUALSTYLE
1000
AcRTDxfName
1000
VISUALSTYLE
1000
AcRTDxfName
1000
VISUALSTYLE
1000
AcRTDxfName
1000
VISUALSTYLE
1000
AcRTDxfName
1000
VISUALSTYLE
1000
AcDbSavedByObjectVersion
1070
     0
  0
VISUALSTYLE
  5
104D0
102
{ACAD_REACTORS
330
104CB
102
}
330
104CB
100
AcDbVisualStyle
  2
Basic
 70
     7
177
     3
291
     1
 70
    58
 90
        1
176
     1
 90
        0
176
     1
 90
        1
176
     1
 90
        0
176
     1
 40
0.6
176
     1
 40
30.0
176
     1
 62
     7
176
     1
 90
        0
176
     1
 90
        4
176
     1
 62
     7
176
     1
 62
   257
176
     1
 90
        1
176
     1
 90
        1
176
     1
 40
1.0
176
     1
 90
        8
176
     1
 62
     7
176
     1
 40
1.0
176
     1
 90
        1
176
     1
 90
        6
176
     1
 90
        2
176
     1
 62
     7
176
     1
 90
        5
176
     1
 90
        0
176
     1
 90
        0
176
     1
290
     0
176
     1
 90
        1
176
     1
 40
0.0
176
     1
 90
        0
176
     1
290
     0
176
     1
290
     1
176
     1
290
     1
176
     1
290
     0
176
     1
290
     0
176
     1
290
     0
176
     1
290
     0
176
     1
290
     0
176
     1
290
     0
176
     1
 90
       50
176
     1
 40
0.0
176
     1
 40
1.0
176
     1
 90
        0
176
     1
 62
    18
420
        0
176
     1
 90
       50
176
     1
 90
        3
176
     1
 62
     5
420
      255
176
     1
290
     0
176
     1
 90
       50
176
     1
 90
       50
176
     1
 90
       50
176
     1
290
     0
176
     1
 90
       50
176
     1
 62
   256
176
     0
 40
1.0
176
     0
 90
        2
176
     1
  1
strokes_ogs.tif
176
     1
290
     0
176
     1
 40
1.0
176
     1
 40
1.0
176
     1
1001
ACAD
1000
AcRTDxfName
1000
VISUALSTYLE
1000
AcRTDxfName
1000
VISUALSTYLE
1000
AcRTDxfName
1000
VISUALSTYLE
1000
AcRTDxfName
1000
VISUALSTYLE
1000
AcRTDxfName
1000
VISUALSTYLE
1000
AcRTDxfName
1000
VISUALSTYLE
1000
AcRTDxfName
1000
VISUALSTYLE
1000
AcRTDxfName
1000
VISUALSTYLE
1000
AcDbSavedByObjectVersion
1070
     0
  0
VISUALSTYLE
  5
104D7
102
{ACAD_REACTORS
330
104CB
102
}
330
104CB
100
AcDbVisualStyle
  2
Brighten
 70
    12
177
     3
291
     1
 70
    58
 90
        2
176
     1
 90
        2
176
     1
 90
        0
176
     1
 90
        0
176
     1
 40
0.6
176
     1
 40
30.0
176
     1
 62
     7
176
     1
 90
        1
176
     1
 90
        4
176
     1
 62
     7
176
     1
 62
   257
176
     1
 90
        1
176
     1
 90
        1
176
     1
 40
1.0
176
     1
 90
        8
176
     1
 62
     7
176
     1
 40
1.0
176
     1
 90
        1
176
     1
 90
        6
176
     1
 90
        2
176
     1
 62
     7
176
     1
 90
        5
176
     1
 90
        0
176
     1
 90
        0
176
     1
290
     0
176
     1
 90
        1
176
     1
 40
50.0
176
     1
 90
        0
176
     1
290
     0
176
     1
290
     1
176
     1
290
     1
176
     1
290
     0
176
     1
290
     0
176
     1
290
     0
176
     1
290
     0
176
     1
290
     0
176
     1
290
     0
176
     1
 90
       50
176
     1
 40
0.0
176
     1
 40
1.0
176
     1
 90
        0
176
     1
 62
    18
420
        0
176
     1
 90
       50
176
     1
 90
        3
176
     1
 62
     5
420
      255
176
     1
290
     0
176
     1
 90
       50
176
     1
 90
       50
176
     1
 90
       50
176
     1
290
     0
176
     1
 90
       50
176
     1
 62
   256
176
     0
 40
1.0
176
     0
 90
        2
176
     1
  1
strokes_ogs.tif
176
     1
290
     0
176
     1
 40
1.0
176
     1
 40
1.0
176
     1
1001
ACAD
1000
AcRTDxfName
1000
VISUALSTYLE
1000
AcRTDxfName
1000
VISUALSTYLE
1000
AcRTDxfName
1000
VISUALSTYLE
1000
AcRTDxfName
1000
VISUALSTYLE
1000
AcRTDxfName
1000
VISUALSTYLE
1000
AcRTDxfName
1000
VISUALSTYLE
1000
AcRTDxfName
1000
VISUALSTYLE
1000
AcRTDxfName
1000
VISUALSTYLE
1000
AcDbSavedByObjectVersion
1070
     0
  0
VISUALSTYLE
  5
104DB
102
{ACAD_REACTORS
330
104CB
102
}
330
104CB
100
AcDbVisualStyle
  2
ColorChange
 70
    16
177
     3
291
     1
 70
    58
 90
        2
176
     1
 90
        2
176
     1
 90
        3
176
     1
 90
        0
176
     1
 40
0.6
176
     1
 40
30.0
176
     1
 62
     8
176
     1
 90
        1
176
     1
 90
        4
176
     1
 62
     7
176
     1
 62
   257
176
     1
 90
        1
176
     1
 90
        1
176
     1
 40
1.0
176
     1
 90
        8
176
     1
 62
     8
176
     1
 40
1.0
176
     1
 90
        1
176
     1
 90
        6
176
     1
 90
        2
176
     1
 62
     7
176
     1
 90
        5
176
     1
 90
        0
176
     1
 90
        0
176
     1
290
     0
176
     1
 90
        1
176
     1
 40
0.0
176
     1
 90
        0
176
     1
290
     0
176
     1
290
     1
176
     1
290
     1
176
     1
290
     0
176
     1
290
     0
176
     1
290
     0
176
     1
290
     0
176
     1
290
     0
176
     1
290
     0
176
     1
 90
       50
176
     1
 40
0.0
176
     1
 40
1.0
176
     1
 90
        0
176
     1
 62
    18
420
        0
176
     1
 90
       50
176
     1
 90
        3
176
     1
 62
     5
420
      255
176
     1
290
     0
176
     1
 90
       50
176
     1
 90
       50
176
     1
 90
       50
176
     1
290
     0
176
     1
 90
       50
176
     1
 62
   256
176
     0
 40
1.0
176
     0
 90
        2
176
     1
  1
strokes_ogs.tif
176
     1
290
     0
176
     1
 40
1.0
176
     1
 40
1.0
176
     1
1001
ACAD
1000
AcRTDxfName
1000
VISUALSTYLE
1000
AcRTDxfName
1000
VISUALSTYLE
1000
AcRTDxfName
1000
VISUALSTYLE
1000
AcRTDxfName
1000
VISUALSTYLE
1000
AcRTDxfName
1000
VISUALSTYLE
1000
AcRTDxfName
1000
VISUALSTYLE
1000
AcRTDxfName
1000
VISUALSTYLE
1000
AcRTDxfName
1000
VISUALSTYLE
1000
AcDbSavedByObjectVersion
1070
     0
  0
VISUALSTYLE
  5
104D4
102
{ACAD_REACTORS
330
104CB
102
}
330
104CB
100
AcDbVisualStyle
  2
Conceptual
 70
     9
177
     3
291
     0
 70
    58
 90
        3
176
     1
 90
        2
176
     1
 90
        0
176
     1
 90
        0
176
     1
 40
0.6
176
     1
 40
30.0
176
     1
 62
     7
176
     1
 90
        2
176
     1
 90
        2
176
     1
 62
     7
176
     1
 62
   257
176
     1
 90
        1
176
     1
 90
        1
176
     1
 40
40.0
176
     1
 90
        8
176
     1
 62
     7
176
     1
 40
1.0
176
     1
 90
        1
176
     1
 90
        6
176
     1
 90
        2
176
     1
 62
     7
176
     1
 90
        3
176
     1
 90
        0
176
     1
 90
        0
176
     1
290
     0
176
     1
 90
        1
176
     1
 40
0.0
176
     1
 90
        0
176
     1
290
     0
176
     1
290
     1
176
     1
290
     1
176
     1
290
     0
176
     1
290
     0
176
     1
290
     0
176
     1
290
     0
176
     1
290
     0
176
     1
290
     0
176
     1
 90
       50
176
     1
 40
0.0
176
     1
 40
1.0
176
     1
 90
        0
176
     1
 62
    18
420
        0
176
     1
 90
       50
176
     1
 90
        3
176
     1
 62
     5
420
      255
176
     1
290
     0
176
     1
 90
       50
176
     1
 90
       50
176
     1
 90
       50
176
     1
290
     0
176
     1
 90
       50
176
     1
 62
   256
176
     0
 40
1.0
176
     0
 90
        2
176
     1
  1
strokes_ogs.tif
176
     1
290
     0
176
     1
 40
1.0
176
     1
 40
1.0
176
     1
1001
ACAD
1000
AcRTDxfName
1000
VISUALSTYLE
1000
AcRTDxfName
1000
VISUALSTYLE
1000
AcRTDxfName
1000
VISUALSTYLE
1000
AcRTDxfName
1000
VISUALSTYLE
1000
AcRTDxfName
1000
VISUALSTYLE
1000
AcRTDxfName
1000
VISUALSTYLE
1000
AcRTDxfName
1000
VISUALSTYLE
1000
AcRTDxfName
1000
VISUALSTYLE
1000
AcDbSavedByObjectVersion
1070
     0
  0
VISUALSTYLE
  5
104D6
102
{ACAD_REACTORS
330
104CB
102
}
330
104CB
100
AcDbVisualStyle
  2
Dim
 70
    11
177
     3
291
     1
 70
    58
 90
        2
176
     1
 90
        2
176
     1
 90
        0
176
     1
 90
        0
176
     1
 40
0.6
176
     1
 40
30.0
176
     1
 62
     7
176
     1
 90
        1
176
     1
 90
        4
176
     1
 62
     7
176
     1
 62
   257
176
     1
 90
        1
176
     1
 90
        1
176
     1
 40
1.0
176
     1
 90
        8
176
     1
 62
     7
176
     1
 40
1.0
176
     1
 90
        1
176
     1
 90
        6
176
     1
 90
        2
176
     1
 62
     7
176
     1
 90
        5
176
     1
 90
        0
176
     1
 90
        0
176
     1
290
     0
176
     1
 90
        1
176
     1
 40
-50.0
176
     1
 90
        0
176
     1
290
     0
176
     1
290
     1
176
     1
290
     1
176
     1
290
     0
176
     1
290
     0
176
     1
290
     0
176
     1
290
     0
176
     1
290
     0
176
     1
290
     0
176
     1
 90
       50
176
     1
 40
0.0
176
     1
 40
1.0
176
     1
 90
        0
176
     1
 62
    18
420
        0
176
     1
 90
       50
176
     1
 90
        3
176
     1
 62
     5
420
      255
176
     1
290
     0
176
     1
 90
       50
176
     1
 90
       50
176
     1
 90
       50
176
     1
290
     0
176
     1
 90
       50
176
     1
 62
   256
176
     0
 40
1.0
176
     0
 90
        2
176
     1
  1
strokes_ogs.tif
176
     1
290
     0
176
     1
 40
1.0
176
     1
 40
1.0
176
     1
1001
ACAD
1000
AcRTDxfName
1000
VISUALSTYLE
1000
AcRTDxfName
1000
VISUALSTYLE
1000
AcRTDxfName
1000
VISUALSTYLE
1000
AcRTDxfName
1000
VISUALSTYLE
1000
AcRTDxfName
1000
VISUALSTYLE
1000
AcRTDxfName
1000
VISUALSTYLE
1000
AcRTDxfName
1000
VISUALSTYLE
1000
AcRTDxfName
1000
VISUALSTYLE
1000
AcDbSavedByObjectVersion
1070
     0
  0
VISUALSTYLE
  5
11DF3
102
{ACAD_REACTORS
330
104CB
102
}
330
104CB
100
AcDbVisualStyle
  2
EdgeColorOff
 70
    22
177
     3
291
     1
 70
    58
 90
        2
176
     0
 90
        2
176
     0
 90
        0
176
     0
 90
        0
176
     0
 40
0.6
176
     0
 40
30.0
176
     0
 62
     7
420
 16777215
176
     0
 90
        1
176
     0
 90
        4
176
     0
 62
     7
176
     0
 62
   257
176
     0
 90
        1
176
     0
 90
        1
176
     0
 40
1.0
176
     0
 90
        8
176
     2
 62
     7
176
     0
 40
1.0
176
     0
 90
        1
176
     0
 90
        6
176
     0
 90
        2
176
     0
 62
     7
176
     0
 90
        5
176
     0
 90
        0
176
     0
 90
        0
176
     0
290
     0
176
     0
 90
        1
176
     0
 40
0.0
176
     0
 90
        0
176
     0
290
     0
176
     0
290
     1
176
     0
290
     1
176
     0
290
     0
176
     0
290
     0
176
     0
290
     0
176
     0
290
     0
176
     0
290
     0
176
     0
290
     0
176
     0
 90
       50
176
     0
 40
0.0
176
     0
 40
1.0
176
     0
 90
        0
176
     0
 62
    18
420
        0
176
     0
 90
       50
176
     0
 90
        3
176
     0
 62
     5
420
      255
176
     0
290
     0
176
     0
 90
       50
176
     0
 90
       50
176
     0
 90
       50
176
     0
290
     0
176
     0
 90
       50
176
     0
 62
   256
176
     0
 40
1.0
176
     0
 90
        2
176
     0
  1
strokes_ogs.tif
176
     0
290
     0
176
     0
 40
1.0
176
     0
 40
1.0
176
     0
1001
ACAD
1000
AcDbSavedByObjectVersion
1070
     0
  0
VISUALSTYLE
  5
104DA
102
{ACAD_REACTORS
330
104CB
102
}
330
104CB
100
AcDbVisualStyle
  2
Facepattern
 70
    15
177
     3
291
     1
 70
    58
 90
        2
176
     1
 90
        2
176
     1
 90
        0
176
     1
 90
        0
176
     1
 40
0.6
176
     1
 40
30.0
176
     1
 62
     7
176
     1
 90
        1
176
     1
 90
        4
176
     1
 62
     7
176
     1
 62
   257
176
     1
 90
        1
176
     1
 90
        1
176
     1
 40
1.0
176
     1
 90
        8
176
     1
 62
     7
176
     1
 40
1.0
176
     1
 90
        1
176
     1
 90
        6
176
     1
 90
        2
176
     1
 62
     7
176
     1
 90
        5
176
     1
 90
        0
176
     1
 90
        0
176
     1
290
     0
176
     1
 90
        1
176
     1
 40
0.0
176
     1
 90
        0
176
     1
290
     0
176
     1
290
     1
176
     1
290
     1
176
     1
290
     0
176
     1
290
     0
176
     1
290
     0
176
     1
290
     0
176
     1
290
     0
176
     1
290
     0
176
     1
 90
       50
176
     1
 40
0.0
176
     1
 40
1.0
176
     1
 90
        0
176
     1
 62
    18
420
        0
176
     1
 90
       50
176
     1
 90
        3
176
     1
 62
     5
420
      255
176
     1
290
     0
176
     1
 90
       50
176
     1
 90
       50
176
     1
 90
       50
176
     1
290
     0
176
     1
 90
       50
176
     1
 62
   256
176
     0
 40
1.0
176
     0
 90
        2
176
     1
  1
strokes_ogs.tif
176
     1
290
     0
176
     1
 40
1.0
176
     1
 40
1.0
176
     1
1001
ACAD
1000
AcRTDxfName
1000
VISUALSTYLE
1000
AcRTDxfName
1000
VISUALSTYLE
1000
AcRTDxfName
1000
VISUALSTYLE
1000
AcRTDxfName
1000
VISUALSTYLE
1000
AcRTDxfName
1000
VISUALSTYLE
1000
AcRTDxfName
1000
VISUALSTYLE
1000
AcRTDxfName
1000
VISUALSTYLE
1000
AcRTDxfName
1000
VISUALSTYLE
1000
AcDbSavedByObjectVersion
1070
     0
  0
VISUALSTYLE
  5
104CC
102
{ACAD_REACTORS
330
104CB
102
}
330
104CB
100
AcDbVisualStyle
  2
Flat
 70
     0
177
     3
291
     1
 70
    58
 90
        2
176
     1
 90
        1
176
     1
 90
        1
176
     1
 90
        2
176
     1
 40
0.6
176
     1
 40
30.0
176
     1
 62
     7
176
     1
 90
        0
176
     1
 90
        4
176
     1
 62
     7
176
     1
 62
   257
176
     1
 90
        1
176
     1
 90
        1
176
     1
 40
1.0
176
     1
 90
        8
176
     1
 62
     7
176
     1
 40
1.0
176
     1
 90
        1
176
     1
 90
        6
176
     1
 90
        2
176
     1
 62
     7
176
     1
 90
        5
176
     1
 90
        0
176
     1
 90
        0
176
     1
290
     0
176
     1
 90
       13
176
     1
 40
0.0
176
     1
 90
        0
176
     1
290
     0
176
     1
290
     1
176
     1
290
     1
176
     1
290
     0
176
     1
290
     0
176
     1
290
     0
176
     1
290
     0
176
     1
290
     0
176
     1
290
     0
176
     1
 90
       50
176
     1
 40
0.0
176
     1
 40
1.0
176
     1
 90
        0
176
     1
 62
    18
420
        0
176
     1
 90
       50
176
     1
 90
        3
176
     1
 62
     5
420
      255
176
     1
290
     0
176
     1
 90
       50
176
     1
 90
       50
176
     1
 90
       50
176
     1
290
     0
176
     1
 90
       50
176
     1
 62
   256
176
     0
 40
1.0
176
     0
 90
        2
176
     1
  1
strokes_ogs.tif
176
     1
290
     0
176
     1
 40
1.0
176
     1
 40
1.0
176
     1
1001
ACAD
1000
AcRTDxfName
1000
VISUALSTYLE
1000
AcRTDxfName
1000
VISUALSTYLE
1000
AcRTDxfName
1000
VISUALSTYLE
1000
AcRTDxfName
1000
VISUALSTYLE
1000
AcRTDxfName
1000
VISUALSTYLE
1000
AcRTDxfName
1000
VISUALSTYLE
1000
AcRTDxfName
1000
VISUALSTYLE
1000
AcRTDxfName
1000
VISUALSTYLE
1000
AcDbSavedByObjectVersion
1070
     0
  0
VISUALSTYLE
  5
104CD
102
{ACAD_REACTORS
330
104CB
102
}
330
104CB
100
AcDbVisualStyle
  2
FlatWithEdges
 70
     1
177
     3
291
     1
 70
    58
 90
        2
176
     1
 90
        1
176
     1
 90
        1
176
     1
 90
        2
176
     1
 40
0.6
176
     1
 40
30.0
176
     1
 62
     7
176
     1
 90
        1
176
     1
 90
        4
176
     1
 62
     7
176
     1
 62
   257
176
     1
 90
        1
176
     1
 90
        1
176
     1
 40
1.0
176
     1
 90
        0
176
     1
 62
   257
176
     1
 40
1.0
176
     1
 90
        1
176
     1
 90
        6
176
     1
 90
        2
176
     1
 62
     7
176
     1
 90
        5
176
     1
 90
        0
176
     1
 90
        0
176
     1
290
     0
176
     1
 90
       13
176
     1
 40
0.0
176
     1
 90
        0
176
     1
290
     0
176
     1
290
     1
176
     1
290
     1
176
     1
290
     0
176
     1
290
     0
176
     1
290
     0
176
     1
290
     0
176
     1
290
     0
176
     1
290
     0
176
     1
 90
       50
176
     1
 40
0.0
176
     1
 40
1.0
176
     1
 90
        0
176
     1
 62
    18
420
        0
176
     1
 90
       50
176
     1
 90
        3
176
     1
 62
     5
420
      255
176
     1
290
     0
176
     1
 90
       50
176
     1
 90
       50
176
     1
 90
       50
176
     1
290
     0
176
     1
 90
       50
176
     1
 62
   256
176
     0
 40
1.0
176
     0
 90
        2
176
     1
  1
strokes_ogs.tif
176
     1
290
     0
176
     1
 40
1.0
176
     1
 40
1.0
176
     1
1001
ACAD
1000
AcRTDxfName
1000
VISUALSTYLE
1000
AcRTDxfName
1000
VISUALSTYLE
1000
AcRTDxfName
1000
VISUALSTYLE
1000
AcRTDxfName
1000
VISUALSTYLE
1000
AcRTDxfName
1000
VISUALSTYLE
1000
AcRTDxfName
1000
VISUALSTYLE
1000
AcRTDxfName
1000
VISUALSTYLE
1000
AcRTDxfName
1000
VISUALSTYLE
1000
AcDbSavedByObjectVersion
1070
     0
  0
VISUALSTYLE
  5
104CE
102
{ACAD_REACTORS
330
104CB
102
}
330
104CB
100
AcDbVisualStyle
  2
Gouraud
 70
     2
177
     3
291
     1
 70
    58
 90
        2
176
     1
 90
        2
176
     1
 90
        1
176
     1
 90
        2
176
     1
 40
0.6
176
     1
 40
30.0
176
     1
 62
     7
176
     1
 90
        0
176
     1
 90
        4
176
     1
 62
     7
176
     1
 62
   257
176
     1
 90
        1
176
     1
 90
        1
176
     1
 40
1.0
176
     1
 90
        0
176
     1
 62
     7
176
     1
 40
1.0
176
     1
 90
        1
176
     1
 90
        6
176
     1
 90
        2
176
     1
 62
     7
176
     1
 90
        5
176
     1
 90
        0
176
     1
 90
        0
176
     1
290
     0
176
     1
 90
       13
176
     1
 40
0.0
176
     1
 90
        0
176
     1
290
     0
176
     1
290
     1
176
     1
290
     1
176
     1
290
     0
176
     1
290
     0
176
     1
290
     0
176
     1
290
     0
176
     1
290
     0
176
     1
290
     0
176
     1
 90
       50
176
     1
 40
0.0
176
     1
 40
1.0
176
     1
 90
        0
176
     1
 62
    18
420
        0
176
     1
 90
       50
176
     1
 90
        3
176
     1
 62
     5
420
      255
176
     1
290
     0
176
     1
 90
       50
176
     1
 90
       50
176
     1
 90
       50
176
     1
290
     0
176
     1
 90
       50
176
     1
 62
   256
176
     0
 40
1.0
176
     0
 90
        2
176
     1
  1
strokes_ogs.tif
176
     1
290
     0
176
     1
 40
1.0
176
     1
 40
1.0
176
     1
1001
ACAD
1000
AcRTDxfName
1000
VISUALSTYLE
1000
AcRTDxfName
1000
VISUALSTYLE
1000
AcRTDxfName
1000
VISUALSTYLE
1000
AcRTDxfName
1000
VISUALSTYLE
1000
AcRTDxfName
1000
VISUALSTYLE
1000
AcRTDxfName
1000
VISUALSTYLE
1000
AcRTDxfName
1000
VISUALSTYLE
1000
AcRTDxfName
1000
VISUALSTYLE
1000
AcDbSavedByObjectVersion
1070
     0
  0
VISUALSTYLE
  5
104CF
102
{ACAD_REACTORS
330
104CB
102
}
330
104CB
100
AcDbVisualStyle
  2
GouraudWithEdges
 70
     3
177
     3
291
     1
 70
    58
 90
        2
176
     1
 90
        2
176
     1
 90
        1
176
     1
 90
        2
176
     1
 40
0.6
176
     1
 40
30.0
176
     1
 62
     7
176
     1
 90
        1
176
     1
 90
        4
176
     1
 62
     7
176
     1
 62
   257
176
     1
 90
        1
176
     1
 90
        1
176
     1
 40
1.0
176
     1
 90
        0
176
     1
 62
   257
176
     1
 40
1.0
176
     1
 90
        1
176
     1
 90
        6
176
     1
 90
        2
176
     1
 62
     7
176
     1
 90
        5
176
     1
 90
        0
176
     1
 90
        0
176
     1
290
     0
176
     1
 90
       13
176
     1
 40
0.0
176
     1
 90
        0
176
     1
290
     0
176
     1
290
     1
176
     1
290
     1
176
     1
290
     0
176
     1
290
     0
176
     1
290
     0
176
     1
290
     0
176
     1
290
     0
176
     1
290
     0
176
     1
 90
       50
176
     1
 40
0.0
176
     1
 40
1.0
176
     1
 90
        0
176
     1
 62
    18
420
        0
176
     1
 90
       50
176
     1
 90
        3
176
     1
 62
     5
420
      255
176
     1
290
     0
176
     1
 90
       50
176
     1
 90
       50
176
     1
 90
       50
176
     1
290
     0
176
     1
 90
       50
176
     1
 62
   256
176
     0
 40
1.0
176
     0
 90
        2
176
     1
  1
strokes_ogs.tif
176
     1
290
     0
176
     1
 40
1.0
176
     1
 40
1.0
176
     1
1001
ACAD
1000
AcRTDxfName
1000
VISUALSTYLE
1000
AcRTDxfName
1000
VISUALSTYLE
1000
AcRTDxfName
1000
VISUALSTYLE
1000
AcRTDxfName
1000
VISUALSTYLE
1000
AcRTDxfName
1000
VISUALSTYLE
1000
AcRTDxfName
1000
VISUALSTYLE
1000
AcRTDxfName
1000
VISUALSTYLE
1000
AcRTDxfName
1000
VISUALSTYLE
1000
AcDbSavedByObjectVersion
1070
     0
  0
VISUALSTYLE
  5
11DEB
102
{ACAD_REACTORS
330
104CB
102
}
330
104CB
100
AcDbVisualStyle
  2
Hidden
 70
     6
177
     3
291
     0
 70
    58
 90
        1
176
     1
 90
        2
176
     1
 90
        2
176
     1
 90
        0
176
     1
 40
0.6
176
     1
 40
30.0
176
     1
 62
     7
420
 16777215
176
     1
 90
        2
176
     1
 90
        2
176
     1
 62
     7
176
     1
 62
   257
176
     1
 90
        2
176
     1
 90
        1
176
     1
 40
40.0
176
     1
 90
        0
176
     1
 62
   257
176
     1
 40
1.0
176
     1
 90
        1
176
     1
 90
        6
176
     1
 90
        2
176
     1
 62
     7
176
     1
 90
        3
176
     1
 90
        0
176
     1
 90
        0
176
     1
290
     0
176
     1
 90
        1
176
     1
 40
0.0
176
     1
 90
        0
176
     1
290
     0
176
     1
290
     1
176
     1
290
     1
176
     1
290
     0
176
     1
290
     0
176
     1
290
     0
176
     1
290
     0
176
     1
290
     0
176
     1
290
     0
176
     1
 90
       50
176
     1
 40
0.0
176
     1
 40
1.0
176
     1
 90
        0
176
     1
 62
    18
420
        0
176
     1
 90
       50
176
     1
 90
        3
176
     1
 62
     5
420
      255
176
     1
290
     0
176
     1
 90
       50
176
     1
 90
       50
176
     1
 90
       50
176
     1
290
     0
176
     1
 90
       50
176
     1
 62
   256
176
     0
 40
1.0
176
     0
 90
        2
176
     1
  1
strokes_ogs.tif
176
     1
290
     0
176
     1
 40
1.0
176
     1
 40
1.0
176
     1
1001
ACAD
1000
AcDbSavedByObjectVersion
1070
     0
  0
VISUALSTYLE
  5
11DF1
102
{ACAD_REACTORS
330
104CB
102
}
330
104CB
100
AcDbVisualStyle
  2
JitterOff
 70
    20
177
     3
291
     1
 70
    58
 90
        2
176
     0
 90
        2
176
     0
 90
        0
176
     0
 90
        0
176
     0
 40
0.6
176
     0
 40
30.0
176
     0
 62
     7
420
 16777215
176
     0
 90
        1
176
     0
 90
        4
176
     0
 62
     7
176
     0
 62
   257
176
     0
 90
        1
176
     0
 90
        1
176
     0
 40
1.0
176
     0
 90
       10
176
     2
 62
     7
176
     0
 40
1.0
176
     0
 90
        1
176
     0
 90
        6
176
     0
 90
        2
176
     0
 62
     7
176
     0
 90
        5
176
     0
 90
        0
176
     0
 90
        0
176
     0
290
     0
176
     0
 90
        1
176
     0
 40
0.0
176
     0
 90
        0
176
     0
290
     0
176
     0
290
     1
176
     0
290
     1
176
     0
290
     0
176
     0
290
     0
176
     0
290
     0
176
     0
290
     0
176
     0
290
     0
176
     0
290
     0
176
     0
 90
       50
176
     0
 40
0.0
176
     0
 40
1.0
176
     0
 90
        0
176
     0
 62
    18
420
        0
176
     0
 90
       50
176
     0
 90
        3
176
     0
 62
     5
420
      255
176
     0
290
     0
176
     0
 90
       50
176
     0
 90
       50
176
     0
 90
       50
176
     0
290
     0
176
     0
 90
       50
176
     0
 62
   256
176
     0
 40
1.0
176
     0
 90
        2
176
     0
  1
strokes_ogs.tif
176
     0
290
     0
176
     0
 40
1.0
176
     0
 40
1.0
176
     0
1001
ACAD
1000
AcDbSavedByObjectVersion
1070
     0
  0
VISUALSTYLE
  5
104D9
102
{ACAD_REACTORS
330
104CB
102
}
330
104CB
100
AcDbVisualStyle
  2
Linepattern
 70
    14
177
     3
291
     1
 70
    58
 90
        2
176
     1
 90
        2
176
     1
 90
        0
176
     1
 90
        0
176
     1
 40
0.6
176
     1
 40
30.0
176
     1
 62
     7
176
     1
 90
        1
176
     1
 90
        4
176
     1
 62
     7
176
     1
 62
   257
176
     1
 90
        7
176
     1
 90
        7
176
     1
 40
1.0
176
     1
 90
        8
176
     1
 62
     7
176
     1
 40
1.0
176
     1
 90
        1
176
     1
 90
        6
176
     1
 90
        2
176
     1
 62
     7
176
     1
 90
        5
176
     1
 90
        0
176
     1
 90
        0
176
     1
290
     0
176
     1
 90
        1
176
     1
 40
0.0
176
     1
 90
        0
176
     1
290
     0
176
     1
290
     1
176
     1
290
     1
176
     1
290
     0
176
     1
290
     0
176
     1
290
     0
176
     1
290
     0
176
     1
290
     0
176
     1
290
     0
176
     1
 90
       50
176
     1
 40
0.0
176
     1
 40
1.0
176
     1
 90
        0
176
     1
 62
    18
420
        0
176
     1
 90
       50
176
     1
 90
        3
176
     1
 62
     5
420
      255
176
     1
290
     0
176
     1
 90
       50
176
     1
 90
       50
176
     1
 90
       50
176
     1
290
     0
176
     1
 90
       50
176
     1
 62
   256
176
     0
 40
1.0
176
     0
 90
        2
176
     1
  1
strokes_ogs.tif
176
     1
290
     0
176
     1
 40
1.0
176
     1
 40
1.0
176
     1
1001
ACAD
1000
AcRTDxfName
1000
VISUALSTYLE
1000
AcRTDxfName
1000
VISUALSTYLE
1000
AcRTDxfName
1000
VISUALSTYLE
1000
AcRTDxfName
1000
VISUALSTYLE
1000
AcRTDxfName
1000
VISUALSTYLE
1000
AcRTDxfName
1000
VISUALSTYLE
1000
AcRTDxfName
1000
VISUALSTYLE
1000
AcRTDxfName
1000
VISUALSTYLE
1000
AcDbSavedByObjectVersion
1070
     0
  0
VISUALSTYLE
  5
11DF2
102
{ACAD_REACTORS
330
104CB
102
}
330
104CB
100
AcDbVisualStyle
  2
OverhangOff
 70
    21
177
     3
291
     1
 70
    58
 90
        2
176
     0
 90
        2
176
     0
 90
        0
176
     0
 90
        0
176
     0
 40
0.6
176
     0
 40
30.0
176
     0
 62
     7
420
 16777215
176
     0
 90
        1
176
     0
 90
        4
176
     0
 62
     7
176
     0
 62
   257
176
     0
 90
        1
176
     0
 90
        1
176
     0
 40
1.0
176
     0
 90
        9
176
     2
 62
     7
176
     0
 40
1.0
176
     0
 90
        1
176
     0
 90
        6
176
     0
 90
        2
176
     0
 62
     7
176
     0
 90
        5
176
     0
 90
        0
176
     0
 90
        0
176
     0
290
     0
176
     0
 90
        1
176
     0
 40
0.0
176
     0
 90
        0
176
     0
290
     0
176
     0
290
     1
176
     0
290
     1
176
     0
290
     0
176
     0
290
     0
176
     0
290
     0
176
     0
290
     0
176
     0
290
     0
176
     0
290
     0
176
     0
 90
       50
176
     0
 40
0.0
176
     0
 40
1.0
176
     0
 90
        0
176
     0
 62
    18
420
        0
176
     0
 90
       50
176
     0
 90
        3
176
     0
 62
     5
420
      255
176
     0
290
     0
176
     0
 90
       50
176
     0
 90
       50
176
     0
 90
       50
176
     0
290
     0
176
     0
 90
       50
176
     0
 62
   256
176
     0
 40
1.0
176
     0
 90
        2
176
     0
  1
strokes_ogs.tif
176
     0
290
     0
176
     0
 40
1.0
176
     0
 40
1.0
176
     0
1001
ACAD
1000
AcDbSavedByObjectVersion
1070
     0
  0
VISUALSTYLE
  5
104D5
102
{ACAD_REACTORS
330
104CB
102
}
330
104CB
100
AcDbVisualStyle
  2
Realistic
 70
     8
177
     3
291
     0
 70
    58
 90
        2
176
     1
 90
        2
176
     1
 90
        0
176
     1
 90
        0
176
     1
 40
0.6
176
     1
 40
30.0
176
     1
 62
     7
176
     1
 90
        1
176
     1
 90
        0
176
     1
 62
     7
176
     1
 62
   257
176
     1
 90
        1
176
     1
 90
        1
176
     1
 40
1.0
176
     1
 90
        8
176
     1
 62
     8
176
     1
 40
1.0
176
     1
 90
        1
176
     1
 90
        6
176
     1
 90
        2
176
     1
 62
     7
176
     1
 90
        5
176
     1
 90
        0
176
     1
 90
        0
176
     1
290
     0
176
     1
 90
       13
176
     1
 40
0.0
176
     1
 90
        0
176
     1
290
     0
176
     1
290
     1
176
     1
290
     1
176
     1
290
     0
176
     1
290
     0
176
     1
290
     0
176
     1
290
     0
176
     1
290
     0
176
     1
290
     0
176
     1
 90
       50
176
     1
 40
0.0
176
     1
 40
1.0
176
     1
 90
        0
176
     1
 62
    18
420
        0
176
     1
 90
       50
176
     1
 90
        3
176
     1
 62
     5
420
      255
176
     1
290
     0
176
     1
 90
       50
176
     1
 90
       50
176
     1
 90
       50
176
     1
290
     0
176
     1
 90
       50
176
     1
 62
   256
176
     0
 40
1.0
176
     0
 90
        2
176
     1
  1
strokes_ogs.tif
176
     1
290
     0
176
     1
 40
1.0
176
     1
 40
1.0
176
     1
1001
ACAD
1000
AcRTDxfName
1000
VISUALSTYLE
1000
AcRTDxfName
1000
VISUALSTYLE
1000
AcRTDxfName
1000
VISUALSTYLE
1000
AcRTDxfName
1000
VISUALSTYLE
1000
AcRTDxfName
1000
VISUALSTYLE
1000
AcRTDxfName
1000
VISUALSTYLE
1000
AcRTDxfName
1000
VISUALSTYLE
1000
AcRTDxfName
1000
VISUALSTYLE
1000
AcDbSavedByObjectVersion
1070
     0
  0
VISUALSTYLE
  5
11DF0
102
{ACAD_REACTORS
330
104CB
102
}
330
104CB
100
AcDbVisualStyle
  2
Shaded
 70
    27
177
     3
291
     0
 70
    58
 90
        2
176
     1
 90
        2
176
     1
 90
        1
176
     1
 90
        2
176
     1
 40
0.6
176
     1
 40
30.0
176
     1
 62
     7
420
 16777215
176
     1
 90
        0
176
     1
 90
        4
176
     1
 62
     7
176
     1
 62
   257
176
     1
 90
        1
176
     1
 90
        1
176
     1
 40
1.0
176
     1
 90
        8
176
     1
 62
   257
176
     1
 40
1.0
176
     1
 90
        1
176
     1
 90
        6
176
     1
 90
        2
176
     1
 62
     8
420
  7895160
176
     1
 90
        3
176
     1
 90
        0
176
     1
 90
        0
176
     1
290
     0
176
     1
 90
        5
176
     1
 40
0.0
176
     1
 90
        0
176
     1
290
     0
176
     1
290
     1
176
     1
290
     1
176
     1
290
     0
176
     1
290
     0
176
     1
290
     0
176
     1
290
     0
176
     1
290
     0
176
     1
290
     0
176
     1
 90
       50
176
     1
 40
0.0
176
     1
 40
1.0
176
     1
 90
        0
176
     1
 62
    18
420
        0
176
     1
 90
       50
176
     1
 90
        3
176
     1
 62
     5
420
      255
176
     1
290
     0
176
     1
 90
       50
176
     1
 90
       50
176
     1
 90
       50
176
     1
290
     0
176
     1
 90
       50
176
     1
 62
   256
176
     0
 40
1.0
176
     0
 90
        2
176
     1
  1
strokes_ogs.tif
176
     1
290
     0
176
     1
 40
1.0
176
     1
 40
1.0
176
     1
1001
ACAD
1000
AcDbSavedByObjectVersion
1070
     0
  0
VISUALSTYLE
  5
11DEF
102
{ACAD_REACTORS
330
104CB
102
}
330
104CB
100
AcDbVisualStyle
  2
Shaded with edges
 70
    26
177
     3
291
     0
 70
    58
 90
        2
176
     1
 90
        2
176
     1
 90
        1
176
     1
 90
        2
176
     1
 40
0.6
176
     1
 40
30.0
176
     1
 62
     7
420
 16777215
176
     1
 90
        1
176
     1
 90
        2
176
     1
 62
     7
176
     1
 62
   257
176
     1
 90
        2
176
     1
 90
        1
176
     1
 40
1.0
176
     1
 90
        8
176
     1
 62
   257
176
     1
 40
1.0
176
     1
 90
        1
176
     1
 90
        6
176
     1
 90
        2
176
     1
 62
     7
176
     1
 90
        3
176
     1
 90
        0
176
     1
 90
        0
176
     1
290
     0
176
     1
 90
        5
176
     1
 40
0.0
176
     1
 90
        0
176
     1
290
     0
176
     1
290
     1
176
     1
290
     1
176
     1
290
     0
176
     1
290
     0
176
     1
290
     0
176
     1
290
     0
176
     1
290
     0
176
     1
290
     0
176
     1
 90
       50
176
     1
 40
0.0
176
     1
 40
1.0
176
     1
 90
        0
176
     1
 62
    18
420
        0
176
     1
 90
       50
176
     1
 90
        3
176
     1
 62
     5
420
      255
176
     1
290
     0
176
     1
 90
       50
176
     1
 90
       50
176
     1
 90
       50
176
     1
290
     0
176
     1
 90
       50
176
     1
 62
   256
176
     0
 40
1.0
176
     0
 90
        2
176
     1
  1
strokes_ogs.tif
176
     1
290
     0
176
     1
 40
1.0
176
     1
 40
1.0
176
     1
1001
ACAD
1000
AcDbSavedByObjectVersion
1070
     0
  0
VISUALSTYLE
  5
11DEC
102
{ACAD_REACTORS
330
104CB
102
}
330
104CB
100
AcDbVisualStyle
  2
Shades of Gray
 70
    23
177
     3
291
     0
 70
    58
 90
        2
176
     1
 90
        2
176
     1
 90
        3
176
     1
 90
        0
176
     1
 40
0.6
176
     1
 40
30.0
176
     1
 62
     7
420
 16777215
176
     1
 90
        2
176
     1
 90
        2
176
     1
 62
     7
176
     1
 62
     7
176
     1
 90
        1
176
     1
 90
        1
176
     1
 40
40.0
176
     1
 90
        8
176
     1
 62
     7
176
     1
 40
1.0
176
     1
 90
        1
176
     1
 90
        6
176
     1
 90
        2
176
     1
 62
     7
176
     1
 90
        3
176
     1
 90
        0
176
     1
 90
        0
176
     1
290
     0
176
     1
 90
        1
176
     1
 40
0.0
176
     1
 90
        0
176
     1
290
     0
176
     1
290
     1
176
     1
290
     1
176
     1
290
     0
176
     1
290
     0
176
     1
290
     0
176
     1
290
     0
176
     1
290
     0
176
     1
290
     0
176
     1
 90
       50
176
     1
 40
0.0
176
     1
 40
1.0
176
     1
 90
        0
176
     1
 62
    18
420
        0
176
     1
 90
       50
176
     1
 90
        3
176
     1
 62
     5
420
      255
176
     1
290
     0
176
     1
 90
       50
176
     1
 90
       50
176
     1
 90
       50
176
     1
290
     0
176
     1
 90
       50
176
     1
 62
   256
176
     0
 40
1.0
176
     0
 90
        2
176
     1
  1
strokes_ogs.tif
176
     1
290
     0
176
     1
 40
1.0
176
     1
 40
1.0
176
     1
1001
ACAD
1000
AcDbSavedByObjectVersion
1070
     0
  0
VISUALSTYLE
  5
11DED
102
{ACAD_REACTORS
330
104CB
102
}
330
104CB
100
AcDbVisualStyle
  2
Sketchy
 70
    24
177
     3
291
     0
 70
    58
 90
        1
176
     1
 90
        2
176
     1
 90
        2
176
     1
 90
        0
176
     1
 40
0.6
176
     1
 40
30.0
176
     1
 62
     7
420
 16777215
176
     1
 90
        2
176
     1
 90
        2
176
     1
 62
     7
176
     1
 62
     7
176
     1
 90
        1
176
     1
 90
        1
176
     1
 40
40.0
176
     1
 90
       11
176
     1
 62
     7
176
     1
 40
1.0
176
     1
 90
        1
176
     1
 90
        6
176
     1
 90
        2
176
     1
 62
     7
176
     1
 90
        6
176
     1
 90
        0
176
     1
 90
        0
176
     1
290
     0
176
     1
 90
        1
176
     1
 40
0.0
176
     1
 90
        0
176
     1
290
     0
176
     1
290
     1
176
     1
290
     1
176
     1
290
     0
176
     1
290
     0
176
     1
290
     0
176
     1
290
     0
176
     1
290
     0
176
     1
290
     0
176
     1
 90
       50
176
     1
 40
0.0
176
     1
 40
1.0
176
     1
 90
        0
176
     1
 62
    18
420
        0
176
     1
 90
       50
176
     1
 90
        3
176
     1
 62
     5
420
      255
176
     1
290
     0
176
     1
 90
       50
176
     1
 90
       50
176
     1
 90
       50
176
     1
290
     0
176
     1
 90
       50
176
     1
 62
   256
176
     0
 40
1.0
176
     0
 90
        2
176
     1
  1
strokes_ogs.tif
176
     1
290
     0
176
     1
 40
1.0
176
     1
 40
1.0
176
     1
1001
ACAD
1000
AcDbSavedByObjectVersion
1070
     0
  0
VISUALSTYLE
  5
104D8
102
{ACAD_REACTORS
330
104CB
102
}
330
104CB
100
AcDbVisualStyle
  2
Thicken
 70
    13
177
     3
291
     1
 70
    58
 90
        2
176
     1
 90
        2
176
     1
 90
        0
176
     1
 90
        0
176
     1
 40
0.6
176
     1
 40
30.0
176
     1
 62
     7
176
     1
 90
        1
176
     1
 90
        4
176
     1
 62
     7
176
     1
 62
   257
176
     1
 90
        1
176
     1
 90
        1
176
     1
 40
1.0
176
     1
 90
       12
176
     1
 62
     7
176
     1
 40
1.0
176
     1
 90
        1
176
     1
 90
        6
176
     1
 90
        2
176
     1
 62
     7
176
     1
 90
        5
176
     1
 90
        0
176
     1
 90
        0
176
     1
290
     0
176
     1
 90
        1
176
     1
 40
0.0
176
     1
 90
        0
176
     1
290
     0
176
     1
290
     1
176
     1
290
     1
176
     1
290
     0
176
     1
290
     0
176
     1
290
     0
176
     1
290
     0
176
     1
290
     0
176
     1
290
     0
176
     1
 90
       50
176
     1
 40
0.0
176
     1
 40
1.0
176
     1
 90
        0
176
     1
 62
    18
420
        0
176
     1
 90
       50
176
     1
 90
        3
176
     1
 62
     5
420
      255
176
     1
290
     0
176
     1
 90
       50
176
     1
 90
       50
176
     1
 90
       50
176
     1
290
     0
176
     1
 90
       50
176
     1
 62
   256
176
     0
 40
1.0
176
     0
 90
        2
176
     1
  1
strokes_ogs.tif
176
     1
290
     0
176
     1
 40
1.0
176
     1
 40
1.0
176
     1
1001
ACAD
1000
AcRTDxfName
1000
VISUALSTYLE
1000
AcRTDxfName
1000
VISUALSTYLE
1000
AcRTDxfName
1000
VISUALSTYLE
1000
AcRTDxfName
1000
VISUALSTYLE
1000
AcRTDxfName
1000
VISUALSTYLE
1000
AcRTDxfName
1000
VISUALSTYLE
1000
AcRTDxfName
1000
VISUALSTYLE
1000
AcRTDxfName
1000
VISUALSTYLE
1000
AcDbSavedByObjectVersion
1070
     0
  0
VISUALSTYLE
  5
11DEA
102
{ACAD_REACTORS
330
104CB
102
}
330
104CB
100
AcDbVisualStyle
  2
Wireframe
 70
     5
177
     3
291
     0
 70
    58
 90
        0
176
     1
 90
        2
176
     1
 90
        0
176
     1
 90
        0
176
     1
 40
0.6
176
     1
 40
30.0
176
     1
 62
     7
420
 16777215
176
     1
 90
        1
176
     1
 90
        4
176
     1
 62
     7
176
     1
 62
   257
176
     1
 90
        1
176
     1
 90
        1
176
     1
 40
1.0
176
     1
 90
        0
176
     1
 62
   257
176
     1
 40
1.0
176
     1
 90
        1
176
     1
 90
        6
176
     1
 90
        2
176
     1
 62
     7
176
     1
 90
        3
176
     1
 90
        0
176
     1
 90
        0
176
     1
290
     0
176
     1
 90
        1
176
     1
 40
0.0
176
     1
 90
        0
176
     1
290
     0
176
     1
290
     1
176
     1
290
     1
176
     1
290
     0
176
     1
290
     0
176
     1
290
     0
176
     1
290
     0
176
     1
290
     0
176
     1
290
     0
176
     1
 90
       50
176
     1
 40
0.0
176
     1
 40
1.0
176
     1
 90
        0
176
     1
 62
    18
420
        0
176
     1
 90
       50
176
     1
 90
        3
176
     1
 62
     5
420
      255
176
     1
290
     0
176
     1
 90
       50
176
     1
 90
       50
176
     1
 90
       50
176
     1
290
     0
176
     1
 90
       50
176
     1
 62
   256
176
     0
 40
1.0
176
     0
 90
        2
176
     1
  1
strokes_ogs.tif
176
     1
290
     0
176
     1
 40
1.0
176
     1
 40
1.0
176
     1
1001
ACAD
1000
AcDbSavedByObjectVersion
1070
     0
  0
VISUALSTYLE
  5
11DEE
102
{ACAD_REACTORS
330
104CB
102
}
330
104CB
100
AcDbVisualStyle
  2
X-Ray
 70
    25
177
     3
291
     0
 70
    58
 90
        2
176
     1
 90
        2
176
     1
 90
        1
176
     1
 90
        1
176
     1
 40
0.5
176
     1
 40
30.0
176
     1
 62
     7
420
 16777215
176
     1
 90
        1
176
     1
 90
        0
176
     1
 62
     7
176
     1
 62
   257
176
     1
 90
        1
176
     1
 90
        1
176
     1
 40
1.0
176
     1
 90
        8
176
     1
 62
     7
176
     1
 40
1.0
176
     1
 90
        1
176
     1
 90
        6
176
     1
 90
        2
176
     1
 62
     7
176
     1
 90
        3
176
     1
 90
        0
176
     1
 90
        0
176
     1
290
     0
176
     1
 90
       13
176
     1
 40
0.0
176
     1
 90
        0
176
     1
290
     0
176
     1
290
     1
176
     1
290
     1
176
     1
290
     0
176
     1
290
     0
176
     1
290
     0
176
     1
290
     0
176
     1
290
     0
176
     1
290
     0
176
     1
 90
       50
176
     1
 40
0.0
176
     1
 40
1.0
176
     1
 90
        0
176
     1
 62
    18
420
        0
176
     1
 90
       50
176
     1
 90
        3
176
     1
 62
     5
420
      255
176
     1
290
     0
176
     1
 90
       50
176
     1
 90
       50
176
     1
 90
       50
176
     1
290
     0
176
     1
 90
       50
176
     1
 62
   256
176
     0
 40
1.0
176
     0
 90
        2
176
     1
  1
strokes_ogs.tif
176
     1
290
     0
176
     1
 40
1.0
176
     1
 40
1.0
176
     1
1001
ACAD
1000
AcDbSavedByObjectVersion
1070
     0
  0
DICTIONARYVAR
  5
106DD
102
{ACAD_REACTORS
330
5E
102
}
330
5E
100
DictionaryVariables
280
     0
  1
1:1
  0
DICTIONARYVAR
  5
106DC
102
{ACAD_REACTORS
330
5E
102
}
330
5E
100
DictionaryVariables
280
     0
  1
STANDARD
  0
DICTIONARYVAR
  5
84
102
{ACAD_REACTORS
330
5E
102
}
330
5E
100
DictionaryVariables
280
     0
  1
STANDARD
  0
DICTIONARYVAR
  5
11E06
102
{ACAD_REACTORS
330
5E
102
}
330
5E
100
DictionaryVariables
280
     0
  1
Metric50
  0
DICTIONARYVAR
  5
11E07
102
{ACAD_REACTORS
330
5E
102
}
330
5E
100
DictionaryVariables
280
     0
  1
Metric50
  0
DICTIONARYVAR
  5
5F
102
{ACAD_REACTORS
330
5E
102
}
330
5E
100
DictionaryVariables
280
     0
  1
2
  0
DICTIONARYVAR
  5
63
102
{ACAD_REACTORS
330
5E
102
}
330
5E
100
DictionaryVariables
280
     0
  1
1
  0
DICTIONARYVAR
  5
106DF
102
{ACAD_REACTORS
330
5E
102
}
330
5E
100
DictionaryVariables
280
     0
  1
0
  0
DICTIONARYVAR
  5
10E34
102
{ACAD_REACTORS
330
5E
102
}
330
5E
100
DictionaryVariables
280
     0
  1
1
  0
DICTIONARYVAR
  5
10E35
102
{ACAD_REACTORS
330
5E
102
}
330
5E
100
DictionaryVariables
280
     0
  1
15
  0
DICTIONARYVAR
  5
10E33
102
{ACAD_REACTORS
330
5E
102
}
330
5E
100
DictionaryVariables
280
     0
  1
0
  0
DICTIONARYVAR
  5
10E32
102
{ACAD_REACTORS
330
5E
102
}
330
5E
100
DictionaryVariables
280
     0
  1
0
  0
DICTIONARYVAR
  5
10C5C
102
{ACAD_REACTORS
330
5E
102
}
330
5E
100
DictionaryVariables
280
     0
  1

  0
DICTIONARYVAR
  5
106DE
102
{ACAD_REACTORS
330
5E
102
}
330
5E
100
DictionaryVariables
280
     0
  1
127
  0
DICTIONARY
  5
141D0
102
{ACAD_REACTORS
330
141CE
102
}
330
141CE
100
AcDbDictionary
281
     1
  0
DICTIONARY
  5
141CF
102
{ACAD_REACTORS
330
141CE
102
}
330
141CE
100
AcDbDictionary
281
     1
  3
2504846322064
350
141C9
  3
2504846322080
350
141CA
  3
2504846322096
350
141CB
  3
2504846322112
350
141CC
  3
2504846322128
350
141CD
  0
DICTIONARY
  5
141D3
330
11DF7
100
AcDbDictionary
280
     1
281
     1
  3
ACAD_XREC_ROUNDTRIP
360
141D4
  0
DICTIONARY
  5
79B
330
78E
100
AcDbDictionary
280
     1
281
     1
  0
DICTIONARY
  5
104BC
330
104BB
100
AcDbDictionary
280
     1
281
     1
  3
BUMPTILE
360
104BE
  3
DIFFUSETILE
360
104BD
  3
OPACITYTILE
360
104C1
  3
REFLECTIONTILE
360
104C0
  3
REFRACTIONTILE
360
104C2
  3
SPECULARTILE
360
104BF
  0
DICTIONARY
  5
104B4
330
104B3
100
AcDbDictionary
280
     1
281
     1
  3
BUMPTILE
360
104B6
  3
DIFFUSETILE
360
104B5
  3
OPACITYTILE
360
104B9
  3
REFLECTIONTILE
360
104B8
  3
REFRACTIONTILE
360
104BA
  3
SPECULARTILE
360
104B7
  0
DICTIONARY
  5
104C4
330
104C3
100
AcDbDictionary
280
     1
281
     1
  3
BUMPTILE
360
104C6
  3
DIFFUSETILE
360
104C5
  3
OPACITYTILE
360
104C9
  3
REFLECTIONTILE
360
104C8
  3
REFRACTIONTILE
360
104CA
  3
SPECULARTILE
360
104C7
  0
DICTIONARY
  5
141D1
330
11DF5
100
AcDbDictionary
280
     1
281
     1
  3
ACAD_XREC_ROUNDTRIP
360
141D2
  0
DICTIONARY
  5
106C9
330
7F
100
AcDbDictionary
280
     1
281
     1
  3
ACAD_ROUNDTRIP_2008_TABLESTYLE_CELLSTYLEMAP
360
141C7
  0
XRECORD
  5
141C9
102
{ACAD_REACTORS
330
141CF
102
}
330
141CF
100
AcDbXrecord
280
     1
  1
AcDb_Thumbnail_Schema
102
{ATTRRECORD
341
141CA
  2
AcDbDs::TreatedAsObjectData
280
     1
291
     1
102
ATTRRECORD}
102
{ATTRRECORD
341
141CB
  2
AcDbDs::Legacy
280
     1
291
     1
102
ATTRRECORD}
  2
AcDbDs::ID
280
    10
 91
        8
102
{ATTRRECORD
341
141CC
  2
AcDs:Indexable
280
     1
291
     1
102
ATTRRECORD}
102
{ATTRRECORD
341
141CD
  2
AcDbDs::HandleAttribute
280
     7
282
     1
102
ATTRRECORD}
  2
Thumbnail_Data
280
    15
 91
        0
  0
XRECORD
  5
141CA
102
{ACAD_REACTORS
330
141CF
102
}
330
141CF
100
AcDbXrecord
280
     1
  1
AcDbDs::TreatedAsObjectDataSchema
  2
AcDbDs::TreatedAsObjectData
280
     1
 91
        0
  0
XRECORD
  5
141CB
102
{ACAD_REACTORS
330
141CF
102
}
330
141CF
100
AcDbXrecord
280
     1
  1
AcDbDs::LegacySchema
  2
AcDbDs::Legacy
280
     1
 91
        0
  0
XRECORD
  5
141CC
102
{ACAD_REACTORS
330
141CF
102
}
330
141CF
100
AcDbXrecord
280
     1
  1
AcDbDs::IndexedPropertySchema
  2
AcDs:Indexable
280
     1
 91
        0
  0
XRECORD
  5
141CD
102
{ACAD_REACTORS
330
141CF
102
}
330
141CF
100
AcDbXrecord
280
     1
  1
AcDbDs::HandleAttributeSchema
  2
AcDbDs::HandleAttribute
280
     7
 91
        1
284
     1
  0
XRECORD
  5
141D4
102
{ACAD_REACTORS
330
141D3
102
}
330
141D3
100
AcDbXrecord
280
     1
102
DISPLAYNAME
  1
Metric50
102
FLAGS
 90
        0
  0
XRECORD
  5
104BE
102
{ACAD_REACTORS
330
104BC
102
}
330
104BC
100
AcDbXrecord
280
     1
270
     1
271
     1
  0
XRECORD
  5
104BD
102
{ACAD_REACTORS
330
104BC
102
}
330
104BC
100
AcDbXrecord
280
     1
270
     1
271
     1
  0
XRECORD
  5
104C1
102
{ACAD_REACTORS
330
104BC
102
}
330
104BC
100
AcDbXrecord
280
     1
270
     1
271
     1
  0
XRECORD
  5
104C0
102
{ACAD_REACTORS
330
104BC
102
}
330
104BC
100
AcDbXrecord
280
     1
270
     1
271
     1
  0
XRECORD
  5
104C2
102
{ACAD_REACTORS
330
104BC
102
}
330
104BC
100
AcDbXrecord
280
     1
270
     1
271
     1
  0
XRECORD
  5
104BF
102
{ACAD_REACTORS
330
104BC
102
}
330
104BC
100
AcDbXrecord
280
     1
270
     1
271
     1
  0
XRECORD
  5
104B6
102
{ACAD_REACTORS
330
104B4
102
}
330
104B4
100
AcDbXrecord
280
     1
270
     1
271
     1
  0
XRECORD
  5
104B5
102
{ACAD_REACTORS
330
104B4
102
}
330
104B4
100
AcDbXrecord
280
     1
270
     1
271
     1
  0
XRECORD
  5
104B9
102
{ACAD_REACTORS
330
104B4
102
}
330
104B4
100
AcDbXrecord
280
     1
270
     1
271
     1
  0
XRECORD
  5
104B8
102
{ACAD_REACTORS
330
104B4
102
}
330
104B4
100
AcDbXrecord
280
     1
270
     1
271
     1
  0
XRECORD
  5
104BA
102
{ACAD_REACTORS
330
104B4
102
}
330
104B4
100
AcDbXrecord
280
     1
270
     1
271
     1
  0
XRECORD
  5
104B7
102
{ACAD_REACTORS
330
104B4
102
}
330
104B4
100
AcDbXrecord
280
     1
270
     1
271
     1
  0
XRECORD
  5
104C6
102
{ACAD_REACTORS
330
104C4
102
}
330
104C4
100
AcDbXrecord
280
     1
270
     1
271
     1
  0
XRECORD
  5
104C5
102
{ACAD_REACTORS
330
104C4
102
}
330
104C4
100
AcDbXrecord
280
     1
270
     1
271
     1
  0
XRECORD
  5
104C9
102
{ACAD_REACTORS
330
104C4
102
}
330
104C4
100
AcDbXrecord
280
     1
270
     1
271
     1
  0
XRECORD
  5
104C8
102
{ACAD_REACTORS
330
104C4
102
}
330
104C4
100
AcDbXrecord
280
     1
270
     1
271
     1
  0
XRECORD
  5
104CA
102
{ACAD_REACTORS
330
104C4
102
}
330
104C4
100
AcDbXrecord
280
     1
270
     1
271
     1
  0
XRECORD
  5
104C7
102
{ACAD_REACTORS
330
104C4
102
}
330
104C4
100
AcDbXrecord
280
     1
270
     1
271
     1
  0
XRECORD
  5
141D2
102
{ACAD_REACTORS
330
141D1
102
}
330
141D1
100
AcDbXrecord
280
     1
102
DISPLAYNAME
  1
Metric50
102
FLAGS
 90
        0
  0
CELLSTYLEMAP
  5
141C7
102
{ACAD_REACTORS
330
106C9
102
}
330
106C9
100
AcDbCellStyleMap
 90
        3
300
CELLSTYLE
  1
TABLEFORMAT_BEGIN
 90
        5
170
     1
 91
        0
 92
    32768
 62
   257
 93
        1
300
CONTENTFORMAT
  1
CONTENTFORMAT_BEGIN
 90
        0
 91
        0
 92
        4
 93
        0
300

 40
0.0
140
1.0
 94
        5
 62
     0
340
11
144
6.0
309
CONTENTFORMAT_END
171
     1
301
MARGIN
  1
CELLMARGIN_BEGIN
 40
1.5
 40
1.5
 40
1.5
 40
1.5
 40
0.18
 40
0.18
309
CELLMARGIN_END
 94
        6
 95
        1
302
GRIDFORMAT
  1
GRIDFORMAT_BEGIN
 90
        0
 91
        1
 62
     0
 92
       -2
340
0
 93
        0
 40
0.045
309
GRIDFORMAT_END
 95
        2
302
GRIDFORMAT
  1
GRIDFORMAT_BEGIN
 90
        0
 91
        1
 62
     0
 92
       -2
340
0
 93
        0
 40
0.045
309
GRIDFORMAT_END
 95
        4
302
GRIDFORMAT
  1
GRIDFORMAT_BEGIN
 90
        0
 91
        1
 62
     0
 92
       -2
340
0
 93
        0
 40
0.045
309
GRIDFORMAT_END
 95
        8
302
GRIDFORMAT
  1
GRIDFORMAT_BEGIN
 90
        0
 91
        1
 62
     0
 92
       -2
340
0
 93
        0
 40
0.045
309
GRIDFORMAT_END
 95
       16
302
GRIDFORMAT
  1
GRIDFORMAT_BEGIN
 90
        0
 91
        1
 62
     0
 92
       -2
340
0
 93
        0
 40
0.045
309
GRIDFORMAT_END
 95
       32
302
GRIDFORMAT
  1
GRIDFORMAT_BEGIN
 90
        0
 91
        1
 62
     0
 92
       -2
340
0
 93
        0
 40
0.045
309
GRIDFORMAT_END
309
TABLEFORMAT_END
  1
CELLSTYLE_BEGIN
 90
        1
 91
        1
300
_TITLE
309
CELLSTYLE_END
300
CELLSTYLE
  1
TABLEFORMAT_BEGIN
 90
        5
170
     1
 91
        0
 92
        0
 62
   257
 93
        1
300
CONTENTFORMAT
  1
CONTENTFORMAT_BEGIN
 90
        0
 91
        0
 92
        4
 93
        0
300

 40
0.0
140
1.0
 94
        5
 62
     0
340
11
144
4.5
309
CONTENTFORMAT_END
171
     1
301
MARGIN
  1
CELLMARGIN_BEGIN
 40
1.5
 40
1.5
 40
1.5
 40
1.5
 40
0.18
 40
0.18
309
CELLMARGIN_END
 94
        6
 95
        1
302
GRIDFORMAT
  1
GRIDFORMAT_BEGIN
 90
        0
 91
        1
 62
     0
 92
       -2
340
0
 93
        0
 40
0.045
309
GRIDFORMAT_END
 95
        2
302
GRIDFORMAT
  1
GRIDFORMAT_BEGIN
 90
        0
 91
        1
 62
     0
 92
       -2
340
0
 93
        0
 40
0.045
309
GRIDFORMAT_END
 95
        4
302
GRIDFORMAT
  1
GRIDFORMAT_BEGIN
 90
        0
 91
        1
 62
     0
 92
       -2
340
0
 93
        0
 40
0.045
309
GRIDFORMAT_END
 95
        8
302
GRIDFORMAT
  1
GRIDFORMAT_BEGIN
 90
        0
 91
        1
 62
     0
 92
       -2
340
0
 93
        0
 40
0.045
309
GRIDFORMAT_END
 95
       16
302
GRIDFORMAT
  1
GRIDFORMAT_BEGIN
 90
        0
 91
        1
 62
     0
 92
       -2
340
0
 93
        0
 40
0.045
309
GRIDFORMAT_END
 95
       32
302
GRIDFORMAT
  1
GRIDFORMAT_BEGIN
 90
        0
 91
        1
 62
     0
 92
       -2
340
0
 93
        0
 40
0.045
309
GRIDFORMAT_END
309
TABLEFORMAT_END
  1
CELLSTYLE_BEGIN
 90
        2
 91
        1
300
_HEADER
309
CELLSTYLE_END
300
CELLSTYLE
  1
TABLEFORMAT_BEGIN
 90
        5
170
     1
 91
        0
 92
        0
 62
   257
 93
        1
300
CONTENTFORMAT
  1
CONTENTFORMAT_BEGIN
 90
        0
 91
        0
 92
        4
 93
        0
300

 40
0.0
140
1.0
 94
        2
 62
     0
340
11
144
4.5
309
CONTENTFORMAT_END
171
     1
301
MARGIN
  1
CELLMARGIN_BEGIN
 40
1.5
 40
1.5
 40
1.5
 40
1.5
 40
0.18
 40
0.18
309
CELLMARGIN_END
 94
        6
 95
        1
302
GRIDFORMAT
  1
GRIDFORMAT_BEGIN
 90
        0
 91
        1
 62
     0
 92
       -2
340
0
 93
        0
 40
0.045
309
GRIDFORMAT_END
 95
        2
302
GRIDFORMAT
  1
GRIDFORMAT_BEGIN
 90
        0
 91
        1
 62
     0
 92
       -2
340
0
 93
        0
 40
0.045
309
GRIDFORMAT_END
 95
        4
302
GRIDFORMAT
  1
GRIDFORMAT_BEGIN
 90
        0
 91
        1
 62
     0
 92
       -2
340
0
 93
        0
 40
0.045
309
GRIDFORMAT_END
 95
        8
302
GRIDFORMAT
  1
GRIDFORMAT_BEGIN
 90
        0
 91
        1
 62
     0
 92
       -2
340
0
 93
        0
 40
0.045
309
GRIDFORMAT_END
 95
       16
302
GRIDFORMAT
  1
GRIDFORMAT_BEGIN
 90
        0
 91
        1
 62
     0
 92
       -2
340
0
 93
        0
 40
0.045
309
GRIDFORMAT_END
 95
       32
302
GRIDFORMAT
  1
GRIDFORMAT_BEGIN
 90
        0
 91
        1
 62
     0
 92
       -2
340
0
 93
        0
 40
0.045
309
GRIDFORMAT_END
309
TABLEFORMAT_END
  1
CELLSTYLE_BEGIN
 90
        3
 91
        2
300
_DATA
309
CELLSTYLE_END
  0
ENDSEC
  0
SECTION
  2
ACDSDATA
 70
     2
 71
     8
  0
ACDSSCHEMA
 90
        0
  1
AcDb_Thumbnail_Schema
  2
AcDbDs::ID
280
    10
 91
        8
  2
Thumbnail_Data
280
    15
 91
        0
101
ACDSRECORD
 95
        0
 90
        1
  2
AcDbDs::TreatedAsObjectData
280
     1
291
     1
101
ACDSRECORD
 95
        0
 90
        2
  2
AcDbDs::Legacy
280
     1
291
     1
101
ACDSRECORD
  1
AcDbDs::ID
 90
        3
  2
AcDs:Indexable
280
     1
291
     1
101
ACDSRECORD
  1
AcDbDs::ID
 90
        4
  2
AcDbDs::HandleAttribute
280
     7
282
     1
  0
ACDSSCHEMA
 90
        1
  1
AcDbDs::TreatedAsObjectDataSchema
  2
AcDbDs::TreatedAsObjectData
280
     1
 91
        0
  0
ACDSSCHEMA
 90
        2
  1
AcDbDs::LegacySchema
  2
AcDbDs::Legacy
280
     1
 91
        0
  0
ACDSSCHEMA
 90
        3
  1
AcDbDs::IndexedPropertySchema
  2
AcDs:Indexable
280
     1
 91
        0
  0
ACDSSCHEMA
 90
        4
  1
AcDbDs::HandleAttributeSchema
  2
AcDbDs::HandleAttribute
280
     7
 91
        1
284
     1
  0
ACDSRECORD
 90
        0
  2
AcDbDs::ID
280
    10
320
78E
  2
Thumbnail_Data
280
    15
 94
     2945
310
89504E470D0A1A0A0000000D4948445200000100000000B408030000004C80028300000300504C54450D0D0DFFFFFF0D0D0D0000000000000000000000000000000000000000000000000000330000660000990000CC0000FF0033000033330033660033990033CC0033FF0066000066330066660066990066CC0066FF0099
310
000099330099660099990099CC0099FF00CC0000CC3300CC6600CC9900CCCC00CCFF00FF0000FF3300FF6600FF9900FFCC00FFFF3300003300333300663300993300CC3300FF3333003333333333663333993333CC3333FF3366003366333366663366993366CC3366FF3399003399333399663399993399CC3399FF33CC00
310
33CC3333CC6633CC9933CCCC33CCFF33FF0033FF3333FF6633FF9933FFCC33FFFF6600006600336600666600996600CC6600FF6633006633336633666633996633CC6633FF6666006666336666666666996666CC6666FF6699006699336699666699996699CC6699FF66CC0066CC3366CC6666CC9966CCCC66CCFF66FF0066
310
FF3366FF6666FF9966FFCC66FFFF9900009900339900669900999900CC9900FF9933009933339933669933999933CC9933FF9966009966339966669966999966CC9966FF9999009999339999669999999999CC9999FF99CC0099CC3399CC6699CC9999CCCC99CCFF99FF0099FF3399FF6699FF9999FFCC99FFFFCC0000CC00
310
33CC0066CC0099CC00CCCC00FFCC3300CC3333CC3366CC3399CC33CCCC33FFCC6600CC6633CC6666CC6699CC66CCCC66FFCC9900CC9933CC9966CC9999CC99CCCC99FFCCCC00CCCC33CCCC66CCCC99CCCCCCCCCCFFCCFF00CCFF33CCFF66CCFF99CCFFCCCCFFFFFF0000FF0033FF0066FF0099FF00CCFF00FFFF3300FF3333
310
FF3366FF3399FF33CCFF33FFFF6600FF6633FF6666FF6699FF66CCFF66FFFF9900FF9933FF9966FF9999FF99CCFF99FFFFCC00FFCC33FFCC66FFCC99FFCCCCFFCCFFFFFF00FFFF33FFFF66FFFF99FFFFCCFFFFFF0000000D0D0D1A1A1A2828283535354343435050505D5D5D6B6B6B787878868686939393A1A1A1AEAEAEBB
310
BBBBC9C9C9D6D6D6E4E4E4F1F1F1FFFFFF000000000000000000000000000000000000000000000000000000000000D3F30D92000008254944415478DAED9D5BBAA3200C80B321F6FFC64BB79105CC5900EF53142184AB8A0A15BE99536D6DAABF21841823FCFD7B73FBFB833F78739B005600EA9D8D0078E5D99F00268000
310
00BEA94501BCE8FC4F0013C00430014C00F700D0430EACFF7119695F06203202FF0880EB5D95DE015C7E8E26808100945476B57F6563F93B003066314E499846B0570D307BCBF61AA3B47212302FA17300C111EE07007909DD01608773A407E31E815DDA808C0DC3B366F4622B70164013137656C8197BD94403CEBA31785C
310
3CE73701BC12C0E346F05900E74CE404303C809363E404703F00D514C05927A90D00B92CD0BFEE7055118062BFE74B2B03900F01D886DECF47C925D180FE754D08C1DE287CCEA47DF818BFADC6531D6E0560CF715C03B438A9246F91777CC5F0A56D8715CC8FD5BA2CE08B30D5B9AE05905472FA417862F8AA32DB25A63F2A
310
D82B0740EA4573FCB23F0026E9A8D005CC7A1832C03280D57AAC00D45300BE2A9CDBEABBFF050D6004B9636FE5070096EE63002C8BFD69400B00590D800E34A035007EA4591B4000C89F0140063C221EE3A3800370FB2880482D5D721C5676904A00D07E40AC0B687968A5BA91C12E28FD55AF3D024052C747864D03C8FA01
310
7AC7E97AE8E7C82880AF9C008094F701707BD4AA0B1889C89C5FA601E477FBE9024D00A4E25A1B1E08BBC0B3001A1B417B3DC49E681864186CE408F90A4016C7768416235E06A054E40A9A492A1AD911D29F045381A0E9E10B435FC0B69223D4C364E8B9E9303C391D369B7D5429205274847201111711E100ECF0FF8C23E4
310
D4341F11DADF584428F5BB8F47848EB656B765A0DF650EEEF72F0080C100C004D01600BE1C00B2F8C104F01E004D320AA7119C778C340680179FE58E01903CD10629BE76427C71C6703B00082D939CDB4ABB4D031AEEF25D49E32D010CD6FBDB778109E0FC6C10EF3EFE760052DFA9C911526302F02333D8A09A890BF3E0C9
310
38CF4D00B61328A25F3197EE6A82A27A3B6AEA8934D13100ABC1422E2B3C2A9C885446BA800F80481312BA07B05C92417764911CA89A4A3E44A693A6F149297BD700F9EDB2425F015060FEFA166E4782042E12502E72A458FE0ED005F417854869C0EE14192367B99EA060041B00EB25CA54AAEC5E00468EB9E0350C80AFC1
310
12ED00389CDD0288244888B823B417802FAB77003A4748145A314728F7E53547A83F00B11CA1576A00BD3CDEC806AC4E54F700D830A89DD696C3A095360000EA029D7484609520E9DF57394238A023A47D75B9D8ACB823549523E4C9B47274F6D7087301E599BFA3B341610DABF4DCA121E201B1F16F6F3C40C442BF8B1F30
310
4644E864242827ACF798607EEB3D31418CCA1ABC92D4BE3B475F01E00A0913C00430010C03007F1B405535B9FC210E584D2E737C61DDB04835BD8284FE01BCBC9CDED86D02980026800960026805003BAD1F3E01DC04E07E2F66DA8009600298007A328241A62BC29B8C20924227AB8811868126005881178C2CFC3A806783
310
1ACF03886B44668B096002F835007E910FE40300EEA73818800F2D01F65D22EB781480EC0A804CBC6E005817F8F81D0203415C8ECB37B16558A47DB9702C2902D83237D85EE9D76D13C5017C3FE20094FD487239AC8266C0C656487A06C096B926FCF285205CA2834EF1F9B0BCAF4F22CF45413C0586D688DB369616A7BACE
310
4CD40190524893BFBEE6836D75CCECCAC74B7A52741DC9C6EE8BCAADB222B24B8AE40640D25CC92735C0D683DA5E48FE9B3E8BB92E408B2BDB45F2C6001A004A6CE77BCB8893140053F9A00B0802408207C0DA125E2B16B613EFAAA4F50B00B21A8024DFB51AC09283BE7CD609006000A01E007800C007002180ED459AE762
310
0F0E008F00708554979B089F048027016025000C0090C1415D175E2A0140B4A340B28CF162F47200C8C6A95458BF562CADB3AB088FFB016005007DDF53C60F40D459D3D29ABC3C005A5E9948EC00C0712308155D00BD2E80346DFE590D809B00B80EAEEC4E81F4BB04E2A0C3201C1D051880CC286082B2F1E9127A618B071C
310
2106A0CE11321E90598D0340644F9A6371D8F0CD68FDB13E01D478821640362CED9EF58EF147FE3600208A7301919C0C45006C5B98B940C564887681ED22C5A6F444F5718B4EE1ADD361E94D87B7C9AE72AB47A7C3F12EE02B067F1A30864FC5ADD5007E43B4F00322B92E401D21088B081F9D0EA7BB00D45FA8D91112630F
310
73502406AAB01411B2552FAF0889D907332C668E0463DD353BFFBE9C5D5DC0BC130645BD28785603C8F8647F5CFA6FB80A3AFB82A2FCCCEFBEEDA81A4018ABF601B09FF6C3E4650000610921597100A72F42EE05107B24766C8461D5D04300D00680E72323EC7EE6F35E00D187A22316EFF9A80090DB6B4C76FDF30F7D6E02
310
A0749708D08705FA9A94FE6EF1F9EB0500D014408E6FE969E1E83D2408BD4DD2F0A2AC2BAEACA595EDAA6B83D1FE1F0780347924B4155C3530D485AC1F00B8BFB0EB79003B6E7CA9E9AB3B3A7361325447A0C5D5E1D87D5198DFA4F9A4DEEABC6770EFE902A11D8B01D83F40B552BD92669E0470E4E6AFB282D6E8B0F9787B
310
015B8CD9ABC56C3F76CE0A79B9A60B44479138B3560010623626B2D5350092AE5963A54FF826EC178B8E1536B7010F01E8C306D4EEC9250080B963915F645B5D320A3CD410BD30AF9D0C8700E04701D469E00D7EC0D300785F849849F4C286DEC582DF03806900E1167D02A89B59A435A03C0CF60EA066837E86C16B3520EA
310
D822EC28F835E0304827CFE481B4FE2CC279801B1DF3CF5E1AC281019851DD9BDDB0F86B1810A35FB400861C066B8D20D100740AE05D22F8713FC0853F99E64364E5E0B5C181FC80FC562C1C9005F0A61603F0AE36014C000EC03B9B03F0DE36017C01FC7B73D3005EDEFE03963A5198B312D9370000000049454E44AE4260
310
8244AE42608244AE426082910000000049454E44AE426082
  0
ACDSRECORD
 90
        0
  2
AcDbDs::ID
280
    10
320
22
  2
Thumbnail_Data
280
    15
 94
     2289
310
89504E470D0A1A0A0000000D49484452000001000000008108030000001837949D00000300504C5445000000FFFFFF0000000000000000000000000000000000000000000000000000000000330000660000990000CC0000FF0033000033330033660033990033CC0033FF0066000066330066660066990066CC0066FF0099
310
000099330099660099990099CC0099FF00CC0000CC3300CC6600CC9900CCCC00CCFF00FF0000FF3300FF6600FF9900FFCC00FFFF3300003300333300663300993300CC3300FF3333003333333333663333993333CC3333FF3366003366333366663366993366CC3366FF3399003399333399663399993399CC3399FF33CC00
310
33CC3333CC6633CC9933CCCC33CCFF33FF0033FF3333FF6633FF9933FFCC33FFFF6600006600336600666600996600CC6600FF6633006633336633666633996633CC6633FF6666006666336666666666996666CC6666FF6699006699336699666699996699CC6699FF66CC0066CC3366CC6666CC9966CCCC66CCFF66FF0066
310
FF3366FF6666FF9966FFCC66FFFF9900009900339900669900999900CC9900FF9933009933339933669933999933CC9933FF9966009966339966669966999966CC9966FF9999009999339999669999999999CC9999FF99CC0099CC3399CC6699CC9999CCCC99CCFF99FF0099FF3399FF6699FF9999FFCC99FFFFCC0000CC00
310
33CC0066CC0099CC00CCCC00FFCC3300CC3333CC3366CC3399CC33CCCC33FFCC6600CC6633CC6666CC6699CC66CCCC66FFCC9900CC9933CC9966CC9999CC99CCCC99FFCCCC00CCCC33CCCC66CCCC99CCCCCCCCCCFFCCFF00CCFF33CCFF66CCFF99CCFFCCCCFFFFFF0000FF0033FF0066FF0099FF00CCFF00FFFF3300FF3333
310
FF3366FF3399FF33CCFF33FFFF6600FF6633FF6666FF6699FF66CCFF66FFFF9900FF9933FF9966FF9999FF99CCFF99FFFFCC00FFCC33FFCC66FFCC99FFCCCCFFCCFFFFFF00FFFF33FFFF66FFFF99FFFFCCFFFFFF0000000D0D0D1A1A1A2828283535354343435050505D5D5D6B6B6B787878868686939393A1A1A1AEAEAEBB
310
BBBBC9C9C9D6D6D6E4E4E4F1F1F1FFFFFF0000000000000000000000000000000000000000000000000000000000003AE5ACE9000005744944415478DAED9D5B9AAB200C80B321F6FF9617B7916DF03ECA35DC2CB68E1285F38DC769C5293F2109095880593A8A1659CE0420B2D7268053EF254FFECF0620AEFB2780096002
310
980086BB1DBD1A006DC51E891E0A60AF619496AFEE2100C0194532008EA2C9E8C3CB8F00D0EAC95617F397E71010AF04F3A6504B0028A7F6040960671F653A5319B4AF3DC6077058A6FF6F108CE507744840871F7088CE04F044002F1F020413C0230024E17A3A01E22800AC7ED20B6E2159743FB62C3C5AABF82F144F63BD
310
85E93A77D7E3F98E1B24806CFF5601602C3AF965A900B04DE44EA456AC8C0EA0A89AE514541EBDD74180927B240040AFFF2B654F87068095CBB676EA9A0ED010049ADB782C016CD2B201301234AC0EA84B0064DD960228BC9C4C0288E285634B00FD0800E24C9001F07705F400707800354DAD55150057685EDD93AB4D0900
310
014AD00F5FAFD393B202A85901655EDE1A6E8FC1DE6500300580CFD201E514B83604C00F01006966B01B00D49420885182DF9AC118060B7220D40C3625401B25D85AC640A52524C912506D65972B9C7BFBE25CE1DEC950ABB0C990963919EABDD51737B2D28047E6C5CF5A1F40C703034F04E047C55B0178BDF04A00C79326
310
5307DC0A80BECCEF119CB676E65600DF66F9CECC0EDE2C01F713B87B089C30D6250F81FBDB3F1800DD7285350F070A0710A72D7470653FB91A74E65E97FBA6C32AEB4833856D4E87D7F7E2CCCF55100D606D1F39D1D6494C68775F93A9E2EA298DB2250069A560FFF1D857232416AAAE03007D3D2D5407B8BEDE4257B90474
310
2446B40DFD0008D501213162723818E317BD00623DC900D60FAFAAA59518A95E2B5B02AC26CFAB7F9680584DBC0EA858814E1D6022BED2FD8055F91FB602DB394AB702F08315A0075881E008A1722A1D9927D8CC0C2993EE217F39C296FE92EE0AC3315758A5937FA956A09AC3E99808D1D7B99F31A7C39F1779D6164AD2F9
310
71817101FC72F9043001080250EE8D2A5FCF76533D02C0DC3657E9696A4B404D62440318A64C0013C0BD00CED669D200D004703781A903268009E05E1DC08FEFD201FFE9E0CB00108FFC91186F03509904BD09004500A73E1B470880F83418BEF8A32B2A84C200603C626CCF1287C0120703F13ABC4ABEE97A3BFEAE36FF1B
310
80FD844956DB5D496A89FBA417BE14CA36B4CC0AD83F60C2E59609DF3938AC046CBBBB9449836D4D37BBBA4CAFAE658949207F4A68135EE82ED4F6340270B95474A7FA67AD710500B0DD6EFB3E4800DB22A4D2DD425E02C06742593BAD04B88CB216030063D3910108B5FCA9CD7DB9B10E1E002600D01EAC1C8C0FC008AE6D
310
B3EBFB1D009B9807001000001BEA4E2CD06F1E1D5D07D069002801E09582FE790A71050054A515C05533164A70DB1EAEB06205423BBDAEDCAE24AB28498204D4CCA0AAEA00BF00B65C281A25603DC34418C657829D438069F6520778256848A0371042ACC0A900A215A801E04FE475A75165541CC7B1CC2007B06306BD1F50
310
9A41AA8619F662AF1701502500D5ED0861E10825AE70B16EC43F62C176BF2300948BC5B5AE7028C11556AAE20A9B65B1E66DB65B9CCF793EB8C2044733CBD74C8638801003A08604D87971B257FEC86428EB70FBB67F0DAE9700F399F8749801A8E9801018A050C59D3B301FA6C33BC39D051BE8DA78002521E0E48372DD5D
310
01000580342042FBB1D68E20D38500D24DDDC9CA18828604B81AE5229AC693855B3AE06E00950F932C0C2917803858DE7A97C2547F46C0A800EAE2D056D0ED267C6859D30A8C1714A5FAEA303F4E883F7E1D1ACB88A001004A8C4302A89EF73C3EBFCFF9E761E7E1C2E25D3E0AED3E629F3A088C9C1768AE88CBBE7A80DA96
310
4E505EE0980CC095E54600D0D201EF00304A99002680096002980026800960029800CEBBDDDBBF77585E9900CEBCD7DBBF7DFEC1E50F3B05AC138B549DCB0000000049454E44AE42608260029800268009600298002680096002F86F316FFFDFE7C74D13408B32864E30D397F407AF157328E58A79AE0000000049454E44AE
310
426082
  0
ENDSEC
  0
EOF
