  0
SECTION
  2
HEADER
  9
$ACADVER
  1
AC1027
  9
$ACADMAINTVER
 70
   125
  9
$DWGCODEPAGE
  3
ANSI_932
  9
$LASTSAVEDBY
  1
D-mishima
  9
$REQUIREDVERSIONS
160
                 0
  9
$INSBASE
 10
0.0
 20
0.0
 30
0.0
  9
$EXTMIN
 10
0.0
 20
0.0
 30
0.0
  9
$EXTMAX
 10
4200.0
 20
2970.0
 30
0.0
  9
$LIMMIN
 10
0.0
 20
0.0
  9
$LIMMAX
 10
4200.0
 20
2970.0
  9
$ORTHOMODE
 70
     0
  9
$REGENMODE
 70
     1
  9
$FILLMODE
 70
     1
  9
$QTEXTMODE
 70
     0
  9
$MIRRTEXT
 70
     0
  9
$LTSCALE
 40
0.1
  9
$ATTMODE
 70
     1
  9
$TEXTSIZE
 40
25.0
  9
$TRACEWID
 40
1.0
  9
$TEXTSTYLE
  7
Standard
  9
$CLAYER
  8
寸法線
  9
$CELTYPE
  6
ByLayer
  9
$CECOLOR
 62
   256
  9
$CELTSCALE
 40
1.0
  9
$DISPSILH
 70
     0
  9
$DIMSCALE
 40
10.0
  9
$DIMASZ
 40
2.0
  9
$DIMEXO
 40
0.875
  9
$DIMDLI
 40
10.0
  9
$DIMRND
 40
0.0
  9
$DIMDLE
 40
0.0
  9
$DIMEXE
 40
1.0
  9
$DIMTP
 40
0.0
  9
$DIMTM
 40
0.0
  9
$DIMTXT
 40
2.5
  9
$DIMCEN
 40
0.0
  9
$DIMTSZ
 40
0.0
  9
$DIMTOL
 70
     0
  9
$DIMLIM
 70
     0
  9
$DIMTIH
 70
     0
  9
$DIMTOH
 70
     0
  9
$DIMSE1
 70
     0
  9
$DIMSE2
 70
     0
  9
$DIMTAD
 70
     1
  9
$DIMZIN
 70
     8
  9
$DIMBLK
  1

  9
$DIMASO
 70
     1
  9
$DIMSHO
 70
     1
  9
$DIMPOST
  1

  9
$DIMAPOST
  1

  9
$DIMALT
 70
     0
  9
$DIMALTD
 70
     2
  9
$DIMALTF
 40
25.4
  9
$DIMLFAC
 40
1.0
  9
$DIMTOFL
 70
     1
  9
$DIMTVP
 40
0.0
  9
$DIMTIX
 70
     0
  9
$DIMSOXD
 70
     0
  9
$DIMSAH
 70
     1
  9
$DIMBLK1
  1
OPEN
  9
$DIMBLK2
  1
OPEN
  9
$DIMSTYLE
  2
STANDARD
  9
$DIMCLRD
 70
     0
  9
$DIMCLRE
 70
     0
  9
$DIMCLRT
 70
     0
  9
$DIMTFAC
 40
1.0
  9
$DIMGAP
 40
0.875
  9
$DIMJUST
 70
     0
  9
$DIMSD1
 70
     0
  9
$DIMSD2
 70
     0
  9
$DIMTOLJ
 70
     1
  9
$DIMTZIN
 70
     0
  9
$DIMALTZ
 70
     0
  9
$DIMALTTZ
 70
     0
  9
$DIMUPT
 70
     0
  9
$DIMDEC
 70
     3
  9
$DIMTDEC
 70
     3
  9
$DIMALTU
 70
     2
  9
$DIMALTTD
 70
     2
  9
$DIMTXSTY
  7
Standard
  9
$DIMAUNIT
 70
     0
  9
$DIMADEC
 70
     0
  9
$DIMALTRND
 40
0.0
  9
$DIMAZIN
 70
     0
  9
$DIMDSEP
 70
    46
  9
$DIMATFIT
 70
     3
  9
$DIMFRAC
 70
     0
  9
$DIMLDRBLK
  1
OPEN
  9
$DIMLUNIT
 70
     2
  9
$DIMLWD
 70
    -2
  9
$DIMLWE
 70
    -2
  9
$DIMTMOVE
 70
     0
  9
$DIMFXL
 40
1.0
  9
$DIMFXLON
 70
     0
  9
$DIMJOGANG
 40
1.570796326794896
  9
$DIMTFILL
 70
     0
  9
$DIMTFILLCLR
 70
     0
  9
$DIMARCSYM
 70
     0
  9
$DIMLTYPE
  6

  9
$DIMLTEX1
  6

  9
$DIMLTEX2
  6

  9
$DIMTXTDIRECTION
 70
     0
  9
$LUNITS
 70
     2
  9
$LUPREC
 70
     4
  9
$SKETCHINC
 40
1.0
  9
$FILLETRAD
 40
0.0
  9
$AUNITS
 70
     0
  9
$AUPREC
 70
     0
  9
$MENU
  1
.
  9
$ELEVATION
 40
0.0
  9
$PELEVATION
 40
0.0
  9
$THICKNESS
 40
0.0
  9
$LIMCHECK
 70
     0
  9
$CHAMFERA
 40
0.0
  9
$CHAMFERB
 40
0.0
  9
$CHAMFERC
 40
0.0
  9
$CHAMFERD
 40
0.0
  9
$SKPOLY
 70
     0
  9
$TDCREATE
 40
2454064.449062500
  9
$TDUCREATE
 40
2454064.074062859
  9
$TDUPDATE
 40
2460315.416828704
  9
$TDUUPDATE
 40
2460315.041828704
  9
$TDINDWG
 40
3.8222625000
  9
$TDUSRTIMER
 40
3.8222404630
  9
$USRTIMER
 70
     1
  9
$ANGBASE
 50
0.0
  9
$ANGDIR
 70
     0
  9
$PDMODE
 70
     0
  9
$PDSIZE
 40
0.0
  9
$PLINEWID
 40
0.0
  9
$SPLFRAME
 70
     0
  9
$SPLINETYPE
 70
     6
  9
$SPLINESEGS
 70
     8
  9
$HANDSEED
  5
11668
  9
$SURFTAB1
 70
     6
  9
$SURFTAB2
 70
     6
  9
$SURFTYPE
 70
     6
  9
$SURFU
 70
     6
  9
$SURFV
 70
     6
  9
$UCSBASE
  2

  9
$UCSNAME
  2

  9
$UCSORG
 10
0.0
 20
0.0
 30
0.0
  9
$UCSXDIR
 10
1.0
 20
0.0
 30
0.0
  9
$UCSYDIR
 10
0.0
 20
1.0
 30
0.0
  9
$UCSORTHOREF
  2

  9
$UCSORTHOVIEW
 70
     0
  9
$UCSORGTOP
 10
0.0
 20
0.0
 30
0.0
  9
$UCSORGBOTTOM
 10
0.0
 20
0.0
 30
0.0
  9
$UCSORGLEFT
 10
0.0
 20
0.0
 30
0.0
  9
$UCSORGRIGHT
 10
0.0
 20
0.0
 30
0.0
  9
$UCSORGFRONT
 10
0.0
 20
0.0
 30
0.0
  9
$UCSORGBACK
 10
0.0
 20
0.0
 30
0.0
  9
$PUCSBASE
  2

  9
$PUCSNAME
  2

  9
$PUCSORG
 10
0.0
 20
0.0
 30
0.0
  9
$PUCSXDIR
 10
1.0
 20
0.0
 30
0.0
  9
$PUCSYDIR
 10
0.0
 20
1.0
 30
0.0
  9
$PUCSORTHOREF
  2

  9
$PUCSORTHOVIEW
 70
     0
  9
$PUCSORGTOP
 10
0.0
 20
0.0
 30
0.0
  9
$PUCSORGBOTTOM
 10
0.0
 20
0.0
 30
0.0
  9
$PUCSORGLEFT
 10
0.0
 20
0.0
 30
0.0
  9
$PUCSORGRIGHT
 10
0.0
 20
0.0
 30
0.0
  9
$PUCSORGFRONT
 10
0.0
 20
0.0
 30
0.0
  9
$PUCSORGBACK
 10
0.0
 20
0.0
 30
0.0
  9
$USERI1
 70
     0
  9
$USERI2
 70
     0
  9
$USERI3
 70
     0
  9
$USERI4
 70
     0
  9
$USERI5
 70
     0
  9
$USERR1
 40
0.0
  9
$USERR2
 40
0.0
  9
$USERR3
 40
0.0
  9
$USERR4
 40
0.0
  9
$USERR5
 40
0.0
  9
$WORLDVIEW
 70
     1
  9
$SHADEDGE
 70
     3
  9
$SHADEDIF
 70
    70
  9
$TILEMODE
 70
     0
  9
$MAXACTVP
 70
    64
  9
$PINSBASE
 10
0.0
 20
0.0
 30
0.0
  9
$PLIMCHECK
 70
     0
  9
$PEXTMIN
 10
0.0000000000000853
 20
0.0
 30
0.0
  9
$PEXTMAX
 10
408.1991586685179
 20
285.1784963607788
 30
0.0
  9
$PLIMMIN
 10
-5.873748779296875
 20
-5.873749732971191
  9
$PLIMMAX
 10
414.0729064941406
 20
291.0522451400757
  9
$UNITMODE
 70
     0
  9
$VISRETAIN
 70
     1
  9
$PLINEGEN
 70
     0
  9
$PSLTSCALE
 70
     1
  9
$TREEDEPTH
 70
  3020
  9
$CMLSTYLE
  2
Standard
  9
$CMLJUST
 70
     0
  9
$CMLSCALE
 40
20.0
  9
$PROXYGRAPHICS
 70
     1
  9
$MEASUREMENT
 70
     1
  9
$CELWEIGHT
370
    -1
  9
$ENDCAPS
280
     0
  9
$JOINSTYLE
280
     0
  9
$LWDISPLAY
290
     0
  9
$INSUNITS
 70
     4
  9
$HYPERLINKBASE
  1

  9
$STYLESHEET
  1
SANKENTC.CTB
  9
$XEDIT
290
     1
  9
$CEPSNTYPE
380
     0
  9
$PSTYLEMODE
290
     1
  9
$FINGERPRINTGUID
  2
{072871F0-2771-4C56-B9BD-B27D0F751D9A}
  9
$VERSIONGUID
  2
{E3D46AE8-2D55-F844-B242-1500716BA826}
  9
$EXTNAMES
290
     1
  9
$PSVPSCALE
 40
0.0
  9
$OLESTARTUP
290
     0
  9
$SORTENTS
280
   127
  9
$INDEXCTL
280
     0
  9
$HIDETEXT
280
     1
  9
$XCLIPFRAME
280
     2
  9
$HALOGAP
280
     0
  9
$OBSCOLOR
 70
   257
  9
$OBSLTYPE
280
     0
  9
$INTERSECTIONDISPLAY
280
     0
  9
$INTERSECTIONCOLOR
 70
   257
  9
$DIMASSOC
280
     2
  9
$PROJECTNAME
  1

  9
$CAMERADISPLAY
290
     0
  9
$LENSLENGTH
 40
50.0
  9
$CAMERAHEIGHT
 40
0.0
  9
$STEPSPERSEC
 40
2.0
  9
$STEPSIZE
 40
6.0
  9
$3DDWFPREC
 40
2.0
  9
$PSOLWIDTH
 40
0.25
  9
$PSOLHEIGHT
 40
4.0
  9
$LOFTANG1
 40
1.570796326794896
  9
$LOFTANG2
 40
1.570796326794896
  9
$LOFTMAG1
 40
0.0
  9
$LOFTMAG2
 40
0.0
  9
$LOFTPARAM
 70
     7
  9
$LOFTNORMALS
280
     1
  9
$LATITUDE
 40
37.795
  9
$LONGITUDE
 40
-122.394
  9
$NORTHDIRECTION
 40
0.0
  9
$TIMEZONE
 70
 -8000
  9
$LIGHTGLYPHDISPLAY
280
     1
  9
$TILEMODELIGHTSYNCH
280
     1
  9
$CMATERIAL
347
DD8C
  9
$SOLIDHIST
280
     0
  9
$SHOWHIST
280
     1
  9
$DWFFRAME
280
     2
  9
$DGNFRAME
280
     0
  9
$REALWORLDSCALE
290
     1
  9
$INTERFERECOLOR
 62
     1
  9
$INTERFEREOBJVS
345
DDAE
  9
$INTERFEREVPVS
346
10674
  9
$CSHADOW
280
     0
  9
$SHADOWPLANELOCATION
 40
0.0
  0
ENDSEC
  0
SECTION
  2
CLASSES
  0
CLASS
  1
ACDBDICTIONARYWDFLT
  2
AcDbDictionaryWithDefault
  3
ObjectDBX Classes
 90
        0
 91
        1
280
     0
281
     0
  0
CLASS
  1
DICTIONARYVAR
  2
AcDbDictionaryVar
  3
ObjectDBX Classes
 90
        0
 91
       17
280
     0
281
     0
  0
CLASS
  1
TABLESTYLE
  2
AcDbTableStyle
  3
ObjectDBX Classes
 90
     4095
 91
        1
280
     0
281
     0
  0
CLASS
  1
DIMASSOC
  2
AcDbDimAssoc
  3
"AcDbDimAssoc|Product Desc:     AcDim ARX App For Dimension|Company:          Autodesk, Inc.|WEB Address:      www.autodesk.com"
 90
        0
 91
        0
280
     0
281
     0
  0
CLASS
  1
SORTENTSTABLE
  2
AcDbSortentsTable
  3
ObjectDBX Classes
 90
        0
 91
        2
280
     0
281
     0
  0
CLASS
  1
MATERIAL
  2
AcDbMaterial
  3
ObjectDBX Classes
 90
     1153
 91
        3
280
     0
281
     0
  0
CLASS
  1
VISUALSTYLE
  2
AcDbVisualStyle
  3
ObjectDBX Classes
 90
     4095
 91
       26
280
     0
281
     0
  0
CLASS
  1
SCALE
  2
AcDbScale
  3
ObjectDBX Classes
 90
     1153
 91
       17
280
     0
281
     0
  0
CLASS
  1
MLEADERSTYLE
  2
AcDbMLeaderStyle
  3
ACDB_MLEADERSTYLE_CLASS
 90
     4095
 91
        1
280
     0
281
     0
  0
CLASS
  1
CELLSTYLEMAP
  2
AcDbCellStyleMap
  3
ObjectDBX Classes
 90
     1152
 91
        1
280
     0
281
     0
  0
CLASS
  1
AEC_REFEDIT_STATUS_TRACKER
  2
AecDbRefEditStatusTracker
  3
AecArchBase50|Product Desc: Autodesk Architectural Desktop 2007 |Company: Autodesk,Inc. |WEB Address: www.autodesk.com
 90
      129
 91
        0
280
     0
281
     0
  0
CLASS
  1
NPOCOLLECTION
  2
AcDbImpNonPersistentObjectsCollection
  3
ObjectDBX Classes
 90
     1153
 91
        0
280
     0
281
     0
  0
CLASS
  1
ACDBSECTIONVIEWSTYLE
  2
AcDbSectionViewStyle
  3
ObjectDBX Classes
 90
     1025
 91
        1
280
     0
281
     0
  0
CLASS
  1
ACDBDETAILVIEWSTYLE
  2
AcDbDetailViewStyle
  3
ObjectDBX Classes
 90
     1025
 91
        1
280
     0
281
     0
  0
ENDSEC
  0
SECTION
  2
TABLES
  0
TABLE
  2
VPORT
  5
8
102
{ACAD_XDICTIONARY
360
DDFD
102
}
330
0
100
AcDbSymbolTable
 70
     1
1001
ACAD
1000
DbSaveVer
1071
      278
  0
VPORT
  5
EF70
330
8
100
AcDbSymbolTableRecord
100
AcDbViewportTableRecord
  2
*Active
 70
     0
 10
0.0
 20
0.0
 11
1.0
 21
1.0
 12
2100.000009778887
 22
1485.000006915069
 13
0.0
 23
0.0
 14
10.0
 24
10.0
 15
10.0
 25
10.0
 16
0.0
 26
0.0
 36
1.0
 17
0.0
 27
0.0
 37
0.0
 40
2995.786285400605
 41
1.976978417266187
 42
50.0
 43
0.0
 44
0.0
 50
0.0
 51
0.0
 71
     0
 72
  1000
 73
     1
 74
     3
 75
     0
 76
     0
 77
     0
 78
     0
281
     0
 65
     1
110
0.0
120
0.0
130
0.0
111
1.0
121
0.0
131
0.0
112
0.0
122
1.0
132
0.0
 79
     0
146
0.0
348
DDAA
 60
     3
 61
     5
292
     1
282
     1
141
0.0
142
0.0
 63
   250
421
  3355443
1001
ACAD_NAV_VCDISPLAY
1070
     3
  0
ENDTAB
  0
TABLE
  2
LTYPE
  5
5
330
0
100
AcDbSymbolTable
 70
     4
  0
LTYPE
  5
14
330
5
100
AcDbSymbolTableRecord
100
AcDbLinetypeTableRecord
  2
ByBlock
 70
     0
  3

 72
    65
 73
     0
 40
0.0
  0
LTYPE
  5
15
330
5
100
AcDbSymbolTableRecord
100
AcDbLinetypeTableRecord
  2
ByLayer
 70
     0
  3

 72
    65
 73
     0
 40
0.0
  0
LTYPE
  5
16
330
5
100
AcDbSymbolTableRecord
100
AcDbLinetypeTableRecord
  2
Continuous
 70
     0
  3
Solid line
 72
    65
 73
     0
 40
0.0
  0
LTYPE
  5
1D4
330
5
100
AcDbSymbolTableRecord
100
AcDbLinetypeTableRecord
  2
PHANTOM
 70
     0
  3
Phantom ______  __  __  ______  __  __  ______
 72
    65
 73
     6
 40
63.5
 49
31.75
 74
     0
 49
-6.349999999999997
 74
     0
 49
6.349999999999997
 74
     0
 49
-6.349999999999997
 74
     0
 49
6.349999999999997
 74
     0
 49
-6.349999999999997
 74
     0
  0
LTYPE
  5
1D5
330
5
100
AcDbSymbolTableRecord
100
AcDbLinetypeTableRecord
  2
CENTER
 70
     0
  3
Center ____ _ ____ _ ____ _ ____ _ ____ _ ____
 72
    65
 73
     4
 40
50.8
 49
31.75
 74
     0
 49
-6.349999999999997
 74
     0
 49
6.349999999999997
 74
     0
 49
-6.349999999999997
 74
     0
  0
LTYPE
  5
1D7
330
5
100
AcDbSymbolTableRecord
100
AcDbLinetypeTableRecord
  2
DASHED
 70
     0
  3
Dashed __ __ __ __ __ __ __ __ __ __ __ __ __ _
 72
    65
 73
     2
 40
19.05
 49
12.7
 74
     0
 49
-6.349999999999997
 74
     0
  0
ENDTAB
  0
TABLE
  2
LAYER
  5
2
102
{ACAD_XDICTIONARY
360
11D
102
}
330
0
100
AcDbSymbolTable
 70
     9
  0
LAYER
  5
10
102
{ACAD_XDICTIONARY
360
DDE3
102
}
330
2
100
AcDbSymbolTableRecord
100
AcDbLayerTableRecord
  2
0
 70
     0
 62
     7
  6
Continuous
370
    -3
390
F
347
DD9C
348
0
  0
LAYER
  5
13F
330
2
100
AcDbSymbolTableRecord
100
AcDbLayerTableRecord
  2
Defpoints
 70
     0
 62
     7
  6
Continuous
290
     0
370
    -3
390
F
347
DD9C
348
0
  0
LAYER
  5
1BF
102
{ACAD_XDICTIONARY
360
DDE7
102
}
330
2
100
AcDbSymbolTableRecord
100
AcDbLayerTableRecord
  2
図面枠
 70
     0
 62
     2
  6
Continuous
370
    -3
390
F
347
DD9C
348
0
1001
AcAecLayerStandard
1000

1000

  0
LAYER
  5
1C1
102
{ACAD_XDICTIONARY
360
DDEB
102
}
330
2
100
AcDbSymbolTableRecord
100
AcDbLayerTableRecord
  2
仮想線
 70
     0
 62
     6
  6
PHANTOM
370
    -3
390
F
347
DD9C
348
0
1001
AcAecLayerStandard
1000

1000

  0
LAYER
  5
1C2
102
{ACAD_XDICTIONARY
360
DDED
102
}
330
2
100
AcDbSymbolTableRecord
100
AcDbLayerTableRecord
  2
細線
 70
     0
 62
     3
  6
Continuous
370
    -3
390
F
347
DD9C
348
0
1001
AcAecLayerStandard
1000

1000

  0
LAYER
  5
1C3
102
{ACAD_XDICTIONARY
360
DDEF
102
}
330
2
100
AcDbSymbolTableRecord
100
AcDbLayerTableRecord
  2
寸法線
 70
     0
 62
     2
  6
Continuous
370
    -3
390
F
347
DD9C
348
0
1001
AcAecLayerStandard
1000

1000

  0
LAYER
  5
1C4
102
{ACAD_XDICTIONARY
360
DDF1
102
}
330
2
100
AcDbSymbolTableRecord
100
AcDbLayerTableRecord
  2
中心線
 70
     0
 62
     1
  6
CENTER
370
    -3
390
F
347
DD9C
348
0
1001
AcAecLayerStandard
1000

1000

  0
LAYER
  5
1C5
102
{ACAD_XDICTIONARY
360
DDF3
102
}
330
2
100
AcDbSymbolTableRecord
100
AcDbLayerTableRecord
  2
破線
 70
     0
 62
     4
  6
DASHED
370
    -3
390
F
347
DD9C
348
0
1001
AcAecLayerStandard
1000

1000

  0
LAYER
  5
82E
102
{ACAD_XDICTIONARY
360
DDF5
102
}
330
2
100
AcDbSymbolTableRecord
100
AcDbLayerTableRecord
  2
実線
 70
     0
 62
     7
  6
Continuous
370
    -3
390
F
347
DD9C
348
0
1001
AcAecLayerStandard
1000

1000

  0
ENDTAB
  0
TABLE
  2
STYLE
  5
3
330
0
100
AcDbSymbolTable
 70
     1
  0
STYLE
  5
11
330
3
100
AcDbSymbolTableRecord
100
AcDbTextStyleTableRecord
  2
Standard
 70
     0
 40
0.0
 41
1.0
 50
0.0
 71
     0
 42
25.0
  3
isocp.shx
  4
extfont2.shx
  0
ENDTAB
  0
TABLE
  2
VIEW
  5
6
330
0
100
AcDbSymbolTable
 70
     0
  0
ENDTAB
  0
TABLE
  2
UCS
  5
7
330
0
100
AcDbSymbolTable
 70
     0
  0
ENDTAB
  0
TABLE
  2
APPID
  5
9
330
0
100
AcDbSymbolTable
 70
    18
  0
APPID
  5
12
330
9
100
AcDbSymbolTableRecord
100
AcDbRegAppTableRecord
  2
ACAD
 70
     0
  0
APPID
  5
9E
330
9
100
AcDbSymbolTableRecord
100
AcDbRegAppTableRecord
  2
ACAD_PSEXT
 70
     0
  0
APPID
  5
1BE
330
9
100
AcDbSymbolTableRecord
100
AcDbRegAppTableRecord
  2
AcAecLayerStandard
 70
     0
  0
APPID
  5
1FF
330
9
100
AcDbSymbolTableRecord
100
AcDbRegAppTableRecord
  2
ACAD_EXEMPT_FROM_CAD_STANDARDS
 70
     0
  0
APPID
  5
1318
330
9
100
AcDbSymbolTableRecord
100
AcDbRegAppTableRecord
  2
ACAD_DSTYLE_DIMTEXT_FILL
 70
     0
  0
APPID
  5
1319
330
9
100
AcDbSymbolTableRecord
100
AcDbRegAppTableRecord
  2
ACAD_DSTYLE_DIMEXT_LENGTH
 70
     0
  0
APPID
  5
131A
330
9
100
AcDbSymbolTableRecord
100
AcDbRegAppTableRecord
  2
ACAD_DSTYLE_DIMEXT_ENABLED
 70
     0
  0
APPID
  5
131B
330
9
100
AcDbSymbolTableRecord
100
AcDbRegAppTableRecord
  2
ACAD_DSTYLE_DIM_LINETYPE
 70
     0
  0
APPID
  5
131C
330
9
100
AcDbSymbolTableRecord
100
AcDbRegAppTableRecord
  2
ACAD_DSTYLE_DIM_EXT1_LINETYPE
 70
     0
  0
APPID
  5
131D
330
9
100
AcDbSymbolTableRecord
100
AcDbRegAppTableRecord
  2
ACAD_DSTYLE_DIM_EXT2_LINETYPE
 70
     0
  0
APPID
  5
1439
330
9
100
AcDbSymbolTableRecord
100
AcDbRegAppTableRecord
  2
ACAD_DSTYLE_DIMJOGGED_JOGANGLE_SYMBOL
 70
     0
  0
APPID
  5
1CB2
330
9
100
AcDbSymbolTableRecord
100
AcDbRegAppTableRecord
  2
ACAD_DSTYLE_DIMARC_LENGTH_SYMBOL
 70
     0
  0
APPID
  5
356E
330
9
100
AcDbSymbolTableRecord
100
AcDbRegAppTableRecord
  2
ACAD_DIMASSOC_CALC_DIMLFAC
 70
     0
  0
APPID
  5
356F
330
9
100
AcDbSymbolTableRecord
100
AcDbRegAppTableRecord
  2
ACAD_DIMASSOC_DIMLFAC
 70
     0
  0
APPID
  5
3570
330
9
100
AcDbSymbolTableRecord
100
AcDbRegAppTableRecord
  2
ACAD_DIMASSOC_OVERRIDDEN_DIMLFAC
 70
     0
  0
APPID
  5
DDC9
330
9
100
AcDbSymbolTableRecord
100
AcDbRegAppTableRecord
  2
ACAD_MLEADERVER
 70
     0
  0
APPID
  5
108EC
330
9
100
AcDbSymbolTableRecord
100
AcDbRegAppTableRecord
  2
AcDbBlockRepETag
 70
     0
  0
APPID
  5
108ED
330
9
100
AcDbSymbolTableRecord
100
AcDbRegAppTableRecord
  2
ACAD_NAV_VCDISPLAY
 70
     0
  0
ENDTAB
  0
TABLE
  2
DIMSTYLE
  5
A
330
0
100
AcDbSymbolTable
 70
     1
100
AcDbDimStyleTable
 71
     1
340
C0F
  0
DIMSTYLE
105
C0F
102
{ACAD_REACTORS
330
10E0F
330
10E10
330
10E11
330
10CDC
330
10CDD
330
10CFF
330
10C93
330
10D5C
330
10D5D
330
10D7D
330
10D86
330
10E12
330
10E13
330
10E14
330
10E15
330
10E16
330
10E1C
330
10E1D
330
10E1E
330
10E1F
330
10E20
330
10E21
330
10E27
330
10E28
330
10E29
330
10E2A
330
10E2B
330
10E2C
330
10E2D
330
10E2E
330
10E2F
330
10E30
330
10E31
330
10E32
330
10E35
330
10E36
330
10E37
330
10E38
330
10E3B
330
10BA7
330
10BA8
330
10BA9
330
10BAE
330
10BAF
330
10BB0
330
10BB1
330
11343
330
11362
330
115B2
102
}
330
A
100
AcDbSymbolTableRecord
100
AcDbDimStyleTableRecord
  2
STANDARD
 70
     0
 40
10.0
 41
2.0
 42
0.875
 43
10.0
 44
1.0
 50
89.99999999999998
 73
     0
 74
     0
 77
     1
 78
     8
140
2.5
141
0.0
147
0.875
172
     1
173
     1
271
     3
272
     3
340
11
341
C08
343
C08
344
C08
1001
ACAD_DSTYLE_DIMJOGGED_JOGANGLE_SYMBOL
1070
   384
1040
1.570796326794896
  0
ENDTAB
  0
TABLE
  2
BLOCK_RECORD
  5
1
330
0
100
AcDbSymbolTable
 70
    50
  0
BLOCK_RECORD
  5
1F
102
{ACAD_XDICTIONARY
360
5C91
102
}
330
1
100
AcDbSymbolTableRecord
100
AcDbBlockTableRecord
  2
*Model_Space
340
22
 70
     0
280
     1
281
     0
  0
BLOCK_RECORD
  5
78D
330
1
100
AcDbSymbolTableRecord
100
AcDbBlockTableRecord
  2
*Paper_Space
340
78E
 70
     0
280
     1
281
     0
  0
BLOCK_RECORD
  5
C08
102
{ACAD_XDICTIONARY
360
E4E5
102
}
330
1
100
AcDbSymbolTableRecord
100
AcDbBlockTableRecord
  2
_OPEN
340
0
102
{BLKREFS
331
1143F
331
11440
331
1144A
331
1144B
331
11453
331
11454
331
11469
331
1146A
331
11472
331
11473
331
1147D
331
1147E
331
11486
331
11487
331
11491
331
11492
331
1149C
331
1149D
331
114A7
331
114A8
331
1137B
331
1137C
331
11384
331
11385
331
1138D
331
1138E
331
11396
331
11397
331
1139F
331
113A0
331
113A8
331
113A9
331
113B3
331
113B4
331
113BE
331
113BF
331
113C9
331
113CA
331
113D4
331
113D5
331
113DF
331
113E0
331
113E8
331
113E9
331
113F1
331
113F2
331
113FA
331
113FB
331
11403
331
11404
331
1140C
331
1140D
331
11417
331
11418
331
11420
331
11421
331
1142B
331
1142C
331
11436
331
11437
331
114B0
331
114B1
331
114B9
331
114BA
331
114C2
331
114C3
331
114CC
331
114CD
331
114D6
331
114D7
331
114DF
331
114E0
331
114EB
331
114EC
331
114F4
331
114F5
331
114FD
331
114FE
331
11507
331
11508
331
11511
331
11512
331
1151C
331
1151D
331
11525
331
11526
331
11530
331
11531
331
11539
331
1153A
331
11542
331
11543
331
1154B
331
1154C
331
11554
331
11555
331
115C6
331
115C7
102
}
 70
     0
280
     1
281
     0
  0
BLOCK_RECORD
  5
10E4E
330
1
100
AcDbSymbolTableRecord
100
AcDbBlockTableRecord
  2
*D1
340
0
 70
     0
280
     1
281
     0
  0
BLOCK_RECORD
  5
10E5A
330
1
100
AcDbSymbolTableRecord
100
AcDbBlockTableRecord
  2
*D2
340
0
 70
     0
280
     1
281
     0
  0
BLOCK_RECORD
  5
10E68
330
1
100
AcDbSymbolTableRecord
100
AcDbBlockTableRecord
  2
*D3
340
0
 70
     0
280
     1
281
     0
  0
BLOCK_RECORD
  5
10E74
330
1
100
AcDbSymbolTableRecord
100
AcDbBlockTableRecord
  2
*D4
340
0
 70
     0
280
     1
281
     0
  0
BLOCK_RECORD
  5
10E82
330
1
100
AcDbSymbolTableRecord
100
AcDbBlockTableRecord
  2
*D5
340
0
 70
     0
280
     1
281
     0
  0
BLOCK_RECORD
  5
10E90
330
1
100
AcDbSymbolTableRecord
100
AcDbBlockTableRecord
  2
*D6
340
0
 70
     0
280
     1
281
     0
  0
BLOCK_RECORD
  5
10E9E
330
1
100
AcDbSymbolTableRecord
100
AcDbBlockTableRecord
  2
*D7
340
0
 70
     0
280
     1
281
     0
  0
BLOCK_RECORD
  5
10EAC
330
1
100
AcDbSymbolTableRecord
100
AcDbBlockTableRecord
  2
*D8
340
0
 70
     0
280
     1
281
     0
  0
BLOCK_RECORD
  5
10EB8
330
1
100
AcDbSymbolTableRecord
100
AcDbBlockTableRecord
  2
*D9
340
0
 70
     0
280
     1
281
     0
  0
BLOCK_RECORD
  5
10EC4
330
1
100
AcDbSymbolTableRecord
100
AcDbBlockTableRecord
  2
*D10
340
0
 70
     0
280
     1
281
     0
  0
BLOCK_RECORD
  5
10ED0
330
1
100
AcDbSymbolTableRecord
100
AcDbBlockTableRecord
  2
*D11
340
0
 70
     0
280
     1
281
     0
  0
BLOCK_RECORD
  5
10EDC
330
1
100
AcDbSymbolTableRecord
100
AcDbBlockTableRecord
  2
*D12
340
0
 70
     0
280
     1
281
     0
  0
BLOCK_RECORD
  5
10EEA
330
1
100
AcDbSymbolTableRecord
100
AcDbBlockTableRecord
  2
*D13
340
0
 70
     0
280
     1
281
     0
  0
BLOCK_RECORD
  5
10EF8
330
1
100
AcDbSymbolTableRecord
100
AcDbBlockTableRecord
  2
*D14
340
0
 70
     0
280
     1
281
     0
  0
BLOCK_RECORD
  5
10F04
330
1
100
AcDbSymbolTableRecord
100
AcDbBlockTableRecord
  2
*D15
340
0
 70
     0
280
     1
281
     0
  0
BLOCK_RECORD
  5
10F12
330
1
100
AcDbSymbolTableRecord
100
AcDbBlockTableRecord
  2
*D16
340
0
 70
     0
280
     1
281
     0
  0
BLOCK_RECORD
  5
10F2C
330
1
100
AcDbSymbolTableRecord
100
AcDbBlockTableRecord
  2
*D17
340
0
 70
     0
280
     1
281
     0
  0
BLOCK_RECORD
  5
10F3A
330
1
100
AcDbSymbolTableRecord
100
AcDbBlockTableRecord
  2
*D18
340
0
 70
     0
280
     1
281
     0
  0
BLOCK_RECORD
  5
10F46
330
1
100
AcDbSymbolTableRecord
100
AcDbBlockTableRecord
  2
*D19
340
0
 70
     0
280
     1
281
     0
  0
BLOCK_RECORD
  5
10F54
330
1
100
AcDbSymbolTableRecord
100
AcDbBlockTableRecord
  2
*D20
340
0
 70
     0
280
     1
281
     0
  0
BLOCK_RECORD
  5
10F60
330
1
100
AcDbSymbolTableRecord
100
AcDbBlockTableRecord
  2
*D21
340
0
 70
     0
280
     1
281
     0
  0
BLOCK_RECORD
  5
10F6E
330
1
100
AcDbSymbolTableRecord
100
AcDbBlockTableRecord
  2
*D22
340
0
 70
     0
280
     1
281
     0
  0
BLOCK_RECORD
  5
10F7C
330
1
100
AcDbSymbolTableRecord
100
AcDbBlockTableRecord
  2
*D23
340
0
 70
     0
280
     1
281
     0
  0
BLOCK_RECORD
  5
10F8A
330
1
100
AcDbSymbolTableRecord
100
AcDbBlockTableRecord
  2
*D24
340
0
 70
     0
280
     1
281
     0
  0
BLOCK_RECORD
  5
10F96
330
1
100
AcDbSymbolTableRecord
100
AcDbBlockTableRecord
  2
*D25
340
0
 70
     0
280
     1
281
     0
  0
BLOCK_RECORD
  5
10FA2
330
1
100
AcDbSymbolTableRecord
100
AcDbBlockTableRecord
  2
*D26
340
0
 70
     0
280
     1
281
     0
  0
BLOCK_RECORD
  5
10FAF
330
1
100
AcDbSymbolTableRecord
100
AcDbBlockTableRecord
  2
*D27
340
0
 70
     0
280
     1
281
     0
  0
BLOCK_RECORD
  5
10FBC
330
1
100
AcDbSymbolTableRecord
100
AcDbBlockTableRecord
  2
*D28
340
0
 70
     0
280
     1
281
     0
  0
BLOCK_RECORD
  5
10FC8
330
1
100
AcDbSymbolTableRecord
100
AcDbBlockTableRecord
  2
*D29
340
0
 70
     0
280
     1
281
     0
  0
BLOCK_RECORD
  5
10FD5
330
1
100
AcDbSymbolTableRecord
100
AcDbBlockTableRecord
  2
*D30
340
0
 70
     0
280
     1
281
     0
  0
BLOCK_RECORD
  5
10FE3
330
1
100
AcDbSymbolTableRecord
100
AcDbBlockTableRecord
  2
*D31
340
0
 70
     0
280
     1
281
     0
  0
BLOCK_RECORD
  5
10FEF
330
1
100
AcDbSymbolTableRecord
100
AcDbBlockTableRecord
  2
*D32
340
0
 70
     0
280
     1
281
     0
  0
BLOCK_RECORD
  5
10FFC
330
1
100
AcDbSymbolTableRecord
100
AcDbBlockTableRecord
  2
*D33
340
0
 70
     0
280
     1
281
     0
  0
BLOCK_RECORD
  5
11009
330
1
100
AcDbSymbolTableRecord
100
AcDbBlockTableRecord
  2
*D34
340
0
 70
     0
280
     1
281
     0
  0
BLOCK_RECORD
  5
11015
330
1
100
AcDbSymbolTableRecord
100
AcDbBlockTableRecord
  2
*D35
340
0
 70
     0
280
     1
281
     0
  0
BLOCK_RECORD
  5
11023
330
1
100
AcDbSymbolTableRecord
100
AcDbBlockTableRecord
  2
*D36
340
0
 70
     0
280
     1
281
     0
  0
BLOCK_RECORD
  5
1102F
330
1
100
AcDbSymbolTableRecord
100
AcDbBlockTableRecord
  2
*D37
340
0
 70
     0
280
     1
281
     0
  0
BLOCK_RECORD
  5
1103D
330
1
100
AcDbSymbolTableRecord
100
AcDbBlockTableRecord
  2
*D38
340
0
 70
     0
280
     1
281
     0
  0
BLOCK_RECORD
  5
11049
330
1
100
AcDbSymbolTableRecord
100
AcDbBlockTableRecord
  2
*D39
340
0
 70
     0
280
     1
281
     0
  0
BLOCK_RECORD
  5
11055
330
1
100
AcDbSymbolTableRecord
100
AcDbBlockTableRecord
  2
*D40
340
0
 70
     0
280
     1
281
     0
  0
BLOCK_RECORD
  5
11061
330
1
100
AcDbSymbolTableRecord
100
AcDbBlockTableRecord
  2
*D41
340
0
 70
     0
280
     1
281
     0
  0
BLOCK_RECORD
  5
1106D
330
1
100
AcDbSymbolTableRecord
100
AcDbBlockTableRecord
  2
*D42
340
0
 70
     0
280
     1
281
     0
  0
BLOCK_RECORD
  5
11079
330
1
100
AcDbSymbolTableRecord
100
AcDbBlockTableRecord
  2
*D43
340
0
 70
     0
280
     1
281
     0
  0
BLOCK_RECORD
  5
11085
330
1
100
AcDbSymbolTableRecord
100
AcDbBlockTableRecord
  2
*D44
340
0
 70
     0
280
     1
281
     0
  0
BLOCK_RECORD
  5
11091
330
1
100
AcDbSymbolTableRecord
100
AcDbBlockTableRecord
  2
*D45
340
0
 70
     0
280
     1
281
     0
  0
BLOCK_RECORD
  5
1109D
330
1
100
AcDbSymbolTableRecord
100
AcDbBlockTableRecord
  2
*D46
340
0
 70
     0
280
     1
281
     0
  0
BLOCK_RECORD
  5
11344
330
1
100
AcDbSymbolTableRecord
100
AcDbBlockTableRecord
  2
*D47
340
0
 70
     0
280
     1
281
     0
  0
BLOCK_RECORD
  5
11363
330
1
100
AcDbSymbolTableRecord
100
AcDbBlockTableRecord
  2
*D48
340
0
 70
     0
280
     1
281
     0
  0
BLOCK_RECORD
  5
115B3
330
1
100
AcDbSymbolTableRecord
100
AcDbBlockTableRecord
  2
*D49
340
0
 70
     0
280
     1
281
     0
  0
ENDTAB
  0
ENDSEC
  0
SECTION
  2
BLOCKS
  0
BLOCK
  5
20
330
1F
100
AcDbEntity
  8
0
100
AcDbBlockBegin
  2
*Model_Space
 70
     0
 10
0.0
 20
0.0
 30
0.0
  3
*Model_Space
  1

  0
ENDBLK
  5
21
330
1F
100
AcDbEntity
  8
0
100
AcDbBlockEnd
  0
BLOCK
  5
78F
330
78D
100
AcDbEntity
 67
     1
  8
0
100
AcDbBlockBegin
  2
*Paper_Space
 70
     0
 10
0.0
 20
0.0
 30
0.0
  3
*Paper_Space
  1

  0
ENDBLK
  5
790
330
78D
100
AcDbEntity
 67
     1
  8
0
100
AcDbBlockEnd
  0
BLOCK
  5
C09
330
C08
100
AcDbEntity
  8
0
100
AcDbBlockBegin
  2
_OPEN
 70
     0
 10
0.0
 20
0.0
 30
0.0
  3
_OPEN
  1

  0
LINE
  5
C0A
330
C08
100
AcDbEntity
  8
0
  6
ByBlock
 62
     0
100
AcDbLine
 10
-1.0
 20
0.1666666666666666
 30
0.0
 11
0.0
 21
0.0
 31
0.0
  0
LINE
  5
C0B
330
C08
100
AcDbEntity
  8
0
  6
ByBlock
 62
     0
100
AcDbLine
 10
0.0
 20
0.0
 30
0.0
 11
-1.0
 21
-0.1666666666666666
 31
0.0
  0
LINE
  5
C0C
330
C08
100
AcDbEntity
  8
0
  6
ByBlock
 62
     0
100
AcDbLine
 10
0.0
 20
0.0
 30
0.0
 11
-1.0
 21
0.0
 31
0.0
  0
ENDBLK
  5
C0D
330
C08
100
AcDbEntity
  8
0
100
AcDbBlockEnd
  0
BLOCK
  5
10E4F
330
10E4E
100
AcDbEntity
  8
0
100
AcDbBlockBegin
  2
*D1
 70
     1
 10
0.0
 20
0.0
 30
0.0
  3
*D1
  1

  0
LINE
  5
11409
330
10E4E
100
AcDbEntity
  8
寸法線
 62
     0
440
 16777216
370
    -2
100
AcDbLine
 10
910.0
 20
481.2500182446092
 30
0.0
 11
910.0
 21
360.0000182446092
 31
0.0
  0
LINE
  5
1140A
330
10E4E
100
AcDbEntity
  8
寸法線
 62
     0
440
 16777216
370
    -2
100
AcDbLine
 10
1230.0
 20
481.2500182446092
 30
0.0
 11
1230.0
 21
360.0000182446092
 31
0.0
  0
LINE
  5
1140B
330
10E4E
100
AcDbEntity
  8
寸法線
 62
     0
440
 16777216
370
    -2
100
AcDbLine
 10
930.0
 20
370.0000182446093
 30
0.0
 11
1210.0
 21
370.0000182446093
 31
0.0
  0
INSERT
  5
1140C
330
10E4E
100
AcDbEntity
  8
寸法線
 62
     0
440
 16777216
370
    -2
100
AcDbBlockReference
  2
_OPEN
 10
910.0
 20
370.0000182446093
 30
0.0
 41
20.0
 42
20.0
 43
20.0
 50
180.0
  0
INSERT
  5
1140D
330
10E4E
100
AcDbEntity
  8
寸法線
 62
     0
440
 16777216
370
    -2
100
AcDbBlockReference
  2
_OPEN
 10
1230.0
 20
370.0000182446093
 30
0.0
 41
20.0
 42
20.0
 43
20.0
  0
MTEXT
  5
1140E
330
10E4E
100
AcDbEntity
  8
寸法線
 62
     0
440
 16777216
100
AcDbMText
 10
1070.0
 20
391.2524788745305
 30
0.0
 40
25.0
 41
0.0
 46
0.0
 71
     5
 72
     1
  1
\A1;320
 73
     1
 44
1.0
  0
POINT
  5
1140F
330
10E4E
100
AcDbEntity
  8
Defpoints
 62
     0
440
 16777216
100
AcDbPoint
 10
910.0
 20
490.0000182446092
 30
0.0
  0
POINT
  5
11410
330
10E4E
100
AcDbEntity
  8
Defpoints
 62
     0
440
 16777216
100
AcDbPoint
 10
1230.0
 20
490.0000182446092
 30
0.0
  0
POINT
  5
11411
330
10E4E
100
AcDbEntity
  8
Defpoints
 62
     0
440
 16777216
100
AcDbPoint
 10
1230.0
 20
370.0000182446093
 30
0.0
  0
ENDBLK
  5
10E50
330
10E4E
100
AcDbEntity
  8
0
100
AcDbBlockEnd
  0
BLOCK
  5
10E5B
330
10E5A
100
AcDbEntity
  8
0
100
AcDbBlockBegin
  2
*D2
 70
     1
 10
0.0
 20
0.0
 30
0.0
  3
*D2
  1

  0
LINE
  5
11412
330
10E5A
100
AcDbEntity
  8
寸法線
 62
     0
440
 16777216
370
    -2
100
AcDbLine
 10
1415.999996414961
 20
481.2500182446092
 30
0.0
 11
1415.999996414961
 21
360.0
 31
0.0
  0
LINE
  5
11413
330
10E5A
100
AcDbEntity
  8
寸法線
 62
     0
440
 16777216
370
    -2
100
AcDbLine
 10
1447.999996414961
 20
491.25
 30
0.0
 11
1447.999996414961
 21
360.0
 31
0.0
  0
LINE
  5
11414
330
10E5A
100
AcDbEntity
  8
寸法線
 62
     0
440
 16777216
370
    -2
100
AcDbLine
 10
1395.999996414961
 20
370.0
 30
0.0
 11
1375.999996414961
 21
370.0
 31
0.0
  0
LINE
  5
11415
330
10E5A
100
AcDbEntity
  8
寸法線
 62
     0
440
 16777216
370
    -2
100
AcDbLine
 10
1467.999996414961
 20
370.0
 30
0.0
 11
1487.999996414961
 21
370.0
 31
0.0
  0
LINE
  5
11416
330
10E5A
100
AcDbEntity
  8
寸法線
 62
     0
440
 16777216
370
    -2
100
AcDbLine
 10
1415.999996414961
 20
370.0
 30
0.0
 11
1447.999996414961
 21
370.0
 31
0.0
  0
INSERT
  5
11417
330
10E5A
100
AcDbEntity
  8
寸法線
 62
     0
440
 16777216
370
    -2
100
AcDbBlockReference
  2
_OPEN
 10
1415.999996414961
 20
370.0
 30
0.0
 41
20.0
 42
20.0
 43
20.0
  0
INSERT
  5
11418
330
10E5A
100
AcDbEntity
  8
寸法線
 62
     0
440
 16777216
370
    -2
100
AcDbBlockReference
  2
_OPEN
 10
1447.999996414961
 20
370.0
 30
0.0
 41
20.0
 42
20.0
 43
20.0
 50
180.0
  0
MTEXT
  5
11419
330
10E5A
100
AcDbEntity
  8
寸法線
 62
     0
440
 16777216
100
AcDbMText
 10
1431.999996414961
 20
391.2524606299212
 30
0.0
 40
25.0
 41
0.0
 46
0.0
 71
     5
 72
     1
  1
\A1;32
 73
     1
 44
1.0
  0
POINT
  5
1141A
330
10E5A
100
AcDbEntity
  8
Defpoints
 62
     0
440
 16777216
100
AcDbPoint
 10
1415.999996414961
 20
490.0000182446092
 30
0.0
  0
POINT
  5
1141B
330
10E5A
100
AcDbEntity
  8
Defpoints
 62
     0
440
 16777216
100
AcDbPoint
 10
1447.999996414961
 20
500.0
 30
0.0
  0
POINT
  5
1141C
330
10E5A
100
AcDbEntity
  8
Defpoints
 62
     0
440
 16777216
100
AcDbPoint
 10
1447.999996414961
 20
370.0
 30
0.0
  0
ENDBLK
  5
10E5C
330
10E5A
100
AcDbEntity
  8
0
100
AcDbBlockEnd
  0
BLOCK
  5
10E69
330
10E68
100
AcDbEntity
  8
0
100
AcDbBlockBegin
  2
*D3
 70
     1
 10
0.0
 20
0.0
 30
0.0
  3
*D3
  1

  0
LINE
  5
1141D
330
10E68
100
AcDbEntity
  8
寸法線
 62
     0
440
 16777216
370
    -2
100
AcDbLine
 10
1447.999996414961
 20
491.25
 30
0.0
 11
1447.999996414961
 21
360.0
 31
0.0
  0
LINE
  5
1141E
330
10E68
100
AcDbEntity
  8
寸法線
 62
     0
440
 16777216
370
    -2
100
AcDbLine
 10
1751.999996414961
 20
491.25
 30
0.0
 11
1751.999996414961
 21
360.0
 31
0.0
  0
LINE
  5
1141F
330
10E68
100
AcDbEntity
  8
寸法線
 62
     0
440
 16777216
370
    -2
100
AcDbLine
 10
1467.999996414961
 20
370.0
 30
0.0
 11
1731.999996414961
 21
370.0
 31
0.0
  0
INSERT
  5
11420
330
10E68
100
AcDbEntity
  8
寸法線
 62
     0
440
 16777216
370
    -2
100
AcDbBlockReference
  2
_OPEN
 10
1447.999996414961
 20
370.0
 30
0.0
 41
20.0
 42
20.0
 43
20.0
 50
180.0
  0
INSERT
  5
11421
330
10E68
100
AcDbEntity
  8
寸法線
 62
     0
440
 16777216
370
    -2
100
AcDbBlockReference
  2
_OPEN
 10
1751.999996414961
 20
370.0
 30
0.0
 41
20.0
 42
20.0
 43
20.0
  0
MTEXT
  5
11422
330
10E68
100
AcDbEntity
  8
寸法線
 62
     0
440
 16777216
100
AcDbMText
 10
1599.999996414961
 20
391.25
 30
0.0
 40
25.0
 41
0.0
 46
0.0
 71
     5
 72
     1
  1
\A1;304
 73
     1
 44
1.0
  0
POINT
  5
11423
330
10E68
100
AcDbEntity
  8
Defpoints
 62
     0
440
 16777216
100
AcDbPoint
 10
1447.999996414961
 20
500.0
 30
0.0
  0
POINT
  5
11424
330
10E68
100
AcDbEntity
  8
Defpoints
 62
     0
440
 16777216
100
AcDbPoint
 10
1751.999996414961
 20
500.0
 30
0.0
  0
POINT
  5
11425
330
10E68
100
AcDbEntity
  8
Defpoints
 62
     0
440
 16777216
100
AcDbPoint
 10
1751.999996414961
 20
370.0
 30
0.0
  0
ENDBLK
  5
10E6A
330
10E68
100
AcDbEntity
  8
0
100
AcDbBlockEnd
  0
BLOCK
  5
10E75
330
10E74
100
AcDbEntity
  8
0
100
AcDbBlockBegin
  2
*D4
 70
     1
 10
0.0
 20
0.0
 30
0.0
  3
*D4
  1

  0
LINE
  5
113C4
330
10E74
100
AcDbEntity
  8
寸法線
 62
     0
440
 16777216
370
    -2
100
AcDbLine
 10
2460.895321509676
 20
1369.999980149998
 30
0.0
 11
2622.145022538209
 21
1369.999980149998
 31
0.0
  0
LINE
  5
113C5
330
10E74
100
AcDbEntity
  8
寸法線
 62
     0
440
 16777216
370
    -2
100
AcDbLine
 10
2560.035332727423
 20
1394.99998263034
 30
0.0
 11
2622.145022538209
 21
1394.99998263034
 31
0.0
  0
LINE
  5
113C6
330
10E74
100
AcDbEntity
  8
寸法線
 62
     0
440
 16777216
370
    -2
100
AcDbLine
 10
2612.145022538209
 20
1349.999980149998
 30
0.0
 11
2612.145022538209
 21
1329.999980149998
 31
0.0
  0
LINE
  5
113C7
330
10E74
100
AcDbEntity
  8
寸法線
 62
     0
440
 16777216
370
    -2
100
AcDbLine
 10
2612.145022538209
 20
1414.99998263034
 30
0.0
 11
2612.145022538209
 21
1434.99998263034
 31
0.0
  0
LINE
  5
113C8
330
10E74
100
AcDbEntity
  8
寸法線
 62
     0
440
 16777216
370
    -2
100
AcDbLine
 10
2612.145022538209
 20
1369.999980149998
 30
0.0
 11
2612.145022538209
 21
1394.99998263034
 31
0.0
  0
INSERT
  5
113C9
330
10E74
100
AcDbEntity
  8
寸法線
 62
     0
440
 16777216
370
    -2
100
AcDbBlockReference
  2
_OPEN
 10
2612.145022538209
 20
1369.999980149998
 30
0.0
 41
20.0
 42
20.0
 43
20.0
 50
90.0
  0
INSERT
  5
113CA
330
10E74
100
AcDbEntity
  8
寸法線
 62
     0
440
 16777216
370
    -2
100
AcDbBlockReference
  2
_OPEN
 10
2612.145022538209
 20
1394.99998263034
 30
0.0
 41
20.0
 42
20.0
 43
20.0
 50
270.0
  0
MTEXT
  5
113CB
330
10E74
100
AcDbEntity
  8
寸法線
 62
     0
440
 16777216
100
AcDbMText
 10
2590.892561908288
 20
1382.499981390168
 30
0.0
 40
25.0
 41
0.0
 46
0.0
 71
     5
 72
     1
  1
\A1;25
 11
0.0000000000000001
 21
1.0
 31
0.0
 73
     1
 44
1.0
  0
POINT
  5
113CC
330
10E74
100
AcDbEntity
  8
Defpoints
 62
     0
440
 16777216
100
AcDbPoint
 10
2452.145321509676
 20
1369.999980149998
 30
0.0
  0
POINT
  5
113CD
330
10E74
100
AcDbEntity
  8
Defpoints
 62
     0
440
 16777216
100
AcDbPoint
 10
2551.285332727423
 20
1394.99998263034
 30
0.0
  0
POINT
  5
113CE
330
10E74
100
AcDbEntity
  8
Defpoints
 62
     0
440
 16777216
100
AcDbPoint
 10
2612.145022538209
 20
1394.99998263034
 30
0.0
  0
ENDBLK
  5
10E76
330
10E74
100
AcDbEntity
  8
0
100
AcDbBlockEnd
  0
BLOCK
  5
10E83
330
10E82
100
AcDbEntity
  8
0
100
AcDbBlockBegin
  2
*D5
 70
     1
 10
0.0
 20
0.0
 30
0.0
  3
*D5
  1

  0
LINE
  5
113CF
330
10E82
100
AcDbEntity
  8
寸法線
 62
     0
440
 16777216
370
    -2
100
AcDbLine
 10
2540.89502253821
 20
1652.999942930325
 30
0.0
 11
2622.145022538207
 21
1652.999942930325
 31
0.0
  0
LINE
  5
113D0
330
10E82
100
AcDbEntity
  8
寸法線
 62
     0
440
 16777216
370
    -2
100
AcDbLine
 10
2540.89502253821
 20
1636.999942930325
 30
0.0
 11
2622.145022538207
 21
1636.999942930325
 31
0.0
  0
LINE
  5
113D1
330
10E82
100
AcDbEntity
  8
寸法線
 62
     0
440
 16777216
370
    -2
100
AcDbLine
 10
2612.145022538207
 20
1672.999942930325
 30
0.0
 11
2612.145022538207
 21
1692.999942930325
 31
0.0
  0
LINE
  5
113D2
330
10E82
100
AcDbEntity
  8
寸法線
 62
     0
440
 16777216
370
    -2
100
AcDbLine
 10
2612.145022538207
 20
1616.999942930325
 30
0.0
 11
2612.145022538207
 21
1596.999942930325
 31
0.0
  0
LINE
  5
113D3
330
10E82
100
AcDbEntity
  8
寸法線
 62
     0
440
 16777216
370
    -2
100
AcDbLine
 10
2612.145022538207
 20
1652.999942930325
 30
0.0
 11
2612.145022538207
 21
1636.999942930325
 31
0.0
  0
INSERT
  5
113D4
330
10E82
100
AcDbEntity
  8
寸法線
 62
     0
440
 16777216
370
    -2
100
AcDbBlockReference
  2
_OPEN
 10
2612.145022538207
 20
1652.999942930325
 30
0.0
 41
20.0
 42
20.0
 43
20.0
 50
270.0
  0
INSERT
  5
113D5
330
10E82
100
AcDbEntity
  8
寸法線
 62
     0
440
 16777216
370
    -2
100
AcDbBlockReference
  2
_OPEN
 10
2612.145022538207
 20
1636.999942930325
 30
0.0
 41
20.0
 42
20.0
 43
20.0
 50
90.0
  0
MTEXT
  5
113D6
330
10E82
100
AcDbEntity
  8
寸法線
 62
     0
440
 16777216
100
AcDbMText
 10
2590.895022538207
 20
1644.999942930324
 30
0.0
 40
25.0
 41
0.0
 46
0.0
 71
     5
 72
     1
  1
\A1;16
 11
0.0000000000000001
 21
1.0
 31
0.0
 73
     1
 44
1.0
  0
POINT
  5
113D7
330
10E82
100
AcDbEntity
  8
Defpoints
 62
     0
440
 16777216
100
AcDbPoint
 10
2532.14502253821
 20
1652.999942930325
 30
0.0
  0
POINT
  5
113D8
330
10E82
100
AcDbEntity
  8
Defpoints
 62
     0
440
 16777216
100
AcDbPoint
 10
2532.14502253821
 20
1636.999942930325
 30
0.0
  0
POINT
  5
113D9
330
10E82
100
AcDbEntity
  8
Defpoints
 62
     0
440
 16777216
100
AcDbPoint
 10
2612.145022538207
 20
1636.999942930325
 30
0.0
  0
ENDBLK
  5
10E84
330
10E82
100
AcDbEntity
  8
0
100
AcDbBlockEnd
  0
BLOCK
  5
10E91
330
10E90
100
AcDbEntity
  8
0
100
AcDbBlockBegin
  2
*D6
 70
     1
 10
0.0
 20
0.0
 30
0.0
  3
*D6
  1

  0
LINE
  5
113DA
330
10E90
100
AcDbEntity
  8
寸法線
 62
     0
440
 16777216
370
    -2
100
AcDbLine
 10
2777.395022538211
 20
2225.999931484745
 30
0.0
 11
2696.14494291213
 21
2225.999931484745
 31
0.0
  0
LINE
  5
113DB
330
10E90
100
AcDbEntity
  8
寸法線
 62
     0
440
 16777216
370
    -2
100
AcDbLine
 10
2777.395022538211
 20
2213.999931484745
 30
0.0
 11
2696.14494291213
 21
2213.999931484745
 31
0.0
  0
LINE
  5
113DC
330
10E90
100
AcDbEntity
  8
寸法線
 62
     0
440
 16777216
370
    -2
100
AcDbLine
 10
2706.144942912131
 20
2245.999931484745
 30
0.0
 11
2706.144942912131
 21
2265.999931484745
 31
0.0
  0
LINE
  5
113DD
330
10E90
100
AcDbEntity
  8
寸法線
 62
     0
440
 16777216
370
    -2
100
AcDbLine
 10
2706.144942912131
 20
2193.999931484745
 30
0.0
 11
2706.144942912131
 21
2173.999931484745
 31
0.0
  0
LINE
  5
113DE
330
10E90
100
AcDbEntity
  8
寸法線
 62
     0
440
 16777216
370
    -2
100
AcDbLine
 10
2706.144942912131
 20
2225.999931484745
 30
0.0
 11
2706.144942912131
 21
2213.999931484745
 31
0.0
  0
INSERT
  5
113DF
330
10E90
100
AcDbEntity
  8
寸法線
 62
     0
440
 16777216
370
    -2
100
AcDbBlockReference
  2
_OPEN
 10
2706.144942912131
 20
2225.999931484745
 30
0.0
 41
20.0
 42
20.0
 43
20.0
 50
270.0
  0
INSERT
  5
113E0
330
10E90
100
AcDbEntity
  8
寸法線
 62
     0
440
 16777216
370
    -2
100
AcDbBlockReference
  2
_OPEN
 10
2706.144942912131
 20
2213.999931484745
 30
0.0
 41
20.0
 42
20.0
 43
20.0
 50
90.0
  0
MTEXT
  5
113E1
330
10E90
100
AcDbEntity
  8
寸法線
 62
     0
440
 16777216
100
AcDbMText
 10
2684.892482282209
 20
2219.999931484744
 30
0.0
 40
25.0
 41
0.0
 46
0.0
 71
     5
 72
     1
  1
\A1;12
 11
0.0000000000000001
 21
1.0
 31
0.0
 73
     1
 44
1.0
  0
POINT
  5
113E2
330
10E90
100
AcDbEntity
  8
Defpoints
 62
     0
440
 16777216
100
AcDbPoint
 10
2786.145022538211
 20
2225.999931484745
 30
0.0
  0
POINT
  5
113E3
330
10E90
100
AcDbEntity
  8
Defpoints
 62
     0
440
 16777216
100
AcDbPoint
 10
2786.145022538211
 20
2213.999931484745
 30
0.0
  0
POINT
  5
113E4
330
10E90
100
AcDbEntity
  8
Defpoints
 62
     0
440
 16777216
100
AcDbPoint
 10
2706.144942912131
 20
2213.999931484745
 30
0.0
  0
ENDBLK
  5
10E92
330
10E90
100
AcDbEntity
  8
0
100
AcDbBlockEnd
  0
BLOCK
  5
10E9F
330
10E9E
100
AcDbEntity
  8
0
100
AcDbBlockBegin
  2
*D7
 70
     1
 10
0.0
 20
0.0
 30
0.0
  3
*D7
  1

  0
LINE
  5
113B9
330
10E9E
100
AcDbEntity
  8
寸法線
 62
     0
440
 16777216
370
    -2
100
AcDbLine
 10
1365.89506216443
 20
1394.99998263034
 30
0.0
 11
1462.145062164433
 21
1394.99998263034
 31
0.0
  0
LINE
  5
113BA
330
10E9E
100
AcDbEntity
  8
寸法線
 62
     0
440
 16777216
370
    -2
100
AcDbLine
 10
1360.89506216443
 20
1369.999982630339
 30
0.0
 11
1462.145062164433
 21
1369.999982630339
 31
0.0
  0
LINE
  5
113BB
330
10E9E
100
AcDbEntity
  8
寸法線
 62
     0
440
 16777216
370
    -2
100
AcDbLine
 10
1452.145062164432
 20
1414.999982630339
 30
0.0
 11
1452.145062164432
 21
1434.99998263034
 31
0.0
  0
LINE
  5
113BC
330
10E9E
100
AcDbEntity
  8
寸法線
 62
     0
440
 16777216
370
    -2
100
AcDbLine
 10
1452.145062164432
 20
1349.999982630339
 30
0.0
 11
1452.145062164432
 21
1329.999982630339
 31
0.0
  0
LINE
  5
113BD
330
10E9E
100
AcDbEntity
  8
寸法線
 62
     0
440
 16777216
370
    -2
100
AcDbLine
 10
1452.145062164432
 20
1394.99998263034
 30
0.0
 11
1452.145062164432
 21
1369.999982630339
 31
0.0
  0
INSERT
  5
113BE
330
10E9E
100
AcDbEntity
  8
寸法線
 62
     0
440
 16777216
370
    -2
100
AcDbBlockReference
  2
_OPEN
 10
1452.145062164432
 20
1394.99998263034
 30
0.0
 41
20.0
 42
20.0
 43
20.0
 50
270.0
  0
INSERT
  5
113BF
330
10E9E
100
AcDbEntity
  8
寸法線
 62
     0
440
 16777216
370
    -2
100
AcDbBlockReference
  2
_OPEN
 10
1452.145062164432
 20
1369.999982630339
 30
0.0
 41
20.0
 42
20.0
 43
20.0
 50
90.0
  0
MTEXT
  5
113C0
330
10E9E
100
AcDbEntity
  8
寸法線
 62
     0
440
 16777216
100
AcDbMText
 10
1430.892601534511
 20
1382.499982630339
 30
0.0
 40
25.0
 41
0.0
 46
0.0
 71
     5
 72
     1
  1
\A1;25
 11
0.0000000000000001
 21
1.0
 31
0.0
 73
     1
 44
1.0
  0
POINT
  5
113C1
330
10E9E
100
AcDbEntity
  8
Defpoints
 62
     0
440
 16777216
100
AcDbPoint
 10
1357.14506216443
 20
1394.99998263034
 30
0.0
  0
POINT
  5
113C2
330
10E9E
100
AcDbEntity
  8
Defpoints
 62
     0
440
 16777216
100
AcDbPoint
 10
1352.14506216443
 20
1369.999982630339
 30
0.0
  0
POINT
  5
113C3
330
10E9E
100
AcDbEntity
  8
Defpoints
 62
     0
440
 16777216
100
AcDbPoint
 10
1452.145062164432
 20
1369.999982630339
 30
0.0
  0
ENDBLK
  5
10EA0
330
10E9E
100
AcDbEntity
  8
0
100
AcDbBlockEnd
  0
BLOCK
  5
10EAD
330
10EAC
100
AcDbEntity
  8
0
100
AcDbBlockBegin
  2
*D8
 70
     1
 10
0.0
 20
0.0
 30
0.0
  3
*D8
  1

  0
LINE
  5
113E5
330
10EAC
100
AcDbEntity
  8
寸法線
 62
     0
440
 16777216
370
    -2
100
AcDbLine
 10
3766.581336855639
 20
2061.249962780316
 30
0.0
 11
3766.581336855639
 21
1939.999942967206
 31
0.0
  0
LINE
  5
113E6
330
10EAC
100
AcDbEntity
  8
寸法線
 62
     0
440
 16777216
370
    -2
100
AcDbLine
 10
3466.581336855639
 20
2061.249962780316
 30
0.0
 11
3466.581336855639
 21
1939.999942967206
 31
0.0
  0
LINE
  5
113E7
330
10EAC
100
AcDbEntity
  8
寸法線
 62
     0
440
 16777216
370
    -2
100
AcDbLine
 10
3746.581336855639
 20
1949.999942967206
 30
0.0
 11
3486.581336855639
 21
1949.999942967206
 31
0.0
  0
INSERT
  5
113E8
330
10EAC
100
AcDbEntity
  8
寸法線
 62
     0
440
 16777216
370
    -2
100
AcDbBlockReference
  2
_OPEN
 10
3766.581336855639
 20
1949.999942967206
 30
0.0
 41
20.0
 42
20.0
 43
20.0
  0
INSERT
  5
113E9
330
10EAC
100
AcDbEntity
  8
寸法線
 62
     0
440
 16777216
370
    -2
100
AcDbBlockReference
  2
_OPEN
 10
3466.581336855639
 20
1949.999942967206
 30
0.0
 41
20.0
 42
20.0
 43
20.0
 50
180.0
  0
MTEXT
  5
113EA
330
10EAC
100
AcDbEntity
  8
寸法線
 62
     0
440
 16777216
100
AcDbMText
 10
3616.581336855639
 20
1971.249942967206
 30
0.0
 40
25.0
 41
0.0
 46
0.0
 71
     5
 72
     1
  1
\A1;300
 73
     1
 44
1.0
  0
POINT
  5
113EB
330
10EAC
100
AcDbEntity
  8
Defpoints
 62
     0
440
 16777216
100
AcDbPoint
 10
3766.581336855639
 20
2069.999962780316
 30
0.0
  0
POINT
  5
113EC
330
10EAC
100
AcDbEntity
  8
Defpoints
 62
     0
440
 16777216
100
AcDbPoint
 10
3466.581336855639
 20
2069.999962780316
 30
0.0
  0
POINT
  5
113ED
330
10EAC
100
AcDbEntity
  8
Defpoints
 62
     0
440
 16777216
100
AcDbPoint
 10
3466.581336855639
 20
1949.999942967206
 30
0.0
  0
ENDBLK
  5
10EAE
330
10EAC
100
AcDbEntity
  8
0
100
AcDbBlockEnd
  0
BLOCK
  5
10EB9
330
10EB8
100
AcDbEntity
  8
0
100
AcDbBlockBegin
  2
*D9
 70
     1
 10
0.0
 20
0.0
 30
0.0
  3
*D9
  1

  0
LINE
  5
113EE
330
10EB8
100
AcDbEntity
  8
寸法線
 62
     0
440
 16777216
370
    -2
100
AcDbLine
 10
3457.831336855641
 20
2369.999982593426
 30
0.0
 11
3336.581336855638
 21
2369.999982593426
 31
0.0
  0
LINE
  5
113EF
330
10EB8
100
AcDbEntity
  8
寸法線
 62
     0
440
 16777216
370
    -2
100
AcDbLine
 10
3457.831336855639
 20
2069.999962780316
 30
0.0
 11
3336.581336855638
 21
2069.999962780316
 31
0.0
  0
LINE
  5
113F0
330
10EB8
100
AcDbEntity
  8
寸法線
 62
     0
440
 16777216
370
    -2
100
AcDbLine
 10
3346.581336855638
 20
2349.999982593426
 30
0.0
 11
3346.581336855638
 21
2089.999962780316
 31
0.0
  0
INSERT
  5
113F1
330
10EB8
100
AcDbEntity
  8
寸法線
 62
     0
440
 16777216
370
    -2
100
AcDbBlockReference
  2
_OPEN
 10
3346.581336855638
 20
2369.999982593426
 30
0.0
 41
20.0
 42
20.0
 43
20.0
 50
90.0
  0
INSERT
  5
113F2
330
10EB8
100
AcDbEntity
  8
寸法線
 62
     0
440
 16777216
370
    -2
100
AcDbBlockReference
  2
_OPEN
 10
3346.581336855638
 20
2069.999962780316
 30
0.0
 41
20.0
 42
20.0
 43
20.0
 50
270.0
  0
MTEXT
  5
113F3
330
10EB8
100
AcDbEntity
  8
寸法線
 62
     0
440
 16777216
100
AcDbMText
 10
3325.331336855638
 20
2219.999972686871
 30
0.0
 40
25.0
 41
0.0
 46
0.0
 71
     5
 72
     1
  1
\A1;300
 11
0.0000000000000001
 21
1.0
 31
0.0
 73
     1
 44
1.0
  0
POINT
  5
113F4
330
10EB8
100
AcDbEntity
  8
Defpoints
 62
     0
440
 16777216
100
AcDbPoint
 10
3466.581336855642
 20
2369.999982593426
 30
0.0
  0
POINT
  5
113F5
330
10EB8
100
AcDbEntity
  8
Defpoints
 62
     0
440
 16777216
100
AcDbPoint
 10
3466.581336855639
 20
2069.999962780316
 30
0.0
  0
POINT
  5
113F6
330
10EB8
100
AcDbEntity
  8
Defpoints
 62
     0
440
 16777216
100
AcDbPoint
 10
3346.581336855638
 20
2069.999962780316
 30
0.0
  0
ENDBLK
  5
10EBA
330
10EB8
100
AcDbEntity
  8
0
100
AcDbBlockEnd
  0
BLOCK
  5
10EC5
330
10EC4
100
AcDbEntity
  8
0
100
AcDbBlockBegin
  2
*D10
 70
     1
 10
0.0
 20
0.0
 30
0.0
  3
*D10
  1

  0
LINE
  5
113F7
330
10EC4
100
AcDbEntity
  8
寸法線
 62
     0
440
 16777216
370
    -2
100
AcDbLine
 10
3607.831356762162
 20
1669.999944170492
 30
0.0
 11
3515.74870180377
 21
1669.999944170492
 31
0.0
  0
LINE
  5
113F8
330
10EC4
100
AcDbEntity
  8
寸法線
 62
     0
440
 16777216
370
    -2
100
AcDbLine
 10
3572.831355465479
 20
1519.999982630339
 30
0.0
 11
3515.74870180377
 21
1519.999982630339
 31
0.0
  0
LINE
  5
113F9
330
10EC4
100
AcDbEntity
  8
寸法線
 62
     0
440
 16777216
370
    -2
100
AcDbLine
 10
3525.74870180377
 20
1649.999944170492
 30
0.0
 11
3525.74870180377
 21
1539.999982630339
 31
0.0
  0
INSERT
  5
113FA
330
10EC4
100
AcDbEntity
  8
寸法線
 62
     0
440
 16777216
370
    -2
100
AcDbBlockReference
  2
_OPEN
 10
3525.74870180377
 20
1669.999944170492
 30
0.0
 41
20.0
 42
20.0
 43
20.0
 50
90.0
  0
INSERT
  5
113FB
330
10EC4
100
AcDbEntity
  8
寸法線
 62
     0
440
 16777216
370
    -2
100
AcDbBlockReference
  2
_OPEN
 10
3525.74870180377
 20
1519.999982630339
 30
0.0
 41
20.0
 42
20.0
 43
20.0
 50
270.0
  0
MTEXT
  5
113FC
330
10EC4
100
AcDbEntity
  8
寸法線
 62
     0
440
 16777216
100
AcDbMText
 10
3504.49870180377
 20
1594.999963400414
 30
0.0
 40
25.0
 41
0.0
 46
0.0
 71
     5
 72
     1
  1
\A1;150
 11
0.0000000000000001
 21
1.0
 31
0.0
 73
     1
 44
1.0
  0
POINT
  5
113FD
330
10EC4
100
AcDbEntity
  8
Defpoints
 62
     0
440
 16777216
100
AcDbPoint
 10
3616.581356762162
 20
1669.999944170492
 30
0.0
  0
POINT
  5
113FE
330
10EC4
100
AcDbEntity
  8
Defpoints
 62
     0
440
 16777216
100
AcDbPoint
 10
3581.581355465479
 20
1519.999982630339
 30
0.0
  0
POINT
  5
113FF
330
10EC4
100
AcDbEntity
  8
Defpoints
 62
     0
440
 16777216
100
AcDbPoint
 10
3525.74870180377
 20
1519.999982630339
 30
0.0
  0
ENDBLK
  5
10EC6
330
10EC4
100
AcDbEntity
  8
0
100
AcDbBlockEnd
  0
BLOCK
  5
10ED1
330
10ED0
100
AcDbEntity
  8
0
100
AcDbBlockBegin
  2
*D11
 70
     1
 10
0.0
 20
0.0
 30
0.0
  3
*D11
  1

  0
LINE
  5
11400
330
10ED0
100
AcDbEntity
  8
寸法線
 62
     0
440
 16777216
370
    -2
100
AcDbLine
 10
3607.831356762162
 20
1370.000021090187
 30
0.0
 11
3515.748701803772
 21
1370.000021090186
 31
0.0
  0
LINE
  5
11401
330
10ED0
100
AcDbEntity
  8
寸法線
 62
     0
440
 16777216
370
    -2
100
AcDbLine
 10
3572.831355465479
 20
1519.999982630339
 30
0.0
 11
3515.748701803772
 21
1519.999982630339
 31
0.0
  0
LINE
  5
11402
330
10ED0
100
AcDbEntity
  8
寸法線
 62
     0
440
 16777216
370
    -2
100
AcDbLine
 10
3525.748701803772
 20
1390.000021090186
 30
0.0
 11
3525.748701803772
 21
1499.999982630339
 31
0.0
  0
INSERT
  5
11403
330
10ED0
100
AcDbEntity
  8
寸法線
 62
     0
440
 16777216
370
    -2
100
AcDbBlockReference
  2
_OPEN
 10
3525.748701803772
 20
1370.000021090186
 30
0.0
 41
20.0
 42
20.0
 43
20.0
 50
270.0
  0
INSERT
  5
11404
330
10ED0
100
AcDbEntity
  8
寸法線
 62
     0
440
 16777216
370
    -2
100
AcDbBlockReference
  2
_OPEN
 10
3525.748701803772
 20
1519.999982630339
 30
0.0
 41
20.0
 42
20.0
 43
20.0
 50
90.0
  0
MTEXT
  5
11405
330
10ED0
100
AcDbEntity
  8
寸法線
 62
     0
440
 16777216
100
AcDbMText
 10
3504.498701803772
 20
1445.000001860261
 30
0.0
 40
25.0
 41
0.0
 46
0.0
 71
     5
 72
     1
  1
\A1;150
 11
0.0000000000000001
 21
1.0
 31
0.0
 73
     1
 44
1.0
  0
POINT
  5
11406
330
10ED0
100
AcDbEntity
  8
Defpoints
 62
     0
440
 16777216
100
AcDbPoint
 10
3616.581356762162
 20
1370.000021090187
 30
0.0
  0
POINT
  5
11407
330
10ED0
100
AcDbEntity
  8
Defpoints
 62
     0
440
 16777216
100
AcDbPoint
 10
3581.581355465479
 20
1519.999982630339
 30
0.0
  0
POINT
  5
11408
330
10ED0
100
AcDbEntity
  8
Defpoints
 62
     0
440
 16777216
100
AcDbPoint
 10
3525.748701803772
 20
1519.999982630339
 30
0.0
  0
ENDBLK
  5
10ED2
330
10ED0
100
AcDbEntity
  8
0
100
AcDbBlockEnd
  0
BLOCK
  5
10EDD
330
10EDC
100
AcDbEntity
  8
0
100
AcDbBlockBegin
  2
*D12
 70
     1
 10
0.0
 20
0.0
 30
0.0
  3
*D12
  1

  0
LINE
  5
11426
330
10EDC
100
AcDbEntity
  8
寸法線
 62
     0
440
 16777216
370
    -2
100
AcDbLine
 10
1751.999996414961
 20
491.25
 30
0.0
 11
1751.999996414961
 21
360.0
 31
0.0
  0
LINE
  5
11427
330
10EDC
100
AcDbEntity
  8
寸法線
 62
     0
440
 16777216
370
    -2
100
AcDbLine
 10
1783.999996414961
 20
481.2500182446092
 30
0.0
 11
1783.999996414961
 21
360.0
 31
0.0
  0
LINE
  5
11428
330
10EDC
100
AcDbEntity
  8
寸法線
 62
     0
440
 16777216
370
    -2
100
AcDbLine
 10
1731.999996414961
 20
370.0
 30
0.0
 11
1711.999996414961
 21
370.0
 31
0.0
  0
LINE
  5
11429
330
10EDC
100
AcDbEntity
  8
寸法線
 62
     0
440
 16777216
370
    -2
100
AcDbLine
 10
1803.999996414961
 20
370.0
 30
0.0
 11
1823.999996414961
 21
370.0
 31
0.0
  0
LINE
  5
1142A
330
10EDC
100
AcDbEntity
  8
寸法線
 62
     0
440
 16777216
370
    -2
100
AcDbLine
 10
1751.999996414961
 20
370.0
 30
0.0
 11
1783.999996414961
 21
370.0
 31
0.0
  0
INSERT
  5
1142B
330
10EDC
100
AcDbEntity
  8
寸法線
 62
     0
440
 16777216
370
    -2
100
AcDbBlockReference
  2
_OPEN
 10
1751.999996414961
 20
370.0
 30
0.0
 41
20.0
 42
20.0
 43
20.0
  0
INSERT
  5
1142C
330
10EDC
100
AcDbEntity
  8
寸法線
 62
     0
440
 16777216
370
    -2
100
AcDbBlockReference
  2
_OPEN
 10
1783.999996414961
 20
370.0
 30
0.0
 41
20.0
 42
20.0
 43
20.0
 50
180.0
  0
MTEXT
  5
1142D
330
10EDC
100
AcDbEntity
  8
寸法線
 62
     0
440
 16777216
100
AcDbMText
 10
1767.999996414961
 20
391.2524606299212
 30
0.0
 40
25.0
 41
0.0
 46
0.0
 71
     5
 72
     1
  1
\A1;32
 73
     1
 44
1.0
  0
POINT
  5
1142E
330
10EDC
100
AcDbEntity
  8
Defpoints
 62
     0
440
 16777216
100
AcDbPoint
 10
1751.999996414961
 20
500.0
 30
0.0
  0
POINT
  5
1142F
330
10EDC
100
AcDbEntity
  8
Defpoints
 62
     0
440
 16777216
100
AcDbPoint
 10
1783.999996414961
 20
490.0000182446092
 30
0.0
  0
POINT
  5
11430
330
10EDC
100
AcDbEntity
  8
Defpoints
 62
     0
440
 16777216
100
AcDbPoint
 10
1783.999996414961
 20
370.0
 30
0.0
  0
ENDBLK
  5
10EDE
330
10EDC
100
AcDbEntity
  8
0
100
AcDbBlockEnd
  0
BLOCK
  5
10EEB
330
10EEA
100
AcDbEntity
  8
0
100
AcDbBlockBegin
  2
*D13
 70
     1
 10
0.0
 20
0.0
 30
0.0
  3
*D13
  1

  0
LINE
  5
11431
330
10EEA
100
AcDbEntity
  8
寸法線
 62
     0
440
 16777216
370
    -2
100
AcDbLine
 10
1399.999996414961
 20
481.25
 30
0.0
 11
1399.999996414961
 21
280.0
 31
0.0
  0
LINE
  5
11432
330
10EEA
100
AcDbEntity
  8
寸法線
 62
     0
440
 16777216
370
    -2
100
AcDbLine
 10
1415.999996414961
 20
481.25
 30
0.0
 11
1415.999996414961
 21
280.0
 31
0.0
  0
LINE
  5
11433
330
10EEA
100
AcDbEntity
  8
寸法線
 62
     0
440
 16777216
370
    -2
100
AcDbLine
 10
1379.999996414961
 20
290.0
 30
0.0
 11
1359.999996414961
 21
290.0
 31
0.0
  0
LINE
  5
11434
330
10EEA
100
AcDbEntity
  8
寸法線
 62
     0
440
 16777216
370
    -2
100
AcDbLine
 10
1435.999996414961
 20
290.0
 30
0.0
 11
1455.999996414961
 21
290.0
 31
0.0
  0
LINE
  5
11435
330
10EEA
100
AcDbEntity
  8
寸法線
 62
     0
440
 16777216
370
    -2
100
AcDbLine
 10
1399.999996414961
 20
290.0
 30
0.0
 11
1415.999996414961
 21
290.0
 31
0.0
  0
INSERT
  5
11436
330
10EEA
100
AcDbEntity
  8
寸法線
 62
     0
440
 16777216
370
    -2
100
AcDbBlockReference
  2
_OPEN
 10
1399.999996414961
 20
290.0
 30
0.0
 41
20.0
 42
20.0
 43
20.0
  0
INSERT
  5
11437
330
10EEA
100
AcDbEntity
  8
寸法線
 62
     0
440
 16777216
370
    -2
100
AcDbBlockReference
  2
_OPEN
 10
1415.999996414961
 20
290.0
 30
0.0
 41
20.0
 42
20.0
 43
20.0
 50
180.0
  0
MTEXT
  5
11438
330
10EEA
100
AcDbEntity
  8
寸法線
 62
     0
440
 16777216
100
AcDbMText
 10
1407.999996414961
 20
311.25
 30
0.0
 40
25.0
 41
0.0
 46
0.0
 71
     5
 72
     1
  1
\A1;16
 73
     1
 44
1.0
  0
POINT
  5
11439
330
10EEA
100
AcDbEntity
  8
Defpoints
 62
     0
440
 16777216
100
AcDbPoint
 10
1399.999996414961
 20
490.0
 30
0.0
  0
POINT
  5
1143A
330
10EEA
100
AcDbEntity
  8
Defpoints
 62
     0
440
 16777216
100
AcDbPoint
 10
1415.999996414961
 20
490.0
 30
0.0
  0
POINT
  5
1143B
330
10EEA
100
AcDbEntity
  8
Defpoints
 62
     0
440
 16777216
100
AcDbPoint
 10
1415.999996414961
 20
290.0
 30
0.0
  0
ENDBLK
  5
10EEC
330
10EEA
100
AcDbEntity
  8
0
100
AcDbBlockEnd
  0
BLOCK
  5
10EF9
330
10EF8
100
AcDbEntity
  8
0
100
AcDbBlockBegin
  2
*D14
 70
     1
 10
0.0
 20
0.0
 30
0.0
  3
*D14
  1

  0
LINE
  5
1143C
330
10EF8
100
AcDbEntity
  8
寸法線
 62
     0
440
 16777216
370
    -2
100
AcDbLine
 10
1415.999996414961
 20
481.2500182446092
 30
0.0
 11
1415.999996414961
 21
280.0
 31
0.0
  0
LINE
  5
1143D
330
10EF8
100
AcDbEntity
  8
寸法線
 62
     0
440
 16777216
370
    -2
100
AcDbLine
 10
1783.999996414961
 20
481.25
 30
0.0
 11
1783.999996414961
 21
280.0
 31
0.0
  0
LINE
  5
1143E
330
10EF8
100
AcDbEntity
  8
寸法線
 62
     0
440
 16777216
370
    -2
100
AcDbLine
 10
1435.999996414961
 20
290.0
 30
0.0
 11
1763.999996414961
 21
290.0
 31
0.0
  0
INSERT
  5
1143F
330
10EF8
100
AcDbEntity
  8
寸法線
 62
     0
440
 16777216
370
    -2
100
AcDbBlockReference
  2
_OPEN
 10
1415.999996414961
 20
290.0
 30
0.0
 41
20.0
 42
20.0
 43
20.0
 50
180.0
  0
INSERT
  5
11440
330
10EF8
100
AcDbEntity
  8
寸法線
 62
     0
440
 16777216
370
    -2
100
AcDbBlockReference
  2
_OPEN
 10
1783.999996414961
 20
290.0
 30
0.0
 41
20.0
 42
20.0
 43
20.0
  0
MTEXT
  5
11441
330
10EF8
100
AcDbEntity
  8
寸法線
 62
     0
440
 16777216
100
AcDbMText
 10
1599.999996414961
 20
311.25
 30
0.0
 40
25.0
 41
0.0
 46
0.0
 71
     5
 72
     1
  1
\A1;368
 73
     1
 44
1.0
  0
POINT
  5
11442
330
10EF8
100
AcDbEntity
  8
Defpoints
 62
     0
440
 16777216
100
AcDbPoint
 10
1415.999996414961
 20
490.0000182446092
 30
0.0
  0
POINT
  5
11443
330
10EF8
100
AcDbEntity
  8
Defpoints
 62
     0
440
 16777216
100
AcDbPoint
 10
1783.999996414961
 20
490.0
 30
0.0
  0
POINT
  5
11444
330
10EF8
100
AcDbEntity
  8
Defpoints
 62
     0
440
 16777216
100
AcDbPoint
 10
1783.999996414961
 20
290.0
 30
0.0
  0
ENDBLK
  5
10EFA
330
10EF8
100
AcDbEntity
  8
0
100
AcDbBlockEnd
  0
BLOCK
  5
10F05
330
10F04
100
AcDbEntity
  8
0
100
AcDbBlockBegin
  2
*D15
 70
     1
 10
0.0
 20
0.0
 30
0.0
  3
*D15
  1

  0
LINE
  5
11445
330
10F04
100
AcDbEntity
  8
寸法線
 62
     0
440
 16777216
370
    -2
100
AcDbLine
 10
1783.999996414961
 20
481.25
 30
0.0
 11
1783.999996414961
 21
280.0
 31
0.0
  0
LINE
  5
11446
330
10F04
100
AcDbEntity
  8
寸法線
 62
     0
440
 16777216
370
    -2
100
AcDbLine
 10
1799.999996414961
 20
481.25
 30
0.0
 11
1799.999996414961
 21
280.0
 31
0.0
  0
LINE
  5
11447
330
10F04
100
AcDbEntity
  8
寸法線
 62
     0
440
 16777216
370
    -2
100
AcDbLine
 10
1763.999996414961
 20
290.0
 30
0.0
 11
1743.999996414961
 21
290.0
 31
0.0
  0
LINE
  5
11448
330
10F04
100
AcDbEntity
  8
寸法線
 62
     0
440
 16777216
370
    -2
100
AcDbLine
 10
1819.999996414961
 20
290.0
 30
0.0
 11
1839.999996414961
 21
290.0
 31
0.0
  0
LINE
  5
11449
330
10F04
100
AcDbEntity
  8
寸法線
 62
     0
440
 16777216
370
    -2
100
AcDbLine
 10
1783.999996414961
 20
290.0
 30
0.0
 11
1799.999996414961
 21
290.0
 31
0.0
  0
INSERT
  5
1144A
330
10F04
100
AcDbEntity
  8
寸法線
 62
     0
440
 16777216
370
    -2
100
AcDbBlockReference
  2
_OPEN
 10
1783.999996414961
 20
290.0
 30
0.0
 41
20.0
 42
20.0
 43
20.0
  0
INSERT
  5
1144B
330
10F04
100
AcDbEntity
  8
寸法線
 62
     0
440
 16777216
370
    -2
100
AcDbBlockReference
  2
_OPEN
 10
1799.999996414961
 20
290.0
 30
0.0
 41
20.0
 42
20.0
 43
20.0
 50
180.0
  0
MTEXT
  5
1144C
330
10F04
100
AcDbEntity
  8
寸法線
 62
     0
440
 16777216
100
AcDbMText
 10
1791.999996414961
 20
311.25
 30
0.0
 40
25.0
 41
0.0
 46
0.0
 71
     5
 72
     1
  1
\A1;16
 73
     1
 44
1.0
  0
POINT
  5
1144D
330
10F04
100
AcDbEntity
  8
Defpoints
 62
     0
440
 16777216
100
AcDbPoint
 10
1783.999996414961
 20
490.0
 30
0.0
  0
POINT
  5
1144E
330
10F04
100
AcDbEntity
  8
Defpoints
 62
     0
440
 16777216
100
AcDbPoint
 10
1799.999996414961
 20
490.0
 30
0.0
  0
POINT
  5
1144F
330
10F04
100
AcDbEntity
  8
Defpoints
 62
     0
440
 16777216
100
AcDbPoint
 10
1799.999996414961
 20
290.0
 30
0.0
  0
ENDBLK
  5
10F06
330
10F04
100
AcDbEntity
  8
0
100
AcDbBlockEnd
  0
BLOCK
  5
10F13
330
10F12
100
AcDbEntity
  8
0
100
AcDbBlockBegin
  2
*D16
 70
     1
 10
0.0
 20
0.0
 30
0.0
  3
*D16
  1

  0
LINE
  5
11450
330
10F12
100
AcDbEntity
  8
寸法線
 62
     0
440
 16777216
370
    -2
100
AcDbLine
 10
1399.999996414961
 20
481.25
 30
0.0
 11
1399.999996414961
 21
200.0
 31
0.0
  0
LINE
  5
11451
330
10F12
100
AcDbEntity
  8
寸法線
 62
     0
440
 16777216
370
    -2
100
AcDbLine
 10
1799.999996414961
 20
481.25
 30
0.0
 11
1799.999996414961
 21
200.0
 31
0.0
  0
LINE
  5
11452
330
10F12
100
AcDbEntity
  8
寸法線
 62
     0
440
 16777216
370
    -2
100
AcDbLine
 10
1419.999996414961
 20
210.0
 30
0.0
 11
1779.999996414961
 21
210.0
 31
0.0
  0
INSERT
  5
11453
330
10F12
100
AcDbEntity
  8
寸法線
 62
     0
440
 16777216
370
    -2
100
AcDbBlockReference
  2
_OPEN
 10
1399.999996414961
 20
210.0
 30
0.0
 41
20.0
 42
20.0
 43
20.0
 50
180.0
  0
INSERT
  5
11454
330
10F12
100
AcDbEntity
  8
寸法線
 62
     0
440
 16777216
370
    -2
100
AcDbBlockReference
  2
_OPEN
 10
1799.999996414961
 20
210.0
 30
0.0
 41
20.0
 42
20.0
 43
20.0
  0
MTEXT
  5
11455
330
10F12
100
AcDbEntity
  8
寸法線
 62
     0
440
 16777216
100
AcDbMText
 10
1599.999996414961
 20
231.25
 30
0.0
 40
25.0
 41
0.0
 46
0.0
 71
     5
 72
     1
  1
\A1;400
 73
     1
 44
1.0
  0
POINT
  5
11456
330
10F12
100
AcDbEntity
  8
Defpoints
 62
     0
440
 16777216
100
AcDbPoint
 10
1399.999996414961
 20
490.0
 30
0.0
  0
POINT
  5
11457
330
10F12
100
AcDbEntity
  8
Defpoints
 62
     0
440
 16777216
100
AcDbPoint
 10
1799.999996414961
 20
490.0
 30
0.0
  0
POINT
  5
11458
330
10F12
100
AcDbEntity
  8
Defpoints
 62
     0
440
 16777216
100
AcDbPoint
 10
1799.999996414961
 20
210.0
 30
0.0
  0
ENDBLK
  5
10F14
330
10F12
100
AcDbEntity
  8
0
100
AcDbBlockEnd
  0
BLOCK
  5
10F2D
330
10F2C
100
AcDbEntity
  8
0
100
AcDbBlockBegin
  2
*D17
 70
     1
 10
0.0
 20
0.0
 30
0.0
  3
*D17
  1

  0
LINE
  5
11464
330
10F2C
100
AcDbEntity
  8
寸法線
 62
     0
440
 16777216
370
    -2
100
AcDbLine
 10
1970.0
 20
481.2500182446092
 30
0.0
 11
1970.0
 21
360.0000182446092
 31
0.0
  0
LINE
  5
11465
330
10F2C
100
AcDbEntity
  8
寸法線
 62
     0
440
 16777216
370
    -2
100
AcDbLine
 10
2005.000399031124
 20
466.2504132727917
 30
0.0
 11
2005.000399031124
 21
360.0000182446092
 31
0.0
  0
LINE
  5
11466
330
10F2C
100
AcDbEntity
  8
寸法線
 62
     0
440
 16777216
370
    -2
100
AcDbLine
 10
1950.0
 20
370.0000182446093
 30
0.0
 11
1930.0
 21
370.0000182446093
 31
0.0
  0
LINE
  5
11467
330
10F2C
100
AcDbEntity
  8
寸法線
 62
     0
440
 16777216
370
    -2
100
AcDbLine
 10
2025.000399031124
 20
370.0000182446093
 30
0.0
 11
2045.000399031124
 21
370.0000182446093
 31
0.0
  0
LINE
  5
11468
330
10F2C
100
AcDbEntity
  8
寸法線
 62
     0
440
 16777216
370
    -2
100
AcDbLine
 10
1970.0
 20
370.0000182446093
 30
0.0
 11
2005.000399031124
 21
370.0000182446093
 31
0.0
  0
INSERT
  5
11469
330
10F2C
100
AcDbEntity
  8
寸法線
 62
     0
440
 16777216
370
    -2
100
AcDbBlockReference
  2
_OPEN
 10
1970.0
 20
370.0000182446093
 30
0.0
 41
20.0
 42
20.0
 43
20.0
  0
INSERT
  5
1146A
330
10F2C
100
AcDbEntity
  8
寸法線
 62
     0
440
 16777216
370
    -2
100
AcDbBlockReference
  2
_OPEN
 10
2005.000399031124
 20
370.0000182446093
 30
0.0
 41
20.0
 42
20.0
 43
20.0
 50
180.0
  0
MTEXT
  5
1146B
330
10F2C
100
AcDbEntity
  8
寸法線
 62
     0
440
 16777216
100
AcDbMText
 10
1987.500199515562
 20
391.2500182446093
 30
0.0
 40
25.0
 41
0.0
 46
0.0
 71
     5
 72
     1
  1
\A1;35
 73
     1
 44
1.0
  0
POINT
  5
1146C
330
10F2C
100
AcDbEntity
  8
Defpoints
 62
     0
440
 16777216
100
AcDbPoint
 10
1970.0
 20
490.0000182446092
 30
0.0
  0
POINT
  5
1146D
330
10F2C
100
AcDbEntity
  8
Defpoints
 62
     0
440
 16777216
100
AcDbPoint
 10
2005.000399031124
 20
475.0004132727918
 30
0.0
  0
POINT
  5
1146E
330
10F2C
100
AcDbEntity
  8
Defpoints
 62
     0
440
 16777216
100
AcDbPoint
 10
2005.000399031124
 20
370.0000182446093
 30
0.0
  0
ENDBLK
  5
10F2E
330
10F2C
100
AcDbEntity
  8
0
100
AcDbBlockEnd
  0
BLOCK
  5
10F3B
330
10F3A
100
AcDbEntity
  8
0
100
AcDbBlockBegin
  2
*D18
 70
     1
 10
0.0
 20
0.0
 30
0.0
  3
*D18
  1

  0
LINE
  5
1146F
330
10F3A
100
AcDbEntity
  8
寸法線
 62
     0
440
 16777216
370
    -2
100
AcDbLine
 10
2005.000399031124
 20
466.2504132727917
 30
0.0
 11
2005.000399031124
 21
360.0000182446092
 31
0.0
  0
LINE
  5
11470
330
10F3A
100
AcDbEntity
  8
寸法線
 62
     0
440
 16777216
370
    -2
100
AcDbLine
 10
2255.000399031124
 20
466.2504132727917
 30
0.0
 11
2255.000399031124
 21
360.0000182446092
 31
0.0
  0
LINE
  5
11471
330
10F3A
100
AcDbEntity
  8
寸法線
 62
     0
440
 16777216
370
    -2
100
AcDbLine
 10
2025.000399031124
 20
370.0000182446093
 30
0.0
 11
2235.000399031124
 21
370.0000182446093
 31
0.0
  0
INSERT
  5
11472
330
10F3A
100
AcDbEntity
  8
寸法線
 62
     0
440
 16777216
370
    -2
100
AcDbBlockReference
  2
_OPEN
 10
2005.000399031124
 20
370.0000182446093
 30
0.0
 41
20.0
 42
20.0
 43
20.0
 50
180.0
  0
INSERT
  5
11473
330
10F3A
100
AcDbEntity
  8
寸法線
 62
     0
440
 16777216
370
    -2
100
AcDbBlockReference
  2
_OPEN
 10
2255.000399031124
 20
370.0000182446093
 30
0.0
 41
20.0
 42
20.0
 43
20.0
  0
MTEXT
  5
11474
330
10F3A
100
AcDbEntity
  8
寸法線
 62
     0
440
 16777216
100
AcDbMText
 10
2130.000399031124
 20
391.2524788745305
 30
0.0
 40
25.0
 41
0.0
 46
0.0
 71
     5
 72
     1
  1
\A1;250
 73
     1
 44
1.0
  0
POINT
  5
11475
330
10F3A
100
AcDbEntity
  8
Defpoints
 62
     0
440
 16777216
100
AcDbPoint
 10
2005.000399031124
 20
475.0004132727918
 30
0.0
  0
POINT
  5
11476
330
10F3A
100
AcDbEntity
  8
Defpoints
 62
     0
440
 16777216
100
AcDbPoint
 10
2255.000399031124
 20
475.0004132727918
 30
0.0
  0
POINT
  5
11477
330
10F3A
100
AcDbEntity
  8
Defpoints
 62
     0
440
 16777216
100
AcDbPoint
 10
2255.000399031124
 20
370.0000182446093
 30
0.0
  0
ENDBLK
  5
10F3C
330
10F3A
100
AcDbEntity
  8
0
100
AcDbBlockEnd
  0
BLOCK
  5
10F47
330
10F46
100
AcDbEntity
  8
0
100
AcDbBlockBegin
  2
*D19
 70
     1
 10
0.0
 20
0.0
 30
0.0
  3
*D19
  1

  0
LINE
  5
11478
330
10F46
100
AcDbEntity
  8
寸法線
 62
     0
440
 16777216
370
    -2
100
AcDbLine
 10
2255.000399031124
 20
466.2504132727917
 30
0.0
 11
2255.000399031124
 21
360.0000182446092
 31
0.0
  0
LINE
  5
11479
330
10F46
100
AcDbEntity
  8
寸法線
 62
     0
440
 16777216
370
    -2
100
AcDbLine
 10
2290.0
 20
481.2500182446092
 30
0.0
 11
2290.0
 21
360.0000182446092
 31
0.0
  0
LINE
  5
1147A
330
10F46
100
AcDbEntity
  8
寸法線
 62
     0
440
 16777216
370
    -2
100
AcDbLine
 10
2235.000399031124
 20
370.0000182446093
 30
0.0
 11
2215.000399031124
 21
370.0000182446093
 31
0.0
  0
LINE
  5
1147B
330
10F46
100
AcDbEntity
  8
寸法線
 62
     0
440
 16777216
370
    -2
100
AcDbLine
 10
2310.0
 20
370.0000182446093
 30
0.0
 11
2330.0
 21
370.0000182446093
 31
0.0
  0
LINE
  5
1147C
330
10F46
100
AcDbEntity
  8
寸法線
 62
     0
440
 16777216
370
    -2
100
AcDbLine
 10
2255.000399031124
 20
370.0000182446093
 30
0.0
 11
2290.0
 21
370.0000182446093
 31
0.0
  0
INSERT
  5
1147D
330
10F46
100
AcDbEntity
  8
寸法線
 62
     0
440
 16777216
370
    -2
100
AcDbBlockReference
  2
_OPEN
 10
2255.000399031124
 20
370.0000182446093
 30
0.0
 41
20.0
 42
20.0
 43
20.0
  0
INSERT
  5
1147E
330
10F46
100
AcDbEntity
  8
寸法線
 62
     0
440
 16777216
370
    -2
100
AcDbBlockReference
  2
_OPEN
 10
2290.0
 20
370.0000182446093
 30
0.0
 41
20.0
 42
20.0
 43
20.0
 50
180.0
  0
MTEXT
  5
1147F
330
10F46
100
AcDbEntity
  8
寸法線
 62
     0
440
 16777216
100
AcDbMText
 10
2272.500199515562
 20
391.2500182446093
 30
0.0
 40
25.0
 41
0.0
 46
0.0
 71
     5
 72
     1
  1
\A1;35
 73
     1
 44
1.0
  0
POINT
  5
11480
330
10F46
100
AcDbEntity
  8
Defpoints
 62
     0
440
 16777216
100
AcDbPoint
 10
2255.000399031124
 20
475.0004132727918
 30
0.0
  0
POINT
  5
11481
330
10F46
100
AcDbEntity
  8
Defpoints
 62
     0
440
 16777216
100
AcDbPoint
 10
2290.0
 20
490.0000182446092
 30
0.0
  0
POINT
  5
11482
330
10F46
100
AcDbEntity
  8
Defpoints
 62
     0
440
 16777216
100
AcDbPoint
 10
2290.0
 20
370.0000182446093
 30
0.0
  0
ENDBLK
  5
10F48
330
10F46
100
AcDbEntity
  8
0
100
AcDbBlockEnd
  0
BLOCK
  5
10F55
330
10F54
100
AcDbEntity
  8
0
100
AcDbBlockBegin
  2
*D20
 70
     1
 10
0.0
 20
0.0
 30
0.0
  3
*D20
  1

  0
LINE
  5
11483
330
10F54
100
AcDbEntity
  8
寸法線
 62
     0
440
 16777216
370
    -2
100
AcDbLine
 10
2313.750399031124
 20
525.0004132727919
 30
0.0
 11
2420.000000000001
 21
525.0004132727919
 31
0.0
  0
LINE
  5
11484
330
10F54
100
AcDbEntity
  8
寸法線
 62
     0
440
 16777216
370
    -2
100
AcDbLine
 10
2313.750399031124
 20
775.0004132727922
 30
0.0
 11
2420.000000000001
 21
775.0004132727922
 31
0.0
  0
LINE
  5
11485
330
10F54
100
AcDbEntity
  8
寸法線
 62
     0
440
 16777216
370
    -2
100
AcDbLine
 10
2410.000000000001
 20
545.000413272792
 30
0.0
 11
2410.000000000001
 21
755.0004132727921
 31
0.0
  0
INSERT
  5
11486
330
10F54
100
AcDbEntity
  8
寸法線
 62
     0
440
 16777216
370
    -2
100
AcDbBlockReference
  2
_OPEN
 10
2410.000000000001
 20
525.0004132727919
 30
0.0
 41
20.0
 42
20.0
 43
20.0
 50
270.0
  0
INSERT
  5
11487
330
10F54
100
AcDbEntity
  8
寸法線
 62
     0
440
 16777216
370
    -2
100
AcDbBlockReference
  2
_OPEN
 10
2410.000000000001
 20
775.0004132727922
 30
0.0
 41
20.0
 42
20.0
 43
20.0
 50
90.0
  0
MTEXT
  5
11488
330
10F54
100
AcDbEntity
  8
寸法線
 62
     0
440
 16777216
100
AcDbMText
 10
2388.747539370079
 20
650.0004132727918
 30
0.0
 40
25.0
 41
0.0
 46
0.0
 71
     5
 72
     1
  1
\A1;250
 11
0.0000000000000001
 21
1.0
 31
0.0
 73
     1
 44
1.0
  0
POINT
  5
11489
330
10F54
100
AcDbEntity
  8
Defpoints
 62
     0
440
 16777216
100
AcDbPoint
 10
2305.000399031124
 20
525.0004132727919
 30
0.0
  0
POINT
  5
1148A
330
10F54
100
AcDbEntity
  8
Defpoints
 62
     0
440
 16777216
100
AcDbPoint
 10
2305.000399031124
 20
775.0004132727922
 30
0.0
  0
POINT
  5
1148B
330
10F54
100
AcDbEntity
  8
Defpoints
 62
     0
440
 16777216
100
AcDbPoint
 10
2410.000000000001
 20
775.0004132727922
 30
0.0
  0
ENDBLK
  5
10F56
330
10F54
100
AcDbEntity
  8
0
100
AcDbBlockEnd
  0
BLOCK
  5
10F61
330
10F60
100
AcDbEntity
  8
0
100
AcDbBlockBegin
  2
*D21
 70
     1
 10
0.0
 20
0.0
 30
0.0
  3
*D21
  1

  0
LINE
  5
1148C
330
10F60
100
AcDbEntity
  8
寸法線
 62
     0
440
 16777216
370
    -2
100
AcDbLine
 10
2298.750000000001
 20
490.0000182446095
 30
0.0
 11
2420.000000000001
 21
490.0000182446095
 31
0.0
  0
LINE
  5
1148D
330
10F60
100
AcDbEntity
  8
寸法線
 62
     0
440
 16777216
370
    -2
100
AcDbLine
 10
2313.750399031124
 20
525.0004132727919
 30
0.0
 11
2420.000000000001
 21
525.0004132727919
 31
0.0
  0
LINE
  5
1148E
330
10F60
100
AcDbEntity
  8
寸法線
 62
     0
440
 16777216
370
    -2
100
AcDbLine
 10
2410.000000000001
 20
470.0000182446094
 30
0.0
 11
2410.000000000001
 21
450.0000182446094
 31
0.0
  0
LINE
  5
1148F
330
10F60
100
AcDbEntity
  8
寸法線
 62
     0
440
 16777216
370
    -2
100
AcDbLine
 10
2410.000000000001
 20
545.000413272792
 30
0.0
 11
2410.000000000001
 21
565.000413272792
 31
0.0
  0
LINE
  5
11490
330
10F60
100
AcDbEntity
  8
寸法線
 62
     0
440
 16777216
370
    -2
100
AcDbLine
 10
2410.000000000001
 20
490.0000182446095
 30
0.0
 11
2410.000000000001
 21
525.0004132727919
 31
0.0
  0
INSERT
  5
11491
330
10F60
100
AcDbEntity
  8
寸法線
 62
     0
440
 16777216
370
    -2
100
AcDbBlockReference
  2
_OPEN
 10
2410.000000000001
 20
490.0000182446095
 30
0.0
 41
20.0
 42
20.0
 43
20.0
 50
90.0
  0
INSERT
  5
11492
330
10F60
100
AcDbEntity
  8
寸法線
 62
     0
440
 16777216
370
    -2
100
AcDbBlockReference
  2
_OPEN
 10
2410.000000000001
 20
525.0004132727919
 30
0.0
 41
20.0
 42
20.0
 43
20.0
 50
270.0
  0
MTEXT
  5
11493
330
10F60
100
AcDbEntity
  8
寸法線
 62
     0
440
 16777216
100
AcDbMText
 10
2388.75
 20
507.5002157586999
 30
0.0
 40
25.0
 41
0.0
 46
0.0
 71
     5
 72
     1
  1
\A1;35
 11
0.0000000000000001
 21
1.0
 31
0.0
 73
     1
 44
1.0
  0
POINT
  5
11494
330
10F60
100
AcDbEntity
  8
Defpoints
 62
     0
440
 16777216
100
AcDbPoint
 10
2290.000000000001
 20
490.0000182446095
 30
0.0
  0
POINT
  5
11495
330
10F60
100
AcDbEntity
  8
Defpoints
 62
     0
440
 16777216
100
AcDbPoint
 10
2305.000399031124
 20
525.0004132727919
 30
0.0
  0
POINT
  5
11496
330
10F60
100
AcDbEntity
  8
Defpoints
 62
     0
440
 16777216
100
AcDbPoint
 10
2410.000000000001
 20
525.0004132727919
 30
0.0
  0
ENDBLK
  5
10F62
330
10F60
100
AcDbEntity
  8
0
100
AcDbBlockEnd
  0
BLOCK
  5
10F6F
330
10F6E
100
AcDbEntity
  8
0
100
AcDbBlockBegin
  2
*D22
 70
     1
 10
0.0
 20
0.0
 30
0.0
  3
*D22
  1

  0
LINE
  5
11497
330
10F6E
100
AcDbEntity
  8
寸法線
 62
     0
440
 16777216
370
    -2
100
AcDbLine
 10
2313.750399031124
 20
775.0004132727922
 30
0.0
 11
2420.000000000001
 21
775.0004132727922
 31
0.0
  0
LINE
  5
11498
330
10F6E
100
AcDbEntity
  8
寸法線
 62
     0
440
 16777216
370
    -2
100
AcDbLine
 10
2298.750000000001
 20
810.0000182446096
 30
0.0
 11
2420.000000000001
 21
810.0000182446098
 31
0.0
  0
LINE
  5
11499
330
10F6E
100
AcDbEntity
  8
寸法線
 62
     0
440
 16777216
370
    -2
100
AcDbLine
 10
2410.000000000001
 20
755.0004132727921
 30
0.0
 11
2410.000000000001
 21
735.0004132727921
 31
0.0
  0
LINE
  5
1149A
330
10F6E
100
AcDbEntity
  8
寸法線
 62
     0
440
 16777216
370
    -2
100
AcDbLine
 10
2410.000000000001
 20
830.0000182446098
 30
0.0
 11
2410.000000000001
 21
850.0000182446097
 31
0.0
  0
LINE
  5
1149B
330
10F6E
100
AcDbEntity
  8
寸法線
 62
     0
440
 16777216
370
    -2
100
AcDbLine
 10
2410.000000000001
 20
775.0004132727922
 30
0.0
 11
2410.000000000001
 21
810.0000182446098
 31
0.0
  0
INSERT
  5
1149C
330
10F6E
100
AcDbEntity
  8
寸法線
 62
     0
440
 16777216
370
    -2
100
AcDbBlockReference
  2
_OPEN
 10
2410.000000000001
 20
775.0004132727922
 30
0.0
 41
20.0
 42
20.0
 43
20.0
 50
90.0
  0
INSERT
  5
1149D
330
10F6E
100
AcDbEntity
  8
寸法線
 62
     0
440
 16777216
370
    -2
100
AcDbBlockReference
  2
_OPEN
 10
2410.000000000001
 20
810.0000182446098
 30
0.0
 41
20.0
 42
20.0
 43
20.0
 50
270.0
  0
MTEXT
  5
1149E
330
10F6E
100
AcDbEntity
  8
寸法線
 62
     0
440
 16777216
100
AcDbMText
 10
2388.75
 20
792.5002157587002
 30
0.0
 40
25.0
 41
0.0
 46
0.0
 71
     5
 72
     1
  1
\A1;35
 11
0.0000000000000001
 21
1.0
 31
0.0
 73
     1
 44
1.0
  0
POINT
  5
1149F
330
10F6E
100
AcDbEntity
  8
Defpoints
 62
     0
440
 16777216
100
AcDbPoint
 10
2305.000399031124
 20
775.0004132727922
 30
0.0
  0
POINT
  5
114A0
330
10F6E
100
AcDbEntity
  8
Defpoints
 62
     0
440
 16777216
100
AcDbPoint
 10
2290.000000000001
 20
810.0000182446096
 30
0.0
  0
POINT
  5
114A1
330
10F6E
100
AcDbEntity
  8
Defpoints
 62
     0
440
 16777216
100
AcDbPoint
 10
2410.000000000001
 20
810.0000182446098
 30
0.0
  0
ENDBLK
  5
10F70
330
10F6E
100
AcDbEntity
  8
0
100
AcDbBlockEnd
  0
BLOCK
  5
10F7D
330
10F7C
100
AcDbEntity
  8
0
100
AcDbBlockBegin
  2
*D23
 70
     1
 10
0.0
 20
0.0
 30
0.0
  3
*D23
  1

  0
LINE
  5
114A2
330
10F7C
100
AcDbEntity
  8
寸法線
 62
     0
440
 16777216
370
    -2
100
AcDbLine
 10
352.145042351317
 20
2372.75
 30
0.0
 11
352.145042351317
 21
2539.999962780316
 31
0.0
  0
LINE
  5
114A3
330
10F7C
100
AcDbEntity
  8
寸法線
 62
     0
440
 16777216
370
    -2
100
AcDbLine
 10
368.1450621644281
 20
2378.749962780316
 30
0.0
 11
368.1450621644281
 21
2539.999962780316
 31
0.0
  0
LINE
  5
114A4
330
10F7C
100
AcDbEntity
  8
寸法線
 62
     0
440
 16777216
370
    -2
100
AcDbLine
 10
332.145042351317
 20
2529.999962780316
 30
0.0
 11
312.145042351317
 21
2529.999962780316
 31
0.0
  0
LINE
  5
114A5
330
10F7C
100
AcDbEntity
  8
寸法線
 62
     0
440
 16777216
370
    -2
100
AcDbLine
 10
388.1450621644281
 20
2529.999962780316
 30
0.0
 11
408.145062164428
 21
2529.999962780316
 31
0.0
  0
LINE
  5
114A6
330
10F7C
100
AcDbEntity
  8
寸法線
 62
     0
440
 16777216
370
    -2
100
AcDbLine
 10
352.145042351317
 20
2529.999962780316
 30
0.0
 11
368.1450621644281
 21
2529.999962780316
 31
0.0
  0
INSERT
  5
114A7
330
10F7C
100
AcDbEntity
  8
寸法線
 62
     0
440
 16777216
370
    -2
100
AcDbBlockReference
  2
_OPEN
 10
352.145042351317
 20
2529.999962780316
 30
0.0
 41
20.0
 42
20.0
 43
20.0
  0
INSERT
  5
114A8
330
10F7C
100
AcDbEntity
  8
寸法線
 62
     0
440
 16777216
370
    -2
100
AcDbBlockReference
  2
_OPEN
 10
368.1450621644281
 20
2529.999962780316
 30
0.0
 41
20.0
 42
20.0
 43
20.0
 50
180.0
  0
MTEXT
  5
114A9
330
10F7C
100
AcDbEntity
  8
寸法線
 62
     0
440
 16777216
100
AcDbMText
 10
360.1450522578725
 20
2551.249962780316
 30
0.0
 40
25.0
 41
0.0
 46
0.0
 71
     5
 72
     1
  1
\A1;16
 73
     1
 44
1.0
  0
POINT
  5
114AA
330
10F7C
100
AcDbEntity
  8
Defpoints
 62
     0
440
 16777216
100
AcDbPoint
 10
352.145042351317
 20
2364.0
 30
0.0
  0
POINT
  5
114AB
330
10F7C
100
AcDbEntity
  8
Defpoints
 62
     0
440
 16777216
100
AcDbPoint
 10
368.1450621644281
 20
2369.999962780316
 30
0.0
  0
POINT
  5
114AC
330
10F7C
100
AcDbEntity
  8
Defpoints
 62
     0
440
 16777216
100
AcDbPoint
 10
368.1450621644281
 20
2529.999962780316
 30
0.0
  0
ENDBLK
  5
10F7E
330
10F7C
100
AcDbEntity
  8
0
100
AcDbBlockEnd
  0
BLOCK
  5
10F8B
330
10F8A
100
AcDbEntity
  8
0
100
AcDbBlockBegin
  2
*D24
 70
     1
 10
0.0
 20
0.0
 30
0.0
  3
*D24
  1

  0
LINE
  5
114AD
330
10F8A
100
AcDbEntity
  8
寸法線
 62
     0
440
 16777216
370
    -2
100
AcDbLine
 10
368.1450621644281
 20
2378.749962780316
 30
0.0
 11
368.1450621644281
 21
2539.999962780316
 31
0.0
  0
LINE
  5
114AE
330
10F8A
100
AcDbEntity
  8
寸法線
 62
     0
440
 16777216
370
    -2
100
AcDbLine
 10
852.1451308353361
 20
2388.74998263027
 30
0.0
 11
852.1451308353361
 21
2539.999962780316
 31
0.0
  0
LINE
  5
114AF
330
10F8A
100
AcDbEntity
  8
寸法線
 62
     0
440
 16777216
370
    -2
100
AcDbLine
 10
388.1450621644281
 20
2529.999962780316
 30
0.0
 11
832.1451308353362
 21
2529.999962780316
 31
0.0
  0
INSERT
  5
114B0
330
10F8A
100
AcDbEntity
  8
寸法線
 62
     0
440
 16777216
370
    -2
100
AcDbBlockReference
  2
_OPEN
 10
368.1450621644281
 20
2529.999962780316
 30
0.0
 41
20.0
 42
20.0
 43
20.0
 50
180.0
  0
INSERT
  5
114B1
330
10F8A
100
AcDbEntity
  8
寸法線
 62
     0
440
 16777216
370
    -2
100
AcDbBlockReference
  2
_OPEN
 10
852.1451308353361
 20
2529.999962780316
 30
0.0
 41
20.0
 42
20.0
 43
20.0
  0
MTEXT
  5
114B2
330
10F8A
100
AcDbEntity
  8
寸法線
 62
     0
440
 16777216
100
AcDbMText
 10
610.1450697118298
 20
2551.249962780316
 30
0.0
 40
25.0
 41
0.0
 46
0.0
 71
     5
 72
     1
  1
\A1;484
 73
     1
 44
1.0
  0
POINT
  5
114B3
330
10F8A
100
AcDbEntity
  8
Defpoints
 62
     0
440
 16777216
100
AcDbPoint
 10
368.1450621644281
 20
2369.999962780316
 30
0.0
  0
POINT
  5
114B4
330
10F8A
100
AcDbEntity
  8
Defpoints
 62
     0
440
 16777216
100
AcDbPoint
 10
852.1451308353361
 20
2379.99998263027
 30
0.0
  0
POINT
  5
114B5
330
10F8A
100
AcDbEntity
  8
Defpoints
 62
     0
440
 16777216
100
AcDbPoint
 10
852.1451308353361
 20
2529.999962780316
 30
0.0
  0
ENDBLK
  5
10F8C
330
10F8A
100
AcDbEntity
  8
0
100
AcDbBlockEnd
  0
BLOCK
  5
10F97
330
10F96
100
AcDbEntity
  8
0
100
AcDbBlockBegin
  2
*D25
 70
     1
 10
0.0
 20
0.0
 30
0.0
  3
*D25
  1

  0
LINE
  5
114B6
330
10F96
100
AcDbEntity
  8
寸法線
 62
     0
440
 16777216
370
    -2
100
AcDbLine
 10
359.3950621644282
 20
2369.999962780317
 30
0.0
 11
222.1450423513173
 21
2369.999962780317
 31
0.0
  0
LINE
  5
114B7
330
10F96
100
AcDbEntity
  8
寸法線
 62
     0
440
 16777216
370
    -2
100
AcDbLine
 10
359.3950621644282
 20
2069.999962780317
 30
0.0
 11
222.1450423513174
 21
2069.999962780317
 31
0.0
  0
LINE
  5
114B8
330
10F96
100
AcDbEntity
  8
寸法線
 62
     0
440
 16777216
370
    -2
100
AcDbLine
 10
232.1450423513173
 20
2349.999962780317
 30
0.0
 11
232.1450423513173
 21
2089.999962780317
 31
0.0
  0
INSERT
  5
114B9
330
10F96
100
AcDbEntity
  8
寸法線
 62
     0
440
 16777216
370
    -2
100
AcDbBlockReference
  2
_OPEN
 10
232.1450423513173
 20
2369.999962780317
 30
0.0
 41
20.0
 42
20.0
 43
20.0
 50
90.0
  0
INSERT
  5
114BA
330
10F96
100
AcDbEntity
  8
寸法線
 62
     0
440
 16777216
370
    -2
100
AcDbBlockReference
  2
_OPEN
 10
232.1450423513173
 20
2069.999962780317
 30
0.0
 41
20.0
 42
20.0
 43
20.0
 50
270.0
  0
MTEXT
  5
114BB
330
10F96
100
AcDbEntity
  8
寸法線
 62
     0
440
 16777216
100
AcDbMText
 10
210.8950423513179
 20
2219.999962780316
 30
0.0
 40
25.0
 41
0.0
 46
0.0
 71
     5
 72
     1
  1
\A1;300
 11
0.0000000000000001
 21
1.0
 31
0.0
 73
     1
 44
1.0
  0
POINT
  5
114BC
330
10F96
100
AcDbEntity
  8
Defpoints
 62
     0
440
 16777216
100
AcDbPoint
 10
368.1450621644282
 20
2369.999962780317
 30
0.0
  0
POINT
  5
114BD
330
10F96
100
AcDbEntity
  8
Defpoints
 62
     0
440
 16777216
100
AcDbPoint
 10
368.1450621644282
 20
2069.999962780317
 30
0.0
  0
POINT
  5
114BE
330
10F96
100
AcDbEntity
  8
Defpoints
 62
     0
440
 16777216
100
AcDbPoint
 10
232.1450423513173
 20
2069.999962780317
 30
0.0
  0
ENDBLK
  5
10F98
330
10F96
100
AcDbEntity
  8
0
100
AcDbBlockEnd
  0
BLOCK
  5
10FA3
330
10FA2
100
AcDbEntity
  8
0
100
AcDbBlockBegin
  2
*D26
 70
     1
 10
0.0
 20
0.0
 30
0.0
  3
*D26
  1

  0
LINE
  5
114BF
330
10FA2
100
AcDbEntity
  8
寸法線
 62
     0
440
 16777216
370
    -2
100
AcDbLine
 10
352.145042351317
 20
2372.75
 30
0.0
 11
352.145042351317
 21
2619.999962780321
 31
0.0
  0
LINE
  5
114C0
330
10FA2
100
AcDbEntity
  8
寸法線
 62
     0
440
 16777216
370
    -2
100
AcDbLine
 10
852.1450622578422
 20
2388.749982630325
 30
0.0
 11
852.1450622578422
 21
2619.999962780321
 31
0.0
  0
LINE
  5
114C1
330
10FA2
100
AcDbEntity
  8
寸法線
 62
     0
440
 16777216
370
    -2
100
AcDbLine
 10
372.145042351317
 20
2609.999962780321
 30
0.0
 11
832.1450622578423
 21
2609.999962780321
 31
0.0
  0
INSERT
  5
114C2
330
10FA2
100
AcDbEntity
  8
寸法線
 62
     0
440
 16777216
370
    -2
100
AcDbBlockReference
  2
_OPEN
 10
352.145042351317
 20
2609.999962780321
 30
0.0
 41
20.0
 42
20.0
 43
20.0
 50
180.0
  0
INSERT
  5
114C3
330
10FA2
100
AcDbEntity
  8
寸法線
 62
     0
440
 16777216
370
    -2
100
AcDbBlockReference
  2
_OPEN
 10
852.1450622578422
 20
2609.999962780321
 30
0.0
 41
20.0
 42
20.0
 43
20.0
  0
MTEXT
  5
114C4
330
10FA2
100
AcDbEntity
  8
寸法線
 62
     0
440
 16777216
100
AcDbMText
 10
602.1450598052751
 20
2631.249962780321
 30
0.0
 40
25.0
 41
0.0
 46
0.0
 71
     5
 72
     1
  1
\A1;500
 73
     1
 44
1.0
  0
MTEXT
  5
114C5
330
10FA2
100
AcDbEntity
  8
寸法線
 62
     0
440
 16777216
100
AcDbMText
 10
602.1450598052751
 20
2588.749962780321
 30
0.0
 40
25.0
 41
0.0
 46
0.0
 71
     5
 72
     1
  1
\A1;H型鋼（連結部）
 73
     1
 44
1.0
  0
POINT
  5
114C6
330
10FA2
100
AcDbEntity
  8
Defpoints
 62
     0
440
 16777216
100
AcDbPoint
 10
352.145042351317
 20
2364.0
 30
0.0
  0
POINT
  5
114C7
330
10FA2
100
AcDbEntity
  8
Defpoints
 62
     0
440
 16777216
100
AcDbPoint
 10
852.1450622578422
 20
2379.999982630325
 30
0.0
  0
POINT
  5
114C8
330
10FA2
100
AcDbEntity
  8
Defpoints
 62
     0
440
 16777216
100
AcDbPoint
 10
852.1450622578422
 20
2609.999962780321
 30
0.0
  0
ENDBLK
  5
10FA4
330
10FA2
100
AcDbEntity
  8
0
100
AcDbBlockEnd
  0
BLOCK
  5
10FB0
330
10FAF
100
AcDbEntity
  8
0
100
AcDbBlockBegin
  2
*D27
 70
     1
 10
0.0
 20
0.0
 30
0.0
  3
*D27
  1

  0
LINE
  5
114C9
330
10FAF
100
AcDbEntity
  8
寸法線
 62
     0
440
 16777216
370
    -2
100
AcDbLine
 10
852.1450622578422
 20
2388.749982630325
 30
0.0
 11
852.1450622578422
 21
2539.999962780316
 31
0.0
  0
LINE
  5
114CA
330
10FAF
100
AcDbEntity
  8
寸法線
 62
     0
440
 16777216
370
    -2
100
AcDbLine
 10
1252.145062257842
 20
2388.749964385694
 30
0.0
 11
1252.145062257842
 21
2539.999962780316
 31
0.0
  0
LINE
  5
114CB
330
10FAF
100
AcDbEntity
  8
寸法線
 62
     0
440
 16777216
370
    -2
100
AcDbLine
 10
872.1450622578423
 20
2529.999962780316
 30
0.0
 11
1232.145062257842
 21
2529.999962780316
 31
0.0
  0
INSERT
  5
114CC
330
10FAF
100
AcDbEntity
  8
寸法線
 62
     0
440
 16777216
370
    -2
100
AcDbBlockReference
  2
_OPEN
 10
852.1450622578422
 20
2529.999962780316
 30
0.0
 41
20.0
 42
20.0
 43
20.0
 50
180.0
  0
INSERT
  5
114CD
330
10FAF
100
AcDbEntity
  8
寸法線
 62
     0
440
 16777216
370
    -2
100
AcDbBlockReference
  2
_OPEN
 10
1252.145062257842
 20
2529.999962780316
 30
0.0
 41
20.0
 42
20.0
 43
20.0
  0
MTEXT
  5
114CE
330
10FAF
100
AcDbEntity
  8
寸法線
 62
     0
440
 16777216
100
AcDbMText
 10
1052.145110928812
 20
2551.249962780316
 30
0.0
 40
25.0
 41
0.0
 46
0.0
 71
     5
 72
     1
  1
\A1;400
 73
     1
 44
1.0
  0
MTEXT
  5
114CF
330
10FAF
100
AcDbEntity
  8
寸法線
 62
     0
440
 16777216
100
AcDbMText
 10
1052.145110928812
 20
2508.749962780316
 30
0.0
 40
25.0
 41
0.0
 46
0.0
 71
     5
 72
     1
  1
\A1;空洞金具
 73
     1
 44
1.0
  0
POINT
  5
114D0
330
10FAF
100
AcDbEntity
  8
Defpoints
 62
     0
440
 16777216
100
AcDbPoint
 10
852.1450622578422
 20
2379.999982630325
 30
0.0
  0
POINT
  5
114D1
330
10FAF
100
AcDbEntity
  8
Defpoints
 62
     0
440
 16777216
100
AcDbPoint
 10
1252.145062257842
 20
2379.999964385694
 30
0.0
  0
POINT
  5
114D2
330
10FAF
100
AcDbEntity
  8
Defpoints
 62
     0
440
 16777216
100
AcDbPoint
 10
1252.145062257842
 20
2529.999962780316
 30
0.0
  0
ENDBLK
  5
10FB1
330
10FAF
100
AcDbEntity
  8
0
100
AcDbBlockEnd
  0
BLOCK
  5
10FBD
330
10FBC
100
AcDbEntity
  8
0
100
AcDbBlockBegin
  2
*D28
 70
     1
 10
0.0
 20
0.0
 30
0.0
  3
*D28
  1

  0
LINE
  5
114D3
330
10FBC
100
AcDbEntity
  8
寸法線
 62
     0
440
 16777216
370
    -2
100
AcDbLine
 10
352.1450423513179
 20
2372.749999999993
 30
0.0
 11
352.1450423513179
 21
2699.999962780322
 31
0.0
  0
LINE
  5
114D4
330
10FBC
100
AcDbEntity
  8
寸法線
 62
     0
440
 16777216
370
    -2
100
AcDbLine
 10
2952.145042351326
 20
2372.749968704425
 30
0.0
 11
2952.145042351326
 21
2699.999962780322
 31
0.0
  0
LINE
  5
114D5
330
10FBC
100
AcDbEntity
  8
寸法線
 62
     0
440
 16777216
370
    -2
100
AcDbLine
 10
372.1450423513179
 20
2689.999962780322
 30
0.0
 11
2932.145042351326
 21
2689.999962780322
 31
0.0
  0
INSERT
  5
114D6
330
10FBC
100
AcDbEntity
  8
寸法線
 62
     0
440
 16777216
370
    -2
100
AcDbBlockReference
  2
_OPEN
 10
352.1450423513179
 20
2689.999962780322
 30
0.0
 41
20.0
 42
20.0
 43
20.0
 50
180.0
  0
INSERT
  5
114D7
330
10FBC
100
AcDbEntity
  8
寸法線
 62
     0
440
 16777216
370
    -2
100
AcDbBlockReference
  2
_OPEN
 10
2952.145042351326
 20
2689.999962780322
 30
0.0
 41
20.0
 42
20.0
 43
20.0
  0
MTEXT
  5
114D8
330
10FBC
100
AcDbEntity
  8
寸法線
 62
     0
440
 16777216
100
AcDbMText
 10
1652.145042351322
 20
2711.252423410243
 30
0.0
 40
25.0
 41
0.0
 46
0.0
 71
     5
 72
     1
  1
\A1;スルーサーＢ L=2600
 73
     1
 44
1.0
  0
POINT
  5
114D9
330
10FBC
100
AcDbEntity
  8
Defpoints
 62
     0
440
 16777216
100
AcDbPoint
 10
352.1450423513179
 20
2363.999999999993
 30
0.0
  0
POINT
  5
114DA
330
10FBC
100
AcDbEntity
  8
Defpoints
 62
     0
440
 16777216
100
AcDbPoint
 10
2952.145042351326
 20
2363.999968704425
 30
0.0
  0
POINT
  5
114DB
330
10FBC
100
AcDbEntity
  8
Defpoints
 62
     0
440
 16777216
100
AcDbPoint
 10
2952.145042351326
 20
2689.999962780322
 30
0.0
  0
ENDBLK
  5
10FBE
330
10FBC
100
AcDbEntity
  8
0
100
AcDbBlockEnd
  0
BLOCK
  5
10FC9
330
10FC8
100
AcDbEntity
  8
0
100
AcDbBlockBegin
  2
*D29
 70
     1
 10
0.0
 20
0.0
 30
0.0
  3
*D29
  1

  0
LINE
  5
114DC
330
10FC8
100
AcDbEntity
  8
寸法線
 62
     0
440
 16777216
370
    -2
100
AcDbLine
 10
2052.145022444801
 20
2388.749982630325
 30
0.0
 11
2052.145022444801
 21
2539.999962780316
 31
0.0
  0
LINE
  5
114DD
330
10FC8
100
AcDbEntity
  8
寸法線
 62
     0
440
 16777216
370
    -2
100
AcDbLine
 10
1252.145062257842
 20
2388.749964385694
 30
0.0
 11
1252.145062257842
 21
2539.999962780316
 31
0.0
  0
LINE
  5
114DE
330
10FC8
100
AcDbEntity
  8
寸法線
 62
     0
440
 16777216
370
    -2
100
AcDbLine
 10
2032.145022444801
 20
2529.999962780316
 30
0.0
 11
1272.145062257842
 21
2529.999962780316
 31
0.0
  0
INSERT
  5
114DF
330
10FC8
100
AcDbEntity
  8
寸法線
 62
     0
440
 16777216
370
    -2
100
AcDbBlockReference
  2
_OPEN
 10
2052.145022444801
 20
2529.999962780316
 30
0.0
 41
20.0
 42
20.0
 43
20.0
  0
INSERT
  5
114E0
330
10FC8
100
AcDbEntity
  8
寸法線
 62
     0
440
 16777216
370
    -2
100
AcDbBlockReference
  2
_OPEN
 10
1252.145062257842
 20
2529.999962780316
 30
0.0
 41
20.0
 42
20.0
 43
20.0
 50
180.0
  0
MTEXT
  5
114E1
330
10FC8
100
AcDbEntity
  8
寸法線
 62
     0
440
 16777216
100
AcDbMText
 10
1652.145042351321
 20
2551.249962780316
 30
0.0
 40
25.0
 41
0.0
 46
0.0
 71
     5
 72
     1
  1
\A1;800
 73
     1
 44
1.0
  0
MTEXT
  5
114E2
330
10FC8
100
AcDbEntity
  8
寸法線
 62
     0
440
 16777216
100
AcDbMText
 10
1652.145042351321
 20
2508.749962780316
 30
0.0
 40
25.0
 41
0.0
 46
0.0
 71
     5
 72
     1
  1
\A1;H型鋼（埋設部）
 73
     1
 44
1.0
  0
POINT
  5
114E3
330
10FC8
100
AcDbEntity
  8
Defpoints
 62
     0
440
 16777216
100
AcDbPoint
 10
2052.145022444801
 20
2379.999982630325
 30
0.0
  0
POINT
  5
114E4
330
10FC8
100
AcDbEntity
  8
Defpoints
 62
     0
440
 16777216
100
AcDbPoint
 10
1252.145062257842
 20
2379.999964385694
 30
0.0
  0
POINT
  5
114E5
330
10FC8
100
AcDbEntity
  8
Defpoints
 62
     0
440
 16777216
100
AcDbPoint
 10
1252.145062257842
 20
2529.999962780316
 30
0.0
  0
ENDBLK
  5
10FCA
330
10FC8
100
AcDbEntity
  8
0
100
AcDbBlockEnd
  0
BLOCK
  5
10FD6
330
10FD5
100
AcDbEntity
  8
0
100
AcDbBlockBegin
  2
*D30
 70
     1
 10
0.0
 20
0.0
 30
0.0
  3
*D30
  1

  0
LINE
  5
114E6
330
10FD5
100
AcDbEntity
  8
寸法線
 62
     0
440
 16777216
370
    -2
100
AcDbLine
 10
2952.145042351326
 20
2372.75
 30
0.0
 11
2952.145042351326
 21
2539.999962780316
 31
0.0
  0
LINE
  5
114E7
330
10FD5
100
AcDbEntity
  8
寸法線
 62
     0
440
 16777216
370
    -2
100
AcDbLine
 10
2936.145022538215
 20
2378.749962780316
 30
0.0
 11
2936.145022538215
 21
2539.999962780316
 31
0.0
  0
LINE
  5
114E8
330
10FD5
100
AcDbEntity
  8
寸法線
 62
     0
440
 16777216
370
    -2
100
AcDbLine
 10
2972.145042351326
 20
2529.999962780316
 30
0.0
 11
2992.145042351326
 21
2529.999962780316
 31
0.0
  0
LINE
  5
114E9
330
10FD5
100
AcDbEntity
  8
寸法線
 62
     0
440
 16777216
370
    -2
100
AcDbLine
 10
2916.145022538215
 20
2529.999962780316
 30
0.0
 11
2896.145022538215
 21
2529.999962780316
 31
0.0
  0
LINE
  5
114EA
330
10FD5
100
AcDbEntity
  8
寸法線
 62
     0
440
 16777216
370
    -2
100
AcDbLine
 10
2952.145042351326
 20
2529.999962780316
 30
0.0
 11
2936.145022538215
 21
2529.999962780316
 31
0.0
  0
INSERT
  5
114EB
330
10FD5
100
AcDbEntity
  8
寸法線
 62
     0
440
 16777216
370
    -2
100
AcDbBlockReference
  2
_OPEN
 10
2952.145042351326
 20
2529.999962780316
 30
0.0
 41
20.0
 42
20.0
 43
20.0
 50
180.0
  0
INSERT
  5
114EC
330
10FD5
100
AcDbEntity
  8
寸法線
 62
     0
440
 16777216
370
    -2
100
AcDbBlockReference
  2
_OPEN
 10
2936.145022538215
 20
2529.999962780316
 30
0.0
 41
20.0
 42
20.0
 43
20.0
  0
MTEXT
  5
114ED
330
10FD5
100
AcDbEntity
  8
寸法線
 62
     0
440
 16777216
100
AcDbMText
 10
2944.145032444771
 20
2551.249962780316
 30
0.0
 40
25.0
 41
0.0
 46
0.0
 71
     5
 72
     1
  1
\A1;16
 73
     1
 44
1.0
  0
POINT
  5
114EE
330
10FD5
100
AcDbEntity
  8
Defpoints
 62
     0
440
 16777216
100
AcDbPoint
 10
2952.145042351326
 20
2364.0
 30
0.0
  0
POINT
  5
114EF
330
10FD5
100
AcDbEntity
  8
Defpoints
 62
     0
440
 16777216
100
AcDbPoint
 10
2936.145022538215
 20
2369.999962780316
 30
0.0
  0
POINT
  5
114F0
330
10FD5
100
AcDbEntity
  8
Defpoints
 62
     0
440
 16777216
100
AcDbPoint
 10
2936.145022538215
 20
2529.999962780316
 30
0.0
  0
ENDBLK
  5
10FD7
330
10FD5
100
AcDbEntity
  8
0
100
AcDbBlockEnd
  0
BLOCK
  5
10FE4
330
10FE3
100
AcDbEntity
  8
0
100
AcDbBlockBegin
  2
*D31
 70
     1
 10
0.0
 20
0.0
 30
0.0
  3
*D31
  1

  0
LINE
  5
114F1
330
10FE3
100
AcDbEntity
  8
寸法線
 62
     0
440
 16777216
370
    -2
100
AcDbLine
 10
2936.145022538215
 20
2378.749962780316
 30
0.0
 11
2936.145022538215
 21
2539.999962780316
 31
0.0
  0
LINE
  5
114F2
330
10FE3
100
AcDbEntity
  8
寸法線
 62
     0
440
 16777216
370
    -2
100
AcDbLine
 10
2452.144953867307
 20
2388.74998263027
 30
0.0
 11
2452.144953867307
 21
2539.999962780316
 31
0.0
  0
LINE
  5
114F3
330
10FE3
100
AcDbEntity
  8
寸法線
 62
     0
440
 16777216
370
    -2
100
AcDbLine
 10
2916.145022538215
 20
2529.999962780316
 30
0.0
 11
2472.144953867307
 21
2529.999962780316
 31
0.0
  0
INSERT
  5
114F4
330
10FE3
100
AcDbEntity
  8
寸法線
 62
     0
440
 16777216
370
    -2
100
AcDbBlockReference
  2
_OPEN
 10
2936.145022538215
 20
2529.999962780316
 30
0.0
 41
20.0
 42
20.0
 43
20.0
  0
INSERT
  5
114F5
330
10FE3
100
AcDbEntity
  8
寸法線
 62
     0
440
 16777216
370
    -2
100
AcDbBlockReference
  2
_OPEN
 10
2452.144953867307
 20
2529.999962780316
 30
0.0
 41
20.0
 42
20.0
 43
20.0
 50
180.0
  0
MTEXT
  5
114F6
330
10FE3
100
AcDbEntity
  8
寸法線
 62
     0
440
 16777216
100
AcDbMText
 10
2694.145014990813
 20
2551.249962780316
 30
0.0
 40
25.0
 41
0.0
 46
0.0
 71
     5
 72
     1
  1
\A1;484
 73
     1
 44
1.0
  0
POINT
  5
114F7
330
10FE3
100
AcDbEntity
  8
Defpoints
 62
     0
440
 16777216
100
AcDbPoint
 10
2936.145022538215
 20
2369.999962780316
 30
0.0
  0
POINT
  5
114F8
330
10FE3
100
AcDbEntity
  8
Defpoints
 62
     0
440
 16777216
100
AcDbPoint
 10
2452.144953867307
 20
2379.99998263027
 30
0.0
  0
POINT
  5
114F9
330
10FE3
100
AcDbEntity
  8
Defpoints
 62
     0
440
 16777216
100
AcDbPoint
 10
2452.144953867307
 20
2529.999962780316
 30
0.0
  0
ENDBLK
  5
10FE5
330
10FE3
100
AcDbEntity
  8
0
100
AcDbBlockEnd
  0
BLOCK
  5
10FF0
330
10FEF
100
AcDbEntity
  8
0
100
AcDbBlockBegin
  2
*D32
 70
     1
 10
0.0
 20
0.0
 30
0.0
  3
*D32
  1

  0
LINE
  5
114FA
330
10FEF
100
AcDbEntity
  8
寸法線
 62
     0
440
 16777216
370
    -2
100
AcDbLine
 10
2952.145042351326
 20
2372.75
 30
0.0
 11
2952.145042351326
 21
2619.999962780321
 31
0.0
  0
LINE
  5
114FB
330
10FEF
100
AcDbEntity
  8
寸法線
 62
     0
440
 16777216
370
    -2
100
AcDbLine
 10
2452.145022444801
 20
2388.749982630325
 30
0.0
 11
2452.145022444801
 21
2619.999962780321
 31
0.0
  0
LINE
  5
114FC
330
10FEF
100
AcDbEntity
  8
寸法線
 62
     0
440
 16777216
370
    -2
100
AcDbLine
 10
2932.145042351326
 20
2609.999962780321
 30
0.0
 11
2472.145022444801
 21
2609.999962780321
 31
0.0
  0
INSERT
  5
114FD
330
10FEF
100
AcDbEntity
  8
寸法線
 62
     0
440
 16777216
370
    -2
100
AcDbBlockReference
  2
_OPEN
 10
2952.145042351326
 20
2609.999962780321
 30
0.0
 41
20.0
 42
20.0
 43
20.0
  0
INSERT
  5
114FE
330
10FEF
100
AcDbEntity
  8
寸法線
 62
     0
440
 16777216
370
    -2
100
AcDbBlockReference
  2
_OPEN
 10
2452.145022444801
 20
2609.999962780321
 30
0.0
 41
20.0
 42
20.0
 43
20.0
 50
180.0
  0
MTEXT
  5
114FF
330
10FEF
100
AcDbEntity
  8
寸法線
 62
     0
440
 16777216
100
AcDbMText
 10
2702.145024897368
 20
2631.249962780321
 30
0.0
 40
25.0
 41
0.0
 46
0.0
 71
     5
 72
     1
  1
\A1;500
 73
     1
 44
1.0
  0
MTEXT
  5
11500
330
10FEF
100
AcDbEntity
  8
寸法線
 62
     0
440
 16777216
100
AcDbMText
 10
2702.145024897368
 20
2588.749962780321
 30
0.0
 40
25.0
 41
0.0
 46
0.0
 71
     5
 72
     1
  1
\A1;H型鋼（連結部）
 73
     1
 44
1.0
  0
POINT
  5
11501
330
10FEF
100
AcDbEntity
  8
Defpoints
 62
     0
440
 16777216
100
AcDbPoint
 10
2952.145042351326
 20
2364.0
 30
0.0
  0
POINT
  5
11502
330
10FEF
100
AcDbEntity
  8
Defpoints
 62
     0
440
 16777216
100
AcDbPoint
 10
2452.145022444801
 20
2379.999982630325
 30
0.0
  0
POINT
  5
11503
330
10FEF
100
AcDbEntity
  8
Defpoints
 62
     0
440
 16777216
100
AcDbPoint
 10
2452.145022444801
 20
2609.999962780321
 30
0.0
  0
ENDBLK
  5
10FF1
330
10FEF
100
AcDbEntity
  8
0
100
AcDbBlockEnd
  0
BLOCK
  5
10FFD
330
10FFC
100
AcDbEntity
  8
0
100
AcDbBlockBegin
  2
*D33
 70
     1
 10
0.0
 20
0.0
 30
0.0
  3
*D33
  1

  0
LINE
  5
11504
330
10FFC
100
AcDbEntity
  8
寸法線
 62
     0
440
 16777216
370
    -2
100
AcDbLine
 10
2452.145022444801
 20
2388.749982630325
 30
0.0
 11
2452.145022444801
 21
2539.999962780316
 31
0.0
  0
LINE
  5
11505
330
10FFC
100
AcDbEntity
  8
寸法線
 62
     0
440
 16777216
370
    -2
100
AcDbLine
 10
2052.145022444801
 20
2388.749964385694
 30
0.0
 11
2052.145022444801
 21
2539.999962780316
 31
0.0
  0
LINE
  5
11506
330
10FFC
100
AcDbEntity
  8
寸法線
 62
     0
440
 16777216
370
    -2
100
AcDbLine
 10
2432.145022444801
 20
2529.999962780316
 30
0.0
 11
2072.145022444801
 21
2529.999962780316
 31
0.0
  0
INSERT
  5
11507
330
10FFC
100
AcDbEntity
  8
寸法線
 62
     0
440
 16777216
370
    -2
100
AcDbBlockReference
  2
_OPEN
 10
2452.145022444801
 20
2529.999962780316
 30
0.0
 41
20.0
 42
20.0
 43
20.0
  0
INSERT
  5
11508
330
10FFC
100
AcDbEntity
  8
寸法線
 62
     0
440
 16777216
370
    -2
100
AcDbBlockReference
  2
_OPEN
 10
2052.145022444801
 20
2529.999962780316
 30
0.0
 41
20.0
 42
20.0
 43
20.0
 50
180.0
  0
MTEXT
  5
11509
330
10FFC
100
AcDbEntity
  8
寸法線
 62
     0
440
 16777216
100
AcDbMText
 10
2252.144973773831
 20
2551.249962780316
 30
0.0
 40
25.0
 41
0.0
 46
0.0
 71
     5
 72
     1
  1
\A1;400
 73
     1
 44
1.0
  0
MTEXT
  5
1150A
330
10FFC
100
AcDbEntity
  8
寸法線
 62
     0
440
 16777216
100
AcDbMText
 10
2252.144973773831
 20
2508.749962780316
 30
0.0
 40
25.0
 41
0.0
 46
0.0
 71
     5
 72
     1
  1
\A1;空洞金具
 73
     1
 44
1.0
  0
POINT
  5
1150B
330
10FFC
100
AcDbEntity
  8
Defpoints
 62
     0
440
 16777216
100
AcDbPoint
 10
2452.145022444801
 20
2379.999982630325
 30
0.0
  0
POINT
  5
1150C
330
10FFC
100
AcDbEntity
  8
Defpoints
 62
     0
440
 16777216
100
AcDbPoint
 10
2052.145022444801
 20
2379.999964385694
 30
0.0
  0
POINT
  5
1150D
330
10FFC
100
AcDbEntity
  8
Defpoints
 62
     0
440
 16777216
100
AcDbPoint
 10
2052.145022444801
 20
2529.999962780316
 30
0.0
  0
ENDBLK
  5
10FFE
330
10FFC
100
AcDbEntity
  8
0
100
AcDbBlockEnd
  0
BLOCK
  5
1100A
330
11009
100
AcDbEntity
  8
0
100
AcDbBlockBegin
  2
*D34
 70
     1
 10
0.0
 20
0.0
 30
0.0
  3
*D34
  1

  0
LINE
  5
1150E
330
11009
100
AcDbEntity
  8
寸法線
 62
     0
440
 16777216
370
    -2
100
AcDbLine
 10
852.1450622578422
 20
2388.749964385695
 30
0.0
 11
852.1450622578422
 21
2619.999962780321
 31
0.0
  0
LINE
  5
1150F
330
11009
100
AcDbEntity
  8
寸法線
 62
     0
440
 16777216
370
    -2
100
AcDbLine
 10
2452.145022444801
 20
2388.749982630325
 30
0.0
 11
2452.145022444801
 21
2619.999962780321
 31
0.0
  0
LINE
  5
11510
330
11009
100
AcDbEntity
  8
寸法線
 62
     0
440
 16777216
370
    -2
100
AcDbLine
 10
872.1450622578423
 20
2609.999962780321
 30
0.0
 11
2432.145022444801
 21
2609.999962780321
 31
0.0
  0
INSERT
  5
11511
330
11009
100
AcDbEntity
  8
寸法線
 62
     0
440
 16777216
370
    -2
100
AcDbBlockReference
  2
_OPEN
 10
852.1450622578422
 20
2609.999962780321
 30
0.0
 41
20.0
 42
20.0
 43
20.0
 50
180.0
  0
INSERT
  5
11512
330
11009
100
AcDbEntity
  8
寸法線
 62
     0
440
 16777216
370
    -2
100
AcDbBlockReference
  2
_OPEN
 10
2452.145022444801
 20
2609.999962780321
 30
0.0
 41
20.0
 42
20.0
 43
20.0
  0
MTEXT
  5
11513
330
11009
100
AcDbEntity
  8
寸法線
 62
     0
440
 16777216
100
AcDbMText
 10
1652.145042351321
 20
2631.249962780321
 30
0.0
 40
25.0
 41
0.0
 46
0.0
 71
     5
 72
     1
  1
\A1;W=1600
 73
     1
 44
1.0
  0
POINT
  5
11514
330
11009
100
AcDbEntity
  8
Defpoints
 62
     0
440
 16777216
100
AcDbPoint
 10
852.1450622578422
 20
2379.999964385695
 30
0.0
  0
POINT
  5
11515
330
11009
100
AcDbEntity
  8
Defpoints
 62
     0
440
 16777216
100
AcDbPoint
 10
2452.145022444801
 20
2379.999982630325
 30
0.0
  0
POINT
  5
11516
330
11009
100
AcDbEntity
  8
Defpoints
 62
     0
440
 16777216
100
AcDbPoint
 10
2452.145022444801
 20
2609.999962780321
 30
0.0
  0
ENDBLK
  5
1100B
330
11009
100
AcDbEntity
  8
0
100
AcDbBlockEnd
  0
BLOCK
  5
11016
330
11015
100
AcDbEntity
  8
0
100
AcDbBlockBegin
  2
*D35
 70
     1
 10
0.0
 20
0.0
 30
0.0
  3
*D35
  1

  0
LINE
  5
11517
330
11015
100
AcDbEntity
  8
寸法線
 62
     0
440
 16777216
370
    -2
100
AcDbLine
 10
2002.145062211142
 20
1401.249982630339
 30
0.0
 11
2002.145062211142
 21
1199.999982630339
 31
0.0
  0
LINE
  5
11518
330
11015
100
AcDbEntity
  8
寸法線
 62
     0
440
 16777216
370
    -2
100
AcDbLine
 10
2052.145082117667
 20
1351.249984235721
 30
0.0
 11
2052.145082117667
 21
1199.999982630339
 31
0.0
  0
LINE
  5
11519
330
11015
100
AcDbEntity
  8
寸法線
 62
     0
440
 16777216
370
    -2
100
AcDbLine
 10
1982.145062211142
 20
1209.999982630339
 30
0.0
 11
1962.145062211141
 21
1209.999982630339
 31
0.0
  0
LINE
  5
1151A
330
11015
100
AcDbEntity
  8
寸法線
 62
     0
440
 16777216
370
    -2
100
AcDbLine
 10
2072.145082117667
 20
1209.999982630339
 30
0.0
 11
2092.145082117667
 21
1209.999982630339
 31
0.0
  0
LINE
  5
1151B
330
11015
100
AcDbEntity
  8
寸法線
 62
     0
440
 16777216
370
    -2
100
AcDbLine
 10
2002.145062211142
 20
1209.999982630339
 30
0.0
 11
2052.145082117667
 21
1209.999982630339
 31
0.0
  0
INSERT
  5
1151C
330
11015
100
AcDbEntity
  8
寸法線
 62
     0
440
 16777216
370
    -2
100
AcDbBlockReference
  2
_OPEN
 10
2002.145062211142
 20
1209.999982630339
 30
0.0
 41
20.0
 42
20.0
 43
20.0
  0
INSERT
  5
1151D
330
11015
100
AcDbEntity
  8
寸法線
 62
     0
440
 16777216
370
    -2
100
AcDbBlockReference
  2
_OPEN
 10
2052.145082117667
 20
1209.999982630339
 30
0.0
 41
20.0
 42
20.0
 43
20.0
 50
180.0
  0
MTEXT
  5
1151E
330
11015
100
AcDbEntity
  8
寸法線
 62
     0
440
 16777216
100
AcDbMText
 10
2027.145072164404
 20
1231.249982630339
 30
0.0
 40
25.0
 41
0.0
 46
0.0
 71
     5
 72
     1
  1
\A1;50
 73
     1
 44
1.0
  0
POINT
  5
1151F
330
11015
100
AcDbEntity
  8
Defpoints
 62
     0
440
 16777216
100
AcDbPoint
 10
2002.145062211142
 20
1409.999982630339
 30
0.0
  0
POINT
  5
11520
330
11015
100
AcDbEntity
  8
Defpoints
 62
     0
440
 16777216
100
AcDbPoint
 10
2052.145082117667
 20
1359.999984235721
 30
0.0
  0
POINT
  5
11521
330
11015
100
AcDbEntity
  8
Defpoints
 62
     0
440
 16777216
100
AcDbPoint
 10
2052.145082117667
 20
1209.999982630339
 30
0.0
  0
ENDBLK
  5
11017
330
11015
100
AcDbEntity
  8
0
100
AcDbBlockEnd
  0
BLOCK
  5
11024
330
11023
100
AcDbEntity
  8
0
100
AcDbBlockBegin
  2
*D36
 70
     1
 10
0.0
 20
0.0
 30
0.0
  3
*D36
  1

  0
LINE
  5
11522
330
11023
100
AcDbEntity
  8
寸法線
 62
     0
440
 16777216
370
    -2
100
AcDbLine
 10
1252.145042304616
 20
1351.250002480345
 30
0.0
 11
1252.145042304616
 21
1119.999962839778
 31
0.0
  0
LINE
  5
11523
330
11023
100
AcDbEntity
  8
寸法線
 62
     0
440
 16777216
370
    -2
100
AcDbLine
 10
2052.145082117667
 20
1351.250002480345
 30
0.0
 11
2052.145082117667
 21
1119.999962839778
 31
0.0
  0
LINE
  5
11524
330
11023
100
AcDbEntity
  8
寸法線
 62
     0
440
 16777216
370
    -2
100
AcDbLine
 10
1272.145042304616
 20
1129.999962839778
 30
0.0
 11
2032.145082117667
 21
1129.999962839778
 31
0.0
  0
INSERT
  5
11525
330
11023
100
AcDbEntity
  8
寸法線
 62
     0
440
 16777216
370
    -2
100
AcDbBlockReference
  2
_OPEN
 10
1252.145042304616
 20
1129.999962839778
 30
0.0
 41
20.0
 42
20.0
 43
20.0
 50
180.0
  0
INSERT
  5
11526
330
11023
100
AcDbEntity
  8
寸法線
 62
     0
440
 16777216
370
    -2
100
AcDbBlockReference
  2
_OPEN
 10
2052.145082117667
 20
1129.999962839778
 30
0.0
 41
20.0
 42
20.0
 43
20.0
  0
MTEXT
  5
11527
330
11023
100
AcDbEntity
  8
寸法線
 62
     0
440
 16777216
100
AcDbMText
 10
1652.145062211141
 20
1151.249962839778
 30
0.0
 40
25.0
 41
0.0
 46
0.0
 71
     5
 72
     1
  1
\A1;800
 73
     1
 44
1.0
  0
POINT
  5
11528
330
11023
100
AcDbEntity
  8
Defpoints
 62
     0
440
 16777216
100
AcDbPoint
 10
1252.145042304616
 20
1360.000002480345
 30
0.0
  0
POINT
  5
11529
330
11023
100
AcDbEntity
  8
Defpoints
 62
     0
440
 16777216
100
AcDbPoint
 10
2052.145082117667
 20
1360.000002480345
 30
0.0
  0
POINT
  5
1152A
330
11023
100
AcDbEntity
  8
Defpoints
 62
     0
440
 16777216
100
AcDbPoint
 10
2052.145082117667
 20
1129.999962839778
 30
0.0
  0
ENDBLK
  5
11025
330
11023
100
AcDbEntity
  8
0
100
AcDbBlockEnd
  0
BLOCK
  5
11030
330
1102F
100
AcDbEntity
  8
0
100
AcDbBlockBegin
  2
*D37
 70
     1
 10
0.0
 20
0.0
 30
0.0
  3
*D37
  1

  0
LINE
  5
1152B
330
1102F
100
AcDbEntity
  8
寸法線
 62
     0
440
 16777216
370
    -2
100
AcDbLine
 10
1302.145062211141
 20
1401.249982630339
 30
0.0
 11
1302.145062211141
 21
1199.999982630339
 31
0.0
  0
LINE
  5
1152C
330
1102F
100
AcDbEntity
  8
寸法線
 62
     0
440
 16777216
370
    -2
100
AcDbLine
 10
1252.145097119061
 20
1351.250021552798
 30
0.0
 11
1252.145097119061
 21
1199.999982630339
 31
0.0
  0
LINE
  5
1152D
330
1102F
100
AcDbEntity
  8
寸法線
 62
     0
440
 16777216
370
    -2
100
AcDbLine
 10
1322.145062211141
 20
1209.999982630339
 30
0.0
 11
1342.145062211141
 21
1209.999982630339
 31
0.0
  0
LINE
  5
1152E
330
1102F
100
AcDbEntity
  8
寸法線
 62
     0
440
 16777216
370
    -2
100
AcDbLine
 10
1232.145097119061
 20
1209.999982630339
 30
0.0
 11
1212.145097119061
 21
1209.999982630339
 31
0.0
  0
LINE
  5
1152F
330
1102F
100
AcDbEntity
  8
寸法線
 62
     0
440
 16777216
370
    -2
100
AcDbLine
 10
1302.145062211141
 20
1209.999982630339
 30
0.0
 11
1252.145097119061
 21
1209.999982630339
 31
0.0
  0
INSERT
  5
11530
330
1102F
100
AcDbEntity
  8
寸法線
 62
     0
440
 16777216
370
    -2
100
AcDbBlockReference
  2
_OPEN
 10
1302.145062211141
 20
1209.999982630339
 30
0.0
 41
20.0
 42
20.0
 43
20.0
 50
180.0
  0
INSERT
  5
11531
330
1102F
100
AcDbEntity
  8
寸法線
 62
     0
440
 16777216
370
    -2
100
AcDbBlockReference
  2
_OPEN
 10
1252.145097119061
 20
1209.999982630339
 30
0.0
 41
20.0
 42
20.0
 43
20.0
  0
MTEXT
  5
11532
330
1102F
100
AcDbEntity
  8
寸法線
 62
     0
440
 16777216
100
AcDbMText
 10
1277.145079665101
 20
1231.249982630339
 30
0.0
 40
25.0
 41
0.0
 46
0.0
 71
     5
 72
     1
  1
\A1;50
 73
     1
 44
1.0
  0
POINT
  5
11533
330
1102F
100
AcDbEntity
  8
Defpoints
 62
     0
440
 16777216
100
AcDbPoint
 10
1302.145062211141
 20
1409.999982630339
 30
0.0
  0
POINT
  5
11534
330
1102F
100
AcDbEntity
  8
Defpoints
 62
     0
440
 16777216
100
AcDbPoint
 10
1252.145097119061
 20
1360.000021552798
 30
0.0
  0
POINT
  5
11535
330
1102F
100
AcDbEntity
  8
Defpoints
 62
     0
440
 16777216
100
AcDbPoint
 10
1252.145097119061
 20
1209.999982630339
 30
0.0
  0
ENDBLK
  5
11031
330
1102F
100
AcDbEntity
  8
0
100
AcDbBlockEnd
  0
BLOCK
  5
1103E
330
1103D
100
AcDbEntity
  8
0
100
AcDbBlockBegin
  2
*D38
 70
     1
 10
0.0
 20
0.0
 30
0.0
  3
*D38
  1

  0
LINE
  5
11536
330
1103D
100
AcDbEntity
  8
寸法線
 62
     0
440
 16777216
370
    -2
100
AcDbLine
 10
1527.145042351321
 20
1401.249982630339
 30
0.0
 11
1527.145042351321
 21
1199.999982630339
 31
0.0
  0
LINE
  5
11537
330
1103D
100
AcDbEntity
  8
寸法線
 62
     0
440
 16777216
370
    -2
100
AcDbLine
 10
1777.145082164361
 20
1401.249982630339
 30
0.0
 11
1777.145082164361
 21
1199.999982630339
 31
0.0
  0
LINE
  5
11538
330
1103D
100
AcDbEntity
  8
寸法線
 62
     0
440
 16777216
370
    -2
100
AcDbLine
 10
1547.145042351321
 20
1209.999982630339
 30
0.0
 11
1757.145082164361
 21
1209.999982630339
 31
0.0
  0
INSERT
  5
11539
330
1103D
100
AcDbEntity
  8
寸法線
 62
     0
440
 16777216
370
    -2
100
AcDbBlockReference
  2
_OPEN
 10
1527.145042351321
 20
1209.999982630339
 30
0.0
 41
20.0
 42
20.0
 43
20.0
 50
180.0
  0
INSERT
  5
1153A
330
1103D
100
AcDbEntity
  8
寸法線
 62
     0
440
 16777216
370
    -2
100
AcDbBlockReference
  2
_OPEN
 10
1777.145082164361
 20
1209.999982630339
 30
0.0
 41
20.0
 42
20.0
 43
20.0
  0
MTEXT
  5
1153B
330
1103D
100
AcDbEntity
  8
寸法線
 62
     0
440
 16777216
100
AcDbMText
 10
1652.145062257841
 20
1231.25244326026
 30
0.0
 40
25.0
 41
0.0
 46
0.0
 71
     5
 72
     1
  1
\A1;250
 73
     1
 44
1.0
  0
POINT
  5
1153C
330
1103D
100
AcDbEntity
  8
Defpoints
 62
     0
440
 16777216
100
AcDbPoint
 10
1527.145042351321
 20
1409.999982630339
 30
0.0
  0
POINT
  5
1153D
330
1103D
100
AcDbEntity
  8
Defpoints
 62
     0
440
 16777216
100
AcDbPoint
 10
1777.145082164361
 20
1409.999982630339
 30
0.0
  0
POINT
  5
1153E
330
1103D
100
AcDbEntity
  8
Defpoints
 62
     0
440
 16777216
100
AcDbPoint
 10
1777.145082164361
 20
1209.999982630339
 30
0.0
  0
ENDBLK
  5
1103F
330
1103D
100
AcDbEntity
  8
0
100
AcDbBlockEnd
  0
BLOCK
  5
1104A
330
11049
100
AcDbEntity
  8
0
100
AcDbBlockBegin
  2
*D39
 70
     1
 10
0.0
 20
0.0
 30
0.0
  3
*D39
  1

  0
LINE
  5
1153F
330
11049
100
AcDbEntity
  8
寸法線
 62
     0
440
 16777216
370
    -2
100
AcDbLine
 10
901.2499360317601
 20
490.0000182446095
 30
0.0
 11
779.9999360317598
 21
490.0000182446094
 31
0.0
  0
LINE
  5
11540
330
11049
100
AcDbEntity
  8
寸法線
 62
     0
440
 16777216
370
    -2
100
AcDbLine
 10
901.2499360317601
 20
810.0000182446096
 30
0.0
 11
779.9999360317597
 21
810.0000182446096
 31
0.0
  0
LINE
  5
11541
330
11049
100
AcDbEntity
  8
寸法線
 62
     0
440
 16777216
370
    -2
100
AcDbLine
 10
789.9999360317598
 20
510.0000182446094
 30
0.0
 11
789.9999360317597
 21
790.0000182446096
 31
0.0
  0
INSERT
  5
11542
330
11049
100
AcDbEntity
  8
寸法線
 62
     0
440
 16777216
370
    -2
100
AcDbBlockReference
  2
_OPEN
 10
789.9999360317598
 20
490.0000182446094
 30
0.0
 41
20.0
 42
20.0
 43
20.0
 50
270.0
  0
INSERT
  5
11543
330
11049
100
AcDbEntity
  8
寸法線
 62
     0
440
 16777216
370
    -2
100
AcDbBlockReference
  2
_OPEN
 10
789.9999360317597
 20
810.0000182446096
 30
0.0
 41
20.0
 42
20.0
 43
20.0
 50
90.0
  0
MTEXT
  5
11544
330
11049
100
AcDbEntity
  8
寸法線
 62
     0
440
 16777216
100
AcDbMText
 10
768.7474754018384
 20
650.0000182446092
 30
0.0
 40
25.0
 41
0.0
 46
0.0
 71
     5
 72
     1
  1
\A1;320
 11
0.0000000000000001
 21
1.0
 31
0.0
 73
     1
 44
1.0
  0
POINT
  5
11545
330
11049
100
AcDbEntity
  8
Defpoints
 62
     0
440
 16777216
100
AcDbPoint
 10
909.9999360317601
 20
490.0000182446095
 30
0.0
  0
POINT
  5
11546
330
11049
100
AcDbEntity
  8
Defpoints
 62
     0
440
 16777216
100
AcDbPoint
 10
909.9999360317601
 20
810.0000182446096
 30
0.0
  0
POINT
  5
11547
330
11049
100
AcDbEntity
  8
Defpoints
 62
     0
440
 16777216
100
AcDbPoint
 10
789.9999360317597
 20
810.0000182446096
 30
0.0
  0
ENDBLK
  5
1104B
330
11049
100
AcDbEntity
  8
0
100
AcDbBlockEnd
  0
BLOCK
  5
11056
330
11055
100
AcDbEntity
  8
0
100
AcDbBlockBegin
  2
*D40
 70
     1
 10
0.0
 20
0.0
 30
0.0
  3
*D40
  1

  0
LINE
  5
11378
330
11055
100
AcDbEntity
  8
寸法線
 62
     0
440
 16777216
370
    -2
100
AcDbLine
 10
852.1450622578422
 20
1351.249984235718
 30
0.0
 11
852.1450622578422
 21
1119.999962839778
 31
0.0
  0
LINE
  5
11379
330
11055
100
AcDbEntity
  8
寸法線
 62
     0
440
 16777216
370
    -2
100
AcDbLine
 10
1252.145062257842
 20
1351.250002480348
 30
0.0
 11
1252.145062257842
 21
1119.999962839778
 31
0.0
  0
LINE
  5
1137A
330
11055
100
AcDbEntity
  8
寸法線
 62
     0
440
 16777216
370
    -2
100
AcDbLine
 10
872.1450622578423
 20
1129.999962839778
 30
0.0
 11
1232.145062257842
 21
1129.999962839778
 31
0.0
  0
INSERT
  5
1137B
330
11055
100
AcDbEntity
  8
寸法線
 62
     0
440
 16777216
370
    -2
100
AcDbBlockReference
  2
_OPEN
 10
852.1450622578422
 20
1129.999962839778
 30
0.0
 41
20.0
 42
20.0
 43
20.0
 50
180.0
  0
INSERT
  5
1137C
330
11055
100
AcDbEntity
  8
寸法線
 62
     0
440
 16777216
370
    -2
100
AcDbBlockReference
  2
_OPEN
 10
1252.145062257842
 20
1129.999962839778
 30
0.0
 41
20.0
 42
20.0
 43
20.0
  0
MTEXT
  5
1137D
330
11055
100
AcDbEntity
  8
寸法線
 62
     0
440
 16777216
100
AcDbMText
 10
1052.145049805313
 20
1151.249962839778
 30
0.0
 40
25.0
 41
0.0
 46
0.0
 71
     5
 72
     1
  1
\A1;400
 73
     1
 44
1.0
  0
POINT
  5
1137E
330
11055
100
AcDbEntity
  8
Defpoints
 62
     0
440
 16777216
100
AcDbPoint
 10
852.1450622578422
 20
1359.999984235718
 30
0.0
  0
POINT
  5
1137F
330
11055
100
AcDbEntity
  8
Defpoints
 62
     0
440
 16777216
100
AcDbPoint
 10
1252.145062257842
 20
1360.000002480348
 30
0.0
  0
POINT
  5
11380
330
11055
100
AcDbEntity
  8
Defpoints
 62
     0
440
 16777216
100
AcDbPoint
 10
1252.145062257842
 20
1129.999962839778
 30
0.0
  0
ENDBLK
  5
11057
330
11055
100
AcDbEntity
  8
0
100
AcDbBlockEnd
  0
BLOCK
  5
11062
330
11061
100
AcDbEntity
  8
0
100
AcDbBlockBegin
  2
*D41
 70
     1
 10
0.0
 20
0.0
 30
0.0
  3
*D41
  1

  0
LINE
  5
11381
330
11061
100
AcDbEntity
  8
寸法線
 62
     0
440
 16777216
370
    -2
100
AcDbLine
 10
352.1450423513215
 20
1361.249982630339
 30
0.0
 11
352.1450423513215
 21
1119.999962839778
 31
0.0
  0
LINE
  5
11382
330
11061
100
AcDbEntity
  8
寸法線
 62
     0
440
 16777216
370
    -2
100
AcDbLine
 10
852.1450622578422
 20
1351.249984235718
 30
0.0
 11
852.1450622578422
 21
1119.999962839778
 31
0.0
  0
LINE
  5
11383
330
11061
100
AcDbEntity
  8
寸法線
 62
     0
440
 16777216
370
    -2
100
AcDbLine
 10
372.1450423513215
 20
1129.999962839778
 30
0.0
 11
832.1450622578423
 21
1129.999962839778
 31
0.0
  0
INSERT
  5
11384
330
11061
100
AcDbEntity
  8
寸法線
 62
     0
440
 16777216
370
    -2
100
AcDbBlockReference
  2
_OPEN
 10
352.1450423513215
 20
1129.999962839778
 30
0.0
 41
20.0
 42
20.0
 43
20.0
 50
180.0
  0
INSERT
  5
11385
330
11061
100
AcDbEntity
  8
寸法線
 62
     0
440
 16777216
370
    -2
100
AcDbBlockReference
  2
_OPEN
 10
852.1450622578422
 20
1129.999962839778
 30
0.0
 41
20.0
 42
20.0
 43
20.0
  0
MTEXT
  5
11386
330
11061
100
AcDbEntity
  8
寸法線
 62
     0
440
 16777216
100
AcDbMText
 10
602.1450598052779
 20
1151.249962839778
 30
0.0
 40
25.0
 41
0.0
 46
0.0
 71
     5
 72
     1
  1
\A1;500
 73
     1
 44
1.0
  0
POINT
  5
11387
330
11061
100
AcDbEntity
  8
Defpoints
 62
     0
440
 16777216
100
AcDbPoint
 10
352.1450423513215
 20
1369.999982630339
 30
0.0
  0
POINT
  5
11388
330
11061
100
AcDbEntity
  8
Defpoints
 62
     0
440
 16777216
100
AcDbPoint
 10
852.1450622578422
 20
1359.999984235718
 30
0.0
  0
POINT
  5
11389
330
11061
100
AcDbEntity
  8
Defpoints
 62
     0
440
 16777216
100
AcDbPoint
 10
852.1450622578422
 20
1129.999962839778
 30
0.0
  0
ENDBLK
  5
11063
330
11061
100
AcDbEntity
  8
0
100
AcDbBlockEnd
  0
BLOCK
  5
1106E
330
1106D
100
AcDbEntity
  8
0
100
AcDbBlockBegin
  2
*D42
 70
     1
 10
0.0
 20
0.0
 30
0.0
  3
*D42
  1

  0
LINE
  5
1138A
330
1106D
100
AcDbEntity
  8
寸法線
 62
     0
440
 16777216
370
    -2
100
AcDbLine
 10
2452.145062257843
 20
1351.249984235718
 30
0.0
 11
2452.145062257843
 21
1119.999962839778
 31
0.0
  0
LINE
  5
1138B
330
1106D
100
AcDbEntity
  8
寸法線
 62
     0
440
 16777216
370
    -2
100
AcDbLine
 10
2052.145062257842
 20
1351.249984235718
 30
0.0
 11
2052.145062257842
 21
1119.999962839778
 31
0.0
  0
LINE
  5
1138C
330
1106D
100
AcDbEntity
  8
寸法線
 62
     0
440
 16777216
370
    -2
100
AcDbLine
 10
2432.145062257843
 20
1129.999962839778
 30
0.0
 11
2072.145062257842
 21
1129.999962839778
 31
0.0
  0
INSERT
  5
1138D
330
1106D
100
AcDbEntity
  8
寸法線
 62
     0
440
 16777216
370
    -2
100
AcDbBlockReference
  2
_OPEN
 10
2452.145062257843
 20
1129.999962839778
 30
0.0
 41
20.0
 42
20.0
 43
20.0
  0
INSERT
  5
1138E
330
1106D
100
AcDbEntity
  8
寸法線
 62
     0
440
 16777216
370
    -2
100
AcDbBlockReference
  2
_OPEN
 10
2052.145062257842
 20
1129.999962839778
 30
0.0
 41
20.0
 42
20.0
 43
20.0
 50
180.0
  0
MTEXT
  5
1138F
330
1106D
100
AcDbEntity
  8
寸法線
 62
     0
440
 16777216
100
AcDbMText
 10
2252.14505471045
 20
1151.249962839778
 30
0.0
 40
25.0
 41
0.0
 46
0.0
 71
     5
 72
     1
  1
\A1;400
 73
     1
 44
1.0
  0
POINT
  5
11390
330
1106D
100
AcDbEntity
  8
Defpoints
 62
     0
440
 16777216
100
AcDbPoint
 10
2452.145062257843
 20
1359.999984235718
 30
0.0
  0
POINT
  5
11391
330
1106D
100
AcDbEntity
  8
Defpoints
 62
     0
440
 16777216
100
AcDbPoint
 10
2052.145062257842
 20
1359.999984235718
 30
0.0
  0
POINT
  5
11392
330
1106D
100
AcDbEntity
  8
Defpoints
 62
     0
440
 16777216
100
AcDbPoint
 10
2052.145062257842
 20
1129.999962839778
 30
0.0
  0
ENDBLK
  5
1106F
330
1106D
100
AcDbEntity
  8
0
100
AcDbBlockEnd
  0
BLOCK
  5
1107A
330
11079
100
AcDbEntity
  8
0
100
AcDbBlockBegin
  2
*D43
 70
     1
 10
0.0
 20
0.0
 30
0.0
  3
*D43
  1

  0
LINE
  5
11393
330
11079
100
AcDbEntity
  8
寸法線
 62
     0
440
 16777216
370
    -2
100
AcDbLine
 10
343.3950423513217
 20
1670.000019850016
 30
0.0
 11
222.1450423513211
 21
1670.000019850016
 31
0.0
  0
LINE
  5
11394
330
11079
100
AcDbEntity
  8
寸法線
 62
     0
440
 16777216
370
    -2
100
AcDbLine
 10
343.3950423513217
 20
1369.999982630339
 30
0.0
 11
222.1450423513212
 21
1369.999982630339
 31
0.0
  0
LINE
  5
11395
330
11079
100
AcDbEntity
  8
寸法線
 62
     0
440
 16777216
370
    -2
100
AcDbLine
 10
232.1450423513212
 20
1650.000019850016
 30
0.0
 11
232.1450423513212
 21
1389.999982630339
 31
0.0
  0
INSERT
  5
11396
330
11079
100
AcDbEntity
  8
寸法線
 62
     0
440
 16777216
370
    -2
100
AcDbBlockReference
  2
_OPEN
 10
232.1450423513212
 20
1670.000019850016
 30
0.0
 41
20.0
 42
20.0
 43
20.0
 50
90.0
  0
INSERT
  5
11397
330
11079
100
AcDbEntity
  8
寸法線
 62
     0
440
 16777216
370
    -2
100
AcDbBlockReference
  2
_OPEN
 10
232.1450423513212
 20
1369.999982630339
 30
0.0
 41
20.0
 42
20.0
 43
20.0
 50
270.0
  0
MTEXT
  5
11398
330
11079
100
AcDbEntity
  8
寸法線
 62
     0
440
 16777216
100
AcDbMText
 10
210.8950423513215
 20
1520.000001240177
 30
0.0
 40
25.0
 41
0.0
 46
0.0
 71
     5
 72
     1
  1
\A1;300
 11
0.0000000000000001
 21
1.0
 31
0.0
 73
     1
 44
1.0
  0
POINT
  5
11399
330
11079
100
AcDbEntity
  8
Defpoints
 62
     0
440
 16777216
100
AcDbPoint
 10
352.1450423513217
 20
1670.000019850016
 30
0.0
  0
POINT
  5
1139A
330
11079
100
AcDbEntity
  8
Defpoints
 62
     0
440
 16777216
100
AcDbPoint
 10
352.1450423513217
 20
1369.999982630339
 30
0.0
  0
POINT
  5
1139B
330
11079
100
AcDbEntity
  8
Defpoints
 62
     0
440
 16777216
100
AcDbPoint
 10
232.1450423513212
 20
1369.999982630339
 30
0.0
  0
ENDBLK
  5
1107B
330
11079
100
AcDbEntity
  8
0
100
AcDbBlockEnd
  0
BLOCK
  5
11086
330
11085
100
AcDbEntity
  8
0
100
AcDbBlockBegin
  2
*D44
 70
     1
 10
0.0
 20
0.0
 30
0.0
  3
*D44
  1

  0
LINE
  5
1139C
330
11085
100
AcDbEntity
  8
寸法線
 62
     0
440
 16777216
370
    -2
100
AcDbLine
 10
2960.895042351323
 20
2363.999999999992
 30
0.0
 11
3082.145062164431
 21
2363.999999999992
 31
0.0
  0
LINE
  5
1139D
330
11085
100
AcDbEntity
  8
寸法線
 62
     0
440
 16777216
370
    -2
100
AcDbLine
 10
2960.895042351323
 20
2075.999925560641
 30
0.0
 11
3082.145062164431
 21
2075.999925560641
 31
0.0
  0
LINE
  5
1139E
330
11085
100
AcDbEntity
  8
寸法線
 62
     0
440
 16777216
370
    -2
100
AcDbLine
 10
3072.145062164431
 20
2343.999999999992
 30
0.0
 11
3072.145062164431
 21
2095.999925560641
 31
0.0
  0
INSERT
  5
1139F
330
11085
100
AcDbEntity
  8
寸法線
 62
     0
440
 16777216
370
    -2
100
AcDbBlockReference
  2
_OPEN
 10
3072.145062164431
 20
2363.999999999992
 30
0.0
 41
20.0
 42
20.0
 43
20.0
 50
90.0
  0
INSERT
  5
113A0
330
11085
100
AcDbEntity
  8
寸法線
 62
     0
440
 16777216
370
    -2
100
AcDbBlockReference
  2
_OPEN
 10
3072.145062164431
 20
2075.999925560641
 30
0.0
 41
20.0
 42
20.0
 43
20.0
 50
270.0
  0
MTEXT
  5
113A1
330
11085
100
AcDbEntity
  8
寸法線
 62
     0
440
 16777216
100
AcDbMText
 10
3050.892601534509
 20
2219.999962780315
 30
0.0
 40
25.0
 41
0.0
 46
0.0
 71
     5
 72
     1
  1
\A1;288
 11
0.0000000000000001
 21
1.0
 31
0.0
 73
     1
 44
1.0
  0
POINT
  5
113A2
330
11085
100
AcDbEntity
  8
Defpoints
 62
     0
440
 16777216
100
AcDbPoint
 10
2952.145042351323
 20
2363.999999999992
 30
0.0
  0
POINT
  5
113A3
330
11085
100
AcDbEntity
  8
Defpoints
 62
     0
440
 16777216
100
AcDbPoint
 10
2952.145042351323
 20
2075.999925560641
 30
0.0
  0
POINT
  5
113A4
330
11085
100
AcDbEntity
  8
Defpoints
 62
     0
440
 16777216
100
AcDbPoint
 10
3072.145062164431
 20
2075.999925560641
 30
0.0
  0
ENDBLK
  5
11087
330
11085
100
AcDbEntity
  8
0
100
AcDbBlockEnd
  0
BLOCK
  5
11092
330
11091
100
AcDbEntity
  8
0
100
AcDbBlockBegin
  2
*D45
 70
     1
 10
0.0
 20
0.0
 30
0.0
  3
*D45
  1

  0
LINE
  5
113A5
330
11091
100
AcDbEntity
  8
寸法線
 62
     0
440
 16777216
370
    -2
100
AcDbLine
 10
2952.145042154541
 20
1361.249982630339
 30
0.0
 11
2952.145036728941
 21
1119.999951595071
 31
0.0
  0
LINE
  5
113A6
330
11091
100
AcDbEntity
  8
寸法線
 62
     0
440
 16777216
370
    -2
100
AcDbLine
 10
2452.14506206106
 20
1351.249984235718
 30
0.0
 11
2452.145056860356
 21
1119.999962839835
 31
0.0
  0
LINE
  5
113A7
330
11091
100
AcDbEntity
  8
寸法線
 62
     0
440
 16777216
370
    -2
100
AcDbLine
 10
2932.145036953836
 20
1129.999952044861
 30
0.0
 11
2472.145057085251
 21
1129.999962390045
 31
0.0
  0
INSERT
  5
113A8
330
11091
100
AcDbEntity
  8
寸法線
 62
     0
440
 16777216
370
    -2
100
AcDbBlockReference
  2
_OPEN
 10
2952.145036953836
 20
1129.99995159507
 30
0.0
 41
20.0
 42
20.0
 43
20.0
 50
359.9999987114448
  0
INSERT
  5
113A9
330
11091
100
AcDbEntity
  8
寸法線
 62
     0
440
 16777216
370
    -2
100
AcDbBlockReference
  2
_OPEN
 10
2452.145057085251
 20
1129.999962839835
 30
0.0
 41
20.0
 42
20.0
 43
20.0
 50
179.9999987114448
  0
MTEXT
  5
113AA
330
11091
100
AcDbEntity
  8
寸法線
 62
     0
440
 16777216
100
AcDbMText
 10
2702.145045075937
 20
1151.249957217453
 30
0.0
 40
25.0
 41
0.0
 46
0.0
 71
     5
 72
     1
  1
\A1;500
 11
0.9999999999999998
 21
-0.0000000224895302
 31
0.0
 73
     1
 44
1.0
  0
POINT
  5
113AB
330
11091
100
AcDbEntity
  8
Defpoints
 62
     0
440
 16777216
100
AcDbPoint
 10
2952.145042351324
 20
1369.999982630339
 30
0.0
  0
POINT
  5
113AC
330
11091
100
AcDbEntity
  8
Defpoints
 62
     0
440
 16777216
100
AcDbPoint
 10
2452.145062257844
 20
1359.999984235718
 30
0.0
  0
POINT
  5
113AD
330
11091
100
AcDbEntity
  8
Defpoints
 62
     0
440
 16777216
100
AcDbPoint
 10
2452.145057085251
 20
1129.999962839835
 30
0.0
  0
ENDBLK
  5
11093
330
11091
100
AcDbEntity
  8
0
100
AcDbBlockEnd
  0
BLOCK
  5
1109E
330
1109D
100
AcDbEntity
  8
0
100
AcDbBlockBegin
  2
*D46
 70
     1
 10
0.0
 20
0.0
 30
0.0
  3
*D46
  1

  0
LINE
  5
113AE
330
1109D
100
AcDbEntity
  8
寸法線
 62
     0
440
 16777216
370
    -2
100
AcDbLine
 10
1340.89506216443
 20
1652.99998263034
 30
0.0
 11
1462.145062164432
 21
1652.99998263034
 31
0.0
  0
LINE
  5
113AF
330
1109D
100
AcDbEntity
  8
寸法線
 62
     0
440
 16777216
370
    -2
100
AcDbLine
 10
1340.89506216443
 20
1636.99998263034
 30
0.0
 11
1462.145062164432
 21
1636.99998263034
 31
0.0
  0
LINE
  5
113B0
330
1109D
100
AcDbEntity
  8
寸法線
 62
     0
440
 16777216
370
    -2
100
AcDbLine
 10
1452.145062164432
 20
1672.99998263034
 30
0.0
 11
1452.145062164432
 21
1692.99998263034
 31
0.0
  0
LINE
  5
113B1
330
1109D
100
AcDbEntity
  8
寸法線
 62
     0
440
 16777216
370
    -2
100
AcDbLine
 10
1452.145062164432
 20
1616.99998263034
 30
0.0
 11
1452.145062164432
 21
1596.99998263034
 31
0.0
  0
LINE
  5
113B2
330
1109D
100
AcDbEntity
  8
寸法線
 62
     0
440
 16777216
370
    -2
100
AcDbLine
 10
1452.145062164432
 20
1652.99998263034
 30
0.0
 11
1452.145062164432
 21
1636.99998263034
 31
0.0
  0
INSERT
  5
113B3
330
1109D
100
AcDbEntity
  8
寸法線
 62
     0
440
 16777216
370
    -2
100
AcDbBlockReference
  2
_OPEN
 10
1452.145062164432
 20
1652.99998263034
 30
0.0
 41
20.0
 42
20.0
 43
20.0
 50
270.0
  0
INSERT
  5
113B4
330
1109D
100
AcDbEntity
  8
寸法線
 62
     0
440
 16777216
370
    -2
100
AcDbBlockReference
  2
_OPEN
 10
1452.145062164432
 20
1636.99998263034
 30
0.0
 41
20.0
 42
20.0
 43
20.0
 50
90.0
  0
MTEXT
  5
113B5
330
1109D
100
AcDbEntity
  8
寸法線
 62
     0
440
 16777216
100
AcDbMText
 10
1430.895062164433
 20
1644.999982630339
 30
0.0
 40
25.0
 41
0.0
 46
0.0
 71
     5
 72
     1
  1
\A1;16
 11
0.0000000000000001
 21
1.0
 31
0.0
 73
     1
 44
1.0
  0
POINT
  5
113B6
330
1109D
100
AcDbEntity
  8
Defpoints
 62
     0
440
 16777216
100
AcDbPoint
 10
1332.14506216443
 20
1652.99998263034
 30
0.0
  0
POINT
  5
113B7
330
1109D
100
AcDbEntity
  8
Defpoints
 62
     0
440
 16777216
100
AcDbPoint
 10
1332.14506216443
 20
1636.99998263034
 30
0.0
  0
POINT
  5
113B8
330
1109D
100
AcDbEntity
  8
Defpoints
 62
     0
440
 16777216
100
AcDbPoint
 10
1452.145062164432
 20
1636.99998263034
 30
0.0
  0
ENDBLK
  5
1109F
330
1109D
100
AcDbEntity
  8
0
100
AcDbBlockEnd
  0
BLOCK
  5
11345
330
11344
100
AcDbEntity
  8
0
100
AcDbBlockBegin
  2
*D47
 70
     1
 10
0.0
 20
0.0
 30
0.0
  3
*D47
  1

  0
LINE
  5
11548
330
11344
100
AcDbEntity
  8
寸法線
 62
     0
440
 16777216
370
    -2
100
AcDbLine
 10
1527.145042351321
 20
1401.249982630339
 30
0.0
 11
1527.145042351321
 21
1199.999982630339
 31
0.0
  0
LINE
  5
11549
330
11344
100
AcDbEntity
  8
寸法線
 62
     0
440
 16777216
370
    -2
100
AcDbLine
 10
1302.145042351321
 20
1401.249982630339
 30
0.0
 11
1302.145042351321
 21
1199.999982630339
 31
0.0
  0
LINE
  5
1154A
330
11344
100
AcDbEntity
  8
寸法線
 62
     0
440
 16777216
370
    -2
100
AcDbLine
 10
1507.145042351321
 20
1209.999982630339
 30
0.0
 11
1322.145042351321
 21
1209.999982630339
 31
0.0
  0
INSERT
  5
1154B
330
11344
100
AcDbEntity
  8
寸法線
 62
     0
440
 16777216
370
    -2
100
AcDbBlockReference
  2
_OPEN
 10
1527.145042351321
 20
1209.999982630339
 30
0.0
 41
20.0
 42
20.0
 43
20.0
  0
INSERT
  5
1154C
330
11344
100
AcDbEntity
  8
寸法線
 62
     0
440
 16777216
370
    -2
100
AcDbBlockReference
  2
_OPEN
 10
1302.145042351321
 20
1209.999982630339
 30
0.0
 41
20.0
 42
20.0
 43
20.0
 50
180.0
  0
MTEXT
  5
1154D
330
11344
100
AcDbEntity
  8
寸法線
 62
     0
440
 16777216
100
AcDbMText
 10
1414.645042351321
 20
1231.25244326026
 30
0.0
 40
25.0
 41
0.0
 46
0.0
 71
     5
 72
     1
  1
\A1;225
 73
     1
 44
1.0
  0
POINT
  5
1154E
330
11344
100
AcDbEntity
  8
Defpoints
 62
     0
440
 16777216
100
AcDbPoint
 10
1527.145042351321
 20
1409.999982630339
 30
0.0
  0
POINT
  5
1154F
330
11344
100
AcDbEntity
  8
Defpoints
 62
     0
440
 16777216
100
AcDbPoint
 10
1302.145042351321
 20
1409.999982630339
 30
0.0
  0
POINT
  5
11550
330
11344
100
AcDbEntity
  8
Defpoints
 62
     0
440
 16777216
100
AcDbPoint
 10
1302.145042351321
 20
1209.999982630339
 30
0.0
  0
ENDBLK
  5
11346
330
11344
100
AcDbEntity
  8
0
100
AcDbBlockEnd
  0
BLOCK
  5
11364
330
11363
100
AcDbEntity
  8
0
100
AcDbBlockBegin
  2
*D48
 70
     1
 10
0.0
 20
0.0
 30
0.0
  3
*D48
  1

  0
LINE
  5
11551
330
11363
100
AcDbEntity
  8
寸法線
 62
     0
440
 16777216
370
    -2
100
AcDbLine
 10
1777.145081977538
 20
1401.249982630339
 30
0.0
 11
1777.145081977538
 21
1199.999982630339
 31
0.0
  0
LINE
  5
11552
330
11363
100
AcDbEntity
  8
寸法線
 62
     0
440
 16777216
370
    -2
100
AcDbLine
 10
2002.145081977538
 20
1401.249982630339
 30
0.0
 11
2002.145081977538
 21
1199.999982630339
 31
0.0
  0
LINE
  5
11553
330
11363
100
AcDbEntity
  8
寸法線
 62
     0
440
 16777216
370
    -2
100
AcDbLine
 10
1797.145081977538
 20
1209.999982630339
 30
0.0
 11
1982.145081977538
 21
1209.999982630339
 31
0.0
  0
INSERT
  5
11554
330
11363
100
AcDbEntity
  8
寸法線
 62
     0
440
 16777216
370
    -2
100
AcDbBlockReference
  2
_OPEN
 10
1777.145081977538
 20
1209.999982630339
 30
0.0
 41
20.0
 42
20.0
 43
20.0
 50
180.0
  0
INSERT
  5
11555
330
11363
100
AcDbEntity
  8
寸法線
 62
     0
440
 16777216
370
    -2
100
AcDbBlockReference
  2
_OPEN
 10
2002.145081977538
 20
1209.999982630339
 30
0.0
 41
20.0
 42
20.0
 43
20.0
  0
MTEXT
  5
11556
330
11363
100
AcDbEntity
  8
寸法線
 62
     0
440
 16777216
100
AcDbMText
 10
1889.645081977538
 20
1231.25244326026
 30
0.0
 40
25.0
 41
0.0
 46
0.0
 71
     5
 72
     1
  1
\A1;225
 73
     1
 44
1.0
  0
POINT
  5
11557
330
11363
100
AcDbEntity
  8
Defpoints
 62
     0
440
 16777216
100
AcDbPoint
 10
1777.145081977538
 20
1409.999982630339
 30
0.0
  0
POINT
  5
11558
330
11363
100
AcDbEntity
  8
Defpoints
 62
     0
440
 16777216
100
AcDbPoint
 10
2002.145081977538
 20
1409.999982630339
 30
0.0
  0
POINT
  5
11559
330
11363
100
AcDbEntity
  8
Defpoints
 62
     0
440
 16777216
100
AcDbPoint
 10
2002.145081977538
 20
1209.999982630339
 30
0.0
  0
ENDBLK
  5
11365
330
11363
100
AcDbEntity
  8
0
100
AcDbBlockEnd
  0
BLOCK
  5
115B4
330
115B3
100
AcDbEntity
  8
0
100
AcDbBlockBegin
  2
*D49
 70
     1
 10
0.0
 20
0.0
 30
0.0
  3
*D49
  1

  0
LINE
  5
115C1
330
115B3
100
AcDbEntity
  8
寸法線
 62
     0
440
 16777216
370
    -2
100
AcDbLine
 10
1690.249996414962
 20
750.0000000000002
 30
0.0
 11
1688.999996414961
 21
750.0000000000002
 31
0.0
  0
LINE
  5
115C2
330
115B3
100
AcDbEntity
  8
寸法線
 62
     0
440
 16777216
370
    -2
100
AcDbLine
 10
1690.249996414962
 20
800.0000000000005
 30
0.0
 11
1688.999996414961
 21
800.0000000000005
 31
0.0
  0
LINE
  5
115C3
330
115B3
100
AcDbEntity
  8
寸法線
 62
     0
440
 16777216
370
    -2
100
AcDbLine
 10
1698.999996414961
 20
730.0000000000002
 30
0.0
 11
1698.999996414961
 21
710.0000000000002
 31
0.0
  0
LINE
  5
115C4
330
115B3
100
AcDbEntity
  8
寸法線
 62
     0
440
 16777216
370
    -2
100
AcDbLine
 10
1698.999996414961
 20
820.0000000000004
 30
0.0
 11
1698.999996414961
 21
840.0000000000003
 31
0.0
  0
LINE
  5
115C5
330
115B3
100
AcDbEntity
  8
寸法線
 62
     0
440
 16777216
370
    -2
100
AcDbLine
 10
1698.999996414961
 20
750.0000000000002
 30
0.0
 11
1698.999996414961
 21
800.0000000000005
 31
0.0
  0
INSERT
  5
115C6
330
115B3
100
AcDbEntity
  8
寸法線
 62
     0
440
 16777216
370
    -2
100
AcDbBlockReference
  2
_OPEN
 10
1698.999996414961
 20
750.0000000000002
 30
0.0
 41
20.0
 42
20.0
 43
20.0
 50
90.0
  0
INSERT
  5
115C7
330
115B3
100
AcDbEntity
  8
寸法線
 62
     0
440
 16777216
370
    -2
100
AcDbBlockReference
  2
_OPEN
 10
1698.999996414961
 20
800.0000000000005
 30
0.0
 41
20.0
 42
20.0
 43
20.0
 50
270.0
  0
MTEXT
  5
115C8
330
115B3
100
AcDbEntity
  8
寸法線
 62
     0
440
 16777216
100
AcDbMText
 10
1677.749996414961
 20
774.9999999999996
 30
0.0
 40
25.0
 41
0.0
 46
0.0
 71
     5
 72
     1
  1
\A1;φ50
 11
0.0000000000000001
 21
1.0
 31
0.0
 73
     1
 44
1.0
  0
POINT
  5
115C9
330
115B3
100
AcDbEntity
  8
Defpoints
 62
     0
440
 16777216
100
AcDbPoint
 10
1698.999996414962
 20
750.0000000000002
 30
0.0
  0
POINT
  5
115CA
330
115B3
100
AcDbEntity
  8
Defpoints
 62
     0
440
 16777216
100
AcDbPoint
 10
1698.999996414962
 20
800.0000000000005
 30
0.0
  0
POINT
  5
115CB
330
115B3
100
AcDbEntity
  8
Defpoints
 62
     0
440
 16777216
100
AcDbPoint
 10
1698.999996414961
 20
800.0000000000005
 30
0.0
  0
ENDBLK
  5
115B5
330
115B3
100
AcDbEntity
  8
0
100
AcDbBlockEnd
  0
ENDSEC
  0
SECTION
  2
ENTITIES
  0
LINE
  5
10BA1
330
1F
100
AcDbEntity
  8
中心線
100
AcDbLine
 10
327.1450423513215
 20
2220.000000400203
 30
0.0
 11
2977.145062164431
 21
2219.999962780315
 31
0.0
  0
LINE
  5
10BA2
330
1F
100
AcDbEntity
  8
中心線
100
AcDbLine
 10
327.1450423513215
 20
1519.999982630339
 30
0.0
 11
2977.145042351322
 21
1519.999982630339
 31
0.0
  0
LINE
  5
10BA3
330
1F
100
AcDbEntity
  8
中心線
100
AcDbLine
 10
1302.145042351321
 20
1629.999982630339
 30
0.0
 11
1302.145042351321
 21
1560.000019850015
 31
0.0
  0
LINE
  5
10BA4
330
1F
100
AcDbEntity
  8
中心線
100
AcDbLine
 10
1267.145060961159
 20
1595.000001240177
 30
0.0
 11
1337.145023741483
 21
1595.000001240177
 31
0.0
  0
CIRCLE
  5
10BA5
330
1F
100
AcDbEntity
  8
実線
100
AcDbCircle
 10
1302.145042351321
 20
1595.000001240177
 30
0.0
 40
12.5
  0
LINE
  5
10BA6
330
1F
100
AcDbEntity
  8
破線
100
AcDbLine
 10
2052.14506216443
 20
1524.99998263034
 30
0.0
 11
1252.14506216443
 21
1524.99998263034
 31
0.0
  0
DIMENSION
  5
10BA7
330
1F
100
AcDbEntity
  8
寸法線
100
AcDbDimension
280
     0
  2
*D40
 10
1252.145062257842
 20
1129.999962839778
 30
0.0
 11
1052.145049805313
 21
1129.999962839778
 31
0.0
 70
   160
 71
     5
 42
400.0
 73
     0
 74
     0
 75
     0
  3
STANDARD
100
AcDbAlignedDimension
 13
852.1450622578422
 23
1359.999984235718
 33
0.0
 14
1252.145062257842
 24
1360.000002480348
 34
0.0
100
AcDbRotatedDimension
  0
DIMENSION
  5
10BA8
330
1F
100
AcDbEntity
  8
寸法線
100
AcDbDimension
280
     0
  2
*D41
 10
852.1450622578422
 20
1129.999962839778
 30
0.0
 11
602.1450598052779
 21
1129.999962839778
 31
0.0
 70
   160
 71
     5
 42
500.0000199065206
 73
     0
 74
     0
 75
     0
  3
STANDARD
100
AcDbAlignedDimension
 13
352.1450423513215
 23
1369.999982630339
 33
0.0
 14
852.1450622578422
 24
1359.999984235718
 34
0.0
100
AcDbRotatedDimension
  0
DIMENSION
  5
10BA9
330
1F
100
AcDbEntity
  8
寸法線
100
AcDbDimension
280
     0
  2
*D42
 10
2052.145062257842
 20
1129.999962839778
 30
0.0
 11
2252.14505471045
 21
1129.999962839778
 31
0.0
 70
   160
 71
     5
 42
400.0000000000008
 73
     0
 74
     0
 75
     0
  3
STANDARD
100
AcDbAlignedDimension
 13
2452.145062257843
 23
1359.999984235718
 33
0.0
 14
2052.145062257842
 24
1359.999984235718
 34
0.0
 50
180.0
100
AcDbRotatedDimension
  0
LINE
  5
10BAA
330
1F
100
AcDbEntity
  8
中心線
100
AcDbLine
 10
747.1450621644298
 20
1644.999982630339
 30
0.0
 11
1351.066281906214
 21
1644.999982630339
 31
0.0
  0
LINE
  5
10BAB
330
1F
100
AcDbEntity
  8
破線
100
AcDbLine
 10
1332.14506216443
 20
1652.999982630339
 30
0.0
 11
1252.145081977539
 21
1652.999982630339
 31
0.0
  0
LINE
  5
10BAC
330
1F
100
AcDbEntity
  8
破線
100
AcDbLine
 10
1332.14506216443
 20
1636.999982630339
 30
0.0
 11
1252.145081977539
 21
1636.999982630339
 31
0.0
  0
LINE
  5
10BAD
330
1F
100
AcDbEntity
  8
破線
100
AcDbLine
 10
1332.14506216443
 20
1652.999982630339
 30
0.0
 11
1332.14506216443
 21
1636.999982630339
 31
0.0
  0
DIMENSION
  5
10BAE
330
1F
100
AcDbEntity
  8
寸法線
100
AcDbDimension
280
     0
  2
*D43
 10
232.1450423513212
 20
1369.999982630339
 30
0.0
 11
232.1450423513216
 21
1520.000001240177
 31
0.0
 70
   160
 71
     5
 42
300.0000372196762
 73
     0
 74
     0
 75
     0
  3
STANDARD
100
AcDbAlignedDimension
 13
352.1450423513215
 23
1670.000019850015
 33
0.0
 14
352.1450423513215
 24
1369.999982630339
 34
0.0
 50
90.0
100
AcDbRotatedDimension
  0
DIMENSION
  5
10BAF
330
1F
100
AcDbEntity
  8
寸法線
100
AcDbDimension
280
     0
  2
*D44
 10
3072.145062164431
 20
2075.999925560641
 30
0.0
 11
3072.14506216443
 21
2219.999962780315
 31
0.0
 70
   160
 71
     5
 42
288.000074439351
 73
     0
 74
     0
 75
     0
  3
STANDARD
100
AcDbAlignedDimension
 13
2952.145042351322
 23
2363.999999999991
 33
0.0
 14
2952.145042351322
 24
2075.99992556064
 34
0.0
 50
90.0
100
AcDbRotatedDimension
  0
DIMENSION
  5
10BB0
330
1F
100
AcDbEntity
  8
寸法線
100
AcDbDimension
280
     0
  2
*D45
 10
2452.145057085251
 20
1129.999962839835
 30
0.0
 11
2702.145044598035
 21
1129.999957217453
 31
0.0
 70
   160
 71
     5
 42
499.9999798685848
 73
     0
 74
     0
 75
     0
  3
STANDARD
100
AcDbAlignedDimension
 13
2952.145042351324
 23
1369.999982630339
 33
0.0
 14
2452.145062257843
 24
1359.999984235718
 34
0.0
 50
179.9999987114448
100
AcDbRotatedDimension
  0
DIMENSION
  5
10BB1
330
1F
100
AcDbEntity
  8
寸法線
100
AcDbDimension
280
     0
  2
*D46
 10
1452.145062164432
 20
1636.99998263034
 30
0.0
 11
1452.145062164432
 21
1644.999982630339
 31
0.0
 70
   160
 71
     5
 42
16.0
 73
     0
 74
     0
 75
     0
  3
STANDARD
100
AcDbAlignedDimension
 13
1332.14506216443
 23
1652.999982630339
 33
0.0
 14
1332.14506216443
 24
1636.999982630339
 34
0.0
 50
90.0
100
AcDbRotatedDimension
  0
LINE
  5
10BB2
330
1F
100
AcDbEntity
  8
実線
100
AcDbLine
 10
2052.14506216443
 20
1669.999982630339
 30
0.0
 11
1252.14506216443
 21
1669.999982630339
 31
0.0
  0
LWPOLYLINE
  5
10BB3
330
1F
100
AcDbEntity
  8
Defpoints
100
AcDbPolyline
 90
        4
 70
     1
 43
0.0
 10
0.0
 20
0.0
 10
4200.0
 20
0.0
 10
4200.0
 20
2970.0
 10
0.0
 20
2970.0
  0
LWPOLYLINE
  5
10BB4
330
1F
100
AcDbEntity
  8
Defpoints
100
AcDbPolyline
 90
        4
 70
     1
 43
0.0
 10
69.0039999999999
 20
69.10750000000007
 10
4130.995999999998
 20
69.10750000000007
 10
4130.995999999998
 20
2900.8925
 10
69.0039999999999
 20
2900.8925
  0
LINE
  5
10BB5
330
1F
100
AcDbEntity
  8
中心線
100
AcDbLine
 10
1302.145042351321
 20
1409.999982630339
 30
0.0
 11
1302.145042351321
 21
1479.999945410664
 31
0.0
  0
LINE
  5
10BB6
330
1F
100
AcDbEntity
  8
中心線
100
AcDbLine
 10
1267.145060961159
 20
1444.999964020501
 30
0.0
 11
1337.145023741483
 21
1444.999964020501
 31
0.0
  0
CIRCLE
  5
10BB7
330
1F
100
AcDbEntity
  8
実線
100
AcDbCircle
 10
1302.145042351321
 20
1444.999964020501
 30
0.0
 40
12.5
  0
LINE
  5
10BB8
330
1F
100
AcDbEntity
  8
破線
100
AcDbLine
 10
2051.103386727227
 20
1514.999982630338
 30
0.0
 11
1252.14506216443
 21
1514.999982630338
 31
0.0
  0
LINE
  5
10BB9
330
1F
100
AcDbEntity
  8
破線
100
AcDbLine
 10
1332.14506216443
 20
1386.999982630339
 30
0.0
 11
1252.145081977539
 21
1386.999982630339
 31
0.0
  0
LINE
  5
10BBA
330
1F
100
AcDbEntity
  8
破線
100
AcDbLine
 10
1332.14506216443
 20
1402.999982630339
 30
0.0
 11
1252.145081977539
 21
1402.999982630339
 31
0.0
  0
LINE
  5
10BBB
330
1F
100
AcDbEntity
  8
破線
100
AcDbLine
 10
1332.14506216443
 20
1386.999982630339
 30
0.0
 11
1332.14506216443
 21
1402.999982630339
 31
0.0
  0
LINE
  5
10BBC
330
1F
100
AcDbEntity
  8
実線
100
AcDbLine
 10
2052.14506216443
 20
1369.999982630339
 30
0.0
 11
1252.14506216443
 21
1369.999982630339
 31
0.0
  0
LINE
  5
10BBD
330
1F
100
AcDbEntity
  8
中心線
100
AcDbLine
 10
2554.653117484193
 20
1644.999982630339
 30
0.0
 11
1947.14506216443
 21
1644.999982630339
 31
0.0
  0
LINE
  5
10BBE
330
1F
100
AcDbEntity
  8
破線
100
AcDbLine
 10
1972.14506216443
 20
1652.999982630339
 30
0.0
 11
2052.145002725104
 21
1652.999982630339
 31
0.0
  0
LINE
  5
10BBF
330
1F
100
AcDbEntity
  8
破線
100
AcDbLine
 10
1972.14506216443
 20
1636.999982630339
 30
0.0
 11
2052.145002725104
 21
1636.999982630339
 31
0.0
  0
LINE
  5
10BC0
330
1F
100
AcDbEntity
  8
破線
100
AcDbLine
 10
1972.145022538213
 20
1652.999982630339
 30
0.0
 11
1972.145022538213
 21
1636.999982630339
 31
0.0
  0
LINE
  5
10BC1
330
1F
100
AcDbEntity
  8
破線
100
AcDbLine
 10
1972.14506216443
 20
1386.999982630339
 30
0.0
 11
2052.145002725104
 21
1386.999982630339
 31
0.0
  0
LINE
  5
10BC2
330
1F
100
AcDbEntity
  8
破線
100
AcDbLine
 10
1972.14506216443
 20
1402.999982630339
 30
0.0
 11
2052.145002725104
 21
1402.999982630339
 31
0.0
  0
LINE
  5
10BC3
330
1F
100
AcDbEntity
  8
破線
100
AcDbLine
 10
1972.145022538213
 20
1386.999982630339
 30
0.0
 11
1972.145022538213
 21
1402.999982630339
 31
0.0
  0
LINE
  5
10BC4
330
1F
100
AcDbEntity
  8
中心線
100
AcDbLine
 10
747.1450621644298
 20
1394.999982630339
 30
0.0
 11
1353.710799152713
 21
1394.999982630339
 31
0.0
  0
LINE
  5
10BC5
330
1F
100
AcDbEntity
  8
中心線
100
AcDbLine
 10
2551.285332727422
 20
1394.999982630339
 30
0.0
 11
1947.14506216443
 21
1394.999982630339
 31
0.0
  0
LINE
  5
10BC6
330
1F
100
AcDbEntity
  8
中心線
100
AcDbLine
 10
827.1450621644298
 20
2344.999962780315
 30
0.0
 11
1278.401122477035
 21
2344.999962780315
 31
0.0
  0
LINE
  5
10BC7
330
1F
100
AcDbEntity
  8
中心線
100
AcDbLine
 10
827.1450621644298
 20
2094.999962780316
 30
0.0
 11
1275.261618767388
 21
2094.999962780316
 31
0.0
  0
LINE
  5
10BC9
330
1F
100
AcDbEntity
  8
実線
100
AcDbLine
 10
868.1450622578422
 20
1360.000002480348
 30
0.0
 11
868.1450622578431
 21
1680.000002480348
 31
0.0
  0
LINE
  5
10BCA
330
1F
100
AcDbEntity
  8
実線
100
AcDbLine
 10
852.1450622578422
 20
1679.999984235718
 30
0.0
 11
868.1450622578431
 21
1679.999984235718
 31
0.0
  0
LINE
  5
10BCB
330
1F
100
AcDbEntity
  8
実線
100
AcDbLine
 10
852.1450622578422
 20
1359.999984235718
 30
0.0
 11
868.1450622578422
 21
1359.999984235718
 31
0.0
  0
LINE
  5
10BCC
330
1F
100
AcDbEntity
  8
実線
100
AcDbLine
 10
1236.145062257842
 20
1360.000002480348
 30
0.0
 11
1236.145062257842
 21
1680.000002480348
 31
0.0
  0
LINE
  5
10BCD
330
1F
100
AcDbEntity
  8
実線
100
AcDbLine
 10
1252.145062257842
 20
1360.000002480348
 30
0.0
 11
1252.145062257842
 21
1680.000002480348
 31
0.0
  0
LINE
  5
10BCE
330
1F
100
AcDbEntity
  8
実線
100
AcDbLine
 10
1236.145062257842
 20
1679.999984235718
 30
0.0
 11
1252.145062257842
 21
1679.999984235718
 31
0.0
  0
LINE
  5
10BCF
330
1F
100
AcDbEntity
  8
実線
100
AcDbLine
 10
1236.145062257842
 20
1359.999984235718
 30
0.0
 11
1252.145062257842
 21
1359.999984235718
 31
0.0
  0
LINE
  5
10BD0
330
1F
100
AcDbEntity
  8
実線
100
AcDbLine
 10
880.1450622578423
 20
1414.999984235718
 30
0.0
 11
900.1450622578431
 21
1414.999984235718
 31
0.0
  0
LINE
  5
10BD1
330
1F
100
AcDbEntity
  8
実線
100
AcDbLine
 10
900.1450622578422
 20
1414.999984235718
 30
0.0
 11
900.1450622578422
 21
1624.999984235718
 31
0.0
  0
LINE
  5
10BD2
330
1F
100
AcDbEntity
  8
実線
100
AcDbLine
 10
1204.145062257842
 20
1414.999984235718
 30
0.0
 11
1204.145062257842
 21
1624.999984235718
 31
0.0
  0
LINE
  5
10BD3
330
1F
100
AcDbEntity
  8
実線
100
AcDbLine
 10
1204.145062257842
 20
1414.999984235718
 30
0.0
 11
1224.145062257842
 21
1414.999984235718
 31
0.0
  0
LINE
  5
10BD4
330
1F
100
AcDbEntity
  8
実線
100
AcDbLine
 10
868.1450622578422
 20
1426.999984235718
 30
0.0
 11
880.1450622578423
 21
1414.999984235718
 31
0.0
  0
LINE
  5
10BD5
330
1F
100
AcDbEntity
  8
実線
100
AcDbLine
 10
1224.145062257842
 20
1414.999984235718
 30
0.0
 11
1236.145062257842
 21
1426.999984235718
 31
0.0
  0
LINE
  5
10BD6
330
1F
100
AcDbEntity
  8
実線
100
AcDbLine
 10
868.1450622578422
 20
1419.999984235718
 30
0.0
 11
875.1450622578422
 21
1419.999984235718
 31
0.0
  0
LINE
  5
10BD7
330
1F
100
AcDbEntity
  8
実線
100
AcDbLine
 10
868.1450622578422
 20
1369.999984235718
 30
0.0
 11
1236.145062257842
 21
1369.999984235718
 31
0.0
  0
LINE
  5
10BD8
330
1F
100
AcDbEntity
  8
実線
100
AcDbLine
 10
1229.145062257843
 20
1419.999984235718
 30
0.0
 11
1236.145062257842
 21
1419.999984235718
 31
0.0
  0
LINE
  5
10BD9
330
1F
100
AcDbEntity
  8
実線
100
AcDbLine
 10
900.1450622578422
 20
1419.999984235718
 30
0.0
 11
1204.145062257842
 21
1419.999984235718
 31
0.0
  0
LINE
  5
10BDA
330
1F
100
AcDbEntity
  8
破線
100
AcDbLine
 10
875.1450622578422
 20
1419.999984235718
 30
0.0
 11
900.1450622578422
 21
1419.999984235718
 31
0.0
  0
LINE
  5
10BDB
330
1F
100
AcDbEntity
  8
破線
100
AcDbLine
 10
1204.145062257842
 20
1419.999984235718
 30
0.0
 11
1229.145062257843
 21
1419.999984235718
 31
0.0
  0
LINE
  5
10BDC
330
1F
100
AcDbEntity
  8
破線
100
AcDbLine
 10
868.1450622578422
 20
1378.999984235718
 30
0.0
 11
900.1450622578431
 21
1378.999984235718
 31
0.0
  0
LINE
  5
10BDD
330
1F
100
AcDbEntity
  8
破線
100
AcDbLine
 10
900.1450622578431
 20
1378.999984235718
 30
0.0
 11
900.1450622578431
 21
1369.999984235718
 31
0.0
  0
LINE
  5
10BDE
330
1F
100
AcDbEntity
  8
破線
100
AcDbLine
 10
1204.145062257842
 20
1619.999984235718
 30
0.0
 11
1229.145062257843
 21
1619.999984235718
 31
0.0
  0
LINE
  5
10BDF
330
1F
100
AcDbEntity
  8
実線
100
AcDbLine
 10
900.1450622578422
 20
1619.999984235718
 30
0.0
 11
1204.145062257842
 21
1619.999984235718
 31
0.0
  0
LINE
  5
10BE0
330
1F
100
AcDbEntity
  8
実線
100
AcDbLine
 10
1229.145062257843
 20
1619.999984235718
 30
0.0
 11
1236.145062257842
 21
1619.999984235718
 31
0.0
  0
LINE
  5
10BE1
330
1F
100
AcDbEntity
  8
実線
100
AcDbLine
 10
868.1450622578422
 20
1669.999984235718
 30
0.0
 11
1236.145062257842
 21
1669.99998269723
 31
0.0
  0
LINE
  5
10BE2
330
1F
100
AcDbEntity
  8
実線
100
AcDbLine
 10
1204.145062257842
 20
1624.999984235718
 30
0.0
 11
1224.145062257842
 21
1624.999984235718
 31
0.0
  0
LINE
  5
10BE3
330
1F
100
AcDbEntity
  8
実線
100
AcDbLine
 10
1224.145062257842
 20
1624.999984235718
 30
0.0
 11
1236.145062257842
 21
1612.999984235718
 31
0.0
  0
LINE
  5
10BE4
330
1F
100
AcDbEntity
  8
破線
100
AcDbLine
 10
868.1450622578422
 20
1660.999984235718
 30
0.0
 11
900.1450622578431
 21
1660.999984235718
 31
0.0
  0
LINE
  5
10BE5
330
1F
100
AcDbEntity
  8
破線
100
AcDbLine
 10
900.1450622578431
 20
1660.999984235718
 30
0.0
 11
900.1450622578431
 21
1669.999984235718
 31
0.0
  0
LINE
  5
10BE6
330
1F
100
AcDbEntity
  8
破線
100
AcDbLine
 10
875.1450622578422
 20
1619.999984235718
 30
0.0
 11
900.1450622578422
 21
1619.999984235718
 31
0.0
  0
LINE
  5
10BE7
330
1F
100
AcDbEntity
  8
実線
100
AcDbLine
 10
880.1450622578423
 20
1624.999984235718
 30
0.0
 11
900.1450622578431
 21
1624.999984235718
 31
0.0
  0
LINE
  5
10BE8
330
1F
100
AcDbEntity
  8
実線
100
AcDbLine
 10
868.1450622578422
 20
1612.999984235718
 30
0.0
 11
880.1450622578423
 21
1624.999984235718
 31
0.0
  0
LINE
  5
10BE9
330
1F
100
AcDbEntity
  8
実線
100
AcDbLine
 10
868.1450622578422
 20
1619.999984235718
 30
0.0
 11
875.1450622578422
 21
1619.999984235718
 31
0.0
  0
LINE
  5
10BEA
330
1F
100
AcDbEntity
  8
破線
100
AcDbLine
 10
1236.145062257842
 20
1378.999984235718
 30
0.0
 11
1204.145062257842
 21
1378.999984235718
 31
0.0
  0
LINE
  5
10BEB
330
1F
100
AcDbEntity
  8
破線
100
AcDbLine
 10
1204.145062257842
 20
1378.999984235718
 30
0.0
 11
1204.145062257842
 21
1369.999984235718
 31
0.0
  0
LINE
  5
10BEC
330
1F
100
AcDbEntity
  8
破線
100
AcDbLine
 10
1204.145062257842
 20
1660.999984235718
 30
0.0
 11
1204.145062257842
 21
1669.999984235718
 31
0.0
  0
LINE
  5
10BED
330
1F
100
AcDbEntity
  8
破線
100
AcDbLine
 10
1236.145062257842
 20
1660.999984235718
 30
0.0
 11
1204.145062257842
 21
1660.999984235718
 31
0.0
  0
LINE
  5
10BEE
330
1F
100
AcDbEntity
  8
破線
100
AcDbLine
 10
868.1450622578422
 20
1524.499984235718
 30
0.0
 11
900.1450622578422
 21
1524.499984235718
 31
0.0
  0
LINE
  5
10BEF
330
1F
100
AcDbEntity
  8
破線
100
AcDbLine
 10
868.1450622578422
 20
1515.499984235718
 30
0.0
 11
900.1450622578422
 21
1515.499984235718
 31
0.0
  0
LINE
  5
10BF0
330
1F
100
AcDbEntity
  8
破線
100
AcDbLine
 10
1204.145062257842
 20
1524.499984235718
 30
0.0
 11
1236.145062257842
 21
1524.499984235718
 31
0.0
  0
LINE
  5
10BF1
330
1F
100
AcDbEntity
  8
破線
100
AcDbLine
 10
1204.145062257842
 20
1515.499984235718
 30
0.0
 11
1236.145062257842
 21
1515.499984235718
 31
0.0
  0
LINE
  5
10BF2
330
1F
100
AcDbEntity
  8
実線
100
AcDbLine
 10
2052.145062257842
 20
1360.000002480348
 30
0.0
 11
2052.145062257842
 21
1680.000002480348
 31
0.0
  0
LINE
  5
10BF3
330
1F
100
AcDbEntity
  8
実線
100
AcDbLine
 10
2068.145062257842
 20
1360.000002480348
 30
0.0
 11
2068.145062257843
 21
1680.000002480348
 31
0.0
  0
LINE
  5
10BF4
330
1F
100
AcDbEntity
  8
実線
100
AcDbLine
 10
2052.145062257842
 20
1679.999984235718
 30
0.0
 11
2068.145062257843
 21
1679.999984235718
 31
0.0
  0
LINE
  5
10BF5
330
1F
100
AcDbEntity
  8
実線
100
AcDbLine
 10
2052.145062257842
 20
1359.999984235718
 30
0.0
 11
2068.145062257842
 21
1359.999984235718
 31
0.0
  0
LINE
  5
10BF6
330
1F
100
AcDbEntity
  8
実線
100
AcDbLine
 10
2436.145062257843
 20
1360.000002480348
 30
0.0
 11
2436.145062257843
 21
1680.000002480348
 31
0.0
  0
LINE
  5
10BF8
330
1F
100
AcDbEntity
  8
実線
100
AcDbLine
 10
2436.145062257843
 20
1679.999984235718
 30
0.0
 11
2452.145062257843
 21
1679.999984235718
 31
0.0
  0
LINE
  5
10BF9
330
1F
100
AcDbEntity
  8
実線
100
AcDbLine
 10
2436.145062257843
 20
1359.999984235718
 30
0.0
 11
2452.145062257843
 21
1359.999984235718
 31
0.0
  0
LINE
  5
10BFA
330
1F
100
AcDbEntity
  8
実線
100
AcDbLine
 10
2080.145062257842
 20
1414.999984235718
 30
0.0
 11
2100.145062257843
 21
1414.999984235718
 31
0.0
  0
LINE
  5
10BFB
330
1F
100
AcDbEntity
  8
実線
100
AcDbLine
 10
2100.145062257842
 20
1414.999984235718
 30
0.0
 11
2100.145062257842
 21
1624.999984235718
 31
0.0
  0
LINE
  5
10BFC
330
1F
100
AcDbEntity
  8
実線
100
AcDbLine
 10
2404.145062257843
 20
1414.999984235718
 30
0.0
 11
2404.145062257843
 21
1624.999984235718
 31
0.0
  0
LINE
  5
10BFD
330
1F
100
AcDbEntity
  8
実線
100
AcDbLine
 10
2404.145062257843
 20
1414.999984235718
 30
0.0
 11
2424.145062257843
 21
1414.999984235718
 31
0.0
  0
LINE
  5
10BFE
330
1F
100
AcDbEntity
  8
実線
100
AcDbLine
 10
2068.145062257842
 20
1426.999984235718
 30
0.0
 11
2080.145062257842
 21
1414.999984235718
 31
0.0
  0
LINE
  5
10BFF
330
1F
100
AcDbEntity
  8
実線
100
AcDbLine
 10
2424.145062257843
 20
1414.999984235718
 30
0.0
 11
2436.145062257843
 21
1426.999984235718
 31
0.0
  0
LINE
  5
10C00
330
1F
100
AcDbEntity
  8
実線
100
AcDbLine
 10
2068.145062257842
 20
1419.999984235718
 30
0.0
 11
2075.145062257842
 21
1419.999984235718
 31
0.0
  0
LINE
  5
10C01
330
1F
100
AcDbEntity
  8
実線
100
AcDbLine
 10
2068.145062257842
 20
1369.999984235718
 30
0.0
 11
2436.145062257843
 21
1369.999982697229
 31
0.0
  0
LINE
  5
10C02
330
1F
100
AcDbEntity
  8
実線
100
AcDbLine
 10
2429.145062257843
 20
1419.999984235718
 30
0.0
 11
2436.145062257843
 21
1419.999984235718
 31
0.0
  0
LINE
  5
10C03
330
1F
100
AcDbEntity
  8
実線
100
AcDbLine
 10
2100.145062257842
 20
1419.999984235718
 30
0.0
 11
2404.145062257843
 21
1419.999984235718
 31
0.0
  0
LINE
  5
10C04
330
1F
100
AcDbEntity
  8
破線
100
AcDbLine
 10
2075.145062257842
 20
1419.999984235718
 30
0.0
 11
2100.145062257842
 21
1419.999984235718
 31
0.0
  0
LINE
  5
10C05
330
1F
100
AcDbEntity
  8
破線
100
AcDbLine
 10
2404.145062257843
 20
1419.999984235718
 30
0.0
 11
2429.145062257843
 21
1419.999984235718
 31
0.0
  0
LINE
  5
10C06
330
1F
100
AcDbEntity
  8
破線
100
AcDbLine
 10
2068.145062257842
 20
1378.999984235718
 30
0.0
 11
2100.145062257843
 21
1378.999984235718
 31
0.0
  0
LINE
  5
10C07
330
1F
100
AcDbEntity
  8
破線
100
AcDbLine
 10
2100.145062257843
 20
1378.999984235718
 30
0.0
 11
2100.145062257843
 21
1369.999984235718
 31
0.0
  0
LINE
  5
10C08
330
1F
100
AcDbEntity
  8
破線
100
AcDbLine
 10
2404.145062257843
 20
1619.999984235718
 30
0.0
 11
2429.145062257843
 21
1619.999984235718
 31
0.0
  0
LINE
  5
10C09
330
1F
100
AcDbEntity
  8
実線
100
AcDbLine
 10
2100.145062257842
 20
1619.999984235718
 30
0.0
 11
2404.145062257843
 21
1619.999984235718
 31
0.0
  0
LINE
  5
10C0A
330
1F
100
AcDbEntity
  8
実線
100
AcDbLine
 10
2429.145062257843
 20
1619.999984235718
 30
0.0
 11
2436.145062257843
 21
1619.999984235718
 31
0.0
  0
LINE
  5
10C0B
330
1F
100
AcDbEntity
  8
実線
100
AcDbLine
 10
2068.145062257842
 20
1669.999984235718
 30
0.0
 11
2436.145062257843
 21
1669.99998269723
 31
0.0
  0
LINE
  5
10C0C
330
1F
100
AcDbEntity
  8
実線
100
AcDbLine
 10
2404.145062257843
 20
1624.999984235718
 30
0.0
 11
2424.145062257843
 21
1624.999984235718
 31
0.0
  0
LINE
  5
10C0D
330
1F
100
AcDbEntity
  8
実線
100
AcDbLine
 10
2424.145062257843
 20
1624.999984235718
 30
0.0
 11
2436.145062257843
 21
1612.999984235718
 31
0.0
  0
LINE
  5
10C0E
330
1F
100
AcDbEntity
  8
破線
100
AcDbLine
 10
2068.145062257842
 20
1660.999984235718
 30
0.0
 11
2100.145062257843
 21
1660.999984235718
 31
0.0
  0
LINE
  5
10C0F
330
1F
100
AcDbEntity
  8
破線
100
AcDbLine
 10
2100.145062257843
 20
1660.999984235718
 30
0.0
 11
2100.145062257843
 21
1669.999984235718
 31
0.0
  0
LINE
  5
10C10
330
1F
100
AcDbEntity
  8
破線
100
AcDbLine
 10
2075.145062257842
 20
1619.999984235718
 30
0.0
 11
2100.145062257842
 21
1619.999984235718
 31
0.0
  0
LINE
  5
10C11
330
1F
100
AcDbEntity
  8
実線
100
AcDbLine
 10
2080.145062257842
 20
1624.999984235718
 30
0.0
 11
2100.145062257843
 21
1624.999984235718
 31
0.0
  0
LINE
  5
10C12
330
1F
100
AcDbEntity
  8
実線
100
AcDbLine
 10
2068.145062257842
 20
1612.999984235718
 30
0.0
 11
2080.145062257842
 21
1624.999984235718
 31
0.0
  0
LINE
  5
10C13
330
1F
100
AcDbEntity
  8
実線
100
AcDbLine
 10
2068.145062257842
 20
1619.999984235718
 30
0.0
 11
2075.145062257842
 21
1619.999984235718
 31
0.0
  0
LINE
  5
10C14
330
1F
100
AcDbEntity
  8
破線
100
AcDbLine
 10
2436.145062257843
 20
1378.999984235718
 30
0.0
 11
2404.145062257843
 21
1378.999984235718
 31
0.0
  0
LINE
  5
10C15
330
1F
100
AcDbEntity
  8
破線
100
AcDbLine
 10
2404.145062257843
 20
1378.999984235718
 30
0.0
 11
2404.145062257843
 21
1369.999984235718
 31
0.0
  0
LINE
  5
10C16
330
1F
100
AcDbEntity
  8
破線
100
AcDbLine
 10
2404.145062257843
 20
1660.999984235718
 30
0.0
 11
2404.145062257843
 21
1669.999984235718
 31
0.0
  0
LINE
  5
10C17
330
1F
100
AcDbEntity
  8
破線
100
AcDbLine
 10
2436.145062257843
 20
1660.999984235718
 30
0.0
 11
2404.145062257843
 21
1660.999984235718
 31
0.0
  0
LINE
  5
10C18
330
1F
100
AcDbEntity
  8
破線
100
AcDbLine
 10
2068.145062257842
 20
1524.499984235718
 30
0.0
 11
2100.145062257842
 21
1524.499984235718
 31
0.0
  0
LINE
  5
10C19
330
1F
100
AcDbEntity
  8
破線
100
AcDbLine
 10
2068.145062257842
 20
1515.499984235718
 30
0.0
 11
2100.145062257842
 21
1515.499984235718
 31
0.0
  0
LINE
  5
10C1A
330
1F
100
AcDbEntity
  8
破線
100
AcDbLine
 10
2404.145062257843
 20
1524.499984235718
 30
0.0
 11
2436.145062257843
 21
1524.499984235718
 31
0.0
  0
LINE
  5
10C1B
330
1F
100
AcDbEntity
  8
破線
100
AcDbLine
 10
2404.145062257843
 20
1515.499984235718
 30
0.0
 11
2436.145062257843
 21
1515.499984235718
 31
0.0
  0
LINE
  5
10C1C
330
1F
100
AcDbEntity
  8
実線
100
AcDbLine
 10
852.1450622578422
 20
2059.999982630324
 30
0.0
 11
852.1450622578422
 21
2379.999982630325
 31
0.0
  0
LINE
  5
10C1D
330
1F
100
AcDbEntity
  8
実線
100
AcDbLine
 10
868.1450622578422
 20
2059.999982630324
 30
0.0
 11
868.1450622578431
 21
2379.999982630325
 31
0.0
  0
LINE
  5
10C1E
330
1F
100
AcDbEntity
  8
実線
100
AcDbLine
 10
852.1450622578422
 20
2379.999964385695
 30
0.0
 11
868.1450622578431
 21
2379.999964385695
 31
0.0
  0
LINE
  5
10C1F
330
1F
100
AcDbEntity
  8
実線
100
AcDbLine
 10
852.1450622578422
 20
2059.999964385694
 30
0.0
 11
868.1450622578422
 21
2059.999964385694
 31
0.0
  0
LINE
  5
10C20
330
1F
100
AcDbEntity
  8
実線
100
AcDbLine
 10
1236.145062257842
 20
2059.999982630324
 30
0.0
 11
1236.145062257842
 21
2379.999982630325
 31
0.0
  0
LINE
  5
10C21
330
1F
100
AcDbEntity
  8
実線
100
AcDbLine
 10
1252.145062257842
 20
2059.999982630324
 30
0.0
 11
1252.145062257842
 21
2379.999982630325
 31
0.0
  0
LINE
  5
10C22
330
1F
100
AcDbEntity
  8
実線
100
AcDbLine
 10
1236.145062257842
 20
2379.999964385695
 30
0.0
 11
1252.145062257842
 21
2379.999964385695
 31
0.0
  0
LINE
  5
10C23
330
1F
100
AcDbEntity
  8
実線
100
AcDbLine
 10
1236.145062257842
 20
2059.999964385694
 30
0.0
 11
1252.145062257842
 21
2059.999964385694
 31
0.0
  0
LINE
  5
10C24
330
1F
100
AcDbEntity
  8
実線
100
AcDbLine
 10
880.1450622578423
 20
2114.999964385694
 30
0.0
 11
900.1450622578431
 21
2114.999964385694
 31
0.0
  0
LINE
  5
10C25
330
1F
100
AcDbEntity
  8
実線
100
AcDbLine
 10
900.1450622578422
 20
2114.999964385694
 30
0.0
 11
900.1450622578422
 21
2324.999964385694
 31
0.0
  0
LINE
  5
10C26
330
1F
100
AcDbEntity
  8
実線
100
AcDbLine
 10
1204.145062257842
 20
2114.999964385694
 30
0.0
 11
1204.145062257842
 21
2324.999964385694
 31
0.0
  0
LINE
  5
10C27
330
1F
100
AcDbEntity
  8
実線
100
AcDbLine
 10
1204.145062257842
 20
2114.999964385694
 30
0.0
 11
1224.145062257842
 21
2114.999964385694
 31
0.0
  0
LINE
  5
10C28
330
1F
100
AcDbEntity
  8
実線
100
AcDbLine
 10
868.1450622578422
 20
2126.999964385694
 30
0.0
 11
880.1450622578423
 21
2114.999964385694
 31
0.0
  0
LINE
  5
10C29
330
1F
100
AcDbEntity
  8
実線
100
AcDbLine
 10
1224.145062257842
 20
2114.999964385694
 30
0.0
 11
1236.145062257842
 21
2126.999964385694
 31
0.0
  0
LINE
  5
10C2A
330
1F
100
AcDbEntity
  8
実線
100
AcDbLine
 10
868.1450622578422
 20
2119.999964385694
 30
0.0
 11
875.1450622578422
 21
2119.999964385694
 31
0.0
  0
LINE
  5
10C2B
330
1F
100
AcDbEntity
  8
実線
100
AcDbLine
 10
868.1450622578422
 20
2069.999964385694
 30
0.0
 11
1236.145062257842
 21
2069.999964385694
 31
0.0
  0
LINE
  5
10C2C
330
1F
100
AcDbEntity
  8
実線
100
AcDbLine
 10
1229.145062257843
 20
2119.999964385694
 30
0.0
 11
1236.145062257842
 21
2119.999964385694
 31
0.0
  0
LINE
  5
10C2D
330
1F
100
AcDbEntity
  8
実線
100
AcDbLine
 10
900.1450622578422
 20
2119.999964385694
 30
0.0
 11
1204.145062257842
 21
2119.999964385694
 31
0.0
  0
LINE
  5
10C2E
330
1F
100
AcDbEntity
  8
破線
100
AcDbLine
 10
875.1450622578422
 20
2119.999964385694
 30
0.0
 11
900.1450622578422
 21
2119.999964385694
 31
0.0
  0
LINE
  5
10C2F
330
1F
100
AcDbEntity
  8
破線
100
AcDbLine
 10
1204.145062257842
 20
2119.999964385694
 30
0.0
 11
1229.145062257843
 21
2119.999964385694
 31
0.0
  0
LINE
  5
10C30
330
1F
100
AcDbEntity
  8
破線
100
AcDbLine
 10
868.1450622578422
 20
2078.999964385694
 30
0.0
 11
900.1450622578431
 21
2078.999964385694
 31
0.0
  0
LINE
  5
10C31
330
1F
100
AcDbEntity
  8
破線
100
AcDbLine
 10
900.1450622578431
 20
2078.999964385694
 30
0.0
 11
900.1450622578431
 21
2069.999964385694
 31
0.0
  0
LINE
  5
10C32
330
1F
100
AcDbEntity
  8
破線
100
AcDbLine
 10
1204.145062257842
 20
2319.999964385694
 30
0.0
 11
1229.145062257843
 21
2319.999964385694
 31
0.0
  0
LINE
  5
10C33
330
1F
100
AcDbEntity
  8
実線
100
AcDbLine
 10
900.1450622578422
 20
2319.999964385694
 30
0.0
 11
1204.145062257842
 21
2319.999964385694
 31
0.0
  0
LINE
  5
10C34
330
1F
100
AcDbEntity
  8
実線
100
AcDbLine
 10
1229.145062257843
 20
2319.999964385694
 30
0.0
 11
1236.145062257842
 21
2319.999964385694
 31
0.0
  0
LINE
  5
10C35
330
1F
100
AcDbEntity
  8
実線
100
AcDbLine
 10
868.1450622578422
 20
2369.999964385694
 30
0.0
 11
1236.145062257842
 21
2369.999964385694
 31
0.0
  0
LINE
  5
10C36
330
1F
100
AcDbEntity
  8
実線
100
AcDbLine
 10
1204.145062257842
 20
2324.999964385694
 30
0.0
 11
1224.145062257842
 21
2324.999964385694
 31
0.0
  0
LINE
  5
10C37
330
1F
100
AcDbEntity
  8
実線
100
AcDbLine
 10
1224.145062257842
 20
2324.999964385694
 30
0.0
 11
1236.145062257842
 21
2312.999964385694
 31
0.0
  0
LINE
  5
10C38
330
1F
100
AcDbEntity
  8
破線
100
AcDbLine
 10
868.1450622578422
 20
2360.999964385694
 30
0.0
 11
900.1450622578431
 21
2360.999964385694
 31
0.0
  0
LINE
  5
10C39
330
1F
100
AcDbEntity
  8
破線
100
AcDbLine
 10
900.1450622578431
 20
2360.999964385694
 30
0.0
 11
900.1450622578431
 21
2369.999964385694
 31
0.0
  0
LINE
  5
10C3A
330
1F
100
AcDbEntity
  8
破線
100
AcDbLine
 10
875.1450622578422
 20
2319.999964385694
 30
0.0
 11
900.1450622578422
 21
2319.999964385694
 31
0.0
  0
LINE
  5
10C3B
330
1F
100
AcDbEntity
  8
実線
100
AcDbLine
 10
880.1450622578423
 20
2324.999964385694
 30
0.0
 11
900.1450622578431
 21
2324.999964385694
 31
0.0
  0
LINE
  5
10C3C
330
1F
100
AcDbEntity
  8
実線
100
AcDbLine
 10
868.1450622578422
 20
2312.999964385694
 30
0.0
 11
880.1450622578423
 21
2324.999964385694
 31
0.0
  0
LINE
  5
10C3D
330
1F
100
AcDbEntity
  8
実線
100
AcDbLine
 10
868.1450622578422
 20
2319.999964385694
 30
0.0
 11
875.1450622578422
 21
2319.999964385694
 31
0.0
  0
LINE
  5
10C3E
330
1F
100
AcDbEntity
  8
破線
100
AcDbLine
 10
1236.145062257842
 20
2078.999964385694
 30
0.0
 11
1204.145062257842
 21
2078.999964385694
 31
0.0
  0
LINE
  5
10C3F
330
1F
100
AcDbEntity
  8
破線
100
AcDbLine
 10
1204.145062257842
 20
2078.999964385694
 30
0.0
 11
1204.145062257842
 21
2069.999964385694
 31
0.0
  0
LINE
  5
10C40
330
1F
100
AcDbEntity
  8
破線
100
AcDbLine
 10
1204.145062257842
 20
2360.999964385694
 30
0.0
 11
1204.145062257842
 21
2369.999964385694
 31
0.0
  0
LINE
  5
10C41
330
1F
100
AcDbEntity
  8
破線
100
AcDbLine
 10
1236.145062257842
 20
2360.999964385694
 30
0.0
 11
1204.145062257842
 21
2360.999964385694
 31
0.0
  0
LINE
  5
10C42
330
1F
100
AcDbEntity
  8
破線
100
AcDbLine
 10
868.1450622578422
 20
2224.499964385694
 30
0.0
 11
900.1450622578422
 21
2224.499964385694
 31
0.0
  0
LINE
  5
10C43
330
1F
100
AcDbEntity
  8
破線
100
AcDbLine
 10
868.1450622578422
 20
2215.499964385694
 30
0.0
 11
900.1450622578422
 21
2215.499964385694
 31
0.0
  0
LINE
  5
10C44
330
1F
100
AcDbEntity
  8
破線
100
AcDbLine
 10
1204.145062257842
 20
2224.499964385694
 30
0.0
 11
1236.145062257842
 21
2224.499964385694
 31
0.0
  0
LINE
  5
10C45
330
1F
100
AcDbEntity
  8
破線
100
AcDbLine
 10
1204.145062257842
 20
2215.499964385694
 30
0.0
 11
1236.145062257842
 21
2215.499964385694
 31
0.0
  0
LINE
  5
10C46
330
1F
100
AcDbEntity
  8
実線
100
AcDbLine
 10
1332.145082164363
 20
2354.999962780315
 30
0.0
 11
1332.145082164363
 21
2334.999999999991
 31
0.0
  0
LINE
  5
10C47
330
1F
100
AcDbEntity
  8
実線
100
AcDbLine
 10
1282.145062351254
 20
2304.999962780315
 30
0.0
 11
1252.145062351254
 21
2304.999962780315
 31
0.0
  0
LINE
  5
10C48
330
1F
100
AcDbEntity
  8
実線
100
AcDbLine
 10
1332.145082164363
 20
2334.999999999991
 30
0.0
 11
1282.145062351254
 21
2304.999962780315
 31
0.0
  0
LINE
  5
10C49
330
1F
100
AcDbEntity
  8
中心線
100
AcDbLine
 10
1302.145082164363
 20
2379.999999999991
 30
0.0
 11
1302.145082164363
 21
2344.999999999991
 31
0.0
  0
LINE
  5
10C4A
330
1F
100
AcDbEntity
  8
実線
100
AcDbLine
 10
1262.145082164363
 20
2354.999962780315
 30
0.0
 11
1252.145062351254
 21
2344.999962780315
 31
0.0
  0
LINE
  5
10C4B
330
1F
100
AcDbEntity
  8
仮想線
100
AcDbLine
 10
1258.14507423912
 20
2354.999962780315
 30
0.0
 11
1252.145062351254
 21
2348.999962780315
 31
0.0
  0
LINE
  5
10C4C
330
1F
100
AcDbEntity
  8
仮想線
100
AcDbLine
 10
1252.145053294372
 20
2375.999986133788
 30
0.0
 11
1258.145076647845
 21
2369.999962780315
 31
0.0
  0
LINE
  5
10C4D
330
1F
100
AcDbEntity
  8
実線
100
AcDbLine
 10
1332.145082164363
 20
2084.999962780315
 30
0.0
 11
1332.145082164363
 21
2104.99992556064
 31
0.0
  0
LINE
  5
10C4E
330
1F
100
AcDbEntity
  8
実線
100
AcDbLine
 10
1282.145062351254
 20
2134.999962780315
 30
0.0
 11
1252.145062351254
 21
2134.999962780315
 31
0.0
  0
LINE
  5
10C4F
330
1F
100
AcDbEntity
  8
実線
100
AcDbLine
 10
1332.145082164363
 20
2104.99992556064
 30
0.0
 11
1282.145062351254
 21
2134.999962780315
 31
0.0
  0
LINE
  5
10C50
330
1F
100
AcDbEntity
  8
実線
100
AcDbLine
 10
1262.145082164363
 20
2084.999962780315
 30
0.0
 11
1252.145062351254
 21
2094.999962780315
 31
0.0
  0
LINE
  5
10C51
330
1F
100
AcDbEntity
  8
仮想線
100
AcDbLine
 10
1258.14507423912
 20
2084.999962780315
 30
0.0
 11
1252.145062351254
 21
2090.999962780315
 31
0.0
  0
LINE
  5
10C52
330
1F
100
AcDbEntity
  8
仮想線
100
AcDbLine
 10
1252.145053294372
 20
2063.999939426842
 30
0.0
 11
1258.145076647845
 21
2069.999962780315
 31
0.0
  0
LINE
  5
10C53
330
1F
100
AcDbEntity
  8
実線
100
AcDbLine
 10
2052.14506216443
 20
2369.999962780315
 30
0.0
 11
1252.145062351254
 21
2369.999962780315
 31
0.0
  0
LINE
  5
10C54
330
1F
100
AcDbEntity
  8
実線
100
AcDbLine
 10
2052.14506216443
 20
2354.999962780315
 30
0.0
 11
1252.145062351254
 21
2354.999962780315
 31
0.0
  0
LINE
  5
10C55
330
1F
100
AcDbEntity
  8
実線
100
AcDbLine
 10
2052.14506216443
 20
2069.999962780315
 30
0.0
 11
1252.145062351254
 21
2069.999962780315
 31
0.0
  0
LINE
  5
10C56
330
1F
100
AcDbEntity
  8
実線
100
AcDbLine
 10
2052.14506216443
 20
2084.999962780315
 30
0.0
 11
1252.145062351254
 21
2084.999962780315
 31
0.0
  0
LINE
  5
10C57
330
1F
100
AcDbEntity
  8
中心線
100
AcDbLine
 10
1302.145082164363
 20
2059.99992556064
 30
0.0
 11
1302.145082164363
 21
2094.999925560641
 31
0.0
  0
LINE
  5
10C58
330
1F
100
AcDbEntity
  8
中心線
100
AcDbLine
 10
2481.961805068264
 20
2344.999962780315
 30
0.0
 11
2027.145022538213
 21
2344.999962780315
 31
0.0
  0
LINE
  5
10C59
330
1F
100
AcDbEntity
  8
中心線
100
AcDbLine
 10
2477.437022108165
 20
2094.999962780316
 30
0.0
 11
2027.145022538213
 21
2094.999962780316
 31
0.0
  0
LINE
  5
10C5B
330
1F
100
AcDbEntity
  8
実線
100
AcDbLine
 10
2436.145022444801
 20
2059.999982630324
 30
0.0
 11
2436.1450224448
 21
2379.999982630325
 31
0.0
  0
LINE
  5
10C5C
330
1F
100
AcDbEntity
  8
実線
100
AcDbLine
 10
2452.145022444801
 20
2379.999964385695
 30
0.0
 11
2436.1450224448
 21
2379.999964385695
 31
0.0
  0
LINE
  5
10C5D
330
1F
100
AcDbEntity
  8
実線
100
AcDbLine
 10
2452.145022444801
 20
2059.999964385694
 30
0.0
 11
2436.145022444801
 21
2059.999964385694
 31
0.0
  0
LINE
  5
10C5E
330
1F
100
AcDbEntity
  8
実線
100
AcDbLine
 10
2068.145022444801
 20
2059.999982630324
 30
0.0
 11
2068.145022444801
 21
2379.999982630325
 31
0.0
  0
LINE
  5
10C5F
330
1F
100
AcDbEntity
  8
実線
100
AcDbLine
 10
2052.145022444801
 20
2059.999982630324
 30
0.0
 11
2052.145022444801
 21
2379.999982630325
 31
0.0
  0
LINE
  5
10C60
330
1F
100
AcDbEntity
  8
実線
100
AcDbLine
 10
2068.145022444801
 20
2379.999964385695
 30
0.0
 11
2052.145022444801
 21
2379.999964385695
 31
0.0
  0
LINE
  5
10C61
330
1F
100
AcDbEntity
  8
実線
100
AcDbLine
 10
2068.145022444801
 20
2059.999964385694
 30
0.0
 11
2052.145022444801
 21
2059.999964385694
 31
0.0
  0
LINE
  5
10C62
330
1F
100
AcDbEntity
  8
実線
100
AcDbLine
 10
2424.145022444801
 20
2114.999964385694
 30
0.0
 11
2404.1450224448
 21
2114.999964385694
 31
0.0
  0
LINE
  5
10C63
330
1F
100
AcDbEntity
  8
実線
100
AcDbLine
 10
2404.145022444801
 20
2114.999964385694
 30
0.0
 11
2404.145022444801
 21
2324.999964385694
 31
0.0
  0
LINE
  5
10C64
330
1F
100
AcDbEntity
  8
実線
100
AcDbLine
 10
2100.145022444801
 20
2114.999964385694
 30
0.0
 11
2100.145022444801
 21
2324.999964385694
 31
0.0
  0
LINE
  5
10C65
330
1F
100
AcDbEntity
  8
実線
100
AcDbLine
 10
2100.145022444801
 20
2114.999964385694
 30
0.0
 11
2080.145022444801
 21
2114.999964385694
 31
0.0
  0
LINE
  5
10C66
330
1F
100
AcDbEntity
  8
実線
100
AcDbLine
 10
2436.145022444801
 20
2126.999964385694
 30
0.0
 11
2424.145022444801
 21
2114.999964385694
 31
0.0
  0
LINE
  5
10C67
330
1F
100
AcDbEntity
  8
実線
100
AcDbLine
 10
2080.145022444801
 20
2114.999964385694
 30
0.0
 11
2068.145022444801
 21
2126.999964385694
 31
0.0
  0
LINE
  5
10C68
330
1F
100
AcDbEntity
  8
実線
100
AcDbLine
 10
2436.145022444801
 20
2119.999964385694
 30
0.0
 11
2429.145022444801
 21
2119.999964385694
 31
0.0
  0
LINE
  5
10C69
330
1F
100
AcDbEntity
  8
実線
100
AcDbLine
 10
2436.145022444801
 20
2069.999964385694
 30
0.0
 11
2068.144918859775
 21
2069.999964385694
 31
0.0
  0
LINE
  5
10C6A
330
1F
100
AcDbEntity
  8
実線
100
AcDbLine
 10
2075.1450224448
 20
2119.999964385694
 30
0.0
 11
2068.145022444801
 21
2119.999964385694
 31
0.0
  0
LINE
  5
10C6B
330
1F
100
AcDbEntity
  8
実線
100
AcDbLine
 10
2404.145022444801
 20
2119.999964385694
 30
0.0
 11
2100.144918859774
 21
2119.999964385694
 31
0.0
  0
LINE
  5
10C6C
330
1F
100
AcDbEntity
  8
破線
100
AcDbLine
 10
2429.145022444801
 20
2119.999964385694
 30
0.0
 11
2404.145022444801
 21
2119.999964385694
 31
0.0
  0
LINE
  5
10C6D
330
1F
100
AcDbEntity
  8
破線
100
AcDbLine
 10
2100.145022444801
 20
2119.999964385694
 30
0.0
 11
2075.1450224448
 21
2119.999964385694
 31
0.0
  0
LINE
  5
10C6E
330
1F
100
AcDbEntity
  8
破線
100
AcDbLine
 10
2436.145022444801
 20
2078.999964385694
 30
0.0
 11
2404.1450224448
 21
2078.999964385694
 31
0.0
  0
LINE
  5
10C6F
330
1F
100
AcDbEntity
  8
破線
100
AcDbLine
 10
2404.1450224448
 20
2078.999964385694
 30
0.0
 11
2404.1450224448
 21
2069.999964385694
 31
0.0
  0
LINE
  5
10C70
330
1F
100
AcDbEntity
  8
破線
100
AcDbLine
 10
2100.145022444801
 20
2319.999964385694
 30
0.0
 11
2075.1450224448
 21
2319.999964385694
 31
0.0
  0
LINE
  5
10C71
330
1F
100
AcDbEntity
  8
実線
100
AcDbLine
 10
2404.145022444801
 20
2319.999964385694
 30
0.0
 11
2100.144918859774
 21
2319.999964385694
 31
0.0
  0
LINE
  5
10C72
330
1F
100
AcDbEntity
  8
実線
100
AcDbLine
 10
2075.1450224448
 20
2319.999964385694
 30
0.0
 11
2068.145022444801
 21
2319.999964385694
 31
0.0
  0
LINE
  5
10C73
330
1F
100
AcDbEntity
  8
実線
100
AcDbLine
 10
2436.1450224448
 20
2369.999964385694
 30
0.0
 11
2068.144918859775
 21
2369.999964385694
 31
0.0
  0
LINE
  5
10C74
330
1F
100
AcDbEntity
  8
実線
100
AcDbLine
 10
2100.145022444801
 20
2324.999964385694
 30
0.0
 11
2080.145022444801
 21
2324.999964385694
 31
0.0
  0
LINE
  5
10C75
330
1F
100
AcDbEntity
  8
実線
100
AcDbLine
 10
2080.145022444801
 20
2324.999964385694
 30
0.0
 11
2068.145022444801
 21
2312.999964385694
 31
0.0
  0
LINE
  5
10C76
330
1F
100
AcDbEntity
  8
破線
100
AcDbLine
 10
2436.145022444801
 20
2360.999964385694
 30
0.0
 11
2404.1450224448
 21
2360.999964385694
 31
0.0
  0
LINE
  5
10C77
330
1F
100
AcDbEntity
  8
破線
100
AcDbLine
 10
2404.1450224448
 20
2360.999964385694
 30
0.0
 11
2404.1450224448
 21
2369.999964385694
 31
0.0
  0
LINE
  5
10C78
330
1F
100
AcDbEntity
  8
破線
100
AcDbLine
 10
2429.145022444801
 20
2319.999964385694
 30
0.0
 11
2404.145022444801
 21
2319.999964385694
 31
0.0
  0
LINE
  5
10C79
330
1F
100
AcDbEntity
  8
実線
100
AcDbLine
 10
2424.145022444801
 20
2324.999964385694
 30
0.0
 11
2404.1450224448
 21
2324.999964385694
 31
0.0
  0
LINE
  5
10C7A
330
1F
100
AcDbEntity
  8
実線
100
AcDbLine
 10
2436.145022444801
 20
2312.999964385694
 30
0.0
 11
2424.145022444801
 21
2324.999964385694
 31
0.0
  0
LINE
  5
10C7B
330
1F
100
AcDbEntity
  8
実線
100
AcDbLine
 10
2436.145022444801
 20
2319.999964385694
 30
0.0
 11
2429.145022444801
 21
2319.999964385694
 31
0.0
  0
LINE
  5
10C7C
330
1F
100
AcDbEntity
  8
破線
100
AcDbLine
 10
2068.145022444801
 20
2078.999964385694
 30
0.0
 11
2100.145022444801
 21
2078.999964385694
 31
0.0
  0
LINE
  5
10C7D
330
1F
100
AcDbEntity
  8
破線
100
AcDbLine
 10
2100.145022444801
 20
2078.999964385694
 30
0.0
 11
2100.145022444801
 21
2069.999964385694
 31
0.0
  0
LINE
  5
10C7E
330
1F
100
AcDbEntity
  8
破線
100
AcDbLine
 10
2100.145022444801
 20
2360.999964385694
 30
0.0
 11
2100.145022444801
 21
2369.999964385694
 31
0.0
  0
LINE
  5
10C7F
330
1F
100
AcDbEntity
  8
破線
100
AcDbLine
 10
2068.145022444801
 20
2360.999964385694
 30
0.0
 11
2100.145022444801
 21
2360.999964385694
 31
0.0
  0
LINE
  5
10C80
330
1F
100
AcDbEntity
  8
破線
100
AcDbLine
 10
2436.145022444801
 20
2224.499964385694
 30
0.0
 11
2404.145022444801
 21
2224.499964385694
 31
0.0
  0
LINE
  5
10C81
330
1F
100
AcDbEntity
  8
破線
100
AcDbLine
 10
2436.145022444801
 20
2215.499964385694
 30
0.0
 11
2404.145022444801
 21
2215.499964385694
 31
0.0
  0
LINE
  5
10C82
330
1F
100
AcDbEntity
  8
破線
100
AcDbLine
 10
2100.145022444801
 20
2224.499964385694
 30
0.0
 11
2068.145022444801
 21
2224.499964385694
 31
0.0
  0
LINE
  5
10C83
330
1F
100
AcDbEntity
  8
破線
100
AcDbLine
 10
2100.145022444801
 20
2215.499964385694
 30
0.0
 11
2068.145022444801
 21
2215.499964385694
 31
0.0
  0
LINE
  5
10C84
330
1F
100
AcDbEntity
  8
実線
100
AcDbLine
 10
1972.14500253828
 20
2354.999962780315
 30
0.0
 11
1972.14500253828
 21
2334.999999999991
 31
0.0
  0
LINE
  5
10C85
330
1F
100
AcDbEntity
  8
実線
100
AcDbLine
 10
2022.145022351388
 20
2304.999962780315
 30
0.0
 11
2052.145022351389
 21
2304.999962780315
 31
0.0
  0
LINE
  5
10C86
330
1F
100
AcDbEntity
  8
実線
100
AcDbLine
 10
1972.14500253828
 20
2334.999999999991
 30
0.0
 11
2022.145022351388
 21
2304.999962780315
 31
0.0
  0
LINE
  5
10C87
330
1F
100
AcDbEntity
  8
中心線
100
AcDbLine
 10
2002.14500253828
 20
2379.999999999991
 30
0.0
 11
2002.14500253828
 21
2344.999999999991
 31
0.0
  0
LINE
  5
10C88
330
1F
100
AcDbEntity
  8
実線
100
AcDbLine
 10
2042.14500253828
 20
2354.999962780315
 30
0.0
 11
2052.145022351389
 21
2344.999962780315
 31
0.0
  0
LINE
  5
10C89
330
1F
100
AcDbEntity
  8
仮想線
100
AcDbLine
 10
2046.145010463523
 20
2354.999962780315
 30
0.0
 11
2052.145022351389
 21
2348.999962780315
 31
0.0
  0
LINE
  5
10C8A
330
1F
100
AcDbEntity
  8
仮想線
100
AcDbLine
 10
2052.14503140827
 20
2375.999986133788
 30
0.0
 11
2046.145008054798
 21
2369.999962780315
 31
0.0
  0
LINE
  5
10C8B
330
1F
100
AcDbEntity
  8
実線
100
AcDbLine
 10
1972.14500253828
 20
2084.999962780315
 30
0.0
 11
1972.14500253828
 21
2104.99992556064
 31
0.0
  0
LINE
  5
10C8C
330
1F
100
AcDbEntity
  8
実線
100
AcDbLine
 10
2022.145022351388
 20
2134.999962780315
 30
0.0
 11
2052.145022351389
 21
2134.999962780315
 31
0.0
  0
LINE
  5
10C8D
330
1F
100
AcDbEntity
  8
実線
100
AcDbLine
 10
1972.14500253828
 20
2104.99992556064
 30
0.0
 11
2022.145022351388
 21
2134.999962780315
 31
0.0
  0
LINE
  5
10C8E
330
1F
100
AcDbEntity
  8
実線
100
AcDbLine
 10
2042.14500253828
 20
2084.999962780315
 30
0.0
 11
2052.145022351389
 21
2094.999962780315
 31
0.0
  0
LINE
  5
10C8F
330
1F
100
AcDbEntity
  8
仮想線
100
AcDbLine
 10
2046.145010463523
 20
2084.999962780315
 30
0.0
 11
2052.145022351389
 21
2090.999962780315
 31
0.0
  0
LINE
  5
10C90
330
1F
100
AcDbEntity
  8
仮想線
100
AcDbLine
 10
2052.14503140827
 20
2063.999939426842
 30
0.0
 11
2046.145008054798
 21
2069.999962780315
 31
0.0
  0
LINE
  5
10C91
330
1F
100
AcDbEntity
  8
中心線
100
AcDbLine
 10
2002.14500253828
 20
2059.99992556064
 30
0.0
 11
2002.14500253828
 21
2094.999925560641
 31
0.0
  0
TEXT
  5
10C92
330
1F
100
AcDbEntity
  8
寸法線
100
AcDbText
 10
1329.86895094508
 20
2150.823272949951
 30
0.0
 40
25.0
  1
ﾘﾌﾞﾌﾟﾚｰﾄ①
 72
     2
 11
1473.202284278413
 21
2150.823272949951
 31
0.0
100
AcDbText
 73
     1
  0
DIMENSION
  5
10C93
330
1F
100
AcDbEntity
  8
寸法線
100
AcDbDimension
280
     0
  2
*D7
 10
1452.145062164432
 20
1369.999982630339
 30
0.0
 11
1452.145062164432
 21
1382.499982630339
 31
0.0
 70
   160
 71
     5
 42
25.0
 73
     0
 74
     0
 75
     0
  3
STANDARD
100
AcDbAlignedDimension
 13
1357.14506216443
 23
1394.999982630339
 33
0.0
 14
1352.14506216443
 24
1369.999982630339
 34
0.0
 50
90.0
100
AcDbRotatedDimension
  0
LEADER
  5
10C94
330
1F
100
AcDbEntity
  8
寸法線
100
AcDbLeader
  3
STANDARD
 76
     3
 10
1288.35846106978
 20
2102.198583303321
 30
0.0
 10
1327.145101977473
 20
2144.999962780315
 30
0.0
 10
1480.23564651219
 20
2144.999962780315
 30
0.0
211
-1.0
221
0.0
231
0.0
1001
ACAD
1000
DSTYLE
1002
{
1070
   147
1040
0.875
1070
    77
1070
     0
1002
}
  0
LINE
  5
10C95
330
1F
100
AcDbEntity
  8
中心線
100
AcDbLine
 10
2002.145082164363
 20
1629.999982630339
 30
0.0
 11
2002.145082164363
 21
1560.000019850015
 31
0.0
  0
LINE
  5
10C96
330
1F
100
AcDbEntity
  8
中心線
100
AcDbLine
 10
2037.145063554525
 20
1595.000001240177
 30
0.0
 11
1967.145100774201
 21
1595.000001240177
 31
0.0
  0
CIRCLE
  5
10C97
330
1F
100
AcDbEntity
  8
実線
100
AcDbCircle
 10
2002.145082164363
 20
1595.000001240177
 30
0.0
 40
12.5
  0
LINE
  5
10C98
330
1F
100
AcDbEntity
  8
中心線
100
AcDbLine
 10
2002.145082164363
 20
1409.999982630339
 30
0.0
 11
2002.145082164363
 21
1479.999945410664
 31
0.0
  0
LINE
  5
10C99
330
1F
100
AcDbEntity
  8
中心線
100
AcDbLine
 10
2037.145063554525
 20
1444.999964020501
 30
0.0
 11
1967.145100774201
 21
1444.999964020501
 31
0.0
  0
CIRCLE
  5
10C9A
330
1F
100
AcDbEntity
  8
実線
100
AcDbCircle
 10
2002.145082164363
 20
1444.999964020501
 30
0.0
 40
12.5
  0
LINE
  5
10C9B
330
1F
100
AcDbEntity
  8
中心線
100
AcDbLine
 10
2002.145042351322
 20
2379.999999999991
 30
0.0
 11
2002.145042351322
 21
2344.999999999991
 31
0.0
  0
LINE
  5
10C9C
330
1F
100
AcDbEntity
  8
中心線
100
AcDbLine
 10
2002.145042351322
 20
2059.99992556064
 30
0.0
 11
2002.145042351322
 21
2094.999925560641
 31
0.0
  0
LINE
  5
10C9D
330
1F
100
AcDbEntity
  8
実線
100
AcDbLine
 10
3866.581356668747
 20
1669.999944170491
 30
0.0
 11
3366.581356855571
 21
1669.999944170491
 31
0.0
  0
LINE
  5
10C9E
330
1F
100
AcDbEntity
  8
実線
100
AcDbLine
 10
3866.581356668747
 20
1654.999944170492
 30
0.0
 11
3366.581356855571
 21
1654.999944170492
 31
0.0
  0
LINE
  5
10C9F
330
1F
100
AcDbEntity
  8
実線
100
AcDbLine
 10
3866.581356668747
 20
1369.999944170492
 30
0.0
 11
3366.581356855571
 21
1369.999944170492
 31
0.0
  0
LINE
  5
10CA0
330
1F
100
AcDbEntity
  8
実線
100
AcDbLine
 10
3866.581356668747
 20
1384.999944170492
 30
0.0
 11
3366.581356855571
 21
1384.999944170492
 31
0.0
  0
TEXT
  5
10CA1
330
1F
100
AcDbEntity
  8
寸法線
100
AcDbText
 10
3499.12033511852
 20
1766.699329771664
 30
0.0
 40
25.0
  1
横拘束鉄筋貫通孔
100
AcDbText
  0
LINE
  5
10CA2
330
1F
100
AcDbEntity
  8
寸法線
100
AcDbLine
 10
3496.255541523902
 20
1759.330141884786
 30
0.0
 11
3736.907172000416
 21
1759.330141884786
 31
0.0
  0
TEXT
  5
10CA3
330
1F
100
AcDbEntity
  8
寸法線
100
AcDbText
 10
3339.458099575684
 20
1184.487226105328
 30
0.0
 40
25.0
  1
※　横拘束鉄筋があり切梁と交差する場合。
 11
3339.458099575684
 21
1184.487226105328
 31
0.0
100
AcDbText
 73
     1
  0
TEXT
  5
10CA4
330
1F
100
AcDbEntity
  8
寸法線
100
AcDbText
 10
3228.719378968869
 20
1757.059903833309
 30
0.0
 40
25.0
  1
埋設部H型鋼
 72
     2
 11
3392.052712302202
 21
1782.059903833309
 31
0.0
100
AcDbText
 73
     3
  0
LEADER
  5
10CA5
330
1F
100
AcDbEntity
  8
寸法線
100
AcDbLeader
  3
STANDARD
 76
     3
 10
3460.036484478437
 20
1669.999944170491
 30
0.0
 10
3401.41535173245
 20
1749.841511772839
 30
0.0
 10
3226.342836503385
 20
1749.841511772839
 30
0.0
1001
ACAD
1000
DSTYLE
1002
{
1070
   147
1040
0.875
1070
    77
1070
     0
1002
}
  0
LINE
  5
10CA6
330
1F
100
AcDbEntity
  8
細線
100
AcDbLine
 10
3385.331346949017
 20
1609.999944170492
 30
0.0
 11
3366.58135685557
 21
1609.999944170492
 31
0.0
  0
LINE
  5
10CA7
330
1F
100
AcDbEntity
  8
細線
100
AcDbLine
 10
3366.581346949017
 20
1429.999981390167
 30
0.0
 11
3347.83135685557
 21
1429.999981390167
 31
0.0
  0
LINE
  5
10CA8
330
1F
100
AcDbEntity
  8
細線
100
AcDbLine
 10
3385.331346949017
 20
1609.999944170492
 30
0.0
 11
3347.83135685557
 21
1429.999981390167
 31
0.0
  0
LINE
  5
10CA9
330
1F
100
AcDbEntity
  8
細線
100
AcDbLine
 10
3366.581356855571
 20
1694.999981390167
 30
0.0
 11
3366.581356855571
 21
1609.999944170492
 31
0.0
  0
LINE
  5
10CAA
330
1F
100
AcDbEntity
  8
細線
100
AcDbLine
 10
3366.581356855571
 20
1344.999981390167
 30
0.0
 11
3366.581356855571
 21
1430.000018609843
 31
0.0
  0
LINE
  5
10CAB
330
1F
100
AcDbEntity
  8
細線
100
AcDbLine
 10
3885.331346762193
 20
1609.999944170492
 30
0.0
 11
3866.581356668747
 21
1609.999944170492
 31
0.0
  0
LINE
  5
10CAC
330
1F
100
AcDbEntity
  8
細線
100
AcDbLine
 10
3866.581346762193
 20
1429.999981390167
 30
0.0
 11
3847.831356668747
 21
1429.999981390167
 31
0.0
  0
LINE
  5
10CAD
330
1F
100
AcDbEntity
  8
細線
100
AcDbLine
 10
3885.331346762193
 20
1609.999944170492
 30
0.0
 11
3847.831356668747
 21
1429.999981390167
 31
0.0
  0
LINE
  5
10CAE
330
1F
100
AcDbEntity
  8
細線
100
AcDbLine
 10
3866.581356668747
 20
1694.999981390167
 30
0.0
 11
3866.581356668747
 21
1609.999944170492
 31
0.0
  0
LINE
  5
10CAF
330
1F
100
AcDbEntity
  8
細線
100
AcDbLine
 10
3866.581356668747
 20
1344.999981390167
 30
0.0
 11
3866.581356668747
 21
1430.000018609843
 31
0.0
  0
LINE
  5
10CB1
330
1F
100
AcDbEntity
  8
実線
100
AcDbLine
 10
2952.145042351325
 20
1669.999980149991
 30
0.0
 11
2952.145042351325
 21
1369.99998014999
 31
0.0
  0
LINE
  5
10CB2
330
1F
100
AcDbEntity
  8
破線
100
AcDbLine
 10
2926.145042351325
 20
1524.999942930324
 30
0.0
 11
2936.145042351325
 21
1534.999942930324
 31
0.0
  0
LINE
  5
10CB3
330
1F
100
AcDbEntity
  8
仮想線
100
AcDbLine
 10
2930.145042351325
 20
1524.999942930324
 30
0.0
 11
2936.145042351325
 21
1530.999942930324
 31
0.0
  0
LINE
  5
10CB4
330
1F
100
AcDbEntity
  8
破線
100
AcDbLine
 10
2926.145042351325
 20
1514.999942930309
 30
0.0
 11
2936.145042351325
 21
1504.999942930309
 31
0.0
  0
LINE
  5
10CB5
330
1F
100
AcDbEntity
  8
仮想線
100
AcDbLine
 10
2930.145042351325
 20
1514.999942930309
 30
0.0
 11
2936.145042351325
 21
1508.999942930309
 31
0.0
  0
LINE
  5
10CB6
330
1F
100
AcDbEntity
  8
破線
100
AcDbLine
 10
2936.145042351325
 20
1644.999942930324
 30
0.0
 11
2911.145022538208
 21
1644.999942930324
 31
0.0
  0
LINE
  5
10CB7
330
1F
100
AcDbEntity
  8
破線
100
AcDbLine
 10
2786.145042351325
 20
1554.99998014999
 30
0.0
 11
2786.145042351325
 21
1524.999942930324
 31
0.0
  0
LINE
  5
10CB8
330
1F
100
AcDbEntity
  8
破線
100
AcDbLine
 10
2911.145022538208
 20
1644.999942930324
 30
0.0
 11
2786.145042351325
 21
1554.99998014999
 31
0.0
  0
LINE
  5
10CB9
330
1F
100
AcDbEntity
  8
破線
100
AcDbLine
 10
2786.145042351325
 20
1484.999905710643
 30
0.0
 11
2786.145042351325
 21
1514.999942930309
 31
0.0
  0
LINE
  5
10CBA
330
1F
100
AcDbEntity
  8
破線
100
AcDbLine
 10
2911.145022538208
 20
1394.999942930309
 30
0.0
 11
2786.145042351325
 21
1484.999905710643
 31
0.0
  0
LINE
  5
10CBB
330
1F
100
AcDbEntity
  8
破線
100
AcDbLine
 10
2936.145042351325
 20
1394.999942930309
 30
0.0
 11
2911.145022538208
 21
1394.999942930309
 31
0.0
  0
LINE
  5
10CBC
330
1F
100
AcDbEntity
  8
実線
100
AcDbLine
 10
2452.145022538209
 20
1370.000091809019
 30
0.0
 11
2952.145042351325
 21
1369.99998014999
 31
0.0
  0
LINE
  5
10CBD
330
1F
100
AcDbEntity
  8
破線
100
AcDbLine
 10
2452.145022538209
 20
1515.000017369671
 30
0.0
 11
2936.145042351325
 21
1515.000017369671
 31
0.0
  0
LINE
  5
10CBE
330
1F
100
AcDbEntity
  8
破線
100
AcDbLine
 10
2452.145022538209
 20
1525.000017369671
 30
0.0
 11
2936.145042351325
 21
1525.000017369671
 31
0.0
  0
LINE
  5
10CBF
330
1F
100
AcDbEntity
  8
実線
100
AcDbLine
 10
2452.145022538209
 20
1669.999942930324
 30
0.0
 11
2952.145042351325
 21
1669.999980149991
 31
0.0
  0
LINE
  5
10CC0
330
1F
100
AcDbEntity
  8
実線
100
AcDbLine
 10
2936.145042351325
 20
1669.999942930324
 30
0.0
 11
2936.145042351325
 21
1370.000091809019
 31
0.0
  0
LINE
  5
10CC1
330
1F
100
AcDbEntity
  8
破線
100
AcDbLine
 10
2452.145022538209
 20
1652.999942930324
 30
0.0
 11
2532.145022538209
 21
1652.999942930324
 31
0.0
  0
LINE
  5
10CC2
330
1F
100
AcDbEntity
  8
破線
100
AcDbLine
 10
2452.145022538209
 20
1636.999942930324
 30
0.0
 11
2532.145022538209
 21
1636.999942930324
 31
0.0
  0
LINE
  5
10CC3
330
1F
100
AcDbEntity
  8
破線
100
AcDbLine
 10
2532.145022538209
 20
1652.999942930324
 30
0.0
 11
2532.145022538209
 21
1636.999942930324
 31
0.0
  0
LINE
  5
10CC4
330
1F
100
AcDbEntity
  8
破線
100
AcDbLine
 10
2452.145022538209
 20
1387.000091809019
 30
0.0
 11
2532.145022538209
 21
1387.000091809019
 31
0.0
  0
LINE
  5
10CC5
330
1F
100
AcDbEntity
  8
破線
100
AcDbLine
 10
2452.145022538209
 20
1403.000091809019
 30
0.0
 11
2532.145022538209
 21
1403.000091809019
 31
0.0
  0
LINE
  5
10CC6
330
1F
100
AcDbEntity
  8
破線
100
AcDbLine
 10
2532.145022538209
 20
1387.000091809019
 30
0.0
 11
2532.145022538209
 21
1403.000091809019
 31
0.0
  0
LINE
  5
10CC7
330
1F
100
AcDbEntity
  8
実線
100
AcDbLine
 10
2452.145062257843
 20
1359.99996278033
 30
0.0
 11
2452.145062257843
 21
1680.000002480348
 31
0.0
  0
LINE
  5
10CC8
330
1F
100
AcDbEntity
  8
中心線
100
AcDbLine
 10
2902.145042351325
 20
1629.841474911034
 30
0.0
 11
2902.145042351325
 21
1559.841512130715
 31
0.0
  0
LINE
  5
10CC9
330
1F
100
AcDbEntity
  8
中心線
100
AcDbLine
 10
2937.145023741485
 20
1594.841493520882
 30
0.0
 11
2867.145060961158
 21
1594.841493520882
 31
0.0
  0
CIRCLE
  5
10CCA
330
1F
100
AcDbEntity
  8
実線
100
AcDbCircle
 10
2902.145042351325
 20
1594.841493520882
 30
0.0
 40
12.5
  0
LINE
  5
10CCB
330
1F
100
AcDbEntity
  8
中心線
100
AcDbLine
 10
2902.145042351325
 20
1409.841574911039
 30
0.0
 11
2902.145042351325
 21
1479.841537691372
 31
0.0
  0
LINE
  5
10CCC
330
1F
100
AcDbEntity
  8
中心線
100
AcDbLine
 10
2937.145023741485
 20
1444.841556301206
 30
0.0
 11
2867.145060961158
 21
1444.841556301206
 31
0.0
  0
CIRCLE
  5
10CCD
330
1F
100
AcDbEntity
  8
実線
100
AcDbCircle
 10
2902.145042351325
 20
1444.841556301206
 30
0.0
 40
12.5
  0
LINE
  5
10CCE
330
1F
100
AcDbEntity
  8
中心線
100
AcDbLine
 10
2802.145042351325
 20
1629.841474911034
 30
0.0
 11
2802.145042351325
 21
1559.841512130715
 31
0.0
  0
LINE
  5
10CCF
330
1F
100
AcDbEntity
  8
中心線
100
AcDbLine
 10
2837.145023741485
 20
1594.841493520882
 30
0.0
 11
2767.145060961158
 21
1594.841493520882
 31
0.0
  0
CIRCLE
  5
10CD0
330
1F
100
AcDbEntity
  8
実線
100
AcDbCircle
 10
2802.145042351325
 20
1594.841493520882
 30
0.0
 40
12.5
  0
LINE
  5
10CD1
330
1F
100
AcDbEntity
  8
中心線
100
AcDbLine
 10
2802.145042351325
 20
1409.841574911039
 30
0.0
 11
2802.145042351325
 21
1479.841537691372
 31
0.0
  0
LINE
  5
10CD2
330
1F
100
AcDbEntity
  8
中心線
100
AcDbLine
 10
2837.145023741485
 20
1444.841556301206
 30
0.0
 11
2767.145060961158
 21
1444.841556301206
 31
0.0
  0
CIRCLE
  5
10CD3
330
1F
100
AcDbEntity
  8
実線
100
AcDbCircle
 10
2802.145042351325
 20
1444.841556301206
 30
0.0
 40
12.5
  0
LINE
  5
10CD4
330
1F
100
AcDbEntity
  8
中心線
100
AcDbLine
 10
2702.145042351325
 20
1629.841474911034
 30
0.0
 11
2702.145042351325
 21
1559.841512130715
 31
0.0
  0
LINE
  5
10CD5
330
1F
100
AcDbEntity
  8
中心線
100
AcDbLine
 10
2737.145023741485
 20
1594.841493520882
 30
0.0
 11
2667.145060961158
 21
1594.841493520882
 31
0.0
  0
CIRCLE
  5
10CD6
330
1F
100
AcDbEntity
  8
実線
100
AcDbCircle
 10
2702.145042351325
 20
1594.841493520882
 30
0.0
 40
12.5
  0
LINE
  5
10CD7
330
1F
100
AcDbEntity
  8
中心線
100
AcDbLine
 10
2702.145042351325
 20
1409.841574911039
 30
0.0
 11
2702.145042351325
 21
1479.841537691372
 31
0.0
  0
LINE
  5
10CD8
330
1F
100
AcDbEntity
  8
中心線
100
AcDbLine
 10
2737.145023741485
 20
1444.841556301206
 30
0.0
 11
2667.145060961158
 21
1444.841556301206
 31
0.0
  0
CIRCLE
  5
10CD9
330
1F
100
AcDbEntity
  8
実線
100
AcDbCircle
 10
2702.145042351325
 20
1444.841556301206
 30
0.0
 40
12.5
  0
LINE
  5
10CDA
330
1F
100
AcDbEntity
  8
中心線
100
AcDbLine
 10
2926.145381042423
 20
1619.938315872463
 30
0.0
 11
2962.145400855531
 21
1619.938315872463
 31
0.0
  0
LINE
  5
10CDB
330
1F
100
AcDbEntity
  8
中心線
100
AcDbLine
 10
2926.145381042423
 20
1419.938389595958
 30
0.0
 11
2962.145400855531
 21
1419.938389595958
 31
0.0
  0
DIMENSION
  5
10CDC
330
1F
100
AcDbEntity
  8
寸法線
100
AcDbDimension
280
     0
  2
*D4
 10
2612.145022538209
 20
1394.99998263034
 30
0.0
 11
2612.145022538209
 21
1382.499981390168
 31
0.0
 70
   160
 71
     5
 42
25.00000248034144
 73
     0
 74
     0
 75
     0
  3
STANDARD
100
AcDbAlignedDimension
 13
2452.145321509676
 23
1369.999980149998
 33
0.0
 14
2551.285332727422
 24
1394.999982630339
 34
0.0
 50
90.0
100
AcDbRotatedDimension
  0
DIMENSION
  5
10CDD
330
1F
100
AcDbEntity
  8
寸法線
100
AcDbDimension
280
     0
  2
*D5
 10
2612.145022538207
 20
1636.999942930325
 30
0.0
 11
2612.145022538207
 21
1644.999942930324
 31
0.0
 70
   160
 71
     5
 42
16.0
 73
     0
 74
     0
 75
     0
  3
STANDARD
100
AcDbAlignedDimension
 13
2532.145022538209
 23
1652.999942930324
 33
0.0
 14
2532.145022538209
 24
1636.999942930324
 34
0.0
 50
270.0
100
AcDbRotatedDimension
1001
ACAD
1000
DSTYLE
1002
{
1070
   271
1070
     1
1002
}
  0
LINE
  5
10CDF
330
1F
100
AcDbEntity
  8
実線
100
AcDbLine
 10
2952.145042351326
 20
2363.999968704425
 30
0.0
 11
2952.145042351326
 21
2075.999968704425
 31
0.0
  0
LINE
  5
10CE0
330
1F
100
AcDbEntity
  8
実線
100
AcDbLine
 10
2936.145042351326
 20
2369.999939755777
 30
0.0
 11
2936.145042351326
 21
2069.999968704425
 31
0.0
  0
LINE
  5
10CE1
330
1F
100
AcDbEntity
  8
実線
100
AcDbLine
 10
2936.145042351326
 20
2369.999939755777
 30
0.0
 11
2452.14502253821
 21
2369.999931484744
 31
0.0
  0
LINE
  5
10CE2
330
1F
100
AcDbEntity
  8
実線
100
AcDbLine
 10
2936.145042351326
 20
2354.999931484744
 30
0.0
 11
2452.14502253821
 21
2354.999931484744
 31
0.0
  0
LINE
  5
10CE3
330
1F
100
AcDbEntity
  8
実線
100
AcDbLine
 10
2532.145042351326
 20
2354.999931484744
 30
0.0
 11
2532.145042351326
 21
2334.999968704425
 31
0.0
  0
LINE
  5
10CE4
330
1F
100
AcDbEntity
  8
実線
100
AcDbLine
 10
2482.14502253821
 20
2304.999931484744
 30
0.0
 11
2452.14502253821
 21
2304.999931484744
 31
0.0
  0
LINE
  5
10CE5
330
1F
100
AcDbEntity
  8
実線
100
AcDbLine
 10
2532.145042351326
 20
2334.999968704425
 30
0.0
 11
2482.14502253821
 21
2304.999931484744
 31
0.0
  0
LINE
  5
10CE6
330
1F
100
AcDbEntity
  8
実線
100
AcDbLine
 10
2952.145042351326
 20
2363.999968704425
 30
0.0
 11
2936.145042351326
 21
2363.999968704425
 31
0.0
  0
LINE
  5
10CE7
330
1F
100
AcDbEntity
  8
仮想線
100
AcDbLine
 10
2936.145042351326
 20
2369.999939755777
 30
0.0
 11
2942.145013402685
 21
2363.999968704425
 31
0.0
  0
LINE
  5
10CE8
330
1F
100
AcDbEntity
  8
実線
100
AcDbLine
 10
2936.145042351326
 20
2225.999931484744
 30
0.0
 11
2786.14502253821
 21
2225.999931484744
 31
0.0
  0
LINE
  5
10CE9
330
1F
100
AcDbEntity
  8
実線
100
AcDbLine
 10
2936.145042351326
 20
2213.999931484744
 30
0.0
 11
2786.14502253821
 21
2213.999931484744
 31
0.0
  0
LINE
  5
10CEA
330
1F
100
AcDbEntity
  8
実線
100
AcDbLine
 10
2786.14502253821
 20
2225.999931484744
 30
0.0
 11
2786.14502253821
 21
2213.999931484744
 31
0.0
  0
LINE
  5
10CEB
330
1F
100
AcDbEntity
  8
実線
100
AcDbLine
 10
2462.145042351326
 20
2354.999931484744
 30
0.0
 11
2452.14502253821
 21
2344.999931484744
 31
0.0
  0
LINE
  5
10CEC
330
1F
100
AcDbEntity
  8
仮想線
100
AcDbLine
 10
2458.145034426077
 20
2354.999931484744
 30
0.0
 11
2452.14502253821
 21
2348.999931484744
 31
0.0
  0
LINE
  5
10CED
330
1F
100
AcDbEntity
  8
仮想線
100
AcDbLine
 10
2452.14501348133
 20
2375.999954838211
 30
0.0
 11
2458.145036834805
 21
2369.999931484744
 31
0.0
  0
LINE
  5
10CEE
330
1F
100
AcDbEntity
  8
実線
100
AcDbLine
 10
2936.145042351326
 20
2069.999922260823
 30
0.0
 11
2452.14502253821
 21
2069.999931484744
 31
0.0
  0
LINE
  5
10CEF
330
1F
100
AcDbEntity
  8
実線
100
AcDbLine
 10
2936.145042351326
 20
2084.999931484744
 30
0.0
 11
2452.14502253821
 21
2084.999931484744
 31
0.0
  0
LINE
  5
10CF0
330
1F
100
AcDbEntity
  8
実線
100
AcDbLine
 10
2532.145042351326
 20
2084.999931484744
 30
0.0
 11
2532.145042351326
 21
2104.999894265063
 31
0.0
  0
LINE
  5
10CF1
330
1F
100
AcDbEntity
  8
実線
100
AcDbLine
 10
2482.14502253821
 20
2134.999931484744
 30
0.0
 11
2452.14502253821
 21
2134.999931484744
 31
0.0
  0
LINE
  5
10CF2
330
1F
100
AcDbEntity
  8
実線
100
AcDbLine
 10
2532.145042351326
 20
2104.999894265063
 30
0.0
 11
2482.14502253821
 21
2134.999931484744
 31
0.0
  0
LINE
  5
10CF3
330
1F
100
AcDbEntity
  8
実線
100
AcDbLine
 10
2952.145042351326
 20
2075.999894265063
 30
0.0
 11
2936.145042351326
 21
2075.999894265063
 31
0.0
  0
LINE
  5
10CF4
330
1F
100
AcDbEntity
  8
仮想線
100
AcDbLine
 10
2936.145042351326
 20
2069.999923213698
 30
0.0
 11
2942.145013402685
 21
2075.999894265063
 31
0.0
  0
LINE
  5
10CF5
330
1F
100
AcDbEntity
  8
実線
100
AcDbLine
 10
2462.145042351326
 20
2084.999931484744
 30
0.0
 11
2452.14502253821
 21
2094.999931484744
 31
0.0
  0
LINE
  5
10CF6
330
1F
100
AcDbEntity
  8
仮想線
100
AcDbLine
 10
2458.145034426077
 20
2084.999931484744
 30
0.0
 11
2452.14502253821
 21
2090.999931484744
 31
0.0
  0
LINE
  5
10CF7
330
1F
100
AcDbEntity
  8
仮想線
100
AcDbLine
 10
2452.14501348133
 20
2063.999908131263
 30
0.0
 11
2458.145036834805
 21
2069.999931484744
 31
0.0
  0
LINE
  5
10CF8
330
1F
100
AcDbEntity
  8
実線
100
AcDbLine
 10
2452.145022444801
 20
2059.99995133475
 30
0.0
 11
2452.145022444801
 21
2379.999982630325
 31
0.0
  0
LINE
  5
10CF9
330
1F
100
AcDbEntity
  8
中心線
100
AcDbLine
 10
2902.145106976011
 20
2380.000026601926
 30
0.0
 11
2902.145106976011
 21
2345.000026601927
 31
0.0
  0
LINE
  5
10CFA
330
1F
100
AcDbEntity
  8
中心線
100
AcDbLine
 10
2902.145106976011
 20
2059.999952152262
 30
0.0
 11
2902.145106976011
 21
2094.999952152262
 31
0.0
  0
LINE
  5
10CFB
330
1F
100
AcDbEntity
  8
中心線
100
AcDbLine
 10
2802.145106976011
 20
2380.000026601926
 30
0.0
 11
2802.145106976011
 21
2345.000026601927
 31
0.0
  0
LINE
  5
10CFC
330
1F
100
AcDbEntity
  8
中心線
100
AcDbLine
 10
2802.145106976011
 20
2059.999952152262
 30
0.0
 11
2802.145106976011
 21
2094.999952152262
 31
0.0
  0
LINE
  5
10CFD
330
1F
100
AcDbEntity
  8
中心線
100
AcDbLine
 10
2702.14510697601
 20
2380.000026601926
 30
0.0
 11
2702.14510697601
 21
2345.000026601927
 31
0.0
  0
LINE
  5
10CFE
330
1F
100
AcDbEntity
  8
中心線
100
AcDbLine
 10
2702.14510697601
 20
2059.999952152262
 30
0.0
 11
2702.14510697601
 21
2094.999952152262
 31
0.0
  0
DIMENSION
  5
10CFF
330
1F
100
AcDbEntity
  8
寸法線
100
AcDbDimension
280
     0
  2
*D6
 10
2706.144942912131
 20
2213.999931484745
 30
0.0
 11
2706.144942912131
 21
2219.999931484744
 31
0.0
 70
   160
 71
     5
 42
12.0
 73
     0
 74
     0
 75
     0
  3
STANDARD
100
AcDbAlignedDimension
 13
2786.14502253821
 23
2225.999931484744
 33
0.0
 14
2786.14502253821
 24
2213.999931484744
 34
0.0
 50
90.0
100
AcDbRotatedDimension
1001
ACAD
1000
DSTYLE
1002
{
1070
   140
1040
2.5
1002
}
  0
LEADER
  5
10D02
330
1F
100
AcDbEntity
  8
寸法線
100
AcDbLeader
  3
STANDARD
 76
     3
 10
2860.062947192698
 20
2225.999931484744
 30
0.0
 10
2832.776461836499
 20
2282.918672310297
 30
0.0
 10
2668.60982695065
 20
2282.918672310297
 30
0.0
1001
ACAD
1000
DSTYLE
1002
{
1070
   147
1040
0.875
1070
    77
1070
     0
1002
}
  0
TEXT
  5
10D03
330
1F
100
AcDbEntity
  8
寸法線
100
AcDbText
 10
2680.693128503166
 20
2291.668672310311
 30
0.0
 40
25.0
  1
ﾘﾌﾞﾌﾟﾚｰﾄ②
 72
     2
 11
2824.026461836499
 21
2291.668672310311
 31
0.0
100
AcDbText
 73
     1
  0
LINE
  5
10D04
330
1F
100
AcDbEntity
  8
中心線
100
AcDbLine
 10
2926.145081977545
 20
2145.000005566115
 30
0.0
 11
2962.145101790654
 21
2145.000005566115
 31
0.0
  0
LINE
  5
10D05
330
1F
100
AcDbEntity
  8
中心線
100
AcDbLine
 10
2926.145081977545
 20
2295.123186674209
 30
0.0
 11
2962.145101790654
 21
2295.123186674209
 31
0.0
  0
LINE
  5
10D06
330
1F
100
AcDbEntity
  8
実線
100
AcDbLine
 10
352.145042351317
 20
2364.0
 30
0.0
 11
352.145042351317
 21
2076.0
 31
0.0
  0
LINE
  5
10D07
330
1F
100
AcDbEntity
  8
実線
100
AcDbLine
 10
368.145042351317
 20
2369.999971051351
 30
0.0
 11
368.145042351317
 21
2070.0
 31
0.0
  0
LINE
  5
10D08
330
1F
100
AcDbEntity
  8
実線
100
AcDbLine
 10
368.145042351317
 20
2369.999971051351
 30
0.0
 11
852.1450621644335
 21
2369.999962780319
 31
0.0
  0
LINE
  5
10D09
330
1F
100
AcDbEntity
  8
実線
100
AcDbLine
 10
368.145042351317
 20
2354.999962780319
 30
0.0
 11
852.1450621644335
 21
2354.999962780319
 31
0.0
  0
LINE
  5
10D0A
330
1F
100
AcDbEntity
  8
実線
100
AcDbLine
 10
772.145042351317
 20
2354.999962780319
 30
0.0
 11
772.145042351317
 21
2335.0
 31
0.0
  0
LINE
  5
10D0B
330
1F
100
AcDbEntity
  8
実線
100
AcDbLine
 10
822.1450621644335
 20
2304.999962780319
 30
0.0
 11
852.1450621644335
 21
2304.999962780319
 31
0.0
  0
LINE
  5
10D0C
330
1F
100
AcDbEntity
  8
実線
100
AcDbLine
 10
772.145042351317
 20
2335.0
 30
0.0
 11
822.1450621644335
 21
2304.999962780319
 31
0.0
  0
LINE
  5
10D0D
330
1F
100
AcDbEntity
  8
実線
100
AcDbLine
 10
352.145042351317
 20
2364.0
 30
0.0
 11
368.145042351317
 21
2364.0
 31
0.0
  0
LINE
  5
10D0E
330
1F
100
AcDbEntity
  8
仮想線
100
AcDbLine
 10
368.145042351317
 20
2369.999971051351
 30
0.0
 11
362.1450712999585
 21
2364.0
 31
0.0
  0
LINE
  5
10D0F
330
1F
100
AcDbEntity
  8
実線
100
AcDbLine
 10
368.145042351317
 20
2225.999962780319
 30
0.0
 11
518.1450621644335
 21
2225.999962780319
 31
0.0
  0
LINE
  5
10D10
330
1F
100
AcDbEntity
  8
実線
100
AcDbLine
 10
368.145042351317
 20
2213.999962780319
 30
0.0
 11
518.1450621644335
 21
2213.999962780319
 31
0.0
  0
LINE
  5
10D11
330
1F
100
AcDbEntity
  8
実線
100
AcDbLine
 10
518.1450621644335
 20
2225.999962780319
 30
0.0
 11
518.1450621644335
 21
2213.999962780319
 31
0.0
  0
LINE
  5
10D12
330
1F
100
AcDbEntity
  8
実線
100
AcDbLine
 10
842.1450423513169
 20
2354.999962780319
 30
0.0
 11
852.1450621644335
 21
2344.999962780319
 31
0.0
  0
LINE
  5
10D13
330
1F
100
AcDbEntity
  8
仮想線
100
AcDbLine
 10
846.1450502765664
 20
2354.999962780319
 30
0.0
 11
852.1450621644335
 21
2348.999962780319
 31
0.0
  0
LINE
  5
10D14
330
1F
100
AcDbEntity
  8
仮想線
100
AcDbLine
 10
852.1450712213127
 20
2375.999986133786
 30
0.0
 11
846.1450478678388
 21
2369.999962780319
 31
0.0
  0
LINE
  5
10D15
330
1F
100
AcDbEntity
  8
実線
100
AcDbLine
 10
368.145042351317
 20
2069.999953556399
 30
0.0
 11
852.1450621644335
 21
2069.999962780319
 31
0.0
  0
LINE
  5
10D16
330
1F
100
AcDbEntity
  8
実線
100
AcDbLine
 10
368.145042351317
 20
2084.999962780319
 30
0.0
 11
852.1450621644335
 21
2084.999962780319
 31
0.0
  0
LINE
  5
10D17
330
1F
100
AcDbEntity
  8
実線
100
AcDbLine
 10
772.145042351317
 20
2084.999962780319
 30
0.0
 11
772.145042351317
 21
2104.999925560638
 31
0.0
  0
LINE
  5
10D18
330
1F
100
AcDbEntity
  8
実線
100
AcDbLine
 10
822.1450621644335
 20
2134.999962780319
 30
0.0
 11
852.1450621644335
 21
2134.999962780319
 31
0.0
  0
LINE
  5
10D19
330
1F
100
AcDbEntity
  8
実線
100
AcDbLine
 10
772.145042351317
 20
2104.999925560638
 30
0.0
 11
822.1450621644335
 21
2134.999962780319
 31
0.0
  0
LINE
  5
10D1A
330
1F
100
AcDbEntity
  8
実線
100
AcDbLine
 10
352.145042351317
 20
2075.999925560638
 30
0.0
 11
368.145042351317
 21
2075.999925560638
 31
0.0
  0
LINE
  5
10D1B
330
1F
100
AcDbEntity
  8
仮想線
100
AcDbLine
 10
368.145042351317
 20
2069.999954509272
 30
0.0
 11
362.1450712999585
 21
2075.999925560638
 31
0.0
  0
LINE
  5
10D1C
330
1F
100
AcDbEntity
  8
実線
100
AcDbLine
 10
842.1450423513169
 20
2084.999962780319
 30
0.0
 11
852.1450621644335
 21
2094.999962780319
 31
0.0
  0
LINE
  5
10D1D
330
1F
100
AcDbEntity
  8
仮想線
100
AcDbLine
 10
846.1450502765664
 20
2084.999962780319
 30
0.0
 11
852.1450621644335
 21
2090.999962780319
 31
0.0
  0
LINE
  5
10D1E
330
1F
100
AcDbEntity
  8
仮想線
100
AcDbLine
 10
852.1450712213127
 20
2063.999939426838
 30
0.0
 11
846.1450478678388
 21
2069.999962780319
 31
0.0
  0
LINE
  5
10D20
330
1F
100
AcDbEntity
  8
中心線
100
AcDbLine
 10
402.1449777266325
 20
2380.000057897501
 30
0.0
 11
402.1449777266325
 21
2345.000057897502
 31
0.0
  0
LINE
  5
10D21
330
1F
100
AcDbEntity
  8
中心線
100
AcDbLine
 10
402.1449777266325
 20
2059.999983447837
 30
0.0
 11
402.1449777266325
 21
2094.999983447837
 31
0.0
  0
LINE
  5
10D22
330
1F
100
AcDbEntity
  8
中心線
100
AcDbLine
 10
502.1449777266325
 20
2380.000057897501
 30
0.0
 11
502.1449777266325
 21
2345.000057897502
 31
0.0
  0
LINE
  5
10D23
330
1F
100
AcDbEntity
  8
中心線
100
AcDbLine
 10
502.1449777266325
 20
2059.999983447837
 30
0.0
 11
502.1449777266325
 21
2094.999983447837
 31
0.0
  0
LINE
  5
10D24
330
1F
100
AcDbEntity
  8
中心線
100
AcDbLine
 10
602.1449777266325
 20
2380.000057897501
 30
0.0
 11
602.1449777266325
 21
2345.000057897502
 31
0.0
  0
LINE
  5
10D25
330
1F
100
AcDbEntity
  8
中心線
100
AcDbLine
 10
602.1449777266325
 20
2059.999983447837
 30
0.0
 11
602.1449777266325
 21
2094.999983447837
 31
0.0
  0
LINE
  5
10D26
330
1F
100
AcDbEntity
  8
中心線
100
AcDbLine
 10
342.1450819775355
 20
2145.000019492028
 30
0.0
 11
378.1451017906447
 21
2145.000019492028
 31
0.0
  0
LINE
  5
10D27
330
1F
100
AcDbEntity
  8
中心線
100
AcDbLine
 10
342.1450819775355
 20
2295.123200600108
 30
0.0
 11
378.1451017906447
 21
2295.123200600108
 31
0.0
  0
LINE
  5
10D28
330
1F
100
AcDbEntity
  8
実線
100
AcDbLine
 10
352.1450821643603
 20
1670.0
 30
0.0
 11
352.1450821643603
 21
1370.0
 31
0.0
  0
LINE
  5
10D29
330
1F
100
AcDbEntity
  8
破線
100
AcDbLine
 10
378.1450821643602
 20
1524.999962780333
 30
0.0
 11
368.1450821643602
 21
1534.999962780333
 31
0.0
  0
LINE
  5
10D2A
330
1F
100
AcDbEntity
  8
仮想線
100
AcDbLine
 10
374.1450821643602
 20
1524.999962780333
 30
0.0
 11
368.1450821643602
 21
1530.999962780333
 31
0.0
  0
LINE
  5
10D2B
330
1F
100
AcDbEntity
  8
破線
100
AcDbLine
 10
378.1450821643602
 20
1514.999962780319
 30
0.0
 11
368.1450821643602
 21
1504.999962780319
 31
0.0
  0
LINE
  5
10D2C
330
1F
100
AcDbEntity
  8
仮想線
100
AcDbLine
 10
374.1450821643602
 20
1514.999962780319
 30
0.0
 11
368.1450821643602
 21
1508.999962780319
 31
0.0
  0
LINE
  5
10D2D
330
1F
100
AcDbEntity
  8
破線
100
AcDbLine
 10
368.1450821643602
 20
1644.999962780334
 30
0.0
 11
393.1451019774767
 21
1644.999962780334
 31
0.0
  0
LINE
  5
10D2E
330
1F
100
AcDbEntity
  8
破線
100
AcDbLine
 10
518.1450821643602
 20
1555.0
 30
0.0
 11
518.1450821643602
 21
1524.999962780333
 31
0.0
  0
LINE
  5
10D2F
330
1F
100
AcDbEntity
  8
破線
100
AcDbLine
 10
393.1451019774767
 20
1644.999962780334
 30
0.0
 11
518.1450821643602
 21
1555.0
 31
0.0
  0
LINE
  5
10D30
330
1F
100
AcDbEntity
  8
破線
100
AcDbLine
 10
518.1450821643602
 20
1484.999925560653
 30
0.0
 11
518.1450821643602
 21
1514.999962780319
 31
0.0
  0
LINE
  5
10D31
330
1F
100
AcDbEntity
  8
破線
100
AcDbLine
 10
393.1451019774767
 20
1394.999962780319
 30
0.0
 11
518.1450821643602
 21
1484.999925560653
 31
0.0
  0
LINE
  5
10D32
330
1F
100
AcDbEntity
  8
破線
100
AcDbLine
 10
368.1450821643602
 20
1394.999962780319
 30
0.0
 11
393.1451019774767
 21
1394.999962780319
 31
0.0
  0
LINE
  5
10D33
330
1F
100
AcDbEntity
  8
実線
100
AcDbLine
 10
852.1451019774767
 20
1370.000111659028
 30
0.0
 11
352.1450821643603
 21
1370.0
 31
0.0
  0
LINE
  5
10D34
330
1F
100
AcDbEntity
  8
破線
100
AcDbLine
 10
852.1451019774767
 20
1515.000037219681
 30
0.0
 11
368.1450821643602
 21
1515.000037219681
 31
0.0
  0
LINE
  5
10D35
330
1F
100
AcDbEntity
  8
破線
100
AcDbLine
 10
852.1451019774767
 20
1525.000037219681
 30
0.0
 11
368.1450821643602
 21
1525.000037219681
 31
0.0
  0
LINE
  5
10D36
330
1F
100
AcDbEntity
  8
実線
100
AcDbLine
 10
852.1451019774767
 20
1669.999962780333
 30
0.0
 11
352.1450821643603
 21
1670.0
 31
0.0
  0
LINE
  5
10D37
330
1F
100
AcDbEntity
  8
実線
100
AcDbLine
 10
368.1450821643602
 20
1669.999962780333
 30
0.0
 11
368.1450821643602
 21
1370.000111659028
 31
0.0
  0
LINE
  5
10D38
330
1F
100
AcDbEntity
  8
破線
100
AcDbLine
 10
852.1451019774767
 20
1652.999962780333
 30
0.0
 11
772.1451019774767
 21
1652.999962780333
 31
0.0
  0
LINE
  5
10D39
330
1F
100
AcDbEntity
  8
破線
100
AcDbLine
 10
852.1451019774767
 20
1636.999962780333
 30
0.0
 11
772.1451019774767
 21
1636.999962780333
 31
0.0
  0
LINE
  5
10D3A
330
1F
100
AcDbEntity
  8
破線
100
AcDbLine
 10
772.1451019774767
 20
1652.999962780333
 30
0.0
 11
772.1451019774767
 21
1636.999962780333
 31
0.0
  0
LINE
  5
10D3B
330
1F
100
AcDbEntity
  8
破線
100
AcDbLine
 10
852.1451019774767
 20
1387.000111659028
 30
0.0
 11
772.1451019774767
 21
1387.000111659028
 31
0.0
  0
LINE
  5
10D3C
330
1F
100
AcDbEntity
  8
破線
100
AcDbLine
 10
852.1451019774767
 20
1403.000111659028
 30
0.0
 11
772.1451019774767
 21
1403.000111659028
 31
0.0
  0
LINE
  5
10D3D
330
1F
100
AcDbEntity
  8
破線
100
AcDbLine
 10
772.1451019774767
 20
1387.000111659028
 30
0.0
 11
772.1451019774767
 21
1403.000111659028
 31
0.0
  0
LINE
  5
10D3E
330
1F
100
AcDbEntity
  8
実線
100
AcDbLine
 10
852.1450622578422
 20
1359.999982630339
 30
0.0
 11
852.1450622578422
 21
1680.000002480348
 31
0.0
  0
LINE
  5
10D3F
330
1F
100
AcDbEntity
  8
中心線
100
AcDbLine
 10
402.1450821643602
 20
1629.841494761043
 30
0.0
 11
402.1450821643602
 21
1559.841531980725
 31
0.0
  0
LINE
  5
10D40
330
1F
100
AcDbEntity
  8
中心線
100
AcDbLine
 10
367.1451007742007
 20
1594.841513370891
 30
0.0
 11
437.145063554527
 21
1594.841513370891
 31
0.0
  0
CIRCLE
  5
10D41
330
1F
100
AcDbEntity
  8
実線
100
AcDbCircle
 10
402.1450821643602
 20
1594.841513370891
 30
0.0
 40
12.5
  0
LINE
  5
10D42
330
1F
100
AcDbEntity
  8
中心線
100
AcDbLine
 10
402.1450821643602
 20
1409.841594761048
 30
0.0
 11
402.1450821643602
 21
1479.841557541382
 31
0.0
  0
LINE
  5
10D43
330
1F
100
AcDbEntity
  8
中心線
100
AcDbLine
 10
367.1451007742007
 20
1444.841576151215
 30
0.0
 11
437.145063554527
 21
1444.841576151215
 31
0.0
  0
CIRCLE
  5
10D44
330
1F
100
AcDbEntity
  8
実線
100
AcDbCircle
 10
402.1450821643602
 20
1444.841576151215
 30
0.0
 40
12.5
  0
LINE
  5
10D45
330
1F
100
AcDbEntity
  8
中心線
100
AcDbLine
 10
502.1450821643602
 20
1629.841494761043
 30
0.0
 11
502.1450821643602
 21
1559.841531980725
 31
0.0
  0
LINE
  5
10D46
330
1F
100
AcDbEntity
  8
中心線
100
AcDbLine
 10
467.1451007742007
 20
1594.841513370891
 30
0.0
 11
537.145063554527
 21
1594.841513370891
 31
0.0
  0
CIRCLE
  5
10D47
330
1F
100
AcDbEntity
  8
実線
100
AcDbCircle
 10
502.1450821643602
 20
1594.841513370891
 30
0.0
 40
12.5
  0
LINE
  5
10D48
330
1F
100
AcDbEntity
  8
中心線
100
AcDbLine
 10
502.1450821643602
 20
1409.841594761048
 30
0.0
 11
502.1450821643602
 21
1479.841557541382
 31
0.0
  0
LINE
  5
10D49
330
1F
100
AcDbEntity
  8
中心線
100
AcDbLine
 10
467.1451007742007
 20
1444.841576151215
 30
0.0
 11
537.145063554527
 21
1444.841576151215
 31
0.0
  0
CIRCLE
  5
10D4A
330
1F
100
AcDbEntity
  8
実線
100
AcDbCircle
 10
502.1450821643602
 20
1444.841576151215
 30
0.0
 40
12.5
  0
LINE
  5
10D4B
330
1F
100
AcDbEntity
  8
中心線
100
AcDbLine
 10
602.1450821643602
 20
1629.841494761043
 30
0.0
 11
602.1450821643602
 21
1559.841531980725
 31
0.0
  0
LINE
  5
10D4C
330
1F
100
AcDbEntity
  8
中心線
100
AcDbLine
 10
567.1451007742007
 20
1594.841513370891
 30
0.0
 11
637.145063554527
 21
1594.841513370891
 31
0.0
  0
CIRCLE
  5
10D4D
330
1F
100
AcDbEntity
  8
実線
100
AcDbCircle
 10
602.1450821643602
 20
1594.841513370891
 30
0.0
 40
12.5
  0
LINE
  5
10D4E
330
1F
100
AcDbEntity
  8
中心線
100
AcDbLine
 10
602.1450821643602
 20
1409.841594761048
 30
0.0
 11
602.1450821643602
 21
1479.841557541382
 31
0.0
  0
LINE
  5
10D4F
330
1F
100
AcDbEntity
  8
中心線
100
AcDbLine
 10
567.1451007742007
 20
1444.841576151215
 30
0.0
 11
637.145063554527
 21
1444.841576151215
 31
0.0
  0
CIRCLE
  5
10D50
330
1F
100
AcDbEntity
  8
実線
100
AcDbCircle
 10
602.1450821643602
 20
1444.841576151215
 30
0.0
 40
12.5
  0
LINE
  5
10D51
330
1F
100
AcDbEntity
  8
中心線
100
AcDbLine
 10
342.1451217905787
 20
1619.938318352811
 30
0.0
 11
378.145141603688
 21
1619.938318352811
 31
0.0
  0
LINE
  5
10D52
330
1F
100
AcDbEntity
  8
中心線
100
AcDbLine
 10
342.1451217905787
 20
1419.938392076292
 30
0.0
 11
378.145141603688
 21
1419.938392076292
 31
0.0
  0
LINE
  5
10D53
330
1F
100
AcDbEntity
  8
実線
100
AcDbLine
 10
3766.581374075315
 20
2369.999982593425
 30
0.0
 11
3466.581374075314
 21
2369.999982593425
 31
0.0
  0
LINE
  5
10D54
330
1F
100
AcDbEntity
  8
実線
100
AcDbLine
 10
3466.581336855637
 20
2069.999962780316
 30
0.0
 11
3466.581336855639
 21
2369.999962780316
 31
0.0
  0
LINE
  5
10D55
330
1F
100
AcDbEntity
  8
実線
100
AcDbLine
 10
3766.581374075315
 20
2069.999982593426
 30
0.0
 11
3466.581374075314
 21
2069.999982593426
 31
0.0
  0
LINE
  5
10D56
330
1F
100
AcDbEntity
  8
実線
100
AcDbLine
 10
3766.581336855639
 20
2069.999962780316
 30
0.0
 11
3766.581336855639
 21
2369.999962780316
 31
0.0
  0
LINE
  5
10D57
330
1F
100
AcDbEntity
  8
破線
100
AcDbLine
 10
3766.581336855639
 20
2354.999982593425
 30
0.0
 11
3634.581336855639
 21
2354.999982593425
 31
0.0
  0
LINE
  5
10D58
330
1F
100
AcDbEntity
  8
破線
100
AcDbLine
 10
3621.581336855639
 20
2097.999942967207
 30
0.0
 11
3621.581336855641
 21
2341.999982593425
 31
0.0
  0
LINE
  5
10D59
330
1F
100
AcDbEntity
  8
中心線
100
AcDbLine
 10
3616.581336855639
 20
2044.999962780316
 30
0.0
 11
3616.581336855639
 21
2394.999962780316
 31
0.0
  0
LINE
  5
10D5A
330
1F
100
AcDbEntity
  8
実線
100
AcDbLine
 10
3766.581374075315
 20
2363.999982593425
 30
0.0
 11
3466.581374075314
 21
2363.999982593425
 31
0.0
  0
LINE
  5
10D5B
330
1F
100
AcDbEntity
  8
実線
100
AcDbLine
 10
3766.581374075315
 20
2075.999982593426
 30
0.0
 11
3466.581374075314
 21
2075.999982593426
 31
0.0
  0
DIMENSION
  5
10D5C
330
1F
100
AcDbEntity
  8
寸法線
100
AcDbDimension
280
     0
  2
*D8
 10
3466.581336855639
 20
1949.999942967206
 30
0.0
 11
3616.581336855639
 21
1949.999942967206
 31
0.0
 70
   160
 71
     5
 42
300.0
 73
     0
 74
     0
 75
     0
  3
STANDARD
100
AcDbAlignedDimension
 13
3766.581336855639
 23
2069.999962780316
 33
0.0
 14
3466.581336855639
 24
2069.999962780316
 34
0.0
100
AcDbRotatedDimension
  0
DIMENSION
  5
10D5D
330
1F
100
AcDbEntity
  8
寸法線
100
AcDbDimension
280
     0
  2
*D9
 10
3346.581336855638
 20
2069.999962780316
 30
0.0
 11
3346.581336855638
 21
2219.999972686871
 31
0.0
 70
   160
 71
     5
 42
300.0000198131092
 73
     0
 74
     0
 75
     0
  3
STANDARD
100
AcDbAlignedDimension
 13
3466.581336855639
 23
2369.999982593425
 33
0.0
 14
3466.581336855637
 24
2069.999962780316
 34
0.0
 50
270.0
100
AcDbRotatedDimension
  0
ARC
  5
10D5E
330
1F
100
AcDbEntity
  8
破線
100
AcDbCircle
 10
3634.581336855639
 20
2341.999982593425
 30
0.0
 40
13.0
100
AcDbArc
 50
90.0
 51
180.0
  0
LINE
  5
10D5F
330
1F
100
AcDbEntity
  8
破線
100
AcDbLine
 10
3766.581336855639
 20
2084.999942967208
 30
0.0
 11
3634.581336855639
 21
2084.999942967208
 31
0.0
  0
ARC
  5
10D60
330
1F
100
AcDbEntity
  8
破線
100
AcDbCircle
 10
3634.581336855639
 20
2097.999942967207
 30
0.0
 40
13.0
100
AcDbArc
 50
180.0
 51
270.0
  0
LINE
  5
10D61
330
1F
100
AcDbEntity
  8
破線
100
AcDbLine
 10
3466.581336855639
 20
2354.999982593425
 30
0.0
 11
3598.58133685564
 21
2354.999982593425
 31
0.0
  0
LINE
  5
10D62
330
1F
100
AcDbEntity
  8
破線
100
AcDbLine
 10
3611.581336855639
 20
2097.999942967208
 30
0.0
 11
3611.581336855639
 21
2341.999982593425
 31
0.0
  0
ARC
  5
10D63
330
1F
100
AcDbEntity
  8
破線
100
AcDbCircle
 10
3598.58133685564
 20
2341.999982593425
 30
0.0
 40
13.0
100
AcDbArc
 50
0.0
 51
90.0
  0
LINE
  5
10D64
330
1F
100
AcDbEntity
  8
破線
100
AcDbLine
 10
3466.581336855637
 20
2084.999942967208
 30
0.0
 11
3598.58133685564
 21
2084.999942967208
 31
0.0
  0
ARC
  5
10D65
330
1F
100
AcDbEntity
  8
破線
100
AcDbCircle
 10
3598.58133685564
 20
2097.999942967208
 30
0.0
 40
13.0
100
AcDbArc
 50
270.0
 51
0.0
  0
LINE
  5
10D66
330
1F
100
AcDbEntity
  8
中心線
100
AcDbLine
 10
3791.581336855639
 20
2219.999962780316
 30
0.0
 11
3441.58133685564
 21
2219.999962780317
 31
0.0
  0
LINE
  5
10D67
330
1F
100
AcDbEntity
  8
破線
100
AcDbLine
 10
3741.581374075315
 20
2225.999962780316
 30
0.0
 11
3621.581336855639
 21
2225.999962780316
 31
0.0
  0
LINE
  5
10D68
330
1F
100
AcDbEntity
  8
破線
100
AcDbLine
 10
3741.581374075315
 20
2213.999962780317
 30
0.0
 11
3621.581336855639
 21
2213.999962780317
 31
0.0
  0
LINE
  5
10D69
330
1F
100
AcDbEntity
  8
破線
100
AcDbLine
 10
3741.581374075315
 20
2225.999962780316
 30
0.0
 11
3741.581374075315
 21
2213.999962780317
 31
0.0
  0
LINE
  5
10D6A
330
1F
100
AcDbEntity
  8
破線
100
AcDbLine
 10
3491.581299635966
 20
2225.999962780316
 30
0.0
 11
3611.581336855639
 21
2225.999962780316
 31
0.0
  0
LINE
  5
10D6B
330
1F
100
AcDbEntity
  8
破線
100
AcDbLine
 10
3491.581299635966
 20
2213.999962780317
 30
0.0
 11
3611.581336855639
 21
2213.999962780317
 31
0.0
  0
LINE
  5
10D6C
330
1F
100
AcDbEntity
  8
破線
100
AcDbLine
 10
3491.581299635966
 20
2225.999962780316
 30
0.0
 11
3491.581299635966
 21
2213.999962780317
 31
0.0
  0
TEXT
  5
10D6D
330
1F
100
AcDbEntity
  8
寸法線
100
AcDbText
 10
3625.943994895721
 20
2497.218384712854
 30
0.0
 40
25.0
  1
主材連結用孔
 72
     2
 11
3799.277328229055
 21
2522.218384712854
 31
0.0
100
AcDbText
 73
     3
  0
LEADER
  5
10D6E
330
1F
100
AcDbEntity
  8
寸法線
100
AcDbLeader
  3
STANDARD
 76
     3
 10
3524.795545230134
 20
2304.422141927156
 30
0.0
 10
3616.581355465478
 20
2489.999992652386
 30
0.0
 10
3817.776259675469
 20
2489.999992652386
 30
0.0
211
-1.0
221
0.0
231
0.0
1001
ACAD
1000
DSTYLE
1002
{
1070
   147
1040
0.875
1070
    77
1070
     0
1002
}
  0
LINE
  5
10D6F
330
1F
100
AcDbEntity
  8
中心線
100
AcDbLine
 10
3516.581355465478
 20
2110.000001203262
 30
0.0
 11
3516.581355465478
 21
2179.999963983588
 31
0.0
  0
CIRCLE
  5
10D70
330
1F
100
AcDbEntity
  8
実線
100
AcDbCircle
 10
3516.581355465478
 20
2144.999982593425
 30
0.0
 40
12.5
  0
LINE
  5
10D71
330
1F
100
AcDbEntity
  8
中心線
100
AcDbLine
 10
3551.581336855641
 20
2144.999982593425
 30
0.0
 11
3481.581374075315
 21
2144.999982593425
 31
0.0
  0
LINE
  5
10D72
330
1F
100
AcDbEntity
  8
中心線
100
AcDbLine
 10
3516.581355465478
 20
2329.999963983588
 30
0.0
 11
3516.581355465478
 21
2260.000001203262
 31
0.0
  0
CIRCLE
  5
10D73
330
1F
100
AcDbEntity
  8
実線
100
AcDbCircle
 10
3516.581355465478
 20
2294.999982593425
 30
0.0
 40
12.5
  0
LINE
  5
10D74
330
1F
100
AcDbEntity
  8
中心線
100
AcDbLine
 10
3551.581336855641
 20
2294.999982593425
 30
0.0
 11
3481.581374075315
 21
2294.999982593425
 31
0.0
  0
LINE
  5
10D75
330
1F
100
AcDbEntity
  8
中心線
100
AcDbLine
 10
3716.581392685152
 20
2110.000001203262
 30
0.0
 11
3716.581392685152
 21
2179.999963983588
 31
0.0
  0
CIRCLE
  5
10D76
330
1F
100
AcDbEntity
  8
実線
100
AcDbCircle
 10
3716.581392685152
 20
2144.999982593425
 30
0.0
 40
12.5
  0
LINE
  5
10D77
330
1F
100
AcDbEntity
  8
中心線
100
AcDbLine
 10
3681.581411294989
 20
2144.999982593425
 30
0.0
 11
3751.581374075315
 21
2144.999982593425
 31
0.0
  0
LINE
  5
10D78
330
1F
100
AcDbEntity
  8
中心線
100
AcDbLine
 10
3716.581392685152
 20
2329.999963983588
 30
0.0
 11
3716.581392685152
 21
2260.000001203262
 31
0.0
  0
CIRCLE
  5
10D79
330
1F
100
AcDbEntity
  8
実線
100
AcDbCircle
 10
3716.581392685152
 20
2294.999982593425
 30
0.0
 40
12.5
  0
LINE
  5
10D7A
330
1F
100
AcDbEntity
  8
中心線
100
AcDbLine
 10
3681.581411294989
 20
2294.999982593425
 30
0.0
 11
3751.581374075315
 21
2294.999982593425
 31
0.0
  0
LEADER
  5
10D7B
330
1F
100
AcDbEntity
  8
寸法線
100
AcDbLeader
  3
STANDARD
 76
     3
 10
2708.395042351325
 20
1605.666811068174
 30
0.0
 10
2791.634344613494
 20
1749.841511772839
 30
0.0
 10
3059.294521548314
 20
1749.841511772839
 30
0.0
211
-1.0
221
0.0
231
0.0
1001
ACAD
1000
DSTYLE
1002
{
1070
   147
1040
0.875
1070
    77
1070
     0
1002
}
  0
TEXT
  5
10D7C
330
1F
100
AcDbEntity
  8
寸法線
100
AcDbText
 10
2800.384344613489
 20
1758.591511772839
 30
0.0
 40
25.0
  1
ｶﾊﾞｰﾌﾟﾚｰﾄ連結用孔
 72
     2
 11
3048.717677946823
 21
1783.591511772839
 31
0.0
100
AcDbText
 73
     3
  0
DIMENSION
  5
10D7D
330
1F
100
AcDbEntity
  8
寸法線
100
AcDbDimension
280
     0
  2
*D10
 10
3525.74870180377
 20
1519.999982630339
 30
0.0
 11
3504.49870180377
 21
1594.999963400414
 31
0.0
 70
    32
 71
     5
 42
149.999961540153
 73
     0
 74
     0
 75
     0
  3
STANDARD
100
AcDbAlignedDimension
 13
3616.58135676216
 23
1669.999944170491
 33
0.0
 14
3581.581355465477
 24
1519.999982630339
 34
0.0
 50
90.0
100
AcDbRotatedDimension
1001
AcDbBlockRepETag
1070
     1
1071
        0
1005
10D7D
  0
LEADER
  5
10D7E
330
1F
100
AcDbEntity
  8
寸法線
100
AcDbLeader
  3
STANDARD
 76
     3
 10
3626.412852713689
 20
1422.014306744412
 30
0.0
 10
3685.472783779994
 20
1283.934639993577
 30
0.0
 10
4006.306083779993
 20
1283.934639993577
 30
0.0
1001
ACAD
1000
DSTYLE
1002
{
1070
   147
1040
0.875
1070
    77
1070
     0
1002
}
1001
AcDbBlockRepETag
1070
     1
1071
        1
1005
10D7E
  0
TEXT
  5
10D7F
330
1F
100
AcDbEntity
  8
寸法線
100
AcDbText
 10
3704.222783779993
 20
1294.535973090707
 30
0.0
 40
25.0
  1
横拘束鉄筋貫通用長孔
 11
3704.222783779993
 21
1319.535973090707
 31
0.0
100
AcDbText
 73
     3
1001
AcDbBlockRepETag
1070
     1
1071
        2
1005
10D7F
  0
ARC
  5
10D80
330
1F
100
AcDbEntity
  8
実線
100
AcDbCircle
 10
3616.581336855638
 20
1594.999982630339
 30
0.0
 40
25.0
100
AcDbArc
 50
0.0
 51
180.0
  0
LINE
  5
10D81
330
1F
100
AcDbEntity
  8
実線
100
AcDbLine
 10
3591.581336855639
 20
1594.999982630339
 30
0.0
 11
3591.581336855639
 21
1444.999982630339
 31
0.0
  0
LINE
  5
10D82
330
1F
100
AcDbEntity
  8
実線
100
AcDbLine
 10
3641.581336855639
 20
1594.999982630339
 30
0.0
 11
3641.581336855639
 21
1444.999982630339
 31
0.0
  0
ARC
  5
10D83
330
1F
100
AcDbEntity
  8
実線
100
AcDbCircle
 10
3616.581336855638
 20
1444.999982630339
 30
0.0
 40
25.0
100
AcDbArc
 50
180.0
 51
0.0
  0
LINE
  5
10D84
330
1F
100
AcDbEntity
  8
中心線
100
AcDbLine
 10
3616.581336855638
 20
1629.999982630339
 30
0.0
 11
3616.581336855638
 21
1409.999982630339
 31
0.0
  0
LINE
  5
10D85
330
1F
100
AcDbEntity
  8
中心線
100
AcDbLine
 10
3581.581355465477
 20
1519.999982630339
 30
0.0
 11
3651.581318245801
 21
1519.999982630339
 31
0.0
  0
DIMENSION
  5
10D86
330
1F
100
AcDbEntity
  8
寸法線
100
AcDbDimension
280
     0
  2
*D11
 10
3525.748701803772
 20
1519.999982630339
 30
0.0
 11
3504.498701803772
 21
1445.000001860261
 31
0.0
 70
    32
 71
     5
 42
149.9999615401527
 73
     0
 74
     0
 75
     0
  3
STANDARD
100
AcDbAlignedDimension
 13
3616.58135676216
 23
1370.000021090186
 33
0.0
 14
3581.581355465477
 24
1519.999982630339
 34
0.0
 50
270.0
100
AcDbRotatedDimension
1001
AcDbBlockRepETag
1070
     1
1071
        4
1005
10D86
  0
TEXT
  5
10D87
330
1F
100
AcDbEntity
  8
寸法線
100
AcDbText
 10
2961.457537936397
 20
606.7561391440013
 30
0.0
 40
25.0
  1
※　H型鋼（連結部）の長さは、切梁メーカー仕様または施工条件により
 11
2961.457537936397
 21
606.7561391440013
 31
0.0
100
AcDbText
 73
     1
  0
TEXT
  5
10D88
330
1F
100
AcDbEntity
  8
寸法線
100
AcDbText
 10
2961.457537936397
 20
656.7561391440013
 30
0.0
 40
25.0
  1
※　H型鋼（連結部）の穴開け位置は、切梁メーカー仕様による。
 11
2961.457537936397
 21
656.7561391440013
 31
0.0
100
AcDbText
 73
     1
  0
TEXT
  5
10D89
330
1F
100
AcDbEntity
  8
寸法線
100
AcDbText
 10
2961.457537936397
 20
556.7561391440013
 30
0.0
 40
25.0
  1
　　変更する場合がある。
 11
2961.457537936397
 21
556.7561391440013
 31
0.0
100
AcDbText
 73
     1
  0
TEXT
  5
10D8A
330
1F
100
AcDbEntity
  8
寸法線
100
AcDbText
 10
2961.457537936397
 20
506.7561391440013
 30
0.0
 40
25.0
  1
※　空洞金具部及びＨ型鋼（埋設部）は鉄筋防錆剤塗装仕上げ。
 11
2961.457537936397
 21
506.7561391440013
 31
0.0
100
AcDbText
 73
     1
  0
TEXT
  5
10D8B
330
1F
100
AcDbEntity
  8
寸法線
100
AcDbText
 10
2961.457537936397
 20
456.7561391440013
 30
0.0
 40
25.0
  1
※　H型鋼（連結部）は赤さび塗装仕上げ。
 11
2961.457537936397
 21
456.7561391440013
 31
0.0
100
AcDbText
 73
     1
  0
LINE
  5
10D8C
330
1F
100
AcDbEntity
  8
中心線
100
AcDbLine
 10
884.9999680158799
 20
650.0
 30
0.0
 11
1254.99996801588
 21
650.0
 31
0.0
  0
LINE
  5
10D8D
330
1F
100
AcDbEntity
  8
実線
100
AcDbLine
 10
910.0
 20
810.0000182446091
 30
0.0
 11
1230.0
 21
810.0000182446091
 31
0.0
  0
LINE
  5
10D8E
330
1F
100
AcDbEntity
  8
実線
100
AcDbLine
 10
910.0
 20
490.0000182446092
 30
0.0
 11
1230.0
 21
490.0000182446092
 31
0.0
  0
LINE
  5
10D8F
330
1F
100
AcDbEntity
  8
実線
100
AcDbLine
 10
910.0
 20
490.0000182446092
 30
0.0
 11
910.0
 21
810.0000182446091
 31
0.0
  0
LINE
  5
10D90
330
1F
100
AcDbEntity
  8
実線
100
AcDbLine
 10
1230.0
 20
490.0000182446092
 30
0.0
 11
1230.0
 21
810.0000182446091
 31
0.0
  0
LINE
  5
10D91
330
1F
100
AcDbEntity
  8
中心線
100
AcDbLine
 10
894.9999975897954
 20
775.0
 30
0.0
 11
994.9999975897954
 21
775.0
 31
0.0
  0
LINE
  5
10D92
330
1F
100
AcDbEntity
  8
中心線
100
AcDbLine
 10
894.9999975897954
 20
525.0
 30
0.0
 11
994.9999975897954
 21
525.0
 31
0.0
  0
LINE
  5
10D93
330
1F
100
AcDbEntity
  8
中心線
100
AcDbLine
 10
944.9999975897954
 20
825.0
 30
0.0
 11
944.9999975897954
 21
725.0
 31
0.0
  0
LINE
  5
10D94
330
1F
100
AcDbEntity
  8
中心線
100
AcDbLine
 10
1194.999997589795
 20
825.0
 30
0.0
 11
1194.999997589795
 21
725.0
 31
0.0
  0
CIRCLE
  5
10D95
330
1F
100
AcDbEntity
  8
破線
100
AcDbCircle
 10
944.9999975897954
 20
525.0
 30
0.0
 40
25.0
  0
CIRCLE
  5
10D96
330
1F
100
AcDbEntity
  8
破線
100
AcDbCircle
 10
944.9999975897954
 20
775.0
 30
0.0
 40
25.0
  0
CIRCLE
  5
10D97
330
1F
100
AcDbEntity
  8
破線
100
AcDbCircle
 10
1194.999997589795
 20
775.0
 30
0.0
 40
25.0
  0
CIRCLE
  5
10D98
330
1F
100
AcDbEntity
  8
破線
100
AcDbCircle
 10
1194.999997589795
 20
525.0
 30
0.0
 40
25.0
  0
LINE
  5
10D99
330
1F
100
AcDbEntity
  8
中心線
100
AcDbLine
 10
1144.999997589795
 20
525.0
 30
0.0
 11
1244.999997589795
 21
525.0
 31
0.0
  0
LINE
  5
10D9A
330
1F
100
AcDbEntity
  8
中心線
100
AcDbLine
 10
1194.999997589795
 20
575.0
 30
0.0
 11
1194.999997589795
 21
475.0
 31
0.0
  0
LINE
  5
10D9B
330
1F
100
AcDbEntity
  8
中心線
100
AcDbLine
 10
944.9999975897954
 20
575.0
 30
0.0
 11
944.9999975897954
 21
475.0
 31
0.0
  0
LINE
  5
10D9C
330
1F
100
AcDbEntity
  8
中心線
100
AcDbLine
 10
1144.999997589795
 20
775.0
 30
0.0
 11
1244.999997589795
 21
775.0
 31
0.0
  0
LINE
  5
10D9D
330
1F
100
AcDbEntity
  8
破線
100
AcDbLine
 10
1174.999997589795
 20
500.0
 30
0.0
 11
964.9999975897953
 21
500.0
 31
0.0
  0
LINE
  5
10D9E
330
1F
100
AcDbEntity
  8
破線
100
AcDbLine
 10
1174.999997589795
 20
509.0
 30
0.0
 11
964.9999975897953
 21
509.0
 31
0.0
  0
LINE
  5
10D9F
330
1F
100
AcDbEntity
  8
破線
100
AcDbLine
 10
964.9999975897953
 20
500.0
 30
0.0
 11
964.9999975897953
 21
509.0
 31
0.0
  0
LINE
  5
10DA0
330
1F
100
AcDbEntity
  8
破線
100
AcDbLine
 10
1174.999997589795
 20
500.0
 30
0.0
 11
1174.999997589795
 21
509.0
 31
0.0
  0
LINE
  5
10DA1
330
1F
100
AcDbEntity
  8
破線
100
AcDbLine
 10
928.9999975897954
 20
545.0
 30
0.0
 11
928.9999975897954
 21
755.0
 31
0.0
  0
LINE
  5
10DA2
330
1F
100
AcDbEntity
  8
破線
100
AcDbLine
 10
919.9999975897954
 20
545.0
 30
0.0
 11
919.9999975897954
 21
755.0
 31
0.0
  0
LINE
  5
10DA3
330
1F
100
AcDbEntity
  8
破線
100
AcDbLine
 10
919.9999975897954
 20
545.0
 30
0.0
 11
928.9999975897954
 21
545.0
 31
0.0
  0
LINE
  5
10DA4
330
1F
100
AcDbEntity
  8
破線
100
AcDbLine
 10
919.9999975897954
 20
755.0
 30
0.0
 11
928.9999975897954
 21
755.0
 31
0.0
  0
LINE
  5
10DA5
330
1F
100
AcDbEntity
  8
破線
100
AcDbLine
 10
964.9999975897953
 20
800.0
 30
0.0
 11
1174.999997589795
 21
800.0
 31
0.0
  0
LINE
  5
10DA6
330
1F
100
AcDbEntity
  8
破線
100
AcDbLine
 10
964.9999975897953
 20
791.0
 30
0.0
 11
1174.999997589795
 21
791.0
 31
0.0
  0
LINE
  5
10DA7
330
1F
100
AcDbEntity
  8
破線
100
AcDbLine
 10
964.9999975897953
 20
800.0
 30
0.0
 11
964.9999975897953
 21
791.0
 31
0.0
  0
LINE
  5
10DA8
330
1F
100
AcDbEntity
  8
破線
100
AcDbLine
 10
1174.999997589795
 20
800.0
 30
0.0
 11
1174.999997589795
 21
791.0
 31
0.0
  0
LINE
  5
10DA9
330
1F
100
AcDbEntity
  8
破線
100
AcDbLine
 10
1210.999997589795
 20
755.0
 30
0.0
 11
1210.999997589795
 21
545.0
 31
0.0
  0
LINE
  5
10DAA
330
1F
100
AcDbEntity
  8
破線
100
AcDbLine
 10
1219.999997589795
 20
755.0
 30
0.0
 11
1219.999997589795
 21
545.0
 31
0.0
  0
LINE
  5
10DAB
330
1F
100
AcDbEntity
  8
破線
100
AcDbLine
 10
1219.999997589795
 20
545.0
 30
0.0
 11
1210.999997589795
 21
545.0
 31
0.0
  0
LINE
  5
10DAC
330
1F
100
AcDbEntity
  8
破線
100
AcDbLine
 10
1219.999997589795
 20
755.0
 30
0.0
 11
1210.999997589795
 21
755.0
 31
0.0
  0
LINE
  5
10DAD
330
1F
100
AcDbEntity
  8
実線
100
AcDbLine
 10
1399.999996414961
 20
490.0000182446092
 30
0.0
 11
1399.999996414961
 21
810.0000182446091
 31
0.0
  0
LINE
  5
10DAE
330
1F
100
AcDbEntity
  8
実線
100
AcDbLine
 10
1415.999996414961
 20
490.0000182446092
 30
0.0
 11
1415.999996414961
 21
810.0000182446091
 31
0.0
  0
LINE
  5
10DAF
330
1F
100
AcDbEntity
  8
実線
100
AcDbLine
 10
1399.999996414961
 20
810.0
 30
0.0
 11
1415.999996414961
 21
810.0
 31
0.0
  0
LINE
  5
10DB0
330
1F
100
AcDbEntity
  8
実線
100
AcDbLine
 10
1399.999996414961
 20
490.0
 30
0.0
 11
1415.999996414961
 21
490.0
 31
0.0
  0
LINE
  5
10DB1
330
1F
100
AcDbEntity
  8
実線
100
AcDbLine
 10
1783.999996414961
 20
490.0000182446092
 30
0.0
 11
1783.999996414961
 21
810.0000182446091
 31
0.0
  0
LINE
  5
10DB2
330
1F
100
AcDbEntity
  8
実線
100
AcDbLine
 10
1799.999996414961
 20
490.0000182446092
 30
0.0
 11
1799.999996414961
 21
810.0000182446091
 31
0.0
  0
LINE
  5
10DB3
330
1F
100
AcDbEntity
  8
実線
100
AcDbLine
 10
1783.999996414961
 20
810.0
 30
0.0
 11
1799.999996414961
 21
810.0
 31
0.0
  0
LINE
  5
10DB4
330
1F
100
AcDbEntity
  8
実線
100
AcDbLine
 10
1783.999996414961
 20
490.0
 30
0.0
 11
1799.999996414961
 21
490.0
 31
0.0
  0
LINE
  5
10DB5
330
1F
100
AcDbEntity
  8
実線
100
AcDbLine
 10
1427.999996414961
 20
545.0
 30
0.0
 11
1447.999996414961
 21
545.0
 31
0.0
  0
LINE
  5
10DB6
330
1F
100
AcDbEntity
  8
実線
100
AcDbLine
 10
1447.999996414961
 20
545.0
 30
0.0
 11
1447.999996414961
 21
755.0
 31
0.0
  0
LINE
  5
10DB7
330
1F
100
AcDbEntity
  8
実線
100
AcDbLine
 10
1751.999996414961
 20
545.0
 30
0.0
 11
1751.999996414961
 21
755.0
 31
0.0
  0
LINE
  5
10DB8
330
1F
100
AcDbEntity
  8
実線
100
AcDbLine
 10
1751.999996414961
 20
545.0
 30
0.0
 11
1771.999996414961
 21
545.0
 31
0.0
  0
LINE
  5
10DB9
330
1F
100
AcDbEntity
  8
実線
100
AcDbLine
 10
1415.999996414961
 20
557.0
 30
0.0
 11
1427.999996414961
 21
545.0
 31
0.0
  0
LINE
  5
10DBA
330
1F
100
AcDbEntity
  8
実線
100
AcDbLine
 10
1771.999996414961
 20
545.0
 30
0.0
 11
1783.999996414961
 21
557.0
 31
0.0
  0
LINE
  5
10DBB
330
1F
100
AcDbEntity
  8
実線
100
AcDbLine
 10
1415.999996414961
 20
550.0
 30
0.0
 11
1422.999996414961
 21
550.0
 31
0.0
  0
LINE
  5
10DBC
330
1F
100
AcDbEntity
  8
実線
100
AcDbLine
 10
1415.999996414961
 20
500.0
 30
0.0
 11
1784.000100000004
 21
500.0
 31
0.0
  0
LINE
  5
10DBD
330
1F
100
AcDbEntity
  8
実線
100
AcDbLine
 10
1776.999996414961
 20
550.0
 30
0.0
 11
1783.999996414961
 21
550.0
 31
0.0
  0
LINE
  5
10DBE
330
1F
100
AcDbEntity
  8
実線
100
AcDbLine
 10
1447.999996414961
 20
550.0
 30
0.0
 11
1752.000100000004
 21
550.0
 31
0.0
  0
LINE
  5
10DBF
330
1F
100
AcDbEntity
  8
破線
100
AcDbLine
 10
1422.999996414961
 20
550.0
 30
0.0
 11
1447.999996414961
 21
550.0
 31
0.0
  0
LINE
  5
10DC0
330
1F
100
AcDbEntity
  8
破線
100
AcDbLine
 10
1751.999996414961
 20
550.0
 30
0.0
 11
1776.999996414961
 21
550.0
 31
0.0
  0
LINE
  5
10DC1
330
1F
100
AcDbEntity
  8
中心線
100
AcDbLine
 10
1389.999996414961
 20
525.0
 30
0.0
 11
1809.99996801588
 21
525.0
 31
0.0
  0
LINE
  5
10DC2
330
1F
100
AcDbEntity
  8
破線
100
AcDbLine
 10
1415.999996414961
 20
509.0
 30
0.0
 11
1447.999996414961
 21
509.0
 31
0.0
  0
LINE
  5
10DC3
330
1F
100
AcDbEntity
  8
破線
100
AcDbLine
 10
1447.999996414961
 20
509.0
 30
0.0
 11
1447.999996414961
 21
500.0
 31
0.0
  0
LINE
  5
10DC4
330
1F
100
AcDbEntity
  8
中心線
100
AcDbLine
 10
1374.99996801588
 20
650.0
 30
0.0
 11
1824.99996801588
 21
650.0
 31
0.0
  0
LINE
  5
10DC5
330
1F
100
AcDbEntity
  8
中心線
100
AcDbLine
 10
1389.999996414961
 20
775.0
 30
0.0
 11
1809.99996801588
 21
775.0
 31
0.0
  0
LINE
  5
10DC6
330
1F
100
AcDbEntity
  8
破線
100
AcDbLine
 10
1751.999996414961
 20
750.0
 30
0.0
 11
1776.999996414961
 21
750.0
 31
0.0
  0
LINE
  5
10DC7
330
1F
100
AcDbEntity
  8
実線
100
AcDbLine
 10
1447.999996414961
 20
750.0
 30
0.0
 11
1752.000100000004
 21
750.0
 31
0.0
  0
LINE
  5
10DC8
330
1F
100
AcDbEntity
  8
実線
100
AcDbLine
 10
1776.999996414961
 20
750.0
 30
0.0
 11
1783.999996414961
 21
750.0
 31
0.0
  0
LINE
  5
10DC9
330
1F
100
AcDbEntity
  8
実線
100
AcDbLine
 10
1415.999996414961
 20
800.0
 30
0.0
 11
1784.000100000004
 21
800.0
 31
0.0
  0
LINE
  5
10DCA
330
1F
100
AcDbEntity
  8
実線
100
AcDbLine
 10
1751.999996414961
 20
755.0
 30
0.0
 11
1771.999996414961
 21
755.0
 31
0.0
  0
LINE
  5
10DCB
330
1F
100
AcDbEntity
  8
実線
100
AcDbLine
 10
1771.999996414961
 20
755.0
 30
0.0
 11
1783.999996414961
 21
743.0
 31
0.0
  0
LINE
  5
10DCC
330
1F
100
AcDbEntity
  8
破線
100
AcDbLine
 10
1415.999996414961
 20
791.0
 30
0.0
 11
1447.999996414961
 21
791.0
 31
0.0
  0
LINE
  5
10DCD
330
1F
100
AcDbEntity
  8
破線
100
AcDbLine
 10
1447.999996414961
 20
791.0
 30
0.0
 11
1447.999996414961
 21
800.0
 31
0.0
  0
LINE
  5
10DCE
330
1F
100
AcDbEntity
  8
破線
100
AcDbLine
 10
1422.999996414961
 20
750.0
 30
0.0
 11
1447.999996414961
 21
750.0
 31
0.0
  0
LINE
  5
10DCF
330
1F
100
AcDbEntity
  8
実線
100
AcDbLine
 10
1427.999996414961
 20
755.0
 30
0.0
 11
1447.999996414961
 21
755.0
 31
0.0
  0
LINE
  5
10DD0
330
1F
100
AcDbEntity
  8
実線
100
AcDbLine
 10
1415.999996414961
 20
743.0
 30
0.0
 11
1427.999996414961
 21
755.0
 31
0.0
  0
LINE
  5
10DD1
330
1F
100
AcDbEntity
  8
実線
100
AcDbLine
 10
1415.999996414961
 20
750.0
 30
0.0
 11
1422.999996414961
 21
750.0
 31
0.0
  0
LINE
  5
10DD2
330
1F
100
AcDbEntity
  8
破線
100
AcDbLine
 10
1783.999996414961
 20
509.0
 30
0.0
 11
1751.999996414961
 21
509.0
 31
0.0
  0
LINE
  5
10DD3
330
1F
100
AcDbEntity
  8
破線
100
AcDbLine
 10
1751.999996414961
 20
509.0
 30
0.0
 11
1751.999996414961
 21
500.0
 31
0.0
  0
LINE
  5
10DD4
330
1F
100
AcDbEntity
  8
破線
100
AcDbLine
 10
1751.999996414961
 20
791.0
 30
0.0
 11
1751.999996414961
 21
800.0
 31
0.0
  0
LINE
  5
10DD5
330
1F
100
AcDbEntity
  8
破線
100
AcDbLine
 10
1783.999996414961
 20
791.0
 30
0.0
 11
1751.999996414961
 21
791.0
 31
0.0
  0
LINE
  5
10DD6
330
1F
100
AcDbEntity
  8
実線
100
AcDbLine
 10
2235.000399031124
 20
500.0004132727918
 30
0.0
 11
2025.000399031124
 21
500.0004132727918
 31
0.0
  0
LINE
  5
10DD7
330
1F
100
AcDbEntity
  8
実線
100
AcDbLine
 10
2235.000399031124
 20
509.0004132727917
 30
0.0
 11
2025.000399031124
 21
509.0004132727917
 31
0.0
  0
LINE
  5
10DD8
330
1F
100
AcDbEntity
  8
実線
100
AcDbLine
 10
2025.000399031124
 20
791.0004132727918
 30
0.0
 11
2235.000399031124
 21
791.0004132727918
 31
0.0
  0
LINE
  5
10DD9
330
1F
100
AcDbEntity
  8
実線
100
AcDbLine
 10
2025.000399031124
 20
800.0004132727918
 30
0.0
 11
2235.000399031124
 21
800.0004132727918
 31
0.0
  0
LINE
  5
10DDA
330
1F
100
AcDbEntity
  8
実線
100
AcDbLine
 10
1970.0
 20
490.0000182446092
 30
0.0
 11
2290.0
 21
490.0000182446092
 31
0.0
  0
LINE
  5
10DDB
330
1F
100
AcDbEntity
  8
実線
100
AcDbLine
 10
1970.0
 20
810.0000182446091
 30
0.0
 11
2290.0
 21
810.0000182446091
 31
0.0
  0
LINE
  5
10DDC
330
1F
100
AcDbEntity
  8
中心線
100
AcDbLine
 10
1944.99996801588
 20
650.0004132727918
 30
0.0
 11
2314.99996801588
 21
650.0004132727918
 31
0.0
  0
LINE
  5
10DDD
330
1F
100
AcDbEntity
  8
実線
100
AcDbLine
 10
2025.000399031124
 20
800.0004132727918
 30
0.0
 11
2025.000399031124
 21
791.0004132727918
 31
0.0
  0
LINE
  5
10DDE
330
1F
100
AcDbEntity
  8
中心線
100
AcDbLine
 10
2005.000399031124
 20
825.0004132727918
 30
0.0
 11
2005.000399031124
 21
725.0004132727918
 31
0.0
  0
CIRCLE
  5
10DDF
330
1F
100
AcDbEntity
  8
実線
100
AcDbCircle
 10
2005.000399031124
 20
775.0004132727918
 30
0.0
 40
25.0
  0
LINE
  5
10DE0
330
1F
100
AcDbEntity
  8
実線
100
AcDbLine
 10
1970.0
 20
490.0000182446092
 30
0.0
 11
1970.0
 21
810.0000182446091
 31
0.0
  0
LINE
  5
10DE1
330
1F
100
AcDbEntity
  8
中心線
100
AcDbLine
 10
1955.000399031123
 20
525.0004132727918
 30
0.0
 11
2055.000399031124
 21
525.0004132727918
 31
0.0
  0
LINE
  5
10DE2
330
1F
100
AcDbEntity
  8
中心線
100
AcDbLine
 10
1955.000399031123
 20
775.0004132727918
 30
0.0
 11
2055.000399031124
 21
775.0004132727918
 31
0.0
  0
LINE
  5
10DE3
330
1F
100
AcDbEntity
  8
実線
100
AcDbLine
 10
1980.000399031123
 20
545.0004132727918
 30
0.0
 11
1980.000399031123
 21
755.0004132727917
 31
0.0
  0
LINE
  5
10DE4
330
1F
100
AcDbEntity
  8
実線
100
AcDbLine
 10
1989.000399031123
 20
545.0004132727918
 30
0.0
 11
1989.000399031123
 21
755.0004132727917
 31
0.0
  0
LINE
  5
10DE5
330
1F
100
AcDbEntity
  8
中心線
100
AcDbLine
 10
2005.000399031124
 20
575.0004132727918
 30
0.0
 11
2005.000399031124
 21
475.0004132727918
 31
0.0
  0
CIRCLE
  5
10DE6
330
1F
100
AcDbEntity
  8
実線
100
AcDbCircle
 10
2005.000399031124
 20
525.0004132727918
 30
0.0
 40
25.0
  0
LINE
  5
10DE7
330
1F
100
AcDbEntity
  8
実線
100
AcDbLine
 10
2025.000399031124
 20
500.0004132727918
 30
0.0
 11
2025.000399031124
 21
509.0004132727917
 31
0.0
  0
LINE
  5
10DE8
330
1F
100
AcDbEntity
  8
実線
100
AcDbLine
 10
1980.000399031123
 20
545.0004132727918
 30
0.0
 11
1989.000399031123
 21
545.0004132727918
 31
0.0
  0
LINE
  5
10DE9
330
1F
100
AcDbEntity
  8
実線
100
AcDbLine
 10
1980.000399031123
 20
755.0004132727917
 30
0.0
 11
1989.000399031123
 21
755.0004132727917
 31
0.0
  0
LINE
  5
10DEA
330
1F
100
AcDbEntity
  8
実線
100
AcDbLine
 10
2235.000399031124
 20
800.0004132727918
 30
0.0
 11
2235.000399031124
 21
791.0004132727918
 31
0.0
  0
LINE
  5
10DEB
330
1F
100
AcDbEntity
  8
中心線
100
AcDbLine
 10
2255.000399031124
 20
825.0004132727918
 30
0.0
 11
2255.000399031124
 21
725.0004132727918
 31
0.0
  0
CIRCLE
  5
10DEC
330
1F
100
AcDbEntity
  8
実線
100
AcDbCircle
 10
2255.000399031124
 20
775.0004132727918
 30
0.0
 40
25.0
  0
LINE
  5
10DED
330
1F
100
AcDbEntity
  8
実線
100
AcDbLine
 10
2290.0
 20
490.0000182446092
 30
0.0
 11
2290.0
 21
810.0000182446091
 31
0.0
  0
LINE
  5
10DEE
330
1F
100
AcDbEntity
  8
実線
100
AcDbLine
 10
2280.000399031123
 20
755.0004132727917
 30
0.0
 11
2280.000399031123
 21
545.0004132727918
 31
0.0
  0
LINE
  5
10DEF
330
1F
100
AcDbEntity
  8
実線
100
AcDbLine
 10
2271.000399031123
 20
755.0004132727917
 30
0.0
 11
2271.000399031123
 21
545.0004132727918
 31
0.0
  0
LINE
  5
10DF0
330
1F
100
AcDbEntity
  8
中心線
100
AcDbLine
 10
2205.000399031124
 20
525.0004132727918
 30
0.0
 11
2305.000399031124
 21
525.0004132727918
 31
0.0
  0
CIRCLE
  5
10DF1
330
1F
100
AcDbEntity
  8
実線
100
AcDbCircle
 10
2255.000399031124
 20
525.0004132727918
 30
0.0
 40
25.0
  0
LINE
  5
10DF2
330
1F
100
AcDbEntity
  8
実線
100
AcDbLine
 10
2235.000399031124
 20
500.0004132727918
 30
0.0
 11
2235.000399031124
 21
509.0004132727917
 31
0.0
  0
LINE
  5
10DF3
330
1F
100
AcDbEntity
  8
中心線
100
AcDbLine
 10
2255.000399031124
 20
575.0004132727918
 30
0.0
 11
2255.000399031124
 21
475.0004132727918
 31
0.0
  0
LINE
  5
10DF4
330
1F
100
AcDbEntity
  8
実線
100
AcDbLine
 10
2280.000399031123
 20
545.0004132727918
 30
0.0
 11
2271.000399031123
 21
545.0004132727918
 31
0.0
  0
LINE
  5
10DF5
330
1F
100
AcDbEntity
  8
中心線
100
AcDbLine
 10
2205.000399031124
 20
775.0004132727918
 30
0.0
 11
2305.000399031124
 21
775.0004132727918
 31
0.0
  0
LINE
  5
10DF6
330
1F
100
AcDbEntity
  8
実線
100
AcDbLine
 10
2280.000399031123
 20
755.0004132727917
 30
0.0
 11
2271.000399031123
 21
755.0004132727917
 31
0.0
  0
LINE
  5
10DF7
330
1F
100
AcDbEntity
  8
破線
100
AcDbLine
 10
929.9999975897954
 20
654.4999999999999
 30
0.0
 11
1209.999997589795
 21
654.4999999999999
 31
0.0
  0
LINE
  5
10DF8
330
1F
100
AcDbEntity
  8
破線
100
AcDbLine
 10
929.9999975897954
 20
645.5
 30
0.0
 11
1209.999997589795
 21
645.5
 31
0.0
  0
LINE
  5
10DF9
330
1F
100
AcDbEntity
  8
破線
100
AcDbLine
 10
929.9999975897954
 20
645.5
 30
0.0
 11
929.9999975897954
 21
654.4999999999999
 31
0.0
  0
LINE
  5
10DFA
330
1F
100
AcDbEntity
  8
破線
100
AcDbLine
 10
1209.999997589795
 20
654.4999999999999
 30
0.0
 11
1209.999997589795
 21
645.5
 31
0.0
  0
LINE
  5
10DFB
330
1F
100
AcDbEntity
  8
破線
100
AcDbLine
 10
1065.499997589795
 20
789.5
 30
0.0
 11
1065.499997589795
 21
654.4999999999999
 31
0.0
  0
LINE
  5
10DFC
330
1F
100
AcDbEntity
  8
破線
100
AcDbLine
 10
1074.499997589795
 20
789.5
 30
0.0
 11
1074.499997589795
 21
654.4999999999999
 31
0.0
  0
LINE
  5
10DFD
330
1F
100
AcDbEntity
  8
破線
100
AcDbLine
 10
1074.499997589795
 20
645.5
 30
0.0
 11
1074.499997589795
 21
510.5
 31
0.0
  0
LINE
  5
10DFE
330
1F
100
AcDbEntity
  8
破線
100
AcDbLine
 10
1065.499997589795
 20
645.5
 30
0.0
 11
1065.499997589795
 21
510.5
 31
0.0
  0
LINE
  5
10DFF
330
1F
100
AcDbEntity
  8
破線
100
AcDbLine
 10
1065.499997589795
 20
789.5
 30
0.0
 11
1074.499997589795
 21
789.5
 31
0.0
  0
LINE
  5
10E00
330
1F
100
AcDbEntity
  8
破線
100
AcDbLine
 10
1065.499997589795
 20
510.5
 30
0.0
 11
1074.499997589795
 21
510.5
 31
0.0
  0
LINE
  5
10E01
330
1F
100
AcDbEntity
  8
破線
100
AcDbLine
 10
1415.999996414961
 20
654.4999999999999
 30
0.0
 11
1447.999996414961
 21
654.4999999999999
 31
0.0
  0
LINE
  5
10E02
330
1F
100
AcDbEntity
  8
破線
100
AcDbLine
 10
1415.999996414961
 20
645.5
 30
0.0
 11
1447.999996414961
 21
645.5
 31
0.0
  0
LINE
  5
10E03
330
1F
100
AcDbEntity
  8
破線
100
AcDbLine
 10
1751.999996414961
 20
654.4999999999999
 30
0.0
 11
1783.999996414961
 21
654.4999999999999
 31
0.0
  0
LINE
  5
10E04
330
1F
100
AcDbEntity
  8
破線
100
AcDbLine
 10
1751.999996414961
 20
645.5
 30
0.0
 11
1783.999996414961
 21
645.5
 31
0.0
  0
LINE
  5
10E05
330
1F
100
AcDbEntity
  8
実線
100
AcDbLine
 10
2134.500399031123
 20
789.5004132727917
 30
0.0
 11
2134.500399031123
 21
654.5004132727918
 31
0.0
  0
LINE
  5
10E06
330
1F
100
AcDbEntity
  8
実線
100
AcDbLine
 10
2125.500399031123
 20
789.5004132727917
 30
0.0
 11
2125.500399031123
 21
654.5004132727918
 31
0.0
  0
LINE
  5
10E07
330
1F
100
AcDbEntity
  8
実線
100
AcDbLine
 10
1990.000399031123
 20
654.5004132727918
 30
0.0
 11
2270.000399031124
 21
654.5004132727918
 31
0.0
  0
LINE
  5
10E08
330
1F
100
AcDbEntity
  8
実線
100
AcDbLine
 10
1990.000399031123
 20
645.5004132727918
 30
0.0
 11
2270.000399031124
 21
645.5004132727918
 31
0.0
  0
LINE
  5
10E09
330
1F
100
AcDbEntity
  8
実線
100
AcDbLine
 10
2134.500399031123
 20
645.5004132727918
 30
0.0
 11
2134.500399031123
 21
510.5004132727917
 31
0.0
  0
LINE
  5
10E0A
330
1F
100
AcDbEntity
  8
実線
100
AcDbLine
 10
2125.500399031123
 20
645.5004132727918
 30
0.0
 11
2125.500399031123
 21
510.5004132727917
 31
0.0
  0
LINE
  5
10E0B
330
1F
100
AcDbEntity
  8
実線
100
AcDbLine
 10
2270.000399031124
 20
654.5004132727918
 30
0.0
 11
2270.000399031124
 21
645.5004132727918
 31
0.0
  0
LINE
  5
10E0C
330
1F
100
AcDbEntity
  8
実線
100
AcDbLine
 10
1990.000399031123
 20
645.5004132727918
 30
0.0
 11
1990.000399031123
 21
654.5004132727918
 31
0.0
  0
LINE
  5
10E0D
330
1F
100
AcDbEntity
  8
実線
100
AcDbLine
 10
2125.500399031123
 20
510.5004132727917
 30
0.0
 11
2134.500399031123
 21
510.5004132727917
 31
0.0
  0
LINE
  5
10E0E
330
1F
100
AcDbEntity
  8
実線
100
AcDbLine
 10
2125.500399031123
 20
789.5004132727917
 30
0.0
 11
2134.500399031123
 21
789.5004132727917
 31
0.0
  0
DIMENSION
  5
10E0F
330
1F
100
AcDbEntity
  8
寸法線
100
AcDbDimension
280
     0
  2
*D1
 10
1230.0
 20
370.0000182446093
 30
0.0
 11
1070.0
 21
370.0000182446093
 31
0.0
 70
   160
 71
     5
 42
320.0
 73
     0
 74
     0
 75
     0
  3
STANDARD
100
AcDbAlignedDimension
 13
910.0
 23
490.0000182446092
 33
0.0
 14
1230.0
 24
490.0000182446092
 34
0.0
100
AcDbRotatedDimension
  0
DIMENSION
  5
10E10
330
1F
100
AcDbEntity
  8
寸法線
100
AcDbDimension
280
     0
  2
*D2
 10
1447.999996414961
 20
370.0
 30
0.0
 11
1431.999996414961
 21
370.0
 31
0.0
 70
   160
 71
     5
 42
32.0
 73
     0
 74
     0
 75
     0
  3
STANDARD
100
AcDbAlignedDimension
 13
1415.999996414961
 23
490.0000182446092
 33
0.0
 14
1447.999996414961
 24
500.0
 34
0.0
100
AcDbRotatedDimension
  0
DIMENSION
  5
10E11
330
1F
100
AcDbEntity
  8
寸法線
100
AcDbDimension
280
     0
  2
*D3
 10
1751.999996414961
 20
370.0
 30
0.0
 11
1599.999996414961
 21
370.0
 31
0.0
 70
   160
 71
     5
 42
304.0
 73
     0
 74
     0
 75
     0
  3
STANDARD
100
AcDbAlignedDimension
 13
1447.999996414961
 23
500.0
 33
0.0
 14
1751.999996414961
 24
500.0
 34
0.0
100
AcDbRotatedDimension
  0
DIMENSION
  5
10E12
330
1F
100
AcDbEntity
  8
寸法線
100
AcDbDimension
280
     0
  2
*D12
 10
1783.999996414961
 20
370.0
 30
0.0
 11
1767.999996414961
 21
370.0
 31
0.0
 70
   160
 71
     5
 42
32.0
 73
     0
 74
     0
 75
     0
  3
STANDARD
100
AcDbAlignedDimension
 13
1751.999996414961
 23
500.0
 33
0.0
 14
1783.999996414961
 24
490.0000182446092
 34
0.0
100
AcDbRotatedDimension
  0
DIMENSION
  5
10E13
330
1F
100
AcDbEntity
  8
寸法線
100
AcDbDimension
280
     0
  2
*D13
 10
1415.999996414961
 20
290.0
 30
0.0
 11
1407.999996414961
 21
290.0
 31
0.0
 70
   160
 71
     5
 42
16.0
 73
     0
 74
     0
 75
     0
  3
STANDARD
100
AcDbAlignedDimension
 13
1399.999996414961
 23
490.0
 33
0.0
 14
1415.999996414961
 24
490.0
 34
0.0
100
AcDbRotatedDimension
1001
ACAD
1000
DSTYLE
1002
{
1070
   279
1070
     0
1002
}
  0
DIMENSION
  5
10E14
330
1F
100
AcDbEntity
  8
寸法線
100
AcDbDimension
280
     0
  2
*D14
 10
1783.999996414961
 20
290.0
 30
0.0
 11
1599.999996414961
 21
290.0
 31
0.0
 70
   160
 71
     5
 42
368.0
 73
     0
 74
     0
 75
     0
  3
STANDARD
100
AcDbAlignedDimension
 13
1415.999996414961
 23
490.0000182446092
 33
0.0
 14
1783.999996414961
 24
490.0
 34
0.0
100
AcDbRotatedDimension
  0
DIMENSION
  5
10E15
330
1F
100
AcDbEntity
  8
寸法線
100
AcDbDimension
280
     0
  2
*D15
 10
1799.999996414961
 20
290.0
 30
0.0
 11
1791.999996414961
 21
290.0
 31
0.0
 70
   160
 71
     5
 42
16.0
 73
     0
 74
     0
 75
     0
  3
STANDARD
100
AcDbAlignedDimension
 13
1783.999996414961
 23
490.0
 33
0.0
 14
1799.999996414961
 24
490.0
 34
0.0
100
AcDbRotatedDimension
1001
ACAD
1000
DSTYLE
1002
{
1070
   279
1070
     0
1002
}
  0
DIMENSION
  5
10E16
330
1F
100
AcDbEntity
  8
寸法線
100
AcDbDimension
280
     0
  2
*D16
 10
1799.999996414961
 20
210.0
 30
0.0
 11
1599.999996414961
 21
210.0
 31
0.0
 70
   160
 71
     5
 42
400.0
 73
     0
 74
     0
 75
     0
  3
STANDARD
100
AcDbAlignedDimension
 13
1399.999996414961
 23
490.0
 33
0.0
 14
1799.999996414961
 24
490.0
 34
0.0
100
AcDbRotatedDimension
  0
LINE
  5
10E18
330
1F
100
AcDbEntity
  8
仮想線
100
AcDbLine
 10
1471.46304866916
 20
440.0
 30
0.0
 11
1471.46304866916
 21
860.0
 31
0.0
  0
TEXT
  5
10E19
330
1F
100
AcDbEntity
  8
寸法線
100
AcDbText
 10
1527.609783854976
 20
437.5
 30
0.0
 40
25.0
  1
Ａ
 11
1527.609783854976
 21
450.0
 31
0.0
100
AcDbText
 73
     2
  0
TEXT
  5
10E1A
330
1F
100
AcDbEntity
  8
寸法線
100
AcDbText
 10
2059.99996801588
 20
296.7288924096792
 30
0.0
 40
25.0
  1
断面Ａ－Ａ
 72
     1
 11
2129.99996801588
 21
296.7288924096792
 31
0.0
100
AcDbText
 73
     1
  0
LINE
  5
10E1B
330
1F
100
AcDbEntity
  8
寸法線
100
AcDbLine
 10
2051.24996801588
 20
290.0000675723422
 30
0.0
 11
2208.74996801588
 21
290.0000675723422
 31
0.0
  0
DIMENSION
  5
10E1C
330
1F
100
AcDbEntity
  8
寸法線
100
AcDbDimension
280
     0
  2
*D17
 10
2005.000399031124
 20
370.0000182446093
 30
0.0
 11
1987.500199515562
 21
370.0000182446093
 31
0.0
 70
   160
 71
     5
 42
35.00039903112338
 73
     0
 74
     0
 75
     0
  3
STANDARD
100
AcDbAlignedDimension
 13
1970.0
 23
490.0000182446092
 33
0.0
 14
2005.000399031124
 24
475.0004132727918
 34
0.0
100
AcDbRotatedDimension
  0
DIMENSION
  5
10E1D
330
1F
100
AcDbEntity
  8
寸法線
100
AcDbDimension
280
     0
  2
*D18
 10
2255.000399031124
 20
370.0000182446093
 30
0.0
 11
2130.000399031124
 21
370.0000182446093
 31
0.0
 70
   160
 71
     5
 42
250.0
 73
     0
 74
     0
 75
     0
  3
STANDARD
100
AcDbAlignedDimension
 13
2005.000399031124
 23
475.0004132727918
 33
0.0
 14
2255.000399031124
 24
475.0004132727918
 34
0.0
100
AcDbRotatedDimension
  0
DIMENSION
  5
10E1E
330
1F
100
AcDbEntity
  8
寸法線
100
AcDbDimension
280
     0
  2
*D19
 10
2290.0
 20
370.0000182446093
 30
0.0
 11
2272.500199515562
 21
370.0000182446093
 31
0.0
 70
   160
 71
     5
 42
34.99960096887662
 73
     0
 74
     0
 75
     0
  3
STANDARD
100
AcDbAlignedDimension
 13
2255.000399031124
 23
475.0004132727918
 33
0.0
 14
2290.0
 24
490.0000182446092
 34
0.0
100
AcDbRotatedDimension
  0
DIMENSION
  5
10E1F
330
1F
100
AcDbEntity
  8
寸法線
100
AcDbDimension
280
     0
  2
*D20
 10
2410.000000000001
 20
775.0004132727922
 30
0.0
 11
2410.0
 21
650.0004132727918
 31
0.0
 70
   160
 71
     5
 42
250.0000000000001
 73
     0
 74
     0
 75
     0
  3
STANDARD
100
AcDbAlignedDimension
 13
2305.000399031124
 23
525.0004132727918
 33
0.0
 14
2305.000399031124
 24
775.0004132727918
 34
0.0
 50
90.0
100
AcDbRotatedDimension
  0
DIMENSION
  5
10E20
330
1F
100
AcDbEntity
  8
寸法線
100
AcDbDimension
280
     0
  2
*D21
 10
2410.000000000001
 20
525.0004132727919
 30
0.0
 11
2410.0
 21
507.5002157586999
 31
0.0
 70
   160
 71
     5
 42
35.00039502818248
 73
     0
 74
     0
 75
     0
  3
STANDARD
100
AcDbAlignedDimension
 13
2290.0
 23
490.0000182446092
 33
0.0
 14
2305.000399031124
 24
525.0004132727918
 34
0.0
 50
90.0
100
AcDbRotatedDimension
  0
DIMENSION
  5
10E21
330
1F
100
AcDbEntity
  8
寸法線
100
AcDbDimension
280
     0
  2
*D22
 10
2410.000000000001
 20
810.0000182446098
 30
0.0
 11
2410.0
 21
792.5002157587002
 31
0.0
 70
   160
 71
     5
 42
34.99960497181758
 73
     0
 74
     0
 75
     0
  3
STANDARD
100
AcDbAlignedDimension
 13
2305.000399031124
 23
775.0004132727918
 33
0.0
 14
2290.0
 24
810.0000182446091
 34
0.0
 50
90.0
100
AcDbRotatedDimension
  0
LINE
  5
10E22
330
1F
100
AcDbEntity
  8
中心線
100
AcDbLine
 10
1069.99996801588
 20
465.0
 30
0.0
 11
1069.99996801588
 21
835.0
 31
0.0
  0
LINE
  5
10E23
330
1F
100
AcDbEntity
  8
中心線
100
AcDbLine
 10
2129.99996801588
 20
465.0000132728019
 30
0.0
 11
2129.99996801588
 21
835.0000132728018
 31
0.0
  0
LINE
  5
10E24
330
1F
100
AcDbEntity
  8
寸法線
100
AcDbLine
 10
1440.0
 20
932.3923747965601
 30
0.0
 11
1760.0
 21
932.3923747965601
 31
0.0
  0
TEXT
  5
10E25
330
1F
100
AcDbEntity
  8
寸法線
100
AcDbText
 10
1448.75
 20
941.1423747965599
 30
0.0
 40
37.5
  1
空洞金具詳細図
 72
     1
 11
1600.0
 21
941.1423747965599
 31
0.0
100
AcDbText
 73
     1
  0
LEADER
  5
10E26
330
1F
100
AcDbEntity
  8
寸法線
100
AcDbLeader
  3
STANDARD
 76
     2
 10
1471.46304866916
 20
450.0
 30
0.0
 10
1518.859783854976
 20
450.0
 30
0.0
1001
ACAD
1000
DSTYLE
1002
{
1070
   147
1040
0.875
1070
    77
1070
     0
1070
    49
1040
0.5
1002
}
  0
DIMENSION
  5
10E27
330
1F
100
AcDbEntity
  8
寸法線
100
AcDbDimension
280
     0
  2
*D23
 10
368.1450621644281
 20
2529.999962780316
 30
0.0
 11
360.1450522578725
 21
2529.999962780316
 31
0.0
 70
   160
 71
     5
 42
16.00001981311107
 73
     0
 74
     0
 75
     0
  3
STANDARD
100
AcDbAlignedDimension
 13
352.145042351317
 23
2364.0
 33
0.0
 14
368.1450621644281
 24
2369.999962780316
 34
0.0
100
AcDbRotatedDimension
  0
DIMENSION
  5
10E28
330
1F
100
AcDbEntity
  8
寸法線
100
AcDbDimension
280
     0
  2
*D24
 10
852.1451308353361
 20
2529.999962780316
 30
0.0
 11
610.1450697118298
 21
2529.999962780316
 31
0.0
 70
   160
 71
     5
 42
484.0000686709081
 73
     0
 74
     0
 75
     0
  3
STANDARD
100
AcDbAlignedDimension
 13
368.1450621644281
 23
2369.999962780316
 33
0.0
 14
852.1451308353361
 24
2379.99998263027
 34
0.0
100
AcDbRotatedDimension
  0
DIMENSION
  5
10E29
330
1F
100
AcDbEntity
  8
寸法線
100
AcDbDimension
280
     0
  2
*D25
 10
232.1450423513173
 20
2069.999962780317
 30
0.0
 11
232.1450423513179
 21
2219.999962780316
 31
0.0
 70
   160
 71
     5
 42
300.0
 73
     0
 74
     0
 75
     0
  3
STANDARD
100
AcDbAlignedDimension
 13
368.1450621644281
 23
2369.999962780316
 33
0.0
 14
368.1450621644281
 24
2069.999962780316
 34
0.0
 50
90.0
100
AcDbRotatedDimension
  0
DIMENSION
  5
10E2A
330
1F
100
AcDbEntity
  8
寸法線
100
AcDbDimension
280
     0
  2
*D26
 10
852.1450622578422
 20
2609.999962780321
 30
0.0
 11
602.1450598052751
 21
2609.999962780321
 31
0.0
 70
   160
  1
<>\XH型鋼（連結部）
 71
     5
 42
500.0000199065253
 73
     0
 74
     0
 75
     0
  3
STANDARD
100
AcDbAlignedDimension
 13
352.145042351317
 23
2364.0
 33
0.0
 14
852.1450622578422
 24
2379.999982630325
 34
0.0
100
AcDbRotatedDimension
  0
DIMENSION
  5
10E2B
330
1F
100
AcDbEntity
  8
寸法線
100
AcDbDimension
280
     0
  2
*D27
 10
1252.145062257842
 20
2529.999962780316
 30
0.0
 11
1052.145110928812
 21
2529.999962780316
 31
0.0
 70
   160
  1
<>\X空洞金具
 71
     5
 42
400.0
 73
     0
 74
     0
 75
     0
  3
STANDARD
100
AcDbAlignedDimension
 13
852.1450622578422
 23
2379.999982630325
 33
0.0
 14
1252.145062257842
 24
2379.999964385694
 34
0.0
100
AcDbRotatedDimension
  0
DIMENSION
  5
10E2C
330
1F
100
AcDbEntity
  8
寸法線
100
AcDbDimension
280
     0
  2
*D28
 10
2952.145042351326
 20
2689.999962780322
 30
0.0
 11
1652.145042351322
 21
2711.252423410243
 31
0.0
 70
    32
  1
スルーサーＢ L=<>
 71
     5
 42
2600.000000000008
 73
     0
 74
     0
 75
     0
  3
STANDARD
100
AcDbAlignedDimension
 13
352.1450423513179
 23
2363.999999999993
 33
0.0
 14
2952.145042351326
 24
2363.999968704425
 34
0.0
100
AcDbRotatedDimension
  0
DIMENSION
  5
10E2D
330
1F
100
AcDbEntity
  8
寸法線
100
AcDbDimension
280
     0
  2
*D29
 10
1252.145062257842
 20
2529.999962780316
 30
0.0
 11
1652.145042351321
 21
2529.999962780316
 31
0.0
 70
    32
  1
<>\XH型鋼（埋設部）
 71
     5
 42
799.9999601869586
 73
     0
 74
     0
 75
     0
  3
STANDARD
100
AcDbAlignedDimension
 13
2052.145022444801
 23
2379.999982630325
 33
0.0
 14
1252.145062257842
 24
2379.999964385694
 34
0.0
 50
180.0
100
AcDbRotatedDimension
  0
DIMENSION
  5
10E2E
330
1F
100
AcDbEntity
  8
寸法線
100
AcDbDimension
280
     0
  2
*D30
 10
2936.145022538215
 20
2529.999962780316
 30
0.0
 11
2944.145032444771
 21
2529.999962780316
 31
0.0
 70
   160
 71
     5
 42
16.00001981311107
 73
     0
 74
     0
 75
     0
  3
STANDARD
100
AcDbAlignedDimension
 13
2952.145042351326
 23
2364.0
 33
0.0
 14
2936.145022538215
 24
2369.999962780316
 34
0.0
 50
180.0
100
AcDbRotatedDimension
  0
DIMENSION
  5
10E2F
330
1F
100
AcDbEntity
  8
寸法線
100
AcDbDimension
280
     0
  2
*D31
 10
2452.144953867307
 20
2529.999962780316
 30
0.0
 11
2694.145014990813
 21
2529.999962780316
 31
0.0
 70
   160
 71
     5
 42
484.0000686709081
 73
     0
 74
     0
 75
     0
  3
STANDARD
100
AcDbAlignedDimension
 13
2936.145022538215
 23
2369.999962780316
 33
0.0
 14
2452.144953867307
 24
2379.99998263027
 34
0.0
 50
180.0
100
AcDbRotatedDimension
  0
DIMENSION
  5
10E30
330
1F
100
AcDbEntity
  8
寸法線
100
AcDbDimension
280
     0
  2
*D32
 10
2452.145022444801
 20
2609.999962780321
 30
0.0
 11
2702.145024897368
 21
2609.999962780321
 31
0.0
 70
   160
  1
<>\XH型鋼（連結部）
 71
     5
 42
500.0000199065253
 73
     0
 74
     0
 75
     0
  3
STANDARD
100
AcDbAlignedDimension
 13
2952.145042351326
 23
2364.0
 33
0.0
 14
2452.145022444801
 24
2379.999982630325
 34
0.0
 50
180.0
100
AcDbRotatedDimension
  0
DIMENSION
  5
10E31
330
1F
100
AcDbEntity
  8
寸法線
100
AcDbDimension
280
     0
  2
*D33
 10
2052.145022444801
 20
2529.999962780316
 30
0.0
 11
2252.144973773831
 21
2529.999962780316
 31
0.0
 70
   160
  1
<>\X空洞金具
 71
     5
 42
400.0
 73
     0
 74
     0
 75
     0
  3
STANDARD
100
AcDbAlignedDimension
 13
2452.145022444801
 23
2379.999982630325
 33
0.0
 14
2052.145022444801
 24
2379.999964385694
 34
0.0
 50
180.0
100
AcDbRotatedDimension
  0
DIMENSION
  5
10E32
330
1F
100
AcDbEntity
  8
寸法線
100
AcDbDimension
280
     0
  2
*D34
 10
2452.145022444801
 20
2609.999962780321
 30
0.0
 11
1652.145042351321
 21
2631.249962780321
 31
0.0
 70
    32
  1
W=<>
 71
     5
 42
1599.999960186958
 73
     0
 74
     0
 75
     0
  3
STANDARD
100
AcDbAlignedDimension
 13
852.1450622578422
 23
2379.999964385695
 33
0.0
 14
2452.145022444801
 24
2379.999982630325
 34
0.0
100
AcDbRotatedDimension
  0
LEADER
  5
10E33
330
1F
100
AcDbEntity
  8
寸法線
100
AcDbLeader
  3
STANDARD
 76
     3
 10
408.3950821643611
 20
1605.666830918191
 30
0.0
 10
491.6343844265302
 20
1749.841531622856
 30
0.0
 10
759.2945613613501
 20
1749.841531622856
 30
0.0
211
-1.0
221
0.0
231
0.0
1001
ACAD
1000
DSTYLE
1002
{
1070
   147
1040
0.875
1070
    77
1070
     0
1002
}
  0
TEXT
  5
10E34
330
1F
100
AcDbEntity
  8
寸法線
100
AcDbText
 10
500.3843844265253
 20
1758.591531622856
 30
0.0
 40
25.0
  1
ｶﾊﾞｰﾌﾟﾚｰﾄ連結用孔
 72
     2
 11
748.7177177598587
 21
1783.591531622856
 31
0.0
100
AcDbText
 73
     3
  0
DIMENSION
  5
10E35
330
1F
100
AcDbEntity
  8
寸法線
100
AcDbDimension
280
     0
  2
*D35
 10
2052.145082117667
 20
1209.999982630339
 30
0.0
 11
2027.145072164404
 21
1209.999982630339
 31
0.0
 70
   160
 71
     5
 42
50.00001990652527
 73
     0
 74
     0
 75
     0
  3
STANDARD
100
AcDbAlignedDimension
 13
2002.145062211142
 23
1409.999982630339
 33
0.0
 14
2052.145082117667
 24
1359.999984235721
 34
0.0
 50
180.0
100
AcDbRotatedDimension
  0
DIMENSION
  5
10E36
330
1F
100
AcDbEntity
  8
寸法線
100
AcDbDimension
280
     0
  2
*D36
 10
2052.145082117667
 20
1129.999962839778
 30
0.0
 11
1652.145062211141
 21
1151.249962839778
 31
0.0
 70
    32
 71
     5
 42
800.0000398130506
 73
     0
 74
     0
 75
     0
  3
STANDARD
100
AcDbAlignedDimension
 13
1252.145042304616
 23
1360.000002480345
 33
0.0
 14
2052.145082117667
 24
1360.000002480345
 34
0.0
100
AcDbRotatedDimension
  0
DIMENSION
  5
10E37
330
1F
100
AcDbEntity
  8
寸法線
100
AcDbDimension
280
     0
  2
*D37
 10
1252.145097119061
 20
1209.999982630339
 30
0.0
 11
1277.145079665101
 21
1209.999982630339
 31
0.0
 70
   160
 71
     5
 42
49.99996509207995
 73
     0
 74
     0
 75
     0
  3
STANDARD
100
AcDbAlignedDimension
 13
1302.145062211141
 23
1409.999982630339
 33
0.0
 14
1252.145097119061
 24
1360.000021552798
 34
0.0
100
AcDbRotatedDimension
  0
DIMENSION
  5
10E38
330
1F
100
AcDbEntity
  8
寸法線
100
AcDbDimension
280
     0
  2
*D38
 10
1777.145082164361
 20
1209.999982630339
 30
0.0
 11
1652.145062257841
 21
1231.25244326026
 31
0.0
 70
    32
 71
     5
 42
250.0000398130396
 73
     0
 74
     0
 75
     0
  3
STANDARD
100
AcDbAlignedDimension
 13
1527.145042351321
 23
1409.999982630339
 33
0.0
 14
1777.145082164361
 24
1409.999982630339
 34
0.0
100
AcDbRotatedDimension
  0
TEXT
  5
10E39
330
1F
100
AcDbEntity
  8
寸法線
100
AcDbText
 10
1527.609783854976
 20
835.8333333333334
 30
0.0
 40
25.0
  1
Ａ
 11
1527.609783854976
 21
848.3333333333334
 31
0.0
100
AcDbText
 73
     2
  0
LEADER
  5
10E3A
330
1F
100
AcDbEntity
  8
寸法線
100
AcDbLeader
  3
STANDARD
 76
     2
 10
1471.46304866916
 20
850.0
 30
0.0
 10
1518.859783854976
 20
850.0
 30
0.0
1001
ACAD
1000
DSTYLE
1002
{
1070
   147
1040
0.875
1070
    77
1070
     0
1070
    49
1040
0.5
1002
}
  0
DIMENSION
  5
10E3B
330
1F
100
AcDbEntity
  8
寸法線
100
AcDbDimension
280
     0
  2
*D39
 10
789.9999360317597
 20
810.0000182446096
 30
0.0
 11
789.9999360317597
 21
650.0000182446092
 31
0.0
 70
   160
 71
     5
 42
320.0000000000001
 73
     0
 74
     0
 75
     0
  3
STANDARD
100
AcDbAlignedDimension
 13
909.9999360317596
 23
490.0000182446092
 33
0.0
 14
909.9999360317596
 24
810.0000182446091
 34
0.0
 50
90.0
100
AcDbRotatedDimension
  0
LEADER
  5
10E3C
330
1F
100
AcDbEntity
  8
寸法線
100
AcDbLeader
  3
STANDARD
 76
     3
 10
1783.395042351318
 20
1605.825318787476
 30
0.0
 10
1866.634344613488
 20
1750.000019492142
 30
0.0
 10
2059.294521548308
 20
1750.000019492142
 30
0.0
211
-1.0
221
0.0
231
0.0
1001
ACAD
1000
DSTYLE
1002
{
1070
   147
1040
0.875
1070
    77
1070
     0
1002
}
  0
TEXT
  5
10E3D
330
1F
100
AcDbEntity
  8
寸法線
100
AcDbText
 10
1875.384344613483
 20
1758.750019492142
 30
0.0
 40
25.0
  1
エア抜き用孔
 72
     2
 11
2048.717677946816
 21
1783.750019492142
 31
0.0
100
AcDbText
 73
     3
  0
LINE
  5
10E3E
330
1F
100
AcDbEntity
  8
中心線
100
AcDbLine
 10
1527.145042351321
 20
1629.999982630339
 30
0.0
 11
1527.145042351321
 21
1560.000019850015
 31
0.0
  0
LINE
  5
10E3F
330
1F
100
AcDbEntity
  8
中心線
100
AcDbLine
 10
1492.145060961159
 20
1595.000001240177
 30
0.0
 11
1562.145023741483
 21
1595.000001240177
 31
0.0
  0
CIRCLE
  5
10E40
330
1F
100
AcDbEntity
  8
実線
100
AcDbCircle
 10
1527.145042351321
 20
1595.000001240177
 30
0.0
 40
12.5
  0
LINE
  5
10E41
330
1F
100
AcDbEntity
  8
中心線
100
AcDbLine
 10
1527.145042351321
 20
1409.999982630339
 30
0.0
 11
1527.145042351321
 21
1479.999945410664
 31
0.0
  0
LINE
  5
10E42
330
1F
100
AcDbEntity
  8
中心線
100
AcDbLine
 10
1492.145060961159
 20
1444.999964020501
 30
0.0
 11
1562.145023741483
 21
1444.999964020501
 31
0.0
  0
CIRCLE
  5
10E43
330
1F
100
AcDbEntity
  8
実線
100
AcDbCircle
 10
1527.145042351321
 20
1444.999964020501
 30
0.0
 40
12.5
  0
LINE
  5
10E44
330
1F
100
AcDbEntity
  8
中心線
100
AcDbLine
 10
1527.145082164363
 20
2379.999999999991
 30
0.0
 11
1527.145082164363
 21
2344.999999999991
 31
0.0
  0
LINE
  5
10E45
330
1F
100
AcDbEntity
  8
中心線
100
AcDbLine
 10
1527.145082164363
 20
2059.99992556064
 30
0.0
 11
1527.145082164363
 21
2094.999925560641
 31
0.0
  0
LINE
  5
10E46
330
1F
100
AcDbEntity
  8
中心線
100
AcDbLine
 10
1777.145082164361
 20
1629.999982630339
 30
0.0
 11
1777.145082164361
 21
1560.000019850015
 31
0.0
  0
LINE
  5
10E47
330
1F
100
AcDbEntity
  8
中心線
100
AcDbLine
 10
1812.145063554523
 20
1595.000001240177
 30
0.0
 11
1742.1451007742
 21
1595.000001240177
 31
0.0
  0
CIRCLE
  5
10E48
330
1F
100
AcDbEntity
  8
実線
100
AcDbCircle
 10
1777.145082164361
 20
1595.000001240177
 30
0.0
 40
12.5
  0
LINE
  5
10E49
330
1F
100
AcDbEntity
  8
中心線
100
AcDbLine
 10
1777.145082164361
 20
1409.999982630339
 30
0.0
 11
1777.145082164361
 21
1479.999945410664
 31
0.0
  0
LINE
  5
10E4A
330
1F
100
AcDbEntity
  8
中心線
100
AcDbLine
 10
1812.145063554523
 20
1444.999964020501
 30
0.0
 11
1742.1451007742
 21
1444.999964020501
 31
0.0
  0
CIRCLE
  5
10E4B
330
1F
100
AcDbEntity
  8
実線
100
AcDbCircle
 10
1777.145082164361
 20
1444.999964020501
 30
0.0
 40
12.5
  0
LINE
  5
10E4C
330
1F
100
AcDbEntity
  8
中心線
100
AcDbLine
 10
1777.145042351319
 20
2379.999999999991
 30
0.0
 11
1777.145042351319
 21
2344.999999999991
 31
0.0
  0
LINE
  5
10E4D
330
1F
100
AcDbEntity
  8
中心線
100
AcDbLine
 10
1777.145042351319
 20
2059.99992556064
 30
0.0
 11
1777.145042351319
 21
2094.999925560641
 31
0.0
  0
DIMENSION
  5
11343
330
1F
100
AcDbEntity
  8
寸法線
100
AcDbDimension
280
     0
  2
*D47
 10
1302.145042351321
 20
1209.999982630339
 30
0.0
 11
1414.645042351321
 21
1231.25244326026
 31
0.0
 70
    32
 71
     5
 42
225.0
 73
     0
 74
     0
 75
     0
  3
STANDARD
100
AcDbAlignedDimension
 13
1527.145042351321
 23
1409.999982630339
 33
0.0
 14
1302.145042351321
 24
1409.999982630339
 34
0.0
 50
180.0
100
AcDbRotatedDimension
  0
DIMENSION
  5
11362
330
1F
100
AcDbEntity
  8
寸法線
100
AcDbDimension
280
     0
  2
*D48
 10
2002.145081977538
 20
1209.999982630339
 30
0.0
 11
1889.645081977538
 21
1231.25244326026
 31
0.0
 70
    32
 71
     5
 42
225.0
 73
     0
 74
     0
 75
     0
  3
STANDARD
100
AcDbAlignedDimension
 13
1777.145081977538
 23
1409.999982630339
 33
0.0
 14
2002.145081977538
 24
1409.999982630339
 34
0.0
 50
0.000000000000007
100
AcDbRotatedDimension
  0
DIMENSION
  5
115B2
330
1F
100
AcDbEntity
  8
寸法線
100
AcDbDimension
280
     0
  2
*D49
 10
1698.999996414961
 20
800.0000000000005
 30
0.0
 11
1698.999996414961
 21
774.9999999999996
 31
0.0
 70
   160
  1
φ50
 71
     5
 42
50.00000000000011
 73
     0
 74
     0
 75
     0
  3
STANDARD
100
AcDbAlignedDimension
 13
1698.999996414961
 23
750.0
 33
0.0
 14
1698.999996414961
 24
800.0
 34
0.0
 50
90.0
100
AcDbRotatedDimension
  0
TEXT
  5
11628
330
1F
100
AcDbEntity
  8
寸法線
100
AcDbText
 10
2744.270327756604
 20
2125.929216451527
 30
0.0
 40
25.0
  1
ｴﾝﾄﾞﾌﾟﾚｰﾄ
 11
2744.270327756604
 21
2125.929216451527
 31
0.0
100
AcDbText
 73
     1
  0
LEADER
  5
11629
330
1F
100
AcDbEntity
  8
寸法線
100
AcDbLeader
  3
STANDARD
 76
     2
 10
2936.145007443406
 20
2119.999922260824
 30
0.0
 10
2741.980268168671
 20
2119.999922260824
 30
0.0
1001
ACAD
1000
DSTYLE
1002
{
1070
   147
1040
0.875
1070
    77
1070
     0
1002
}
  0
VIEWPORT
  5
794
330
78D
100
AcDbEntity
 67
     1
  8
0
100
AcDbViewport
 10
204.0995798351864
 20
142.5892483948869
 30
0.0
 40
568.977112128951
 41
287.8013776780356
 68
     1
 69
     1
 12
204.0995798351864
 22
142.5892483948869
 13
0.0
 23
0.0
 14
10.0
 24
10.0
 15
10.0
 25
10.0
 16
0.0
 26
0.0
 36
1.0
 17
0.0
 27
0.0
 37
0.0
 42
50.0
 43
0.0
 44
0.0
 45
287.8013776780356
 50
0.0
 51
0.0
 72
  1000
 90
    32800
  1

281
     0
 71
     1
 74
     0
110
0.0
120
0.0
130
0.0
111
1.0
121
0.0
131
0.0
112
0.0
122
1.0
132
0.0
 79
     0
146
0.0
170
     0
 61
     5
348
DDAA
292
     1
282
     1
141
0.0
142
0.0
 63
   250
421
  3355443
  0
VIEWPORT
  5
796
330
78D
100
AcDbEntity
 67
     1
  8
Defpoints
100
AcDbViewport
 10
204.099579334259
 20
142.5892481803894
 30
0.0
 40
408.1991586685178
 41
285.1784963607788
 68
     2
 69
     2
 12
2100.207206595808
 22
1486.804522350007
 13
0.0
 23
0.0
 14
10.0
 24
10.0
 15
10.0
 25
10.0
 16
0.0
 26
0.0
 36
1.0
 17
0.0
 27
0.0
 37
0.0
 42
50.0
 43
0.0
 44
0.0
 45
2851.784980677949
 50
0.0
 51
0.0
 72
  1000
 90
    32864
  1

281
     0
 71
     1
 74
     0
110
0.0
120
0.0
130
0.0
111
1.0
121
0.0
131
0.0
112
0.0
122
1.0
132
0.0
 79
     0
146
0.0
170
     0
 61
     5
348
DDAA
292
     1
282
     1
141
0.0
142
0.0
 63
   250
421
  3355443
  0
LINE
  5
9A2
330
78D
100
AcDbEntity
 67
     1
  8
図面枠
100
AcDbLine
 10
0.648639727944545
 20
6.589249999999998
 30
0.0
 11
0.648639727944545
 21
278.58925
 31
0.0
  0
LINE
  5
9A3
330
78D
100
AcDbEntity
 67
     1
  8
図面枠
100
AcDbLine
 10
404.0995999999998
 20
6.589249999999998
 30
0.0
 11
404.0995999999998
 21
278.58925
 31
0.0
  0
LINE
  5
9A4
330
78D
100
AcDbEntity
 67
     1
  8
図面枠
100
AcDbLine
 10
0.648639727944545
 20
278.58925
 30
0.0
 11
404.0995999999998
 21
278.58925
 31
0.0
  0
LINE
  5
9A5
330
78D
100
AcDbEntity
 67
     1
  8
図面枠
100
AcDbLine
 10
0.648639727944545
 20
6.589249999999998
 30
0.0
 11
404.0995999999998
 21
6.589249999999991
 31
0.0
  0
LINE
  5
EEF7
330
78D
100
AcDbEntity
 67
     1
  8
図面枠
100
AcDbLine
 10
289.0996
 20
36.58925
 30
0.0
 11
404.0995999999998
 21
36.58925
 31
0.0
  0
LINE
  5
EEF8
330
78D
100
AcDbEntity
 67
     1
  8
図面枠
100
AcDbLine
 10
289.0996
 20
30.58924999999999
 30
0.0
 11
404.0995999999998
 21
30.58924999999999
 31
0.0
  0
LINE
  5
EEF9
330
78D
100
AcDbEntity
 67
     1
  8
図面枠
100
AcDbLine
 10
289.0996
 20
36.58930000000001
 30
0.0
 11
289.0996
 21
6.589249999999998
 31
0.0
  0
LINE
  5
EEFA
330
78D
100
AcDbEntity
 67
     1
  8
図面枠
100
AcDbLine
 10
289.0996
 20
18.58924999999999
 30
0.0
 11
404.0995999999998
 21
18.58924999999999
 31
0.0
  0
LINE
  5
EEFB
330
78D
100
AcDbEntity
 67
     1
  8
図面枠
100
AcDbLine
 10
352.0996
 20
36.58925
 30
0.0
 11
352.0996
 21
6.589249999999998
 31
0.0
  0
LINE
  5
EEFC
330
78D
100
AcDbEntity
 67
     1
  8
図面枠
100
AcDbLine
 10
304.0996
 20
24.58924999999999
 30
0.0
 11
349.0996
 21
24.58924999999999
 31
0.0
  0
TEXT
  5
EEFD
330
78D
100
AcDbEntity
 67
     1
  8
図面枠
100
AcDbText
 10
289.97465
 20
27.21424999999999
 30
0.0
 40
2.5
  1
名　称
 11
289.97465
 21
29.71424999999999
 31
0.0
100
AcDbText
 73
     3
  0
TEXT
  5
EEFE
330
78D
100
AcDbEntity
 67
     1
  8
図面枠
100
AcDbText
 10
352.97465
 20
27.21424999999999
 30
0.0
 40
2.5
  1
摘　要
 11
352.97465
 21
29.71424999999999
 31
0.0
100
AcDbText
 73
     3
  0
TEXT
  5
EEFF
330
78D
100
AcDbEntity
 67
     1
  8
図面枠
100
AcDbText
 10
352.9746
 20
15.21424999999999
 30
0.0
 40
2.5
  1
型　式
 11
352.9746
 21
17.71424999999999
 31
0.0
100
AcDbText
 73
     3
  0
TEXT
  5
EF00
330
78D
100
AcDbEntity
 67
     1
  8
図面枠
100
AcDbText
 10
313.5162666666667
 20
26.33925
 30
0.0
 40
2.5
  1
スルーサーＢ構造図
 72
     1
 11
326.5996
 21
26.33925
 31
0.0
100
AcDbText
 73
     1
  0
TEXT
  5
EF01
330
78D
100
AcDbEntity
 67
     1
  8
図面枠
100
AcDbText
 10
317.7861157480315
 20
20.33924999999999
 30
0.0
 40
2.5
  1
切り梁H-300
 72
     1
 11
326.5996
 21
22.83924999999999
 31
0.0
100
AcDbText
 73
     3
  0
TEXT
  5
EF02
330
78D
100
AcDbEntity
 67
     1
  8
図面枠
100
AcDbText
 10
366.5162666666667
 20
8.339249999999998
 30
0.0
 40
2.5
  1
Ｈ３０－Ｗ１６０
 72
     1
 11
378.0996
 21
8.339249999999998
 31
0.0
100
AcDbText
 73
     1
  0
TEXT
  5
EF03
330
78D
100
AcDbEntity
 67
     1
  8
図面枠
100
AcDbText
 10
300.0162781896648
 20
10.58922126233958
 30
0.0
 40
4.0
  1
三研テクノクリエイト
 11
300.0162781896648
 21
12.58922126233958
 31
0.0
100
AcDbText
 73
     2
  0
TEXT
  5
EF04
330
78D
100
AcDbEntity
 67
     1
  8
図面枠
100
AcDbText
 10
294.2496115229981
 20
12.83922126233958
 30
0.0
 40
2.0
  1
株式
 72
     2
 11
298.5162781896648
 21
12.83922126233958
 31
0.0
100
AcDbText
 73
     1
  0
TEXT
  5
EF05
330
78D
100
AcDbEntity
 67
     1
  8
図面枠
100
AcDbText
 10
294.2496115229981
 20
10.33922126233958
 30
0.0
 40
2.0
  1
会社
 72
     2
 11
298.5162781896648
 21
12.33922126233958
 31
0.0
100
AcDbText
 73
     3
  0
LINE
  5
EF06
330
78D
100
AcDbEntity
 67
     1
  8
図面枠
100
AcDbLine
 10
227.3699773983349
 20
19.8672485172127
 30
0.0
 11
282.3699773983349
 21
19.8672485172127
 31
0.0
  0
LINE
  5
EF07
330
78D
100
AcDbEntity
 67
     1
  8
図面枠
100
AcDbLine
 10
227.3699773983349
 20
19.8672485172127
 30
0.0
 11
227.3699773983349
 21
10.86724851721269
 31
0.0
  0
LINE
  5
EF09
330
78D
100
AcDbEntity
 67
     1
  8
図面枠
100
AcDbLine
 10
282.3699773983349
 20
19.8672485172127
 30
0.0
 11
282.3699773983349
 21
10.86724851721269
 31
0.0
  0
LINE
  5
EF0A
330
78D
100
AcDbEntity
 67
     1
  8
図面枠
100
AcDbLine
 10
227.3699773983349
 20
10.86724851721269
 30
0.0
 11
282.3699773983349
 21
10.86724851721269
 31
0.0
  0
LINE
  5
EF0B
330
78D
100
AcDbEntity
 67
     1
  8
図面枠
100
AcDbLine
 10
383.0996
 20
36.58930000000002
 30
0.0
 11
383.0996
 21
30.58925000000003
 31
0.0
  0
LINE
  5
EF0C
330
78D
100
AcDbEntity
 67
     1
  8
図面枠
100
AcDbLine
 10
312.0996
 20
36.58925000000003
 30
0.0
 11
312.0996
 21
30.58925000000003
 31
0.0
  0
TEXT
  5
EF0D
330
78D
100
AcDbEntity
 67
     1
  8
図面枠
100
AcDbText
 10
289.9746
 20
32.33925000000004
 30
0.0
 40
2.5
  1
重量
 11
289.9746
 21
32.33925000000004
 31
0.0
100
AcDbText
 73
     1
  0
TEXT
  5
EF0E
330
78D
100
AcDbEntity
 67
     1
  8
図面枠
100
AcDbText
 10
312.9746
 20
32.33930000000002
 30
0.0
 40
2.5
  1
表面仕上げ
 41
0.8
 11
312.9746
 21
32.33930000000002
 31
0.0
100
AcDbText
 73
     1
  0
TEXT
  5
EF0F
330
78D
100
AcDbEntity
 67
     1
  8
図面枠
100
AcDbText
 10
352.9746
 20
32.33925000000004
 30
0.0
 40
2.5
  1
日付
 11
352.9746
 21
32.33925000000004
 31
0.0
100
AcDbText
 73
     1
  0
TEXT
  5
EF10
330
78D
100
AcDbEntity
 67
     1
  8
図面枠
100
AcDbText
 10
383.9746
 20
32.33925000000004
 30
0.0
 40
2.5
  1
尺度
 11
383.9746
 21
32.33925000000004
 31
0.0
100
AcDbText
 73
     1
  0
TEXT
  5
EF11
330
78D
100
AcDbEntity
 67
     1
  8
図面枠
100
AcDbText
 10
300.3079
 20
32.33925000000004
 30
0.0
 40
2.5
  1
306kg
 11
300.3079
 21
32.33925000000004
 31
0.0
100
AcDbText
 73
     1
  0
TEXT
  5
EF12
330
78D
100
AcDbEntity
 67
     1
  8
図面枠
100
AcDbText
 10
328.3079
 20
32.33930000000002
 30
0.0
 40
2.5
  1
鉄筋防錆剤
 41
0.8
 11
328.3079
 21
32.33930000000002
 31
0.0
100
AcDbText
 73
     1
  0
TEXT
  5
EF13
330
78D
100
AcDbEntity
 67
     1
  8
図面枠
100
AcDbText
 10
363.3079
 20
32.33925000000004
 30
0.0
 40
2.5
  1
2024.01.01
 11
363.3079
 21
32.33925000000004
 31
0.0
100
AcDbText
 73
     1
  0
TEXT
  5
EF14
330
78D
100
AcDbEntity
 67
     1
  8
図面枠
100
AcDbText
 10
394.3079
 20
32.33925000000004
 30
0.0
 40
2.5
  1
1/10
 11
394.3079
 21
32.33925000000004
 31
0.0
100
AcDbText
 73
     1
  0
TEXT
  5
EF15
330
78D
100
AcDbEntity
 67
     1
  8
図面枠
100
AcDbText
 10
364.7662666666667
 20
20.86240908820162
 30
0.0
 40
2.5
  1
Ｈ３０－Ｗシリーズ
 72
     1
 11
378.0996
 21
20.86240908820162
 31
0.0
100
AcDbText
 73
     1
  0
TEXT
  5
FDD7
330
78D
100
AcDbEntity
 67
     1
  8
図面枠
100
AcDbText
 10
229.0019716746131
 20
13.16593865156561
 30
0.0
 40
4.0
  1
スクラップ重量　164kg
 72
     1
 11
254.7744590480284
 21
13.16593865156561
 31
0.0
100
AcDbText
  0
ENDSEC
  0
SECTION
  2
OBJECTS
  0
DICTIONARY
  5
C
330
0
100
AcDbDictionary
281
     1
  3
ACAD_CIP_PREVIOUS_PRODUCT_INFO
350
10686
  3
ACAD_COLOR
350
6B
  3
ACAD_DETAILVIEWSTYLE
350
10680
  3
ACAD_GROUP
350
D
  3
ACAD_LAYOUT
350
1A
  3
ACAD_MATERIAL
350
6A
  3
ACAD_MLEADERSTYLE
350
DDC7
  3
ACAD_MLINESTYLE
350
17
  3
ACAD_PLOTSETTINGS
350
19
  3
ACAD_PLOTSTYLENAME
350
E
  3
ACAD_SCALELIST
350
DDB5
  3
ACAD_SECTIONVIEWSTYLE
350
1067E
  3
ACAD_TABLESTYLE
350
7E
  3
ACAD_VISUALSTYLE
350
DDA4
  3
AcadDim
350
89BC
  3
ACDB_RECOMPOSE_DATA
350
1165B
  3
ACDBHEADERROUNDTRIPXREC
350
EF72
  3
AcDbVariableDictionary
350
5E
  3
AcDsDecomposeData
350
11661
  3
AEC_PROPERTY_SET_DEFS
350
DE21
  0
DICTIONARY
  5
DDFD
330
8
100
AcDbDictionary
280
     1
281
     1
  0
DICTIONARY
  5
11D
330
2
100
AcDbDictionary
280
     1
281
     1
  3
ACAD_LAYERFILTERS
360
98AE
  3
ACAD_LAYERSTATES
360
11E
  3
ACLYDICTIONARY
360
98AD
  0
DICTIONARY
  5
DDE3
330
10
100
AcDbDictionary
280
     1
281
     1
  3
ADSK_XREC_LAYER_RECONCILED
360
DDE4
  0
DICTIONARY
  5
DDE7
330
1BF
100
AcDbDictionary
280
     1
281
     1
  3
ADSK_XREC_LAYER_RECONCILED
360
DDE8
  0
DICTIONARY
  5
DDEB
330
1C1
100
AcDbDictionary
280
     1
281
     1
  3
ADSK_XREC_LAYER_RECONCILED
360
DDEC
  0
DICTIONARY
  5
DDED
330
1C2
100
AcDbDictionary
280
     1
281
     1
  3
ADSK_XREC_LAYER_RECONCILED
360
DDEE
  0
DICTIONARY
  5
DDEF
330
1C3
100
AcDbDictionary
280
     1
281
     1
  3
ADSK_XREC_LAYER_RECONCILED
360
DDF0
  0
DICTIONARY
  5
DDF1
330
1C4
100
AcDbDictionary
280
     1
281
     1
  3
ADSK_XREC_LAYER_RECONCILED
360
DDF2
  0
DICTIONARY
  5
DDF3
330
1C5
100
AcDbDictionary
280
     1
281
     1
  3
ADSK_XREC_LAYER_RECONCILED
360
DDF4
  0
DICTIONARY
  5
DDF5
330
82E
100
AcDbDictionary
280
     1
281
     1
  3
ADSK_XREC_LAYER_RECONCILED
360
DDF6
  0
DICTIONARY
  5
5C91
330
1F
100
AcDbDictionary
280
     1
281
     1
  3
ACAD_SORTENTS
360
5C92
  0
DICTIONARY
  5
E4E5
330
C08
100
AcDbDictionary
280
     1
281
     1
  3
ACAD_SORTENTS
360
EF69
  0
XRECORD
  5
10686
102
{ACAD_REACTORS
330
C
102
}
330
C
100
AcDbXrecord
280
     1
300
ACD
300
2023
300

  0
DICTIONARY
  5
6B
102
{ACAD_REACTORS
330
C
102
}
330
C
100
AcDbDictionary
281
     1
  0
DICTIONARY
  5
10680
102
{ACAD_REACTORS
330
C
102
}
330
C
100
AcDbDictionary
281
     1
  3
Metric50
350
10681
  0
DICTIONARY
  5
D
102
{ACAD_REACTORS
330
C
102
}
330
C
100
AcDbDictionary
281
     1
  0
DICTIONARY
  5
1A
102
{ACAD_REACTORS
330
C
102
}
330
C
100
AcDbDictionary
281
     1
  3
Model
350
22
  3
レイアウト1
350
78E
  0
DICTIONARY
  5
6A
102
{ACAD_REACTORS
330
C
102
}
330
C
100
AcDbDictionary
281
     1
  3
ByBlock
350
DD94
  3
ByLayer
350
DD8C
  3
Global
350
DD9C
  0
DICTIONARY
  5
DDC7
102
{ACAD_REACTORS
330
C
102
}
330
C
100
AcDbDictionary
281
     1
  3
Standard
350
DDC8
  0
DICTIONARY
  5
17
102
{ACAD_REACTORS
330
C
102
}
330
C
100
AcDbDictionary
281
     1
  3
Standard
350
18
  0
DICTIONARY
  5
19
102
{ACAD_REACTORS
330
C
102
}
330
C
100
AcDbDictionary
281
     1
  0
ACDBDICTIONARYWDFLT
  5
E
102
{ACAD_REACTORS
330
C
102
}
330
C
100
AcDbDictionary
281
     1
  3
Normal
350
F
100
AcDbDictionaryWithDefault
340
F
  0
DICTIONARY
  5
DDB5
102
{ACAD_REACTORS
330
C
102
}
330
C
100
AcDbDictionary
281
     1
  3
A0
350
DDB6
  3
A1
350
DDB7
  3
A2
350
DDB8
  3
A3
350
DDB9
  3
A4
350
DDBA
  3
A5
350
DDBB
  3
A6
350
DDBC
  3
A7
350
DDBD
  3
A8
350
DDBE
  3
A9
350
DDBF
  3
B0
350
DDC0
  3
B1
350
DDC1
  3
B2
350
DDC2
  3
B3
350
DDC3
  3
B4
350
DDC4
  3
B5
350
DDC5
  3
B6
350
DDC6
  0
DICTIONARY
  5
1067E
102
{ACAD_REACTORS
330
C
102
}
330
C
100
AcDbDictionary
281
     1
  3
Metric50
350
1067F
  0
DICTIONARY
  5
7E
102
{ACAD_REACTORS
330
C
102
}
330
C
100
AcDbDictionary
281
     1
  3
Standard
350
7F
  0
DICTIONARY
  5
DDA4
102
{ACAD_REACTORS
330
C
102
}
330
C
100
AcDbDictionary
281
     1
  3
2dWireframe
350
DDAA
  3
3D Hidden
350
DDAC
  3
3dWireframe
350
DDAB
  3
Basic
350
DDA9
  3
Brighten
350
DDB0
  3
ColorChange
350
DDB4
  3
Conceptual
350
DDAD
  3
Dim
350
DDAF
  3
EdgeColorOff
350
1067D
  3
Facepattern
350
DDB3
  3
Flat
350
DDA5
  3
FlatWithEdges
350
DDA6
  3
Gouraud
350
DDA7
  3
GouraudWithEdges
350
DDA8
  3
Hidden
350
10675
  3
JitterOff
350
1067B
  3
Linepattern
350
DDB2
  3
OverhangOff
350
1067C
  3
Realistic
350
DDAE
  3
Shaded
350
1067A
  3
Shaded with edges
350
10679
  3
Shades of Gray
350
10676
  3
Sketchy
350
10677
  3
Thicken
350
DDB1
  3
Wireframe
350
10674
  3
X-Ray
350
10678
  0
XRECORD
  5
89BC
102
{ACAD_REACTORS
330
C
102
}
330
C
100
AcDbXrecord
280
     1
 90
   990106
  3

 60
     0
 61
     0
 62
     1
 63
     3
 64
     0
 65
     0
 66
     0
 67
     3
 68
     1
 69
     0
 70
     0
 71
     0
 72
     0
 40
0.0
170
     0
  0
XRECORD
  5
1165B
102
{ACAD_REACTORS
330
C
102
}
330
C
100
AcDbXrecord
280
     1
 90
        1
330
7F
  0
DICTIONARY
  5
EF72
102
{ACAD_REACTORS
330
C
102
}
330
C
100
AcDbDictionary
281
     1
  0
DICTIONARY
  5
5E
102
{ACAD_REACTORS
330
C
102
}
330
C
100
AcDbDictionary
281
     1
  3
CANNOSCALE
350
DE0B
  3
CMLEADERSTYLE
350
DE0A
  3
CTABLESTYLE
350
84
  3
CVIEWDETAILSTYLE
350
11568
  3
CVIEWSECTIONSTYLE
350
11569
  3
DIMASSOC
350
5F
  3
HIDETEXT
350
63
  3
INDEXCTL
350
DE0D
  3
LAYEREVAL
350
1156C
  3
LAYERNOTIFY
350
1156D
  3
LIGHTINGUNITS
350
1156B
  3
MSLTSCALE
350
1156A
  3
PROJECTNAME
350
DD50
  3
SORTENTS
350
DE0C
  0
DICTIONARY
  5
11661
102
{ACAD_REACTORS
330
C
102
}
330
C
100
AcDbDictionary
281
     1
  3
AcDsRecords
350
11663
  3
AcDsSchemas
350
11662
1001
ACAD
1070
     2
  0
DICTIONARY
  5
DE21
102
{ACAD_REACTORS
330
C
102
}
330
C
100
AcDbDictionary
281
     1
  0
DICTIONARY
  5
98AE
102
{ACAD_REACTORS
330
11D
102
}
330
11D
100
AcDbDictionary
281
     1
  0
DICTIONARY
  5
11E
102
{ACAD_REACTORS
330
11D
102
}
330
11D
100
AcDbDictionary
281
     1
  0
DICTIONARY
  5
98AD
102
{ACAD_REACTORS
330
11D
102
}
330
11D
100
AcDbDictionary
281
     1
1001
ACAD
1000
<All
  0
XRECORD
  5
DDE4
102
{ACAD_REACTORS
330
DDE3
102
}
330
DDE3
100
AcDbXrecord
280
     1
290
     1
  0
XRECORD
  5
DDE8
102
{ACAD_REACTORS
330
DDE7
102
}
330
DDE7
100
AcDbXrecord
280
     1
290
     1
  0
XRECORD
  5
DDEC
102
{ACAD_REACTORS
330
DDEB
102
}
330
DDEB
100
AcDbXrecord
280
     1
290
     1
  0
XRECORD
  5
DDEE
102
{ACAD_REACTORS
330
DDED
102
}
330
DDED
100
AcDbXrecord
280
     1
290
     1
  0
XRECORD
  5
DDF0
102
{ACAD_REACTORS
330
DDEF
102
}
330
DDEF
100
AcDbXrecord
280
     1
290
     1
  0
XRECORD
  5
DDF2
102
{ACAD_REACTORS
330
DDF1
102
}
330
DDF1
100
AcDbXrecord
280
     1
290
     1
  0
XRECORD
  5
DDF4
102
{ACAD_REACTORS
330
DDF3
102
}
330
DDF3
100
AcDbXrecord
280
     1
290
     1
  0
XRECORD
  5
DDF6
102
{ACAD_REACTORS
330
DDF5
102
}
330
DDF5
100
AcDbXrecord
280
     1
290
     1
  0
SORTENTSTABLE
  5
5C92
102
{ACAD_REACTORS
330
5C91
102
}
330
5C91
100
AcDbSortentsTable
330
1F
  0
SORTENTSTABLE
  5
EF69
102
{ACAD_REACTORS
330
E4E5
102
}
330
E4E5
100
AcDbSortentsTable
330
C08
  0
ACDBDETAILVIEWSTYLE
  5
10681
102
{ACAD_XDICTIONARY
360
11666
102
}
102
{ACAD_REACTORS
330
10680
102
}
330
10680
100
AcDbModelDocViewStyle
 70
     0
  3
Metric50
290
     0
100
AcDbDetailViewStyle
 70
     0
 71
     0
 90
        3
 71
     1
340
11
 62
   256
 40
5.0
340
0
 62
   256
 40
5.0
300

 40
0.0
280
     1
 71
     2
340
16
 90
       25
 62
   256
 71
     3
340
11
 62
   256
 40
5.0
 90
        0
 40
15.0
 90
        1
300
%<\AcVar ViewDetailId>% (%<\AcVar ViewScale \f "%sn">%)
 71
     4
340
16
 90
       25
 62
   256
340
16
 90
       25
 62
   256
280
     0
  0
LAYOUT
  5
22
102
{ACAD_REACTORS
330
1A
102
}
330
1A
100
AcDbPlotSettings
  1

  2
none_device
  4
ISO_A4_(210.00_x_297.00_MM)
  6

 40
7.5
 41
20.0
 42
7.5
 43
20.0
 44
210.0
 45
297.0
 46
11.54999923706054
 47
-13.65000009536743
 48
0.0
 49
0.0
140
0.0
141
0.0
142
1.0
143
8.704084754739808
 70
 11952
 72
     1
 73
     0
 74
     0
  7

 75
     0
147
0.1148885871608098
 76
     0
 77
     2
 78
   300
148
0.0
149
0.0
100
AcDbLayout
  1
Model
 70
     1
 71
     0
 10
0.0
 20
0.0
 11
12.0
 21
9.0
 12
0.0
 22
0.0
 32
0.0
 14
0.0
 24
0.0
 34
0.0
 15
0.0
 25
0.0
 35
0.0
146
0.0
 13
0.0
 23
0.0
 33
0.0
 16
1.0
 26
0.0
 36
0.0
 17
0.0
 27
1.0
 37
0.0
 76
     0
330
1F
331
EF70
1001
ACAD_PSEXT
1000
None
1000
None
1000
Not applicable
1000
The layout will not be plotted unless a new plotter configuration name is selected.
1070
     0
  0
LAYOUT
  5
78E
102
{ACAD_XDICTIONARY
360
79B
102
}
102
{ACAD_REACTORS
330
1A
102
}
330
1A
100
AcDbPlotSettings
  1

  2
RICOH MP C2503 JPN RPCS V2
  4
A3
  6

 40
5.873749732971191
 41
5.873748779296875
 42
5.873748779296875
 43
5.873748779296875
 44
296.9259948730469
 45
419.9466552734374
 46
0.0
 47
0.0
 48
0.0
 49
0.0
140
0.0
141
0.0
142
1.0
143
1.0
 70
   688
 72
     1
 73
     1
 74
     5
  7
monochrome.ctb
 75
    16
147
1.0
 76
     0
 77
     2
 78
   300
148
0.0
149
0.0
100
AcDbLayout
  1
レイアウト1
 70
     1
 71
     1
 10
-5.873748779296875
 20
-5.873749732971191
 11
414.0729064941406
 21
291.0522451400757
 12
0.0
 22
0.0
 32
0.0
 14
0.0000000000000853
 24
0.0
 34
0.0
 15
408.1991586685179
 25
285.1784963607788
 35
0.0
146
0.0
 13
0.0
 23
0.0
 33
0.0
 16
1.0
 26
0.0
 36
0.0
 17
0.0
 27
1.0
 37
0.0
 76
     0
330
78D
331
794
1001
ACAD_PSEXT
1000
RICOH MP C2503 JPN RPCS V2
1000
RICOH MP C2503 JPN RPCS V2
1000
IP_192.168.24.100
1000
RPCS Driver (For Windows)
1070
     0
  0
MATERIAL
  5
DD94
102
{ACAD_XDICTIONARY
360
DD95
102
}
102
{ACAD_REACTORS
330
6A
102
}
330
6A
100
AcDbMaterial
  1
ByBlock
 72
     0
 43
0.0008202099737533
 43
0.0
 43
0.0
 43
0.0
 43
0.0
 43
0.0008202099737533
 43
0.0
 43
0.0
 43
0.0
 43
0.0
 43
1.0
 43
0.0
 43
0.0
 43
0.0
 43
0.0
 43
1.0
 77
     0
 47
0.0008202099737533
 47
0.0
 47
0.0
 47
0.0
 47
0.0
 47
0.0008202099737533
 47
0.0
 47
0.0
 47
0.0
 47
0.0
 47
1.0
 47
0.0
 47
0.0
 47
0.0
 47
0.0
 47
1.0
171
     0
 49
0.0008202099737533
 49
0.0
 49
0.0
 49
0.0
 49
0.0
 49
0.0008202099737533
 49
0.0
 49
0.0
 49
0.0
 49
0.0
 49
1.0
 49
0.0
 49
0.0
 49
0.0
 49
0.0
 49
1.0
175
     0
142
0.0008202099737533
142
0.0
142
0.0
142
0.0
142
0.0
142
0.0008202099737533
142
0.0
142
0.0
142
0.0
142
0.0
142
1.0
142
0.0
142
0.0
142
0.0
142
0.0
142
1.0
179
     0
144
0.0008202099737533
144
0.0
144
0.0
144
0.0
144
0.0
144
0.0008202099737533
144
0.0
144
0.0
144
0.0
144
0.0
144
1.0
144
0.0
144
0.0
144
0.0
144
0.0
144
1.0
147
0.0008202099737533
147
0.0
147
0.0
147
0.0
147
0.0
147
0.0008202099737533
147
0.0
147
0.0
147
0.0
147
0.0
147
1.0
147
0.0
147
0.0
147
0.0
147
0.0
147
1.0
  0
MATERIAL
  5
DD8C
102
{ACAD_XDICTIONARY
360
DD8D
102
}
102
{ACAD_REACTORS
330
6A
102
}
330
6A
100
AcDbMaterial
  1
ByLayer
 72
     0
 43
0.0008202099737533
 43
0.0
 43
0.0
 43
0.0
 43
0.0
 43
0.0008202099737533
 43
0.0
 43
0.0
 43
0.0
 43
0.0
 43
1.0
 43
0.0
 43
0.0
 43
0.0
 43
0.0
 43
1.0
 77
     0
 47
0.0008202099737533
 47
0.0
 47
0.0
 47
0.0
 47
0.0
 47
0.0008202099737533
 47
0.0
 47
0.0
 47
0.0
 47
0.0
 47
1.0
 47
0.0
 47
0.0
 47
0.0
 47
0.0
 47
1.0
171
     0
 49
0.0008202099737533
 49
0.0
 49
0.0
 49
0.0
 49
0.0
 49
0.0008202099737533
 49
0.0
 49
0.0
 49
0.0
 49
0.0
 49
1.0
 49
0.0
 49
0.0
 49
0.0
 49
0.0
 49
1.0
175
     0
142
0.0008202099737533
142
0.0
142
0.0
142
0.0
142
0.0
142
0.0008202099737533
142
0.0
142
0.0
142
0.0
142
0.0
142
1.0
142
0.0
142
0.0
142
0.0
142
0.0
142
1.0
179
     0
144
0.0008202099737533
144
0.0
144
0.0
144
0.0
144
0.0
144
0.0008202099737533
144
0.0
144
0.0
144
0.0
144
0.0
144
1.0
144
0.0
144
0.0
144
0.0
144
0.0
144
1.0
147
0.0008202099737533
147
0.0
147
0.0
147
0.0
147
0.0
147
0.0008202099737533
147
0.0
147
0.0
147
0.0
147
0.0
147
1.0
147
0.0
147
0.0
147
0.0
147
0.0
147
1.0
  0
MATERIAL
  5
DD9C
102
{ACAD_XDICTIONARY
360
DD9D
102
}
102
{ACAD_REACTORS
330
6A
102
}
330
6A
100
AcDbMaterial
  1
Global
 72
     0
 43
0.0008202099737533
 43
0.0
 43
0.0
 43
0.0
 43
0.0
 43
0.0008202099737533
 43
0.0
 43
0.0
 43
0.0
 43
0.0
 43
1.0
 43
0.0
 43
0.0
 43
0.0
 43
0.0
 43
1.0
 77
     0
 47
0.0008202099737533
 47
0.0
 47
0.0
 47
0.0
 47
0.0
 47
0.0008202099737533
 47
0.0
 47
0.0
 47
0.0
 47
0.0
 47
1.0
 47
0.0
 47
0.0
 47
0.0
 47
0.0
 47
1.0
171
     0
 49
0.0008202099737533
 49
0.0
 49
0.0
 49
0.0
 49
0.0
 49
0.0008202099737533
 49
0.0
 49
0.0
 49
0.0
 49
0.0
 49
1.0
 49
0.0
 49
0.0
 49
0.0
 49
0.0
 49
1.0
175
     0
142
0.0008202099737533
142
0.0
142
0.0
142
0.0
142
0.0
142
0.0008202099737533
142
0.0
142
0.0
142
0.0
142
0.0
142
1.0
142
0.0
142
0.0
142
0.0
142
0.0
142
1.0
179
     0
144
0.0008202099737533
144
0.0
144
0.0
144
0.0
144
0.0
144
0.0008202099737533
144
0.0
144
0.0
144
0.0
144
0.0
144
1.0
144
0.0
144
0.0
144
0.0
144
0.0
144
1.0
147
0.0008202099737533
147
0.0
147
0.0
147
0.0
147
0.0
147
0.0008202099737533
147
0.0
147
0.0
147
0.0
147
0.0
147
1.0
147
0.0
147
0.0
147
0.0
147
0.0
147
1.0
  0
MLEADERSTYLE
  5
DDC8
102
{ACAD_REACTORS
330
DDC7
102
}
330
DDC7
100
AcDbMLeaderStyle
179
     2
170
     2
171
     1
172
     0
 90
        2
 40
0.0
 41
0.0
173
     1
 91
-1056964608
340
14
 92
       -2
290
     1
 42
2.0
291
     1
 43
0.36
  3
Standard
 44
4.0
300

342
11
174
     1
178
     6
175
     1
176
     0
 93
-1056964608
 45
4.0
292
     0
297
     0
 46
4.0
 94
-1056964608
 47
1.0
 49
1.0
140
1.0
293
     1
141
0.0
294
     1
177
     0
142
1.0
295
     0
296
     0
143
0.125
271
     0
272
     9
273
     9
298
     0
1001
ACAD
1000
AcRTDxfName
1000
MLEADERSTYLE
1000
AcRTDxfName
1000
MLEADERSTYLE
1000
AcRTDxfName
1000
MLEADERSTYLE
1000
AcRTDxfName
1000
MLEADERSTYLE
  0
MLINESTYLE
  5
18
102
{ACAD_REACTORS
330
17
102
}
330
17
100
AcDbMlineStyle
  2
STANDARD
 70
     0
  3

 62
   256
 51
90.0
 52
90.0
 71
     2
 49
0.5
 62
   256
  6
BYLAYER
 49
-0.5
 62
   256
  6
BYLAYER
  0
ACDBPLACEHOLDER
  5
F
102
{ACAD_REACTORS
330
E
102
}
330
E
  0
SCALE
  5
DDB6
102
{ACAD_REACTORS
330
DDB5
102
}
330
DDB5
100
AcDbScale
 70
     0
300
1:1
140
1.0
141
1.0
290
     1
1001
ACAD
1000
AcRTDxfName
1000
SCALE
1000
AcRTDxfName
1000
SCALE
1000
AcRTDxfName
1000
SCALE
1000
AcRTDxfName
1000
SCALE
  0
SCALE
  5
DDB7
102
{ACAD_REACTORS
330
DDB5
102
}
330
DDB5
100
AcDbScale
 70
     0
300
1:2
140
1.0
141
2.0
290
     0
1001
ACAD
1000
AcRTDxfName
1000
SCALE
1000
AcRTDxfName
1000
SCALE
1000
AcRTDxfName
1000
SCALE
1000
AcRTDxfName
1000
SCALE
  0
SCALE
  5
DDB8
102
{ACAD_REACTORS
330
DDB5
102
}
330
DDB5
100
AcDbScale
 70
     0
300
1:4
140
1.0
141
4.0
290
     0
1001
ACAD
1000
AcRTDxfName
1000
SCALE
1000
AcRTDxfName
1000
SCALE
1000
AcRTDxfName
1000
SCALE
1000
AcRTDxfName
1000
SCALE
  0
SCALE
  5
DDB9
102
{ACAD_REACTORS
330
DDB5
102
}
330
DDB5
100
AcDbScale
 70
     0
300
1:5
140
1.0
141
5.0
290
     0
1001
ACAD
1000
AcRTDxfName
1000
SCALE
1000
AcRTDxfName
1000
SCALE
1000
AcRTDxfName
1000
SCALE
1000
AcRTDxfName
1000
SCALE
  0
SCALE
  5
DDBA
102
{ACAD_REACTORS
330
DDB5
102
}
330
DDB5
100
AcDbScale
 70
     0
300
1:8
140
1.0
141
8.0
290
     0
1001
ACAD
1000
AcRTDxfName
1000
SCALE
1000
AcRTDxfName
1000
SCALE
1000
AcRTDxfName
1000
SCALE
1000
AcRTDxfName
1000
SCALE
  0
SCALE
  5
DDBB
102
{ACAD_REACTORS
330
DDB5
102
}
330
DDB5
100
AcDbScale
 70
     0
300
1:10
140
1.0
141
10.0
290
     0
1001
ACAD
1000
AcRTDxfName
1000
SCALE
1000
AcRTDxfName
1000
SCALE
1000
AcRTDxfName
1000
SCALE
1000
AcRTDxfName
1000
SCALE
  0
SCALE
  5
DDBC
102
{ACAD_REACTORS
330
DDB5
102
}
330
DDB5
100
AcDbScale
 70
     0
300
1:16
140
1.0
141
16.0
290
     0
1001
ACAD
1000
AcRTDxfName
1000
SCALE
1000
AcRTDxfName
1000
SCALE
1000
AcRTDxfName
1000
SCALE
1000
AcRTDxfName
1000
SCALE
  0
SCALE
  5
DDBD
102
{ACAD_REACTORS
330
DDB5
102
}
330
DDB5
100
AcDbScale
 70
     0
300
1:20
140
1.0
141
20.0
290
     0
1001
ACAD
1000
AcRTDxfName
1000
SCALE
1000
AcRTDxfName
1000
SCALE
1000
AcRTDxfName
1000
SCALE
1000
AcRTDxfName
1000
SCALE
  0
SCALE
  5
DDBE
102
{ACAD_REACTORS
330
DDB5
102
}
330
DDB5
100
AcDbScale
 70
     0
300
1:30
140
1.0
141
30.0
290
     0
1001
ACAD
1000
AcRTDxfName
1000
SCALE
1000
AcRTDxfName
1000
SCALE
1000
AcRTDxfName
1000
SCALE
1000
AcRTDxfName
1000
SCALE
  0
SCALE
  5
DDBF
102
{ACAD_REACTORS
330
DDB5
102
}
330
DDB5
100
AcDbScale
 70
     0
300
1:40
140
1.0
141
40.0
290
     0
1001
ACAD
1000
AcRTDxfName
1000
SCALE
1000
AcRTDxfName
1000
SCALE
1000
AcRTDxfName
1000
SCALE
1000
AcRTDxfName
1000
SCALE
  0
SCALE
  5
DDC0
102
{ACAD_REACTORS
330
DDB5
102
}
330
DDB5
100
AcDbScale
 70
     0
300
1:50
140
1.0
141
50.0
290
     0
1001
ACAD
1000
AcRTDxfName
1000
SCALE
1000
AcRTDxfName
1000
SCALE
1000
AcRTDxfName
1000
SCALE
1000
AcRTDxfName
1000
SCALE
  0
SCALE
  5
DDC1
102
{ACAD_REACTORS
330
DDB5
102
}
330
DDB5
100
AcDbScale
 70
     0
300
1:100
140
1.0
141
100.0
290
     0
1001
ACAD
1000
AcRTDxfName
1000
SCALE
1000
AcRTDxfName
1000
SCALE
1000
AcRTDxfName
1000
SCALE
1000
AcRTDxfName
1000
SCALE
  0
SCALE
  5
DDC2
102
{ACAD_REACTORS
330
DDB5
102
}
330
DDB5
100
AcDbScale
 70
     0
300
2:1
140
2.0
141
1.0
290
     0
1001
ACAD
1000
AcRTDxfName
1000
SCALE
1000
AcRTDxfName
1000
SCALE
1000
AcRTDxfName
1000
SCALE
1000
AcRTDxfName
1000
SCALE
  0
SCALE
  5
DDC3
102
{ACAD_REACTORS
330
DDB5
102
}
330
DDB5
100
AcDbScale
 70
     0
300
4:1
140
4.0
141
1.0
290
     0
1001
ACAD
1000
AcRTDxfName
1000
SCALE
1000
AcRTDxfName
1000
SCALE
1000
AcRTDxfName
1000
SCALE
1000
AcRTDxfName
1000
SCALE
  0
SCALE
  5
DDC4
102
{ACAD_REACTORS
330
DDB5
102
}
330
DDB5
100
AcDbScale
 70
     0
300
8:1
140
8.0
141
1.0
290
     0
1001
ACAD
1000
AcRTDxfName
1000
SCALE
1000
AcRTDxfName
1000
SCALE
1000
AcRTDxfName
1000
SCALE
1000
AcRTDxfName
1000
SCALE
  0
SCALE
  5
DDC5
102
{ACAD_REACTORS
330
DDB5
102
}
330
DDB5
100
AcDbScale
 70
     0
300
10:1
140
10.0
141
1.0
290
     0
1001
ACAD
1000
AcRTDxfName
1000
SCALE
1000
AcRTDxfName
1000
SCALE
1000
AcRTDxfName
1000
SCALE
1000
AcRTDxfName
1000
SCALE
  0
SCALE
  5
DDC6
102
{ACAD_REACTORS
330
DDB5
102
}
330
DDB5
100
AcDbScale
 70
     0
300
100:1
140
100.0
141
1.0
290
     0
1001
ACAD
1000
AcRTDxfName
1000
SCALE
1000
AcRTDxfName
1000
SCALE
1000
AcRTDxfName
1000
SCALE
1000
AcRTDxfName
1000
SCALE
  0
ACDBSECTIONVIEWSTYLE
  5
1067F
102
{ACAD_XDICTIONARY
360
11664
102
}
102
{ACAD_REACTORS
330
1067E
102
}
330
1067E
100
AcDbModelDocViewStyle
 70
     0
  3
Metric50
290
     0
100
AcDbSectionViewStyle
 70
     0
 71
     0
 90
      102
 71
     1
340
11
 62
   256
 40
5.0
340
0
340
0
 62
   256
 40
5.0
300
I, O, Q, S, X, Z
 40
10.0
 90
        0
 40
2.5
 90
        0
 71
     2
340
16
 90
       25
 62
   256
340
16
 90
       50
 62
   256
 40
5.0
 40
2.5
 40
5.0
 71
     3
340
11
 62
   256
 40
5.0
 90
        0
 40
15.0
 90
        1
300
%<\AcVar ViewSectionStartId>%-%<\AcVar ViewSectionEndId>% (%<\AcVar ViewScale \f "%sn">%)
 71
     4
 62
   256
 62
   257
300
ANSI31
 40
1.0
 90
        0
290
     0
290
     0
 90
        6
 40
0.0
 40
1.570796326794896
 40
0.2617993877991494
 40
1.308996938995747
 40
-0.2617993877991494
 40
1.832595714594046
  0
TABLESTYLE
  5
7F
102
{ACAD_XDICTIONARY
360
DDF7
102
}
102
{ACAD_REACTORS
330
7E
102
}
330
7E
100
AcDbTableStyle
280
     0
  3
Standard
 70
     0
 71
     0
 40
1.5
 41
1.5
280
     0
281
     0
  7
Standard
140
4.5
170
     2
 62
     0
 63
     7
283
     0
 90
        4
 91
        0
  1

274
    -2
284
     1
 64
     0
275
    -2
285
     1
 65
     0
276
    -2
286
     1
 66
     0
277
    -2
287
     1
 67
     0
278
    -2
288
     1
 68
     0
279
    -2
289
     1
 69
     0
  7
Standard
140
6.0
170
     5
 62
     0
 63
     7
283
     0
 90
        4
 91
        0
  1

274
    -2
284
     1
 64
     0
275
    -2
285
     1
 65
     0
276
    -2
286
     1
 66
     0
277
    -2
287
     1
 67
     0
278
    -2
288
     1
 68
     0
279
    -2
289
     1
 69
     0
  7
Standard
140
4.5
170
     5
 62
     0
 63
     7
283
     0
 90
        4
 91
        0
  1

274
    -2
284
     1
 64
     0
275
    -2
285
     1
 65
     0
276
    -2
286
     1
 66
     0
277
    -2
287
     1
 67
     0
278
    -2
288
     1
 68
     0
279
    -2
289
     1
 69
     0
  0
VISUALSTYLE
  5
DDAA
102
{ACAD_REACTORS
330
DDA4
102
}
330
DDA4
100
AcDbVisualStyle
  2
2dWireframe
 70
     4
177
     3
291
     0
 70
    58
 90
        0
176
     1
 90
        2
176
     1
 90
        0
176
     1
 90
        0
176
     1
 40
0.6
176
     1
 40
30.0
176
     1
 62
     7
176
     1
 90
        1
176
     1
 90
        4
176
     1
 62
     7
176
     1
 62
   257
176
     1
 90
        1
176
     1
 90
        1
176
     1
 40
1.0
176
     1
 90
        0
176
     1
 62
   257
176
     1
 40
1.0
176
     1
 90
        1
176
     1
 90
        6
176
     1
 90
        2
176
     1
 62
     7
176
     1
 90
        5
176
     1
 90
        0
176
     1
 90
        0
176
     1
290
     0
176
     1
 90
        1
176
     1
 40
0.0
176
     1
 90
        0
176
     1
290
     1
176
     1
290
     1
176
     1
290
     0
176
     1
290
     0
176
     1
290
     0
176
     1
290
     0
176
     1
290
     0
176
     1
290
     0
176
     1
290
     0
176
     1
 90
       50
176
     1
 40
0.0
176
     1
 40
1.0
176
     1
 90
        0
176
     1
 62
    18
420
        0
176
     1
 90
       50
176
     1
 90
        3
176
     1
 62
     5
420
      255
176
     1
290
     0
176
     1
 90
       50
176
     1
 90
       50
176
     1
 90
       50
176
     1
290
     0
176
     1
 90
       50
176
     1
 62
   256
176
     0
 40
1.0
176
     0
 90
        2
176
     1
  1
strokes_ogs.tif
176
     1
290
     0
176
     1
 40
1.0
176
     1
 40
1.0
176
     1
1001
ACAD
1000
AcRTDxfName
1000
VISUALSTYLE
1000
AcRTDxfName
1000
VISUALSTYLE
1000
AcRTDxfName
1000
VISUALSTYLE
1000
AcRTDxfName
1000
VISUALSTYLE
1000
AcDbSavedByObjectVersion
1070
     0
  0
VISUALSTYLE
  5
DDAC
102
{ACAD_REACTORS
330
DDA4
102
}
330
DDA4
100
AcDbVisualStyle
  2
3D Hidden
 70
     6
177
     3
291
     0
 70
    58
 90
        1
176
     1
 90
        2
176
     1
 90
        2
176
     1
 90
        0
176
     1
 40
0.6
176
     1
 40
30.0
176
     1
 62
     7
176
     1
 90
        2
176
     1
 90
        2
176
     1
 62
     7
176
     1
 62
   257
176
     1
 90
        2
176
     1
 90
        1
176
     1
 40
40.0
176
     1
 90
        0
176
     1
 62
   257
176
     1
 40
1.0
176
     1
 90
        1
176
     1
 90
        6
176
     1
 90
        2
176
     1
 62
     7
176
     1
 90
        3
176
     1
 90
        0
176
     1
 90
        0
176
     1
290
     0
176
     1
 90
        1
176
     1
 40
0.0
176
     1
 90
        0
176
     1
290
     0
176
     1
290
     1
176
     1
290
     1
176
     1
290
     0
176
     1
290
     0
176
     1
290
     0
176
     1
290
     0
176
     1
290
     0
176
     1
290
     0
176
     1
 90
       50
176
     1
 40
0.0
176
     1
 40
1.0
176
     1
 90
        0
176
     1
 62
    18
420
        0
176
     1
 90
       50
176
     1
 90
        3
176
     1
 62
     5
420
      255
176
     1
290
     0
176
     1
 90
       50
176
     1
 90
       50
176
     1
 90
       50
176
     1
290
     0
176
     1
 90
       50
176
     1
 62
   256
176
     0
 40
1.0
176
     0
 90
        2
176
     1
  1
strokes_ogs.tif
176
     1
290
     0
176
     1
 40
1.0
176
     1
 40
1.0
176
     1
1001
ACAD
1000
AcRTDxfName
1000
VISUALSTYLE
1000
AcRTDxfName
1000
VISUALSTYLE
1000
AcRTDxfName
1000
VISUALSTYLE
1000
AcRTDxfName
1000
VISUALSTYLE
1000
AcDbSavedByObjectVersion
1070
     0
  0
VISUALSTYLE
  5
DDAB
102
{ACAD_REACTORS
330
DDA4
102
}
330
DDA4
100
AcDbVisualStyle
  2
3dWireframe
 70
     5
177
     3
291
     0
 70
    58
 90
        0
176
     1
 90
        2
176
     1
 90
        0
176
     1
 90
        0
176
     1
 40
0.6
176
     1
 40
30.0
176
     1
 62
     7
176
     1
 90
        1
176
     1
 90
        4
176
     1
 62
     7
176
     1
 62
   257
176
     1
 90
        1
176
     1
 90
        1
176
     1
 40
1.0
176
     1
 90
        0
176
     1
 62
   257
176
     1
 40
1.0
176
     1
 90
        1
176
     1
 90
        6
176
     1
 90
        2
176
     1
 62
     7
176
     1
 90
        5
176
     1
 90
        0
176
     1
 90
        0
176
     1
290
     0
176
     1
 90
        1
176
     1
 40
0.0
176
     1
 90
        0
176
     1
290
     0
176
     1
290
     1
176
     1
290
     1
176
     1
290
     0
176
     1
290
     0
176
     1
290
     0
176
     1
290
     0
176
     1
290
     0
176
     1
290
     0
176
     1
 90
       50
176
     1
 40
0.0
176
     1
 40
1.0
176
     1
 90
        0
176
     1
 62
    18
420
        0
176
     1
 90
       50
176
     1
 90
        3
176
     1
 62
     5
420
      255
176
     1
290
     0
176
     1
 90
       50
176
     1
 90
       50
176
     1
 90
       50
176
     1
290
     0
176
     1
 90
       50
176
     1
 62
   256
176
     0
 40
1.0
176
     0
 90
        2
176
     1
  1
strokes_ogs.tif
176
     1
290
     0
176
     1
 40
1.0
176
     1
 40
1.0
176
     1
1001
ACAD
1000
AcRTDxfName
1000
VISUALSTYLE
1000
AcRTDxfName
1000
VISUALSTYLE
1000
AcRTDxfName
1000
VISUALSTYLE
1000
AcRTDxfName
1000
VISUALSTYLE
1000
AcDbSavedByObjectVersion
1070
     0
  0
VISUALSTYLE
  5
DDA9
102
{ACAD_REACTORS
330
DDA4
102
}
330
DDA4
100
AcDbVisualStyle
  2
Basic
 70
     7
177
     3
291
     1
 70
    58
 90
        1
176
     1
 90
        0
176
     1
 90
        1
176
     1
 90
        0
176
     1
 40
0.6
176
     1
 40
30.0
176
     1
 62
     7
176
     1
 90
        0
176
     1
 90
        4
176
     1
 62
     7
176
     1
 62
   257
176
     1
 90
        1
176
     1
 90
        1
176
     1
 40
1.0
176
     1
 90
        8
176
     1
 62
     7
176
     1
 40
1.0
176
     1
 90
        1
176
     1
 90
        6
176
     1
 90
        2
176
     1
 62
     7
176
     1
 90
        5
176
     1
 90
        0
176
     1
 90
        0
176
     1
290
     0
176
     1
 90
        1
176
     1
 40
0.0
176
     1
 90
        0
176
     1
290
     0
176
     1
290
     1
176
     1
290
     1
176
     1
290
     0
176
     1
290
     0
176
     1
290
     0
176
     1
290
     0
176
     1
290
     0
176
     1
290
     0
176
     1
 90
       50
176
     1
 40
0.0
176
     1
 40
1.0
176
     1
 90
        0
176
     1
 62
    18
420
        0
176
     1
 90
       50
176
     1
 90
        3
176
     1
 62
     5
420
      255
176
     1
290
     0
176
     1
 90
       50
176
     1
 90
       50
176
     1
 90
       50
176
     1
290
     0
176
     1
 90
       50
176
     1
 62
   256
176
     0
 40
1.0
176
     0
 90
        2
176
     1
  1
strokes_ogs.tif
176
     1
290
     0
176
     1
 40
1.0
176
     1
 40
1.0
176
     1
1001
ACAD
1000
AcRTDxfName
1000
VISUALSTYLE
1000
AcRTDxfName
1000
VISUALSTYLE
1000
AcRTDxfName
1000
VISUALSTYLE
1000
AcRTDxfName
1000
VISUALSTYLE
1000
AcDbSavedByObjectVersion
1070
     0
  0
VISUALSTYLE
  5
DDB0
102
{ACAD_REACTORS
330
DDA4
102
}
330
DDA4
100
AcDbVisualStyle
  2
Brighten
 70
    12
177
     3
291
     1
 70
    58
 90
        2
176
     1
 90
        2
176
     1
 90
        0
176
     1
 90
        0
176
     1
 40
0.6
176
     1
 40
30.0
176
     1
 62
     7
176
     1
 90
        1
176
     1
 90
        4
176
     1
 62
     7
176
     1
 62
   257
176
     1
 90
        1
176
     1
 90
        1
176
     1
 40
1.0
176
     1
 90
        8
176
     1
 62
     7
176
     1
 40
1.0
176
     1
 90
        1
176
     1
 90
        6
176
     1
 90
        2
176
     1
 62
     7
176
     1
 90
        5
176
     1
 90
        0
176
     1
 90
        0
176
     1
290
     0
176
     1
 90
        1
176
     1
 40
50.0
176
     1
 90
        0
176
     1
290
     0
176
     1
290
     1
176
     1
290
     1
176
     1
290
     0
176
     1
290
     0
176
     1
290
     0
176
     1
290
     0
176
     1
290
     0
176
     1
290
     0
176
     1
 90
       50
176
     1
 40
0.0
176
     1
 40
1.0
176
     1
 90
        0
176
     1
 62
    18
420
        0
176
     1
 90
       50
176
     1
 90
        3
176
     1
 62
     5
420
      255
176
     1
290
     0
176
     1
 90
       50
176
     1
 90
       50
176
     1
 90
       50
176
     1
290
     0
176
     1
 90
       50
176
     1
 62
   256
176
     0
 40
1.0
176
     0
 90
        2
176
     1
  1
strokes_ogs.tif
176
     1
290
     0
176
     1
 40
1.0
176
     1
 40
1.0
176
     1
1001
ACAD
1000
AcRTDxfName
1000
VISUALSTYLE
1000
AcRTDxfName
1000
VISUALSTYLE
1000
AcRTDxfName
1000
VISUALSTYLE
1000
AcRTDxfName
1000
VISUALSTYLE
1000
AcDbSavedByObjectVersion
1070
     0
  0
VISUALSTYLE
  5
DDB4
102
{ACAD_REACTORS
330
DDA4
102
}
330
DDA4
100
AcDbVisualStyle
  2
ColorChange
 70
    16
177
     3
291
     1
 70
    58
 90
        2
176
     1
 90
        2
176
     1
 90
        3
176
     1
 90
        0
176
     1
 40
0.6
176
     1
 40
30.0
176
     1
 62
     8
176
     1
 90
        1
176
     1
 90
        4
176
     1
 62
     7
176
     1
 62
   257
176
     1
 90
        1
176
     1
 90
        1
176
     1
 40
1.0
176
     1
 90
        8
176
     1
 62
     8
176
     1
 40
1.0
176
     1
 90
        1
176
     1
 90
        6
176
     1
 90
        2
176
     1
 62
     7
176
     1
 90
        5
176
     1
 90
        0
176
     1
 90
        0
176
     1
290
     0
176
     1
 90
        1
176
     1
 40
0.0
176
     1
 90
        0
176
     1
290
     0
176
     1
290
     1
176
     1
290
     1
176
     1
290
     0
176
     1
290
     0
176
     1
290
     0
176
     1
290
     0
176
     1
290
     0
176
     1
290
     0
176
     1
 90
       50
176
     1
 40
0.0
176
     1
 40
1.0
176
     1
 90
        0
176
     1
 62
    18
420
        0
176
     1
 90
       50
176
     1
 90
        3
176
     1
 62
     5
420
      255
176
     1
290
     0
176
     1
 90
       50
176
     1
 90
       50
176
     1
 90
       50
176
     1
290
     0
176
     1
 90
       50
176
     1
 62
   256
176
     0
 40
1.0
176
     0
 90
        2
176
     1
  1
strokes_ogs.tif
176
     1
290
     0
176
     1
 40
1.0
176
     1
 40
1.0
176
     1
1001
ACAD
1000
AcRTDxfName
1000
VISUALSTYLE
1000
AcRTDxfName
1000
VISUALSTYLE
1000
AcRTDxfName
1000
VISUALSTYLE
1000
AcRTDxfName
1000
VISUALSTYLE
1000
AcDbSavedByObjectVersion
1070
     0
  0
VISUALSTYLE
  5
DDAD
102
{ACAD_REACTORS
330
DDA4
102
}
330
DDA4
100
AcDbVisualStyle
  2
Conceptual
 70
     9
177
     3
291
     0
 70
    58
 90
        3
176
     1
 90
        2
176
     1
 90
        0
176
     1
 90
        0
176
     1
 40
0.6
176
     1
 40
30.0
176
     1
 62
     7
176
     1
 90
        2
176
     1
 90
        2
176
     1
 62
     7
176
     1
 62
   257
176
     1
 90
        1
176
     1
 90
        1
176
     1
 40
40.0
176
     1
 90
        8
176
     1
 62
     7
176
     1
 40
1.0
176
     1
 90
        1
176
     1
 90
        6
176
     1
 90
        2
176
     1
 62
     7
176
     1
 90
        3
176
     1
 90
        0
176
     1
 90
        0
176
     1
290
     0
176
     1
 90
        1
176
     1
 40
0.0
176
     1
 90
        0
176
     1
290
     0
176
     1
290
     1
176
     1
290
     1
176
     1
290
     0
176
     1
290
     0
176
     1
290
     0
176
     1
290
     0
176
     1
290
     0
176
     1
290
     0
176
     1
 90
       50
176
     1
 40
0.0
176
     1
 40
1.0
176
     1
 90
        0
176
     1
 62
    18
420
        0
176
     1
 90
       50
176
     1
 90
        3
176
     1
 62
     5
420
      255
176
     1
290
     0
176
     1
 90
       50
176
     1
 90
       50
176
     1
 90
       50
176
     1
290
     0
176
     1
 90
       50
176
     1
 62
   256
176
     0
 40
1.0
176
     0
 90
        2
176
     1
  1
strokes_ogs.tif
176
     1
290
     0
176
     1
 40
1.0
176
     1
 40
1.0
176
     1
1001
ACAD
1000
AcRTDxfName
1000
VISUALSTYLE
1000
AcRTDxfName
1000
VISUALSTYLE
1000
AcRTDxfName
1000
VISUALSTYLE
1000
AcRTDxfName
1000
VISUALSTYLE
1000
AcDbSavedByObjectVersion
1070
     0
  0
VISUALSTYLE
  5
DDAF
102
{ACAD_REACTORS
330
DDA4
102
}
330
DDA4
100
AcDbVisualStyle
  2
Dim
 70
    11
177
     3
291
     1
 70
    58
 90
        2
176
     1
 90
        2
176
     1
 90
        0
176
     1
 90
        0
176
     1
 40
0.6
176
     1
 40
30.0
176
     1
 62
     7
176
     1
 90
        1
176
     1
 90
        4
176
     1
 62
     7
176
     1
 62
   257
176
     1
 90
        1
176
     1
 90
        1
176
     1
 40
1.0
176
     1
 90
        8
176
     1
 62
     7
176
     1
 40
1.0
176
     1
 90
        1
176
     1
 90
        6
176
     1
 90
        2
176
     1
 62
     7
176
     1
 90
        5
176
     1
 90
        0
176
     1
 90
        0
176
     1
290
     0
176
     1
 90
        1
176
     1
 40
-50.0
176
     1
 90
        0
176
     1
290
     0
176
     1
290
     1
176
     1
290
     1
176
     1
290
     0
176
     1
290
     0
176
     1
290
     0
176
     1
290
     0
176
     1
290
     0
176
     1
290
     0
176
     1
 90
       50
176
     1
 40
0.0
176
     1
 40
1.0
176
     1
 90
        0
176
     1
 62
    18
420
        0
176
     1
 90
       50
176
     1
 90
        3
176
     1
 62
     5
420
      255
176
     1
290
     0
176
     1
 90
       50
176
     1
 90
       50
176
     1
 90
       50
176
     1
290
     0
176
     1
 90
       50
176
     1
 62
   256
176
     0
 40
1.0
176
     0
 90
        2
176
     1
  1
strokes_ogs.tif
176
     1
290
     0
176
     1
 40
1.0
176
     1
 40
1.0
176
     1
1001
ACAD
1000
AcRTDxfName
1000
VISUALSTYLE
1000
AcRTDxfName
1000
VISUALSTYLE
1000
AcRTDxfName
1000
VISUALSTYLE
1000
AcRTDxfName
1000
VISUALSTYLE
1000
AcDbSavedByObjectVersion
1070
     0
  0
VISUALSTYLE
  5
1067D
102
{ACAD_REACTORS
330
DDA4
102
}
330
DDA4
100
AcDbVisualStyle
  2
EdgeColorOff
 70
    22
177
     3
291
     1
 70
    58
 90
        2
176
     0
 90
        2
176
     0
 90
        0
176
     0
 90
        0
176
     0
 40
0.6
176
     0
 40
30.0
176
     0
 62
     7
420
 16777215
176
     0
 90
        1
176
     0
 90
        4
176
     0
 62
     7
176
     0
 62
   257
176
     0
 90
        1
176
     0
 90
        1
176
     0
 40
1.0
176
     0
 90
        8
176
     2
 62
     7
176
     0
 40
1.0
176
     0
 90
        1
176
     0
 90
        6
176
     0
 90
        2
176
     0
 62
     7
176
     0
 90
        5
176
     0
 90
        0
176
     0
 90
        0
176
     0
290
     0
176
     0
 90
        1
176
     0
 40
0.0
176
     0
 90
        0
176
     0
290
     0
176
     0
290
     1
176
     0
290
     1
176
     0
290
     0
176
     0
290
     0
176
     0
290
     0
176
     0
290
     0
176
     0
290
     0
176
     0
290
     0
176
     0
 90
       50
176
     0
 40
0.0
176
     0
 40
1.0
176
     0
 90
        0
176
     0
 62
    18
420
        0
176
     0
 90
       50
176
     0
 90
        3
176
     0
 62
     5
420
      255
176
     0
290
     0
176
     0
 90
       50
176
     0
 90
       50
176
     0
 90
       50
176
     0
290
     0
176
     0
 90
       50
176
     0
 62
   256
176
     0
 40
1.0
176
     0
 90
        2
176
     0
  1
strokes_ogs.tif
176
     0
290
     0
176
     0
 40
1.0
176
     0
 40
1.0
176
     0
1001
ACAD
1000
AcDbSavedByObjectVersion
1070
     0
  0
VISUALSTYLE
  5
DDB3
102
{ACAD_REACTORS
330
DDA4
102
}
330
DDA4
100
AcDbVisualStyle
  2
Facepattern
 70
    15
177
     3
291
     1
 70
    58
 90
        2
176
     1
 90
        2
176
     1
 90
        0
176
     1
 90
        0
176
     1
 40
0.6
176
     1
 40
30.0
176
     1
 62
     7
176
     1
 90
        1
176
     1
 90
        4
176
     1
 62
     7
176
     1
 62
   257
176
     1
 90
        1
176
     1
 90
        1
176
     1
 40
1.0
176
     1
 90
        8
176
     1
 62
     7
176
     1
 40
1.0
176
     1
 90
        1
176
     1
 90
        6
176
     1
 90
        2
176
     1
 62
     7
176
     1
 90
        5
176
     1
 90
        0
176
     1
 90
        0
176
     1
290
     0
176
     1
 90
        1
176
     1
 40
0.0
176
     1
 90
        0
176
     1
290
     0
176
     1
290
     1
176
     1
290
     1
176
     1
290
     0
176
     1
290
     0
176
     1
290
     0
176
     1
290
     0
176
     1
290
     0
176
     1
290
     0
176
     1
 90
       50
176
     1
 40
0.0
176
     1
 40
1.0
176
     1
 90
        0
176
     1
 62
    18
420
        0
176
     1
 90
       50
176
     1
 90
        3
176
     1
 62
     5
420
      255
176
     1
290
     0
176
     1
 90
       50
176
     1
 90
       50
176
     1
 90
       50
176
     1
290
     0
176
     1
 90
       50
176
     1
 62
   256
176
     0
 40
1.0
176
     0
 90
        2
176
     1
  1
strokes_ogs.tif
176
     1
290
     0
176
     1
 40
1.0
176
     1
 40
1.0
176
     1
1001
ACAD
1000
AcRTDxfName
1000
VISUALSTYLE
1000
AcRTDxfName
1000
VISUALSTYLE
1000
AcRTDxfName
1000
VISUALSTYLE
1000
AcRTDxfName
1000
VISUALSTYLE
1000
AcDbSavedByObjectVersion
1070
     0
  0
VISUALSTYLE
  5
DDA5
102
{ACAD_REACTORS
330
DDA4
102
}
330
DDA4
100
AcDbVisualStyle
  2
Flat
 70
     0
177
     3
291
     1
 70
    58
 90
        2
176
     1
 90
        1
176
     1
 90
        1
176
     1
 90
        2
176
     1
 40
0.6
176
     1
 40
30.0
176
     1
 62
     7
176
     1
 90
        0
176
     1
 90
        4
176
     1
 62
     7
176
     1
 62
   257
176
     1
 90
        1
176
     1
 90
        1
176
     1
 40
1.0
176
     1
 90
        8
176
     1
 62
     7
176
     1
 40
1.0
176
     1
 90
        1
176
     1
 90
        6
176
     1
 90
        2
176
     1
 62
     7
176
     1
 90
        5
176
     1
 90
        0
176
     1
 90
        0
176
     1
290
     0
176
     1
 90
       13
176
     1
 40
0.0
176
     1
 90
        0
176
     1
290
     0
176
     1
290
     1
176
     1
290
     1
176
     1
290
     0
176
     1
290
     0
176
     1
290
     0
176
     1
290
     0
176
     1
290
     0
176
     1
290
     0
176
     1
 90
       50
176
     1
 40
0.0
176
     1
 40
1.0
176
     1
 90
        0
176
     1
 62
    18
420
        0
176
     1
 90
       50
176
     1
 90
        3
176
     1
 62
     5
420
      255
176
     1
290
     0
176
     1
 90
       50
176
     1
 90
       50
176
     1
 90
       50
176
     1
290
     0
176
     1
 90
       50
176
     1
 62
   256
176
     0
 40
1.0
176
     0
 90
        2
176
     1
  1
strokes_ogs.tif
176
     1
290
     0
176
     1
 40
1.0
176
     1
 40
1.0
176
     1
1001
ACAD
1000
AcRTDxfName
1000
VISUALSTYLE
1000
AcRTDxfName
1000
VISUALSTYLE
1000
AcRTDxfName
1000
VISUALSTYLE
1000
AcRTDxfName
1000
VISUALSTYLE
1000
AcDbSavedByObjectVersion
1070
     0
  0
VISUALSTYLE
  5
DDA6
102
{ACAD_REACTORS
330
DDA4
102
}
330
DDA4
100
AcDbVisualStyle
  2
FlatWithEdges
 70
     1
177
     3
291
     1
 70
    58
 90
        2
176
     1
 90
        1
176
     1
 90
        1
176
     1
 90
        2
176
     1
 40
0.6
176
     1
 40
30.0
176
     1
 62
     7
176
     1
 90
        1
176
     1
 90
        4
176
     1
 62
     7
176
     1
 62
   257
176
     1
 90
        1
176
     1
 90
        1
176
     1
 40
1.0
176
     1
 90
        0
176
     1
 62
   257
176
     1
 40
1.0
176
     1
 90
        1
176
     1
 90
        6
176
     1
 90
        2
176
     1
 62
     7
176
     1
 90
        5
176
     1
 90
        0
176
     1
 90
        0
176
     1
290
     0
176
     1
 90
       13
176
     1
 40
0.0
176
     1
 90
        0
176
     1
290
     0
176
     1
290
     1
176
     1
290
     1
176
     1
290
     0
176
     1
290
     0
176
     1
290
     0
176
     1
290
     0
176
     1
290
     0
176
     1
290
     0
176
     1
 90
       50
176
     1
 40
0.0
176
     1
 40
1.0
176
     1
 90
        0
176
     1
 62
    18
420
        0
176
     1
 90
       50
176
     1
 90
        3
176
     1
 62
     5
420
      255
176
     1
290
     0
176
     1
 90
       50
176
     1
 90
       50
176
     1
 90
       50
176
     1
290
     0
176
     1
 90
       50
176
     1
 62
   256
176
     0
 40
1.0
176
     0
 90
        2
176
     1
  1
strokes_ogs.tif
176
     1
290
     0
176
     1
 40
1.0
176
     1
 40
1.0
176
     1
1001
ACAD
1000
AcRTDxfName
1000
VISUALSTYLE
1000
AcRTDxfName
1000
VISUALSTYLE
1000
AcRTDxfName
1000
VISUALSTYLE
1000
AcRTDxfName
1000
VISUALSTYLE
1000
AcDbSavedByObjectVersion
1070
     0
  0
VISUALSTYLE
  5
DDA7
102
{ACAD_REACTORS
330
DDA4
102
}
330
DDA4
100
AcDbVisualStyle
  2
Gouraud
 70
     2
177
     3
291
     1
 70
    58
 90
        2
176
     1
 90
        2
176
     1
 90
        1
176
     1
 90
        2
176
     1
 40
0.6
176
     1
 40
30.0
176
     1
 62
     7
176
     1
 90
        0
176
     1
 90
        4
176
     1
 62
     7
176
     1
 62
   257
176
     1
 90
        1
176
     1
 90
        1
176
     1
 40
1.0
176
     1
 90
        0
176
     1
 62
     7
176
     1
 40
1.0
176
     1
 90
        1
176
     1
 90
        6
176
     1
 90
        2
176
     1
 62
     7
176
     1
 90
        5
176
     1
 90
        0
176
     1
 90
        0
176
     1
290
     0
176
     1
 90
       13
176
     1
 40
0.0
176
     1
 90
        0
176
     1
290
     0
176
     1
290
     1
176
     1
290
     1
176
     1
290
     0
176
     1
290
     0
176
     1
290
     0
176
     1
290
     0
176
     1
290
     0
176
     1
290
     0
176
     1
 90
       50
176
     1
 40
0.0
176
     1
 40
1.0
176
     1
 90
        0
176
     1
 62
    18
420
        0
176
     1
 90
       50
176
     1
 90
        3
176
     1
 62
     5
420
      255
176
     1
290
     0
176
     1
 90
       50
176
     1
 90
       50
176
     1
 90
       50
176
     1
290
     0
176
     1
 90
       50
176
     1
 62
   256
176
     0
 40
1.0
176
     0
 90
        2
176
     1
  1
strokes_ogs.tif
176
     1
290
     0
176
     1
 40
1.0
176
     1
 40
1.0
176
     1
1001
ACAD
1000
AcRTDxfName
1000
VISUALSTYLE
1000
AcRTDxfName
1000
VISUALSTYLE
1000
AcRTDxfName
1000
VISUALSTYLE
1000
AcRTDxfName
1000
VISUALSTYLE
1000
AcDbSavedByObjectVersion
1070
     0
  0
VISUALSTYLE
  5
DDA8
102
{ACAD_REACTORS
330
DDA4
102
}
330
DDA4
100
AcDbVisualStyle
  2
GouraudWithEdges
 70
     3
177
     3
291
     1
 70
    58
 90
        2
176
     1
 90
        2
176
     1
 90
        1
176
     1
 90
        2
176
     1
 40
0.6
176
     1
 40
30.0
176
     1
 62
     7
176
     1
 90
        1
176
     1
 90
        4
176
     1
 62
     7
176
     1
 62
   257
176
     1
 90
        1
176
     1
 90
        1
176
     1
 40
1.0
176
     1
 90
        0
176
     1
 62
   257
176
     1
 40
1.0
176
     1
 90
        1
176
     1
 90
        6
176
     1
 90
        2
176
     1
 62
     7
176
     1
 90
        5
176
     1
 90
        0
176
     1
 90
        0
176
     1
290
     0
176
     1
 90
       13
176
     1
 40
0.0
176
     1
 90
        0
176
     1
290
     0
176
     1
290
     1
176
     1
290
     1
176
     1
290
     0
176
     1
290
     0
176
     1
290
     0
176
     1
290
     0
176
     1
290
     0
176
     1
290
     0
176
     1
 90
       50
176
     1
 40
0.0
176
     1
 40
1.0
176
     1
 90
        0
176
     1
 62
    18
420
        0
176
     1
 90
       50
176
     1
 90
        3
176
     1
 62
     5
420
      255
176
     1
290
     0
176
     1
 90
       50
176
     1
 90
       50
176
     1
 90
       50
176
     1
290
     0
176
     1
 90
       50
176
     1
 62
   256
176
     0
 40
1.0
176
     0
 90
        2
176
     1
  1
strokes_ogs.tif
176
     1
290
     0
176
     1
 40
1.0
176
     1
 40
1.0
176
     1
1001
ACAD
1000
AcRTDxfName
1000
VISUALSTYLE
1000
AcRTDxfName
1000
VISUALSTYLE
1000
AcRTDxfName
1000
VISUALSTYLE
1000
AcRTDxfName
1000
VISUALSTYLE
1000
AcDbSavedByObjectVersion
1070
     0
  0
VISUALSTYLE
  5
10675
102
{ACAD_REACTORS
330
DDA4
102
}
330
DDA4
100
AcDbVisualStyle
  2
Hidden
 70
     6
177
     3
291
     0
 70
    58
 90
        1
176
     1
 90
        2
176
     1
 90
        2
176
     1
 90
        0
176
     1
 40
0.6
176
     1
 40
30.0
176
     1
 62
     7
420
 16777215
176
     1
 90
        2
176
     1
 90
        2
176
     1
 62
     7
176
     1
 62
   257
176
     1
 90
        2
176
     1
 90
        1
176
     1
 40
40.0
176
     1
 90
        0
176
     1
 62
   257
176
     1
 40
1.0
176
     1
 90
        1
176
     1
 90
        6
176
     1
 90
        2
176
     1
 62
     7
176
     1
 90
        3
176
     1
 90
        0
176
     1
 90
        0
176
     1
290
     0
176
     1
 90
        1
176
     1
 40
0.0
176
     1
 90
        0
176
     1
290
     0
176
     1
290
     1
176
     1
290
     1
176
     1
290
     0
176
     1
290
     0
176
     1
290
     0
176
     1
290
     0
176
     1
290
     0
176
     1
290
     0
176
     1
 90
       50
176
     1
 40
0.0
176
     1
 40
1.0
176
     1
 90
        0
176
     1
 62
    18
420
        0
176
     1
 90
       50
176
     1
 90
        3
176
     1
 62
     5
420
      255
176
     1
290
     0
176
     1
 90
       50
176
     1
 90
       50
176
     1
 90
       50
176
     1
290
     0
176
     1
 90
       50
176
     1
 62
   256
176
     0
 40
1.0
176
     0
 90
        2
176
     1
  1
strokes_ogs.tif
176
     1
290
     0
176
     1
 40
1.0
176
     1
 40
1.0
176
     1
1001
ACAD
1000
AcDbSavedByObjectVersion
1070
     0
  0
VISUALSTYLE
  5
1067B
102
{ACAD_REACTORS
330
DDA4
102
}
330
DDA4
100
AcDbVisualStyle
  2
JitterOff
 70
    20
177
     3
291
     1
 70
    58
 90
        2
176
     0
 90
        2
176
     0
 90
        0
176
     0
 90
        0
176
     0
 40
0.6
176
     0
 40
30.0
176
     0
 62
     7
420
 16777215
176
     0
 90
        1
176
     0
 90
        4
176
     0
 62
     7
176
     0
 62
   257
176
     0
 90
        1
176
     0
 90
        1
176
     0
 40
1.0
176
     0
 90
       10
176
     2
 62
     7
176
     0
 40
1.0
176
     0
 90
        1
176
     0
 90
        6
176
     0
 90
        2
176
     0
 62
     7
176
     0
 90
        5
176
     0
 90
        0
176
     0
 90
        0
176
     0
290
     0
176
     0
 90
        1
176
     0
 40
0.0
176
     0
 90
        0
176
     0
290
     0
176
     0
290
     1
176
     0
290
     1
176
     0
290
     0
176
     0
290
     0
176
     0
290
     0
176
     0
290
     0
176
     0
290
     0
176
     0
290
     0
176
     0
 90
       50
176
     0
 40
0.0
176
     0
 40
1.0
176
     0
 90
        0
176
     0
 62
    18
420
        0
176
     0
 90
       50
176
     0
 90
        3
176
     0
 62
     5
420
      255
176
     0
290
     0
176
     0
 90
       50
176
     0
 90
       50
176
     0
 90
       50
176
     0
290
     0
176
     0
 90
       50
176
     0
 62
   256
176
     0
 40
1.0
176
     0
 90
        2
176
     0
  1
strokes_ogs.tif
176
     0
290
     0
176
     0
 40
1.0
176
     0
 40
1.0
176
     0
1001
ACAD
1000
AcDbSavedByObjectVersion
1070
     0
  0
VISUALSTYLE
  5
DDB2
102
{ACAD_REACTORS
330
DDA4
102
}
330
DDA4
100
AcDbVisualStyle
  2
Linepattern
 70
    14
177
     3
291
     1
 70
    58
 90
        2
176
     1
 90
        2
176
     1
 90
        0
176
     1
 90
        0
176
     1
 40
0.6
176
     1
 40
30.0
176
     1
 62
     7
176
     1
 90
        1
176
     1
 90
        4
176
     1
 62
     7
176
     1
 62
   257
176
     1
 90
        7
176
     1
 90
        7
176
     1
 40
1.0
176
     1
 90
        8
176
     1
 62
     7
176
     1
 40
1.0
176
     1
 90
        1
176
     1
 90
        6
176
     1
 90
        2
176
     1
 62
     7
176
     1
 90
        5
176
     1
 90
        0
176
     1
 90
        0
176
     1
290
     0
176
     1
 90
        1
176
     1
 40
0.0
176
     1
 90
        0
176
     1
290
     0
176
     1
290
     1
176
     1
290
     1
176
     1
290
     0
176
     1
290
     0
176
     1
290
     0
176
     1
290
     0
176
     1
290
     0
176
     1
290
     0
176
     1
 90
       50
176
     1
 40
0.0
176
     1
 40
1.0
176
     1
 90
        0
176
     1
 62
    18
420
        0
176
     1
 90
       50
176
     1
 90
        3
176
     1
 62
     5
420
      255
176
     1
290
     0
176
     1
 90
       50
176
     1
 90
       50
176
     1
 90
       50
176
     1
290
     0
176
     1
 90
       50
176
     1
 62
   256
176
     0
 40
1.0
176
     0
 90
        2
176
     1
  1
strokes_ogs.tif
176
     1
290
     0
176
     1
 40
1.0
176
     1
 40
1.0
176
     1
1001
ACAD
1000
AcRTDxfName
1000
VISUALSTYLE
1000
AcRTDxfName
1000
VISUALSTYLE
1000
AcRTDxfName
1000
VISUALSTYLE
1000
AcRTDxfName
1000
VISUALSTYLE
1000
AcDbSavedByObjectVersion
1070
     0
  0
VISUALSTYLE
  5
1067C
102
{ACAD_REACTORS
330
DDA4
102
}
330
DDA4
100
AcDbVisualStyle
  2
OverhangOff
 70
    21
177
     3
291
     1
 70
    58
 90
        2
176
     0
 90
        2
176
     0
 90
        0
176
     0
 90
        0
176
     0
 40
0.6
176
     0
 40
30.0
176
     0
 62
     7
420
 16777215
176
     0
 90
        1
176
     0
 90
        4
176
     0
 62
     7
176
     0
 62
   257
176
     0
 90
        1
176
     0
 90
        1
176
     0
 40
1.0
176
     0
 90
        9
176
     2
 62
     7
176
     0
 40
1.0
176
     0
 90
        1
176
     0
 90
        6
176
     0
 90
        2
176
     0
 62
     7
176
     0
 90
        5
176
     0
 90
        0
176
     0
 90
        0
176
     0
290
     0
176
     0
 90
        1
176
     0
 40
0.0
176
     0
 90
        0
176
     0
290
     0
176
     0
290
     1
176
     0
290
     1
176
     0
290
     0
176
     0
290
     0
176
     0
290
     0
176
     0
290
     0
176
     0
290
     0
176
     0
290
     0
176
     0
 90
       50
176
     0
 40
0.0
176
     0
 40
1.0
176
     0
 90
        0
176
     0
 62
    18
420
        0
176
     0
 90
       50
176
     0
 90
        3
176
     0
 62
     5
420
      255
176
     0
290
     0
176
     0
 90
       50
176
     0
 90
       50
176
     0
 90
       50
176
     0
290
     0
176
     0
 90
       50
176
     0
 62
   256
176
     0
 40
1.0
176
     0
 90
        2
176
     0
  1
strokes_ogs.tif
176
     0
290
     0
176
     0
 40
1.0
176
     0
 40
1.0
176
     0
1001
ACAD
1000
AcDbSavedByObjectVersion
1070
     0
  0
VISUALSTYLE
  5
DDAE
102
{ACAD_REACTORS
330
DDA4
102
}
330
DDA4
100
AcDbVisualStyle
  2
Realistic
 70
     8
177
     3
291
     0
 70
    58
 90
        2
176
     1
 90
        2
176
     1
 90
        0
176
     1
 90
        0
176
     1
 40
0.6
176
     1
 40
30.0
176
     1
 62
     7
176
     1
 90
        1
176
     1
 90
        0
176
     1
 62
     7
176
     1
 62
   257
176
     1
 90
        1
176
     1
 90
        1
176
     1
 40
1.0
176
     1
 90
        8
176
     1
 62
     8
176
     1
 40
1.0
176
     1
 90
        1
176
     1
 90
        6
176
     1
 90
        2
176
     1
 62
     7
176
     1
 90
        5
176
     1
 90
        0
176
     1
 90
        0
176
     1
290
     0
176
     1
 90
       13
176
     1
 40
0.0
176
     1
 90
        0
176
     1
290
     0
176
     1
290
     1
176
     1
290
     1
176
     1
290
     0
176
     1
290
     0
176
     1
290
     0
176
     1
290
     0
176
     1
290
     0
176
     1
290
     0
176
     1
 90
       50
176
     1
 40
0.0
176
     1
 40
1.0
176
     1
 90
        0
176
     1
 62
    18
420
        0
176
     1
 90
       50
176
     1
 90
        3
176
     1
 62
     5
420
      255
176
     1
290
     0
176
     1
 90
       50
176
     1
 90
       50
176
     1
 90
       50
176
     1
290
     0
176
     1
 90
       50
176
     1
 62
   256
176
     0
 40
1.0
176
     0
 90
        2
176
     1
  1
strokes_ogs.tif
176
     1
290
     0
176
     1
 40
1.0
176
     1
 40
1.0
176
     1
1001
ACAD
1000
AcRTDxfName
1000
VISUALSTYLE
1000
AcRTDxfName
1000
VISUALSTYLE
1000
AcRTDxfName
1000
VISUALSTYLE
1000
AcRTDxfName
1000
VISUALSTYLE
1000
AcDbSavedByObjectVersion
1070
     0
  0
VISUALSTYLE
  5
1067A
102
{ACAD_REACTORS
330
DDA4
102
}
330
DDA4
100
AcDbVisualStyle
  2
Shaded
 70
    27
177
     3
291
     0
 70
    58
 90
        2
176
     1
 90
        2
176
     1
 90
        1
176
     1
 90
        2
176
     1
 40
0.6
176
     1
 40
30.0
176
     1
 62
     7
420
 16777215
176
     1
 90
        0
176
     1
 90
        4
176
     1
 62
     7
176
     1
 62
   257
176
     1
 90
        1
176
     1
 90
        1
176
     1
 40
1.0
176
     1
 90
        8
176
     1
 62
   257
176
     1
 40
1.0
176
     1
 90
        1
176
     1
 90
        6
176
     1
 90
        2
176
     1
 62
     8
420
  7895160
176
     1
 90
        3
176
     1
 90
        0
176
     1
 90
        0
176
     1
290
     0
176
     1
 90
        5
176
     1
 40
0.0
176
     1
 90
        0
176
     1
290
     0
176
     1
290
     1
176
     1
290
     1
176
     1
290
     0
176
     1
290
     0
176
     1
290
     0
176
     1
290
     0
176
     1
290
     0
176
     1
290
     0
176
     1
 90
       50
176
     1
 40
0.0
176
     1
 40
1.0
176
     1
 90
        0
176
     1
 62
    18
420
        0
176
     1
 90
       50
176
     1
 90
        3
176
     1
 62
     5
420
      255
176
     1
290
     0
176
     1
 90
       50
176
     1
 90
       50
176
     1
 90
       50
176
     1
290
     0
176
     1
 90
       50
176
     1
 62
   256
176
     0
 40
1.0
176
     0
 90
        2
176
     1
  1
strokes_ogs.tif
176
     1
290
     0
176
     1
 40
1.0
176
     1
 40
1.0
176
     1
1001
ACAD
1000
AcDbSavedByObjectVersion
1070
     0
  0
VISUALSTYLE
  5
10679
102
{ACAD_REACTORS
330
DDA4
102
}
330
DDA4
100
AcDbVisualStyle
  2
Shaded with edges
 70
    26
177
     3
291
     0
 70
    58
 90
        2
176
     1
 90
        2
176
     1
 90
        1
176
     1
 90
        2
176
     1
 40
0.6
176
     1
 40
30.0
176
     1
 62
     7
420
 16777215
176
     1
 90
        1
176
     1
 90
        2
176
     1
 62
     7
176
     1
 62
   257
176
     1
 90
        2
176
     1
 90
        1
176
     1
 40
1.0
176
     1
 90
        8
176
     1
 62
   257
176
     1
 40
1.0
176
     1
 90
        1
176
     1
 90
        6
176
     1
 90
        2
176
     1
 62
     7
176
     1
 90
        3
176
     1
 90
        0
176
     1
 90
        0
176
     1
290
     0
176
     1
 90
        5
176
     1
 40
0.0
176
     1
 90
        0
176
     1
290
     0
176
     1
290
     1
176
     1
290
     1
176
     1
290
     0
176
     1
290
     0
176
     1
290
     0
176
     1
290
     0
176
     1
290
     0
176
     1
290
     0
176
     1
 90
       50
176
     1
 40
0.0
176
     1
 40
1.0
176
     1
 90
        0
176
     1
 62
    18
420
        0
176
     1
 90
       50
176
     1
 90
        3
176
     1
 62
     5
420
      255
176
     1
290
     0
176
     1
 90
       50
176
     1
 90
       50
176
     1
 90
       50
176
     1
290
     0
176
     1
 90
       50
176
     1
 62
   256
176
     0
 40
1.0
176
     0
 90
        2
176
     1
  1
strokes_ogs.tif
176
     1
290
     0
176
     1
 40
1.0
176
     1
 40
1.0
176
     1
1001
ACAD
1000
AcDbSavedByObjectVersion
1070
     0
  0
VISUALSTYLE
  5
10676
102
{ACAD_REACTORS
330
DDA4
102
}
330
DDA4
100
AcDbVisualStyle
  2
Shades of Gray
 70
    23
177
     3
291
     0
 70
    58
 90
        2
176
     1
 90
        2
176
     1
 90
        3
176
     1
 90
        0
176
     1
 40
0.6
176
     1
 40
30.0
176
     1
 62
     7
420
 16777215
176
     1
 90
        2
176
     1
 90
        2
176
     1
 62
     7
176
     1
 62
     7
176
     1
 90
        1
176
     1
 90
        1
176
     1
 40
40.0
176
     1
 90
        8
176
     1
 62
     7
176
     1
 40
1.0
176
     1
 90
        1
176
     1
 90
        6
176
     1
 90
        2
176
     1
 62
     7
176
     1
 90
        3
176
     1
 90
        0
176
     1
 90
        0
176
     1
290
     0
176
     1
 90
        1
176
     1
 40
0.0
176
     1
 90
        0
176
     1
290
     0
176
     1
290
     1
176
     1
290
     1
176
     1
290
     0
176
     1
290
     0
176
     1
290
     0
176
     1
290
     0
176
     1
290
     0
176
     1
290
     0
176
     1
 90
       50
176
     1
 40
0.0
176
     1
 40
1.0
176
     1
 90
        0
176
     1
 62
    18
420
        0
176
     1
 90
       50
176
     1
 90
        3
176
     1
 62
     5
420
      255
176
     1
290
     0
176
     1
 90
       50
176
     1
 90
       50
176
     1
 90
       50
176
     1
290
     0
176
     1
 90
       50
176
     1
 62
   256
176
     0
 40
1.0
176
     0
 90
        2
176
     1
  1
strokes_ogs.tif
176
     1
290
     0
176
     1
 40
1.0
176
     1
 40
1.0
176
     1
1001
ACAD
1000
AcDbSavedByObjectVersion
1070
     0
  0
VISUALSTYLE
  5
10677
102
{ACAD_REACTORS
330
DDA4
102
}
330
DDA4
100
AcDbVisualStyle
  2
Sketchy
 70
    24
177
     3
291
     0
 70
    58
 90
        1
176
     1
 90
        2
176
     1
 90
        2
176
     1
 90
        0
176
     1
 40
0.6
176
     1
 40
30.0
176
     1
 62
     7
420
 16777215
176
     1
 90
        2
176
     1
 90
        2
176
     1
 62
     7
176
     1
 62
     7
176
     1
 90
        1
176
     1
 90
        1
176
     1
 40
40.0
176
     1
 90
       11
176
     1
 62
     7
176
     1
 40
1.0
176
     1
 90
        1
176
     1
 90
        6
176
     1
 90
        2
176
     1
 62
     7
176
     1
 90
        6
176
     1
 90
        0
176
     1
 90
        0
176
     1
290
     0
176
     1
 90
        1
176
     1
 40
0.0
176
     1
 90
        0
176
     1
290
     0
176
     1
290
     1
176
     1
290
     1
176
     1
290
     0
176
     1
290
     0
176
     1
290
     0
176
     1
290
     0
176
     1
290
     0
176
     1
290
     0
176
     1
 90
       50
176
     1
 40
0.0
176
     1
 40
1.0
176
     1
 90
        0
176
     1
 62
    18
420
        0
176
     1
 90
       50
176
     1
 90
        3
176
     1
 62
     5
420
      255
176
     1
290
     0
176
     1
 90
       50
176
     1
 90
       50
176
     1
 90
       50
176
     1
290
     0
176
     1
 90
       50
176
     1
 62
   256
176
     0
 40
1.0
176
     0
 90
        2
176
     1
  1
strokes_ogs.tif
176
     1
290
     0
176
     1
 40
1.0
176
     1
 40
1.0
176
     1
1001
ACAD
1000
AcDbSavedByObjectVersion
1070
     0
  0
VISUALSTYLE
  5
DDB1
102
{ACAD_REACTORS
330
DDA4
102
}
330
DDA4
100
AcDbVisualStyle
  2
Thicken
 70
    13
177
     3
291
     1
 70
    58
 90
        2
176
     1
 90
        2
176
     1
 90
        0
176
     1
 90
        0
176
     1
 40
0.6
176
     1
 40
30.0
176
     1
 62
     7
176
     1
 90
        1
176
     1
 90
        4
176
     1
 62
     7
176
     1
 62
   257
176
     1
 90
        1
176
     1
 90
        1
176
     1
 40
1.0
176
     1
 90
       12
176
     1
 62
     7
176
     1
 40
1.0
176
     1
 90
        1
176
     1
 90
        6
176
     1
 90
        2
176
     1
 62
     7
176
     1
 90
        5
176
     1
 90
        0
176
     1
 90
        0
176
     1
290
     0
176
     1
 90
        1
176
     1
 40
0.0
176
     1
 90
        0
176
     1
290
     0
176
     1
290
     1
176
     1
290
     1
176
     1
290
     0
176
     1
290
     0
176
     1
290
     0
176
     1
290
     0
176
     1
290
     0
176
     1
290
     0
176
     1
 90
       50
176
     1
 40
0.0
176
     1
 40
1.0
176
     1
 90
        0
176
     1
 62
    18
420
        0
176
     1
 90
       50
176
     1
 90
        3
176
     1
 62
     5
420
      255
176
     1
290
     0
176
     1
 90
       50
176
     1
 90
       50
176
     1
 90
       50
176
     1
290
     0
176
     1
 90
       50
176
     1
 62
   256
176
     0
 40
1.0
176
     0
 90
        2
176
     1
  1
strokes_ogs.tif
176
     1
290
     0
176
     1
 40
1.0
176
     1
 40
1.0
176
     1
1001
ACAD
1000
AcRTDxfName
1000
VISUALSTYLE
1000
AcRTDxfName
1000
VISUALSTYLE
1000
AcRTDxfName
1000
VISUALSTYLE
1000
AcRTDxfName
1000
VISUALSTYLE
1000
AcDbSavedByObjectVersion
1070
     0
  0
VISUALSTYLE
  5
10674
102
{ACAD_REACTORS
330
DDA4
102
}
330
DDA4
100
AcDbVisualStyle
  2
Wireframe
 70
     5
177
     3
291
     0
 70
    58
 90
        0
176
     1
 90
        2
176
     1
 90
        0
176
     1
 90
        0
176
     1
 40
0.6
176
     1
 40
30.0
176
     1
 62
     7
420
 16777215
176
     1
 90
        1
176
     1
 90
        4
176
     1
 62
     7
176
     1
 62
   257
176
     1
 90
        1
176
     1
 90
        1
176
     1
 40
1.0
176
     1
 90
        0
176
     1
 62
   257
176
     1
 40
1.0
176
     1
 90
        1
176
     1
 90
        6
176
     1
 90
        2
176
     1
 62
     7
176
     1
 90
        3
176
     1
 90
        0
176
     1
 90
        0
176
     1
290
     0
176
     1
 90
        1
176
     1
 40
0.0
176
     1
 90
        0
176
     1
290
     0
176
     1
290
     1
176
     1
290
     1
176
     1
290
     0
176
     1
290
     0
176
     1
290
     0
176
     1
290
     0
176
     1
290
     0
176
     1
290
     0
176
     1
 90
       50
176
     1
 40
0.0
176
     1
 40
1.0
176
     1
 90
        0
176
     1
 62
    18
420
        0
176
     1
 90
       50
176
     1
 90
        3
176
     1
 62
     5
420
      255
176
     1
290
     0
176
     1
 90
       50
176
     1
 90
       50
176
     1
 90
       50
176
     1
290
     0
176
     1
 90
       50
176
     1
 62
   256
176
     0
 40
1.0
176
     0
 90
        2
176
     1
  1
strokes_ogs.tif
176
     1
290
     0
176
     1
 40
1.0
176
     1
 40
1.0
176
     1
1001
ACAD
1000
AcDbSavedByObjectVersion
1070
     0
  0
VISUALSTYLE
  5
10678
102
{ACAD_REACTORS
330
DDA4
102
}
330
DDA4
100
AcDbVisualStyle
  2
X-Ray
 70
    25
177
     3
291
     0
 70
    58
 90
        2
176
     1
 90
        2
176
     1
 90
        1
176
     1
 90
        1
176
     1
 40
0.5
176
     1
 40
30.0
176
     1
 62
     7
420
 16777215
176
     1
 90
        1
176
     1
 90
        0
176
     1
 62
     7
176
     1
 62
   257
176
     1
 90
        1
176
     1
 90
        1
176
     1
 40
1.0
176
     1
 90
        8
176
     1
 62
     7
176
     1
 40
1.0
176
     1
 90
        1
176
     1
 90
        6
176
     1
 90
        2
176
     1
 62
     7
176
     1
 90
        3
176
     1
 90
        0
176
     1
 90
        0
176
     1
290
     0
176
     1
 90
       13
176
     1
 40
0.0
176
     1
 90
        0
176
     1
290
     0
176
     1
290
     1
176
     1
290
     1
176
     1
290
     0
176
     1
290
     0
176
     1
290
     0
176
     1
290
     0
176
     1
290
     0
176
     1
290
     0
176
     1
 90
       50
176
     1
 40
0.0
176
     1
 40
1.0
176
     1
 90
        0
176
     1
 62
    18
420
        0
176
     1
 90
       50
176
     1
 90
        3
176
     1
 62
     5
420
      255
176
     1
290
     0
176
     1
 90
       50
176
     1
 90
       50
176
     1
 90
       50
176
     1
290
     0
176
     1
 90
       50
176
     1
 62
   256
176
     0
 40
1.0
176
     0
 90
        2
176
     1
  1
strokes_ogs.tif
176
     1
290
     0
176
     1
 40
1.0
176
     1
 40
1.0
176
     1
1001
ACAD
1000
AcDbSavedByObjectVersion
1070
     0
  0
DICTIONARYVAR
  5
DE0B
102
{ACAD_REACTORS
330
5E
102
}
330
5E
100
DictionaryVariables
280
     0
  1
1:1
  0
DICTIONARYVAR
  5
DE0A
102
{ACAD_REACTORS
330
5E
102
}
330
5E
100
DictionaryVariables
280
     0
  1
STANDARD
  0
DICTIONARYVAR
  5
84
102
{ACAD_REACTORS
330
5E
102
}
330
5E
100
DictionaryVariables
280
     0
  1
STANDARD
  0
DICTIONARYVAR
  5
11568
102
{ACAD_REACTORS
330
5E
102
}
330
5E
100
DictionaryVariables
280
     0
  1
Metric50
  0
DICTIONARYVAR
  5
11569
102
{ACAD_REACTORS
330
5E
102
}
330
5E
100
DictionaryVariables
280
     0
  1
Metric50
  0
DICTIONARYVAR
  5
5F
102
{ACAD_REACTORS
330
5E
102
}
330
5E
100
DictionaryVariables
280
     0
  1
2
  0
DICTIONARYVAR
  5
63
102
{ACAD_REACTORS
330
5E
102
}
330
5E
100
DictionaryVariables
280
     0
  1
1
  0
DICTIONARYVAR
  5
DE0D
102
{ACAD_REACTORS
330
5E
102
}
330
5E
100
DictionaryVariables
280
     0
  1
0
  0
DICTIONARYVAR
  5
1156C
102
{ACAD_REACTORS
330
5E
102
}
330
5E
100
DictionaryVariables
280
     0
  1
1
  0
DICTIONARYVAR
  5
1156D
102
{ACAD_REACTORS
330
5E
102
}
330
5E
100
DictionaryVariables
280
     0
  1
15
  0
DICTIONARYVAR
  5
1156B
102
{ACAD_REACTORS
330
5E
102
}
330
5E
100
DictionaryVariables
280
     0
  1
0
  0
DICTIONARYVAR
  5
1156A
102
{ACAD_REACTORS
330
5E
102
}
330
5E
100
DictionaryVariables
280
     0
  1
0
  0
DICTIONARYVAR
  5
DD50
102
{ACAD_REACTORS
330
5E
102
}
330
5E
100
DictionaryVariables
280
     0
  1

  0
DICTIONARYVAR
  5
DE0C
102
{ACAD_REACTORS
330
5E
102
}
330
5E
100
DictionaryVariables
280
     0
  1
127
  0
DICTIONARY
  5
11663
102
{ACAD_REACTORS
330
11661
102
}
330
11661
100
AcDbDictionary
281
     1
  0
DICTIONARY
  5
11662
102
{ACAD_REACTORS
330
11661
102
}
330
11661
100
AcDbDictionary
281
     1
  3
2505980104768
350
1165C
  3
2505980104784
350
1165D
  3
2505980104800
350
1165E
  3
2505980104816
350
1165F
  3
2505980104832
350
11660
  0
DICTIONARY
  5
11666
330
10681
100
AcDbDictionary
280
     1
281
     1
  3
ACAD_XREC_ROUNDTRIP
360
11667
  0
DICTIONARY
  5
79B
330
78E
100
AcDbDictionary
280
     1
281
     1
  0
DICTIONARY
  5
DD95
330
DD94
100
AcDbDictionary
280
     1
281
     1
  3
BUMPTILE
360
DD97
  3
DIFFUSETILE
360
DD96
  3
OPACITYTILE
360
DD9A
  3
REFLECTIONTILE
360
DD99
  3
REFRACTIONTILE
360
DD9B
  3
SPECULARTILE
360
DD98
  0
DICTIONARY
  5
DD8D
330
DD8C
100
AcDbDictionary
280
     1
281
     1
  3
BUMPTILE
360
DD8F
  3
DIFFUSETILE
360
DD8E
  3
OPACITYTILE
360
DD92
  3
REFLECTIONTILE
360
DD91
  3
REFRACTIONTILE
360
DD93
  3
SPECULARTILE
360
DD90
  0
DICTIONARY
  5
DD9D
330
DD9C
100
AcDbDictionary
280
     1
281
     1
  3
BUMPTILE
360
DD9F
  3
DIFFUSETILE
360
DD9E
  3
OPACITYTILE
360
DDA2
  3
REFLECTIONTILE
360
DDA1
  3
REFRACTIONTILE
360
DDA3
  3
SPECULARTILE
360
DDA0
  0
DICTIONARY
  5
11664
330
1067F
100
AcDbDictionary
280
     1
281
     1
  3
ACAD_XREC_ROUNDTRIP
360
11665
  0
DICTIONARY
  5
DDF7
330
7F
100
AcDbDictionary
280
     1
281
     1
  3
ACAD_ROUNDTRIP_2008_TABLESTYLE_CELLSTYLEMAP
360
1165A
  0
XRECORD
  5
1165C
102
{ACAD_REACTORS
330
11662
102
}
330
11662
100
AcDbXrecord
280
     1
  1
AcDb_Thumbnail_Schema
102
{ATTRRECORD
341
1165D
  2
AcDbDs::TreatedAsObjectData
280
     1
291
     1
102
ATTRRECORD}
102
{ATTRRECORD
341
1165E
  2
AcDbDs::Legacy
280
     1
291
     1
102
ATTRRECORD}
  2
AcDbDs::ID
280
    10
 91
        8
102
{ATTRRECORD
341
1165F
  2
AcDs:Indexable
280
     1
291
     1
102
ATTRRECORD}
102
{ATTRRECORD
341
11660
  2
AcDbDs::HandleAttribute
280
     7
282
     1
102
ATTRRECORD}
  2
Thumbnail_Data
280
    15
 91
        0
  0
XRECORD
  5
1165D
102
{ACAD_REACTORS
330
11662
102
}
330
11662
100
AcDbXrecord
280
     1
  1
AcDbDs::TreatedAsObjectDataSchema
  2
AcDbDs::TreatedAsObjectData
280
     1
 91
        0
  0
XRECORD
  5
1165E
102
{ACAD_REACTORS
330
11662
102
}
330
11662
100
AcDbXrecord
280
     1
  1
AcDbDs::LegacySchema
  2
AcDbDs::Legacy
280
     1
 91
        0
  0
XRECORD
  5
1165F
102
{ACAD_REACTORS
330
11662
102
}
330
11662
100
AcDbXrecord
280
     1
  1
AcDbDs::IndexedPropertySchema
  2
AcDs:Indexable
280
     1
 91
        0
  0
XRECORD
  5
11660
102
{ACAD_REACTORS
330
11662
102
}
330
11662
100
AcDbXrecord
280
     1
  1
AcDbDs::HandleAttributeSchema
  2
AcDbDs::HandleAttribute
280
     7
 91
        1
284
     1
  0
XRECORD
  5
11667
102
{ACAD_REACTORS
330
11666
102
}
330
11666
100
AcDbXrecord
280
     1
102
DISPLAYNAME
  1
Metric50
102
FLAGS
 90
        0
  0
XRECORD
  5
DD97
102
{ACAD_REACTORS
330
DD95
102
}
330
DD95
100
AcDbXrecord
280
     1
270
     1
271
     1
  0
XRECORD
  5
DD96
102
{ACAD_REACTORS
330
DD95
102
}
330
DD95
100
AcDbXrecord
280
     1
270
     1
271
     1
  0
XRECORD
  5
DD9A
102
{ACAD_REACTORS
330
DD95
102
}
330
DD95
100
AcDbXrecord
280
     1
270
     1
271
     1
  0
XRECORD
  5
DD99
102
{ACAD_REACTORS
330
DD95
102
}
330
DD95
100
AcDbXrecord
280
     1
270
     1
271
     1
  0
XRECORD
  5
DD9B
102
{ACAD_REACTORS
330
DD95
102
}
330
DD95
100
AcDbXrecord
280
     1
270
     1
271
     1
  0
XRECORD
  5
DD98
102
{ACAD_REACTORS
330
DD95
102
}
330
DD95
100
AcDbXrecord
280
     1
270
     1
271
     1
  0
XRECORD
  5
DD8F
102
{ACAD_REACTORS
330
DD8D
102
}
330
DD8D
100
AcDbXrecord
280
     1
270
     1
271
     1
  0
XRECORD
  5
DD8E
102
{ACAD_REACTORS
330
DD8D
102
}
330
DD8D
100
AcDbXrecord
280
     1
270
     1
271
     1
  0
XRECORD
  5
DD92
102
{ACAD_REACTORS
330
DD8D
102
}
330
DD8D
100
AcDbXrecord
280
     1
270
     1
271
     1
  0
XRECORD
  5
DD91
102
{ACAD_REACTORS
330
DD8D
102
}
330
DD8D
100
AcDbXrecord
280
     1
270
     1
271
     1
  0
XRECORD
  5
DD93
102
{ACAD_REACTORS
330
DD8D
102
}
330
DD8D
100
AcDbXrecord
280
     1
270
     1
271
     1
  0
XRECORD
  5
DD90
102
{ACAD_REACTORS
330
DD8D
102
}
330
DD8D
100
AcDbXrecord
280
     1
270
     1
271
     1
  0
XRECORD
  5
DD9F
102
{ACAD_REACTORS
330
DD9D
102
}
330
DD9D
100
AcDbXrecord
280
     1
270
     1
271
     1
  0
XRECORD
  5
DD9E
102
{ACAD_REACTORS
330
DD9D
102
}
330
DD9D
100
AcDbXrecord
280
     1
270
     1
271
     1
  0
XRECORD
  5
DDA2
102
{ACAD_REACTORS
330
DD9D
102
}
330
DD9D
100
AcDbXrecord
280
     1
270
     1
271
     1
  0
XRECORD
  5
DDA1
102
{ACAD_REACTORS
330
DD9D
102
}
330
DD9D
100
AcDbXrecord
280
     1
270
     1
271
     1
  0
XRECORD
  5
DDA3
102
{ACAD_REACTORS
330
DD9D
102
}
330
DD9D
100
AcDbXrecord
280
     1
270
     1
271
     1
  0
XRECORD
  5
DDA0
102
{ACAD_REACTORS
330
DD9D
102
}
330
DD9D
100
AcDbXrecord
280
     1
270
     1
271
     1
  0
XRECORD
  5
11665
102
{ACAD_REACTORS
330
11664
102
}
330
11664
100
AcDbXrecord
280
     1
102
DISPLAYNAME
  1
Metric50
102
FLAGS
 90
        0
  0
CELLSTYLEMAP
  5
1165A
102
{ACAD_REACTORS
330
DDF7
102
}
330
DDF7
100
AcDbCellStyleMap
 90
        3
300
CELLSTYLE
  1
TABLEFORMAT_BEGIN
 90
        5
170
     1
 91
        0
 92
    32768
 62
   257
 93
        1
300
CONTENTFORMAT
  1
CONTENTFORMAT_BEGIN
 90
        0
 91
        0
 92
        4
 93
        0
300

 40
0.0
140
1.0
 94
        5
 62
     0
340
11
144
6.0
309
CONTENTFORMAT_END
171
     1
301
MARGIN
  1
CELLMARGIN_BEGIN
 40
1.5
 40
1.5
 40
1.5
 40
1.5
 40
0.18
 40
0.18
309
CELLMARGIN_END
 94
        6
 95
        1
302
GRIDFORMAT
  1
GRIDFORMAT_BEGIN
 90
        0
 91
        1
 62
     0
 92
       -2
340
0
 93
        0
 40
0.045
309
GRIDFORMAT_END
 95
        2
302
GRIDFORMAT
  1
GRIDFORMAT_BEGIN
 90
        0
 91
        1
 62
     0
 92
       -2
340
0
 93
        0
 40
0.045
309
GRIDFORMAT_END
 95
        4
302
GRIDFORMAT
  1
GRIDFORMAT_BEGIN
 90
        0
 91
        1
 62
     0
 92
       -2
340
0
 93
        0
 40
0.045
309
GRIDFORMAT_END
 95
        8
302
GRIDFORMAT
  1
GRIDFORMAT_BEGIN
 90
        0
 91
        1
 62
     0
 92
       -2
340
0
 93
        0
 40
0.045
309
GRIDFORMAT_END
 95
       16
302
GRIDFORMAT
  1
GRIDFORMAT_BEGIN
 90
        0
 91
        1
 62
     0
 92
       -2
340
0
 93
        0
 40
0.045
309
GRIDFORMAT_END
 95
       32
302
GRIDFORMAT
  1
GRIDFORMAT_BEGIN
 90
        0
 91
        1
 62
     0
 92
       -2
340
0
 93
        0
 40
0.045
309
GRIDFORMAT_END
309
TABLEFORMAT_END
  1
CELLSTYLE_BEGIN
 90
        1
 91
        1
300
_TITLE
309
CELLSTYLE_END
300
CELLSTYLE
  1
TABLEFORMAT_BEGIN
 90
        5
170
     1
 91
        0
 92
        0
 62
   257
 93
        1
300
CONTENTFORMAT
  1
CONTENTFORMAT_BEGIN
 90
        0
 91
        0
 92
        4
 93
        0
300

 40
0.0
140
1.0
 94
        5
 62
     0
340
11
144
4.5
309
CONTENTFORMAT_END
171
     1
301
MARGIN
  1
CELLMARGIN_BEGIN
 40
1.5
 40
1.5
 40
1.5
 40
1.5
 40
0.18
 40
0.18
309
CELLMARGIN_END
 94
        6
 95
        1
302
GRIDFORMAT
  1
GRIDFORMAT_BEGIN
 90
        0
 91
        1
 62
     0
 92
       -2
340
0
 93
        0
 40
0.045
309
GRIDFORMAT_END
 95
        2
302
GRIDFORMAT
  1
GRIDFORMAT_BEGIN
 90
        0
 91
        1
 62
     0
 92
       -2
340
0
 93
        0
 40
0.045
309
GRIDFORMAT_END
 95
        4
302
GRIDFORMAT
  1
GRIDFORMAT_BEGIN
 90
        0
 91
        1
 62
     0
 92
       -2
340
0
 93
        0
 40
0.045
309
GRIDFORMAT_END
 95
        8
302
GRIDFORMAT
  1
GRIDFORMAT_BEGIN
 90
        0
 91
        1
 62
     0
 92
       -2
340
0
 93
        0
 40
0.045
309
GRIDFORMAT_END
 95
       16
302
GRIDFORMAT
  1
GRIDFORMAT_BEGIN
 90
        0
 91
        1
 62
     0
 92
       -2
340
0
 93
        0
 40
0.045
309
GRIDFORMAT_END
 95
       32
302
GRIDFORMAT
  1
GRIDFORMAT_BEGIN
 90
        0
 91
        1
 62
     0
 92
       -2
340
0
 93
        0
 40
0.045
309
GRIDFORMAT_END
309
TABLEFORMAT_END
  1
CELLSTYLE_BEGIN
 90
        2
 91
        1
300
_HEADER
309
CELLSTYLE_END
300
CELLSTYLE
  1
TABLEFORMAT_BEGIN
 90
        5
170
     1
 91
        0
 92
        0
 62
   257
 93
        1
300
CONTENTFORMAT
  1
CONTENTFORMAT_BEGIN
 90
        0
 91
        0
 92
        4
 93
        0
300

 40
0.0
140
1.0
 94
        2
 62
     0
340
11
144
4.5
309
CONTENTFORMAT_END
171
     1
301
MARGIN
  1
CELLMARGIN_BEGIN
 40
1.5
 40
1.5
 40
1.5
 40
1.5
 40
0.18
 40
0.18
309
CELLMARGIN_END
 94
        6
 95
        1
302
GRIDFORMAT
  1
GRIDFORMAT_BEGIN
 90
        0
 91
        1
 62
     0
 92
       -2
340
0
 93
        0
 40
0.045
309
GRIDFORMAT_END
 95
        2
302
GRIDFORMAT
  1
GRIDFORMAT_BEGIN
 90
        0
 91
        1
 62
     0
 92
       -2
340
0
 93
        0
 40
0.045
309
GRIDFORMAT_END
 95
        4
302
GRIDFORMAT
  1
GRIDFORMAT_BEGIN
 90
        0
 91
        1
 62
     0
 92
       -2
340
0
 93
        0
 40
0.045
309
GRIDFORMAT_END
 95
        8
302
GRIDFORMAT
  1
GRIDFORMAT_BEGIN
 90
        0
 91
        1
 62
     0
 92
       -2
340
0
 93
        0
 40
0.045
309
GRIDFORMAT_END
 95
       16
302
GRIDFORMAT
  1
GRIDFORMAT_BEGIN
 90
        0
 91
        1
 62
     0
 92
       -2
340
0
 93
        0
 40
0.045
309
GRIDFORMAT_END
 95
       32
302
GRIDFORMAT
  1
GRIDFORMAT_BEGIN
 90
        0
 91
        1
 62
     0
 92
       -2
340
0
 93
        0
 40
0.045
309
GRIDFORMAT_END
309
TABLEFORMAT_END
  1
CELLSTYLE_BEGIN
 90
        3
 91
        2
300
_DATA
309
CELLSTYLE_END
  0
ENDSEC
  0
SECTION
  2
ACDSDATA
 70
     2
 71
     8
  0
ACDSSCHEMA
 90
        0
  1
AcDb_Thumbnail_Schema
  2
AcDbDs::ID
280
    10
 91
        8
  2
Thumbnail_Data
280
    15
 91
        0
101
ACDSRECORD
 95
        0
 90
        1
  2
AcDbDs::TreatedAsObjectData
280
     1
291
     1
101
ACDSRECORD
 95
        0
 90
        2
  2
AcDbDs::Legacy
280
     1
291
     1
101
ACDSRECORD
  1
AcDbDs::ID
 90
        3
  2
AcDs:Indexable
280
     1
291
     1
101
ACDSRECORD
  1
AcDbDs::ID
 90
        4
  2
AcDbDs::HandleAttribute
280
     7
282
     1
  0
ACDSSCHEMA
 90
        1
  1
AcDbDs::TreatedAsObjectDataSchema
  2
AcDbDs::TreatedAsObjectData
280
     1
 91
        0
  0
ACDSSCHEMA
 90
        2
  1
AcDbDs::LegacySchema
  2
AcDbDs::Legacy
280
     1
 91
        0
  0
ACDSSCHEMA
 90
        3
  1
AcDbDs::IndexedPropertySchema
  2
AcDs:Indexable
280
     1
 91
        0
  0
ACDSSCHEMA
 90
        4
  1
AcDbDs::HandleAttributeSchema
  2
AcDbDs::HandleAttribute
280
     7
 91
        1
284
     1
  0
ACDSRECORD
 90
        0
  2
AcDbDs::ID
280
    10
320
22
  2
Thumbnail_Data
280
    15
 94
     2559
310
89504E470D0A1A0A0000000D49484452000001000000008108030000001837949D00000300504C5445000000FFFFFF0000000000000000000000000000000000000000000000000000000000330000660000990000CC0000FF0033000033330033660033990033CC0033FF0066000066330066660066990066CC0066FF0099
310
000099330099660099990099CC0099FF00CC0000CC3300CC6600CC9900CCCC00CCFF00FF0000FF3300FF6600FF9900FFCC00FFFF3300003300333300663300993300CC3300FF3333003333333333663333993333CC3333FF3366003366333366663366993366CC3366FF3399003399333399663399993399CC3399FF33CC00
310
33CC3333CC6633CC9933CCCC33CCFF33FF0033FF3333FF6633FF9933FFCC33FFFF6600006600336600666600996600CC6600FF6633006633336633666633996633CC6633FF6666006666336666666666996666CC6666FF6699006699336699666699996699CC6699FF66CC0066CC3366CC6666CC9966CCCC66CCFF66FF0066
310
FF3366FF6666FF9966FFCC66FFFF9900009900339900669900999900CC9900FF9933009933339933669933999933CC9933FF9966009966339966669966999966CC9966FF9999009999339999669999999999CC9999FF99CC0099CC3399CC6699CC9999CCCC99CCFF99FF0099FF3399FF6699FF9999FFCC99FFFFCC0000CC00
310
33CC0066CC0099CC00CCCC00FFCC3300CC3333CC3366CC3399CC33CCCC33FFCC6600CC6633CC6666CC6699CC66CCCC66FFCC9900CC9933CC9966CC9999CC99CCCC99FFCCCC00CCCC33CCCC66CCCC99CCCCCCCCCCFFCCFF00CCFF33CCFF66CCFF99CCFFCCCCFFFFFF0000FF0033FF0066FF0099FF00CCFF00FFFF3300FF3333
310
FF3366FF3399FF33CCFF33FFFF6600FF6633FF6666FF6699FF66CCFF66FFFF9900FF9933FF9966FF9999FF99CCFF99FFFFCC00FFCC33FFCC66FFCC99FFCCCCFFCCFFFFFF00FFFF33FFFF66FFFF99FFFFCCFFFFFF0000000D0D0D1A1A1A2828283535354343435050505D5D5D6B6B6B787878868686939393A1A1A1AEAEAEBB
310
BBBBC9C9C9D6D6D6E4E4E4F1F1F1FFFFFF0000000000000000000000000000000000000000000000000000000000003AE5ACE9000006494944415478DAED9D49A2B3200C80394E37DC7FC7C66BE41AEC9F32488080607D0C15FEA15641E4238410C032B6424190538627014C596B0BC0A3F79A4FFE9F06305DF52F000BC002
310
B0000C753B7833005081A9BF00D303A82F02F8A136F178001A87E100601495827027EEB800AAAAA7AE3671DCD504C65482EEF1C0ABA7F40327AFB8424240785809C047DEB3679A45F20A555674E73B22F0AF00A04398C10E80646DFAD0626D0A6113A8B1216946430288DBC02F02A832FEA1ACAC503FC25800DE0200D802D0
310
16805138E270BC0AF3CF04081DB3F884200E459C049D4159445A4E7F57D1F9FE879805F93F00EAABA4006C9C0B1438975700C49E2499066711F529C77F7B5A0E5C7DECA1318028023973C0B2D353EA7A328D36B1C1664F00D8A382C2A00E9B0210922A4EF01405B3739934B87717820670C8CC4EE088205A01808404981A09
310
4B7779DF741A6CDE841260CFAAF39C359400680780217352925E18C98405209A03A0E69F770DE67D2D0110682F740BABE8C1640431008E425300488D072ADCFB1A5E27828C7B017B78F6742900476C17B49E184F07007618DC6A02391DC06C1360ACB51D5008E06A389F03C0D24A90755382D5DD601E40BEEB3C938ED40D26
310
25E088E1997EC7B78BD180547ACC4BC33111DF879290802E8610BD26630B351C313CF083D8649C26B5DC893485797B53383D18DAA2DA4457E9C1D0164B003516D8928321690743D074383C46306516E4B0F84500D8CB01102AF25500AC72782580DCCCC9D2016B91D402B0002C00A30380C9017CB586A52C1D918537404CE7
310
DF00C057EB17CAD2413100E82D0170AFFC370814A66C21015F5BF1DF29099808005427BD42F421A7A83FAD1C229276F6A49D1BC959E3844324CC222EAABAECB9CEF7D00480768971BF76948B3E766F714EB65738D3C8641A2400F1AC87066039750020B40B4A32E79CE754852300D2BB994E2329193901D82C0EB0B4B0EB68
310
C821DC500204EC14F6AC71F6848BDB5C05E1E2B943A9EF10A4B1D9EC598823023FA2C5003E9D009C73837B9D6309A0013019553B3E94D989117524499FB7296B0700E7E4E85127FCF84F6401B8AB289E70073900280B99D2F7FD007022C86876985F05C98BD28C0640240104B3C345000AD2A400A8190A07E0C3DAE9005D5F
310
61A4471748A01C12002090801600CEA93125AFFFAE044D1632D502FA01D8BBA77FEF06A5B05908B2178C7A814F4B4388FB8690EEB212B3C3C11A09B4172AB497B9742D4D77837B2B481A42ACA3211434FF8429BCDB3276E6220620C431C54A98C2DC379E79DA1456A305640F371D0CC9EBC110A0F10A1063A1FD6A3418B2A3
310
FD8BB781D8B1808A0A2D016486A9C462E9AB26905A2C1D0C9FB2035F74795400AC1A00BB0210E613798EC602C0AA01D43950600188088C0100AD760577E27476509ECD5B009AFB04CB01002EB5D964EACE11042A01E0ED663018807B3B22A1186DFE6E3DB6CF477B87936D824A02995B970380C600BC3CA35D90403D36D9E9
310
D17B870BB6CF83D3284D9BC07A83446137583B63324B2F30415800168005600118E676DF76690BC06F0180A5031680D70128967C981E80200F37F7F6AD7CE489011817BDDEC7EBED643BF693D98900E3EF3F2FA04D640F2BC8F600543DEAB20B6F3BF3FE6D731BA2D506697DDEEC1334D3433F01C0EC86D725272440861270
310
4A3FB139724E008291005C434133C0E65327991D807DA501CB036029002C7C47C0640080150260390070E5FF46D6A4F5B87B9F034800D50B701F00A77B81AC0400E986CCD9D8AD25C02C9E2200EC6A5F78FBCA6DF7202200F95EE07C1D9FAE7EFCA2664F2CC6D601EC9E0E0056EB40EED50B7C0720FBD634BFC299995C63E8
310
744F0928EC067D00A2A21BCC3477B4FA005877008421C49D218417427986501D0033DF9CDB3BDBCF14D64512FA0527C6E40D5EAE6144DFAC7F13FA306B0A17E980112C4186C702A704802701C0896E50E47B811900E8D1A0701D9B70339F5BDC65AA0307006E4AC0384D003F843FB80F9F150170B181414E07007E2D6F917F
310
B12B001602D870171F02C0B67499D7A8E49DE33D01047B9ECEA70D3EDD2BDA59E50F0F8CEB1273450257C1E01604790B83F0F7E7DDE5BD00C41A2AA5BB9E5805318757385AE8F203BF325309206AFB10CACC2F03C876DFF00200A5EB807E1FC0573F1A33B90E80F6F3C303F602A405F806007DC202B0002C00EB77879F0530
310
5F58009EBCD7DB7F7DFE87C31F85AEC4A2ADA318270000000049454E44AE4260820770F40F0FFC4300F99ACAD7E80011F503DEA804E19E2512737DC00430014C0013C049009E19CE03F0DC30016CC6F8039928A30F9F2A08EF0000000049454E44AE42608273CB0070C6311E5D60944AF9032D9D51B5E9EAC1120000000049
310
454E44AE4260820000000049454E44AE426082
  0
ACDSRECORD
 90
        0
  2
AcDbDs::ID
280
    10
320
78E
  2
Thumbnail_Data
280
    15
 94
     3198
310
89504E470D0A1A0A0000000D4948445200000100000000B408030000004C80028300000300504C54450D0D0DFFFFFF0D0D0D0000000000000000000000000000000000000000000000000000330000660000990000CC0000FF0033000033330033660033990033CC0033FF0066000066330066660066990066CC0066FF0099
310
000099330099660099990099CC0099FF00CC0000CC3300CC6600CC9900CCCC00CCFF00FF0000FF3300FF6600FF9900FFCC00FFFF3300003300333300663300993300CC3300FF3333003333333333663333993333CC3333FF3366003366333366663366993366CC3366FF3399003399333399663399993399CC3399FF33CC00
310
33CC3333CC6633CC9933CCCC33CCFF33FF0033FF3333FF6633FF9933FFCC33FFFF6600006600336600666600996600CC6600FF6633006633336633666633996633CC6633FF6666006666336666666666996666CC6666FF6699006699336699666699996699CC6699FF66CC0066CC3366CC6666CC9966CCCC66CCFF66FF0066
310
FF3366FF6666FF9966FFCC66FFFF9900009900339900669900999900CC9900FF9933009933339933669933999933CC9933FF9966009966339966669966999966CC9966FF9999009999339999669999999999CC9999FF99CC0099CC3399CC6699CC9999CCCC99CCFF99FF0099FF3399FF6699FF9999FFCC99FFFFCC0000CC00
310
33CC0066CC0099CC00CCCC00FFCC3300CC3333CC3366CC3399CC33CCCC33FFCC6600CC6633CC6666CC6699CC66CCCC66FFCC9900CC9933CC9966CC9999CC99CCCC99FFCCCC00CCCC33CCCC66CCCC99CCCCCCCCCCFFCCFF00CCFF33CCFF66CCFF99CCFFCCCCFFFFFF0000FF0033FF0066FF0099FF00CCFF00FFFF3300FF3333
310
FF3366FF3399FF33CCFF33FFFF6600FF6633FF6666FF6699FF66CCFF66FFFF9900FF9933FF9966FF9999FF99CCFF99FFFFCC00FFCC33FFCC66FFCC99FFCCCCFFCCFFFFFF00FFFF33FFFF66FFFF99FFFFCCFFFFFF0000000D0D0D1A1A1A2828283535354343435050505D5D5D6B6B6B787878868686939393A1A1A1AEAEAEBB
310
BBBBC9C9C9D6D6D6E4E4E4F1F1F1FFFFFF000000000000000000000000000000000000000000000000000000000000D3F30D92000009214944415478DAED9D4D82AC280C80739CDA70FF1D1BAF9103BC3900FB292DE527104C04ADB28579D3DD5A80F819428098827FCF4EFFC13F78721A003E00DC335304E0914F7F001800
310
3C007C624A003CF0F90F0003C00030000C00270358061B58FE9FFF5B8E9E05201818EB5FB701F0E326CC05007EBBF70E00170368133BC4E60AF0BB00F27E87CAF66B0160153F0E2578A10424D7C5AB5444F1F2F8952E100FE2785408B10D00B45DFD681710AA2181448AA436C9839AC69CA6032A5A10B98C4A002801803900
310
3C19C01DD6B334035031FF9E0488FAE8AE7AC2B20EE1949DA897CB9F7F95D88500A0F214CA159D00004F01D0AAEE0FD5A300D0A204FF00008401E0D100100680470378E7B24D003EA5D73A485558DE4D75F4A2A498A547957AF272DBCF7301F861D3D9C587E0F373FBB5A6C91963327783C2395B3B7C1F4D5C3D53A1DCF693
310
1DDAB7D3664E38D76C2257082980F519384E02DEA5AC9D9C2D2537D9774E279280F705F87ADEA7E33DFB5402FCED20D37196CFD18079FF8BCE68013069F9A408753DE964CE069A7AD2A72D0160DF7F1B63CD0AAE2780D5A1A820BABCB4D5EA71852E40EAF1130A3980458B18EB0FD500ACB53B8FAFF0E4C0693D4D44F5507B
310
DEB78D03F0E9472B804F9FEA2A01DF062092006894805F0210CF3EC53A2002606F0F209A2663685B61186C078041D15495DA3C566727E7F15B0B40528FB74CDE097D93723BC01F3B43921E406CB11407EA77ADD9C9B9E1569764F54400B62655007C6A98D3F6DB1455FA9E04FC920E486F95918070BC953616406B087500B0
310
6EA1882C76AD128CDB86C07681AF2A41D5CAAD4292C2CED425C3608321A42120071055F97D436851C4E586BF3F408506A8D59303F87473FCB621347FC44C87972EE0E40A10D86935146C813053971942AD93A163D361FC95E930344E87A7DD0591A20143724A16448AF5D41644DCC42D88840A96E48245D47B45682ACD634D
310
9E731700574F0DC0B4BB11945D0FD56B82B74E9875B9A7028001E0D900F0E10076B6DB07803F0C40E4513394E07863640018000680016000180006803A806D2DB2E7CB1A075FFDE09B92997C12C76A198053DE5639565DA529F4A4A8D17209E84DE068757C53E8C98E00F08CBE776A39ECAB039E0EE066F7FFAA677CF503C0
310
6C1C25A75150E57E3DA807804D00929575648350093D45F384BA7AFC1A3F4A3CF15E5B56CC7C2AE62403B03D03634AD0EDB6E7C26C692D4EAA15DD1B3670C5F5D0E76FF600B08F4E0760F64A867C6F7003C0882E0190ED0D860B2D1E2C927A7CB9CDE9A10280DC863DD205B627343B2583DF5674B485AC9BA88B6BA2C512B1
310
70D57AE2F684A6CC1BC7BCEF0201E0885F804A02ACB33853B08B90CEBF88962AEFEBDB70510452EC535972B4EF20814B4EB46BE9B48E0CC0EBE58D66585A433E56750137F36625806DB84B4F017FE8C41E229F43B76CF2D65DB11200403D435E4A1DB0745428F5A64AC3552F4C0801AC9E01ABBB4305C00B3A0380D5C9E217
310
0098CC41A2A2048A00043AA0E02768184BE54A006943AE00604DE66E9A24D6C3D3E8D2A17A1CAB065F893967E970718D04A85267094887C12312107B8AC69AE7263AA003805C09C29F01F0021D80CDF0FA213B60A7A3C52AA019406C787DDF1274224BD05B7A654BF0A59D0BCC86206709F29EA2D5B940260186796B8C18F5
310
5B7EB33A58EE88C0AACB5DA30E582C4FF56C1057AFC4A50DC82F86ACEF76566683C62BE5E0296A74B3416C0050F4AEDC5D0FB0F3142ACC635900CB8B209F02EC7A80292D2BF0F40BEB01160FAC07949652342B42613D265F97C0EC88A927718D96BF9BF90A0B496B59540390ADC039FEADEF6D6F0676BAC072843B6B82C838
310
B78816FDB2AC1D015416519355CC5D00BBF5370248F25E0C00BA00685D5947E05CC61E0200D8305403C043001CDC1A6B05902EE7A71EABA113FE4100D1FE747CC7310FA499FE2A8068184CF7772E01807918C6D301748C0C78308A11D218A8B56B9DA5039462D853024AB75CF1ABB910005E0320EF0541F1B475019406553D
310
25A6E877224BD762AA26312489B3920A005796BF5C519D9D04E0D991A51F90068001600018000680016000380F0086884A5D0D987B0148A7A54F05808F04804F073094E000F0780013FE34D97E006C550D86EB89CBE34D00D8F477761FD3CE5DB1E57F1B000D3616871B0BB9E6BF0B00A22C2E2F7FED70795802362F221FB4
310
CD1682D7CE7E2E7140B4C5D5258997EB200FB1B611BE03006BDF37FEF157F3812B83102F47531A1937CD121D85F2F792001FA5EF731B69D4BE25E85EDA714830FD7060FD893B4900043FBAF50608803428A2F7F68A750051826CA4C85F05406F2005002E53820E06803F05808EE775009001A0E58F00D8FC0EB0EA4E87A5FD
310
B43B03D8710480FC24602F09082FD5186A072400663B80964DED0077DC0EF000AA7B983EE0083031688F00085FF45102B00DF39F379FA6C2DB50DE10B02500CBA7AA6130EE02892392FFB7B90700F5CA6A04705A1790C4A52F77815430E8B75DE681479ABBC0493A00A1A10B287C64FEC428B0BAA291AF3488BA0362EA798D
310
3D47019D1D009DED00FAE4958EE57F0DC08109C4C900B200E9F46DA86C32A4B70463D777BD5B5BFFE97004209B0EFB1472F877EAAC3F943E4C3A0A906F3796F915F5980E277680354E6508D105117BC010520C01272C8951002EF1AC7338E52174E251A8DF9218520F75F69B077A2E8A62BEA89900009CF222581A926C7AE2
310
88290CB9F17FFAAAB00C00EA01B44F866404DA01D44E15BF709C01006A0085B94052BB6C1C3D1D0008BB00088732DE0438E86FDA094071F3A718D9BDEC579C45AF900188BED32B9908A561353F5C312AB115EC2601E520F6693B921691FB8DE360EA0114354121179C00A0708344486B00B23787140320465D2A1324611FED
310
0180D7BCFB06499323F86FE800997CC84EEBD9430D773157F751400A80747CC57CB5BE28135FC12F7F5100F02D00B166247D8391E6830350C36B15270290B7EB608061EE8AE97B37A942CE825A5C2501C0BD60D4B2A75341CE00C8739CAC0394E7E50ABE2E01FBC3E0F50004EFD5297422DE65182CDBBF2A09802C5C783938
310
8F6CB0BC7C183CA89AA3270C91150FA40B84B3F13E505811F93E80061DE06F1013004001245843410FE07BC3E06923685102300840B245704F0062F1F26A824A3E6407DC84E5DE00D4F622993C52004F4C3100074F4C03C00010003C330500CF4D03C01BC0B3D300F03F2C8FF2FFED4546050000000049454E44AE42608200
310
49454E44AE4260820049454E44AE4260824E44AE426082
  0
ENDSEC
  0
EOF
