  0
SECTION
  2
HEADER
  9
$ACADVER
  1
AC1027
  9
$ACADMAINTVER
 70
   125
  9
$DWGCODEPAGE
  3
ANSI_932
  9
$LASTSAVEDBY
  1
D-mishima
  9
$REQUIREDVERSIONS
160
                 0
  9
$INSBASE
 10
0.0
 20
0.0
 30
0.0
  9
$EXTMIN
 10
0.0
 20
0.0
 30
0.0
  9
$EXTMAX
 10
4200.0
 20
2970.0
 30
0.0
  9
$LIMMIN
 10
0.0
 20
0.0
  9
$LIMMAX
 10
4200.0
 20
2970.0
  9
$ORTHOMODE
 70
     0
  9
$REGENMODE
 70
     1
  9
$FILLMODE
 70
     1
  9
$QTEXTMODE
 70
     0
  9
$MIRRTEXT
 70
     0
  9
$LTSCALE
 40
0.1
  9
$ATTMODE
 70
     1
  9
$TEXTSIZE
 40
25.0
  9
$TRACEWID
 40
1.0
  9
$TEXTSTYLE
  7
Standard
  9
$CLAYER
  8
寸法線
  9
$CELTYPE
  6
ByLayer
  9
$CECOLOR
 62
   256
  9
$CELTSCALE
 40
1.0
  9
$DISPSILH
 70
     0
  9
$DIMSCALE
 40
10.0
  9
$DIMASZ
 40
2.0
  9
$DIMEXO
 40
0.875
  9
$DIMDLI
 40
10.0
  9
$DIMRND
 40
0.0
  9
$DIMDLE
 40
0.0
  9
$DIMEXE
 40
1.0
  9
$DIMTP
 40
0.0
  9
$DIMTM
 40
0.0
  9
$DIMTXT
 40
2.5
  9
$DIMCEN
 40
0.0
  9
$DIMTSZ
 40
0.0
  9
$DIMTOL
 70
     0
  9
$DIMLIM
 70
     0
  9
$DIMTIH
 70
     0
  9
$DIMTOH
 70
     0
  9
$DIMSE1
 70
     0
  9
$DIMSE2
 70
     0
  9
$DIMTAD
 70
     1
  9
$DIMZIN
 70
     8
  9
$DIMBLK
  1

  9
$DIMASO
 70
     1
  9
$DIMSHO
 70
     1
  9
$DIMPOST
  1

  9
$DIMAPOST
  1

  9
$DIMALT
 70
     0
  9
$DIMALTD
 70
     2
  9
$DIMALTF
 40
25.4
  9
$DIMLFAC
 40
1.0
  9
$DIMTOFL
 70
     1
  9
$DIMTVP
 40
0.0
  9
$DIMTIX
 70
     0
  9
$DIMSOXD
 70
     0
  9
$DIMSAH
 70
     1
  9
$DIMBLK1
  1
OPEN
  9
$DIMBLK2
  1
OPEN
  9
$DIMSTYLE
  2
STANDARD
  9
$DIMCLRD
 70
     0
  9
$DIMCLRE
 70
     0
  9
$DIMCLRT
 70
     0
  9
$DIMTFAC
 40
1.0
  9
$DIMGAP
 40
0.875
  9
$DIMJUST
 70
     0
  9
$DIMSD1
 70
     0
  9
$DIMSD2
 70
     0
  9
$DIMTOLJ
 70
     1
  9
$DIMTZIN
 70
     0
  9
$DIMALTZ
 70
     0
  9
$DIMALTTZ
 70
     0
  9
$DIMUPT
 70
     0
  9
$DIMDEC
 70
     3
  9
$DIMTDEC
 70
     3
  9
$DIMALTU
 70
     2
  9
$DIMALTTD
 70
     2
  9
$DIMTXSTY
  7
Standard
  9
$DIMAUNIT
 70
     0
  9
$DIMADEC
 70
     0
  9
$DIMALTRND
 40
0.0
  9
$DIMAZIN
 70
     0
  9
$DIMDSEP
 70
    46
  9
$DIMATFIT
 70
     3
  9
$DIMFRAC
 70
     0
  9
$DIMLDRBLK
  1
OPEN
  9
$DIMLUNIT
 70
     2
  9
$DIMLWD
 70
    -2
  9
$DIMLWE
 70
    -2
  9
$DIMTMOVE
 70
     0
  9
$DIMFXL
 40
1.0
  9
$DIMFXLON
 70
     0
  9
$DIMJOGANG
 40
1.570796326794896
  9
$DIMTFILL
 70
     0
  9
$DIMTFILLCLR
 70
     0
  9
$DIMARCSYM
 70
     0
  9
$DIMLTYPE
  6

  9
$DIMLTEX1
  6

  9
$DIMLTEX2
  6

  9
$DIMTXTDIRECTION
 70
     0
  9
$LUNITS
 70
     2
  9
$LUPREC
 70
     4
  9
$SKETCHINC
 40
1.0
  9
$FILLETRAD
 40
0.0
  9
$AUNITS
 70
     0
  9
$AUPREC
 70
     0
  9
$MENU
  1
.
  9
$ELEVATION
 40
0.0
  9
$PELEVATION
 40
0.0
  9
$THICKNESS
 40
0.0
  9
$LIMCHECK
 70
     0
  9
$CHAMFERA
 40
0.0
  9
$CHAMFERB
 40
0.0
  9
$CHAMFERC
 40
0.0
  9
$CHAMFERD
 40
0.0
  9
$SKPOLY
 70
     0
  9
$TDCREATE
 40
2454064.449062500
  9
$TDUCREATE
 40
2454064.074062859
  9
$TDUPDATE
 40
2460315.417025463
  9
$TDUUPDATE
 40
2460315.042025463
  9
$TDINDWG
 40
3.8124449884
  9
$TDUSRTIMER
 40
3.8124231250
  9
$USRTIMER
 70
     1
  9
$ANGBASE
 50
0.0
  9
$ANGDIR
 70
     0
  9
$PDMODE
 70
     0
  9
$PDSIZE
 40
0.0
  9
$PLINEWID
 40
0.0
  9
$SPLFRAME
 70
     0
  9
$SPLINETYPE
 70
     6
  9
$SPLINESEGS
 70
     8
  9
$HANDSEED
  5
11863
  9
$SURFTAB1
 70
     6
  9
$SURFTAB2
 70
     6
  9
$SURFTYPE
 70
     6
  9
$SURFU
 70
     6
  9
$SURFV
 70
     6
  9
$UCSBASE
  2

  9
$UCSNAME
  2

  9
$UCSORG
 10
0.0
 20
0.0
 30
0.0
  9
$UCSXDIR
 10
1.0
 20
0.0
 30
0.0
  9
$UCSYDIR
 10
0.0
 20
1.0
 30
0.0
  9
$UCSORTHOREF
  2

  9
$UCSORTHOVIEW
 70
     0
  9
$UCSORGTOP
 10
0.0
 20
0.0
 30
0.0
  9
$UCSORGBOTTOM
 10
0.0
 20
0.0
 30
0.0
  9
$UCSORGLEFT
 10
0.0
 20
0.0
 30
0.0
  9
$UCSORGRIGHT
 10
0.0
 20
0.0
 30
0.0
  9
$UCSORGFRONT
 10
0.0
 20
0.0
 30
0.0
  9
$UCSORGBACK
 10
0.0
 20
0.0
 30
0.0
  9
$PUCSBASE
  2

  9
$PUCSNAME
  2

  9
$PUCSORG
 10
0.0
 20
0.0
 30
0.0
  9
$PUCSXDIR
 10
1.0
 20
0.0
 30
0.0
  9
$PUCSYDIR
 10
0.0
 20
1.0
 30
0.0
  9
$PUCSORTHOREF
  2

  9
$PUCSORTHOVIEW
 70
     0
  9
$PUCSORGTOP
 10
0.0
 20
0.0
 30
0.0
  9
$PUCSORGBOTTOM
 10
0.0
 20
0.0
 30
0.0
  9
$PUCSORGLEFT
 10
0.0
 20
0.0
 30
0.0
  9
$PUCSORGRIGHT
 10
0.0
 20
0.0
 30
0.0
  9
$PUCSORGFRONT
 10
0.0
 20
0.0
 30
0.0
  9
$PUCSORGBACK
 10
0.0
 20
0.0
 30
0.0
  9
$USERI1
 70
     0
  9
$USERI2
 70
     0
  9
$USERI3
 70
     0
  9
$USERI4
 70
     0
  9
$USERI5
 70
     0
  9
$USERR1
 40
0.0
  9
$USERR2
 40
0.0
  9
$USERR3
 40
0.0
  9
$USERR4
 40
0.0
  9
$USERR5
 40
0.0
  9
$WORLDVIEW
 70
     1
  9
$SHADEDGE
 70
     3
  9
$SHADEDIF
 70
    70
  9
$TILEMODE
 70
     0
  9
$MAXACTVP
 70
    64
  9
$PINSBASE
 10
0.0
 20
0.0
 30
0.0
  9
$PLIMCHECK
 70
     0
  9
$PEXTMIN
 10
0.0000000000000853
 20
0.0
 30
0.0
  9
$PEXTMAX
 10
408.1991586685179
 20
285.1784963607788
 30
0.0
  9
$PLIMMIN
 10
-5.873748779296875
 20
-5.873749732971191
  9
$PLIMMAX
 10
414.0729064941406
 20
291.0522451400757
  9
$UNITMODE
 70
     0
  9
$VISRETAIN
 70
     1
  9
$PLINEGEN
 70
     0
  9
$PSLTSCALE
 70
     1
  9
$TREEDEPTH
 70
  3020
  9
$CMLSTYLE
  2
Standard
  9
$CMLJUST
 70
     0
  9
$CMLSCALE
 40
20.0
  9
$PROXYGRAPHICS
 70
     1
  9
$MEASUREMENT
 70
     1
  9
$CELWEIGHT
370
    -1
  9
$ENDCAPS
280
     0
  9
$JOINSTYLE
280
     0
  9
$LWDISPLAY
290
     0
  9
$INSUNITS
 70
     4
  9
$HYPERLINKBASE
  1

  9
$STYLESHEET
  1
SANKENTC.CTB
  9
$XEDIT
290
     1
  9
$CEPSNTYPE
380
     0
  9
$PSTYLEMODE
290
     1
  9
$FINGERPRINTGUID
  2
{072871F0-2771-4C56-B9BD-B27D0F751D9A}
  9
$VERSIONGUID
  2
{0B408014-B66A-ED4B-8772-3239DC18ED1F}
  9
$EXTNAMES
290
     1
  9
$PSVPSCALE
 40
0.0
  9
$OLESTARTUP
290
     0
  9
$SORTENTS
280
   127
  9
$INDEXCTL
280
     0
  9
$HIDETEXT
280
     1
  9
$XCLIPFRAME
280
     2
  9
$HALOGAP
280
     0
  9
$OBSCOLOR
 70
   257
  9
$OBSLTYPE
280
     0
  9
$INTERSECTIONDISPLAY
280
     0
  9
$INTERSECTIONCOLOR
 70
   257
  9
$DIMASSOC
280
     2
  9
$PROJECTNAME
  1

  9
$CAMERADISPLAY
290
     0
  9
$LENSLENGTH
 40
50.0
  9
$CAMERAHEIGHT
 40
0.0
  9
$STEPSPERSEC
 40
2.0
  9
$STEPSIZE
 40
6.0
  9
$3DDWFPREC
 40
2.0
  9
$PSOLWIDTH
 40
0.25
  9
$PSOLHEIGHT
 40
4.0
  9
$LOFTANG1
 40
1.570796326794896
  9
$LOFTANG2
 40
1.570796326794896
  9
$LOFTMAG1
 40
0.0
  9
$LOFTMAG2
 40
0.0
  9
$LOFTPARAM
 70
     7
  9
$LOFTNORMALS
280
     1
  9
$LATITUDE
 40
37.795
  9
$LONGITUDE
 40
-122.394
  9
$NORTHDIRECTION
 40
0.0
  9
$TIMEZONE
 70
 -8000
  9
$LIGHTGLYPHDISPLAY
280
     1
  9
$TILEMODELIGHTSYNCH
280
     1
  9
$CMATERIAL
347
DD8C
  9
$SOLIDHIST
280
     0
  9
$SHOWHIST
280
     1
  9
$DWFFRAME
280
     2
  9
$DGNFRAME
280
     0
  9
$REALWORLDSCALE
290
     1
  9
$INTERFERECOLOR
 62
     1
  9
$INTERFEREOBJVS
345
DDAE
  9
$INTERFEREVPVS
346
FCDF
  9
$CSHADOW
280
     0
  9
$SHADOWPLANELOCATION
 40
0.0
  0
ENDSEC
  0
SECTION
  2
CLASSES
  0
CLASS
  1
ACDBDICTIONARYWDFLT
  2
AcDbDictionaryWithDefault
  3
ObjectDBX Classes
 90
        0
 91
        1
280
     0
281
     0
  0
CLASS
  1
DICTIONARYVAR
  2
AcDbDictionaryVar
  3
ObjectDBX Classes
 90
        0
 91
       16
280
     0
281
     0
  0
CLASS
  1
TABLESTYLE
  2
AcDbTableStyle
  3
ObjectDBX Classes
 90
     4095
 91
        1
280
     0
281
     0
  0
CLASS
  1
DIMASSOC
  2
AcDbDimAssoc
  3
"AcDbDimAssoc|Product Desc:     AcDim ARX App For Dimension|Company:          Autodesk, Inc.|WEB Address:      www.autodesk.com"
 90
        0
 91
        0
280
     0
281
     0
  0
CLASS
  1
SORTENTSTABLE
  2
AcDbSortentsTable
  3
ObjectDBX Classes
 90
        0
 91
        2
280
     0
281
     0
  0
CLASS
  1
MATERIAL
  2
AcDbMaterial
  3
ObjectDBX Classes
 90
     1153
 91
        3
280
     0
281
     0
  0
CLASS
  1
VISUALSTYLE
  2
AcDbVisualStyle
  3
ObjectDBX Classes
 90
     4095
 91
       26
280
     0
281
     0
  0
CLASS
  1
SCALE
  2
AcDbScale
  3
ObjectDBX Classes
 90
     1153
 91
       17
280
     0
281
     0
  0
CLASS
  1
MLEADERSTYLE
  2
AcDbMLeaderStyle
  3
ACDB_MLEADERSTYLE_CLASS
 90
     4095
 91
        1
280
     0
281
     0
  0
CLASS
  1
CELLSTYLEMAP
  2
AcDbCellStyleMap
  3
ObjectDBX Classes
 90
     1152
 91
        1
280
     0
281
     0
  0
CLASS
  1
AEC_REFEDIT_STATUS_TRACKER
  2
AecDbRefEditStatusTracker
  3
AecArchBase50|Product Desc: Autodesk Architectural Desktop 2007 |Company: Autodesk,Inc. |WEB Address: www.autodesk.com
 90
      129
 91
        0
280
     0
281
     0
  0
CLASS
  1
NPOCOLLECTION
  2
AcDbImpNonPersistentObjectsCollection
  3
ObjectDBX Classes
 90
     1153
 91
        0
280
     0
281
     0
  0
CLASS
  1
ACDBSECTIONVIEWSTYLE
  2
AcDbSectionViewStyle
  3
ObjectDBX Classes
 90
     1025
 91
        1
280
     0
281
     0
  0
CLASS
  1
ACDBDETAILVIEWSTYLE
  2
AcDbDetailViewStyle
  3
ObjectDBX Classes
 90
     1025
 91
        1
280
     0
281
     0
  0
ENDSEC
  0
SECTION
  2
TABLES
  0
TABLE
  2
VPORT
  5
8
102
{ACAD_XDICTIONARY
360
DDFD
102
}
330
0
100
AcDbSymbolTable
 70
     1
1001
ACAD
1000
DbSaveVer
1071
      278
  0
VPORT
  5
EA40
330
8
100
AcDbSymbolTableRecord
100
AcDbViewportTableRecord
  2
*Active
 70
     0
 10
0.0
 20
0.0
 11
1.0
 21
1.0
 12
2100.000009778888
 22
1485.00000691507
 13
0.0
 23
0.0
 14
10.0
 24
10.0
 15
10.0
 25
10.0
 16
0.0
 26
0.0
 36
1.0
 17
0.0
 27
0.0
 37
0.0
 40
2995.786285400605
 41
1.976978417266187
 42
50.0
 43
0.0
 44
0.0
 50
0.0
 51
0.0
 71
     0
 72
  1000
 73
     1
 74
     3
 75
     0
 76
     0
 77
     0
 78
     0
281
     0
 65
     1
110
0.0
120
0.0
130
0.0
111
1.0
121
0.0
131
0.0
112
0.0
122
1.0
132
0.0
 79
     0
146
0.0
348
DDAA
 60
     3
 61
     5
292
     1
282
     1
141
0.0
142
0.0
 63
   250
421
  3355443
1001
ACAD_NAV_VCDISPLAY
1070
     3
  0
ENDTAB
  0
TABLE
  2
LTYPE
  5
5
330
0
100
AcDbSymbolTable
 70
     4
  0
LTYPE
  5
14
330
5
100
AcDbSymbolTableRecord
100
AcDbLinetypeTableRecord
  2
ByBlock
 70
     0
  3

 72
    65
 73
     0
 40
0.0
  0
LTYPE
  5
15
330
5
100
AcDbSymbolTableRecord
100
AcDbLinetypeTableRecord
  2
ByLayer
 70
     0
  3

 72
    65
 73
     0
 40
0.0
  0
LTYPE
  5
16
330
5
100
AcDbSymbolTableRecord
100
AcDbLinetypeTableRecord
  2
Continuous
 70
     0
  3
Solid line
 72
    65
 73
     0
 40
0.0
  0
LTYPE
  5
1D4
330
5
100
AcDbSymbolTableRecord
100
AcDbLinetypeTableRecord
  2
PHANTOM
 70
     0
  3
Phantom ______  __  __  ______  __  __  ______
 72
    65
 73
     6
 40
63.5
 49
31.75
 74
     0
 49
-6.349999999999997
 74
     0
 49
6.349999999999997
 74
     0
 49
-6.349999999999997
 74
     0
 49
6.349999999999997
 74
     0
 49
-6.349999999999997
 74
     0
  0
LTYPE
  5
1D5
330
5
100
AcDbSymbolTableRecord
100
AcDbLinetypeTableRecord
  2
CENTER
 70
     0
  3
Center ____ _ ____ _ ____ _ ____ _ ____ _ ____
 72
    65
 73
     4
 40
50.8
 49
31.75
 74
     0
 49
-6.349999999999997
 74
     0
 49
6.349999999999997
 74
     0
 49
-6.349999999999997
 74
     0
  0
LTYPE
  5
1D7
330
5
100
AcDbSymbolTableRecord
100
AcDbLinetypeTableRecord
  2
DASHED
 70
     0
  3
Dashed __ __ __ __ __ __ __ __ __ __ __ __ __ _
 72
    65
 73
     2
 40
19.05
 49
12.7
 74
     0
 49
-6.349999999999997
 74
     0
  0
ENDTAB
  0
TABLE
  2
LAYER
  5
2
102
{ACAD_XDICTIONARY
360
11D
102
}
330
0
100
AcDbSymbolTable
 70
     9
  0
LAYER
  5
10
102
{ACAD_XDICTIONARY
360
DDE3
102
}
330
2
100
AcDbSymbolTableRecord
100
AcDbLayerTableRecord
  2
0
 70
     0
 62
     7
  6
Continuous
370
    -3
390
F
347
DD9C
348
0
  0
LAYER
  5
13F
330
2
100
AcDbSymbolTableRecord
100
AcDbLayerTableRecord
  2
Defpoints
 70
     0
 62
     7
  6
Continuous
290
     0
370
    -3
390
F
347
DD9C
348
0
  0
LAYER
  5
1BF
102
{ACAD_XDICTIONARY
360
DDE7
102
}
330
2
100
AcDbSymbolTableRecord
100
AcDbLayerTableRecord
  2
図面枠
 70
     0
 62
     2
  6
Continuous
370
    -3
390
F
347
DD9C
348
0
1001
AcAecLayerStandard
1000

1000

  0
LAYER
  5
1C1
102
{ACAD_XDICTIONARY
360
DDEB
102
}
330
2
100
AcDbSymbolTableRecord
100
AcDbLayerTableRecord
  2
仮想線
 70
     0
 62
     6
  6
PHANTOM
370
    -3
390
F
347
DD9C
348
0
1001
AcAecLayerStandard
1000

1000

  0
LAYER
  5
1C2
102
{ACAD_XDICTIONARY
360
DDED
102
}
330
2
100
AcDbSymbolTableRecord
100
AcDbLayerTableRecord
  2
細線
 70
     0
 62
     3
  6
Continuous
370
    -3
390
F
347
DD9C
348
0
1001
AcAecLayerStandard
1000

1000

  0
LAYER
  5
1C3
102
{ACAD_XDICTIONARY
360
DDEF
102
}
330
2
100
AcDbSymbolTableRecord
100
AcDbLayerTableRecord
  2
寸法線
 70
     0
 62
     2
  6
Continuous
370
    -3
390
F
347
DD9C
348
0
1001
AcAecLayerStandard
1000

1000

  0
LAYER
  5
1C4
102
{ACAD_XDICTIONARY
360
DDF1
102
}
330
2
100
AcDbSymbolTableRecord
100
AcDbLayerTableRecord
  2
中心線
 70
     0
 62
     1
  6
CENTER
370
    -3
390
F
347
DD9C
348
0
1001
AcAecLayerStandard
1000

1000

  0
LAYER
  5
1C5
102
{ACAD_XDICTIONARY
360
DDF3
102
}
330
2
100
AcDbSymbolTableRecord
100
AcDbLayerTableRecord
  2
破線
 70
     0
 62
     4
  6
DASHED
370
    -3
390
F
347
DD9C
348
0
1001
AcAecLayerStandard
1000

1000

  0
LAYER
  5
82E
102
{ACAD_XDICTIONARY
360
DDF5
102
}
330
2
100
AcDbSymbolTableRecord
100
AcDbLayerTableRecord
  2
実線
 70
     0
 62
     7
  6
Continuous
370
    -3
390
F
347
DD9C
348
0
1001
AcAecLayerStandard
1000

1000

  0
ENDTAB
  0
TABLE
  2
STYLE
  5
3
330
0
100
AcDbSymbolTable
 70
     1
  0
STYLE
  5
11
330
3
100
AcDbSymbolTableRecord
100
AcDbTextStyleTableRecord
  2
Standard
 70
     0
 40
0.0
 41
1.0
 50
0.0
 71
     0
 42
25.0
  3
isocp.shx
  4
extfont2.shx
  0
ENDTAB
  0
TABLE
  2
VIEW
  5
6
330
0
100
AcDbSymbolTable
 70
     0
  0
ENDTAB
  0
TABLE
  2
UCS
  5
7
330
0
100
AcDbSymbolTable
 70
     0
  0
ENDTAB
  0
TABLE
  2
APPID
  5
9
330
0
100
AcDbSymbolTable
 70
    18
  0
APPID
  5
12
330
9
100
AcDbSymbolTableRecord
100
AcDbRegAppTableRecord
  2
ACAD
 70
     0
  0
APPID
  5
9E
330
9
100
AcDbSymbolTableRecord
100
AcDbRegAppTableRecord
  2
ACAD_PSEXT
 70
     0
  0
APPID
  5
1BE
330
9
100
AcDbSymbolTableRecord
100
AcDbRegAppTableRecord
  2
AcAecLayerStandard
 70
     0
  0
APPID
  5
1FF
330
9
100
AcDbSymbolTableRecord
100
AcDbRegAppTableRecord
  2
ACAD_EXEMPT_FROM_CAD_STANDARDS
 70
     0
  0
APPID
  5
1318
330
9
100
AcDbSymbolTableRecord
100
AcDbRegAppTableRecord
  2
ACAD_DSTYLE_DIMTEXT_FILL
 70
     0
  0
APPID
  5
1319
330
9
100
AcDbSymbolTableRecord
100
AcDbRegAppTableRecord
  2
ACAD_DSTYLE_DIMEXT_LENGTH
 70
     0
  0
APPID
  5
131A
330
9
100
AcDbSymbolTableRecord
100
AcDbRegAppTableRecord
  2
ACAD_DSTYLE_DIMEXT_ENABLED
 70
     0
  0
APPID
  5
131B
330
9
100
AcDbSymbolTableRecord
100
AcDbRegAppTableRecord
  2
ACAD_DSTYLE_DIM_LINETYPE
 70
     0
  0
APPID
  5
131C
330
9
100
AcDbSymbolTableRecord
100
AcDbRegAppTableRecord
  2
ACAD_DSTYLE_DIM_EXT1_LINETYPE
 70
     0
  0
APPID
  5
131D
330
9
100
AcDbSymbolTableRecord
100
AcDbRegAppTableRecord
  2
ACAD_DSTYLE_DIM_EXT2_LINETYPE
 70
     0
  0
APPID
  5
1439
330
9
100
AcDbSymbolTableRecord
100
AcDbRegAppTableRecord
  2
ACAD_DSTYLE_DIMJOGGED_JOGANGLE_SYMBOL
 70
     0
  0
APPID
  5
1CB2
330
9
100
AcDbSymbolTableRecord
100
AcDbRegAppTableRecord
  2
ACAD_DSTYLE_DIMARC_LENGTH_SYMBOL
 70
     0
  0
APPID
  5
356E
330
9
100
AcDbSymbolTableRecord
100
AcDbRegAppTableRecord
  2
ACAD_DIMASSOC_CALC_DIMLFAC
 70
     0
  0
APPID
  5
356F
330
9
100
AcDbSymbolTableRecord
100
AcDbRegAppTableRecord
  2
ACAD_DIMASSOC_DIMLFAC
 70
     0
  0
APPID
  5
3570
330
9
100
AcDbSymbolTableRecord
100
AcDbRegAppTableRecord
  2
ACAD_DIMASSOC_OVERRIDDEN_DIMLFAC
 70
     0
  0
APPID
  5
DDC9
330
9
100
AcDbSymbolTableRecord
100
AcDbRegAppTableRecord
  2
ACAD_MLEADERVER
 70
     0
  0
APPID
  5
10B33
330
9
100
AcDbSymbolTableRecord
100
AcDbRegAppTableRecord
  2
AcDbBlockRepETag
 70
     0
  0
APPID
  5
10B34
330
9
100
AcDbSymbolTableRecord
100
AcDbRegAppTableRecord
  2
ACAD_NAV_VCDISPLAY
 70
     0
  0
ENDTAB
  0
TABLE
  2
DIMSTYLE
  5
A
330
0
100
AcDbSymbolTable
 70
     1
100
AcDbDimStyleTable
 71
     1
340
C0F
  0
DIMSTYLE
105
C0F
102
{ACAD_REACTORS
330
10FC4
330
10FCD
330
11056
330
11057
330
11058
330
11059
330
1105A
330
1105B
330
1105C
330
1105D
330
11063
330
11064
330
11065
330
11066
330
11067
330
11068
330
1106E
330
1106F
330
11070
330
11071
330
11072
330
11073
330
11074
330
11075
330
11076
330
11077
330
11078
330
11079
330
1107E
330
1107F
330
11080
330
11081
330
11084
330
10ED2
330
10F23
330
10F24
330
10F46
330
10FA3
330
10FA4
330
10DE6
330
10DE7
330
10DE8
330
10DED
330
10DEE
330
10DEF
330
10DF0
330
117A2
102
}
330
A
100
AcDbSymbolTableRecord
100
AcDbDimStyleTableRecord
  2
STANDARD
 70
     0
 40
10.0
 41
2.0
 42
0.875
 43
10.0
 44
1.0
 50
89.99999999999998
 73
     0
 74
     0
 77
     1
 78
     8
140
2.5
141
0.0
147
0.875
172
     1
173
     1
271
     3
272
     3
340
11
341
C08
343
C08
344
C08
1001
ACAD_DSTYLE_DIMJOGGED_JOGANGLE_SYMBOL
1070
   384
1040
1.570796326794896
  0
ENDTAB
  0
TABLE
  2
BLOCK_RECORD
  5
1
330
0
100
AcDbSymbolTable
 70
    48
  0
BLOCK_RECORD
  5
1F
102
{ACAD_XDICTIONARY
360
5C91
102
}
330
1
100
AcDbSymbolTableRecord
100
AcDbBlockTableRecord
  2
*Model_Space
340
22
 70
     0
280
     1
281
     0
  0
BLOCK_RECORD
  5
78D
330
1
100
AcDbSymbolTableRecord
100
AcDbBlockTableRecord
  2
*Paper_Space
340
78E
 70
     0
280
     1
281
     0
  0
BLOCK_RECORD
  5
C08
102
{ACAD_XDICTIONARY
360
DFEB
102
}
330
1
100
AcDbSymbolTableRecord
100
AcDbBlockTableRecord
  2
_OPEN
340
0
102
{BLKREFS
331
115E7
331
115E8
331
115F2
331
115F3
331
115FB
331
115FC
331
11604
331
11605
331
1160D
331
1160E
331
11616
331
11617
331
1161F
331
11620
331
1162A
331
1162B
331
11633
331
11634
331
1163E
331
1163F
331
11649
331
1164A
331
11652
331
11653
331
1158E
331
1158F
331
11597
331
11598
331
115A0
331
115A1
331
115A9
331
115AA
331
115B2
331
115B3
331
115BB
331
115BC
331
115C6
331
115C7
331
115D1
331
115D2
331
115DC
331
115DD
331
1165D
331
1165E
331
11666
331
11667
331
1167C
331
1167D
331
11685
331
11686
331
11690
331
11691
331
11699
331
1169A
331
116A4
331
116A5
331
116AF
331
116B0
331
116BA
331
116BB
331
116C3
331
116C4
331
116CC
331
116CD
331
116D5
331
116D6
331
116DF
331
116E0
331
116E9
331
116EA
331
116F2
331
116F3
331
116FE
331
116FF
331
11707
331
11708
331
11710
331
11711
331
1171A
331
1171B
331
11724
331
11725
331
1172F
331
11730
331
11738
331
11739
331
11743
331
11744
331
1174C
331
1174D
331
11755
331
11756
331
117B6
331
117B7
102
}
 70
     0
280
     1
281
     0
  0
BLOCK_RECORD
  5
11085
330
1
100
AcDbSymbolTableRecord
100
AcDbBlockTableRecord
  2
*D1
340
0
 70
     0
280
     1
281
     0
  0
BLOCK_RECORD
  5
11091
330
1
100
AcDbSymbolTableRecord
100
AcDbBlockTableRecord
  2
*D2
340
0
 70
     0
280
     1
281
     0
  0
BLOCK_RECORD
  5
1109D
330
1
100
AcDbSymbolTableRecord
100
AcDbBlockTableRecord
  2
*D3
340
0
 70
     0
280
     1
281
     0
  0
BLOCK_RECORD
  5
110A9
330
1
100
AcDbSymbolTableRecord
100
AcDbBlockTableRecord
  2
*D4
340
0
 70
     0
280
     1
281
     0
  0
BLOCK_RECORD
  5
110B7
330
1
100
AcDbSymbolTableRecord
100
AcDbBlockTableRecord
  2
*D5
340
0
 70
     0
280
     1
281
     0
  0
BLOCK_RECORD
  5
110C3
330
1
100
AcDbSymbolTableRecord
100
AcDbBlockTableRecord
  2
*D6
340
0
 70
     0
280
     1
281
     0
  0
BLOCK_RECORD
  5
110D1
330
1
100
AcDbSymbolTableRecord
100
AcDbBlockTableRecord
  2
*D7
340
0
 70
     0
280
     1
281
     0
  0
BLOCK_RECORD
  5
110DF
330
1
100
AcDbSymbolTableRecord
100
AcDbBlockTableRecord
  2
*D8
340
0
 70
     0
280
     1
281
     0
  0
BLOCK_RECORD
  5
110EB
330
1
100
AcDbSymbolTableRecord
100
AcDbBlockTableRecord
  2
*D9
340
0
 70
     0
280
     1
281
     0
  0
BLOCK_RECORD
  5
110F9
330
1
100
AcDbSymbolTableRecord
100
AcDbBlockTableRecord
  2
*D10
340
0
 70
     0
280
     1
281
     0
  0
BLOCK_RECORD
  5
11113
330
1
100
AcDbSymbolTableRecord
100
AcDbBlockTableRecord
  2
*D11
340
0
 70
     0
280
     1
281
     0
  0
BLOCK_RECORD
  5
11121
330
1
100
AcDbSymbolTableRecord
100
AcDbBlockTableRecord
  2
*D12
340
0
 70
     0
280
     1
281
     0
  0
BLOCK_RECORD
  5
1112D
330
1
100
AcDbSymbolTableRecord
100
AcDbBlockTableRecord
  2
*D13
340
0
 70
     0
280
     1
281
     0
  0
BLOCK_RECORD
  5
1113B
330
1
100
AcDbSymbolTableRecord
100
AcDbBlockTableRecord
  2
*D14
340
0
 70
     0
280
     1
281
     0
  0
BLOCK_RECORD
  5
11147
330
1
100
AcDbSymbolTableRecord
100
AcDbBlockTableRecord
  2
*D15
340
0
 70
     0
280
     1
281
     0
  0
BLOCK_RECORD
  5
11155
330
1
100
AcDbSymbolTableRecord
100
AcDbBlockTableRecord
  2
*D16
340
0
 70
     0
280
     1
281
     0
  0
BLOCK_RECORD
  5
11163
330
1
100
AcDbSymbolTableRecord
100
AcDbBlockTableRecord
  2
*D17
340
0
 70
     0
280
     1
281
     0
  0
BLOCK_RECORD
  5
11171
330
1
100
AcDbSymbolTableRecord
100
AcDbBlockTableRecord
  2
*D18
340
0
 70
     0
280
     1
281
     0
  0
BLOCK_RECORD
  5
1117D
330
1
100
AcDbSymbolTableRecord
100
AcDbBlockTableRecord
  2
*D19
340
0
 70
     0
280
     1
281
     0
  0
BLOCK_RECORD
  5
11189
330
1
100
AcDbSymbolTableRecord
100
AcDbBlockTableRecord
  2
*D20
340
0
 70
     0
280
     1
281
     0
  0
BLOCK_RECORD
  5
11196
330
1
100
AcDbSymbolTableRecord
100
AcDbBlockTableRecord
  2
*D21
340
0
 70
     0
280
     1
281
     0
  0
BLOCK_RECORD
  5
111A3
330
1
100
AcDbSymbolTableRecord
100
AcDbBlockTableRecord
  2
*D22
340
0
 70
     0
280
     1
281
     0
  0
BLOCK_RECORD
  5
111AF
330
1
100
AcDbSymbolTableRecord
100
AcDbBlockTableRecord
  2
*D23
340
0
 70
     0
280
     1
281
     0
  0
BLOCK_RECORD
  5
111BC
330
1
100
AcDbSymbolTableRecord
100
AcDbBlockTableRecord
  2
*D24
340
0
 70
     0
280
     1
281
     0
  0
BLOCK_RECORD
  5
111CA
330
1
100
AcDbSymbolTableRecord
100
AcDbBlockTableRecord
  2
*D25
340
0
 70
     0
280
     1
281
     0
  0
BLOCK_RECORD
  5
111D6
330
1
100
AcDbSymbolTableRecord
100
AcDbBlockTableRecord
  2
*D26
340
0
 70
     0
280
     1
281
     0
  0
BLOCK_RECORD
  5
111E3
330
1
100
AcDbSymbolTableRecord
100
AcDbBlockTableRecord
  2
*D27
340
0
 70
     0
280
     1
281
     0
  0
BLOCK_RECORD
  5
111F0
330
1
100
AcDbSymbolTableRecord
100
AcDbBlockTableRecord
  2
*D28
340
0
 70
     0
280
     1
281
     0
  0
BLOCK_RECORD
  5
111FC
330
1
100
AcDbSymbolTableRecord
100
AcDbBlockTableRecord
  2
*D29
340
0
 70
     0
280
     1
281
     0
  0
BLOCK_RECORD
  5
1120A
330
1
100
AcDbSymbolTableRecord
100
AcDbBlockTableRecord
  2
*D30
340
0
 70
     0
280
     1
281
     0
  0
BLOCK_RECORD
  5
11216
330
1
100
AcDbSymbolTableRecord
100
AcDbBlockTableRecord
  2
*D31
340
0
 70
     0
280
     1
281
     0
  0
BLOCK_RECORD
  5
11224
330
1
100
AcDbSymbolTableRecord
100
AcDbBlockTableRecord
  2
*D32
340
0
 70
     0
280
     1
281
     0
  0
BLOCK_RECORD
  5
11230
330
1
100
AcDbSymbolTableRecord
100
AcDbBlockTableRecord
  2
*D33
340
0
 70
     0
280
     1
281
     0
  0
BLOCK_RECORD
  5
1123C
330
1
100
AcDbSymbolTableRecord
100
AcDbBlockTableRecord
  2
*D34
340
0
 70
     0
280
     1
281
     0
  0
BLOCK_RECORD
  5
1124A
330
1
100
AcDbSymbolTableRecord
100
AcDbBlockTableRecord
  2
*D35
340
0
 70
     0
280
     1
281
     0
  0
BLOCK_RECORD
  5
11258
330
1
100
AcDbSymbolTableRecord
100
AcDbBlockTableRecord
  2
*D36
340
0
 70
     0
280
     1
281
     0
  0
BLOCK_RECORD
  5
11266
330
1
100
AcDbSymbolTableRecord
100
AcDbBlockTableRecord
  2
*D37
340
0
 70
     0
280
     1
281
     0
  0
BLOCK_RECORD
  5
11274
330
1
100
AcDbSymbolTableRecord
100
AcDbBlockTableRecord
  2
*D38
340
0
 70
     0
280
     1
281
     0
  0
BLOCK_RECORD
  5
11280
330
1
100
AcDbSymbolTableRecord
100
AcDbBlockTableRecord
  2
*D39
340
0
 70
     0
280
     1
281
     0
  0
BLOCK_RECORD
  5
1128C
330
1
100
AcDbSymbolTableRecord
100
AcDbBlockTableRecord
  2
*D40
340
0
 70
     0
280
     1
281
     0
  0
BLOCK_RECORD
  5
11298
330
1
100
AcDbSymbolTableRecord
100
AcDbBlockTableRecord
  2
*D41
340
0
 70
     0
280
     1
281
     0
  0
BLOCK_RECORD
  5
112A4
330
1
100
AcDbSymbolTableRecord
100
AcDbBlockTableRecord
  2
*D42
340
0
 70
     0
280
     1
281
     0
  0
BLOCK_RECORD
  5
112B0
330
1
100
AcDbSymbolTableRecord
100
AcDbBlockTableRecord
  2
*D43
340
0
 70
     0
280
     1
281
     0
  0
BLOCK_RECORD
  5
112BC
330
1
100
AcDbSymbolTableRecord
100
AcDbBlockTableRecord
  2
*D44
340
0
 70
     0
280
     1
281
     0
  0
BLOCK_RECORD
  5
112C8
330
1
100
AcDbSymbolTableRecord
100
AcDbBlockTableRecord
  2
*D45
340
0
 70
     0
280
     1
281
     0
  0
BLOCK_RECORD
  5
112D4
330
1
100
AcDbSymbolTableRecord
100
AcDbBlockTableRecord
  2
*D46
340
0
 70
     0
280
     1
281
     0
  0
BLOCK_RECORD
  5
117A3
330
1
100
AcDbSymbolTableRecord
100
AcDbBlockTableRecord
  2
*D47
340
0
 70
     0
280
     1
281
     0
  0
ENDTAB
  0
ENDSEC
  0
SECTION
  2
BLOCKS
  0
BLOCK
  5
20
330
1F
100
AcDbEntity
  8
0
100
AcDbBlockBegin
  2
*Model_Space
 70
     0
 10
0.0
 20
0.0
 30
0.0
  3
*Model_Space
  1

  0
ENDBLK
  5
21
330
1F
100
AcDbEntity
  8
0
100
AcDbBlockEnd
  0
BLOCK
  5
78F
330
78D
100
AcDbEntity
 67
     1
  8
0
100
AcDbBlockBegin
  2
*Paper_Space
 70
     0
 10
0.0
 20
0.0
 30
0.0
  3
*Paper_Space
  1

  0
ENDBLK
  5
790
330
78D
100
AcDbEntity
 67
     1
  8
0
100
AcDbBlockEnd
  0
BLOCK
  5
C09
330
C08
100
AcDbEntity
  8
0
100
AcDbBlockBegin
  2
_OPEN
 70
     0
 10
0.0
 20
0.0
 30
0.0
  3
_OPEN
  1

  0
LINE
  5
C0A
330
C08
100
AcDbEntity
  8
0
  6
ByBlock
 62
     0
100
AcDbLine
 10
-1.0
 20
0.1666666666666666
 30
0.0
 11
0.0
 21
0.0
 31
0.0
  0
LINE
  5
C0B
330
C08
100
AcDbEntity
  8
0
  6
ByBlock
 62
     0
100
AcDbLine
 10
0.0
 20
0.0
 30
0.0
 11
-1.0
 21
-0.1666666666666666
 31
0.0
  0
LINE
  5
C0C
330
C08
100
AcDbEntity
  8
0
  6
ByBlock
 62
     0
100
AcDbLine
 10
0.0
 20
0.0
 30
0.0
 11
-1.0
 21
0.0
 31
0.0
  0
ENDBLK
  5
C0D
330
C08
100
AcDbEntity
  8
0
100
AcDbBlockEnd
  0
BLOCK
  5
11086
330
11085
100
AcDbEntity
  8
0
100
AcDbBlockBegin
  2
*D1
 70
     1
 10
0.0
 20
0.0
 30
0.0
  3
*D1
  1

  0
LINE
  5
1160A
330
11085
100
AcDbEntity
  8
寸法線
 62
     0
440
 16777216
370
    -2
100
AcDbLine
 10
3607.831356762162
 20
1669.999944170492
 30
0.0
 11
3515.748701803756
 21
1669.999944170492
 31
0.0
  0
LINE
  5
1160B
330
11085
100
AcDbEntity
  8
寸法線
 62
     0
440
 16777216
370
    -2
100
AcDbLine
 10
3572.831355465479
 20
1519.999982630339
 30
0.0
 11
3515.748701803756
 21
1519.999982630339
 31
0.0
  0
LINE
  5
1160C
330
11085
100
AcDbEntity
  8
寸法線
 62
     0
440
 16777216
370
    -2
100
AcDbLine
 10
3525.748701803756
 20
1649.999944170492
 30
0.0
 11
3525.748701803756
 21
1539.999982630339
 31
0.0
  0
INSERT
  5
1160D
330
11085
100
AcDbEntity
  8
寸法線
 62
     0
440
 16777216
370
    -2
100
AcDbBlockReference
  2
_OPEN
 10
3525.748701803756
 20
1669.999944170492
 30
0.0
 41
20.0
 42
20.0
 43
20.0
 50
90.0
  0
INSERT
  5
1160E
330
11085
100
AcDbEntity
  8
寸法線
 62
     0
440
 16777216
370
    -2
100
AcDbBlockReference
  2
_OPEN
 10
3525.748701803756
 20
1519.999982630339
 30
0.0
 41
20.0
 42
20.0
 43
20.0
 50
270.0
  0
MTEXT
  5
1160F
330
11085
100
AcDbEntity
  8
寸法線
 62
     0
440
 16777216
100
AcDbMText
 10
3504.498701803755
 20
1594.999963400414
 30
0.0
 40
25.0
 41
0.0
 46
0.0
 71
     5
 72
     1
  1
\A1;150
 11
0.0000000000000001
 21
1.0
 31
0.0
 73
     1
 44
1.0
  0
POINT
  5
11610
330
11085
100
AcDbEntity
  8
Defpoints
 62
     0
440
 16777216
100
AcDbPoint
 10
3616.581356762162
 20
1669.999944170492
 30
0.0
  0
POINT
  5
11611
330
11085
100
AcDbEntity
  8
Defpoints
 62
     0
440
 16777216
100
AcDbPoint
 10
3581.581355465479
 20
1519.999982630339
 30
0.0
  0
POINT
  5
11612
330
11085
100
AcDbEntity
  8
Defpoints
 62
     0
440
 16777216
100
AcDbPoint
 10
3525.748701803756
 20
1519.999982630339
 30
0.0
  0
ENDBLK
  5
11087
330
11085
100
AcDbEntity
  8
0
100
AcDbBlockEnd
  0
BLOCK
  5
11092
330
11091
100
AcDbEntity
  8
0
100
AcDbBlockBegin
  2
*D2
 70
     1
 10
0.0
 20
0.0
 30
0.0
  3
*D2
  1

  0
LINE
  5
11613
330
11091
100
AcDbEntity
  8
寸法線
 62
     0
440
 16777216
370
    -2
100
AcDbLine
 10
3607.831356762162
 20
1370.000021090187
 30
0.0
 11
3515.748701803757
 21
1370.000021090186
 31
0.0
  0
LINE
  5
11614
330
11091
100
AcDbEntity
  8
寸法線
 62
     0
440
 16777216
370
    -2
100
AcDbLine
 10
3572.831355465479
 20
1519.999982630339
 30
0.0
 11
3515.748701803757
 21
1519.999982630339
 31
0.0
  0
LINE
  5
11615
330
11091
100
AcDbEntity
  8
寸法線
 62
     0
440
 16777216
370
    -2
100
AcDbLine
 10
3525.748701803757
 20
1390.000021090186
 30
0.0
 11
3525.748701803757
 21
1499.999982630339
 31
0.0
  0
INSERT
  5
11616
330
11091
100
AcDbEntity
  8
寸法線
 62
     0
440
 16777216
370
    -2
100
AcDbBlockReference
  2
_OPEN
 10
3525.748701803757
 20
1370.000021090186
 30
0.0
 41
20.0
 42
20.0
 43
20.0
 50
270.0
  0
INSERT
  5
11617
330
11091
100
AcDbEntity
  8
寸法線
 62
     0
440
 16777216
370
    -2
100
AcDbBlockReference
  2
_OPEN
 10
3525.748701803757
 20
1519.999982630339
 30
0.0
 41
20.0
 42
20.0
 43
20.0
 50
90.0
  0
MTEXT
  5
11618
330
11091
100
AcDbEntity
  8
寸法線
 62
     0
440
 16777216
100
AcDbMText
 10
3504.498701803757
 20
1445.000001860261
 30
0.0
 40
25.0
 41
0.0
 46
0.0
 71
     5
 72
     1
  1
\A1;150
 11
0.0000000000000001
 21
1.0
 31
0.0
 73
     1
 44
1.0
  0
POINT
  5
11619
330
11091
100
AcDbEntity
  8
Defpoints
 62
     0
440
 16777216
100
AcDbPoint
 10
3616.581356762162
 20
1370.000021090187
 30
0.0
  0
POINT
  5
1161A
330
11091
100
AcDbEntity
  8
Defpoints
 62
     0
440
 16777216
100
AcDbPoint
 10
3581.581355465479
 20
1519.999982630339
 30
0.0
  0
POINT
  5
1161B
330
11091
100
AcDbEntity
  8
Defpoints
 62
     0
440
 16777216
100
AcDbPoint
 10
3525.748701803757
 20
1519.999982630339
 30
0.0
  0
ENDBLK
  5
11093
330
11091
100
AcDbEntity
  8
0
100
AcDbBlockEnd
  0
BLOCK
  5
1109E
330
1109D
100
AcDbEntity
  8
0
100
AcDbBlockBegin
  2
*D3
 70
     1
 10
0.0
 20
0.0
 30
0.0
  3
*D3
  1

  0
LINE
  5
1161C
330
1109D
100
AcDbEntity
  8
寸法線
 62
     0
440
 16777216
370
    -2
100
AcDbLine
 10
910.0
 20
481.2500182446092
 30
0.0
 11
910.0
 21
360.0000182446092
 31
0.0
  0
LINE
  5
1161D
330
1109D
100
AcDbEntity
  8
寸法線
 62
     0
440
 16777216
370
    -2
100
AcDbLine
 10
1230.0
 20
481.2500182446092
 30
0.0
 11
1230.0
 21
360.0000182446092
 31
0.0
  0
LINE
  5
1161E
330
1109D
100
AcDbEntity
  8
寸法線
 62
     0
440
 16777216
370
    -2
100
AcDbLine
 10
930.0
 20
370.0000182446093
 30
0.0
 11
1210.0
 21
370.0000182446093
 31
0.0
  0
INSERT
  5
1161F
330
1109D
100
AcDbEntity
  8
寸法線
 62
     0
440
 16777216
370
    -2
100
AcDbBlockReference
  2
_OPEN
 10
910.0
 20
370.0000182446093
 30
0.0
 41
20.0
 42
20.0
 43
20.0
 50
180.0
  0
INSERT
  5
11620
330
1109D
100
AcDbEntity
  8
寸法線
 62
     0
440
 16777216
370
    -2
100
AcDbBlockReference
  2
_OPEN
 10
1230.0
 20
370.0000182446093
 30
0.0
 41
20.0
 42
20.0
 43
20.0
  0
MTEXT
  5
11621
330
1109D
100
AcDbEntity
  8
寸法線
 62
     0
440
 16777216
100
AcDbMText
 10
1070.0
 20
391.2524788745305
 30
0.0
 40
25.0
 41
0.0
 46
0.0
 71
     5
 72
     1
  1
\A1;320
 73
     1
 44
1.0
  0
POINT
  5
11622
330
1109D
100
AcDbEntity
  8
Defpoints
 62
     0
440
 16777216
100
AcDbPoint
 10
910.0
 20
490.0000182446092
 30
0.0
  0
POINT
  5
11623
330
1109D
100
AcDbEntity
  8
Defpoints
 62
     0
440
 16777216
100
AcDbPoint
 10
1230.0
 20
490.0000182446092
 30
0.0
  0
POINT
  5
11624
330
1109D
100
AcDbEntity
  8
Defpoints
 62
     0
440
 16777216
100
AcDbPoint
 10
1230.0
 20
370.0000182446093
 30
0.0
  0
ENDBLK
  5
1109F
330
1109D
100
AcDbEntity
  8
0
100
AcDbBlockEnd
  0
BLOCK
  5
110AA
330
110A9
100
AcDbEntity
  8
0
100
AcDbBlockBegin
  2
*D4
 70
     1
 10
0.0
 20
0.0
 30
0.0
  3
*D4
  1

  0
LINE
  5
11625
330
110A9
100
AcDbEntity
  8
寸法線
 62
     0
440
 16777216
370
    -2
100
AcDbLine
 10
1415.999996414961
 20
481.2500182446092
 30
0.0
 11
1415.999996414961
 21
360.0
 31
0.0
  0
LINE
  5
11626
330
110A9
100
AcDbEntity
  8
寸法線
 62
     0
440
 16777216
370
    -2
100
AcDbLine
 10
1447.999996414961
 20
491.25
 30
0.0
 11
1447.999996414961
 21
360.0
 31
0.0
  0
LINE
  5
11627
330
110A9
100
AcDbEntity
  8
寸法線
 62
     0
440
 16777216
370
    -2
100
AcDbLine
 10
1395.999996414961
 20
370.0
 30
0.0
 11
1375.999996414961
 21
370.0
 31
0.0
  0
LINE
  5
11628
330
110A9
100
AcDbEntity
  8
寸法線
 62
     0
440
 16777216
370
    -2
100
AcDbLine
 10
1467.999996414961
 20
370.0
 30
0.0
 11
1487.999996414961
 21
370.0
 31
0.0
  0
LINE
  5
11629
330
110A9
100
AcDbEntity
  8
寸法線
 62
     0
440
 16777216
370
    -2
100
AcDbLine
 10
1415.999996414961
 20
370.0
 30
0.0
 11
1447.999996414961
 21
370.0
 31
0.0
  0
INSERT
  5
1162A
330
110A9
100
AcDbEntity
  8
寸法線
 62
     0
440
 16777216
370
    -2
100
AcDbBlockReference
  2
_OPEN
 10
1415.999996414961
 20
370.0
 30
0.0
 41
20.0
 42
20.0
 43
20.0
  0
INSERT
  5
1162B
330
110A9
100
AcDbEntity
  8
寸法線
 62
     0
440
 16777216
370
    -2
100
AcDbBlockReference
  2
_OPEN
 10
1447.999996414961
 20
370.0
 30
0.0
 41
20.0
 42
20.0
 43
20.0
 50
180.0
  0
MTEXT
  5
1162C
330
110A9
100
AcDbEntity
  8
寸法線
 62
     0
440
 16777216
100
AcDbMText
 10
1431.999996414961
 20
391.2524606299212
 30
0.0
 40
25.0
 41
0.0
 46
0.0
 71
     5
 72
     1
  1
\A1;32
 73
     1
 44
1.0
  0
POINT
  5
1162D
330
110A9
100
AcDbEntity
  8
Defpoints
 62
     0
440
 16777216
100
AcDbPoint
 10
1415.999996414961
 20
490.0000182446092
 30
0.0
  0
POINT
  5
1162E
330
110A9
100
AcDbEntity
  8
Defpoints
 62
     0
440
 16777216
100
AcDbPoint
 10
1447.999996414961
 20
500.0
 30
0.0
  0
POINT
  5
1162F
330
110A9
100
AcDbEntity
  8
Defpoints
 62
     0
440
 16777216
100
AcDbPoint
 10
1447.999996414961
 20
370.0
 30
0.0
  0
ENDBLK
  5
110AB
330
110A9
100
AcDbEntity
  8
0
100
AcDbBlockEnd
  0
BLOCK
  5
110B8
330
110B7
100
AcDbEntity
  8
0
100
AcDbBlockBegin
  2
*D5
 70
     1
 10
0.0
 20
0.0
 30
0.0
  3
*D5
  1

  0
LINE
  5
11630
330
110B7
100
AcDbEntity
  8
寸法線
 62
     0
440
 16777216
370
    -2
100
AcDbLine
 10
1447.999996414961
 20
491.25
 30
0.0
 11
1447.999996414961
 21
360.0
 31
0.0
  0
LINE
  5
11631
330
110B7
100
AcDbEntity
  8
寸法線
 62
     0
440
 16777216
370
    -2
100
AcDbLine
 10
1751.999996414961
 20
491.25
 30
0.0
 11
1751.999996414961
 21
360.0
 31
0.0
  0
LINE
  5
11632
330
110B7
100
AcDbEntity
  8
寸法線
 62
     0
440
 16777216
370
    -2
100
AcDbLine
 10
1467.999996414961
 20
370.0
 30
0.0
 11
1731.999996414961
 21
370.0
 31
0.0
  0
INSERT
  5
11633
330
110B7
100
AcDbEntity
  8
寸法線
 62
     0
440
 16777216
370
    -2
100
AcDbBlockReference
  2
_OPEN
 10
1447.999996414961
 20
370.0
 30
0.0
 41
20.0
 42
20.0
 43
20.0
 50
180.0
  0
INSERT
  5
11634
330
110B7
100
AcDbEntity
  8
寸法線
 62
     0
440
 16777216
370
    -2
100
AcDbBlockReference
  2
_OPEN
 10
1751.999996414961
 20
370.0
 30
0.0
 41
20.0
 42
20.0
 43
20.0
  0
MTEXT
  5
11635
330
110B7
100
AcDbEntity
  8
寸法線
 62
     0
440
 16777216
100
AcDbMText
 10
1599.999996414961
 20
391.25
 30
0.0
 40
25.0
 41
0.0
 46
0.0
 71
     5
 72
     1
  1
\A1;304
 73
     1
 44
1.0
  0
POINT
  5
11636
330
110B7
100
AcDbEntity
  8
Defpoints
 62
     0
440
 16777216
100
AcDbPoint
 10
1447.999996414961
 20
500.0
 30
0.0
  0
POINT
  5
11637
330
110B7
100
AcDbEntity
  8
Defpoints
 62
     0
440
 16777216
100
AcDbPoint
 10
1751.999996414961
 20
500.0
 30
0.0
  0
POINT
  5
11638
330
110B7
100
AcDbEntity
  8
Defpoints
 62
     0
440
 16777216
100
AcDbPoint
 10
1751.999996414961
 20
370.0
 30
0.0
  0
ENDBLK
  5
110B9
330
110B7
100
AcDbEntity
  8
0
100
AcDbBlockEnd
  0
BLOCK
  5
110C4
330
110C3
100
AcDbEntity
  8
0
100
AcDbBlockBegin
  2
*D6
 70
     1
 10
0.0
 20
0.0
 30
0.0
  3
*D6
  1

  0
LINE
  5
11639
330
110C3
100
AcDbEntity
  8
寸法線
 62
     0
440
 16777216
370
    -2
100
AcDbLine
 10
1751.999996414961
 20
491.25
 30
0.0
 11
1751.999996414961
 21
360.0
 31
0.0
  0
LINE
  5
1163A
330
110C3
100
AcDbEntity
  8
寸法線
 62
     0
440
 16777216
370
    -2
100
AcDbLine
 10
1783.999996414961
 20
481.2500182446092
 30
0.0
 11
1783.999996414961
 21
360.0
 31
0.0
  0
LINE
  5
1163B
330
110C3
100
AcDbEntity
  8
寸法線
 62
     0
440
 16777216
370
    -2
100
AcDbLine
 10
1731.999996414961
 20
370.0
 30
0.0
 11
1711.999996414961
 21
370.0
 31
0.0
  0
LINE
  5
1163C
330
110C3
100
AcDbEntity
  8
寸法線
 62
     0
440
 16777216
370
    -2
100
AcDbLine
 10
1803.999996414961
 20
370.0
 30
0.0
 11
1823.999996414961
 21
370.0
 31
0.0
  0
LINE
  5
1163D
330
110C3
100
AcDbEntity
  8
寸法線
 62
     0
440
 16777216
370
    -2
100
AcDbLine
 10
1751.999996414961
 20
370.0
 30
0.0
 11
1783.999996414961
 21
370.0
 31
0.0
  0
INSERT
  5
1163E
330
110C3
100
AcDbEntity
  8
寸法線
 62
     0
440
 16777216
370
    -2
100
AcDbBlockReference
  2
_OPEN
 10
1751.999996414961
 20
370.0
 30
0.0
 41
20.0
 42
20.0
 43
20.0
  0
INSERT
  5
1163F
330
110C3
100
AcDbEntity
  8
寸法線
 62
     0
440
 16777216
370
    -2
100
AcDbBlockReference
  2
_OPEN
 10
1783.999996414961
 20
370.0
 30
0.0
 41
20.0
 42
20.0
 43
20.0
 50
180.0
  0
MTEXT
  5
11640
330
110C3
100
AcDbEntity
  8
寸法線
 62
     0
440
 16777216
100
AcDbMText
 10
1767.999996414961
 20
391.2524606299212
 30
0.0
 40
25.0
 41
0.0
 46
0.0
 71
     5
 72
     1
  1
\A1;32
 73
     1
 44
1.0
  0
POINT
  5
11641
330
110C3
100
AcDbEntity
  8
Defpoints
 62
     0
440
 16777216
100
AcDbPoint
 10
1751.999996414961
 20
500.0
 30
0.0
  0
POINT
  5
11642
330
110C3
100
AcDbEntity
  8
Defpoints
 62
     0
440
 16777216
100
AcDbPoint
 10
1783.999996414961
 20
490.0000182446092
 30
0.0
  0
POINT
  5
11643
330
110C3
100
AcDbEntity
  8
Defpoints
 62
     0
440
 16777216
100
AcDbPoint
 10
1783.999996414961
 20
370.0
 30
0.0
  0
ENDBLK
  5
110C5
330
110C3
100
AcDbEntity
  8
0
100
AcDbBlockEnd
  0
BLOCK
  5
110D2
330
110D1
100
AcDbEntity
  8
0
100
AcDbBlockBegin
  2
*D7
 70
     1
 10
0.0
 20
0.0
 30
0.0
  3
*D7
  1

  0
LINE
  5
11644
330
110D1
100
AcDbEntity
  8
寸法線
 62
     0
440
 16777216
370
    -2
100
AcDbLine
 10
1399.999996414961
 20
481.25
 30
0.0
 11
1399.999996414961
 21
280.0
 31
0.0
  0
LINE
  5
11645
330
110D1
100
AcDbEntity
  8
寸法線
 62
     0
440
 16777216
370
    -2
100
AcDbLine
 10
1415.999996414961
 20
481.25
 30
0.0
 11
1415.999996414961
 21
280.0
 31
0.0
  0
LINE
  5
11646
330
110D1
100
AcDbEntity
  8
寸法線
 62
     0
440
 16777216
370
    -2
100
AcDbLine
 10
1379.999996414961
 20
290.0
 30
0.0
 11
1359.999996414961
 21
290.0
 31
0.0
  0
LINE
  5
11647
330
110D1
100
AcDbEntity
  8
寸法線
 62
     0
440
 16777216
370
    -2
100
AcDbLine
 10
1435.999996414961
 20
290.0
 30
0.0
 11
1455.999996414961
 21
290.0
 31
0.0
  0
LINE
  5
11648
330
110D1
100
AcDbEntity
  8
寸法線
 62
     0
440
 16777216
370
    -2
100
AcDbLine
 10
1399.999996414961
 20
290.0
 30
0.0
 11
1415.999996414961
 21
290.0
 31
0.0
  0
INSERT
  5
11649
330
110D1
100
AcDbEntity
  8
寸法線
 62
     0
440
 16777216
370
    -2
100
AcDbBlockReference
  2
_OPEN
 10
1399.999996414961
 20
290.0
 30
0.0
 41
20.0
 42
20.0
 43
20.0
  0
INSERT
  5
1164A
330
110D1
100
AcDbEntity
  8
寸法線
 62
     0
440
 16777216
370
    -2
100
AcDbBlockReference
  2
_OPEN
 10
1415.999996414961
 20
290.0
 30
0.0
 41
20.0
 42
20.0
 43
20.0
 50
180.0
  0
MTEXT
  5
1164B
330
110D1
100
AcDbEntity
  8
寸法線
 62
     0
440
 16777216
100
AcDbMText
 10
1407.999996414961
 20
311.25
 30
0.0
 40
25.0
 41
0.0
 46
0.0
 71
     5
 72
     1
  1
\A1;16
 73
     1
 44
1.0
  0
POINT
  5
1164C
330
110D1
100
AcDbEntity
  8
Defpoints
 62
     0
440
 16777216
100
AcDbPoint
 10
1399.999996414961
 20
490.0
 30
0.0
  0
POINT
  5
1164D
330
110D1
100
AcDbEntity
  8
Defpoints
 62
     0
440
 16777216
100
AcDbPoint
 10
1415.999996414961
 20
490.0
 30
0.0
  0
POINT
  5
1164E
330
110D1
100
AcDbEntity
  8
Defpoints
 62
     0
440
 16777216
100
AcDbPoint
 10
1415.999996414961
 20
290.0
 30
0.0
  0
ENDBLK
  5
110D3
330
110D1
100
AcDbEntity
  8
0
100
AcDbBlockEnd
  0
BLOCK
  5
110E0
330
110DF
100
AcDbEntity
  8
0
100
AcDbBlockBegin
  2
*D8
 70
     1
 10
0.0
 20
0.0
 30
0.0
  3
*D8
  1

  0
LINE
  5
1164F
330
110DF
100
AcDbEntity
  8
寸法線
 62
     0
440
 16777216
370
    -2
100
AcDbLine
 10
1415.999996414961
 20
481.2500182446092
 30
0.0
 11
1415.999996414961
 21
280.0
 31
0.0
  0
LINE
  5
11650
330
110DF
100
AcDbEntity
  8
寸法線
 62
     0
440
 16777216
370
    -2
100
AcDbLine
 10
1783.999996414961
 20
481.25
 30
0.0
 11
1783.999996414961
 21
280.0
 31
0.0
  0
LINE
  5
11651
330
110DF
100
AcDbEntity
  8
寸法線
 62
     0
440
 16777216
370
    -2
100
AcDbLine
 10
1435.999996414961
 20
290.0
 30
0.0
 11
1763.999996414961
 21
290.0
 31
0.0
  0
INSERT
  5
11652
330
110DF
100
AcDbEntity
  8
寸法線
 62
     0
440
 16777216
370
    -2
100
AcDbBlockReference
  2
_OPEN
 10
1415.999996414961
 20
290.0
 30
0.0
 41
20.0
 42
20.0
 43
20.0
 50
180.0
  0
INSERT
  5
11653
330
110DF
100
AcDbEntity
  8
寸法線
 62
     0
440
 16777216
370
    -2
100
AcDbBlockReference
  2
_OPEN
 10
1783.999996414961
 20
290.0
 30
0.0
 41
20.0
 42
20.0
 43
20.0
  0
MTEXT
  5
11654
330
110DF
100
AcDbEntity
  8
寸法線
 62
     0
440
 16777216
100
AcDbMText
 10
1599.999996414961
 20
311.25
 30
0.0
 40
25.0
 41
0.0
 46
0.0
 71
     5
 72
     1
  1
\A1;368
 73
     1
 44
1.0
  0
POINT
  5
11655
330
110DF
100
AcDbEntity
  8
Defpoints
 62
     0
440
 16777216
100
AcDbPoint
 10
1415.999996414961
 20
490.0000182446092
 30
0.0
  0
POINT
  5
11656
330
110DF
100
AcDbEntity
  8
Defpoints
 62
     0
440
 16777216
100
AcDbPoint
 10
1783.999996414961
 20
490.0
 30
0.0
  0
POINT
  5
11657
330
110DF
100
AcDbEntity
  8
Defpoints
 62
     0
440
 16777216
100
AcDbPoint
 10
1783.999996414961
 20
290.0
 30
0.0
  0
ENDBLK
  5
110E1
330
110DF
100
AcDbEntity
  8
0
100
AcDbBlockEnd
  0
BLOCK
  5
110EC
330
110EB
100
AcDbEntity
  8
0
100
AcDbBlockBegin
  2
*D9
 70
     1
 10
0.0
 20
0.0
 30
0.0
  3
*D9
  1

  0
LINE
  5
11658
330
110EB
100
AcDbEntity
  8
寸法線
 62
     0
440
 16777216
370
    -2
100
AcDbLine
 10
1783.999996414961
 20
481.25
 30
0.0
 11
1783.999996414961
 21
280.0
 31
0.0
  0
LINE
  5
11659
330
110EB
100
AcDbEntity
  8
寸法線
 62
     0
440
 16777216
370
    -2
100
AcDbLine
 10
1799.999996414961
 20
481.25
 30
0.0
 11
1799.999996414961
 21
280.0
 31
0.0
  0
LINE
  5
1165A
330
110EB
100
AcDbEntity
  8
寸法線
 62
     0
440
 16777216
370
    -2
100
AcDbLine
 10
1763.999996414961
 20
290.0
 30
0.0
 11
1743.999996414961
 21
290.0
 31
0.0
  0
LINE
  5
1165B
330
110EB
100
AcDbEntity
  8
寸法線
 62
     0
440
 16777216
370
    -2
100
AcDbLine
 10
1819.999996414961
 20
290.0
 30
0.0
 11
1839.999996414961
 21
290.0
 31
0.0
  0
LINE
  5
1165C
330
110EB
100
AcDbEntity
  8
寸法線
 62
     0
440
 16777216
370
    -2
100
AcDbLine
 10
1783.999996414961
 20
290.0
 30
0.0
 11
1799.999996414961
 21
290.0
 31
0.0
  0
INSERT
  5
1165D
330
110EB
100
AcDbEntity
  8
寸法線
 62
     0
440
 16777216
370
    -2
100
AcDbBlockReference
  2
_OPEN
 10
1783.999996414961
 20
290.0
 30
0.0
 41
20.0
 42
20.0
 43
20.0
  0
INSERT
  5
1165E
330
110EB
100
AcDbEntity
  8
寸法線
 62
     0
440
 16777216
370
    -2
100
AcDbBlockReference
  2
_OPEN
 10
1799.999996414961
 20
290.0
 30
0.0
 41
20.0
 42
20.0
 43
20.0
 50
180.0
  0
MTEXT
  5
1165F
330
110EB
100
AcDbEntity
  8
寸法線
 62
     0
440
 16777216
100
AcDbMText
 10
1791.999996414961
 20
311.25
 30
0.0
 40
25.0
 41
0.0
 46
0.0
 71
     5
 72
     1
  1
\A1;16
 73
     1
 44
1.0
  0
POINT
  5
11660
330
110EB
100
AcDbEntity
  8
Defpoints
 62
     0
440
 16777216
100
AcDbPoint
 10
1783.999996414961
 20
490.0
 30
0.0
  0
POINT
  5
11661
330
110EB
100
AcDbEntity
  8
Defpoints
 62
     0
440
 16777216
100
AcDbPoint
 10
1799.999996414961
 20
490.0
 30
0.0
  0
POINT
  5
11662
330
110EB
100
AcDbEntity
  8
Defpoints
 62
     0
440
 16777216
100
AcDbPoint
 10
1799.999996414961
 20
290.0
 30
0.0
  0
ENDBLK
  5
110ED
330
110EB
100
AcDbEntity
  8
0
100
AcDbBlockEnd
  0
BLOCK
  5
110FA
330
110F9
100
AcDbEntity
  8
0
100
AcDbBlockBegin
  2
*D10
 70
     1
 10
0.0
 20
0.0
 30
0.0
  3
*D10
  1

  0
LINE
  5
11663
330
110F9
100
AcDbEntity
  8
寸法線
 62
     0
440
 16777216
370
    -2
100
AcDbLine
 10
1399.999996414961
 20
481.25
 30
0.0
 11
1399.999996414961
 21
200.0
 31
0.0
  0
LINE
  5
11664
330
110F9
100
AcDbEntity
  8
寸法線
 62
     0
440
 16777216
370
    -2
100
AcDbLine
 10
1799.999996414961
 20
481.25
 30
0.0
 11
1799.999996414961
 21
200.0
 31
0.0
  0
LINE
  5
11665
330
110F9
100
AcDbEntity
  8
寸法線
 62
     0
440
 16777216
370
    -2
100
AcDbLine
 10
1419.999996414961
 20
210.0
 30
0.0
 11
1779.999996414961
 21
210.0
 31
0.0
  0
INSERT
  5
11666
330
110F9
100
AcDbEntity
  8
寸法線
 62
     0
440
 16777216
370
    -2
100
AcDbBlockReference
  2
_OPEN
 10
1399.999996414961
 20
210.0
 30
0.0
 41
20.0
 42
20.0
 43
20.0
 50
180.0
  0
INSERT
  5
11667
330
110F9
100
AcDbEntity
  8
寸法線
 62
     0
440
 16777216
370
    -2
100
AcDbBlockReference
  2
_OPEN
 10
1799.999996414961
 20
210.0
 30
0.0
 41
20.0
 42
20.0
 43
20.0
  0
MTEXT
  5
11668
330
110F9
100
AcDbEntity
  8
寸法線
 62
     0
440
 16777216
100
AcDbMText
 10
1599.999996414961
 20
231.25
 30
0.0
 40
25.0
 41
0.0
 46
0.0
 71
     5
 72
     1
  1
\A1;400
 73
     1
 44
1.0
  0
POINT
  5
11669
330
110F9
100
AcDbEntity
  8
Defpoints
 62
     0
440
 16777216
100
AcDbPoint
 10
1399.999996414961
 20
490.0
 30
0.0
  0
POINT
  5
1166A
330
110F9
100
AcDbEntity
  8
Defpoints
 62
     0
440
 16777216
100
AcDbPoint
 10
1799.999996414961
 20
490.0
 30
0.0
  0
POINT
  5
1166B
330
110F9
100
AcDbEntity
  8
Defpoints
 62
     0
440
 16777216
100
AcDbPoint
 10
1799.999996414961
 20
210.0
 30
0.0
  0
ENDBLK
  5
110FB
330
110F9
100
AcDbEntity
  8
0
100
AcDbBlockEnd
  0
BLOCK
  5
11114
330
11113
100
AcDbEntity
  8
0
100
AcDbBlockBegin
  2
*D11
 70
     1
 10
0.0
 20
0.0
 30
0.0
  3
*D11
  1

  0
LINE
  5
11677
330
11113
100
AcDbEntity
  8
寸法線
 62
     0
440
 16777216
370
    -2
100
AcDbLine
 10
1970.0
 20
481.2500182446092
 30
0.0
 11
1970.0
 21
360.0000182446092
 31
0.0
  0
LINE
  5
11678
330
11113
100
AcDbEntity
  8
寸法線
 62
     0
440
 16777216
370
    -2
100
AcDbLine
 10
2005.000399031124
 20
466.2504132727917
 30
0.0
 11
2005.000399031124
 21
360.0000182446092
 31
0.0
  0
LINE
  5
11679
330
11113
100
AcDbEntity
  8
寸法線
 62
     0
440
 16777216
370
    -2
100
AcDbLine
 10
1950.0
 20
370.0000182446093
 30
0.0
 11
1930.0
 21
370.0000182446093
 31
0.0
  0
LINE
  5
1167A
330
11113
100
AcDbEntity
  8
寸法線
 62
     0
440
 16777216
370
    -2
100
AcDbLine
 10
2025.000399031124
 20
370.0000182446093
 30
0.0
 11
2045.000399031124
 21
370.0000182446093
 31
0.0
  0
LINE
  5
1167B
330
11113
100
AcDbEntity
  8
寸法線
 62
     0
440
 16777216
370
    -2
100
AcDbLine
 10
1970.0
 20
370.0000182446093
 30
0.0
 11
2005.000399031124
 21
370.0000182446093
 31
0.0
  0
INSERT
  5
1167C
330
11113
100
AcDbEntity
  8
寸法線
 62
     0
440
 16777216
370
    -2
100
AcDbBlockReference
  2
_OPEN
 10
1970.0
 20
370.0000182446093
 30
0.0
 41
20.0
 42
20.0
 43
20.0
  0
INSERT
  5
1167D
330
11113
100
AcDbEntity
  8
寸法線
 62
     0
440
 16777216
370
    -2
100
AcDbBlockReference
  2
_OPEN
 10
2005.000399031124
 20
370.0000182446093
 30
0.0
 41
20.0
 42
20.0
 43
20.0
 50
180.0
  0
MTEXT
  5
1167E
330
11113
100
AcDbEntity
  8
寸法線
 62
     0
440
 16777216
100
AcDbMText
 10
1987.500199515562
 20
391.2500182446093
 30
0.0
 40
25.0
 41
0.0
 46
0.0
 71
     5
 72
     1
  1
\A1;35
 73
     1
 44
1.0
  0
POINT
  5
1167F
330
11113
100
AcDbEntity
  8
Defpoints
 62
     0
440
 16777216
100
AcDbPoint
 10
1970.0
 20
490.0000182446092
 30
0.0
  0
POINT
  5
11680
330
11113
100
AcDbEntity
  8
Defpoints
 62
     0
440
 16777216
100
AcDbPoint
 10
2005.000399031124
 20
475.0004132727918
 30
0.0
  0
POINT
  5
11681
330
11113
100
AcDbEntity
  8
Defpoints
 62
     0
440
 16777216
100
AcDbPoint
 10
2005.000399031124
 20
370.0000182446093
 30
0.0
  0
ENDBLK
  5
11115
330
11113
100
AcDbEntity
  8
0
100
AcDbBlockEnd
  0
BLOCK
  5
11122
330
11121
100
AcDbEntity
  8
0
100
AcDbBlockBegin
  2
*D12
 70
     1
 10
0.0
 20
0.0
 30
0.0
  3
*D12
  1

  0
LINE
  5
11682
330
11121
100
AcDbEntity
  8
寸法線
 62
     0
440
 16777216
370
    -2
100
AcDbLine
 10
2005.000399031124
 20
466.2504132727917
 30
0.0
 11
2005.000399031124
 21
360.0000182446092
 31
0.0
  0
LINE
  5
11683
330
11121
100
AcDbEntity
  8
寸法線
 62
     0
440
 16777216
370
    -2
100
AcDbLine
 10
2255.000399031124
 20
466.2504132727917
 30
0.0
 11
2255.000399031124
 21
360.0000182446092
 31
0.0
  0
LINE
  5
11684
330
11121
100
AcDbEntity
  8
寸法線
 62
     0
440
 16777216
370
    -2
100
AcDbLine
 10
2025.000399031124
 20
370.0000182446093
 30
0.0
 11
2235.000399031124
 21
370.0000182446093
 31
0.0
  0
INSERT
  5
11685
330
11121
100
AcDbEntity
  8
寸法線
 62
     0
440
 16777216
370
    -2
100
AcDbBlockReference
  2
_OPEN
 10
2005.000399031124
 20
370.0000182446093
 30
0.0
 41
20.0
 42
20.0
 43
20.0
 50
180.0
  0
INSERT
  5
11686
330
11121
100
AcDbEntity
  8
寸法線
 62
     0
440
 16777216
370
    -2
100
AcDbBlockReference
  2
_OPEN
 10
2255.000399031124
 20
370.0000182446093
 30
0.0
 41
20.0
 42
20.0
 43
20.0
  0
MTEXT
  5
11687
330
11121
100
AcDbEntity
  8
寸法線
 62
     0
440
 16777216
100
AcDbMText
 10
2130.000399031124
 20
391.2524788745305
 30
0.0
 40
25.0
 41
0.0
 46
0.0
 71
     5
 72
     1
  1
\A1;250
 73
     1
 44
1.0
  0
POINT
  5
11688
330
11121
100
AcDbEntity
  8
Defpoints
 62
     0
440
 16777216
100
AcDbPoint
 10
2005.000399031124
 20
475.0004132727918
 30
0.0
  0
POINT
  5
11689
330
11121
100
AcDbEntity
  8
Defpoints
 62
     0
440
 16777216
100
AcDbPoint
 10
2255.000399031124
 20
475.0004132727918
 30
0.0
  0
POINT
  5
1168A
330
11121
100
AcDbEntity
  8
Defpoints
 62
     0
440
 16777216
100
AcDbPoint
 10
2255.000399031124
 20
370.0000182446093
 30
0.0
  0
ENDBLK
  5
11123
330
11121
100
AcDbEntity
  8
0
100
AcDbBlockEnd
  0
BLOCK
  5
1112E
330
1112D
100
AcDbEntity
  8
0
100
AcDbBlockBegin
  2
*D13
 70
     1
 10
0.0
 20
0.0
 30
0.0
  3
*D13
  1

  0
LINE
  5
1168B
330
1112D
100
AcDbEntity
  8
寸法線
 62
     0
440
 16777216
370
    -2
100
AcDbLine
 10
2255.000399031124
 20
466.2504132727917
 30
0.0
 11
2255.000399031124
 21
360.0000182446092
 31
0.0
  0
LINE
  5
1168C
330
1112D
100
AcDbEntity
  8
寸法線
 62
     0
440
 16777216
370
    -2
100
AcDbLine
 10
2290.0
 20
481.2500182446092
 30
0.0
 11
2290.0
 21
360.0000182446092
 31
0.0
  0
LINE
  5
1168D
330
1112D
100
AcDbEntity
  8
寸法線
 62
     0
440
 16777216
370
    -2
100
AcDbLine
 10
2235.000399031124
 20
370.0000182446093
 30
0.0
 11
2215.000399031124
 21
370.0000182446093
 31
0.0
  0
LINE
  5
1168E
330
1112D
100
AcDbEntity
  8
寸法線
 62
     0
440
 16777216
370
    -2
100
AcDbLine
 10
2310.0
 20
370.0000182446093
 30
0.0
 11
2330.0
 21
370.0000182446093
 31
0.0
  0
LINE
  5
1168F
330
1112D
100
AcDbEntity
  8
寸法線
 62
     0
440
 16777216
370
    -2
100
AcDbLine
 10
2255.000399031124
 20
370.0000182446093
 30
0.0
 11
2290.0
 21
370.0000182446093
 31
0.0
  0
INSERT
  5
11690
330
1112D
100
AcDbEntity
  8
寸法線
 62
     0
440
 16777216
370
    -2
100
AcDbBlockReference
  2
_OPEN
 10
2255.000399031124
 20
370.0000182446093
 30
0.0
 41
20.0
 42
20.0
 43
20.0
  0
INSERT
  5
11691
330
1112D
100
AcDbEntity
  8
寸法線
 62
     0
440
 16777216
370
    -2
100
AcDbBlockReference
  2
_OPEN
 10
2290.0
 20
370.0000182446093
 30
0.0
 41
20.0
 42
20.0
 43
20.0
 50
180.0
  0
MTEXT
  5
11692
330
1112D
100
AcDbEntity
  8
寸法線
 62
     0
440
 16777216
100
AcDbMText
 10
2272.500199515562
 20
391.2500182446093
 30
0.0
 40
25.0
 41
0.0
 46
0.0
 71
     5
 72
     1
  1
\A1;35
 73
     1
 44
1.0
  0
POINT
  5
11693
330
1112D
100
AcDbEntity
  8
Defpoints
 62
     0
440
 16777216
100
AcDbPoint
 10
2255.000399031124
 20
475.0004132727918
 30
0.0
  0
POINT
  5
11694
330
1112D
100
AcDbEntity
  8
Defpoints
 62
     0
440
 16777216
100
AcDbPoint
 10
2290.0
 20
490.0000182446092
 30
0.0
  0
POINT
  5
11695
330
1112D
100
AcDbEntity
  8
Defpoints
 62
     0
440
 16777216
100
AcDbPoint
 10
2290.0
 20
370.0000182446093
 30
0.0
  0
ENDBLK
  5
1112F
330
1112D
100
AcDbEntity
  8
0
100
AcDbBlockEnd
  0
BLOCK
  5
1113C
330
1113B
100
AcDbEntity
  8
0
100
AcDbBlockBegin
  2
*D14
 70
     1
 10
0.0
 20
0.0
 30
0.0
  3
*D14
  1

  0
LINE
  5
11696
330
1113B
100
AcDbEntity
  8
寸法線
 62
     0
440
 16777216
370
    -2
100
AcDbLine
 10
2313.750399031124
 20
525.0004132727919
 30
0.0
 11
2420.000000000001
 21
525.0004132727919
 31
0.0
  0
LINE
  5
11697
330
1113B
100
AcDbEntity
  8
寸法線
 62
     0
440
 16777216
370
    -2
100
AcDbLine
 10
2313.750399031124
 20
775.0004132727922
 30
0.0
 11
2420.000000000001
 21
775.0004132727922
 31
0.0
  0
LINE
  5
11698
330
1113B
100
AcDbEntity
  8
寸法線
 62
     0
440
 16777216
370
    -2
100
AcDbLine
 10
2410.000000000001
 20
545.000413272792
 30
0.0
 11
2410.000000000001
 21
755.0004132727921
 31
0.0
  0
INSERT
  5
11699
330
1113B
100
AcDbEntity
  8
寸法線
 62
     0
440
 16777216
370
    -2
100
AcDbBlockReference
  2
_OPEN
 10
2410.000000000001
 20
525.0004132727919
 30
0.0
 41
20.0
 42
20.0
 43
20.0
 50
270.0
  0
INSERT
  5
1169A
330
1113B
100
AcDbEntity
  8
寸法線
 62
     0
440
 16777216
370
    -2
100
AcDbBlockReference
  2
_OPEN
 10
2410.000000000001
 20
775.0004132727922
 30
0.0
 41
20.0
 42
20.0
 43
20.0
 50
90.0
  0
MTEXT
  5
1169B
330
1113B
100
AcDbEntity
  8
寸法線
 62
     0
440
 16777216
100
AcDbMText
 10
2388.747539370079
 20
650.0004132727918
 30
0.0
 40
25.0
 41
0.0
 46
0.0
 71
     5
 72
     1
  1
\A1;250
 11
0.0000000000000001
 21
1.0
 31
0.0
 73
     1
 44
1.0
  0
POINT
  5
1169C
330
1113B
100
AcDbEntity
  8
Defpoints
 62
     0
440
 16777216
100
AcDbPoint
 10
2305.000399031124
 20
525.0004132727919
 30
0.0
  0
POINT
  5
1169D
330
1113B
100
AcDbEntity
  8
Defpoints
 62
     0
440
 16777216
100
AcDbPoint
 10
2305.000399031124
 20
775.0004132727922
 30
0.0
  0
POINT
  5
1169E
330
1113B
100
AcDbEntity
  8
Defpoints
 62
     0
440
 16777216
100
AcDbPoint
 10
2410.000000000001
 20
775.0004132727922
 30
0.0
  0
ENDBLK
  5
1113D
330
1113B
100
AcDbEntity
  8
0
100
AcDbBlockEnd
  0
BLOCK
  5
11148
330
11147
100
AcDbEntity
  8
0
100
AcDbBlockBegin
  2
*D15
 70
     1
 10
0.0
 20
0.0
 30
0.0
  3
*D15
  1

  0
LINE
  5
1169F
330
11147
100
AcDbEntity
  8
寸法線
 62
     0
440
 16777216
370
    -2
100
AcDbLine
 10
2298.750000000001
 20
490.0000182446095
 30
0.0
 11
2420.000000000001
 21
490.0000182446095
 31
0.0
  0
LINE
  5
116A0
330
11147
100
AcDbEntity
  8
寸法線
 62
     0
440
 16777216
370
    -2
100
AcDbLine
 10
2313.750399031124
 20
525.0004132727919
 30
0.0
 11
2420.000000000001
 21
525.0004132727919
 31
0.0
  0
LINE
  5
116A1
330
11147
100
AcDbEntity
  8
寸法線
 62
     0
440
 16777216
370
    -2
100
AcDbLine
 10
2410.000000000001
 20
470.0000182446094
 30
0.0
 11
2410.000000000001
 21
450.0000182446094
 31
0.0
  0
LINE
  5
116A2
330
11147
100
AcDbEntity
  8
寸法線
 62
     0
440
 16777216
370
    -2
100
AcDbLine
 10
2410.000000000001
 20
545.000413272792
 30
0.0
 11
2410.000000000001
 21
565.000413272792
 31
0.0
  0
LINE
  5
116A3
330
11147
100
AcDbEntity
  8
寸法線
 62
     0
440
 16777216
370
    -2
100
AcDbLine
 10
2410.000000000001
 20
490.0000182446095
 30
0.0
 11
2410.000000000001
 21
525.0004132727919
 31
0.0
  0
INSERT
  5
116A4
330
11147
100
AcDbEntity
  8
寸法線
 62
     0
440
 16777216
370
    -2
100
AcDbBlockReference
  2
_OPEN
 10
2410.000000000001
 20
490.0000182446095
 30
0.0
 41
20.0
 42
20.0
 43
20.0
 50
90.0
  0
INSERT
  5
116A5
330
11147
100
AcDbEntity
  8
寸法線
 62
     0
440
 16777216
370
    -2
100
AcDbBlockReference
  2
_OPEN
 10
2410.000000000001
 20
525.0004132727919
 30
0.0
 41
20.0
 42
20.0
 43
20.0
 50
270.0
  0
MTEXT
  5
116A6
330
11147
100
AcDbEntity
  8
寸法線
 62
     0
440
 16777216
100
AcDbMText
 10
2388.75
 20
507.5002157586999
 30
0.0
 40
25.0
 41
0.0
 46
0.0
 71
     5
 72
     1
  1
\A1;35
 11
0.0000000000000001
 21
1.0
 31
0.0
 73
     1
 44
1.0
  0
POINT
  5
116A7
330
11147
100
AcDbEntity
  8
Defpoints
 62
     0
440
 16777216
100
AcDbPoint
 10
2290.000000000001
 20
490.0000182446095
 30
0.0
  0
POINT
  5
116A8
330
11147
100
AcDbEntity
  8
Defpoints
 62
     0
440
 16777216
100
AcDbPoint
 10
2305.000399031124
 20
525.0004132727919
 30
0.0
  0
POINT
  5
116A9
330
11147
100
AcDbEntity
  8
Defpoints
 62
     0
440
 16777216
100
AcDbPoint
 10
2410.000000000001
 20
525.0004132727919
 30
0.0
  0
ENDBLK
  5
11149
330
11147
100
AcDbEntity
  8
0
100
AcDbBlockEnd
  0
BLOCK
  5
11156
330
11155
100
AcDbEntity
  8
0
100
AcDbBlockBegin
  2
*D16
 70
     1
 10
0.0
 20
0.0
 30
0.0
  3
*D16
  1

  0
LINE
  5
116AA
330
11155
100
AcDbEntity
  8
寸法線
 62
     0
440
 16777216
370
    -2
100
AcDbLine
 10
2313.750399031124
 20
775.0004132727922
 30
0.0
 11
2420.000000000001
 21
775.0004132727922
 31
0.0
  0
LINE
  5
116AB
330
11155
100
AcDbEntity
  8
寸法線
 62
     0
440
 16777216
370
    -2
100
AcDbLine
 10
2298.750000000001
 20
810.0000182446096
 30
0.0
 11
2420.000000000001
 21
810.0000182446098
 31
0.0
  0
LINE
  5
116AC
330
11155
100
AcDbEntity
  8
寸法線
 62
     0
440
 16777216
370
    -2
100
AcDbLine
 10
2410.000000000001
 20
755.0004132727921
 30
0.0
 11
2410.000000000001
 21
735.0004132727921
 31
0.0
  0
LINE
  5
116AD
330
11155
100
AcDbEntity
  8
寸法線
 62
     0
440
 16777216
370
    -2
100
AcDbLine
 10
2410.000000000001
 20
830.0000182446098
 30
0.0
 11
2410.000000000001
 21
850.0000182446097
 31
0.0
  0
LINE
  5
116AE
330
11155
100
AcDbEntity
  8
寸法線
 62
     0
440
 16777216
370
    -2
100
AcDbLine
 10
2410.000000000001
 20
775.0004132727922
 30
0.0
 11
2410.000000000001
 21
810.0000182446098
 31
0.0
  0
INSERT
  5
116AF
330
11155
100
AcDbEntity
  8
寸法線
 62
     0
440
 16777216
370
    -2
100
AcDbBlockReference
  2
_OPEN
 10
2410.000000000001
 20
775.0004132727922
 30
0.0
 41
20.0
 42
20.0
 43
20.0
 50
90.0
  0
INSERT
  5
116B0
330
11155
100
AcDbEntity
  8
寸法線
 62
     0
440
 16777216
370
    -2
100
AcDbBlockReference
  2
_OPEN
 10
2410.000000000001
 20
810.0000182446098
 30
0.0
 41
20.0
 42
20.0
 43
20.0
 50
270.0
  0
MTEXT
  5
116B1
330
11155
100
AcDbEntity
  8
寸法線
 62
     0
440
 16777216
100
AcDbMText
 10
2388.75
 20
792.5002157587002
 30
0.0
 40
25.0
 41
0.0
 46
0.0
 71
     5
 72
     1
  1
\A1;35
 11
0.0000000000000001
 21
1.0
 31
0.0
 73
     1
 44
1.0
  0
POINT
  5
116B2
330
11155
100
AcDbEntity
  8
Defpoints
 62
     0
440
 16777216
100
AcDbPoint
 10
2305.000399031124
 20
775.0004132727922
 30
0.0
  0
POINT
  5
116B3
330
11155
100
AcDbEntity
  8
Defpoints
 62
     0
440
 16777216
100
AcDbPoint
 10
2290.000000000001
 20
810.0000182446096
 30
0.0
  0
POINT
  5
116B4
330
11155
100
AcDbEntity
  8
Defpoints
 62
     0
440
 16777216
100
AcDbPoint
 10
2410.000000000001
 20
810.0000182446098
 30
0.0
  0
ENDBLK
  5
11157
330
11155
100
AcDbEntity
  8
0
100
AcDbBlockEnd
  0
BLOCK
  5
11164
330
11163
100
AcDbEntity
  8
0
100
AcDbBlockBegin
  2
*D17
 70
     1
 10
0.0
 20
0.0
 30
0.0
  3
*D17
  1

  0
LINE
  5
116B5
330
11163
100
AcDbEntity
  8
寸法線
 62
     0
440
 16777216
370
    -2
100
AcDbLine
 10
552.145042351317
 20
2372.75
 30
0.0
 11
552.145042351317
 21
2539.999962780316
 31
0.0
  0
LINE
  5
116B6
330
11163
100
AcDbEntity
  8
寸法線
 62
     0
440
 16777216
370
    -2
100
AcDbLine
 10
568.145062164428
 20
2378.749962780316
 30
0.0
 11
568.145062164428
 21
2539.999962780316
 31
0.0
  0
LINE
  5
116B7
330
11163
100
AcDbEntity
  8
寸法線
 62
     0
440
 16777216
370
    -2
100
AcDbLine
 10
532.1450423513169
 20
2529.999962780316
 30
0.0
 11
512.1450423513169
 21
2529.999962780316
 31
0.0
  0
LINE
  5
116B8
330
11163
100
AcDbEntity
  8
寸法線
 62
     0
440
 16777216
370
    -2
100
AcDbLine
 10
588.1450621644281
 20
2529.999962780316
 30
0.0
 11
608.145062164428
 21
2529.999962780316
 31
0.0
  0
LINE
  5
116B9
330
11163
100
AcDbEntity
  8
寸法線
 62
     0
440
 16777216
370
    -2
100
AcDbLine
 10
552.145042351317
 20
2529.999962780316
 30
0.0
 11
568.145062164428
 21
2529.999962780316
 31
0.0
  0
INSERT
  5
116BA
330
11163
100
AcDbEntity
  8
寸法線
 62
     0
440
 16777216
370
    -2
100
AcDbBlockReference
  2
_OPEN
 10
552.145042351317
 20
2529.999962780316
 30
0.0
 41
20.0
 42
20.0
 43
20.0
  0
INSERT
  5
116BB
330
11163
100
AcDbEntity
  8
寸法線
 62
     0
440
 16777216
370
    -2
100
AcDbBlockReference
  2
_OPEN
 10
568.145062164428
 20
2529.999962780316
 30
0.0
 41
20.0
 42
20.0
 43
20.0
 50
180.0
  0
MTEXT
  5
116BC
330
11163
100
AcDbEntity
  8
寸法線
 62
     0
440
 16777216
100
AcDbMText
 10
560.1450522578724
 20
2551.249962780316
 30
0.0
 40
25.0
 41
0.0
 46
0.0
 71
     5
 72
     1
  1
\A1;16
 73
     1
 44
1.0
  0
POINT
  5
116BD
330
11163
100
AcDbEntity
  8
Defpoints
 62
     0
440
 16777216
100
AcDbPoint
 10
552.145042351317
 20
2364.0
 30
0.0
  0
POINT
  5
116BE
330
11163
100
AcDbEntity
  8
Defpoints
 62
     0
440
 16777216
100
AcDbPoint
 10
568.145062164428
 20
2369.999962780316
 30
0.0
  0
POINT
  5
116BF
330
11163
100
AcDbEntity
  8
Defpoints
 62
     0
440
 16777216
100
AcDbPoint
 10
568.145062164428
 20
2529.999962780316
 30
0.0
  0
ENDBLK
  5
11165
330
11163
100
AcDbEntity
  8
0
100
AcDbBlockEnd
  0
BLOCK
  5
11172
330
11171
100
AcDbEntity
  8
0
100
AcDbBlockBegin
  2
*D18
 70
     1
 10
0.0
 20
0.0
 30
0.0
  3
*D18
  1

  0
LINE
  5
116C0
330
11171
100
AcDbEntity
  8
寸法線
 62
     0
440
 16777216
370
    -2
100
AcDbLine
 10
568.145062164428
 20
2378.749962780316
 30
0.0
 11
568.145062164428
 21
2539.999962780316
 31
0.0
  0
LINE
  5
116C1
330
11171
100
AcDbEntity
  8
寸法線
 62
     0
440
 16777216
370
    -2
100
AcDbLine
 10
1052.145130835336
 20
2388.74998263027
 30
0.0
 11
1052.145130835336
 21
2539.999962780316
 31
0.0
  0
LINE
  5
116C2
330
11171
100
AcDbEntity
  8
寸法線
 62
     0
440
 16777216
370
    -2
100
AcDbLine
 10
588.1450621644281
 20
2529.999962780316
 30
0.0
 11
1032.145130835336
 21
2529.999962780316
 31
0.0
  0
INSERT
  5
116C3
330
11171
100
AcDbEntity
  8
寸法線
 62
     0
440
 16777216
370
    -2
100
AcDbBlockReference
  2
_OPEN
 10
568.145062164428
 20
2529.999962780316
 30
0.0
 41
20.0
 42
20.0
 43
20.0
 50
180.0
  0
INSERT
  5
116C4
330
11171
100
AcDbEntity
  8
寸法線
 62
     0
440
 16777216
370
    -2
100
AcDbBlockReference
  2
_OPEN
 10
1052.145130835336
 20
2529.999962780316
 30
0.0
 41
20.0
 42
20.0
 43
20.0
  0
MTEXT
  5
116C5
330
11171
100
AcDbEntity
  8
寸法線
 62
     0
440
 16777216
100
AcDbMText
 10
810.1450697118298
 20
2551.249962780316
 30
0.0
 40
25.0
 41
0.0
 46
0.0
 71
     5
 72
     1
  1
\A1;484
 73
     1
 44
1.0
  0
POINT
  5
116C6
330
11171
100
AcDbEntity
  8
Defpoints
 62
     0
440
 16777216
100
AcDbPoint
 10
568.145062164428
 20
2369.999962780316
 30
0.0
  0
POINT
  5
116C7
330
11171
100
AcDbEntity
  8
Defpoints
 62
     0
440
 16777216
100
AcDbPoint
 10
1052.145130835336
 20
2379.99998263027
 30
0.0
  0
POINT
  5
116C8
330
11171
100
AcDbEntity
  8
Defpoints
 62
     0
440
 16777216
100
AcDbPoint
 10
1052.145130835336
 20
2529.999962780316
 30
0.0
  0
ENDBLK
  5
11173
330
11171
100
AcDbEntity
  8
0
100
AcDbBlockEnd
  0
BLOCK
  5
1117E
330
1117D
100
AcDbEntity
  8
0
100
AcDbBlockBegin
  2
*D19
 70
     1
 10
0.0
 20
0.0
 30
0.0
  3
*D19
  1

  0
LINE
  5
116C9
330
1117D
100
AcDbEntity
  8
寸法線
 62
     0
440
 16777216
370
    -2
100
AcDbLine
 10
559.3950621644283
 20
2369.999962780317
 30
0.0
 11
422.1450423513173
 21
2369.999962780317
 31
0.0
  0
LINE
  5
116CA
330
1117D
100
AcDbEntity
  8
寸法線
 62
     0
440
 16777216
370
    -2
100
AcDbLine
 10
559.3950621644283
 20
2069.999962780317
 30
0.0
 11
422.1450423513174
 21
2069.999962780317
 31
0.0
  0
LINE
  5
116CB
330
1117D
100
AcDbEntity
  8
寸法線
 62
     0
440
 16777216
370
    -2
100
AcDbLine
 10
432.1450423513174
 20
2349.999962780317
 30
0.0
 11
432.1450423513174
 21
2089.999962780317
 31
0.0
  0
INSERT
  5
116CC
330
1117D
100
AcDbEntity
  8
寸法線
 62
     0
440
 16777216
370
    -2
100
AcDbBlockReference
  2
_OPEN
 10
432.1450423513174
 20
2369.999962780317
 30
0.0
 41
20.0
 42
20.0
 43
20.0
 50
90.0
  0
INSERT
  5
116CD
330
1117D
100
AcDbEntity
  8
寸法線
 62
     0
440
 16777216
370
    -2
100
AcDbBlockReference
  2
_OPEN
 10
432.1450423513174
 20
2069.999962780317
 30
0.0
 41
20.0
 42
20.0
 43
20.0
 50
270.0
  0
MTEXT
  5
116CE
330
1117D
100
AcDbEntity
  8
寸法線
 62
     0
440
 16777216
100
AcDbMText
 10
410.8950423513179
 20
2219.999962780316
 30
0.0
 40
25.0
 41
0.0
 46
0.0
 71
     5
 72
     1
  1
\A1;300
 11
0.0000000000000001
 21
1.0
 31
0.0
 73
     1
 44
1.0
  0
POINT
  5
116CF
330
1117D
100
AcDbEntity
  8
Defpoints
 62
     0
440
 16777216
100
AcDbPoint
 10
568.1450621644282
 20
2369.999962780317
 30
0.0
  0
POINT
  5
116D0
330
1117D
100
AcDbEntity
  8
Defpoints
 62
     0
440
 16777216
100
AcDbPoint
 10
568.1450621644282
 20
2069.999962780317
 30
0.0
  0
POINT
  5
116D1
330
1117D
100
AcDbEntity
  8
Defpoints
 62
     0
440
 16777216
100
AcDbPoint
 10
432.1450423513174
 20
2069.999962780317
 30
0.0
  0
ENDBLK
  5
1117F
330
1117D
100
AcDbEntity
  8
0
100
AcDbBlockEnd
  0
BLOCK
  5
1118A
330
11189
100
AcDbEntity
  8
0
100
AcDbBlockBegin
  2
*D20
 70
     1
 10
0.0
 20
0.0
 30
0.0
  3
*D20
  1

  0
LINE
  5
116D2
330
11189
100
AcDbEntity
  8
寸法線
 62
     0
440
 16777216
370
    -2
100
AcDbLine
 10
552.145042351317
 20
2372.75
 30
0.0
 11
552.145042351317
 21
2619.999962780321
 31
0.0
  0
LINE
  5
116D3
330
11189
100
AcDbEntity
  8
寸法線
 62
     0
440
 16777216
370
    -2
100
AcDbLine
 10
1052.145062257842
 20
2388.749982630325
 30
0.0
 11
1052.145062257842
 21
2619.999962780321
 31
0.0
  0
LINE
  5
116D4
330
11189
100
AcDbEntity
  8
寸法線
 62
     0
440
 16777216
370
    -2
100
AcDbLine
 10
572.145042351317
 20
2609.999962780321
 30
0.0
 11
1032.145062257842
 21
2609.999962780321
 31
0.0
  0
INSERT
  5
116D5
330
11189
100
AcDbEntity
  8
寸法線
 62
     0
440
 16777216
370
    -2
100
AcDbBlockReference
  2
_OPEN
 10
552.145042351317
 20
2609.999962780321
 30
0.0
 41
20.0
 42
20.0
 43
20.0
 50
180.0
  0
INSERT
  5
116D6
330
11189
100
AcDbEntity
  8
寸法線
 62
     0
440
 16777216
370
    -2
100
AcDbBlockReference
  2
_OPEN
 10
1052.145062257842
 20
2609.999962780321
 30
0.0
 41
20.0
 42
20.0
 43
20.0
  0
MTEXT
  5
116D7
330
11189
100
AcDbEntity
  8
寸法線
 62
     0
440
 16777216
100
AcDbMText
 10
802.1450598052751
 20
2631.249962780321
 30
0.0
 40
25.0
 41
0.0
 46
0.0
 71
     5
 72
     1
  1
\A1;500
 73
     1
 44
1.0
  0
MTEXT
  5
116D8
330
11189
100
AcDbEntity
  8
寸法線
 62
     0
440
 16777216
100
AcDbMText
 10
802.1450598052751
 20
2588.749962780321
 30
0.0
 40
25.0
 41
0.0
 46
0.0
 71
     5
 72
     1
  1
\A1;H型鋼（連結部）
 73
     1
 44
1.0
  0
POINT
  5
116D9
330
11189
100
AcDbEntity
  8
Defpoints
 62
     0
440
 16777216
100
AcDbPoint
 10
552.145042351317
 20
2364.0
 30
0.0
  0
POINT
  5
116DA
330
11189
100
AcDbEntity
  8
Defpoints
 62
     0
440
 16777216
100
AcDbPoint
 10
1052.145062257842
 20
2379.999982630325
 30
0.0
  0
POINT
  5
116DB
330
11189
100
AcDbEntity
  8
Defpoints
 62
     0
440
 16777216
100
AcDbPoint
 10
1052.145062257842
 20
2609.999962780321
 30
0.0
  0
ENDBLK
  5
1118B
330
11189
100
AcDbEntity
  8
0
100
AcDbBlockEnd
  0
BLOCK
  5
11197
330
11196
100
AcDbEntity
  8
0
100
AcDbBlockBegin
  2
*D21
 70
     1
 10
0.0
 20
0.0
 30
0.0
  3
*D21
  1

  0
LINE
  5
116DC
330
11196
100
AcDbEntity
  8
寸法線
 62
     0
440
 16777216
370
    -2
100
AcDbLine
 10
1052.145062257842
 20
2388.749982630325
 30
0.0
 11
1052.145062257842
 21
2539.999962780316
 31
0.0
  0
LINE
  5
116DD
330
11196
100
AcDbEntity
  8
寸法線
 62
     0
440
 16777216
370
    -2
100
AcDbLine
 10
1452.145062257842
 20
2388.749964385694
 30
0.0
 11
1452.145062257842
 21
2539.999962780316
 31
0.0
  0
LINE
  5
116DE
330
11196
100
AcDbEntity
  8
寸法線
 62
     0
440
 16777216
370
    -2
100
AcDbLine
 10
1072.145062257842
 20
2529.999962780316
 30
0.0
 11
1432.145062257842
 21
2529.999962780316
 31
0.0
  0
INSERT
  5
116DF
330
11196
100
AcDbEntity
  8
寸法線
 62
     0
440
 16777216
370
    -2
100
AcDbBlockReference
  2
_OPEN
 10
1052.145062257842
 20
2529.999962780316
 30
0.0
 41
20.0
 42
20.0
 43
20.0
 50
180.0
  0
INSERT
  5
116E0
330
11196
100
AcDbEntity
  8
寸法線
 62
     0
440
 16777216
370
    -2
100
AcDbBlockReference
  2
_OPEN
 10
1452.145062257842
 20
2529.999962780316
 30
0.0
 41
20.0
 42
20.0
 43
20.0
  0
MTEXT
  5
116E1
330
11196
100
AcDbEntity
  8
寸法線
 62
     0
440
 16777216
100
AcDbMText
 10
1252.145110928812
 20
2551.249962780316
 30
0.0
 40
25.0
 41
0.0
 46
0.0
 71
     5
 72
     1
  1
\A1;400
 73
     1
 44
1.0
  0
MTEXT
  5
116E2
330
11196
100
AcDbEntity
  8
寸法線
 62
     0
440
 16777216
100
AcDbMText
 10
1252.145110928812
 20
2508.749962780316
 30
0.0
 40
25.0
 41
0.0
 46
0.0
 71
     5
 72
     1
  1
\A1;空洞金具
 73
     1
 44
1.0
  0
POINT
  5
116E3
330
11196
100
AcDbEntity
  8
Defpoints
 62
     0
440
 16777216
100
AcDbPoint
 10
1052.145062257842
 20
2379.999982630325
 30
0.0
  0
POINT
  5
116E4
330
11196
100
AcDbEntity
  8
Defpoints
 62
     0
440
 16777216
100
AcDbPoint
 10
1452.145062257842
 20
2379.999964385694
 30
0.0
  0
POINT
  5
116E5
330
11196
100
AcDbEntity
  8
Defpoints
 62
     0
440
 16777216
100
AcDbPoint
 10
1452.145062257842
 20
2529.999962780316
 30
0.0
  0
ENDBLK
  5
11198
330
11196
100
AcDbEntity
  8
0
100
AcDbBlockEnd
  0
BLOCK
  5
111A4
330
111A3
100
AcDbEntity
  8
0
100
AcDbBlockBegin
  2
*D22
 70
     1
 10
0.0
 20
0.0
 30
0.0
  3
*D22
  1

  0
LINE
  5
116E6
330
111A3
100
AcDbEntity
  8
寸法線
 62
     0
440
 16777216
370
    -2
100
AcDbLine
 10
552.1450423513178
 20
2372.749999999993
 30
0.0
 11
552.1450423513178
 21
2699.999962780322
 31
0.0
  0
LINE
  5
116E7
330
111A3
100
AcDbEntity
  8
寸法線
 62
     0
440
 16777216
370
    -2
100
AcDbLine
 10
2952.145042351326
 20
2372.749968704425
 30
0.0
 11
2952.145042351326
 21
2699.999962780322
 31
0.0
  0
LINE
  5
116E8
330
111A3
100
AcDbEntity
  8
寸法線
 62
     0
440
 16777216
370
    -2
100
AcDbLine
 10
572.1450423513179
 20
2689.999962780322
 30
0.0
 11
2932.145042351326
 21
2689.999962780322
 31
0.0
  0
INSERT
  5
116E9
330
111A3
100
AcDbEntity
  8
寸法線
 62
     0
440
 16777216
370
    -2
100
AcDbBlockReference
  2
_OPEN
 10
552.1450423513178
 20
2689.999962780322
 30
0.0
 41
20.0
 42
20.0
 43
20.0
 50
180.0
  0
INSERT
  5
116EA
330
111A3
100
AcDbEntity
  8
寸法線
 62
     0
440
 16777216
370
    -2
100
AcDbBlockReference
  2
_OPEN
 10
2952.145042351326
 20
2689.999962780322
 30
0.0
 41
20.0
 42
20.0
 43
20.0
  0
MTEXT
  5
116EB
330
111A3
100
AcDbEntity
  8
寸法線
 62
     0
440
 16777216
100
AcDbMText
 10
1752.145042351322
 20
2711.252423410243
 30
0.0
 40
25.0
 41
0.0
 46
0.0
 71
     5
 72
     1
  1
\A1;スルーサーＢ L=2400
 73
     1
 44
1.0
  0
POINT
  5
116EC
330
111A3
100
AcDbEntity
  8
Defpoints
 62
     0
440
 16777216
100
AcDbPoint
 10
552.1450423513178
 20
2363.999999999993
 30
0.0
  0
POINT
  5
116ED
330
111A3
100
AcDbEntity
  8
Defpoints
 62
     0
440
 16777216
100
AcDbPoint
 10
2952.145042351326
 20
2363.999968704425
 30
0.0
  0
POINT
  5
116EE
330
111A3
100
AcDbEntity
  8
Defpoints
 62
     0
440
 16777216
100
AcDbPoint
 10
2952.145042351326
 20
2689.999962780322
 30
0.0
  0
ENDBLK
  5
111A5
330
111A3
100
AcDbEntity
  8
0
100
AcDbBlockEnd
  0
BLOCK
  5
111B0
330
111AF
100
AcDbEntity
  8
0
100
AcDbBlockBegin
  2
*D23
 70
     1
 10
0.0
 20
0.0
 30
0.0
  3
*D23
  1

  0
LINE
  5
116EF
330
111AF
100
AcDbEntity
  8
寸法線
 62
     0
440
 16777216
370
    -2
100
AcDbLine
 10
2052.145022444801
 20
2388.749982630325
 30
0.0
 11
2052.145022444801
 21
2539.999962780316
 31
0.0
  0
LINE
  5
116F0
330
111AF
100
AcDbEntity
  8
寸法線
 62
     0
440
 16777216
370
    -2
100
AcDbLine
 10
1452.145062257842
 20
2388.749964385694
 30
0.0
 11
1452.145062257842
 21
2539.999962780316
 31
0.0
  0
LINE
  5
116F1
330
111AF
100
AcDbEntity
  8
寸法線
 62
     0
440
 16777216
370
    -2
100
AcDbLine
 10
2032.145022444801
 20
2529.999962780316
 30
0.0
 11
1472.145062257842
 21
2529.999962780316
 31
0.0
  0
INSERT
  5
116F2
330
111AF
100
AcDbEntity
  8
寸法線
 62
     0
440
 16777216
370
    -2
100
AcDbBlockReference
  2
_OPEN
 10
2052.145022444801
 20
2529.999962780316
 30
0.0
 41
20.0
 42
20.0
 43
20.0
  0
INSERT
  5
116F3
330
111AF
100
AcDbEntity
  8
寸法線
 62
     0
440
 16777216
370
    -2
100
AcDbBlockReference
  2
_OPEN
 10
1452.145062257842
 20
2529.999962780316
 30
0.0
 41
20.0
 42
20.0
 43
20.0
 50
180.0
  0
MTEXT
  5
116F4
330
111AF
100
AcDbEntity
  8
寸法線
 62
     0
440
 16777216
100
AcDbMText
 10
1752.145042351321
 20
2551.249962780316
 30
0.0
 40
25.0
 41
0.0
 46
0.0
 71
     5
 72
     1
  1
\A1;600
 73
     1
 44
1.0
  0
MTEXT
  5
116F5
330
111AF
100
AcDbEntity
  8
寸法線
 62
     0
440
 16777216
100
AcDbMText
 10
1752.145042351321
 20
2508.749962780316
 30
0.0
 40
25.0
 41
0.0
 46
0.0
 71
     5
 72
     1
  1
\A1;H型鋼（埋設部）
 73
     1
 44
1.0
  0
POINT
  5
116F6
330
111AF
100
AcDbEntity
  8
Defpoints
 62
     0
440
 16777216
100
AcDbPoint
 10
2052.145022444801
 20
2379.999982630325
 30
0.0
  0
POINT
  5
116F7
330
111AF
100
AcDbEntity
  8
Defpoints
 62
     0
440
 16777216
100
AcDbPoint
 10
1452.145062257842
 20
2379.999964385694
 30
0.0
  0
POINT
  5
116F8
330
111AF
100
AcDbEntity
  8
Defpoints
 62
     0
440
 16777216
100
AcDbPoint
 10
1452.145062257842
 20
2529.999962780316
 30
0.0
  0
ENDBLK
  5
111B1
330
111AF
100
AcDbEntity
  8
0
100
AcDbBlockEnd
  0
BLOCK
  5
111BD
330
111BC
100
AcDbEntity
  8
0
100
AcDbBlockBegin
  2
*D24
 70
     1
 10
0.0
 20
0.0
 30
0.0
  3
*D24
  1

  0
LINE
  5
116F9
330
111BC
100
AcDbEntity
  8
寸法線
 62
     0
440
 16777216
370
    -2
100
AcDbLine
 10
2952.145042351326
 20
2372.75
 30
0.0
 11
2952.145042351326
 21
2539.999962780316
 31
0.0
  0
LINE
  5
116FA
330
111BC
100
AcDbEntity
  8
寸法線
 62
     0
440
 16777216
370
    -2
100
AcDbLine
 10
2936.145022538215
 20
2378.749962780316
 30
0.0
 11
2936.145022538215
 21
2539.999962780316
 31
0.0
  0
LINE
  5
116FB
330
111BC
100
AcDbEntity
  8
寸法線
 62
     0
440
 16777216
370
    -2
100
AcDbLine
 10
2972.145042351326
 20
2529.999962780316
 30
0.0
 11
2992.145042351326
 21
2529.999962780316
 31
0.0
  0
LINE
  5
116FC
330
111BC
100
AcDbEntity
  8
寸法線
 62
     0
440
 16777216
370
    -2
100
AcDbLine
 10
2916.145022538215
 20
2529.999962780316
 30
0.0
 11
2896.145022538215
 21
2529.999962780316
 31
0.0
  0
LINE
  5
116FD
330
111BC
100
AcDbEntity
  8
寸法線
 62
     0
440
 16777216
370
    -2
100
AcDbLine
 10
2952.145042351326
 20
2529.999962780316
 30
0.0
 11
2936.145022538215
 21
2529.999962780316
 31
0.0
  0
INSERT
  5
116FE
330
111BC
100
AcDbEntity
  8
寸法線
 62
     0
440
 16777216
370
    -2
100
AcDbBlockReference
  2
_OPEN
 10
2952.145042351326
 20
2529.999962780316
 30
0.0
 41
20.0
 42
20.0
 43
20.0
 50
180.0
  0
INSERT
  5
116FF
330
111BC
100
AcDbEntity
  8
寸法線
 62
     0
440
 16777216
370
    -2
100
AcDbBlockReference
  2
_OPEN
 10
2936.145022538215
 20
2529.999962780316
 30
0.0
 41
20.0
 42
20.0
 43
20.0
  0
MTEXT
  5
11700
330
111BC
100
AcDbEntity
  8
寸法線
 62
     0
440
 16777216
100
AcDbMText
 10
2944.145032444771
 20
2551.249962780316
 30
0.0
 40
25.0
 41
0.0
 46
0.0
 71
     5
 72
     1
  1
\A1;16
 73
     1
 44
1.0
  0
POINT
  5
11701
330
111BC
100
AcDbEntity
  8
Defpoints
 62
     0
440
 16777216
100
AcDbPoint
 10
2952.145042351326
 20
2364.0
 30
0.0
  0
POINT
  5
11702
330
111BC
100
AcDbEntity
  8
Defpoints
 62
     0
440
 16777216
100
AcDbPoint
 10
2936.145022538215
 20
2369.999962780316
 30
0.0
  0
POINT
  5
11703
330
111BC
100
AcDbEntity
  8
Defpoints
 62
     0
440
 16777216
100
AcDbPoint
 10
2936.145022538215
 20
2529.999962780316
 30
0.0
  0
ENDBLK
  5
111BE
330
111BC
100
AcDbEntity
  8
0
100
AcDbBlockEnd
  0
BLOCK
  5
111CB
330
111CA
100
AcDbEntity
  8
0
100
AcDbBlockBegin
  2
*D25
 70
     1
 10
0.0
 20
0.0
 30
0.0
  3
*D25
  1

  0
LINE
  5
11704
330
111CA
100
AcDbEntity
  8
寸法線
 62
     0
440
 16777216
370
    -2
100
AcDbLine
 10
2936.145022538215
 20
2378.749962780316
 30
0.0
 11
2936.145022538215
 21
2539.999962780316
 31
0.0
  0
LINE
  5
11705
330
111CA
100
AcDbEntity
  8
寸法線
 62
     0
440
 16777216
370
    -2
100
AcDbLine
 10
2452.144953867307
 20
2388.74998263027
 30
0.0
 11
2452.144953867307
 21
2539.999962780316
 31
0.0
  0
LINE
  5
11706
330
111CA
100
AcDbEntity
  8
寸法線
 62
     0
440
 16777216
370
    -2
100
AcDbLine
 10
2916.145022538215
 20
2529.999962780316
 30
0.0
 11
2472.144953867307
 21
2529.999962780316
 31
0.0
  0
INSERT
  5
11707
330
111CA
100
AcDbEntity
  8
寸法線
 62
     0
440
 16777216
370
    -2
100
AcDbBlockReference
  2
_OPEN
 10
2936.145022538215
 20
2529.999962780316
 30
0.0
 41
20.0
 42
20.0
 43
20.0
  0
INSERT
  5
11708
330
111CA
100
AcDbEntity
  8
寸法線
 62
     0
440
 16777216
370
    -2
100
AcDbBlockReference
  2
_OPEN
 10
2452.144953867307
 20
2529.999962780316
 30
0.0
 41
20.0
 42
20.0
 43
20.0
 50
180.0
  0
MTEXT
  5
11709
330
111CA
100
AcDbEntity
  8
寸法線
 62
     0
440
 16777216
100
AcDbMText
 10
2694.145014990813
 20
2551.249962780316
 30
0.0
 40
25.0
 41
0.0
 46
0.0
 71
     5
 72
     1
  1
\A1;484
 73
     1
 44
1.0
  0
POINT
  5
1170A
330
111CA
100
AcDbEntity
  8
Defpoints
 62
     0
440
 16777216
100
AcDbPoint
 10
2936.145022538215
 20
2369.999962780316
 30
0.0
  0
POINT
  5
1170B
330
111CA
100
AcDbEntity
  8
Defpoints
 62
     0
440
 16777216
100
AcDbPoint
 10
2452.144953867307
 20
2379.99998263027
 30
0.0
  0
POINT
  5
1170C
330
111CA
100
AcDbEntity
  8
Defpoints
 62
     0
440
 16777216
100
AcDbPoint
 10
2452.144953867307
 20
2529.999962780316
 30
0.0
  0
ENDBLK
  5
111CC
330
111CA
100
AcDbEntity
  8
0
100
AcDbBlockEnd
  0
BLOCK
  5
111D7
330
111D6
100
AcDbEntity
  8
0
100
AcDbBlockBegin
  2
*D26
 70
     1
 10
0.0
 20
0.0
 30
0.0
  3
*D26
  1

  0
LINE
  5
1170D
330
111D6
100
AcDbEntity
  8
寸法線
 62
     0
440
 16777216
370
    -2
100
AcDbLine
 10
2952.145042351326
 20
2372.75
 30
0.0
 11
2952.145042351326
 21
2619.999962780321
 31
0.0
  0
LINE
  5
1170E
330
111D6
100
AcDbEntity
  8
寸法線
 62
     0
440
 16777216
370
    -2
100
AcDbLine
 10
2452.145022444801
 20
2388.749982630325
 30
0.0
 11
2452.145022444801
 21
2619.999962780321
 31
0.0
  0
LINE
  5
1170F
330
111D6
100
AcDbEntity
  8
寸法線
 62
     0
440
 16777216
370
    -2
100
AcDbLine
 10
2932.145042351326
 20
2609.999962780321
 30
0.0
 11
2472.145022444801
 21
2609.999962780321
 31
0.0
  0
INSERT
  5
11710
330
111D6
100
AcDbEntity
  8
寸法線
 62
     0
440
 16777216
370
    -2
100
AcDbBlockReference
  2
_OPEN
 10
2952.145042351326
 20
2609.999962780321
 30
0.0
 41
20.0
 42
20.0
 43
20.0
  0
INSERT
  5
11711
330
111D6
100
AcDbEntity
  8
寸法線
 62
     0
440
 16777216
370
    -2
100
AcDbBlockReference
  2
_OPEN
 10
2452.145022444801
 20
2609.999962780321
 30
0.0
 41
20.0
 42
20.0
 43
20.0
 50
180.0
  0
MTEXT
  5
11712
330
111D6
100
AcDbEntity
  8
寸法線
 62
     0
440
 16777216
100
AcDbMText
 10
2702.145024897368
 20
2631.249962780321
 30
0.0
 40
25.0
 41
0.0
 46
0.0
 71
     5
 72
     1
  1
\A1;500
 73
     1
 44
1.0
  0
MTEXT
  5
11713
330
111D6
100
AcDbEntity
  8
寸法線
 62
     0
440
 16777216
100
AcDbMText
 10
2702.145024897368
 20
2588.749962780321
 30
0.0
 40
25.0
 41
0.0
 46
0.0
 71
     5
 72
     1
  1
\A1;H型鋼（連結部）
 73
     1
 44
1.0
  0
POINT
  5
11714
330
111D6
100
AcDbEntity
  8
Defpoints
 62
     0
440
 16777216
100
AcDbPoint
 10
2952.145042351326
 20
2364.0
 30
0.0
  0
POINT
  5
11715
330
111D6
100
AcDbEntity
  8
Defpoints
 62
     0
440
 16777216
100
AcDbPoint
 10
2452.145022444801
 20
2379.999982630325
 30
0.0
  0
POINT
  5
11716
330
111D6
100
AcDbEntity
  8
Defpoints
 62
     0
440
 16777216
100
AcDbPoint
 10
2452.145022444801
 20
2609.999962780321
 30
0.0
  0
ENDBLK
  5
111D8
330
111D6
100
AcDbEntity
  8
0
100
AcDbBlockEnd
  0
BLOCK
  5
111E4
330
111E3
100
AcDbEntity
  8
0
100
AcDbBlockBegin
  2
*D27
 70
     1
 10
0.0
 20
0.0
 30
0.0
  3
*D27
  1

  0
LINE
  5
11717
330
111E3
100
AcDbEntity
  8
寸法線
 62
     0
440
 16777216
370
    -2
100
AcDbLine
 10
2452.145022444801
 20
2388.749982630325
 30
0.0
 11
2452.145022444801
 21
2539.999962780316
 31
0.0
  0
LINE
  5
11718
330
111E3
100
AcDbEntity
  8
寸法線
 62
     0
440
 16777216
370
    -2
100
AcDbLine
 10
2052.145022444801
 20
2388.749964385694
 30
0.0
 11
2052.145022444801
 21
2539.999962780316
 31
0.0
  0
LINE
  5
11719
330
111E3
100
AcDbEntity
  8
寸法線
 62
     0
440
 16777216
370
    -2
100
AcDbLine
 10
2432.145022444801
 20
2529.999962780316
 30
0.0
 11
2072.145022444801
 21
2529.999962780316
 31
0.0
  0
INSERT
  5
1171A
330
111E3
100
AcDbEntity
  8
寸法線
 62
     0
440
 16777216
370
    -2
100
AcDbBlockReference
  2
_OPEN
 10
2452.145022444801
 20
2529.999962780316
 30
0.0
 41
20.0
 42
20.0
 43
20.0
  0
INSERT
  5
1171B
330
111E3
100
AcDbEntity
  8
寸法線
 62
     0
440
 16777216
370
    -2
100
AcDbBlockReference
  2
_OPEN
 10
2052.145022444801
 20
2529.999962780316
 30
0.0
 41
20.0
 42
20.0
 43
20.0
 50
180.0
  0
MTEXT
  5
1171C
330
111E3
100
AcDbEntity
  8
寸法線
 62
     0
440
 16777216
100
AcDbMText
 10
2252.144973773831
 20
2551.249962780316
 30
0.0
 40
25.0
 41
0.0
 46
0.0
 71
     5
 72
     1
  1
\A1;400
 73
     1
 44
1.0
  0
MTEXT
  5
1171D
330
111E3
100
AcDbEntity
  8
寸法線
 62
     0
440
 16777216
100
AcDbMText
 10
2252.144973773831
 20
2508.749962780316
 30
0.0
 40
25.0
 41
0.0
 46
0.0
 71
     5
 72
     1
  1
\A1;空洞金具
 73
     1
 44
1.0
  0
POINT
  5
1171E
330
111E3
100
AcDbEntity
  8
Defpoints
 62
     0
440
 16777216
100
AcDbPoint
 10
2452.145022444801
 20
2379.999982630325
 30
0.0
  0
POINT
  5
1171F
330
111E3
100
AcDbEntity
  8
Defpoints
 62
     0
440
 16777216
100
AcDbPoint
 10
2052.145022444801
 20
2379.999964385694
 30
0.0
  0
POINT
  5
11720
330
111E3
100
AcDbEntity
  8
Defpoints
 62
     0
440
 16777216
100
AcDbPoint
 10
2052.145022444801
 20
2529.999962780316
 30
0.0
  0
ENDBLK
  5
111E5
330
111E3
100
AcDbEntity
  8
0
100
AcDbBlockEnd
  0
BLOCK
  5
111F1
330
111F0
100
AcDbEntity
  8
0
100
AcDbBlockBegin
  2
*D28
 70
     1
 10
0.0
 20
0.0
 30
0.0
  3
*D28
  1

  0
LINE
  5
11721
330
111F0
100
AcDbEntity
  8
寸法線
 62
     0
440
 16777216
370
    -2
100
AcDbLine
 10
1052.145062257842
 20
2388.749964385695
 30
0.0
 11
1052.145062257842
 21
2619.999962780321
 31
0.0
  0
LINE
  5
11722
330
111F0
100
AcDbEntity
  8
寸法線
 62
     0
440
 16777216
370
    -2
100
AcDbLine
 10
2452.145022444801
 20
2388.749982630325
 30
0.0
 11
2452.145022444801
 21
2619.999962780321
 31
0.0
  0
LINE
  5
11723
330
111F0
100
AcDbEntity
  8
寸法線
 62
     0
440
 16777216
370
    -2
100
AcDbLine
 10
1072.145062257842
 20
2609.999962780321
 30
0.0
 11
2432.145022444801
 21
2609.999962780321
 31
0.0
  0
INSERT
  5
11724
330
111F0
100
AcDbEntity
  8
寸法線
 62
     0
440
 16777216
370
    -2
100
AcDbBlockReference
  2
_OPEN
 10
1052.145062257842
 20
2609.999962780321
 30
0.0
 41
20.0
 42
20.0
 43
20.0
 50
180.0
  0
INSERT
  5
11725
330
111F0
100
AcDbEntity
  8
寸法線
 62
     0
440
 16777216
370
    -2
100
AcDbBlockReference
  2
_OPEN
 10
2452.145022444801
 20
2609.999962780321
 30
0.0
 41
20.0
 42
20.0
 43
20.0
  0
MTEXT
  5
11726
330
111F0
100
AcDbEntity
  8
寸法線
 62
     0
440
 16777216
100
AcDbMText
 10
1752.145042351321
 20
2631.249962780321
 30
0.0
 40
25.0
 41
0.0
 46
0.0
 71
     5
 72
     1
  1
\A1;W=1400
 73
     1
 44
1.0
  0
POINT
  5
11727
330
111F0
100
AcDbEntity
  8
Defpoints
 62
     0
440
 16777216
100
AcDbPoint
 10
1052.145062257842
 20
2379.999964385695
 30
0.0
  0
POINT
  5
11728
330
111F0
100
AcDbEntity
  8
Defpoints
 62
     0
440
 16777216
100
AcDbPoint
 10
2452.145022444801
 20
2379.999982630325
 30
0.0
  0
POINT
  5
11729
330
111F0
100
AcDbEntity
  8
Defpoints
 62
     0
440
 16777216
100
AcDbPoint
 10
2452.145022444801
 20
2609.999962780321
 30
0.0
  0
ENDBLK
  5
111F2
330
111F0
100
AcDbEntity
  8
0
100
AcDbBlockEnd
  0
BLOCK
  5
111FD
330
111FC
100
AcDbEntity
  8
0
100
AcDbBlockBegin
  2
*D29
 70
     1
 10
0.0
 20
0.0
 30
0.0
  3
*D29
  1

  0
LINE
  5
1172A
330
111FC
100
AcDbEntity
  8
寸法線
 62
     0
440
 16777216
370
    -2
100
AcDbLine
 10
2002.145062211142
 20
1401.249982630339
 30
0.0
 11
2002.145062211142
 21
1199.999982630339
 31
0.0
  0
LINE
  5
1172B
330
111FC
100
AcDbEntity
  8
寸法線
 62
     0
440
 16777216
370
    -2
100
AcDbLine
 10
2052.145082117667
 20
1351.249984235721
 30
0.0
 11
2052.145082117667
 21
1199.999982630339
 31
0.0
  0
LINE
  5
1172C
330
111FC
100
AcDbEntity
  8
寸法線
 62
     0
440
 16777216
370
    -2
100
AcDbLine
 10
1982.145062211142
 20
1209.999982630339
 30
0.0
 11
1962.145062211141
 21
1209.999982630339
 31
0.0
  0
LINE
  5
1172D
330
111FC
100
AcDbEntity
  8
寸法線
 62
     0
440
 16777216
370
    -2
100
AcDbLine
 10
2072.145082117667
 20
1209.999982630339
 30
0.0
 11
2092.145082117667
 21
1209.999982630339
 31
0.0
  0
LINE
  5
1172E
330
111FC
100
AcDbEntity
  8
寸法線
 62
     0
440
 16777216
370
    -2
100
AcDbLine
 10
2002.145062211142
 20
1209.999982630339
 30
0.0
 11
2052.145082117667
 21
1209.999982630339
 31
0.0
  0
INSERT
  5
1172F
330
111FC
100
AcDbEntity
  8
寸法線
 62
     0
440
 16777216
370
    -2
100
AcDbBlockReference
  2
_OPEN
 10
2002.145062211142
 20
1209.999982630339
 30
0.0
 41
20.0
 42
20.0
 43
20.0
  0
INSERT
  5
11730
330
111FC
100
AcDbEntity
  8
寸法線
 62
     0
440
 16777216
370
    -2
100
AcDbBlockReference
  2
_OPEN
 10
2052.145082117667
 20
1209.999982630339
 30
0.0
 41
20.0
 42
20.0
 43
20.0
 50
180.0
  0
MTEXT
  5
11731
330
111FC
100
AcDbEntity
  8
寸法線
 62
     0
440
 16777216
100
AcDbMText
 10
2027.145072164404
 20
1231.249982630339
 30
0.0
 40
25.0
 41
0.0
 46
0.0
 71
     5
 72
     1
  1
\A1;50
 73
     1
 44
1.0
  0
POINT
  5
11732
330
111FC
100
AcDbEntity
  8
Defpoints
 62
     0
440
 16777216
100
AcDbPoint
 10
2002.145062211142
 20
1409.999982630339
 30
0.0
  0
POINT
  5
11733
330
111FC
100
AcDbEntity
  8
Defpoints
 62
     0
440
 16777216
100
AcDbPoint
 10
2052.145082117667
 20
1359.999984235721
 30
0.0
  0
POINT
  5
11734
330
111FC
100
AcDbEntity
  8
Defpoints
 62
     0
440
 16777216
100
AcDbPoint
 10
2052.145082117667
 20
1209.999982630339
 30
0.0
  0
ENDBLK
  5
111FE
330
111FC
100
AcDbEntity
  8
0
100
AcDbBlockEnd
  0
BLOCK
  5
1120B
330
1120A
100
AcDbEntity
  8
0
100
AcDbBlockBegin
  2
*D30
 70
     1
 10
0.0
 20
0.0
 30
0.0
  3
*D30
  1

  0
LINE
  5
11735
330
1120A
100
AcDbEntity
  8
寸法線
 62
     0
440
 16777216
370
    -2
100
AcDbLine
 10
1452.145042304616
 20
1351.250002480345
 30
0.0
 11
1452.145042304616
 21
1119.999962839778
 31
0.0
  0
LINE
  5
11736
330
1120A
100
AcDbEntity
  8
寸法線
 62
     0
440
 16777216
370
    -2
100
AcDbLine
 10
2052.145082117667
 20
1351.250002480345
 30
0.0
 11
2052.145082117667
 21
1119.999962839778
 31
0.0
  0
LINE
  5
11737
330
1120A
100
AcDbEntity
  8
寸法線
 62
     0
440
 16777216
370
    -2
100
AcDbLine
 10
1472.145042304616
 20
1129.999962839778
 30
0.0
 11
2032.145082117667
 21
1129.999962839778
 31
0.0
  0
INSERT
  5
11738
330
1120A
100
AcDbEntity
  8
寸法線
 62
     0
440
 16777216
370
    -2
100
AcDbBlockReference
  2
_OPEN
 10
1452.145042304616
 20
1129.999962839778
 30
0.0
 41
20.0
 42
20.0
 43
20.0
 50
180.0
  0
INSERT
  5
11739
330
1120A
100
AcDbEntity
  8
寸法線
 62
     0
440
 16777216
370
    -2
100
AcDbBlockReference
  2
_OPEN
 10
2052.145082117667
 20
1129.999962839778
 30
0.0
 41
20.0
 42
20.0
 43
20.0
  0
MTEXT
  5
1173A
330
1120A
100
AcDbEntity
  8
寸法線
 62
     0
440
 16777216
100
AcDbMText
 10
1752.145062211141
 20
1151.249962839778
 30
0.0
 40
25.0
 41
0.0
 46
0.0
 71
     5
 72
     1
  1
\A1;600
 73
     1
 44
1.0
  0
POINT
  5
1173B
330
1120A
100
AcDbEntity
  8
Defpoints
 62
     0
440
 16777216
100
AcDbPoint
 10
1452.145042304616
 20
1360.000002480345
 30
0.0
  0
POINT
  5
1173C
330
1120A
100
AcDbEntity
  8
Defpoints
 62
     0
440
 16777216
100
AcDbPoint
 10
2052.145082117667
 20
1360.000002480345
 30
0.0
  0
POINT
  5
1173D
330
1120A
100
AcDbEntity
  8
Defpoints
 62
     0
440
 16777216
100
AcDbPoint
 10
2052.145082117667
 20
1129.999962839778
 30
0.0
  0
ENDBLK
  5
1120C
330
1120A
100
AcDbEntity
  8
0
100
AcDbBlockEnd
  0
BLOCK
  5
11217
330
11216
100
AcDbEntity
  8
0
100
AcDbBlockBegin
  2
*D31
 70
     1
 10
0.0
 20
0.0
 30
0.0
  3
*D31
  1

  0
LINE
  5
1173E
330
11216
100
AcDbEntity
  8
寸法線
 62
     0
440
 16777216
370
    -2
100
AcDbLine
 10
1502.145062211141
 20
1401.249982630339
 30
0.0
 11
1502.145062211141
 21
1199.999982630339
 31
0.0
  0
LINE
  5
1173F
330
11216
100
AcDbEntity
  8
寸法線
 62
     0
440
 16777216
370
    -2
100
AcDbLine
 10
1452.145097119061
 20
1351.250021552798
 30
0.0
 11
1452.145097119061
 21
1199.999982630339
 31
0.0
  0
LINE
  5
11740
330
11216
100
AcDbEntity
  8
寸法線
 62
     0
440
 16777216
370
    -2
100
AcDbLine
 10
1522.145062211141
 20
1209.999982630339
 30
0.0
 11
1542.145062211141
 21
1209.999982630339
 31
0.0
  0
LINE
  5
11741
330
11216
100
AcDbEntity
  8
寸法線
 62
     0
440
 16777216
370
    -2
100
AcDbLine
 10
1432.145097119061
 20
1209.999982630339
 30
0.0
 11
1412.145097119061
 21
1209.999982630339
 31
0.0
  0
LINE
  5
11742
330
11216
100
AcDbEntity
  8
寸法線
 62
     0
440
 16777216
370
    -2
100
AcDbLine
 10
1502.145062211141
 20
1209.999982630339
 30
0.0
 11
1452.145097119061
 21
1209.999982630339
 31
0.0
  0
INSERT
  5
11743
330
11216
100
AcDbEntity
  8
寸法線
 62
     0
440
 16777216
370
    -2
100
AcDbBlockReference
  2
_OPEN
 10
1502.145062211141
 20
1209.999982630339
 30
0.0
 41
20.0
 42
20.0
 43
20.0
 50
180.0
  0
INSERT
  5
11744
330
11216
100
AcDbEntity
  8
寸法線
 62
     0
440
 16777216
370
    -2
100
AcDbBlockReference
  2
_OPEN
 10
1452.145097119061
 20
1209.999982630339
 30
0.0
 41
20.0
 42
20.0
 43
20.0
  0
MTEXT
  5
11745
330
11216
100
AcDbEntity
  8
寸法線
 62
     0
440
 16777216
100
AcDbMText
 10
1477.145079665101
 20
1231.249982630339
 30
0.0
 40
25.0
 41
0.0
 46
0.0
 71
     5
 72
     1
  1
\A1;50
 73
     1
 44
1.0
  0
POINT
  5
11746
330
11216
100
AcDbEntity
  8
Defpoints
 62
     0
440
 16777216
100
AcDbPoint
 10
1502.145062211141
 20
1409.999982630339
 30
0.0
  0
POINT
  5
11747
330
11216
100
AcDbEntity
  8
Defpoints
 62
     0
440
 16777216
100
AcDbPoint
 10
1452.145097119061
 20
1360.000021552798
 30
0.0
  0
POINT
  5
11748
330
11216
100
AcDbEntity
  8
Defpoints
 62
     0
440
 16777216
100
AcDbPoint
 10
1452.145097119061
 20
1209.999982630339
 30
0.0
  0
ENDBLK
  5
11218
330
11216
100
AcDbEntity
  8
0
100
AcDbBlockEnd
  0
BLOCK
  5
11225
330
11224
100
AcDbEntity
  8
0
100
AcDbBlockBegin
  2
*D32
 70
     1
 10
0.0
 20
0.0
 30
0.0
  3
*D32
  1

  0
LINE
  5
11749
330
11224
100
AcDbEntity
  8
寸法線
 62
     0
440
 16777216
370
    -2
100
AcDbLine
 10
1502.145062211141
 20
1401.249982630339
 30
0.0
 11
1502.145062211141
 21
1199.999982630339
 31
0.0
  0
LINE
  5
1174A
330
11224
100
AcDbEntity
  8
寸法線
 62
     0
440
 16777216
370
    -2
100
AcDbLine
 10
2002.145062211142
 20
1401.249982630339
 30
0.0
 11
2002.145062211142
 21
1199.999982630339
 31
0.0
  0
LINE
  5
1174B
330
11224
100
AcDbEntity
  8
寸法線
 62
     0
440
 16777216
370
    -2
100
AcDbLine
 10
1522.145062211141
 20
1209.999982630339
 30
0.0
 11
1982.145062211142
 21
1209.999982630339
 31
0.0
  0
INSERT
  5
1174C
330
11224
100
AcDbEntity
  8
寸法線
 62
     0
440
 16777216
370
    -2
100
AcDbBlockReference
  2
_OPEN
 10
1502.145062211141
 20
1209.999982630339
 30
0.0
 41
20.0
 42
20.0
 43
20.0
 50
180.0
  0
INSERT
  5
1174D
330
11224
100
AcDbEntity
  8
寸法線
 62
     0
440
 16777216
370
    -2
100
AcDbBlockReference
  2
_OPEN
 10
2002.145062211142
 20
1209.999982630339
 30
0.0
 41
20.0
 42
20.0
 43
20.0
  0
MTEXT
  5
1174E
330
11224
100
AcDbEntity
  8
寸法線
 62
     0
440
 16777216
100
AcDbMText
 10
1752.145062211141
 20
1235.283535427951
 30
0.0
 40
25.0
 41
0.0
 46
0.0
 71
     5
 72
     1
  1
\A1;2@250=500
 73
     1
 44
1.0
  0
POINT
  5
1174F
330
11224
100
AcDbEntity
  8
Defpoints
 62
     0
440
 16777216
100
AcDbPoint
 10
1502.145062211141
 20
1409.999982630339
 30
0.0
  0
POINT
  5
11750
330
11224
100
AcDbEntity
  8
Defpoints
 62
     0
440
 16777216
100
AcDbPoint
 10
2002.145062211142
 20
1409.999982630339
 30
0.0
  0
POINT
  5
11751
330
11224
100
AcDbEntity
  8
Defpoints
 62
     0
440
 16777216
100
AcDbPoint
 10
2002.145062211142
 20
1209.999982630339
 30
0.0
  0
ENDBLK
  5
11226
330
11224
100
AcDbEntity
  8
0
100
AcDbBlockEnd
  0
BLOCK
  5
11231
330
11230
100
AcDbEntity
  8
0
100
AcDbBlockBegin
  2
*D33
 70
     1
 10
0.0
 20
0.0
 30
0.0
  3
*D33
  1

  0
LINE
  5
11752
330
11230
100
AcDbEntity
  8
寸法線
 62
     0
440
 16777216
370
    -2
100
AcDbLine
 10
901.2499360317601
 20
490.0000182446095
 30
0.0
 11
779.9999360317598
 21
490.0000182446094
 31
0.0
  0
LINE
  5
11753
330
11230
100
AcDbEntity
  8
寸法線
 62
     0
440
 16777216
370
    -2
100
AcDbLine
 10
901.2499360317601
 20
810.0000182446096
 30
0.0
 11
779.9999360317597
 21
810.0000182446096
 31
0.0
  0
LINE
  5
11754
330
11230
100
AcDbEntity
  8
寸法線
 62
     0
440
 16777216
370
    -2
100
AcDbLine
 10
789.9999360317598
 20
510.0000182446094
 30
0.0
 11
789.9999360317597
 21
790.0000182446096
 31
0.0
  0
INSERT
  5
11755
330
11230
100
AcDbEntity
  8
寸法線
 62
     0
440
 16777216
370
    -2
100
AcDbBlockReference
  2
_OPEN
 10
789.9999360317598
 20
490.0000182446094
 30
0.0
 41
20.0
 42
20.0
 43
20.0
 50
270.0
  0
INSERT
  5
11756
330
11230
100
AcDbEntity
  8
寸法線
 62
     0
440
 16777216
370
    -2
100
AcDbBlockReference
  2
_OPEN
 10
789.9999360317597
 20
810.0000182446096
 30
0.0
 41
20.0
 42
20.0
 43
20.0
 50
90.0
  0
MTEXT
  5
11757
330
11230
100
AcDbEntity
  8
寸法線
 62
     0
440
 16777216
100
AcDbMText
 10
768.7474754018384
 20
650.0000182446092
 30
0.0
 40
25.0
 41
0.0
 46
0.0
 71
     5
 72
     1
  1
\A1;320
 11
0.0000000000000001
 21
1.0
 31
0.0
 73
     1
 44
1.0
  0
POINT
  5
11758
330
11230
100
AcDbEntity
  8
Defpoints
 62
     0
440
 16777216
100
AcDbPoint
 10
909.9999360317601
 20
490.0000182446095
 30
0.0
  0
POINT
  5
11759
330
11230
100
AcDbEntity
  8
Defpoints
 62
     0
440
 16777216
100
AcDbPoint
 10
909.9999360317601
 20
810.0000182446096
 30
0.0
  0
POINT
  5
1175A
330
11230
100
AcDbEntity
  8
Defpoints
 62
     0
440
 16777216
100
AcDbPoint
 10
789.9999360317597
 20
810.0000182446096
 30
0.0
  0
ENDBLK
  5
11232
330
11230
100
AcDbEntity
  8
0
100
AcDbBlockEnd
  0
BLOCK
  5
1123D
330
1123C
100
AcDbEntity
  8
0
100
AcDbBlockBegin
  2
*D34
 70
     1
 10
0.0
 20
0.0
 30
0.0
  3
*D34
  1

  0
LINE
  5
115CC
330
1123C
100
AcDbEntity
  8
寸法線
 62
     0
440
 16777216
370
    -2
100
AcDbLine
 10
1565.895062164431
 20
1394.99998263034
 30
0.0
 11
1662.145062164433
 21
1394.99998263034
 31
0.0
  0
LINE
  5
115CD
330
1123C
100
AcDbEntity
  8
寸法線
 62
     0
440
 16777216
370
    -2
100
AcDbLine
 10
1560.895062164431
 20
1369.999982630339
 30
0.0
 11
1662.145062164433
 21
1369.999982630339
 31
0.0
  0
LINE
  5
115CE
330
1123C
100
AcDbEntity
  8
寸法線
 62
     0
440
 16777216
370
    -2
100
AcDbLine
 10
1652.145062164432
 20
1414.999982630339
 30
0.0
 11
1652.145062164432
 21
1434.99998263034
 31
0.0
  0
LINE
  5
115CF
330
1123C
100
AcDbEntity
  8
寸法線
 62
     0
440
 16777216
370
    -2
100
AcDbLine
 10
1652.145062164432
 20
1349.999982630339
 30
0.0
 11
1652.145062164432
 21
1329.999982630339
 31
0.0
  0
LINE
  5
115D0
330
1123C
100
AcDbEntity
  8
寸法線
 62
     0
440
 16777216
370
    -2
100
AcDbLine
 10
1652.145062164432
 20
1394.99998263034
 30
0.0
 11
1652.145062164432
 21
1369.999982630339
 31
0.0
  0
INSERT
  5
115D1
330
1123C
100
AcDbEntity
  8
寸法線
 62
     0
440
 16777216
370
    -2
100
AcDbBlockReference
  2
_OPEN
 10
1652.145062164432
 20
1394.99998263034
 30
0.0
 41
20.0
 42
20.0
 43
20.0
 50
270.0
  0
INSERT
  5
115D2
330
1123C
100
AcDbEntity
  8
寸法線
 62
     0
440
 16777216
370
    -2
100
AcDbBlockReference
  2
_OPEN
 10
1652.145062164432
 20
1369.999982630339
 30
0.0
 41
20.0
 42
20.0
 43
20.0
 50
90.0
  0
MTEXT
  5
115D3
330
1123C
100
AcDbEntity
  8
寸法線
 62
     0
440
 16777216
100
AcDbMText
 10
1630.892601534511
 20
1382.499982630339
 30
0.0
 40
25.0
 41
0.0
 46
0.0
 71
     5
 72
     1
  1
\A1;25
 11
0.0000000000000001
 21
1.0
 31
0.0
 73
     1
 44
1.0
  0
POINT
  5
115D4
330
1123C
100
AcDbEntity
  8
Defpoints
 62
     0
440
 16777216
100
AcDbPoint
 10
1557.145062164431
 20
1394.99998263034
 30
0.0
  0
POINT
  5
115D5
330
1123C
100
AcDbEntity
  8
Defpoints
 62
     0
440
 16777216
100
AcDbPoint
 10
1552.145062164431
 20
1369.999982630339
 30
0.0
  0
POINT
  5
115D6
330
1123C
100
AcDbEntity
  8
Defpoints
 62
     0
440
 16777216
100
AcDbPoint
 10
1652.145062164432
 20
1369.999982630339
 30
0.0
  0
ENDBLK
  5
1123E
330
1123C
100
AcDbEntity
  8
0
100
AcDbBlockEnd
  0
BLOCK
  5
1124B
330
1124A
100
AcDbEntity
  8
0
100
AcDbBlockBegin
  2
*D35
 70
     1
 10
0.0
 20
0.0
 30
0.0
  3
*D35
  1

  0
LINE
  5
115D7
330
1124A
100
AcDbEntity
  8
寸法線
 62
     0
440
 16777216
370
    -2
100
AcDbLine
 10
2460.895321509676
 20
1369.999980149998
 30
0.0
 11
2622.145022538209
 21
1369.999980149998
 31
0.0
  0
LINE
  5
115D8
330
1124A
100
AcDbEntity
  8
寸法線
 62
     0
440
 16777216
370
    -2
100
AcDbLine
 10
2560.035332727423
 20
1394.99998263034
 30
0.0
 11
2622.145022538209
 21
1394.99998263034
 31
0.0
  0
LINE
  5
115D9
330
1124A
100
AcDbEntity
  8
寸法線
 62
     0
440
 16777216
370
    -2
100
AcDbLine
 10
2612.145022538209
 20
1349.999980149998
 30
0.0
 11
2612.145022538209
 21
1329.999980149998
 31
0.0
  0
LINE
  5
115DA
330
1124A
100
AcDbEntity
  8
寸法線
 62
     0
440
 16777216
370
    -2
100
AcDbLine
 10
2612.145022538209
 20
1414.99998263034
 30
0.0
 11
2612.145022538209
 21
1434.99998263034
 31
0.0
  0
LINE
  5
115DB
330
1124A
100
AcDbEntity
  8
寸法線
 62
     0
440
 16777216
370
    -2
100
AcDbLine
 10
2612.145022538209
 20
1369.999980149998
 30
0.0
 11
2612.145022538209
 21
1394.99998263034
 31
0.0
  0
INSERT
  5
115DC
330
1124A
100
AcDbEntity
  8
寸法線
 62
     0
440
 16777216
370
    -2
100
AcDbBlockReference
  2
_OPEN
 10
2612.145022538209
 20
1369.999980149998
 30
0.0
 41
20.0
 42
20.0
 43
20.0
 50
90.0
  0
INSERT
  5
115DD
330
1124A
100
AcDbEntity
  8
寸法線
 62
     0
440
 16777216
370
    -2
100
AcDbBlockReference
  2
_OPEN
 10
2612.145022538209
 20
1394.99998263034
 30
0.0
 41
20.0
 42
20.0
 43
20.0
 50
270.0
  0
MTEXT
  5
115DE
330
1124A
100
AcDbEntity
  8
寸法線
 62
     0
440
 16777216
100
AcDbMText
 10
2590.892561908288
 20
1382.499981390168
 30
0.0
 40
25.0
 41
0.0
 46
0.0
 71
     5
 72
     1
  1
\A1;25
 11
0.0000000000000001
 21
1.0
 31
0.0
 73
     1
 44
1.0
  0
POINT
  5
115DF
330
1124A
100
AcDbEntity
  8
Defpoints
 62
     0
440
 16777216
100
AcDbPoint
 10
2452.145321509676
 20
1369.999980149998
 30
0.0
  0
POINT
  5
115E0
330
1124A
100
AcDbEntity
  8
Defpoints
 62
     0
440
 16777216
100
AcDbPoint
 10
2551.285332727423
 20
1394.99998263034
 30
0.0
  0
POINT
  5
115E1
330
1124A
100
AcDbEntity
  8
Defpoints
 62
     0
440
 16777216
100
AcDbPoint
 10
2612.145022538209
 20
1394.99998263034
 30
0.0
  0
ENDBLK
  5
1124C
330
1124A
100
AcDbEntity
  8
0
100
AcDbBlockEnd
  0
BLOCK
  5
11259
330
11258
100
AcDbEntity
  8
0
100
AcDbBlockBegin
  2
*D36
 70
     1
 10
0.0
 20
0.0
 30
0.0
  3
*D36
  1

  0
LINE
  5
115E2
330
11258
100
AcDbEntity
  8
寸法線
 62
     0
440
 16777216
370
    -2
100
AcDbLine
 10
2540.89502253821
 20
1652.999942930325
 30
0.0
 11
2622.145022538207
 21
1652.999942930325
 31
0.0
  0
LINE
  5
115E3
330
11258
100
AcDbEntity
  8
寸法線
 62
     0
440
 16777216
370
    -2
100
AcDbLine
 10
2540.89502253821
 20
1636.999942930325
 30
0.0
 11
2622.145022538207
 21
1636.999942930325
 31
0.0
  0
LINE
  5
115E4
330
11258
100
AcDbEntity
  8
寸法線
 62
     0
440
 16777216
370
    -2
100
AcDbLine
 10
2612.145022538207
 20
1672.999942930325
 30
0.0
 11
2612.145022538207
 21
1692.999942930325
 31
0.0
  0
LINE
  5
115E5
330
11258
100
AcDbEntity
  8
寸法線
 62
     0
440
 16777216
370
    -2
100
AcDbLine
 10
2612.145022538207
 20
1616.999942930325
 30
0.0
 11
2612.145022538207
 21
1596.999942930325
 31
0.0
  0
LINE
  5
115E6
330
11258
100
AcDbEntity
  8
寸法線
 62
     0
440
 16777216
370
    -2
100
AcDbLine
 10
2612.145022538207
 20
1652.999942930325
 30
0.0
 11
2612.145022538207
 21
1636.999942930325
 31
0.0
  0
INSERT
  5
115E7
330
11258
100
AcDbEntity
  8
寸法線
 62
     0
440
 16777216
370
    -2
100
AcDbBlockReference
  2
_OPEN
 10
2612.145022538207
 20
1652.999942930325
 30
0.0
 41
20.0
 42
20.0
 43
20.0
 50
270.0
  0
INSERT
  5
115E8
330
11258
100
AcDbEntity
  8
寸法線
 62
     0
440
 16777216
370
    -2
100
AcDbBlockReference
  2
_OPEN
 10
2612.145022538207
 20
1636.999942930325
 30
0.0
 41
20.0
 42
20.0
 43
20.0
 50
90.0
  0
MTEXT
  5
115E9
330
11258
100
AcDbEntity
  8
寸法線
 62
     0
440
 16777216
100
AcDbMText
 10
2590.895022538207
 20
1644.999942930324
 30
0.0
 40
25.0
 41
0.0
 46
0.0
 71
     5
 72
     1
  1
\A1;16
 11
0.0000000000000001
 21
1.0
 31
0.0
 73
     1
 44
1.0
  0
POINT
  5
115EA
330
11258
100
AcDbEntity
  8
Defpoints
 62
     0
440
 16777216
100
AcDbPoint
 10
2532.14502253821
 20
1652.999942930325
 30
0.0
  0
POINT
  5
115EB
330
11258
100
AcDbEntity
  8
Defpoints
 62
     0
440
 16777216
100
AcDbPoint
 10
2532.14502253821
 20
1636.999942930325
 30
0.0
  0
POINT
  5
115EC
330
11258
100
AcDbEntity
  8
Defpoints
 62
     0
440
 16777216
100
AcDbPoint
 10
2612.145022538207
 20
1636.999942930325
 30
0.0
  0
ENDBLK
  5
1125A
330
11258
100
AcDbEntity
  8
0
100
AcDbBlockEnd
  0
BLOCK
  5
11267
330
11266
100
AcDbEntity
  8
0
100
AcDbBlockBegin
  2
*D37
 70
     1
 10
0.0
 20
0.0
 30
0.0
  3
*D37
  1

  0
LINE
  5
115ED
330
11266
100
AcDbEntity
  8
寸法線
 62
     0
440
 16777216
370
    -2
100
AcDbLine
 10
2777.395022538211
 20
2225.999931484745
 30
0.0
 11
2696.14494291213
 21
2225.999931484745
 31
0.0
  0
LINE
  5
115EE
330
11266
100
AcDbEntity
  8
寸法線
 62
     0
440
 16777216
370
    -2
100
AcDbLine
 10
2777.395022538211
 20
2213.999931484745
 30
0.0
 11
2696.14494291213
 21
2213.999931484745
 31
0.0
  0
LINE
  5
115EF
330
11266
100
AcDbEntity
  8
寸法線
 62
     0
440
 16777216
370
    -2
100
AcDbLine
 10
2706.144942912131
 20
2245.999931484745
 30
0.0
 11
2706.144942912131
 21
2265.999931484745
 31
0.0
  0
LINE
  5
115F0
330
11266
100
AcDbEntity
  8
寸法線
 62
     0
440
 16777216
370
    -2
100
AcDbLine
 10
2706.144942912131
 20
2193.999931484745
 30
0.0
 11
2706.144942912131
 21
2173.999931484745
 31
0.0
  0
LINE
  5
115F1
330
11266
100
AcDbEntity
  8
寸法線
 62
     0
440
 16777216
370
    -2
100
AcDbLine
 10
2706.144942912131
 20
2225.999931484745
 30
0.0
 11
2706.144942912131
 21
2213.999931484745
 31
0.0
  0
INSERT
  5
115F2
330
11266
100
AcDbEntity
  8
寸法線
 62
     0
440
 16777216
370
    -2
100
AcDbBlockReference
  2
_OPEN
 10
2706.144942912131
 20
2225.999931484745
 30
0.0
 41
20.0
 42
20.0
 43
20.0
 50
270.0
  0
INSERT
  5
115F3
330
11266
100
AcDbEntity
  8
寸法線
 62
     0
440
 16777216
370
    -2
100
AcDbBlockReference
  2
_OPEN
 10
2706.144942912131
 20
2213.999931484745
 30
0.0
 41
20.0
 42
20.0
 43
20.0
 50
90.0
  0
MTEXT
  5
115F4
330
11266
100
AcDbEntity
  8
寸法線
 62
     0
440
 16777216
100
AcDbMText
 10
2684.892482282209
 20
2219.999931484744
 30
0.0
 40
25.0
 41
0.0
 46
0.0
 71
     5
 72
     1
  1
\A1;12
 11
0.0000000000000001
 21
1.0
 31
0.0
 73
     1
 44
1.0
  0
POINT
  5
115F5
330
11266
100
AcDbEntity
  8
Defpoints
 62
     0
440
 16777216
100
AcDbPoint
 10
2786.145022538211
 20
2225.999931484745
 30
0.0
  0
POINT
  5
115F6
330
11266
100
AcDbEntity
  8
Defpoints
 62
     0
440
 16777216
100
AcDbPoint
 10
2786.145022538211
 20
2213.999931484745
 30
0.0
  0
POINT
  5
115F7
330
11266
100
AcDbEntity
  8
Defpoints
 62
     0
440
 16777216
100
AcDbPoint
 10
2706.144942912131
 20
2213.999931484745
 30
0.0
  0
ENDBLK
  5
11268
330
11266
100
AcDbEntity
  8
0
100
AcDbBlockEnd
  0
BLOCK
  5
11275
330
11274
100
AcDbEntity
  8
0
100
AcDbBlockBegin
  2
*D38
 70
     1
 10
0.0
 20
0.0
 30
0.0
  3
*D38
  1

  0
LINE
  5
115F8
330
11274
100
AcDbEntity
  8
寸法線
 62
     0
440
 16777216
370
    -2
100
AcDbLine
 10
3766.581336855639
 20
2061.249962780316
 30
0.0
 11
3766.581336855639
 21
1939.999942967206
 31
0.0
  0
LINE
  5
115F9
330
11274
100
AcDbEntity
  8
寸法線
 62
     0
440
 16777216
370
    -2
100
AcDbLine
 10
3466.581336855639
 20
2061.249962780316
 30
0.0
 11
3466.581336855639
 21
1939.999942967206
 31
0.0
  0
LINE
  5
115FA
330
11274
100
AcDbEntity
  8
寸法線
 62
     0
440
 16777216
370
    -2
100
AcDbLine
 10
3746.581336855639
 20
1949.999942967206
 30
0.0
 11
3486.581336855639
 21
1949.999942967206
 31
0.0
  0
INSERT
  5
115FB
330
11274
100
AcDbEntity
  8
寸法線
 62
     0
440
 16777216
370
    -2
100
AcDbBlockReference
  2
_OPEN
 10
3766.581336855639
 20
1949.999942967206
 30
0.0
 41
20.0
 42
20.0
 43
20.0
  0
INSERT
  5
115FC
330
11274
100
AcDbEntity
  8
寸法線
 62
     0
440
 16777216
370
    -2
100
AcDbBlockReference
  2
_OPEN
 10
3466.581336855639
 20
1949.999942967206
 30
0.0
 41
20.0
 42
20.0
 43
20.0
 50
180.0
  0
MTEXT
  5
115FD
330
11274
100
AcDbEntity
  8
寸法線
 62
     0
440
 16777216
100
AcDbMText
 10
3616.581336855639
 20
1971.249942967206
 30
0.0
 40
25.0
 41
0.0
 46
0.0
 71
     5
 72
     1
  1
\A1;300
 73
     1
 44
1.0
  0
POINT
  5
115FE
330
11274
100
AcDbEntity
  8
Defpoints
 62
     0
440
 16777216
100
AcDbPoint
 10
3766.581336855639
 20
2069.999962780316
 30
0.0
  0
POINT
  5
115FF
330
11274
100
AcDbEntity
  8
Defpoints
 62
     0
440
 16777216
100
AcDbPoint
 10
3466.581336855639
 20
2069.999962780316
 30
0.0
  0
POINT
  5
11600
330
11274
100
AcDbEntity
  8
Defpoints
 62
     0
440
 16777216
100
AcDbPoint
 10
3466.581336855639
 20
1949.999942967206
 30
0.0
  0
ENDBLK
  5
11276
330
11274
100
AcDbEntity
  8
0
100
AcDbBlockEnd
  0
BLOCK
  5
11281
330
11280
100
AcDbEntity
  8
0
100
AcDbBlockBegin
  2
*D39
 70
     1
 10
0.0
 20
0.0
 30
0.0
  3
*D39
  1

  0
LINE
  5
11601
330
11280
100
AcDbEntity
  8
寸法線
 62
     0
440
 16777216
370
    -2
100
AcDbLine
 10
3457.831336855641
 20
2369.999982593426
 30
0.0
 11
3336.581336855638
 21
2369.999982593426
 31
0.0
  0
LINE
  5
11602
330
11280
100
AcDbEntity
  8
寸法線
 62
     0
440
 16777216
370
    -2
100
AcDbLine
 10
3457.831336855639
 20
2069.999962780316
 30
0.0
 11
3336.581336855638
 21
2069.999962780316
 31
0.0
  0
LINE
  5
11603
330
11280
100
AcDbEntity
  8
寸法線
 62
     0
440
 16777216
370
    -2
100
AcDbLine
 10
3346.581336855638
 20
2349.999982593426
 30
0.0
 11
3346.581336855638
 21
2089.999962780316
 31
0.0
  0
INSERT
  5
11604
330
11280
100
AcDbEntity
  8
寸法線
 62
     0
440
 16777216
370
    -2
100
AcDbBlockReference
  2
_OPEN
 10
3346.581336855638
 20
2369.999982593426
 30
0.0
 41
20.0
 42
20.0
 43
20.0
 50
90.0
  0
INSERT
  5
11605
330
11280
100
AcDbEntity
  8
寸法線
 62
     0
440
 16777216
370
    -2
100
AcDbBlockReference
  2
_OPEN
 10
3346.581336855638
 20
2069.999962780316
 30
0.0
 41
20.0
 42
20.0
 43
20.0
 50
270.0
  0
MTEXT
  5
11606
330
11280
100
AcDbEntity
  8
寸法線
 62
     0
440
 16777216
100
AcDbMText
 10
3325.331336855638
 20
2219.999972686871
 30
0.0
 40
25.0
 41
0.0
 46
0.0
 71
     5
 72
     1
  1
\A1;300
 11
0.0000000000000001
 21
1.0
 31
0.0
 73
     1
 44
1.0
  0
POINT
  5
11607
330
11280
100
AcDbEntity
  8
Defpoints
 62
     0
440
 16777216
100
AcDbPoint
 10
3466.581336855642
 20
2369.999982593426
 30
0.0
  0
POINT
  5
11608
330
11280
100
AcDbEntity
  8
Defpoints
 62
     0
440
 16777216
100
AcDbPoint
 10
3466.581336855639
 20
2069.999962780316
 30
0.0
  0
POINT
  5
11609
330
11280
100
AcDbEntity
  8
Defpoints
 62
     0
440
 16777216
100
AcDbPoint
 10
3346.581336855638
 20
2069.999962780316
 30
0.0
  0
ENDBLK
  5
11282
330
11280
100
AcDbEntity
  8
0
100
AcDbBlockEnd
  0
BLOCK
  5
1128D
330
1128C
100
AcDbEntity
  8
0
100
AcDbBlockBegin
  2
*D40
 70
     1
 10
0.0
 20
0.0
 30
0.0
  3
*D40
  1

  0
LINE
  5
1158B
330
1128C
100
AcDbEntity
  8
寸法線
 62
     0
440
 16777216
370
    -2
100
AcDbLine
 10
1052.145062257842
 20
1351.249984235718
 30
0.0
 11
1052.145062257842
 21
1119.999962839778
 31
0.0
  0
LINE
  5
1158C
330
1128C
100
AcDbEntity
  8
寸法線
 62
     0
440
 16777216
370
    -2
100
AcDbLine
 10
1452.145062257842
 20
1351.250002480348
 30
0.0
 11
1452.145062257842
 21
1119.999962839778
 31
0.0
  0
LINE
  5
1158D
330
1128C
100
AcDbEntity
  8
寸法線
 62
     0
440
 16777216
370
    -2
100
AcDbLine
 10
1072.145062257842
 20
1129.999962839778
 30
0.0
 11
1432.145062257842
 21
1129.999962839778
 31
0.0
  0
INSERT
  5
1158E
330
1128C
100
AcDbEntity
  8
寸法線
 62
     0
440
 16777216
370
    -2
100
AcDbBlockReference
  2
_OPEN
 10
1052.145062257842
 20
1129.999962839778
 30
0.0
 41
20.0
 42
20.0
 43
20.0
 50
180.0
  0
INSERT
  5
1158F
330
1128C
100
AcDbEntity
  8
寸法線
 62
     0
440
 16777216
370
    -2
100
AcDbBlockReference
  2
_OPEN
 10
1452.145062257842
 20
1129.999962839778
 30
0.0
 41
20.0
 42
20.0
 43
20.0
  0
MTEXT
  5
11590
330
1128C
100
AcDbEntity
  8
寸法線
 62
     0
440
 16777216
100
AcDbMText
 10
1252.145049805313
 20
1151.249962839778
 30
0.0
 40
25.0
 41
0.0
 46
0.0
 71
     5
 72
     1
  1
\A1;400
 73
     1
 44
1.0
  0
POINT
  5
11591
330
1128C
100
AcDbEntity
  8
Defpoints
 62
     0
440
 16777216
100
AcDbPoint
 10
1052.145062257842
 20
1359.999984235718
 30
0.0
  0
POINT
  5
11592
330
1128C
100
AcDbEntity
  8
Defpoints
 62
     0
440
 16777216
100
AcDbPoint
 10
1452.145062257842
 20
1360.000002480348
 30
0.0
  0
POINT
  5
11593
330
1128C
100
AcDbEntity
  8
Defpoints
 62
     0
440
 16777216
100
AcDbPoint
 10
1452.145062257842
 20
1129.999962839778
 30
0.0
  0
ENDBLK
  5
1128E
330
1128C
100
AcDbEntity
  8
0
100
AcDbBlockEnd
  0
BLOCK
  5
11299
330
11298
100
AcDbEntity
  8
0
100
AcDbBlockBegin
  2
*D41
 70
     1
 10
0.0
 20
0.0
 30
0.0
  3
*D41
  1

  0
LINE
  5
11594
330
11298
100
AcDbEntity
  8
寸法線
 62
     0
440
 16777216
370
    -2
100
AcDbLine
 10
552.1450423513215
 20
1361.249982630339
 30
0.0
 11
552.1450423513215
 21
1119.999962839778
 31
0.0
  0
LINE
  5
11595
330
11298
100
AcDbEntity
  8
寸法線
 62
     0
440
 16777216
370
    -2
100
AcDbLine
 10
1052.145062257842
 20
1351.249984235718
 30
0.0
 11
1052.145062257842
 21
1119.999962839778
 31
0.0
  0
LINE
  5
11596
330
11298
100
AcDbEntity
  8
寸法線
 62
     0
440
 16777216
370
    -2
100
AcDbLine
 10
572.1450423513215
 20
1129.999962839778
 30
0.0
 11
1032.145062257842
 21
1129.999962839778
 31
0.0
  0
INSERT
  5
11597
330
11298
100
AcDbEntity
  8
寸法線
 62
     0
440
 16777216
370
    -2
100
AcDbBlockReference
  2
_OPEN
 10
552.1450423513215
 20
1129.999962839778
 30
0.0
 41
20.0
 42
20.0
 43
20.0
 50
180.0
  0
INSERT
  5
11598
330
11298
100
AcDbEntity
  8
寸法線
 62
     0
440
 16777216
370
    -2
100
AcDbBlockReference
  2
_OPEN
 10
1052.145062257842
 20
1129.999962839778
 30
0.0
 41
20.0
 42
20.0
 43
20.0
  0
MTEXT
  5
11599
330
11298
100
AcDbEntity
  8
寸法線
 62
     0
440
 16777216
100
AcDbMText
 10
802.1450598052778
 20
1151.249962839778
 30
0.0
 40
25.0
 41
0.0
 46
0.0
 71
     5
 72
     1
  1
\A1;500
 73
     1
 44
1.0
  0
POINT
  5
1159A
330
11298
100
AcDbEntity
  8
Defpoints
 62
     0
440
 16777216
100
AcDbPoint
 10
552.1450423513215
 20
1369.999982630339
 30
0.0
  0
POINT
  5
1159B
330
11298
100
AcDbEntity
  8
Defpoints
 62
     0
440
 16777216
100
AcDbPoint
 10
1052.145062257842
 20
1359.999984235718
 30
0.0
  0
POINT
  5
1159C
330
11298
100
AcDbEntity
  8
Defpoints
 62
     0
440
 16777216
100
AcDbPoint
 10
1052.145062257842
 20
1129.999962839778
 30
0.0
  0
ENDBLK
  5
1129A
330
11298
100
AcDbEntity
  8
0
100
AcDbBlockEnd
  0
BLOCK
  5
112A5
330
112A4
100
AcDbEntity
  8
0
100
AcDbBlockBegin
  2
*D42
 70
     1
 10
0.0
 20
0.0
 30
0.0
  3
*D42
  1

  0
LINE
  5
1159D
330
112A4
100
AcDbEntity
  8
寸法線
 62
     0
440
 16777216
370
    -2
100
AcDbLine
 10
2452.145062257843
 20
1351.249984235718
 30
0.0
 11
2452.145062257843
 21
1119.999962839778
 31
0.0
  0
LINE
  5
1159E
330
112A4
100
AcDbEntity
  8
寸法線
 62
     0
440
 16777216
370
    -2
100
AcDbLine
 10
2052.145062257842
 20
1351.249984235718
 30
0.0
 11
2052.145062257842
 21
1119.999962839778
 31
0.0
  0
LINE
  5
1159F
330
112A4
100
AcDbEntity
  8
寸法線
 62
     0
440
 16777216
370
    -2
100
AcDbLine
 10
2432.145062257843
 20
1129.999962839778
 30
0.0
 11
2072.145062257842
 21
1129.999962839778
 31
0.0
  0
INSERT
  5
115A0
330
112A4
100
AcDbEntity
  8
寸法線
 62
     0
440
 16777216
370
    -2
100
AcDbBlockReference
  2
_OPEN
 10
2452.145062257843
 20
1129.999962839778
 30
0.0
 41
20.0
 42
20.0
 43
20.0
  0
INSERT
  5
115A1
330
112A4
100
AcDbEntity
  8
寸法線
 62
     0
440
 16777216
370
    -2
100
AcDbBlockReference
  2
_OPEN
 10
2052.145062257842
 20
1129.999962839778
 30
0.0
 41
20.0
 42
20.0
 43
20.0
 50
180.0
  0
MTEXT
  5
115A2
330
112A4
100
AcDbEntity
  8
寸法線
 62
     0
440
 16777216
100
AcDbMText
 10
2252.14505471045
 20
1151.249962839778
 30
0.0
 40
25.0
 41
0.0
 46
0.0
 71
     5
 72
     1
  1
\A1;400
 73
     1
 44
1.0
  0
POINT
  5
115A3
330
112A4
100
AcDbEntity
  8
Defpoints
 62
     0
440
 16777216
100
AcDbPoint
 10
2452.145062257843
 20
1359.999984235718
 30
0.0
  0
POINT
  5
115A4
330
112A4
100
AcDbEntity
  8
Defpoints
 62
     0
440
 16777216
100
AcDbPoint
 10
2052.145062257842
 20
1359.999984235718
 30
0.0
  0
POINT
  5
115A5
330
112A4
100
AcDbEntity
  8
Defpoints
 62
     0
440
 16777216
100
AcDbPoint
 10
2052.145062257842
 20
1129.999962839778
 30
0.0
  0
ENDBLK
  5
112A6
330
112A4
100
AcDbEntity
  8
0
100
AcDbBlockEnd
  0
BLOCK
  5
112B1
330
112B0
100
AcDbEntity
  8
0
100
AcDbBlockBegin
  2
*D43
 70
     1
 10
0.0
 20
0.0
 30
0.0
  3
*D43
  1

  0
LINE
  5
115A6
330
112B0
100
AcDbEntity
  8
寸法線
 62
     0
440
 16777216
370
    -2
100
AcDbLine
 10
543.3950423513217
 20
1670.000019850016
 30
0.0
 11
422.1450423513211
 21
1670.000019850016
 31
0.0
  0
LINE
  5
115A7
330
112B0
100
AcDbEntity
  8
寸法線
 62
     0
440
 16777216
370
    -2
100
AcDbLine
 10
543.3950423513217
 20
1369.999982630339
 30
0.0
 11
422.1450423513212
 21
1369.999982630339
 31
0.0
  0
LINE
  5
115A8
330
112B0
100
AcDbEntity
  8
寸法線
 62
     0
440
 16777216
370
    -2
100
AcDbLine
 10
432.1450423513211
 20
1650.000019850016
 30
0.0
 11
432.1450423513212
 21
1389.999982630339
 31
0.0
  0
INSERT
  5
115A9
330
112B0
100
AcDbEntity
  8
寸法線
 62
     0
440
 16777216
370
    -2
100
AcDbBlockReference
  2
_OPEN
 10
432.1450423513211
 20
1670.000019850016
 30
0.0
 41
20.0
 42
20.0
 43
20.0
 50
90.0
  0
INSERT
  5
115AA
330
112B0
100
AcDbEntity
  8
寸法線
 62
     0
440
 16777216
370
    -2
100
AcDbBlockReference
  2
_OPEN
 10
432.1450423513212
 20
1369.999982630339
 30
0.0
 41
20.0
 42
20.0
 43
20.0
 50
270.0
  0
MTEXT
  5
115AB
330
112B0
100
AcDbEntity
  8
寸法線
 62
     0
440
 16777216
100
AcDbMText
 10
410.8950423513215
 20
1520.000001240177
 30
0.0
 40
25.0
 41
0.0
 46
0.0
 71
     5
 72
     1
  1
\A1;300
 11
0.0000000000000001
 21
1.0
 31
0.0
 73
     1
 44
1.0
  0
POINT
  5
115AC
330
112B0
100
AcDbEntity
  8
Defpoints
 62
     0
440
 16777216
100
AcDbPoint
 10
552.1450423513218
 20
1670.000019850016
 30
0.0
  0
POINT
  5
115AD
330
112B0
100
AcDbEntity
  8
Defpoints
 62
     0
440
 16777216
100
AcDbPoint
 10
552.1450423513218
 20
1369.999982630339
 30
0.0
  0
POINT
  5
115AE
330
112B0
100
AcDbEntity
  8
Defpoints
 62
     0
440
 16777216
100
AcDbPoint
 10
432.1450423513212
 20
1369.999982630339
 30
0.0
  0
ENDBLK
  5
112B2
330
112B0
100
AcDbEntity
  8
0
100
AcDbBlockEnd
  0
BLOCK
  5
112BD
330
112BC
100
AcDbEntity
  8
0
100
AcDbBlockBegin
  2
*D44
 70
     1
 10
0.0
 20
0.0
 30
0.0
  3
*D44
  1

  0
LINE
  5
115AF
330
112BC
100
AcDbEntity
  8
寸法線
 62
     0
440
 16777216
370
    -2
100
AcDbLine
 10
2960.895042351323
 20
2363.999999999992
 30
0.0
 11
3082.145062164431
 21
2363.999999999992
 31
0.0
  0
LINE
  5
115B0
330
112BC
100
AcDbEntity
  8
寸法線
 62
     0
440
 16777216
370
    -2
100
AcDbLine
 10
2960.895042351323
 20
2075.999925560641
 30
0.0
 11
3082.145062164431
 21
2075.999925560641
 31
0.0
  0
LINE
  5
115B1
330
112BC
100
AcDbEntity
  8
寸法線
 62
     0
440
 16777216
370
    -2
100
AcDbLine
 10
3072.145062164431
 20
2343.999999999992
 30
0.0
 11
3072.145062164431
 21
2095.999925560641
 31
0.0
  0
INSERT
  5
115B2
330
112BC
100
AcDbEntity
  8
寸法線
 62
     0
440
 16777216
370
    -2
100
AcDbBlockReference
  2
_OPEN
 10
3072.145062164431
 20
2363.999999999992
 30
0.0
 41
20.0
 42
20.0
 43
20.0
 50
90.0
  0
INSERT
  5
115B3
330
112BC
100
AcDbEntity
  8
寸法線
 62
     0
440
 16777216
370
    -2
100
AcDbBlockReference
  2
_OPEN
 10
3072.145062164431
 20
2075.999925560641
 30
0.0
 41
20.0
 42
20.0
 43
20.0
 50
270.0
  0
MTEXT
  5
115B4
330
112BC
100
AcDbEntity
  8
寸法線
 62
     0
440
 16777216
100
AcDbMText
 10
3050.892601534509
 20
2219.999962780315
 30
0.0
 40
25.0
 41
0.0
 46
0.0
 71
     5
 72
     1
  1
\A1;288
 11
0.0000000000000001
 21
1.0
 31
0.0
 73
     1
 44
1.0
  0
POINT
  5
115B5
330
112BC
100
AcDbEntity
  8
Defpoints
 62
     0
440
 16777216
100
AcDbPoint
 10
2952.145042351323
 20
2363.999999999992
 30
0.0
  0
POINT
  5
115B6
330
112BC
100
AcDbEntity
  8
Defpoints
 62
     0
440
 16777216
100
AcDbPoint
 10
2952.145042351323
 20
2075.999925560641
 30
0.0
  0
POINT
  5
115B7
330
112BC
100
AcDbEntity
  8
Defpoints
 62
     0
440
 16777216
100
AcDbPoint
 10
3072.145062164431
 20
2075.999925560641
 30
0.0
  0
ENDBLK
  5
112BE
330
112BC
100
AcDbEntity
  8
0
100
AcDbBlockEnd
  0
BLOCK
  5
112C9
330
112C8
100
AcDbEntity
  8
0
100
AcDbBlockBegin
  2
*D45
 70
     1
 10
0.0
 20
0.0
 30
0.0
  3
*D45
  1

  0
LINE
  5
115B8
330
112C8
100
AcDbEntity
  8
寸法線
 62
     0
440
 16777216
370
    -2
100
AcDbLine
 10
2952.145042154541
 20
1361.249982630339
 30
0.0
 11
2952.145036728941
 21
1119.999951595071
 31
0.0
  0
LINE
  5
115B9
330
112C8
100
AcDbEntity
  8
寸法線
 62
     0
440
 16777216
370
    -2
100
AcDbLine
 10
2452.14506206106
 20
1351.249984235718
 30
0.0
 11
2452.145056860356
 21
1119.999962839835
 31
0.0
  0
LINE
  5
115BA
330
112C8
100
AcDbEntity
  8
寸法線
 62
     0
440
 16777216
370
    -2
100
AcDbLine
 10
2932.145036953836
 20
1129.999952044861
 30
0.0
 11
2472.145057085251
 21
1129.999962390045
 31
0.0
  0
INSERT
  5
115BB
330
112C8
100
AcDbEntity
  8
寸法線
 62
     0
440
 16777216
370
    -2
100
AcDbBlockReference
  2
_OPEN
 10
2952.145036953836
 20
1129.99995159507
 30
0.0
 41
20.0
 42
20.0
 43
20.0
 50
359.9999987114448
  0
INSERT
  5
115BC
330
112C8
100
AcDbEntity
  8
寸法線
 62
     0
440
 16777216
370
    -2
100
AcDbBlockReference
  2
_OPEN
 10
2452.145057085251
 20
1129.999962839835
 30
0.0
 41
20.0
 42
20.0
 43
20.0
 50
179.9999987114448
  0
MTEXT
  5
115BD
330
112C8
100
AcDbEntity
  8
寸法線
 62
     0
440
 16777216
100
AcDbMText
 10
2702.145045075936
 20
1151.249957217453
 30
0.0
 40
25.0
 41
0.0
 46
0.0
 71
     5
 72
     1
  1
\A1;500
 11
0.9999999999999998
 21
-0.0000000224895302
 31
0.0
 73
     1
 44
1.0
  0
POINT
  5
115BE
330
112C8
100
AcDbEntity
  8
Defpoints
 62
     0
440
 16777216
100
AcDbPoint
 10
2952.145042351324
 20
1369.999982630339
 30
0.0
  0
POINT
  5
115BF
330
112C8
100
AcDbEntity
  8
Defpoints
 62
     0
440
 16777216
100
AcDbPoint
 10
2452.145062257844
 20
1359.999984235718
 30
0.0
  0
POINT
  5
115C0
330
112C8
100
AcDbEntity
  8
Defpoints
 62
     0
440
 16777216
100
AcDbPoint
 10
2452.145057085251
 20
1129.999962839835
 30
0.0
  0
ENDBLK
  5
112CA
330
112C8
100
AcDbEntity
  8
0
100
AcDbBlockEnd
  0
BLOCK
  5
112D5
330
112D4
100
AcDbEntity
  8
0
100
AcDbBlockBegin
  2
*D46
 70
     1
 10
0.0
 20
0.0
 30
0.0
  3
*D46
  1

  0
LINE
  5
115C1
330
112D4
100
AcDbEntity
  8
寸法線
 62
     0
440
 16777216
370
    -2
100
AcDbLine
 10
1540.895062164431
 20
1652.99998263034
 30
0.0
 11
1662.145062164432
 21
1652.99998263034
 31
0.0
  0
LINE
  5
115C2
330
112D4
100
AcDbEntity
  8
寸法線
 62
     0
440
 16777216
370
    -2
100
AcDbLine
 10
1540.895062164431
 20
1636.99998263034
 30
0.0
 11
1662.145062164432
 21
1636.99998263034
 31
0.0
  0
LINE
  5
115C3
330
112D4
100
AcDbEntity
  8
寸法線
 62
     0
440
 16777216
370
    -2
100
AcDbLine
 10
1652.145062164432
 20
1672.99998263034
 30
0.0
 11
1652.145062164432
 21
1692.99998263034
 31
0.0
  0
LINE
  5
115C4
330
112D4
100
AcDbEntity
  8
寸法線
 62
     0
440
 16777216
370
    -2
100
AcDbLine
 10
1652.145062164432
 20
1616.99998263034
 30
0.0
 11
1652.145062164432
 21
1596.99998263034
 31
0.0
  0
LINE
  5
115C5
330
112D4
100
AcDbEntity
  8
寸法線
 62
     0
440
 16777216
370
    -2
100
AcDbLine
 10
1652.145062164432
 20
1652.99998263034
 30
0.0
 11
1652.145062164432
 21
1636.99998263034
 31
0.0
  0
INSERT
  5
115C6
330
112D4
100
AcDbEntity
  8
寸法線
 62
     0
440
 16777216
370
    -2
100
AcDbBlockReference
  2
_OPEN
 10
1652.145062164432
 20
1652.99998263034
 30
0.0
 41
20.0
 42
20.0
 43
20.0
 50
270.0
  0
INSERT
  5
115C7
330
112D4
100
AcDbEntity
  8
寸法線
 62
     0
440
 16777216
370
    -2
100
AcDbBlockReference
  2
_OPEN
 10
1652.145062164432
 20
1636.99998263034
 30
0.0
 41
20.0
 42
20.0
 43
20.0
 50
90.0
  0
MTEXT
  5
115C8
330
112D4
100
AcDbEntity
  8
寸法線
 62
     0
440
 16777216
100
AcDbMText
 10
1630.895062164432
 20
1644.999982630339
 30
0.0
 40
25.0
 41
0.0
 46
0.0
 71
     5
 72
     1
  1
\A1;16
 11
0.0000000000000001
 21
1.0
 31
0.0
 73
     1
 44
1.0
  0
POINT
  5
115C9
330
112D4
100
AcDbEntity
  8
Defpoints
 62
     0
440
 16777216
100
AcDbPoint
 10
1532.14506216443
 20
1652.99998263034
 30
0.0
  0
POINT
  5
115CA
330
112D4
100
AcDbEntity
  8
Defpoints
 62
     0
440
 16777216
100
AcDbPoint
 10
1532.14506216443
 20
1636.99998263034
 30
0.0
  0
POINT
  5
115CB
330
112D4
100
AcDbEntity
  8
Defpoints
 62
     0
440
 16777216
100
AcDbPoint
 10
1652.145062164432
 20
1636.99998263034
 30
0.0
  0
ENDBLK
  5
112D6
330
112D4
100
AcDbEntity
  8
0
100
AcDbBlockEnd
  0
BLOCK
  5
117A4
330
117A3
100
AcDbEntity
  8
0
100
AcDbBlockBegin
  2
*D47
 70
     1
 10
0.0
 20
0.0
 30
0.0
  3
*D47
  1

  0
LINE
  5
117B1
330
117A3
100
AcDbEntity
  8
寸法線
 62
     0
440
 16777216
370
    -2
100
AcDbLine
 10
1690.249996414962
 20
749.9999817553909
 30
0.0
 11
1688.999996414961
 21
749.9999817553909
 31
0.0
  0
LINE
  5
117B2
330
117A3
100
AcDbEntity
  8
寸法線
 62
     0
440
 16777216
370
    -2
100
AcDbLine
 10
1690.249996414962
 20
799.9999817553912
 30
0.0
 11
1688.999996414961
 21
799.9999817553912
 31
0.0
  0
LINE
  5
117B3
330
117A3
100
AcDbEntity
  8
寸法線
 62
     0
440
 16777216
370
    -2
100
AcDbLine
 10
1698.999996414961
 20
729.999981755391
 30
0.0
 11
1698.999996414961
 21
709.999981755391
 31
0.0
  0
LINE
  5
117B4
330
117A3
100
AcDbEntity
  8
寸法線
 62
     0
440
 16777216
370
    -2
100
AcDbLine
 10
1698.999996414961
 20
819.9999817553912
 30
0.0
 11
1698.999996414961
 21
839.9999817553911
 31
0.0
  0
LINE
  5
117B5
330
117A3
100
AcDbEntity
  8
寸法線
 62
     0
440
 16777216
370
    -2
100
AcDbLine
 10
1698.999996414961
 20
749.9999817553909
 30
0.0
 11
1698.999996414961
 21
799.9999817553912
 31
0.0
  0
INSERT
  5
117B6
330
117A3
100
AcDbEntity
  8
寸法線
 62
     0
440
 16777216
370
    -2
100
AcDbBlockReference
  2
_OPEN
 10
1698.999996414961
 20
749.9999817553909
 30
0.0
 41
20.0
 42
20.0
 43
20.0
 50
90.0
  0
INSERT
  5
117B7
330
117A3
100
AcDbEntity
  8
寸法線
 62
     0
440
 16777216
370
    -2
100
AcDbBlockReference
  2
_OPEN
 10
1698.999996414961
 20
799.9999817553912
 30
0.0
 41
20.0
 42
20.0
 43
20.0
 50
270.0
  0
MTEXT
  5
117B8
330
117A3
100
AcDbEntity
  8
寸法線
 62
     0
440
 16777216
100
AcDbMText
 10
1677.749996414961
 20
774.9999817553904
 30
0.0
 40
25.0
 41
0.0
 46
0.0
 71
     5
 72
     1
  1
\A1;φ50
 11
0.0000000000000001
 21
1.0
 31
0.0
 73
     1
 44
1.0
  0
POINT
  5
117B9
330
117A3
100
AcDbEntity
  8
Defpoints
 62
     0
440
 16777216
100
AcDbPoint
 10
1698.999996414962
 20
749.9999817553909
 30
0.0
  0
POINT
  5
117BA
330
117A3
100
AcDbEntity
  8
Defpoints
 62
     0
440
 16777216
100
AcDbPoint
 10
1698.999996414962
 20
799.9999817553912
 30
0.0
  0
POINT
  5
117BB
330
117A3
100
AcDbEntity
  8
Defpoints
 62
     0
440
 16777216
100
AcDbPoint
 10
1698.999996414961
 20
799.9999817553912
 30
0.0
  0
ENDBLK
  5
117A5
330
117A3
100
AcDbEntity
  8
0
100
AcDbBlockEnd
  0
ENDSEC
  0
SECTION
  2
ENTITIES
  0
LINE
  5
10DE0
330
1F
100
AcDbEntity
  8
中心線
100
AcDbLine
 10
527.1450423513215
 20
2220.000000400203
 30
0.0
 11
2977.145062164431
 21
2219.999962780315
 31
0.0
  0
LINE
  5
10DE1
330
1F
100
AcDbEntity
  8
中心線
100
AcDbLine
 10
527.1450423513215
 20
1519.999982630339
 30
0.0
 11
2977.145042351322
 21
1519.999982630339
 31
0.0
  0
LINE
  5
10DE2
330
1F
100
AcDbEntity
  8
中心線
100
AcDbLine
 10
1502.145042351321
 20
1629.999982630339
 30
0.0
 11
1502.145042351321
 21
1560.000019850015
 31
0.0
  0
LINE
  5
10DE3
330
1F
100
AcDbEntity
  8
中心線
100
AcDbLine
 10
1467.145060961159
 20
1595.000001240177
 30
0.0
 11
1537.145023741483
 21
1595.000001240177
 31
0.0
  0
CIRCLE
  5
10DE4
330
1F
100
AcDbEntity
  8
実線
100
AcDbCircle
 10
1502.145042351321
 20
1595.000001240177
 30
0.0
 40
12.5
  0
LINE
  5
10DE5
330
1F
100
AcDbEntity
  8
破線
100
AcDbLine
 10
2052.14506216443
 20
1524.99998263034
 30
0.0
 11
1452.14506216443
 21
1524.99998263034
 31
0.0
  0
DIMENSION
  5
10DE6
330
1F
100
AcDbEntity
  8
寸法線
100
AcDbDimension
280
     0
  2
*D40
 10
1452.145062257842
 20
1129.999962839778
 30
0.0
 11
1252.145049805313
 21
1129.999962839778
 31
0.0
 70
   160
 71
     5
 42
400.0
 73
     0
 74
     0
 75
     0
  3
STANDARD
100
AcDbAlignedDimension
 13
1052.145062257842
 23
1359.999984235718
 33
0.0
 14
1452.145062257842
 24
1360.000002480348
 34
0.0
100
AcDbRotatedDimension
  0
DIMENSION
  5
10DE7
330
1F
100
AcDbEntity
  8
寸法線
100
AcDbDimension
280
     0
  2
*D41
 10
1052.145062257842
 20
1129.999962839778
 30
0.0
 11
802.1450598052778
 21
1129.999962839778
 31
0.0
 70
   160
 71
     5
 42
500.0000199065206
 73
     0
 74
     0
 75
     0
  3
STANDARD
100
AcDbAlignedDimension
 13
552.1450423513215
 23
1369.999982630339
 33
0.0
 14
1052.145062257842
 24
1359.999984235718
 34
0.0
100
AcDbRotatedDimension
  0
DIMENSION
  5
10DE8
330
1F
100
AcDbEntity
  8
寸法線
100
AcDbDimension
280
     0
  2
*D42
 10
2052.145062257842
 20
1129.999962839778
 30
0.0
 11
2252.14505471045
 21
1129.999962839778
 31
0.0
 70
   160
 71
     5
 42
400.0000000000008
 73
     0
 74
     0
 75
     0
  3
STANDARD
100
AcDbAlignedDimension
 13
2452.145062257843
 23
1359.999984235718
 33
0.0
 14
2052.145062257842
 24
1359.999984235718
 34
0.0
 50
180.0
100
AcDbRotatedDimension
  0
LINE
  5
10DE9
330
1F
100
AcDbEntity
  8
中心線
100
AcDbLine
 10
947.1450621644299
 20
1644.999982630339
 30
0.0
 11
1551.066281906214
 21
1644.999982630339
 31
0.0
  0
LINE
  5
10DEA
330
1F
100
AcDbEntity
  8
破線
100
AcDbLine
 10
1532.14506216443
 20
1652.999982630339
 30
0.0
 11
1452.145081977539
 21
1652.999982630339
 31
0.0
  0
LINE
  5
10DEB
330
1F
100
AcDbEntity
  8
破線
100
AcDbLine
 10
1532.14506216443
 20
1636.999982630339
 30
0.0
 11
1452.145081977539
 21
1636.999982630339
 31
0.0
  0
LINE
  5
10DEC
330
1F
100
AcDbEntity
  8
破線
100
AcDbLine
 10
1532.14506216443
 20
1652.999982630339
 30
0.0
 11
1532.14506216443
 21
1636.999982630339
 31
0.0
  0
DIMENSION
  5
10DED
330
1F
100
AcDbEntity
  8
寸法線
100
AcDbDimension
280
     0
  2
*D43
 10
432.1450423513212
 20
1369.999982630339
 30
0.0
 11
432.1450423513215
 21
1520.000001240177
 31
0.0
 70
   160
 71
     5
 42
300.0000372196762
 73
     0
 74
     0
 75
     0
  3
STANDARD
100
AcDbAlignedDimension
 13
552.1450423513215
 23
1670.000019850015
 33
0.0
 14
552.1450423513215
 24
1369.999982630339
 34
0.0
 50
90.0
100
AcDbRotatedDimension
  0
DIMENSION
  5
10DEE
330
1F
100
AcDbEntity
  8
寸法線
100
AcDbDimension
280
     0
  2
*D44
 10
3072.145062164431
 20
2075.999925560641
 30
0.0
 11
3072.14506216443
 21
2219.999962780315
 31
0.0
 70
   160
 71
     5
 42
288.000074439351
 73
     0
 74
     0
 75
     0
  3
STANDARD
100
AcDbAlignedDimension
 13
2952.145042351322
 23
2363.999999999991
 33
0.0
 14
2952.145042351322
 24
2075.99992556064
 34
0.0
 50
90.0
100
AcDbRotatedDimension
  0
DIMENSION
  5
10DEF
330
1F
100
AcDbEntity
  8
寸法線
100
AcDbDimension
280
     0
  2
*D45
 10
2452.145057085251
 20
1129.999962839835
 30
0.0
 11
2702.145044598033
 21
1129.999957217453
 31
0.0
 70
   160
 71
     5
 42
499.9999798685848
 73
     0
 74
     0
 75
     0
  3
STANDARD
100
AcDbAlignedDimension
 13
2952.145042351324
 23
1369.999982630339
 33
0.0
 14
2452.145062257843
 24
1359.999984235718
 34
0.0
 50
179.9999987114448
100
AcDbRotatedDimension
  0
DIMENSION
  5
10DF0
330
1F
100
AcDbEntity
  8
寸法線
100
AcDbDimension
280
     0
  2
*D46
 10
1652.145062164432
 20
1636.99998263034
 30
0.0
 11
1652.145062164432
 21
1644.999982630339
 31
0.0
 70
   160
 71
     5
 42
16.0
 73
     0
 74
     0
 75
     0
  3
STANDARD
100
AcDbAlignedDimension
 13
1532.14506216443
 23
1652.999982630339
 33
0.0
 14
1532.14506216443
 24
1636.999982630339
 34
0.0
 50
90.0
100
AcDbRotatedDimension
  0
LINE
  5
10DF1
330
1F
100
AcDbEntity
  8
実線
100
AcDbLine
 10
2052.14506216443
 20
1669.999982630339
 30
0.0
 11
1452.14506216443
 21
1669.999982630339
 31
0.0
  0
LWPOLYLINE
  5
10DF2
330
1F
100
AcDbEntity
  8
Defpoints
100
AcDbPolyline
 90
        4
 70
     1
 43
0.0
 10
0.0
 20
0.0
 10
4200.0
 20
0.0
 10
4200.0
 20
2970.0
 10
0.0
 20
2970.0
  0
LWPOLYLINE
  5
10DF3
330
1F
100
AcDbEntity
  8
Defpoints
100
AcDbPolyline
 90
        4
 70
     1
 43
0.0
 10
69.0039999999999
 20
69.10750000000007
 10
4130.995999999998
 20
69.10750000000007
 10
4130.995999999998
 20
2900.8925
 10
69.0039999999999
 20
2900.8925
  0
LINE
  5
10DF4
330
1F
100
AcDbEntity
  8
中心線
100
AcDbLine
 10
1502.145042351321
 20
1409.999982630339
 30
0.0
 11
1502.145042351321
 21
1479.999945410664
 31
0.0
  0
LINE
  5
10DF5
330
1F
100
AcDbEntity
  8
中心線
100
AcDbLine
 10
1467.145060961159
 20
1444.999964020501
 30
0.0
 11
1537.145023741483
 21
1444.999964020501
 31
0.0
  0
CIRCLE
  5
10DF6
330
1F
100
AcDbEntity
  8
実線
100
AcDbCircle
 10
1502.145042351321
 20
1444.999964020501
 30
0.0
 40
12.5
  0
LINE
  5
10DF7
330
1F
100
AcDbEntity
  8
破線
100
AcDbLine
 10
2051.103386727227
 20
1514.999982630338
 30
0.0
 11
1452.14506216443
 21
1514.999982630338
 31
0.0
  0
LINE
  5
10DF8
330
1F
100
AcDbEntity
  8
破線
100
AcDbLine
 10
1532.14506216443
 20
1386.999982630339
 30
0.0
 11
1452.145081977539
 21
1386.999982630339
 31
0.0
  0
LINE
  5
10DF9
330
1F
100
AcDbEntity
  8
破線
100
AcDbLine
 10
1532.14506216443
 20
1402.999982630339
 30
0.0
 11
1452.145081977539
 21
1402.999982630339
 31
0.0
  0
LINE
  5
10DFA
330
1F
100
AcDbEntity
  8
破線
100
AcDbLine
 10
1532.14506216443
 20
1386.999982630339
 30
0.0
 11
1532.14506216443
 21
1402.999982630339
 31
0.0
  0
LINE
  5
10DFB
330
1F
100
AcDbEntity
  8
実線
100
AcDbLine
 10
2052.14506216443
 20
1369.999982630339
 30
0.0
 11
1452.14506216443
 21
1369.999982630339
 31
0.0
  0
LINE
  5
10DFC
330
1F
100
AcDbEntity
  8
中心線
100
AcDbLine
 10
2554.653117484193
 20
1644.999982630339
 30
0.0
 11
1947.14506216443
 21
1644.999982630339
 31
0.0
  0
LINE
  5
10DFD
330
1F
100
AcDbEntity
  8
破線
100
AcDbLine
 10
1972.14506216443
 20
1652.999982630339
 30
0.0
 11
2052.145002725104
 21
1652.999982630339
 31
0.0
  0
LINE
  5
10DFE
330
1F
100
AcDbEntity
  8
破線
100
AcDbLine
 10
1972.14506216443
 20
1636.999982630339
 30
0.0
 11
2052.145002725104
 21
1636.999982630339
 31
0.0
  0
LINE
  5
10DFF
330
1F
100
AcDbEntity
  8
破線
100
AcDbLine
 10
1972.145022538213
 20
1652.999982630339
 30
0.0
 11
1972.145022538213
 21
1636.999982630339
 31
0.0
  0
LINE
  5
10E00
330
1F
100
AcDbEntity
  8
破線
100
AcDbLine
 10
1972.14506216443
 20
1386.999982630339
 30
0.0
 11
2052.145002725104
 21
1386.999982630339
 31
0.0
  0
LINE
  5
10E01
330
1F
100
AcDbEntity
  8
破線
100
AcDbLine
 10
1972.14506216443
 20
1402.999982630339
 30
0.0
 11
2052.145002725104
 21
1402.999982630339
 31
0.0
  0
LINE
  5
10E02
330
1F
100
AcDbEntity
  8
破線
100
AcDbLine
 10
1972.145022538213
 20
1386.999982630339
 30
0.0
 11
1972.145022538213
 21
1402.999982630339
 31
0.0
  0
LINE
  5
10E03
330
1F
100
AcDbEntity
  8
中心線
100
AcDbLine
 10
947.1450621644299
 20
1394.999982630339
 30
0.0
 11
1553.710799152713
 21
1394.999982630339
 31
0.0
  0
LINE
  5
10E04
330
1F
100
AcDbEntity
  8
中心線
100
AcDbLine
 10
2551.285332727422
 20
1394.999982630339
 30
0.0
 11
1947.14506216443
 21
1394.999982630339
 31
0.0
  0
LINE
  5
10E05
330
1F
100
AcDbEntity
  8
中心線
100
AcDbLine
 10
1027.14506216443
 20
2344.999962780315
 30
0.0
 11
1478.401122477035
 21
2344.999962780315
 31
0.0
  0
LINE
  5
10E06
330
1F
100
AcDbEntity
  8
中心線
100
AcDbLine
 10
1027.14506216443
 20
2094.999962780316
 30
0.0
 11
1475.261618767388
 21
2094.999962780316
 31
0.0
  0
LINE
  5
10E08
330
1F
100
AcDbEntity
  8
実線
100
AcDbLine
 10
1068.145062257842
 20
1360.000002480348
 30
0.0
 11
1068.145062257843
 21
1680.000002480348
 31
0.0
  0
LINE
  5
10E09
330
1F
100
AcDbEntity
  8
実線
100
AcDbLine
 10
1052.145062257842
 20
1679.999984235718
 30
0.0
 11
1068.145062257843
 21
1679.999984235718
 31
0.0
  0
LINE
  5
10E0A
330
1F
100
AcDbEntity
  8
実線
100
AcDbLine
 10
1052.145062257842
 20
1359.999984235718
 30
0.0
 11
1068.145062257842
 21
1359.999984235718
 31
0.0
  0
LINE
  5
10E0B
330
1F
100
AcDbEntity
  8
実線
100
AcDbLine
 10
1436.145062257842
 20
1360.000002480348
 30
0.0
 11
1436.145062257842
 21
1680.000002480348
 31
0.0
  0
LINE
  5
10E0C
330
1F
100
AcDbEntity
  8
実線
100
AcDbLine
 10
1452.145062257842
 20
1360.000002480348
 30
0.0
 11
1452.145062257842
 21
1680.000002480348
 31
0.0
  0
LINE
  5
10E0D
330
1F
100
AcDbEntity
  8
実線
100
AcDbLine
 10
1436.145062257842
 20
1679.999984235718
 30
0.0
 11
1452.145062257842
 21
1679.999984235718
 31
0.0
  0
LINE
  5
10E0E
330
1F
100
AcDbEntity
  8
実線
100
AcDbLine
 10
1436.145062257842
 20
1359.999984235718
 30
0.0
 11
1452.145062257842
 21
1359.999984235718
 31
0.0
  0
LINE
  5
10E0F
330
1F
100
AcDbEntity
  8
実線
100
AcDbLine
 10
1080.145062257842
 20
1414.999984235718
 30
0.0
 11
1100.145062257843
 21
1414.999984235718
 31
0.0
  0
LINE
  5
10E10
330
1F
100
AcDbEntity
  8
実線
100
AcDbLine
 10
1100.145062257842
 20
1414.999984235718
 30
0.0
 11
1100.145062257842
 21
1624.999984235718
 31
0.0
  0
LINE
  5
10E11
330
1F
100
AcDbEntity
  8
実線
100
AcDbLine
 10
1404.145062257842
 20
1414.999984235718
 30
0.0
 11
1404.145062257842
 21
1624.999984235718
 31
0.0
  0
LINE
  5
10E12
330
1F
100
AcDbEntity
  8
実線
100
AcDbLine
 10
1404.145062257842
 20
1414.999984235718
 30
0.0
 11
1424.145062257842
 21
1414.999984235718
 31
0.0
  0
LINE
  5
10E13
330
1F
100
AcDbEntity
  8
実線
100
AcDbLine
 10
1068.145062257842
 20
1426.999984235718
 30
0.0
 11
1080.145062257842
 21
1414.999984235718
 31
0.0
  0
LINE
  5
10E14
330
1F
100
AcDbEntity
  8
実線
100
AcDbLine
 10
1424.145062257842
 20
1414.999984235718
 30
0.0
 11
1436.145062257842
 21
1426.999984235718
 31
0.0
  0
LINE
  5
10E15
330
1F
100
AcDbEntity
  8
実線
100
AcDbLine
 10
1068.145062257842
 20
1419.999984235718
 30
0.0
 11
1075.145062257842
 21
1419.999984235718
 31
0.0
  0
LINE
  5
10E16
330
1F
100
AcDbEntity
  8
実線
100
AcDbLine
 10
1068.145062257842
 20
1369.999984235718
 30
0.0
 11
1436.145062257842
 21
1369.999984235718
 31
0.0
  0
LINE
  5
10E17
330
1F
100
AcDbEntity
  8
実線
100
AcDbLine
 10
1429.145062257843
 20
1419.999984235718
 30
0.0
 11
1436.145062257842
 21
1419.999984235718
 31
0.0
  0
LINE
  5
10E18
330
1F
100
AcDbEntity
  8
実線
100
AcDbLine
 10
1100.145062257842
 20
1419.999984235718
 30
0.0
 11
1404.145062257842
 21
1419.999984235718
 31
0.0
  0
LINE
  5
10E19
330
1F
100
AcDbEntity
  8
破線
100
AcDbLine
 10
1075.145062257842
 20
1419.999984235718
 30
0.0
 11
1100.145062257842
 21
1419.999984235718
 31
0.0
  0
LINE
  5
10E1A
330
1F
100
AcDbEntity
  8
破線
100
AcDbLine
 10
1404.145062257842
 20
1419.999984235718
 30
0.0
 11
1429.145062257843
 21
1419.999984235718
 31
0.0
  0
LINE
  5
10E1B
330
1F
100
AcDbEntity
  8
破線
100
AcDbLine
 10
1068.145062257842
 20
1378.999984235718
 30
0.0
 11
1100.145062257843
 21
1378.999984235718
 31
0.0
  0
LINE
  5
10E1C
330
1F
100
AcDbEntity
  8
破線
100
AcDbLine
 10
1100.145062257843
 20
1378.999984235718
 30
0.0
 11
1100.145062257843
 21
1369.999984235718
 31
0.0
  0
LINE
  5
10E1D
330
1F
100
AcDbEntity
  8
破線
100
AcDbLine
 10
1404.145062257842
 20
1619.999984235718
 30
0.0
 11
1429.145062257843
 21
1619.999984235718
 31
0.0
  0
LINE
  5
10E1E
330
1F
100
AcDbEntity
  8
実線
100
AcDbLine
 10
1100.145062257842
 20
1619.999984235718
 30
0.0
 11
1404.145062257842
 21
1619.999984235718
 31
0.0
  0
LINE
  5
10E1F
330
1F
100
AcDbEntity
  8
実線
100
AcDbLine
 10
1429.145062257843
 20
1619.999984235718
 30
0.0
 11
1436.145062257842
 21
1619.999984235718
 31
0.0
  0
LINE
  5
10E20
330
1F
100
AcDbEntity
  8
実線
100
AcDbLine
 10
1068.145062257842
 20
1669.999984235718
 30
0.0
 11
1436.145062257842
 21
1669.99998269723
 31
0.0
  0
LINE
  5
10E21
330
1F
100
AcDbEntity
  8
実線
100
AcDbLine
 10
1404.145062257842
 20
1624.999984235718
 30
0.0
 11
1424.145062257842
 21
1624.999984235718
 31
0.0
  0
LINE
  5
10E22
330
1F
100
AcDbEntity
  8
実線
100
AcDbLine
 10
1424.145062257842
 20
1624.999984235718
 30
0.0
 11
1436.145062257842
 21
1612.999984235718
 31
0.0
  0
LINE
  5
10E23
330
1F
100
AcDbEntity
  8
破線
100
AcDbLine
 10
1068.145062257842
 20
1660.999984235718
 30
0.0
 11
1100.145062257843
 21
1660.999984235718
 31
0.0
  0
LINE
  5
10E24
330
1F
100
AcDbEntity
  8
破線
100
AcDbLine
 10
1100.145062257843
 20
1660.999984235718
 30
0.0
 11
1100.145062257843
 21
1669.999984235718
 31
0.0
  0
LINE
  5
10E25
330
1F
100
AcDbEntity
  8
破線
100
AcDbLine
 10
1075.145062257842
 20
1619.999984235718
 30
0.0
 11
1100.145062257842
 21
1619.999984235718
 31
0.0
  0
LINE
  5
10E26
330
1F
100
AcDbEntity
  8
実線
100
AcDbLine
 10
1080.145062257842
 20
1624.999984235718
 30
0.0
 11
1100.145062257843
 21
1624.999984235718
 31
0.0
  0
LINE
  5
10E27
330
1F
100
AcDbEntity
  8
実線
100
AcDbLine
 10
1068.145062257842
 20
1612.999984235718
 30
0.0
 11
1080.145062257842
 21
1624.999984235718
 31
0.0
  0
LINE
  5
10E28
330
1F
100
AcDbEntity
  8
実線
100
AcDbLine
 10
1068.145062257842
 20
1619.999984235718
 30
0.0
 11
1075.145062257842
 21
1619.999984235718
 31
0.0
  0
LINE
  5
10E29
330
1F
100
AcDbEntity
  8
破線
100
AcDbLine
 10
1436.145062257842
 20
1378.999984235718
 30
0.0
 11
1404.145062257842
 21
1378.999984235718
 31
0.0
  0
LINE
  5
10E2A
330
1F
100
AcDbEntity
  8
破線
100
AcDbLine
 10
1404.145062257842
 20
1378.999984235718
 30
0.0
 11
1404.145062257842
 21
1369.999984235718
 31
0.0
  0
LINE
  5
10E2B
330
1F
100
AcDbEntity
  8
破線
100
AcDbLine
 10
1404.145062257842
 20
1660.999984235718
 30
0.0
 11
1404.145062257842
 21
1669.999984235718
 31
0.0
  0
LINE
  5
10E2C
330
1F
100
AcDbEntity
  8
破線
100
AcDbLine
 10
1436.145062257842
 20
1660.999984235718
 30
0.0
 11
1404.145062257842
 21
1660.999984235718
 31
0.0
  0
LINE
  5
10E2D
330
1F
100
AcDbEntity
  8
破線
100
AcDbLine
 10
1068.145062257842
 20
1524.499984235718
 30
0.0
 11
1100.145062257842
 21
1524.499984235718
 31
0.0
  0
LINE
  5
10E2E
330
1F
100
AcDbEntity
  8
破線
100
AcDbLine
 10
1068.145062257842
 20
1515.499984235718
 30
0.0
 11
1100.145062257842
 21
1515.499984235718
 31
0.0
  0
LINE
  5
10E2F
330
1F
100
AcDbEntity
  8
破線
100
AcDbLine
 10
1404.145062257842
 20
1524.499984235718
 30
0.0
 11
1436.145062257842
 21
1524.499984235718
 31
0.0
  0
LINE
  5
10E30
330
1F
100
AcDbEntity
  8
破線
100
AcDbLine
 10
1404.145062257842
 20
1515.499984235718
 30
0.0
 11
1436.145062257842
 21
1515.499984235718
 31
0.0
  0
LINE
  5
10E31
330
1F
100
AcDbEntity
  8
実線
100
AcDbLine
 10
2052.145062257842
 20
1360.000002480348
 30
0.0
 11
2052.145062257842
 21
1680.000002480348
 31
0.0
  0
LINE
  5
10E32
330
1F
100
AcDbEntity
  8
実線
100
AcDbLine
 10
2068.145062257842
 20
1360.000002480348
 30
0.0
 11
2068.145062257843
 21
1680.000002480348
 31
0.0
  0
LINE
  5
10E33
330
1F
100
AcDbEntity
  8
実線
100
AcDbLine
 10
2052.145062257842
 20
1679.999984235718
 30
0.0
 11
2068.145062257843
 21
1679.999984235718
 31
0.0
  0
LINE
  5
10E34
330
1F
100
AcDbEntity
  8
実線
100
AcDbLine
 10
2052.145062257842
 20
1359.999984235718
 30
0.0
 11
2068.145062257842
 21
1359.999984235718
 31
0.0
  0
LINE
  5
10E35
330
1F
100
AcDbEntity
  8
実線
100
AcDbLine
 10
2436.145062257843
 20
1360.000002480348
 30
0.0
 11
2436.145062257843
 21
1680.000002480348
 31
0.0
  0
LINE
  5
10E37
330
1F
100
AcDbEntity
  8
実線
100
AcDbLine
 10
2436.145062257843
 20
1679.999984235718
 30
0.0
 11
2452.145062257843
 21
1679.999984235718
 31
0.0
  0
LINE
  5
10E38
330
1F
100
AcDbEntity
  8
実線
100
AcDbLine
 10
2436.145062257843
 20
1359.999984235718
 30
0.0
 11
2452.145062257843
 21
1359.999984235718
 31
0.0
  0
LINE
  5
10E39
330
1F
100
AcDbEntity
  8
実線
100
AcDbLine
 10
2080.145062257842
 20
1414.999984235718
 30
0.0
 11
2100.145062257843
 21
1414.999984235718
 31
0.0
  0
LINE
  5
10E3A
330
1F
100
AcDbEntity
  8
実線
100
AcDbLine
 10
2100.145062257842
 20
1414.999984235718
 30
0.0
 11
2100.145062257842
 21
1624.999984235718
 31
0.0
  0
LINE
  5
10E3B
330
1F
100
AcDbEntity
  8
実線
100
AcDbLine
 10
2404.145062257843
 20
1414.999984235718
 30
0.0
 11
2404.145062257843
 21
1624.999984235718
 31
0.0
  0
LINE
  5
10E3C
330
1F
100
AcDbEntity
  8
実線
100
AcDbLine
 10
2404.145062257843
 20
1414.999984235718
 30
0.0
 11
2424.145062257843
 21
1414.999984235718
 31
0.0
  0
LINE
  5
10E3D
330
1F
100
AcDbEntity
  8
実線
100
AcDbLine
 10
2068.145062257842
 20
1426.999984235718
 30
0.0
 11
2080.145062257842
 21
1414.999984235718
 31
0.0
  0
LINE
  5
10E3E
330
1F
100
AcDbEntity
  8
実線
100
AcDbLine
 10
2424.145062257843
 20
1414.999984235718
 30
0.0
 11
2436.145062257843
 21
1426.999984235718
 31
0.0
  0
LINE
  5
10E3F
330
1F
100
AcDbEntity
  8
実線
100
AcDbLine
 10
2068.145062257842
 20
1419.999984235718
 30
0.0
 11
2075.145062257842
 21
1419.999984235718
 31
0.0
  0
LINE
  5
10E40
330
1F
100
AcDbEntity
  8
実線
100
AcDbLine
 10
2068.145062257842
 20
1369.999984235718
 30
0.0
 11
2436.145062257843
 21
1369.999982697229
 31
0.0
  0
LINE
  5
10E41
330
1F
100
AcDbEntity
  8
実線
100
AcDbLine
 10
2429.145062257843
 20
1419.999984235718
 30
0.0
 11
2436.145062257843
 21
1419.999984235718
 31
0.0
  0
LINE
  5
10E42
330
1F
100
AcDbEntity
  8
実線
100
AcDbLine
 10
2100.145062257842
 20
1419.999984235718
 30
0.0
 11
2404.145062257843
 21
1419.999984235718
 31
0.0
  0
LINE
  5
10E43
330
1F
100
AcDbEntity
  8
破線
100
AcDbLine
 10
2075.145062257842
 20
1419.999984235718
 30
0.0
 11
2100.145062257842
 21
1419.999984235718
 31
0.0
  0
LINE
  5
10E44
330
1F
100
AcDbEntity
  8
破線
100
AcDbLine
 10
2404.145062257843
 20
1419.999984235718
 30
0.0
 11
2429.145062257843
 21
1419.999984235718
 31
0.0
  0
LINE
  5
10E45
330
1F
100
AcDbEntity
  8
破線
100
AcDbLine
 10
2068.145062257842
 20
1378.999984235718
 30
0.0
 11
2100.145062257843
 21
1378.999984235718
 31
0.0
  0
LINE
  5
10E46
330
1F
100
AcDbEntity
  8
破線
100
AcDbLine
 10
2100.145062257843
 20
1378.999984235718
 30
0.0
 11
2100.145062257843
 21
1369.999984235718
 31
0.0
  0
LINE
  5
10E47
330
1F
100
AcDbEntity
  8
破線
100
AcDbLine
 10
2404.145062257843
 20
1619.999984235718
 30
0.0
 11
2429.145062257843
 21
1619.999984235718
 31
0.0
  0
LINE
  5
10E48
330
1F
100
AcDbEntity
  8
実線
100
AcDbLine
 10
2100.145062257842
 20
1619.999984235718
 30
0.0
 11
2404.145062257843
 21
1619.999984235718
 31
0.0
  0
LINE
  5
10E49
330
1F
100
AcDbEntity
  8
実線
100
AcDbLine
 10
2429.145062257843
 20
1619.999984235718
 30
0.0
 11
2436.145062257843
 21
1619.999984235718
 31
0.0
  0
LINE
  5
10E4A
330
1F
100
AcDbEntity
  8
実線
100
AcDbLine
 10
2068.145062257842
 20
1669.999984235718
 30
0.0
 11
2436.145062257843
 21
1669.99998269723
 31
0.0
  0
LINE
  5
10E4B
330
1F
100
AcDbEntity
  8
実線
100
AcDbLine
 10
2404.145062257843
 20
1624.999984235718
 30
0.0
 11
2424.145062257843
 21
1624.999984235718
 31
0.0
  0
LINE
  5
10E4C
330
1F
100
AcDbEntity
  8
実線
100
AcDbLine
 10
2424.145062257843
 20
1624.999984235718
 30
0.0
 11
2436.145062257843
 21
1612.999984235718
 31
0.0
  0
LINE
  5
10E4D
330
1F
100
AcDbEntity
  8
破線
100
AcDbLine
 10
2068.145062257842
 20
1660.999984235718
 30
0.0
 11
2100.145062257843
 21
1660.999984235718
 31
0.0
  0
LINE
  5
10E4E
330
1F
100
AcDbEntity
  8
破線
100
AcDbLine
 10
2100.145062257843
 20
1660.999984235718
 30
0.0
 11
2100.145062257843
 21
1669.999984235718
 31
0.0
  0
LINE
  5
10E4F
330
1F
100
AcDbEntity
  8
破線
100
AcDbLine
 10
2075.145062257842
 20
1619.999984235718
 30
0.0
 11
2100.145062257842
 21
1619.999984235718
 31
0.0
  0
LINE
  5
10E50
330
1F
100
AcDbEntity
  8
実線
100
AcDbLine
 10
2080.145062257842
 20
1624.999984235718
 30
0.0
 11
2100.145062257843
 21
1624.999984235718
 31
0.0
  0
LINE
  5
10E51
330
1F
100
AcDbEntity
  8
実線
100
AcDbLine
 10
2068.145062257842
 20
1612.999984235718
 30
0.0
 11
2080.145062257842
 21
1624.999984235718
 31
0.0
  0
LINE
  5
10E52
330
1F
100
AcDbEntity
  8
実線
100
AcDbLine
 10
2068.145062257842
 20
1619.999984235718
 30
0.0
 11
2075.145062257842
 21
1619.999984235718
 31
0.0
  0
LINE
  5
10E53
330
1F
100
AcDbEntity
  8
破線
100
AcDbLine
 10
2436.145062257843
 20
1378.999984235718
 30
0.0
 11
2404.145062257843
 21
1378.999984235718
 31
0.0
  0
LINE
  5
10E54
330
1F
100
AcDbEntity
  8
破線
100
AcDbLine
 10
2404.145062257843
 20
1378.999984235718
 30
0.0
 11
2404.145062257843
 21
1369.999984235718
 31
0.0
  0
LINE
  5
10E55
330
1F
100
AcDbEntity
  8
破線
100
AcDbLine
 10
2404.145062257843
 20
1660.999984235718
 30
0.0
 11
2404.145062257843
 21
1669.999984235718
 31
0.0
  0
LINE
  5
10E56
330
1F
100
AcDbEntity
  8
破線
100
AcDbLine
 10
2436.145062257843
 20
1660.999984235718
 30
0.0
 11
2404.145062257843
 21
1660.999984235718
 31
0.0
  0
LINE
  5
10E57
330
1F
100
AcDbEntity
  8
破線
100
AcDbLine
 10
2068.145062257842
 20
1524.499984235718
 30
0.0
 11
2100.145062257842
 21
1524.499984235718
 31
0.0
  0
LINE
  5
10E58
330
1F
100
AcDbEntity
  8
破線
100
AcDbLine
 10
2068.145062257842
 20
1515.499984235718
 30
0.0
 11
2100.145062257842
 21
1515.499984235718
 31
0.0
  0
LINE
  5
10E59
330
1F
100
AcDbEntity
  8
破線
100
AcDbLine
 10
2404.145062257843
 20
1524.499984235718
 30
0.0
 11
2436.145062257843
 21
1524.499984235718
 31
0.0
  0
LINE
  5
10E5A
330
1F
100
AcDbEntity
  8
破線
100
AcDbLine
 10
2404.145062257843
 20
1515.499984235718
 30
0.0
 11
2436.145062257843
 21
1515.499984235718
 31
0.0
  0
LINE
  5
10E5B
330
1F
100
AcDbEntity
  8
実線
100
AcDbLine
 10
1052.145062257842
 20
2059.999982630324
 30
0.0
 11
1052.145062257842
 21
2379.999982630325
 31
0.0
  0
LINE
  5
10E5C
330
1F
100
AcDbEntity
  8
実線
100
AcDbLine
 10
1068.145062257842
 20
2059.999982630324
 30
0.0
 11
1068.145062257843
 21
2379.999982630325
 31
0.0
  0
LINE
  5
10E5D
330
1F
100
AcDbEntity
  8
実線
100
AcDbLine
 10
1052.145062257842
 20
2379.999964385695
 30
0.0
 11
1068.145062257843
 21
2379.999964385695
 31
0.0
  0
LINE
  5
10E5E
330
1F
100
AcDbEntity
  8
実線
100
AcDbLine
 10
1052.145062257842
 20
2059.999964385694
 30
0.0
 11
1068.145062257842
 21
2059.999964385694
 31
0.0
  0
LINE
  5
10E5F
330
1F
100
AcDbEntity
  8
実線
100
AcDbLine
 10
1436.145062257842
 20
2059.999982630324
 30
0.0
 11
1436.145062257842
 21
2379.999982630325
 31
0.0
  0
LINE
  5
10E60
330
1F
100
AcDbEntity
  8
実線
100
AcDbLine
 10
1452.145062257842
 20
2059.999982630324
 30
0.0
 11
1452.145062257842
 21
2379.999982630325
 31
0.0
  0
LINE
  5
10E61
330
1F
100
AcDbEntity
  8
実線
100
AcDbLine
 10
1436.145062257842
 20
2379.999964385695
 30
0.0
 11
1452.145062257842
 21
2379.999964385695
 31
0.0
  0
LINE
  5
10E62
330
1F
100
AcDbEntity
  8
実線
100
AcDbLine
 10
1436.145062257842
 20
2059.999964385694
 30
0.0
 11
1452.145062257842
 21
2059.999964385694
 31
0.0
  0
LINE
  5
10E63
330
1F
100
AcDbEntity
  8
実線
100
AcDbLine
 10
1080.145062257842
 20
2114.999964385694
 30
0.0
 11
1100.145062257843
 21
2114.999964385694
 31
0.0
  0
LINE
  5
10E64
330
1F
100
AcDbEntity
  8
実線
100
AcDbLine
 10
1100.145062257842
 20
2114.999964385694
 30
0.0
 11
1100.145062257842
 21
2324.999964385694
 31
0.0
  0
LINE
  5
10E65
330
1F
100
AcDbEntity
  8
実線
100
AcDbLine
 10
1404.145062257842
 20
2114.999964385694
 30
0.0
 11
1404.145062257842
 21
2324.999964385694
 31
0.0
  0
LINE
  5
10E66
330
1F
100
AcDbEntity
  8
実線
100
AcDbLine
 10
1404.145062257842
 20
2114.999964385694
 30
0.0
 11
1424.145062257842
 21
2114.999964385694
 31
0.0
  0
LINE
  5
10E67
330
1F
100
AcDbEntity
  8
実線
100
AcDbLine
 10
1068.145062257842
 20
2126.999964385694
 30
0.0
 11
1080.145062257842
 21
2114.999964385694
 31
0.0
  0
LINE
  5
10E68
330
1F
100
AcDbEntity
  8
実線
100
AcDbLine
 10
1424.145062257842
 20
2114.999964385694
 30
0.0
 11
1436.145062257842
 21
2126.999964385694
 31
0.0
  0
LINE
  5
10E69
330
1F
100
AcDbEntity
  8
実線
100
AcDbLine
 10
1068.145062257842
 20
2119.999964385694
 30
0.0
 11
1075.145062257842
 21
2119.999964385694
 31
0.0
  0
LINE
  5
10E6A
330
1F
100
AcDbEntity
  8
実線
100
AcDbLine
 10
1068.145062257842
 20
2069.999964385694
 30
0.0
 11
1436.145062257842
 21
2069.999964385694
 31
0.0
  0
LINE
  5
10E6B
330
1F
100
AcDbEntity
  8
実線
100
AcDbLine
 10
1429.145062257843
 20
2119.999964385694
 30
0.0
 11
1436.145062257842
 21
2119.999964385694
 31
0.0
  0
LINE
  5
10E6C
330
1F
100
AcDbEntity
  8
実線
100
AcDbLine
 10
1100.145062257842
 20
2119.999964385694
 30
0.0
 11
1404.145062257842
 21
2119.999964385694
 31
0.0
  0
LINE
  5
10E6D
330
1F
100
AcDbEntity
  8
破線
100
AcDbLine
 10
1075.145062257842
 20
2119.999964385694
 30
0.0
 11
1100.145062257842
 21
2119.999964385694
 31
0.0
  0
LINE
  5
10E6E
330
1F
100
AcDbEntity
  8
破線
100
AcDbLine
 10
1404.145062257842
 20
2119.999964385694
 30
0.0
 11
1429.145062257843
 21
2119.999964385694
 31
0.0
  0
LINE
  5
10E6F
330
1F
100
AcDbEntity
  8
破線
100
AcDbLine
 10
1068.145062257842
 20
2078.999964385694
 30
0.0
 11
1100.145062257843
 21
2078.999964385694
 31
0.0
  0
LINE
  5
10E70
330
1F
100
AcDbEntity
  8
破線
100
AcDbLine
 10
1100.145062257843
 20
2078.999964385694
 30
0.0
 11
1100.145062257843
 21
2069.999964385694
 31
0.0
  0
LINE
  5
10E71
330
1F
100
AcDbEntity
  8
破線
100
AcDbLine
 10
1404.145062257842
 20
2319.999964385694
 30
0.0
 11
1429.145062257843
 21
2319.999964385694
 31
0.0
  0
LINE
  5
10E72
330
1F
100
AcDbEntity
  8
実線
100
AcDbLine
 10
1100.145062257842
 20
2319.999964385694
 30
0.0
 11
1404.145062257842
 21
2319.999964385694
 31
0.0
  0
LINE
  5
10E73
330
1F
100
AcDbEntity
  8
実線
100
AcDbLine
 10
1429.145062257843
 20
2319.999964385694
 30
0.0
 11
1436.145062257842
 21
2319.999964385694
 31
0.0
  0
LINE
  5
10E74
330
1F
100
AcDbEntity
  8
実線
100
AcDbLine
 10
1068.145062257842
 20
2369.999964385694
 30
0.0
 11
1436.145062257842
 21
2369.999964385694
 31
0.0
  0
LINE
  5
10E75
330
1F
100
AcDbEntity
  8
実線
100
AcDbLine
 10
1404.145062257842
 20
2324.999964385694
 30
0.0
 11
1424.145062257842
 21
2324.999964385694
 31
0.0
  0
LINE
  5
10E76
330
1F
100
AcDbEntity
  8
実線
100
AcDbLine
 10
1424.145062257842
 20
2324.999964385694
 30
0.0
 11
1436.145062257842
 21
2312.999964385694
 31
0.0
  0
LINE
  5
10E77
330
1F
100
AcDbEntity
  8
破線
100
AcDbLine
 10
1068.145062257842
 20
2360.999964385694
 30
0.0
 11
1100.145062257843
 21
2360.999964385694
 31
0.0
  0
LINE
  5
10E78
330
1F
100
AcDbEntity
  8
破線
100
AcDbLine
 10
1100.145062257843
 20
2360.999964385694
 30
0.0
 11
1100.145062257843
 21
2369.999964385694
 31
0.0
  0
LINE
  5
10E79
330
1F
100
AcDbEntity
  8
破線
100
AcDbLine
 10
1075.145062257842
 20
2319.999964385694
 30
0.0
 11
1100.145062257842
 21
2319.999964385694
 31
0.0
  0
LINE
  5
10E7A
330
1F
100
AcDbEntity
  8
実線
100
AcDbLine
 10
1080.145062257842
 20
2324.999964385694
 30
0.0
 11
1100.145062257843
 21
2324.999964385694
 31
0.0
  0
LINE
  5
10E7B
330
1F
100
AcDbEntity
  8
実線
100
AcDbLine
 10
1068.145062257842
 20
2312.999964385694
 30
0.0
 11
1080.145062257842
 21
2324.999964385694
 31
0.0
  0
LINE
  5
10E7C
330
1F
100
AcDbEntity
  8
実線
100
AcDbLine
 10
1068.145062257842
 20
2319.999964385694
 30
0.0
 11
1075.145062257842
 21
2319.999964385694
 31
0.0
  0
LINE
  5
10E7D
330
1F
100
AcDbEntity
  8
破線
100
AcDbLine
 10
1436.145062257842
 20
2078.999964385694
 30
0.0
 11
1404.145062257842
 21
2078.999964385694
 31
0.0
  0
LINE
  5
10E7E
330
1F
100
AcDbEntity
  8
破線
100
AcDbLine
 10
1404.145062257842
 20
2078.999964385694
 30
0.0
 11
1404.145062257842
 21
2069.999964385694
 31
0.0
  0
LINE
  5
10E7F
330
1F
100
AcDbEntity
  8
破線
100
AcDbLine
 10
1404.145062257842
 20
2360.999964385694
 30
0.0
 11
1404.145062257842
 21
2369.999964385694
 31
0.0
  0
LINE
  5
10E80
330
1F
100
AcDbEntity
  8
破線
100
AcDbLine
 10
1436.145062257842
 20
2360.999964385694
 30
0.0
 11
1404.145062257842
 21
2360.999964385694
 31
0.0
  0
LINE
  5
10E81
330
1F
100
AcDbEntity
  8
破線
100
AcDbLine
 10
1068.145062257842
 20
2224.499964385694
 30
0.0
 11
1100.145062257842
 21
2224.499964385694
 31
0.0
  0
LINE
  5
10E82
330
1F
100
AcDbEntity
  8
破線
100
AcDbLine
 10
1068.145062257842
 20
2215.499964385694
 30
0.0
 11
1100.145062257842
 21
2215.499964385694
 31
0.0
  0
LINE
  5
10E83
330
1F
100
AcDbEntity
  8
破線
100
AcDbLine
 10
1404.145062257842
 20
2224.499964385694
 30
0.0
 11
1436.145062257842
 21
2224.499964385694
 31
0.0
  0
LINE
  5
10E84
330
1F
100
AcDbEntity
  8
破線
100
AcDbLine
 10
1404.145062257842
 20
2215.499964385694
 30
0.0
 11
1436.145062257842
 21
2215.499964385694
 31
0.0
  0
LINE
  5
10E85
330
1F
100
AcDbEntity
  8
実線
100
AcDbLine
 10
1532.145082164363
 20
2354.999962780315
 30
0.0
 11
1532.145082164363
 21
2334.999999999991
 31
0.0
  0
LINE
  5
10E86
330
1F
100
AcDbEntity
  8
実線
100
AcDbLine
 10
1482.145062351255
 20
2304.999962780315
 30
0.0
 11
1452.145062351253
 21
2304.999962780315
 31
0.0
  0
LINE
  5
10E87
330
1F
100
AcDbEntity
  8
実線
100
AcDbLine
 10
1532.145082164363
 20
2334.999999999991
 30
0.0
 11
1482.145062351255
 21
2304.999962780315
 31
0.0
  0
LINE
  5
10E88
330
1F
100
AcDbEntity
  8
中心線
100
AcDbLine
 10
1502.145082164363
 20
2379.999999999991
 30
0.0
 11
1502.145082164363
 21
2344.999999999991
 31
0.0
  0
LINE
  5
10E89
330
1F
100
AcDbEntity
  8
実線
100
AcDbLine
 10
1462.145082164363
 20
2354.999962780315
 30
0.0
 11
1452.145062351253
 21
2344.999962780315
 31
0.0
  0
LINE
  5
10E8A
330
1F
100
AcDbEntity
  8
仮想線
100
AcDbLine
 10
1458.145074239119
 20
2354.999962780315
 30
0.0
 11
1452.145062351253
 21
2348.999962780315
 31
0.0
  0
LINE
  5
10E8B
330
1F
100
AcDbEntity
  8
仮想線
100
AcDbLine
 10
1452.145053294372
 20
2375.999986133788
 30
0.0
 11
1458.145076647844
 21
2369.999962780315
 31
0.0
  0
LINE
  5
10E8C
330
1F
100
AcDbEntity
  8
実線
100
AcDbLine
 10
1532.145082164363
 20
2084.999962780315
 30
0.0
 11
1532.145082164363
 21
2104.99992556064
 31
0.0
  0
LINE
  5
10E8D
330
1F
100
AcDbEntity
  8
実線
100
AcDbLine
 10
1482.145062351255
 20
2134.999962780315
 30
0.0
 11
1452.145062351253
 21
2134.999962780315
 31
0.0
  0
LINE
  5
10E8E
330
1F
100
AcDbEntity
  8
実線
100
AcDbLine
 10
1532.145082164363
 20
2104.99992556064
 30
0.0
 11
1482.145062351255
 21
2134.999962780315
 31
0.0
  0
LINE
  5
10E8F
330
1F
100
AcDbEntity
  8
実線
100
AcDbLine
 10
1462.145082164363
 20
2084.999962780315
 30
0.0
 11
1452.145062351253
 21
2094.999962780315
 31
0.0
  0
LINE
  5
10E90
330
1F
100
AcDbEntity
  8
仮想線
100
AcDbLine
 10
1458.145074239119
 20
2084.999962780315
 30
0.0
 11
1452.145062351253
 21
2090.999962780315
 31
0.0
  0
LINE
  5
10E91
330
1F
100
AcDbEntity
  8
仮想線
100
AcDbLine
 10
1452.145053294372
 20
2063.999939426842
 30
0.0
 11
1458.145076647844
 21
2069.999962780315
 31
0.0
  0
LINE
  5
10E92
330
1F
100
AcDbEntity
  8
実線
100
AcDbLine
 10
2052.14506216443
 20
2369.999962780315
 30
0.0
 11
1452.145062351253
 21
2369.999962780315
 31
0.0
  0
LINE
  5
10E93
330
1F
100
AcDbEntity
  8
実線
100
AcDbLine
 10
2052.14506216443
 20
2354.999962780315
 30
0.0
 11
1452.145062351253
 21
2354.999962780315
 31
0.0
  0
LINE
  5
10E94
330
1F
100
AcDbEntity
  8
実線
100
AcDbLine
 10
2052.14506216443
 20
2069.999962780315
 30
0.0
 11
1452.145062351253
 21
2069.999962780315
 31
0.0
  0
LINE
  5
10E95
330
1F
100
AcDbEntity
  8
実線
100
AcDbLine
 10
2052.14506216443
 20
2084.999962780315
 30
0.0
 11
1452.145062351253
 21
2084.999962780315
 31
0.0
  0
LINE
  5
10E96
330
1F
100
AcDbEntity
  8
中心線
100
AcDbLine
 10
1502.145082164363
 20
2059.99992556064
 30
0.0
 11
1502.145082164363
 21
2094.999925560641
 31
0.0
  0
LINE
  5
10E97
330
1F
100
AcDbEntity
  8
中心線
100
AcDbLine
 10
2481.961805068264
 20
2344.999962780315
 30
0.0
 11
2027.145022538213
 21
2344.999962780315
 31
0.0
  0
LINE
  5
10E98
330
1F
100
AcDbEntity
  8
中心線
100
AcDbLine
 10
2477.437022108165
 20
2094.999962780316
 30
0.0
 11
2027.145022538213
 21
2094.999962780316
 31
0.0
  0
LINE
  5
10E9A
330
1F
100
AcDbEntity
  8
実線
100
AcDbLine
 10
2436.145022444801
 20
2059.999982630324
 30
0.0
 11
2436.1450224448
 21
2379.999982630325
 31
0.0
  0
LINE
  5
10E9B
330
1F
100
AcDbEntity
  8
実線
100
AcDbLine
 10
2452.145022444801
 20
2379.999964385695
 30
0.0
 11
2436.1450224448
 21
2379.999964385695
 31
0.0
  0
LINE
  5
10E9C
330
1F
100
AcDbEntity
  8
実線
100
AcDbLine
 10
2452.145022444801
 20
2059.999964385694
 30
0.0
 11
2436.145022444801
 21
2059.999964385694
 31
0.0
  0
LINE
  5
10E9D
330
1F
100
AcDbEntity
  8
実線
100
AcDbLine
 10
2068.145022444801
 20
2059.999982630324
 30
0.0
 11
2068.145022444801
 21
2379.999982630325
 31
0.0
  0
LINE
  5
10E9E
330
1F
100
AcDbEntity
  8
実線
100
AcDbLine
 10
2052.145022444801
 20
2059.999982630324
 30
0.0
 11
2052.145022444801
 21
2379.999982630325
 31
0.0
  0
LINE
  5
10E9F
330
1F
100
AcDbEntity
  8
実線
100
AcDbLine
 10
2068.145022444801
 20
2379.999964385695
 30
0.0
 11
2052.145022444801
 21
2379.999964385695
 31
0.0
  0
LINE
  5
10EA0
330
1F
100
AcDbEntity
  8
実線
100
AcDbLine
 10
2068.145022444801
 20
2059.999964385694
 30
0.0
 11
2052.145022444801
 21
2059.999964385694
 31
0.0
  0
LINE
  5
10EA1
330
1F
100
AcDbEntity
  8
実線
100
AcDbLine
 10
2424.145022444801
 20
2114.999964385694
 30
0.0
 11
2404.1450224448
 21
2114.999964385694
 31
0.0
  0
LINE
  5
10EA2
330
1F
100
AcDbEntity
  8
実線
100
AcDbLine
 10
2404.145022444801
 20
2114.999964385694
 30
0.0
 11
2404.145022444801
 21
2324.999964385694
 31
0.0
  0
LINE
  5
10EA3
330
1F
100
AcDbEntity
  8
実線
100
AcDbLine
 10
2100.145022444801
 20
2114.999964385694
 30
0.0
 11
2100.145022444801
 21
2324.999964385694
 31
0.0
  0
LINE
  5
10EA4
330
1F
100
AcDbEntity
  8
実線
100
AcDbLine
 10
2100.145022444801
 20
2114.999964385694
 30
0.0
 11
2080.145022444801
 21
2114.999964385694
 31
0.0
  0
LINE
  5
10EA5
330
1F
100
AcDbEntity
  8
実線
100
AcDbLine
 10
2436.145022444801
 20
2126.999964385694
 30
0.0
 11
2424.145022444801
 21
2114.999964385694
 31
0.0
  0
LINE
  5
10EA6
330
1F
100
AcDbEntity
  8
実線
100
AcDbLine
 10
2080.145022444801
 20
2114.999964385694
 30
0.0
 11
2068.145022444801
 21
2126.999964385694
 31
0.0
  0
LINE
  5
10EA7
330
1F
100
AcDbEntity
  8
実線
100
AcDbLine
 10
2436.145022444801
 20
2119.999964385694
 30
0.0
 11
2429.145022444801
 21
2119.999964385694
 31
0.0
  0
LINE
  5
10EA8
330
1F
100
AcDbEntity
  8
実線
100
AcDbLine
 10
2436.145022444801
 20
2069.999964385694
 30
0.0
 11
2068.144918859775
 21
2069.999964385694
 31
0.0
  0
LINE
  5
10EA9
330
1F
100
AcDbEntity
  8
実線
100
AcDbLine
 10
2075.1450224448
 20
2119.999964385694
 30
0.0
 11
2068.145022444801
 21
2119.999964385694
 31
0.0
  0
LINE
  5
10EAA
330
1F
100
AcDbEntity
  8
実線
100
AcDbLine
 10
2404.145022444801
 20
2119.999964385694
 30
0.0
 11
2100.144918859774
 21
2119.999964385694
 31
0.0
  0
LINE
  5
10EAB
330
1F
100
AcDbEntity
  8
破線
100
AcDbLine
 10
2429.145022444801
 20
2119.999964385694
 30
0.0
 11
2404.145022444801
 21
2119.999964385694
 31
0.0
  0
LINE
  5
10EAC
330
1F
100
AcDbEntity
  8
破線
100
AcDbLine
 10
2100.145022444801
 20
2119.999964385694
 30
0.0
 11
2075.1450224448
 21
2119.999964385694
 31
0.0
  0
LINE
  5
10EAD
330
1F
100
AcDbEntity
  8
破線
100
AcDbLine
 10
2436.145022444801
 20
2078.999964385694
 30
0.0
 11
2404.1450224448
 21
2078.999964385694
 31
0.0
  0
LINE
  5
10EAE
330
1F
100
AcDbEntity
  8
破線
100
AcDbLine
 10
2404.1450224448
 20
2078.999964385694
 30
0.0
 11
2404.1450224448
 21
2069.999964385694
 31
0.0
  0
LINE
  5
10EAF
330
1F
100
AcDbEntity
  8
破線
100
AcDbLine
 10
2100.145022444801
 20
2319.999964385694
 30
0.0
 11
2075.1450224448
 21
2319.999964385694
 31
0.0
  0
LINE
  5
10EB0
330
1F
100
AcDbEntity
  8
実線
100
AcDbLine
 10
2404.145022444801
 20
2319.999964385694
 30
0.0
 11
2100.144918859774
 21
2319.999964385694
 31
0.0
  0
LINE
  5
10EB1
330
1F
100
AcDbEntity
  8
実線
100
AcDbLine
 10
2075.1450224448
 20
2319.999964385694
 30
0.0
 11
2068.145022444801
 21
2319.999964385694
 31
0.0
  0
LINE
  5
10EB2
330
1F
100
AcDbEntity
  8
実線
100
AcDbLine
 10
2436.1450224448
 20
2369.999964385694
 30
0.0
 11
2068.144918859775
 21
2369.999964385694
 31
0.0
  0
LINE
  5
10EB3
330
1F
100
AcDbEntity
  8
実線
100
AcDbLine
 10
2100.145022444801
 20
2324.999964385694
 30
0.0
 11
2080.145022444801
 21
2324.999964385694
 31
0.0
  0
LINE
  5
10EB4
330
1F
100
AcDbEntity
  8
実線
100
AcDbLine
 10
2080.145022444801
 20
2324.999964385694
 30
0.0
 11
2068.145022444801
 21
2312.999964385694
 31
0.0
  0
LINE
  5
10EB5
330
1F
100
AcDbEntity
  8
破線
100
AcDbLine
 10
2436.145022444801
 20
2360.999964385694
 30
0.0
 11
2404.1450224448
 21
2360.999964385694
 31
0.0
  0
LINE
  5
10EB6
330
1F
100
AcDbEntity
  8
破線
100
AcDbLine
 10
2404.1450224448
 20
2360.999964385694
 30
0.0
 11
2404.1450224448
 21
2369.999964385694
 31
0.0
  0
LINE
  5
10EB7
330
1F
100
AcDbEntity
  8
破線
100
AcDbLine
 10
2429.145022444801
 20
2319.999964385694
 30
0.0
 11
2404.145022444801
 21
2319.999964385694
 31
0.0
  0
LINE
  5
10EB8
330
1F
100
AcDbEntity
  8
実線
100
AcDbLine
 10
2424.145022444801
 20
2324.999964385694
 30
0.0
 11
2404.1450224448
 21
2324.999964385694
 31
0.0
  0
LINE
  5
10EB9
330
1F
100
AcDbEntity
  8
実線
100
AcDbLine
 10
2436.145022444801
 20
2312.999964385694
 30
0.0
 11
2424.145022444801
 21
2324.999964385694
 31
0.0
  0
LINE
  5
10EBA
330
1F
100
AcDbEntity
  8
実線
100
AcDbLine
 10
2436.145022444801
 20
2319.999964385694
 30
0.0
 11
2429.145022444801
 21
2319.999964385694
 31
0.0
  0
LINE
  5
10EBB
330
1F
100
AcDbEntity
  8
破線
100
AcDbLine
 10
2068.145022444801
 20
2078.999964385694
 30
0.0
 11
2100.145022444801
 21
2078.999964385694
 31
0.0
  0
LINE
  5
10EBC
330
1F
100
AcDbEntity
  8
破線
100
AcDbLine
 10
2100.145022444801
 20
2078.999964385694
 30
0.0
 11
2100.145022444801
 21
2069.999964385694
 31
0.0
  0
LINE
  5
10EBD
330
1F
100
AcDbEntity
  8
破線
100
AcDbLine
 10
2100.145022444801
 20
2360.999964385694
 30
0.0
 11
2100.145022444801
 21
2369.999964385694
 31
0.0
  0
LINE
  5
10EBE
330
1F
100
AcDbEntity
  8
破線
100
AcDbLine
 10
2068.145022444801
 20
2360.999964385694
 30
0.0
 11
2100.145022444801
 21
2360.999964385694
 31
0.0
  0
LINE
  5
10EBF
330
1F
100
AcDbEntity
  8
破線
100
AcDbLine
 10
2436.145022444801
 20
2224.499964385694
 30
0.0
 11
2404.145022444801
 21
2224.499964385694
 31
0.0
  0
LINE
  5
10EC0
330
1F
100
AcDbEntity
  8
破線
100
AcDbLine
 10
2436.145022444801
 20
2215.499964385694
 30
0.0
 11
2404.145022444801
 21
2215.499964385694
 31
0.0
  0
LINE
  5
10EC1
330
1F
100
AcDbEntity
  8
破線
100
AcDbLine
 10
2100.145022444801
 20
2224.499964385694
 30
0.0
 11
2068.145022444801
 21
2224.499964385694
 31
0.0
  0
LINE
  5
10EC2
330
1F
100
AcDbEntity
  8
破線
100
AcDbLine
 10
2100.145022444801
 20
2215.499964385694
 30
0.0
 11
2068.145022444801
 21
2215.499964385694
 31
0.0
  0
LINE
  5
10EC3
330
1F
100
AcDbEntity
  8
実線
100
AcDbLine
 10
1972.14500253828
 20
2354.999962780315
 30
0.0
 11
1972.14500253828
 21
2334.999999999991
 31
0.0
  0
LINE
  5
10EC4
330
1F
100
AcDbEntity
  8
実線
100
AcDbLine
 10
2022.145022351388
 20
2304.999962780315
 30
0.0
 11
2052.145022351389
 21
2304.999962780315
 31
0.0
  0
LINE
  5
10EC5
330
1F
100
AcDbEntity
  8
実線
100
AcDbLine
 10
1972.14500253828
 20
2334.999999999991
 30
0.0
 11
2022.145022351388
 21
2304.999962780315
 31
0.0
  0
LINE
  5
10EC6
330
1F
100
AcDbEntity
  8
中心線
100
AcDbLine
 10
2002.14500253828
 20
2379.999999999991
 30
0.0
 11
2002.14500253828
 21
2344.999999999991
 31
0.0
  0
LINE
  5
10EC7
330
1F
100
AcDbEntity
  8
実線
100
AcDbLine
 10
2042.14500253828
 20
2354.999962780315
 30
0.0
 11
2052.145022351389
 21
2344.999962780315
 31
0.0
  0
LINE
  5
10EC8
330
1F
100
AcDbEntity
  8
仮想線
100
AcDbLine
 10
2046.145010463523
 20
2354.999962780315
 30
0.0
 11
2052.145022351389
 21
2348.999962780315
 31
0.0
  0
LINE
  5
10EC9
330
1F
100
AcDbEntity
  8
仮想線
100
AcDbLine
 10
2052.14503140827
 20
2375.999986133788
 30
0.0
 11
2046.145008054798
 21
2369.999962780315
 31
0.0
  0
LINE
  5
10ECA
330
1F
100
AcDbEntity
  8
実線
100
AcDbLine
 10
1972.14500253828
 20
2084.999962780315
 30
0.0
 11
1972.14500253828
 21
2104.99992556064
 31
0.0
  0
LINE
  5
10ECB
330
1F
100
AcDbEntity
  8
実線
100
AcDbLine
 10
2022.145022351388
 20
2134.999962780315
 30
0.0
 11
2052.145022351389
 21
2134.999962780315
 31
0.0
  0
LINE
  5
10ECC
330
1F
100
AcDbEntity
  8
実線
100
AcDbLine
 10
1972.14500253828
 20
2104.99992556064
 30
0.0
 11
2022.145022351388
 21
2134.999962780315
 31
0.0
  0
LINE
  5
10ECD
330
1F
100
AcDbEntity
  8
実線
100
AcDbLine
 10
2042.14500253828
 20
2084.999962780315
 30
0.0
 11
2052.145022351389
 21
2094.999962780315
 31
0.0
  0
LINE
  5
10ECE
330
1F
100
AcDbEntity
  8
仮想線
100
AcDbLine
 10
2046.145010463523
 20
2084.999962780315
 30
0.0
 11
2052.145022351389
 21
2090.999962780315
 31
0.0
  0
LINE
  5
10ECF
330
1F
100
AcDbEntity
  8
仮想線
100
AcDbLine
 10
2052.14503140827
 20
2063.999939426842
 30
0.0
 11
2046.145008054798
 21
2069.999962780315
 31
0.0
  0
LINE
  5
10ED0
330
1F
100
AcDbEntity
  8
中心線
100
AcDbLine
 10
2002.14500253828
 20
2059.99992556064
 30
0.0
 11
2002.14500253828
 21
2094.999925560641
 31
0.0
  0
TEXT
  5
10ED1
330
1F
100
AcDbEntity
  8
寸法線
100
AcDbText
 10
1529.86895094508
 20
2150.823272949951
 30
0.0
 40
25.0
  1
ﾘﾌﾞﾌﾟﾚｰﾄ①
 72
     2
 11
1673.202284278413
 21
2150.823272949951
 31
0.0
100
AcDbText
 73
     1
  0
DIMENSION
  5
10ED2
330
1F
100
AcDbEntity
  8
寸法線
100
AcDbDimension
280
     0
  2
*D34
 10
1652.145062164432
 20
1369.999982630339
 30
0.0
 11
1652.145062164432
 21
1382.499982630339
 31
0.0
 70
   160
 71
     5
 42
25.0
 73
     0
 74
     0
 75
     0
  3
STANDARD
100
AcDbAlignedDimension
 13
1557.14506216443
 23
1394.999982630339
 33
0.0
 14
1552.14506216443
 24
1369.999982630339
 34
0.0
 50
90.0
100
AcDbRotatedDimension
  0
LEADER
  5
10ED3
330
1F
100
AcDbEntity
  8
寸法線
100
AcDbLeader
  3
STANDARD
 76
     3
 10
1488.35846106978
 20
2102.198583303321
 30
0.0
 10
1527.145101977473
 20
2144.999962780315
 30
0.0
 10
1680.23564651219
 20
2144.999962780315
 30
0.0
211
-1.0
221
0.0
231
0.0
1001
ACAD
1000
DSTYLE
1002
{
1070
   147
1040
0.875
1070
    77
1070
     0
1002
}
  0
LINE
  5
10ED4
330
1F
100
AcDbEntity
  8
中心線
100
AcDbLine
 10
2002.145082164363
 20
1629.999982630339
 30
0.0
 11
2002.145082164363
 21
1560.000019850015
 31
0.0
  0
LINE
  5
10ED5
330
1F
100
AcDbEntity
  8
中心線
100
AcDbLine
 10
2037.145063554525
 20
1595.000001240177
 30
0.0
 11
1967.145100774201
 21
1595.000001240177
 31
0.0
  0
CIRCLE
  5
10ED6
330
1F
100
AcDbEntity
  8
実線
100
AcDbCircle
 10
2002.145082164363
 20
1595.000001240177
 30
0.0
 40
12.5
  0
LINE
  5
10ED7
330
1F
100
AcDbEntity
  8
中心線
100
AcDbLine
 10
2002.145082164363
 20
1409.999982630339
 30
0.0
 11
2002.145082164363
 21
1479.999945410664
 31
0.0
  0
LINE
  5
10ED8
330
1F
100
AcDbEntity
  8
中心線
100
AcDbLine
 10
2037.145063554525
 20
1444.999964020501
 30
0.0
 11
1967.145100774201
 21
1444.999964020501
 31
0.0
  0
CIRCLE
  5
10ED9
330
1F
100
AcDbEntity
  8
実線
100
AcDbCircle
 10
2002.145082164363
 20
1444.999964020501
 30
0.0
 40
12.5
  0
LINE
  5
10EDA
330
1F
100
AcDbEntity
  8
中心線
100
AcDbLine
 10
2002.145042351322
 20
2379.999999999991
 30
0.0
 11
2002.145042351322
 21
2344.999999999991
 31
0.0
  0
LINE
  5
10EDB
330
1F
100
AcDbEntity
  8
中心線
100
AcDbLine
 10
2002.145042351322
 20
2059.99992556064
 30
0.0
 11
2002.145042351322
 21
2094.999925560641
 31
0.0
  0
LINE
  5
10EDC
330
1F
100
AcDbEntity
  8
中心線
100
AcDbLine
 10
1752.145042351321
 20
1629.999982630339
 30
0.0
 11
1752.145042351321
 21
1560.000019850015
 31
0.0
  0
LINE
  5
10EDD
330
1F
100
AcDbEntity
  8
中心線
100
AcDbLine
 10
1717.145060961159
 20
1595.000001240177
 30
0.0
 11
1787.145023741484
 21
1595.000001240177
 31
0.0
  0
CIRCLE
  5
10EDE
330
1F
100
AcDbEntity
  8
実線
100
AcDbCircle
 10
1752.145042351321
 20
1595.000001240177
 30
0.0
 40
12.5
  0
LINE
  5
10EDF
330
1F
100
AcDbEntity
  8
中心線
100
AcDbLine
 10
1752.145042351321
 20
1409.999982630339
 30
0.0
 11
1752.145042351321
 21
1479.999945410664
 31
0.0
  0
LINE
  5
10EE0
330
1F
100
AcDbEntity
  8
中心線
100
AcDbLine
 10
1717.145060961159
 20
1444.999964020501
 30
0.0
 11
1787.145023741484
 21
1444.999964020501
 31
0.0
  0
CIRCLE
  5
10EE1
330
1F
100
AcDbEntity
  8
実線
100
AcDbCircle
 10
1752.145042351321
 20
1444.999964020501
 30
0.0
 40
12.5
  0
LINE
  5
10EE2
330
1F
100
AcDbEntity
  8
中心線
100
AcDbLine
 10
1752.145082164363
 20
2379.999999999991
 30
0.0
 11
1752.145082164363
 21
2344.999999999991
 31
0.0
  0
LINE
  5
10EE3
330
1F
100
AcDbEntity
  8
中心線
100
AcDbLine
 10
1752.145082164363
 20
2059.99992556064
 30
0.0
 11
1752.145082164363
 21
2094.999925560641
 31
0.0
  0
LINE
  5
10EE4
330
1F
100
AcDbEntity
  8
実線
100
AcDbLine
 10
3866.581356668747
 20
1669.999944170491
 30
0.0
 11
3366.581356855571
 21
1669.999944170491
 31
0.0
  0
LINE
  5
10EE5
330
1F
100
AcDbEntity
  8
実線
100
AcDbLine
 10
3866.581356668747
 20
1654.999944170492
 30
0.0
 11
3366.581356855571
 21
1654.999944170492
 31
0.0
  0
LINE
  5
10EE6
330
1F
100
AcDbEntity
  8
実線
100
AcDbLine
 10
3866.581356668747
 20
1369.999944170492
 30
0.0
 11
3366.581356855571
 21
1369.999944170492
 31
0.0
  0
LINE
  5
10EE7
330
1F
100
AcDbEntity
  8
実線
100
AcDbLine
 10
3866.581356668747
 20
1384.999944170492
 30
0.0
 11
3366.581356855571
 21
1384.999944170492
 31
0.0
  0
TEXT
  5
10EE8
330
1F
100
AcDbEntity
  8
寸法線
100
AcDbText
 10
3499.12033511852
 20
1766.699329771664
 30
0.0
 40
25.0
  1
横拘束鉄筋貫通孔
100
AcDbText
  0
LINE
  5
10EE9
330
1F
100
AcDbEntity
  8
寸法線
100
AcDbLine
 10
3496.255541523902
 20
1759.330141884786
 30
0.0
 11
3736.907172000416
 21
1759.330141884786
 31
0.0
  0
TEXT
  5
10EEA
330
1F
100
AcDbEntity
  8
寸法線
100
AcDbText
 10
3339.458099575684
 20
1184.487226105328
 30
0.0
 40
25.0
  1
※　横拘束鉄筋があり切梁と交差する場合。
 11
3339.458099575684
 21
1184.487226105328
 31
0.0
100
AcDbText
 73
     1
  0
TEXT
  5
10EEB
330
1F
100
AcDbEntity
  8
寸法線
100
AcDbText
 10
3228.719378968869
 20
1757.059903833309
 30
0.0
 40
25.0
  1
埋設部H型鋼
 72
     2
 11
3392.052712302202
 21
1782.059903833309
 31
0.0
100
AcDbText
 73
     3
  0
LEADER
  5
10EEC
330
1F
100
AcDbEntity
  8
寸法線
100
AcDbLeader
  3
STANDARD
 76
     3
 10
3460.036484478437
 20
1669.999944170491
 30
0.0
 10
3401.41535173245
 20
1749.841511772839
 30
0.0
 10
3226.342836503385
 20
1749.841511772839
 30
0.0
1001
ACAD
1000
DSTYLE
1002
{
1070
   147
1040
0.875
1070
    77
1070
     0
1002
}
  0
LINE
  5
10EED
330
1F
100
AcDbEntity
  8
細線
100
AcDbLine
 10
3385.331346949017
 20
1609.999944170492
 30
0.0
 11
3366.58135685557
 21
1609.999944170492
 31
0.0
  0
LINE
  5
10EEE
330
1F
100
AcDbEntity
  8
細線
100
AcDbLine
 10
3366.581346949017
 20
1429.999981390167
 30
0.0
 11
3347.83135685557
 21
1429.999981390167
 31
0.0
  0
LINE
  5
10EEF
330
1F
100
AcDbEntity
  8
細線
100
AcDbLine
 10
3385.331346949017
 20
1609.999944170492
 30
0.0
 11
3347.83135685557
 21
1429.999981390167
 31
0.0
  0
LINE
  5
10EF0
330
1F
100
AcDbEntity
  8
細線
100
AcDbLine
 10
3366.581356855571
 20
1694.999981390167
 30
0.0
 11
3366.581356855571
 21
1609.999944170492
 31
0.0
  0
LINE
  5
10EF1
330
1F
100
AcDbEntity
  8
細線
100
AcDbLine
 10
3366.581356855571
 20
1344.999981390167
 30
0.0
 11
3366.581356855571
 21
1430.000018609843
 31
0.0
  0
LINE
  5
10EF2
330
1F
100
AcDbEntity
  8
細線
100
AcDbLine
 10
3885.331346762193
 20
1609.999944170492
 30
0.0
 11
3866.581356668747
 21
1609.999944170492
 31
0.0
  0
LINE
  5
10EF3
330
1F
100
AcDbEntity
  8
細線
100
AcDbLine
 10
3866.581346762193
 20
1429.999981390167
 30
0.0
 11
3847.831356668747
 21
1429.999981390167
 31
0.0
  0
LINE
  5
10EF4
330
1F
100
AcDbEntity
  8
細線
100
AcDbLine
 10
3885.331346762193
 20
1609.999944170492
 30
0.0
 11
3847.831356668747
 21
1429.999981390167
 31
0.0
  0
LINE
  5
10EF5
330
1F
100
AcDbEntity
  8
細線
100
AcDbLine
 10
3866.581356668747
 20
1694.999981390167
 30
0.0
 11
3866.581356668747
 21
1609.999944170492
 31
0.0
  0
LINE
  5
10EF6
330
1F
100
AcDbEntity
  8
細線
100
AcDbLine
 10
3866.581356668747
 20
1344.999981390167
 30
0.0
 11
3866.581356668747
 21
1430.000018609843
 31
0.0
  0
LINE
  5
10EF8
330
1F
100
AcDbEntity
  8
実線
100
AcDbLine
 10
2952.145042351325
 20
1669.999980149991
 30
0.0
 11
2952.145042351325
 21
1369.99998014999
 31
0.0
  0
LINE
  5
10EF9
330
1F
100
AcDbEntity
  8
破線
100
AcDbLine
 10
2926.145042351325
 20
1524.999942930324
 30
0.0
 11
2936.145042351325
 21
1534.999942930324
 31
0.0
  0
LINE
  5
10EFA
330
1F
100
AcDbEntity
  8
仮想線
100
AcDbLine
 10
2930.145042351325
 20
1524.999942930324
 30
0.0
 11
2936.145042351325
 21
1530.999942930324
 31
0.0
  0
LINE
  5
10EFB
330
1F
100
AcDbEntity
  8
破線
100
AcDbLine
 10
2926.145042351325
 20
1514.999942930309
 30
0.0
 11
2936.145042351325
 21
1504.999942930309
 31
0.0
  0
LINE
  5
10EFC
330
1F
100
AcDbEntity
  8
仮想線
100
AcDbLine
 10
2930.145042351325
 20
1514.999942930309
 30
0.0
 11
2936.145042351325
 21
1508.999942930309
 31
0.0
  0
LINE
  5
10EFD
330
1F
100
AcDbEntity
  8
破線
100
AcDbLine
 10
2936.145042351325
 20
1644.999942930324
 30
0.0
 11
2911.145022538208
 21
1644.999942930324
 31
0.0
  0
LINE
  5
10EFE
330
1F
100
AcDbEntity
  8
破線
100
AcDbLine
 10
2786.145042351325
 20
1554.99998014999
 30
0.0
 11
2786.145042351325
 21
1524.999942930324
 31
0.0
  0
LINE
  5
10EFF
330
1F
100
AcDbEntity
  8
破線
100
AcDbLine
 10
2911.145022538208
 20
1644.999942930324
 30
0.0
 11
2786.145042351325
 21
1554.99998014999
 31
0.0
  0
LINE
  5
10F00
330
1F
100
AcDbEntity
  8
破線
100
AcDbLine
 10
2786.145042351325
 20
1484.999905710643
 30
0.0
 11
2786.145042351325
 21
1514.999942930309
 31
0.0
  0
LINE
  5
10F01
330
1F
100
AcDbEntity
  8
破線
100
AcDbLine
 10
2911.145022538208
 20
1394.999942930309
 30
0.0
 11
2786.145042351325
 21
1484.999905710643
 31
0.0
  0
LINE
  5
10F02
330
1F
100
AcDbEntity
  8
破線
100
AcDbLine
 10
2936.145042351325
 20
1394.999942930309
 30
0.0
 11
2911.145022538208
 21
1394.999942930309
 31
0.0
  0
LINE
  5
10F03
330
1F
100
AcDbEntity
  8
実線
100
AcDbLine
 10
2452.145022538209
 20
1370.000091809019
 30
0.0
 11
2952.145042351325
 21
1369.99998014999
 31
0.0
  0
LINE
  5
10F04
330
1F
100
AcDbEntity
  8
破線
100
AcDbLine
 10
2452.145022538209
 20
1515.000017369671
 30
0.0
 11
2936.145042351325
 21
1515.000017369671
 31
0.0
  0
LINE
  5
10F05
330
1F
100
AcDbEntity
  8
破線
100
AcDbLine
 10
2452.145022538209
 20
1525.000017369671
 30
0.0
 11
2936.145042351325
 21
1525.000017369671
 31
0.0
  0
LINE
  5
10F06
330
1F
100
AcDbEntity
  8
実線
100
AcDbLine
 10
2452.145022538209
 20
1669.999942930324
 30
0.0
 11
2952.145042351325
 21
1669.999980149991
 31
0.0
  0
LINE
  5
10F07
330
1F
100
AcDbEntity
  8
実線
100
AcDbLine
 10
2936.145042351325
 20
1669.999942930324
 30
0.0
 11
2936.145042351325
 21
1370.000091809019
 31
0.0
  0
LINE
  5
10F08
330
1F
100
AcDbEntity
  8
破線
100
AcDbLine
 10
2452.145022538209
 20
1652.999942930324
 30
0.0
 11
2532.145022538209
 21
1652.999942930324
 31
0.0
  0
LINE
  5
10F09
330
1F
100
AcDbEntity
  8
破線
100
AcDbLine
 10
2452.145022538209
 20
1636.999942930324
 30
0.0
 11
2532.145022538209
 21
1636.999942930324
 31
0.0
  0
LINE
  5
10F0A
330
1F
100
AcDbEntity
  8
破線
100
AcDbLine
 10
2532.145022538209
 20
1652.999942930324
 30
0.0
 11
2532.145022538209
 21
1636.999942930324
 31
0.0
  0
LINE
  5
10F0B
330
1F
100
AcDbEntity
  8
破線
100
AcDbLine
 10
2452.145022538209
 20
1387.000091809019
 30
0.0
 11
2532.145022538209
 21
1387.000091809019
 31
0.0
  0
LINE
  5
10F0C
330
1F
100
AcDbEntity
  8
破線
100
AcDbLine
 10
2452.145022538209
 20
1403.000091809019
 30
0.0
 11
2532.145022538209
 21
1403.000091809019
 31
0.0
  0
LINE
  5
10F0D
330
1F
100
AcDbEntity
  8
破線
100
AcDbLine
 10
2532.145022538209
 20
1387.000091809019
 30
0.0
 11
2532.145022538209
 21
1403.000091809019
 31
0.0
  0
LINE
  5
10F0E
330
1F
100
AcDbEntity
  8
実線
100
AcDbLine
 10
2452.145062257843
 20
1359.99996278033
 30
0.0
 11
2452.145062257843
 21
1680.000002480348
 31
0.0
  0
LINE
  5
10F0F
330
1F
100
AcDbEntity
  8
中心線
100
AcDbLine
 10
2902.145042351325
 20
1629.841474911034
 30
0.0
 11
2902.145042351325
 21
1559.841512130715
 31
0.0
  0
LINE
  5
10F10
330
1F
100
AcDbEntity
  8
中心線
100
AcDbLine
 10
2937.145023741485
 20
1594.841493520882
 30
0.0
 11
2867.145060961158
 21
1594.841493520882
 31
0.0
  0
CIRCLE
  5
10F11
330
1F
100
AcDbEntity
  8
実線
100
AcDbCircle
 10
2902.145042351325
 20
1594.841493520882
 30
0.0
 40
12.5
  0
LINE
  5
10F12
330
1F
100
AcDbEntity
  8
中心線
100
AcDbLine
 10
2902.145042351325
 20
1409.841574911039
 30
0.0
 11
2902.145042351325
 21
1479.841537691372
 31
0.0
  0
LINE
  5
10F13
330
1F
100
AcDbEntity
  8
中心線
100
AcDbLine
 10
2937.145023741485
 20
1444.841556301206
 30
0.0
 11
2867.145060961158
 21
1444.841556301206
 31
0.0
  0
CIRCLE
  5
10F14
330
1F
100
AcDbEntity
  8
実線
100
AcDbCircle
 10
2902.145042351325
 20
1444.841556301206
 30
0.0
 40
12.5
  0
LINE
  5
10F15
330
1F
100
AcDbEntity
  8
中心線
100
AcDbLine
 10
2802.145042351325
 20
1629.841474911034
 30
0.0
 11
2802.145042351325
 21
1559.841512130715
 31
0.0
  0
LINE
  5
10F16
330
1F
100
AcDbEntity
  8
中心線
100
AcDbLine
 10
2837.145023741485
 20
1594.841493520882
 30
0.0
 11
2767.145060961158
 21
1594.841493520882
 31
0.0
  0
CIRCLE
  5
10F17
330
1F
100
AcDbEntity
  8
実線
100
AcDbCircle
 10
2802.145042351325
 20
1594.841493520882
 30
0.0
 40
12.5
  0
LINE
  5
10F18
330
1F
100
AcDbEntity
  8
中心線
100
AcDbLine
 10
2802.145042351325
 20
1409.841574911039
 30
0.0
 11
2802.145042351325
 21
1479.841537691372
 31
0.0
  0
LINE
  5
10F19
330
1F
100
AcDbEntity
  8
中心線
100
AcDbLine
 10
2837.145023741485
 20
1444.841556301206
 30
0.0
 11
2767.145060961158
 21
1444.841556301206
 31
0.0
  0
CIRCLE
  5
10F1A
330
1F
100
AcDbEntity
  8
実線
100
AcDbCircle
 10
2802.145042351325
 20
1444.841556301206
 30
0.0
 40
12.5
  0
LINE
  5
10F1B
330
1F
100
AcDbEntity
  8
中心線
100
AcDbLine
 10
2702.145042351325
 20
1629.841474911034
 30
0.0
 11
2702.145042351325
 21
1559.841512130715
 31
0.0
  0
LINE
  5
10F1C
330
1F
100
AcDbEntity
  8
中心線
100
AcDbLine
 10
2737.145023741485
 20
1594.841493520882
 30
0.0
 11
2667.145060961158
 21
1594.841493520882
 31
0.0
  0
CIRCLE
  5
10F1D
330
1F
100
AcDbEntity
  8
実線
100
AcDbCircle
 10
2702.145042351325
 20
1594.841493520882
 30
0.0
 40
12.5
  0
LINE
  5
10F1E
330
1F
100
AcDbEntity
  8
中心線
100
AcDbLine
 10
2702.145042351325
 20
1409.841574911039
 30
0.0
 11
2702.145042351325
 21
1479.841537691372
 31
0.0
  0
LINE
  5
10F1F
330
1F
100
AcDbEntity
  8
中心線
100
AcDbLine
 10
2737.145023741485
 20
1444.841556301206
 30
0.0
 11
2667.145060961158
 21
1444.841556301206
 31
0.0
  0
CIRCLE
  5
10F20
330
1F
100
AcDbEntity
  8
実線
100
AcDbCircle
 10
2702.145042351325
 20
1444.841556301206
 30
0.0
 40
12.5
  0
LINE
  5
10F21
330
1F
100
AcDbEntity
  8
中心線
100
AcDbLine
 10
2926.145381042423
 20
1619.938315872463
 30
0.0
 11
2962.145400855531
 21
1619.938315872463
 31
0.0
  0
LINE
  5
10F22
330
1F
100
AcDbEntity
  8
中心線
100
AcDbLine
 10
2926.145381042423
 20
1419.938389595958
 30
0.0
 11
2962.145400855531
 21
1419.938389595958
 31
0.0
  0
DIMENSION
  5
10F23
330
1F
100
AcDbEntity
  8
寸法線
100
AcDbDimension
280
     0
  2
*D35
 10
2612.145022538209
 20
1394.99998263034
 30
0.0
 11
2612.145022538209
 21
1382.499981390168
 31
0.0
 70
   160
 71
     5
 42
25.00000248034144
 73
     0
 74
     0
 75
     0
  3
STANDARD
100
AcDbAlignedDimension
 13
2452.145321509676
 23
1369.999980149998
 33
0.0
 14
2551.285332727422
 24
1394.999982630339
 34
0.0
 50
90.0
100
AcDbRotatedDimension
  0
DIMENSION
  5
10F24
330
1F
100
AcDbEntity
  8
寸法線
100
AcDbDimension
280
     0
  2
*D36
 10
2612.145022538207
 20
1636.999942930325
 30
0.0
 11
2612.145022538207
 21
1644.999942930324
 31
0.0
 70
   160
 71
     5
 42
16.0
 73
     0
 74
     0
 75
     0
  3
STANDARD
100
AcDbAlignedDimension
 13
2532.145022538209
 23
1652.999942930324
 33
0.0
 14
2532.145022538209
 24
1636.999942930324
 34
0.0
 50
270.0
100
AcDbRotatedDimension
1001
ACAD
1000
DSTYLE
1002
{
1070
   271
1070
     1
1002
}
  0
LINE
  5
10F26
330
1F
100
AcDbEntity
  8
実線
100
AcDbLine
 10
2952.145042351326
 20
2363.999968704425
 30
0.0
 11
2952.145042351326
 21
2075.999968704425
 31
0.0
  0
LINE
  5
10F27
330
1F
100
AcDbEntity
  8
実線
100
AcDbLine
 10
2936.145042351326
 20
2369.999939755777
 30
0.0
 11
2936.145042351326
 21
2069.999968704425
 31
0.0
  0
LINE
  5
10F28
330
1F
100
AcDbEntity
  8
実線
100
AcDbLine
 10
2936.145042351326
 20
2369.999939755777
 30
0.0
 11
2452.14502253821
 21
2369.999931484744
 31
0.0
  0
LINE
  5
10F29
330
1F
100
AcDbEntity
  8
実線
100
AcDbLine
 10
2936.145042351326
 20
2354.999931484744
 30
0.0
 11
2452.14502253821
 21
2354.999931484744
 31
0.0
  0
LINE
  5
10F2A
330
1F
100
AcDbEntity
  8
実線
100
AcDbLine
 10
2532.145042351326
 20
2354.999931484744
 30
0.0
 11
2532.145042351326
 21
2334.999968704425
 31
0.0
  0
LINE
  5
10F2B
330
1F
100
AcDbEntity
  8
実線
100
AcDbLine
 10
2482.14502253821
 20
2304.999931484744
 30
0.0
 11
2452.14502253821
 21
2304.999931484744
 31
0.0
  0
LINE
  5
10F2C
330
1F
100
AcDbEntity
  8
実線
100
AcDbLine
 10
2532.145042351326
 20
2334.999968704425
 30
0.0
 11
2482.14502253821
 21
2304.999931484744
 31
0.0
  0
LINE
  5
10F2D
330
1F
100
AcDbEntity
  8
実線
100
AcDbLine
 10
2952.145042351326
 20
2363.999968704425
 30
0.0
 11
2936.145042351326
 21
2363.999968704425
 31
0.0
  0
LINE
  5
10F2E
330
1F
100
AcDbEntity
  8
仮想線
100
AcDbLine
 10
2936.145042351326
 20
2369.999939755777
 30
0.0
 11
2942.145013402685
 21
2363.999968704425
 31
0.0
  0
LINE
  5
10F2F
330
1F
100
AcDbEntity
  8
実線
100
AcDbLine
 10
2936.145042351326
 20
2225.999931484744
 30
0.0
 11
2786.14502253821
 21
2225.999931484744
 31
0.0
  0
LINE
  5
10F30
330
1F
100
AcDbEntity
  8
実線
100
AcDbLine
 10
2936.145042351326
 20
2213.999931484744
 30
0.0
 11
2786.14502253821
 21
2213.999931484744
 31
0.0
  0
LINE
  5
10F31
330
1F
100
AcDbEntity
  8
実線
100
AcDbLine
 10
2786.14502253821
 20
2225.999931484744
 30
0.0
 11
2786.14502253821
 21
2213.999931484744
 31
0.0
  0
LINE
  5
10F32
330
1F
100
AcDbEntity
  8
実線
100
AcDbLine
 10
2462.145042351326
 20
2354.999931484744
 30
0.0
 11
2452.14502253821
 21
2344.999931484744
 31
0.0
  0
LINE
  5
10F33
330
1F
100
AcDbEntity
  8
仮想線
100
AcDbLine
 10
2458.145034426077
 20
2354.999931484744
 30
0.0
 11
2452.14502253821
 21
2348.999931484744
 31
0.0
  0
LINE
  5
10F34
330
1F
100
AcDbEntity
  8
仮想線
100
AcDbLine
 10
2452.14501348133
 20
2375.999954838211
 30
0.0
 11
2458.145036834805
 21
2369.999931484744
 31
0.0
  0
LINE
  5
10F35
330
1F
100
AcDbEntity
  8
実線
100
AcDbLine
 10
2936.145042351326
 20
2069.999922260823
 30
0.0
 11
2452.14502253821
 21
2069.999931484744
 31
0.0
  0
LINE
  5
10F36
330
1F
100
AcDbEntity
  8
実線
100
AcDbLine
 10
2936.145042351326
 20
2084.999931484744
 30
0.0
 11
2452.14502253821
 21
2084.999931484744
 31
0.0
  0
LINE
  5
10F37
330
1F
100
AcDbEntity
  8
実線
100
AcDbLine
 10
2532.145042351326
 20
2084.999931484744
 30
0.0
 11
2532.145042351326
 21
2104.999894265063
 31
0.0
  0
LINE
  5
10F38
330
1F
100
AcDbEntity
  8
実線
100
AcDbLine
 10
2482.14502253821
 20
2134.999931484744
 30
0.0
 11
2452.14502253821
 21
2134.999931484744
 31
0.0
  0
LINE
  5
10F39
330
1F
100
AcDbEntity
  8
実線
100
AcDbLine
 10
2532.145042351326
 20
2104.999894265063
 30
0.0
 11
2482.14502253821
 21
2134.999931484744
 31
0.0
  0
LINE
  5
10F3A
330
1F
100
AcDbEntity
  8
実線
100
AcDbLine
 10
2952.145042351326
 20
2075.999894265063
 30
0.0
 11
2936.145042351326
 21
2075.999894265063
 31
0.0
  0
LINE
  5
10F3B
330
1F
100
AcDbEntity
  8
仮想線
100
AcDbLine
 10
2936.145042351326
 20
2069.999923213698
 30
0.0
 11
2942.145013402685
 21
2075.999894265063
 31
0.0
  0
LINE
  5
10F3C
330
1F
100
AcDbEntity
  8
実線
100
AcDbLine
 10
2462.145042351326
 20
2084.999931484744
 30
0.0
 11
2452.14502253821
 21
2094.999931484744
 31
0.0
  0
LINE
  5
10F3D
330
1F
100
AcDbEntity
  8
仮想線
100
AcDbLine
 10
2458.145034426077
 20
2084.999931484744
 30
0.0
 11
2452.14502253821
 21
2090.999931484744
 31
0.0
  0
LINE
  5
10F3E
330
1F
100
AcDbEntity
  8
仮想線
100
AcDbLine
 10
2452.14501348133
 20
2063.999908131263
 30
0.0
 11
2458.145036834805
 21
2069.999931484744
 31
0.0
  0
LINE
  5
10F3F
330
1F
100
AcDbEntity
  8
実線
100
AcDbLine
 10
2452.145022444801
 20
2059.99995133475
 30
0.0
 11
2452.145022444801
 21
2379.999982630325
 31
0.0
  0
LINE
  5
10F40
330
1F
100
AcDbEntity
  8
中心線
100
AcDbLine
 10
2902.145106976011
 20
2380.000026601926
 30
0.0
 11
2902.145106976011
 21
2345.000026601927
 31
0.0
  0
LINE
  5
10F41
330
1F
100
AcDbEntity
  8
中心線
100
AcDbLine
 10
2902.145106976011
 20
2059.999952152262
 30
0.0
 11
2902.145106976011
 21
2094.999952152262
 31
0.0
  0
LINE
  5
10F42
330
1F
100
AcDbEntity
  8
中心線
100
AcDbLine
 10
2802.145106976011
 20
2380.000026601926
 30
0.0
 11
2802.145106976011
 21
2345.000026601927
 31
0.0
  0
LINE
  5
10F43
330
1F
100
AcDbEntity
  8
中心線
100
AcDbLine
 10
2802.145106976011
 20
2059.999952152262
 30
0.0
 11
2802.145106976011
 21
2094.999952152262
 31
0.0
  0
LINE
  5
10F44
330
1F
100
AcDbEntity
  8
中心線
100
AcDbLine
 10
2702.14510697601
 20
2380.000026601926
 30
0.0
 11
2702.14510697601
 21
2345.000026601927
 31
0.0
  0
LINE
  5
10F45
330
1F
100
AcDbEntity
  8
中心線
100
AcDbLine
 10
2702.14510697601
 20
2059.999952152262
 30
0.0
 11
2702.14510697601
 21
2094.999952152262
 31
0.0
  0
DIMENSION
  5
10F46
330
1F
100
AcDbEntity
  8
寸法線
100
AcDbDimension
280
     0
  2
*D37
 10
2706.144942912131
 20
2213.999931484745
 30
0.0
 11
2706.144942912131
 21
2219.999931484744
 31
0.0
 70
   160
 71
     5
 42
12.0
 73
     0
 74
     0
 75
     0
  3
STANDARD
100
AcDbAlignedDimension
 13
2786.14502253821
 23
2225.999931484744
 33
0.0
 14
2786.14502253821
 24
2213.999931484744
 34
0.0
 50
90.0
100
AcDbRotatedDimension
1001
ACAD
1000
DSTYLE
1002
{
1070
   140
1040
2.5
1002
}
  0
LEADER
  5
10F49
330
1F
100
AcDbEntity
  8
寸法線
100
AcDbLeader
  3
STANDARD
 76
     3
 10
2860.062947192698
 20
2225.999931484744
 30
0.0
 10
2832.776461836499
 20
2282.918672310297
 30
0.0
 10
2668.60982695065
 20
2282.918672310297
 30
0.0
1001
ACAD
1000
DSTYLE
1002
{
1070
   147
1040
0.875
1070
    77
1070
     0
1002
}
  0
TEXT
  5
10F4A
330
1F
100
AcDbEntity
  8
寸法線
100
AcDbText
 10
2680.693128503166
 20
2291.668672310311
 30
0.0
 40
25.0
  1
ﾘﾌﾞﾌﾟﾚｰﾄ②
 72
     2
 11
2824.026461836499
 21
2291.668672310311
 31
0.0
100
AcDbText
 73
     1
  0
LINE
  5
10F4B
330
1F
100
AcDbEntity
  8
中心線
100
AcDbLine
 10
2926.145081977545
 20
2145.000005566115
 30
0.0
 11
2962.145101790654
 21
2145.000005566115
 31
0.0
  0
LINE
  5
10F4C
330
1F
100
AcDbEntity
  8
中心線
100
AcDbLine
 10
2926.145081977545
 20
2295.123186674209
 30
0.0
 11
2962.145101790654
 21
2295.123186674209
 31
0.0
  0
LINE
  5
10F4D
330
1F
100
AcDbEntity
  8
実線
100
AcDbLine
 10
552.145042351317
 20
2364.0
 30
0.0
 11
552.145042351317
 21
2076.0
 31
0.0
  0
LINE
  5
10F4E
330
1F
100
AcDbEntity
  8
実線
100
AcDbLine
 10
568.145042351317
 20
2369.999971051351
 30
0.0
 11
568.145042351317
 21
2070.0
 31
0.0
  0
LINE
  5
10F4F
330
1F
100
AcDbEntity
  8
実線
100
AcDbLine
 10
568.145042351317
 20
2369.999971051351
 30
0.0
 11
1052.145062164433
 21
2369.999962780319
 31
0.0
  0
LINE
  5
10F50
330
1F
100
AcDbEntity
  8
実線
100
AcDbLine
 10
568.145042351317
 20
2354.999962780319
 30
0.0
 11
1052.145062164433
 21
2354.999962780319
 31
0.0
  0
LINE
  5
10F51
330
1F
100
AcDbEntity
  8
実線
100
AcDbLine
 10
972.145042351317
 20
2354.999962780319
 30
0.0
 11
972.145042351317
 21
2335.0
 31
0.0
  0
LINE
  5
10F52
330
1F
100
AcDbEntity
  8
実線
100
AcDbLine
 10
1022.145062164433
 20
2304.999962780319
 30
0.0
 11
1052.145062164433
 21
2304.999962780319
 31
0.0
  0
LINE
  5
10F53
330
1F
100
AcDbEntity
  8
実線
100
AcDbLine
 10
972.145042351317
 20
2335.0
 30
0.0
 11
1022.145062164433
 21
2304.999962780319
 31
0.0
  0
LINE
  5
10F54
330
1F
100
AcDbEntity
  8
実線
100
AcDbLine
 10
552.145042351317
 20
2364.0
 30
0.0
 11
568.145042351317
 21
2364.0
 31
0.0
  0
LINE
  5
10F55
330
1F
100
AcDbEntity
  8
仮想線
100
AcDbLine
 10
568.145042351317
 20
2369.999971051351
 30
0.0
 11
562.1450712999585
 21
2364.0
 31
0.0
  0
LINE
  5
10F56
330
1F
100
AcDbEntity
  8
実線
100
AcDbLine
 10
568.145042351317
 20
2225.999962780319
 30
0.0
 11
718.1450621644335
 21
2225.999962780319
 31
0.0
  0
LINE
  5
10F57
330
1F
100
AcDbEntity
  8
実線
100
AcDbLine
 10
568.145042351317
 20
2213.999962780319
 30
0.0
 11
718.1450621644335
 21
2213.999962780319
 31
0.0
  0
LINE
  5
10F58
330
1F
100
AcDbEntity
  8
実線
100
AcDbLine
 10
718.1450621644335
 20
2225.999962780319
 30
0.0
 11
718.1450621644335
 21
2213.999962780319
 31
0.0
  0
LINE
  5
10F59
330
1F
100
AcDbEntity
  8
実線
100
AcDbLine
 10
1042.145042351317
 20
2354.999962780319
 30
0.0
 11
1052.145062164433
 21
2344.999962780319
 31
0.0
  0
LINE
  5
10F5A
330
1F
100
AcDbEntity
  8
仮想線
100
AcDbLine
 10
1046.145050276566
 20
2354.999962780319
 30
0.0
 11
1052.145062164433
 21
2348.999962780319
 31
0.0
  0
LINE
  5
10F5B
330
1F
100
AcDbEntity
  8
仮想線
100
AcDbLine
 10
1052.145071221312
 20
2375.999986133786
 30
0.0
 11
1046.145047867839
 21
2369.999962780319
 31
0.0
  0
LINE
  5
10F5C
330
1F
100
AcDbEntity
  8
実線
100
AcDbLine
 10
568.145042351317
 20
2069.999953556399
 30
0.0
 11
1052.145062164433
 21
2069.999962780319
 31
0.0
  0
LINE
  5
10F5D
330
1F
100
AcDbEntity
  8
実線
100
AcDbLine
 10
568.145042351317
 20
2084.999962780319
 30
0.0
 11
1052.145062164433
 21
2084.999962780319
 31
0.0
  0
LINE
  5
10F5E
330
1F
100
AcDbEntity
  8
実線
100
AcDbLine
 10
972.145042351317
 20
2084.999962780319
 30
0.0
 11
972.145042351317
 21
2104.999925560638
 31
0.0
  0
LINE
  5
10F5F
330
1F
100
AcDbEntity
  8
実線
100
AcDbLine
 10
1022.145062164433
 20
2134.999962780319
 30
0.0
 11
1052.145062164433
 21
2134.999962780319
 31
0.0
  0
LINE
  5
10F60
330
1F
100
AcDbEntity
  8
実線
100
AcDbLine
 10
972.145042351317
 20
2104.999925560638
 30
0.0
 11
1022.145062164433
 21
2134.999962780319
 31
0.0
  0
LINE
  5
10F61
330
1F
100
AcDbEntity
  8
実線
100
AcDbLine
 10
552.145042351317
 20
2075.999925560638
 30
0.0
 11
568.145042351317
 21
2075.999925560638
 31
0.0
  0
LINE
  5
10F62
330
1F
100
AcDbEntity
  8
仮想線
100
AcDbLine
 10
568.145042351317
 20
2069.999954509272
 30
0.0
 11
562.1450712999585
 21
2075.999925560638
 31
0.0
  0
LINE
  5
10F63
330
1F
100
AcDbEntity
  8
実線
100
AcDbLine
 10
1042.145042351317
 20
2084.999962780319
 30
0.0
 11
1052.145062164433
 21
2094.999962780319
 31
0.0
  0
LINE
  5
10F64
330
1F
100
AcDbEntity
  8
仮想線
100
AcDbLine
 10
1046.145050276566
 20
2084.999962780319
 30
0.0
 11
1052.145062164433
 21
2090.999962780319
 31
0.0
  0
LINE
  5
10F65
330
1F
100
AcDbEntity
  8
仮想線
100
AcDbLine
 10
1052.145071221312
 20
2063.999939426838
 30
0.0
 11
1046.145047867839
 21
2069.999962780319
 31
0.0
  0
LINE
  5
10F67
330
1F
100
AcDbEntity
  8
中心線
100
AcDbLine
 10
602.1449777266325
 20
2380.000057897501
 30
0.0
 11
602.1449777266325
 21
2345.000057897502
 31
0.0
  0
LINE
  5
10F68
330
1F
100
AcDbEntity
  8
中心線
100
AcDbLine
 10
602.1449777266325
 20
2059.999983447837
 30
0.0
 11
602.1449777266325
 21
2094.999983447837
 31
0.0
  0
LINE
  5
10F69
330
1F
100
AcDbEntity
  8
中心線
100
AcDbLine
 10
702.1449777266325
 20
2380.000057897501
 30
0.0
 11
702.1449777266325
 21
2345.000057897502
 31
0.0
  0
LINE
  5
10F6A
330
1F
100
AcDbEntity
  8
中心線
100
AcDbLine
 10
702.1449777266325
 20
2059.999983447837
 30
0.0
 11
702.1449777266325
 21
2094.999983447837
 31
0.0
  0
LINE
  5
10F6B
330
1F
100
AcDbEntity
  8
中心線
100
AcDbLine
 10
802.1449777266324
 20
2380.000057897501
 30
0.0
 11
802.1449777266324
 21
2345.000057897502
 31
0.0
  0
LINE
  5
10F6C
330
1F
100
AcDbEntity
  8
中心線
100
AcDbLine
 10
802.1449777266324
 20
2059.999983447837
 30
0.0
 11
802.1449777266324
 21
2094.999983447837
 31
0.0
  0
LINE
  5
10F6D
330
1F
100
AcDbEntity
  8
中心線
100
AcDbLine
 10
542.1450819775355
 20
2145.000019492028
 30
0.0
 11
578.1451017906447
 21
2145.000019492028
 31
0.0
  0
LINE
  5
10F6E
330
1F
100
AcDbEntity
  8
中心線
100
AcDbLine
 10
542.1450819775355
 20
2295.123200600108
 30
0.0
 11
578.1451017906447
 21
2295.123200600108
 31
0.0
  0
LINE
  5
10F6F
330
1F
100
AcDbEntity
  8
実線
100
AcDbLine
 10
552.1450821643602
 20
1670.0
 30
0.0
 11
552.1450821643602
 21
1370.0
 31
0.0
  0
LINE
  5
10F70
330
1F
100
AcDbEntity
  8
破線
100
AcDbLine
 10
578.1450821643602
 20
1524.999962780333
 30
0.0
 11
568.1450821643602
 21
1534.999962780333
 31
0.0
  0
LINE
  5
10F71
330
1F
100
AcDbEntity
  8
仮想線
100
AcDbLine
 10
574.1450821643602
 20
1524.999962780333
 30
0.0
 11
568.1450821643602
 21
1530.999962780333
 31
0.0
  0
LINE
  5
10F72
330
1F
100
AcDbEntity
  8
破線
100
AcDbLine
 10
578.1450821643602
 20
1514.999962780319
 30
0.0
 11
568.1450821643602
 21
1504.999962780319
 31
0.0
  0
LINE
  5
10F73
330
1F
100
AcDbEntity
  8
仮想線
100
AcDbLine
 10
574.1450821643602
 20
1514.999962780319
 30
0.0
 11
568.1450821643602
 21
1508.999962780319
 31
0.0
  0
LINE
  5
10F74
330
1F
100
AcDbEntity
  8
破線
100
AcDbLine
 10
568.1450821643602
 20
1644.999962780334
 30
0.0
 11
593.1451019774767
 21
1644.999962780334
 31
0.0
  0
LINE
  5
10F75
330
1F
100
AcDbEntity
  8
破線
100
AcDbLine
 10
718.1450821643602
 20
1555.0
 30
0.0
 11
718.1450821643602
 21
1524.999962780333
 31
0.0
  0
LINE
  5
10F76
330
1F
100
AcDbEntity
  8
破線
100
AcDbLine
 10
593.1451019774767
 20
1644.999962780334
 30
0.0
 11
718.1450821643602
 21
1555.0
 31
0.0
  0
LINE
  5
10F77
330
1F
100
AcDbEntity
  8
破線
100
AcDbLine
 10
718.1450821643602
 20
1484.999925560653
 30
0.0
 11
718.1450821643602
 21
1514.999962780319
 31
0.0
  0
LINE
  5
10F78
330
1F
100
AcDbEntity
  8
破線
100
AcDbLine
 10
593.1451019774767
 20
1394.999962780319
 30
0.0
 11
718.1450821643602
 21
1484.999925560653
 31
0.0
  0
LINE
  5
10F79
330
1F
100
AcDbEntity
  8
破線
100
AcDbLine
 10
568.1450821643602
 20
1394.999962780319
 30
0.0
 11
593.1451019774767
 21
1394.999962780319
 31
0.0
  0
LINE
  5
10F7A
330
1F
100
AcDbEntity
  8
実線
100
AcDbLine
 10
1052.145101977477
 20
1370.000111659028
 30
0.0
 11
552.1450821643602
 21
1370.0
 31
0.0
  0
LINE
  5
10F7B
330
1F
100
AcDbEntity
  8
破線
100
AcDbLine
 10
1052.145101977477
 20
1515.000037219681
 30
0.0
 11
568.1450821643602
 21
1515.000037219681
 31
0.0
  0
LINE
  5
10F7C
330
1F
100
AcDbEntity
  8
破線
100
AcDbLine
 10
1052.145101977477
 20
1525.000037219681
 30
0.0
 11
568.1450821643602
 21
1525.000037219681
 31
0.0
  0
LINE
  5
10F7D
330
1F
100
AcDbEntity
  8
実線
100
AcDbLine
 10
1052.145101977477
 20
1669.999962780333
 30
0.0
 11
552.1450821643602
 21
1670.0
 31
0.0
  0
LINE
  5
10F7E
330
1F
100
AcDbEntity
  8
実線
100
AcDbLine
 10
568.1450821643602
 20
1669.999962780333
 30
0.0
 11
568.1450821643602
 21
1370.000111659028
 31
0.0
  0
LINE
  5
10F7F
330
1F
100
AcDbEntity
  8
破線
100
AcDbLine
 10
1052.145101977477
 20
1652.999962780333
 30
0.0
 11
972.1451019774768
 21
1652.999962780333
 31
0.0
  0
LINE
  5
10F80
330
1F
100
AcDbEntity
  8
破線
100
AcDbLine
 10
1052.145101977477
 20
1636.999962780333
 30
0.0
 11
972.1451019774768
 21
1636.999962780333
 31
0.0
  0
LINE
  5
10F81
330
1F
100
AcDbEntity
  8
破線
100
AcDbLine
 10
972.1451019774768
 20
1652.999962780333
 30
0.0
 11
972.1451019774768
 21
1636.999962780333
 31
0.0
  0
LINE
  5
10F82
330
1F
100
AcDbEntity
  8
破線
100
AcDbLine
 10
1052.145101977477
 20
1387.000111659028
 30
0.0
 11
972.1451019774768
 21
1387.000111659028
 31
0.0
  0
LINE
  5
10F83
330
1F
100
AcDbEntity
  8
破線
100
AcDbLine
 10
1052.145101977477
 20
1403.000111659028
 30
0.0
 11
972.1451019774768
 21
1403.000111659028
 31
0.0
  0
LINE
  5
10F84
330
1F
100
AcDbEntity
  8
破線
100
AcDbLine
 10
972.1451019774768
 20
1387.000111659028
 30
0.0
 11
972.1451019774768
 21
1403.000111659028
 31
0.0
  0
LINE
  5
10F85
330
1F
100
AcDbEntity
  8
実線
100
AcDbLine
 10
1052.145062257842
 20
1359.999982630339
 30
0.0
 11
1052.145062257842
 21
1680.000002480348
 31
0.0
  0
LINE
  5
10F86
330
1F
100
AcDbEntity
  8
中心線
100
AcDbLine
 10
602.1450821643602
 20
1629.841494761043
 30
0.0
 11
602.1450821643602
 21
1559.841531980725
 31
0.0
  0
LINE
  5
10F87
330
1F
100
AcDbEntity
  8
中心線
100
AcDbLine
 10
567.1451007742007
 20
1594.841513370891
 30
0.0
 11
637.145063554527
 21
1594.841513370891
 31
0.0
  0
CIRCLE
  5
10F88
330
1F
100
AcDbEntity
  8
実線
100
AcDbCircle
 10
602.1450821643602
 20
1594.841513370891
 30
0.0
 40
12.5
  0
LINE
  5
10F89
330
1F
100
AcDbEntity
  8
中心線
100
AcDbLine
 10
602.1450821643602
 20
1409.841594761048
 30
0.0
 11
602.1450821643602
 21
1479.841557541382
 31
0.0
  0
LINE
  5
10F8A
330
1F
100
AcDbEntity
  8
中心線
100
AcDbLine
 10
567.1451007742007
 20
1444.841576151215
 30
0.0
 11
637.145063554527
 21
1444.841576151215
 31
0.0
  0
CIRCLE
  5
10F8B
330
1F
100
AcDbEntity
  8
実線
100
AcDbCircle
 10
602.1450821643602
 20
1444.841576151215
 30
0.0
 40
12.5
  0
LINE
  5
10F8C
330
1F
100
AcDbEntity
  8
中心線
100
AcDbLine
 10
702.1450821643602
 20
1629.841494761043
 30
0.0
 11
702.1450821643602
 21
1559.841531980725
 31
0.0
  0
LINE
  5
10F8D
330
1F
100
AcDbEntity
  8
中心線
100
AcDbLine
 10
667.1451007742007
 20
1594.841513370891
 30
0.0
 11
737.145063554527
 21
1594.841513370891
 31
0.0
  0
CIRCLE
  5
10F8E
330
1F
100
AcDbEntity
  8
実線
100
AcDbCircle
 10
702.1450821643602
 20
1594.841513370891
 30
0.0
 40
12.5
  0
LINE
  5
10F8F
330
1F
100
AcDbEntity
  8
中心線
100
AcDbLine
 10
702.1450821643602
 20
1409.841594761048
 30
0.0
 11
702.1450821643602
 21
1479.841557541382
 31
0.0
  0
LINE
  5
10F90
330
1F
100
AcDbEntity
  8
中心線
100
AcDbLine
 10
667.1451007742007
 20
1444.841576151215
 30
0.0
 11
737.145063554527
 21
1444.841576151215
 31
0.0
  0
CIRCLE
  5
10F91
330
1F
100
AcDbEntity
  8
実線
100
AcDbCircle
 10
702.1450821643602
 20
1444.841576151215
 30
0.0
 40
12.5
  0
LINE
  5
10F92
330
1F
100
AcDbEntity
  8
中心線
100
AcDbLine
 10
802.1450821643602
 20
1629.841494761043
 30
0.0
 11
802.1450821643602
 21
1559.841531980725
 31
0.0
  0
LINE
  5
10F93
330
1F
100
AcDbEntity
  8
中心線
100
AcDbLine
 10
767.1451007742007
 20
1594.841513370891
 30
0.0
 11
837.145063554527
 21
1594.841513370891
 31
0.0
  0
CIRCLE
  5
10F94
330
1F
100
AcDbEntity
  8
実線
100
AcDbCircle
 10
802.1450821643602
 20
1594.841513370891
 30
0.0
 40
12.5
  0
LINE
  5
10F95
330
1F
100
AcDbEntity
  8
中心線
100
AcDbLine
 10
802.1450821643602
 20
1409.841594761048
 30
0.0
 11
802.1450821643602
 21
1479.841557541382
 31
0.0
  0
LINE
  5
10F96
330
1F
100
AcDbEntity
  8
中心線
100
AcDbLine
 10
767.1451007742007
 20
1444.841576151215
 30
0.0
 11
837.145063554527
 21
1444.841576151215
 31
0.0
  0
CIRCLE
  5
10F97
330
1F
100
AcDbEntity
  8
実線
100
AcDbCircle
 10
802.1450821643602
 20
1444.841576151215
 30
0.0
 40
12.5
  0
LINE
  5
10F98
330
1F
100
AcDbEntity
  8
中心線
100
AcDbLine
 10
542.1451217905787
 20
1619.938318352811
 30
0.0
 11
578.145141603688
 21
1619.938318352811
 31
0.0
  0
LINE
  5
10F99
330
1F
100
AcDbEntity
  8
中心線
100
AcDbLine
 10
542.1451217905787
 20
1419.938392076292
 30
0.0
 11
578.145141603688
 21
1419.938392076292
 31
0.0
  0
LINE
  5
10F9A
330
1F
100
AcDbEntity
  8
実線
100
AcDbLine
 10
3766.581374075315
 20
2369.999982593425
 30
0.0
 11
3466.581374075314
 21
2369.999982593425
 31
0.0
  0
LINE
  5
10F9B
330
1F
100
AcDbEntity
  8
実線
100
AcDbLine
 10
3466.581336855637
 20
2069.999962780316
 30
0.0
 11
3466.581336855639
 21
2369.999962780316
 31
0.0
  0
LINE
  5
10F9C
330
1F
100
AcDbEntity
  8
実線
100
AcDbLine
 10
3766.581374075315
 20
2069.999982593426
 30
0.0
 11
3466.581374075314
 21
2069.999982593426
 31
0.0
  0
LINE
  5
10F9D
330
1F
100
AcDbEntity
  8
実線
100
AcDbLine
 10
3766.581336855639
 20
2069.999962780316
 30
0.0
 11
3766.581336855639
 21
2369.999962780316
 31
0.0
  0
LINE
  5
10F9E
330
1F
100
AcDbEntity
  8
破線
100
AcDbLine
 10
3766.581336855639
 20
2354.999982593425
 30
0.0
 11
3634.581336855639
 21
2354.999982593425
 31
0.0
  0
LINE
  5
10F9F
330
1F
100
AcDbEntity
  8
破線
100
AcDbLine
 10
3621.581336855639
 20
2097.999942967207
 30
0.0
 11
3621.581336855641
 21
2341.999982593425
 31
0.0
  0
LINE
  5
10FA0
330
1F
100
AcDbEntity
  8
中心線
100
AcDbLine
 10
3616.581336855639
 20
2044.999962780316
 30
0.0
 11
3616.581336855639
 21
2394.999962780316
 31
0.0
  0
LINE
  5
10FA1
330
1F
100
AcDbEntity
  8
実線
100
AcDbLine
 10
3766.581374075315
 20
2363.999982593425
 30
0.0
 11
3466.581374075314
 21
2363.999982593425
 31
0.0
  0
LINE
  5
10FA2
330
1F
100
AcDbEntity
  8
実線
100
AcDbLine
 10
3766.581374075315
 20
2075.999982593426
 30
0.0
 11
3466.581374075314
 21
2075.999982593426
 31
0.0
  0
DIMENSION
  5
10FA3
330
1F
100
AcDbEntity
  8
寸法線
100
AcDbDimension
280
     0
  2
*D38
 10
3466.581336855639
 20
1949.999942967206
 30
0.0
 11
3616.581336855639
 21
1949.999942967206
 31
0.0
 70
   160
 71
     5
 42
300.0
 73
     0
 74
     0
 75
     0
  3
STANDARD
100
AcDbAlignedDimension
 13
3766.581336855639
 23
2069.999962780316
 33
0.0
 14
3466.581336855639
 24
2069.999962780316
 34
0.0
100
AcDbRotatedDimension
  0
DIMENSION
  5
10FA4
330
1F
100
AcDbEntity
  8
寸法線
100
AcDbDimension
280
     0
  2
*D39
 10
3346.581336855638
 20
2069.999962780316
 30
0.0
 11
3346.581336855638
 21
2219.999972686871
 31
0.0
 70
   160
 71
     5
 42
300.0000198131092
 73
     0
 74
     0
 75
     0
  3
STANDARD
100
AcDbAlignedDimension
 13
3466.581336855639
 23
2369.999982593425
 33
0.0
 14
3466.581336855637
 24
2069.999962780316
 34
0.0
 50
270.0
100
AcDbRotatedDimension
  0
ARC
  5
10FA5
330
1F
100
AcDbEntity
  8
破線
100
AcDbCircle
 10
3634.581336855639
 20
2341.999982593425
 30
0.0
 40
13.0
100
AcDbArc
 50
90.0
 51
180.0
  0
LINE
  5
10FA6
330
1F
100
AcDbEntity
  8
破線
100
AcDbLine
 10
3766.581336855639
 20
2084.999942967208
 30
0.0
 11
3634.581336855639
 21
2084.999942967208
 31
0.0
  0
ARC
  5
10FA7
330
1F
100
AcDbEntity
  8
破線
100
AcDbCircle
 10
3634.581336855639
 20
2097.999942967207
 30
0.0
 40
13.0
100
AcDbArc
 50
180.0
 51
270.0
  0
LINE
  5
10FA8
330
1F
100
AcDbEntity
  8
破線
100
AcDbLine
 10
3466.581336855639
 20
2354.999982593425
 30
0.0
 11
3598.58133685564
 21
2354.999982593425
 31
0.0
  0
LINE
  5
10FA9
330
1F
100
AcDbEntity
  8
破線
100
AcDbLine
 10
3611.581336855639
 20
2097.999942967208
 30
0.0
 11
3611.581336855639
 21
2341.999982593425
 31
0.0
  0
ARC
  5
10FAA
330
1F
100
AcDbEntity
  8
破線
100
AcDbCircle
 10
3598.58133685564
 20
2341.999982593425
 30
0.0
 40
13.0
100
AcDbArc
 50
0.0
 51
90.0
  0
LINE
  5
10FAB
330
1F
100
AcDbEntity
  8
破線
100
AcDbLine
 10
3466.581336855637
 20
2084.999942967208
 30
0.0
 11
3598.58133685564
 21
2084.999942967208
 31
0.0
  0
ARC
  5
10FAC
330
1F
100
AcDbEntity
  8
破線
100
AcDbCircle
 10
3598.58133685564
 20
2097.999942967208
 30
0.0
 40
13.0
100
AcDbArc
 50
270.0
 51
0.0
  0
LINE
  5
10FAD
330
1F
100
AcDbEntity
  8
中心線
100
AcDbLine
 10
3791.581336855639
 20
2219.999962780316
 30
0.0
 11
3441.58133685564
 21
2219.999962780317
 31
0.0
  0
LINE
  5
10FAE
330
1F
100
AcDbEntity
  8
破線
100
AcDbLine
 10
3741.581374075315
 20
2225.999962780316
 30
0.0
 11
3621.581336855639
 21
2225.999962780316
 31
0.0
  0
LINE
  5
10FAF
330
1F
100
AcDbEntity
  8
破線
100
AcDbLine
 10
3741.581374075315
 20
2213.999962780317
 30
0.0
 11
3621.581336855639
 21
2213.999962780317
 31
0.0
  0
LINE
  5
10FB0
330
1F
100
AcDbEntity
  8
破線
100
AcDbLine
 10
3741.581374075315
 20
2225.999962780316
 30
0.0
 11
3741.581374075315
 21
2213.999962780317
 31
0.0
  0
LINE
  5
10FB1
330
1F
100
AcDbEntity
  8
破線
100
AcDbLine
 10
3491.581299635966
 20
2225.999962780316
 30
0.0
 11
3611.581336855639
 21
2225.999962780316
 31
0.0
  0
LINE
  5
10FB2
330
1F
100
AcDbEntity
  8
破線
100
AcDbLine
 10
3491.581299635966
 20
2213.999962780317
 30
0.0
 11
3611.581336855639
 21
2213.999962780317
 31
0.0
  0
LINE
  5
10FB3
330
1F
100
AcDbEntity
  8
破線
100
AcDbLine
 10
3491.581299635966
 20
2225.999962780316
 30
0.0
 11
3491.581299635966
 21
2213.999962780317
 31
0.0
  0
TEXT
  5
10FB4
330
1F
100
AcDbEntity
  8
寸法線
100
AcDbText
 10
3625.943994895721
 20
2497.218384712854
 30
0.0
 40
25.0
  1
主材連結用孔
 72
     2
 11
3799.277328229055
 21
2522.218384712854
 31
0.0
100
AcDbText
 73
     3
  0
LEADER
  5
10FB5
330
1F
100
AcDbEntity
  8
寸法線
100
AcDbLeader
  3
STANDARD
 76
     3
 10
3524.795545230134
 20
2304.422141927156
 30
0.0
 10
3616.581355465478
 20
2489.999992652386
 30
0.0
 10
3817.776259675469
 20
2489.999992652386
 30
0.0
211
-1.0
221
0.0
231
0.0
1001
ACAD
1000
DSTYLE
1002
{
1070
   147
1040
0.875
1070
    77
1070
     0
1002
}
  0
LINE
  5
10FB6
330
1F
100
AcDbEntity
  8
中心線
100
AcDbLine
 10
3516.581355465478
 20
2110.000001203262
 30
0.0
 11
3516.581355465478
 21
2179.999963983588
 31
0.0
  0
CIRCLE
  5
10FB7
330
1F
100
AcDbEntity
  8
実線
100
AcDbCircle
 10
3516.581355465478
 20
2144.999982593425
 30
0.0
 40
12.5
  0
LINE
  5
10FB8
330
1F
100
AcDbEntity
  8
中心線
100
AcDbLine
 10
3551.581336855641
 20
2144.999982593425
 30
0.0
 11
3481.581374075315
 21
2144.999982593425
 31
0.0
  0
LINE
  5
10FB9
330
1F
100
AcDbEntity
  8
中心線
100
AcDbLine
 10
3516.581355465478
 20
2329.999963983588
 30
0.0
 11
3516.581355465478
 21
2260.000001203262
 31
0.0
  0
CIRCLE
  5
10FBA
330
1F
100
AcDbEntity
  8
実線
100
AcDbCircle
 10
3516.581355465478
 20
2294.999982593425
 30
0.0
 40
12.5
  0
LINE
  5
10FBB
330
1F
100
AcDbEntity
  8
中心線
100
AcDbLine
 10
3551.581336855641
 20
2294.999982593425
 30
0.0
 11
3481.581374075315
 21
2294.999982593425
 31
0.0
  0
LINE
  5
10FBC
330
1F
100
AcDbEntity
  8
中心線
100
AcDbLine
 10
3716.581392685152
 20
2110.000001203262
 30
0.0
 11
3716.581392685152
 21
2179.999963983588
 31
0.0
  0
CIRCLE
  5
10FBD
330
1F
100
AcDbEntity
  8
実線
100
AcDbCircle
 10
3716.581392685152
 20
2144.999982593425
 30
0.0
 40
12.5
  0
LINE
  5
10FBE
330
1F
100
AcDbEntity
  8
中心線
100
AcDbLine
 10
3681.581411294989
 20
2144.999982593425
 30
0.0
 11
3751.581374075315
 21
2144.999982593425
 31
0.0
  0
LINE
  5
10FBF
330
1F
100
AcDbEntity
  8
中心線
100
AcDbLine
 10
3716.581392685152
 20
2329.999963983588
 30
0.0
 11
3716.581392685152
 21
2260.000001203262
 31
0.0
  0
CIRCLE
  5
10FC0
330
1F
100
AcDbEntity
  8
実線
100
AcDbCircle
 10
3716.581392685152
 20
2294.999982593425
 30
0.0
 40
12.5
  0
LINE
  5
10FC1
330
1F
100
AcDbEntity
  8
中心線
100
AcDbLine
 10
3681.581411294989
 20
2294.999982593425
 30
0.0
 11
3751.581374075315
 21
2294.999982593425
 31
0.0
  0
LEADER
  5
10FC2
330
1F
100
AcDbEntity
  8
寸法線
100
AcDbLeader
  3
STANDARD
 76
     3
 10
2708.395042351325
 20
1605.666811068174
 30
0.0
 10
2791.634344613494
 20
1749.841511772839
 30
0.0
 10
3059.294521548314
 20
1749.841511772839
 30
0.0
211
-1.0
221
0.0
231
0.0
1001
ACAD
1000
DSTYLE
1002
{
1070
   147
1040
0.875
1070
    77
1070
     0
1002
}
  0
TEXT
  5
10FC3
330
1F
100
AcDbEntity
  8
寸法線
100
AcDbText
 10
2800.384344613489
 20
1758.591511772839
 30
0.0
 40
25.0
  1
ｶﾊﾞｰﾌﾟﾚｰﾄ連結用孔
 72
     2
 11
3048.717677946823
 21
1783.591511772839
 31
0.0
100
AcDbText
 73
     3
  0
DIMENSION
  5
10FC4
330
1F
100
AcDbEntity
  8
寸法線
100
AcDbDimension
280
     0
  2
*D1
 10
3525.748701803756
 20
1519.999982630339
 30
0.0
 11
3504.498701803755
 21
1594.999963400414
 31
0.0
 70
    32
 71
     5
 42
149.999961540153
 73
     0
 74
     0
 75
     0
  3
STANDARD
100
AcDbAlignedDimension
 13
3616.58135676216
 23
1669.999944170491
 33
0.0
 14
3581.581355465477
 24
1519.999982630339
 34
0.0
 50
90.0
100
AcDbRotatedDimension
1001
AcDbBlockRepETag
1070
     1
1071
        0
1005
10FC4
  0
LEADER
  5
10FC5
330
1F
100
AcDbEntity
  8
寸法線
100
AcDbLeader
  3
STANDARD
 76
     3
 10
3626.412852713689
 20
1422.014306744412
 30
0.0
 10
3685.472783779994
 20
1283.934639993577
 30
0.0
 10
4006.306083779993
 20
1283.934639993577
 30
0.0
1001
ACAD
1000
DSTYLE
1002
{
1070
   147
1040
0.875
1070
    77
1070
     0
1002
}
1001
AcDbBlockRepETag
1070
     1
1071
        1
1005
10FC5
  0
TEXT
  5
10FC6
330
1F
100
AcDbEntity
  8
寸法線
100
AcDbText
 10
3704.222783779993
 20
1294.535973090707
 30
0.0
 40
25.0
  1
横拘束鉄筋貫通用長孔
 11
3704.222783779993
 21
1319.535973090707
 31
0.0
100
AcDbText
 73
     3
1001
AcDbBlockRepETag
1070
     1
1071
        2
1005
10FC6
  0
ARC
  5
10FC7
330
1F
100
AcDbEntity
  8
実線
100
AcDbCircle
 10
3616.581336855638
 20
1594.999982630339
 30
0.0
 40
25.0
100
AcDbArc
 50
0.0
 51
180.0
  0
LINE
  5
10FC8
330
1F
100
AcDbEntity
  8
実線
100
AcDbLine
 10
3591.581336855639
 20
1594.999982630339
 30
0.0
 11
3591.581336855639
 21
1444.999982630339
 31
0.0
  0
LINE
  5
10FC9
330
1F
100
AcDbEntity
  8
実線
100
AcDbLine
 10
3641.581336855639
 20
1594.999982630339
 30
0.0
 11
3641.581336855639
 21
1444.999982630339
 31
0.0
  0
ARC
  5
10FCA
330
1F
100
AcDbEntity
  8
実線
100
AcDbCircle
 10
3616.581336855638
 20
1444.999982630339
 30
0.0
 40
25.0
100
AcDbArc
 50
180.0
 51
0.0
  0
LINE
  5
10FCB
330
1F
100
AcDbEntity
  8
中心線
100
AcDbLine
 10
3616.581336855638
 20
1629.999982630339
 30
0.0
 11
3616.581336855638
 21
1409.999982630339
 31
0.0
  0
LINE
  5
10FCC
330
1F
100
AcDbEntity
  8
中心線
100
AcDbLine
 10
3581.581355465477
 20
1519.999982630339
 30
0.0
 11
3651.581318245801
 21
1519.999982630339
 31
0.0
  0
DIMENSION
  5
10FCD
330
1F
100
AcDbEntity
  8
寸法線
100
AcDbDimension
280
     0
  2
*D2
 10
3525.748701803757
 20
1519.999982630339
 30
0.0
 11
3504.498701803757
 21
1445.000001860261
 31
0.0
 70
    32
 71
     5
 42
149.9999615401527
 73
     0
 74
     0
 75
     0
  3
STANDARD
100
AcDbAlignedDimension
 13
3616.58135676216
 23
1370.000021090186
 33
0.0
 14
3581.581355465477
 24
1519.999982630339
 34
0.0
 50
270.0
100
AcDbRotatedDimension
1001
AcDbBlockRepETag
1070
     1
1071
        4
1005
10FCD
  0
TEXT
  5
10FCE
330
1F
100
AcDbEntity
  8
寸法線
100
AcDbText
 10
2961.457537936397
 20
606.7561391440013
 30
0.0
 40
25.0
  1
※　H型鋼（連結部）の長さは、切梁メーカー仕様または施工条件により
 11
2961.457537936397
 21
606.7561391440013
 31
0.0
100
AcDbText
 73
     1
  0
TEXT
  5
10FCF
330
1F
100
AcDbEntity
  8
寸法線
100
AcDbText
 10
2961.457537936397
 20
656.7561391440013
 30
0.0
 40
25.0
  1
※　H型鋼（連結部）の穴開け位置は、切梁メーカー仕様による。
 11
2961.457537936397
 21
656.7561391440013
 31
0.0
100
AcDbText
 73
     1
  0
TEXT
  5
10FD0
330
1F
100
AcDbEntity
  8
寸法線
100
AcDbText
 10
2961.457537936397
 20
556.7561391440013
 30
0.0
 40
25.0
  1
　　変更する場合がある。
 11
2961.457537936397
 21
556.7561391440013
 31
0.0
100
AcDbText
 73
     1
  0
TEXT
  5
10FD1
330
1F
100
AcDbEntity
  8
寸法線
100
AcDbText
 10
2961.457537936397
 20
506.7561391440013
 30
0.0
 40
25.0
  1
※　空洞金具部及びＨ型鋼（埋設部）は鉄筋防錆剤塗装仕上げ。
 11
2961.457537936397
 21
506.7561391440013
 31
0.0
100
AcDbText
 73
     1
  0
TEXT
  5
10FD2
330
1F
100
AcDbEntity
  8
寸法線
100
AcDbText
 10
2961.457537936397
 20
456.7561391440013
 30
0.0
 40
25.0
  1
※　H型鋼（連結部）は赤さび塗装仕上げ。
 11
2961.457537936397
 21
456.7561391440013
 31
0.0
100
AcDbText
 73
     1
  0
LINE
  5
10FD3
330
1F
100
AcDbEntity
  8
中心線
100
AcDbLine
 10
884.9999680158799
 20
650.0
 30
0.0
 11
1254.99996801588
 21
650.0
 31
0.0
  0
LINE
  5
10FD4
330
1F
100
AcDbEntity
  8
実線
100
AcDbLine
 10
910.0
 20
810.0000182446091
 30
0.0
 11
1230.0
 21
810.0000182446091
 31
0.0
  0
LINE
  5
10FD5
330
1F
100
AcDbEntity
  8
実線
100
AcDbLine
 10
910.0
 20
490.0000182446092
 30
0.0
 11
1230.0
 21
490.0000182446092
 31
0.0
  0
LINE
  5
10FD6
330
1F
100
AcDbEntity
  8
実線
100
AcDbLine
 10
910.0
 20
490.0000182446092
 30
0.0
 11
910.0
 21
810.0000182446091
 31
0.0
  0
LINE
  5
10FD7
330
1F
100
AcDbEntity
  8
実線
100
AcDbLine
 10
1230.0
 20
490.0000182446092
 30
0.0
 11
1230.0
 21
810.0000182446091
 31
0.0
  0
LINE
  5
10FD8
330
1F
100
AcDbEntity
  8
中心線
100
AcDbLine
 10
894.9999975897954
 20
775.0
 30
0.0
 11
994.9999975897954
 21
775.0
 31
0.0
  0
LINE
  5
10FD9
330
1F
100
AcDbEntity
  8
中心線
100
AcDbLine
 10
894.9999975897954
 20
525.0
 30
0.0
 11
994.9999975897954
 21
525.0
 31
0.0
  0
LINE
  5
10FDA
330
1F
100
AcDbEntity
  8
中心線
100
AcDbLine
 10
944.9999975897954
 20
825.0
 30
0.0
 11
944.9999975897954
 21
725.0
 31
0.0
  0
LINE
  5
10FDB
330
1F
100
AcDbEntity
  8
中心線
100
AcDbLine
 10
1194.999997589795
 20
825.0
 30
0.0
 11
1194.999997589795
 21
725.0
 31
0.0
  0
CIRCLE
  5
10FDC
330
1F
100
AcDbEntity
  8
破線
100
AcDbCircle
 10
944.9999975897954
 20
525.0
 30
0.0
 40
25.0
  0
CIRCLE
  5
10FDD
330
1F
100
AcDbEntity
  8
破線
100
AcDbCircle
 10
944.9999975897954
 20
775.0
 30
0.0
 40
25.0
  0
CIRCLE
  5
10FDE
330
1F
100
AcDbEntity
  8
破線
100
AcDbCircle
 10
1194.999997589795
 20
775.0
 30
0.0
 40
25.0
  0
CIRCLE
  5
10FDF
330
1F
100
AcDbEntity
  8
破線
100
AcDbCircle
 10
1194.999997589795
 20
525.0
 30
0.0
 40
25.0
  0
LINE
  5
10FE0
330
1F
100
AcDbEntity
  8
中心線
100
AcDbLine
 10
1144.999997589795
 20
525.0
 30
0.0
 11
1244.999997589795
 21
525.0
 31
0.0
  0
LINE
  5
10FE1
330
1F
100
AcDbEntity
  8
中心線
100
AcDbLine
 10
1194.999997589795
 20
575.0
 30
0.0
 11
1194.999997589795
 21
475.0
 31
0.0
  0
LINE
  5
10FE2
330
1F
100
AcDbEntity
  8
中心線
100
AcDbLine
 10
944.9999975897954
 20
575.0
 30
0.0
 11
944.9999975897954
 21
475.0
 31
0.0
  0
LINE
  5
10FE3
330
1F
100
AcDbEntity
  8
中心線
100
AcDbLine
 10
1144.999997589795
 20
775.0
 30
0.0
 11
1244.999997589795
 21
775.0
 31
0.0
  0
LINE
  5
10FE4
330
1F
100
AcDbEntity
  8
破線
100
AcDbLine
 10
1174.999997589795
 20
500.0
 30
0.0
 11
964.9999975897953
 21
500.0
 31
0.0
  0
LINE
  5
10FE5
330
1F
100
AcDbEntity
  8
破線
100
AcDbLine
 10
1174.999997589795
 20
509.0
 30
0.0
 11
964.9999975897953
 21
509.0
 31
0.0
  0
LINE
  5
10FE6
330
1F
100
AcDbEntity
  8
破線
100
AcDbLine
 10
964.9999975897953
 20
500.0
 30
0.0
 11
964.9999975897953
 21
509.0
 31
0.0
  0
LINE
  5
10FE7
330
1F
100
AcDbEntity
  8
破線
100
AcDbLine
 10
1174.999997589795
 20
500.0
 30
0.0
 11
1174.999997589795
 21
509.0
 31
0.0
  0
LINE
  5
10FE8
330
1F
100
AcDbEntity
  8
破線
100
AcDbLine
 10
928.9999975897954
 20
545.0
 30
0.0
 11
928.9999975897954
 21
755.0
 31
0.0
  0
LINE
  5
10FE9
330
1F
100
AcDbEntity
  8
破線
100
AcDbLine
 10
919.9999975897954
 20
545.0
 30
0.0
 11
919.9999975897954
 21
755.0
 31
0.0
  0
LINE
  5
10FEA
330
1F
100
AcDbEntity
  8
破線
100
AcDbLine
 10
919.9999975897954
 20
545.0
 30
0.0
 11
928.9999975897954
 21
545.0
 31
0.0
  0
LINE
  5
10FEB
330
1F
100
AcDbEntity
  8
破線
100
AcDbLine
 10
919.9999975897954
 20
755.0
 30
0.0
 11
928.9999975897954
 21
755.0
 31
0.0
  0
LINE
  5
10FEC
330
1F
100
AcDbEntity
  8
破線
100
AcDbLine
 10
964.9999975897953
 20
800.0
 30
0.0
 11
1174.999997589795
 21
800.0
 31
0.0
  0
LINE
  5
10FED
330
1F
100
AcDbEntity
  8
破線
100
AcDbLine
 10
964.9999975897953
 20
791.0
 30
0.0
 11
1174.999997589795
 21
791.0
 31
0.0
  0
LINE
  5
10FEE
330
1F
100
AcDbEntity
  8
破線
100
AcDbLine
 10
964.9999975897953
 20
800.0
 30
0.0
 11
964.9999975897953
 21
791.0
 31
0.0
  0
LINE
  5
10FEF
330
1F
100
AcDbEntity
  8
破線
100
AcDbLine
 10
1174.999997589795
 20
800.0
 30
0.0
 11
1174.999997589795
 21
791.0
 31
0.0
  0
LINE
  5
10FF0
330
1F
100
AcDbEntity
  8
破線
100
AcDbLine
 10
1210.999997589795
 20
755.0
 30
0.0
 11
1210.999997589795
 21
545.0
 31
0.0
  0
LINE
  5
10FF1
330
1F
100
AcDbEntity
  8
破線
100
AcDbLine
 10
1219.999997589795
 20
755.0
 30
0.0
 11
1219.999997589795
 21
545.0
 31
0.0
  0
LINE
  5
10FF2
330
1F
100
AcDbEntity
  8
破線
100
AcDbLine
 10
1219.999997589795
 20
545.0
 30
0.0
 11
1210.999997589795
 21
545.0
 31
0.0
  0
LINE
  5
10FF3
330
1F
100
AcDbEntity
  8
破線
100
AcDbLine
 10
1219.999997589795
 20
755.0
 30
0.0
 11
1210.999997589795
 21
755.0
 31
0.0
  0
LINE
  5
10FF4
330
1F
100
AcDbEntity
  8
実線
100
AcDbLine
 10
1399.999996414961
 20
490.0000182446092
 30
0.0
 11
1399.999996414961
 21
810.0000182446091
 31
0.0
  0
LINE
  5
10FF5
330
1F
100
AcDbEntity
  8
実線
100
AcDbLine
 10
1415.999996414961
 20
490.0000182446092
 30
0.0
 11
1415.999996414961
 21
810.0000182446091
 31
0.0
  0
LINE
  5
10FF6
330
1F
100
AcDbEntity
  8
実線
100
AcDbLine
 10
1399.999996414961
 20
810.0
 30
0.0
 11
1415.999996414961
 21
810.0
 31
0.0
  0
LINE
  5
10FF7
330
1F
100
AcDbEntity
  8
実線
100
AcDbLine
 10
1399.999996414961
 20
490.0
 30
0.0
 11
1415.999996414961
 21
490.0
 31
0.0
  0
LINE
  5
10FF8
330
1F
100
AcDbEntity
  8
実線
100
AcDbLine
 10
1783.999996414961
 20
490.0000182446092
 30
0.0
 11
1783.999996414961
 21
810.0000182446091
 31
0.0
  0
LINE
  5
10FF9
330
1F
100
AcDbEntity
  8
実線
100
AcDbLine
 10
1799.999996414961
 20
490.0000182446092
 30
0.0
 11
1799.999996414961
 21
810.0000182446091
 31
0.0
  0
LINE
  5
10FFA
330
1F
100
AcDbEntity
  8
実線
100
AcDbLine
 10
1783.999996414961
 20
810.0
 30
0.0
 11
1799.999996414961
 21
810.0
 31
0.0
  0
LINE
  5
10FFB
330
1F
100
AcDbEntity
  8
実線
100
AcDbLine
 10
1783.999996414961
 20
490.0
 30
0.0
 11
1799.999996414961
 21
490.0
 31
0.0
  0
LINE
  5
10FFC
330
1F
100
AcDbEntity
  8
実線
100
AcDbLine
 10
1427.999996414961
 20
545.0
 30
0.0
 11
1447.999996414961
 21
545.0
 31
0.0
  0
LINE
  5
10FFD
330
1F
100
AcDbEntity
  8
実線
100
AcDbLine
 10
1447.999996414961
 20
545.0
 30
0.0
 11
1447.999996414961
 21
755.0
 31
0.0
  0
LINE
  5
10FFE
330
1F
100
AcDbEntity
  8
実線
100
AcDbLine
 10
1751.999996414961
 20
545.0
 30
0.0
 11
1751.999996414961
 21
755.0
 31
0.0
  0
LINE
  5
10FFF
330
1F
100
AcDbEntity
  8
実線
100
AcDbLine
 10
1751.999996414961
 20
545.0
 30
0.0
 11
1771.999996414961
 21
545.0
 31
0.0
  0
LINE
  5
11000
330
1F
100
AcDbEntity
  8
実線
100
AcDbLine
 10
1415.999996414961
 20
557.0
 30
0.0
 11
1427.999996414961
 21
545.0
 31
0.0
  0
LINE
  5
11001
330
1F
100
AcDbEntity
  8
実線
100
AcDbLine
 10
1771.999996414961
 20
545.0
 30
0.0
 11
1783.999996414961
 21
557.0
 31
0.0
  0
LINE
  5
11002
330
1F
100
AcDbEntity
  8
実線
100
AcDbLine
 10
1415.999996414961
 20
550.0
 30
0.0
 11
1422.999996414961
 21
550.0
 31
0.0
  0
LINE
  5
11003
330
1F
100
AcDbEntity
  8
実線
100
AcDbLine
 10
1415.999996414961
 20
500.0
 30
0.0
 11
1784.000100000004
 21
500.0
 31
0.0
  0
LINE
  5
11004
330
1F
100
AcDbEntity
  8
実線
100
AcDbLine
 10
1776.999996414961
 20
550.0
 30
0.0
 11
1783.999996414961
 21
550.0
 31
0.0
  0
LINE
  5
11005
330
1F
100
AcDbEntity
  8
実線
100
AcDbLine
 10
1447.999996414961
 20
550.0
 30
0.0
 11
1752.000100000004
 21
550.0
 31
0.0
  0
LINE
  5
11006
330
1F
100
AcDbEntity
  8
破線
100
AcDbLine
 10
1422.999996414961
 20
550.0
 30
0.0
 11
1447.999996414961
 21
550.0
 31
0.0
  0
LINE
  5
11007
330
1F
100
AcDbEntity
  8
破線
100
AcDbLine
 10
1751.999996414961
 20
550.0
 30
0.0
 11
1776.999996414961
 21
550.0
 31
0.0
  0
LINE
  5
11008
330
1F
100
AcDbEntity
  8
中心線
100
AcDbLine
 10
1389.999996414961
 20
525.0
 30
0.0
 11
1809.99996801588
 21
525.0
 31
0.0
  0
LINE
  5
11009
330
1F
100
AcDbEntity
  8
破線
100
AcDbLine
 10
1415.999996414961
 20
509.0
 30
0.0
 11
1447.999996414961
 21
509.0
 31
0.0
  0
LINE
  5
1100A
330
1F
100
AcDbEntity
  8
破線
100
AcDbLine
 10
1447.999996414961
 20
509.0
 30
0.0
 11
1447.999996414961
 21
500.0
 31
0.0
  0
LINE
  5
1100B
330
1F
100
AcDbEntity
  8
中心線
100
AcDbLine
 10
1374.99996801588
 20
650.0
 30
0.0
 11
1824.99996801588
 21
650.0
 31
0.0
  0
LINE
  5
1100C
330
1F
100
AcDbEntity
  8
中心線
100
AcDbLine
 10
1389.999996414961
 20
775.0
 30
0.0
 11
1809.99996801588
 21
775.0
 31
0.0
  0
LINE
  5
1100D
330
1F
100
AcDbEntity
  8
破線
100
AcDbLine
 10
1751.999996414961
 20
750.0
 30
0.0
 11
1776.999996414961
 21
750.0
 31
0.0
  0
LINE
  5
1100E
330
1F
100
AcDbEntity
  8
実線
100
AcDbLine
 10
1447.999996414961
 20
750.0
 30
0.0
 11
1752.000100000004
 21
750.0
 31
0.0
  0
LINE
  5
1100F
330
1F
100
AcDbEntity
  8
実線
100
AcDbLine
 10
1776.999996414961
 20
750.0
 30
0.0
 11
1783.999996414961
 21
750.0
 31
0.0
  0
LINE
  5
11010
330
1F
100
AcDbEntity
  8
実線
100
AcDbLine
 10
1415.999996414961
 20
800.0
 30
0.0
 11
1784.000100000004
 21
800.0
 31
0.0
  0
LINE
  5
11011
330
1F
100
AcDbEntity
  8
実線
100
AcDbLine
 10
1751.999996414961
 20
755.0
 30
0.0
 11
1771.999996414961
 21
755.0
 31
0.0
  0
LINE
  5
11012
330
1F
100
AcDbEntity
  8
実線
100
AcDbLine
 10
1771.999996414961
 20
755.0
 30
0.0
 11
1783.999996414961
 21
743.0
 31
0.0
  0
LINE
  5
11013
330
1F
100
AcDbEntity
  8
破線
100
AcDbLine
 10
1415.999996414961
 20
791.0
 30
0.0
 11
1447.999996414961
 21
791.0
 31
0.0
  0
LINE
  5
11014
330
1F
100
AcDbEntity
  8
破線
100
AcDbLine
 10
1447.999996414961
 20
791.0
 30
0.0
 11
1447.999996414961
 21
800.0
 31
0.0
  0
LINE
  5
11015
330
1F
100
AcDbEntity
  8
破線
100
AcDbLine
 10
1422.999996414961
 20
750.0
 30
0.0
 11
1447.999996414961
 21
750.0
 31
0.0
  0
LINE
  5
11016
330
1F
100
AcDbEntity
  8
実線
100
AcDbLine
 10
1427.999996414961
 20
755.0
 30
0.0
 11
1447.999996414961
 21
755.0
 31
0.0
  0
LINE
  5
11017
330
1F
100
AcDbEntity
  8
実線
100
AcDbLine
 10
1415.999996414961
 20
743.0
 30
0.0
 11
1427.999996414961
 21
755.0
 31
0.0
  0
LINE
  5
11018
330
1F
100
AcDbEntity
  8
実線
100
AcDbLine
 10
1415.999996414961
 20
750.0
 30
0.0
 11
1422.999996414961
 21
750.0
 31
0.0
  0
LINE
  5
11019
330
1F
100
AcDbEntity
  8
破線
100
AcDbLine
 10
1783.999996414961
 20
509.0
 30
0.0
 11
1751.999996414961
 21
509.0
 31
0.0
  0
LINE
  5
1101A
330
1F
100
AcDbEntity
  8
破線
100
AcDbLine
 10
1751.999996414961
 20
509.0
 30
0.0
 11
1751.999996414961
 21
500.0
 31
0.0
  0
LINE
  5
1101B
330
1F
100
AcDbEntity
  8
破線
100
AcDbLine
 10
1751.999996414961
 20
791.0
 30
0.0
 11
1751.999996414961
 21
800.0
 31
0.0
  0
LINE
  5
1101C
330
1F
100
AcDbEntity
  8
破線
100
AcDbLine
 10
1783.999996414961
 20
791.0
 30
0.0
 11
1751.999996414961
 21
791.0
 31
0.0
  0
LINE
  5
1101D
330
1F
100
AcDbEntity
  8
実線
100
AcDbLine
 10
2235.000399031124
 20
500.0004132727918
 30
0.0
 11
2025.000399031124
 21
500.0004132727918
 31
0.0
  0
LINE
  5
1101E
330
1F
100
AcDbEntity
  8
実線
100
AcDbLine
 10
2235.000399031124
 20
509.0004132727917
 30
0.0
 11
2025.000399031124
 21
509.0004132727917
 31
0.0
  0
LINE
  5
1101F
330
1F
100
AcDbEntity
  8
実線
100
AcDbLine
 10
2025.000399031124
 20
791.0004132727918
 30
0.0
 11
2235.000399031124
 21
791.0004132727918
 31
0.0
  0
LINE
  5
11020
330
1F
100
AcDbEntity
  8
実線
100
AcDbLine
 10
2025.000399031124
 20
800.0004132727918
 30
0.0
 11
2235.000399031124
 21
800.0004132727918
 31
0.0
  0
LINE
  5
11021
330
1F
100
AcDbEntity
  8
実線
100
AcDbLine
 10
1970.0
 20
490.0000182446092
 30
0.0
 11
2290.0
 21
490.0000182446092
 31
0.0
  0
LINE
  5
11022
330
1F
100
AcDbEntity
  8
実線
100
AcDbLine
 10
1970.0
 20
810.0000182446091
 30
0.0
 11
2290.0
 21
810.0000182446091
 31
0.0
  0
LINE
  5
11023
330
1F
100
AcDbEntity
  8
中心線
100
AcDbLine
 10
1944.99996801588
 20
650.0004132727918
 30
0.0
 11
2314.99996801588
 21
650.0004132727918
 31
0.0
  0
LINE
  5
11024
330
1F
100
AcDbEntity
  8
実線
100
AcDbLine
 10
2025.000399031124
 20
800.0004132727918
 30
0.0
 11
2025.000399031124
 21
791.0004132727918
 31
0.0
  0
LINE
  5
11025
330
1F
100
AcDbEntity
  8
中心線
100
AcDbLine
 10
2005.000399031124
 20
825.0004132727918
 30
0.0
 11
2005.000399031124
 21
725.0004132727918
 31
0.0
  0
CIRCLE
  5
11026
330
1F
100
AcDbEntity
  8
実線
100
AcDbCircle
 10
2005.000399031124
 20
775.0004132727918
 30
0.0
 40
25.0
  0
LINE
  5
11027
330
1F
100
AcDbEntity
  8
実線
100
AcDbLine
 10
1970.0
 20
490.0000182446092
 30
0.0
 11
1970.0
 21
810.0000182446091
 31
0.0
  0
LINE
  5
11028
330
1F
100
AcDbEntity
  8
中心線
100
AcDbLine
 10
1955.000399031123
 20
525.0004132727918
 30
0.0
 11
2055.000399031124
 21
525.0004132727918
 31
0.0
  0
LINE
  5
11029
330
1F
100
AcDbEntity
  8
中心線
100
AcDbLine
 10
1955.000399031123
 20
775.0004132727918
 30
0.0
 11
2055.000399031124
 21
775.0004132727918
 31
0.0
  0
LINE
  5
1102A
330
1F
100
AcDbEntity
  8
実線
100
AcDbLine
 10
1980.000399031123
 20
545.0004132727918
 30
0.0
 11
1980.000399031123
 21
755.0004132727917
 31
0.0
  0
LINE
  5
1102B
330
1F
100
AcDbEntity
  8
実線
100
AcDbLine
 10
1989.000399031123
 20
545.0004132727918
 30
0.0
 11
1989.000399031123
 21
755.0004132727917
 31
0.0
  0
LINE
  5
1102C
330
1F
100
AcDbEntity
  8
中心線
100
AcDbLine
 10
2005.000399031124
 20
575.0004132727918
 30
0.0
 11
2005.000399031124
 21
475.0004132727918
 31
0.0
  0
CIRCLE
  5
1102D
330
1F
100
AcDbEntity
  8
実線
100
AcDbCircle
 10
2005.000399031124
 20
525.0004132727918
 30
0.0
 40
25.0
  0
LINE
  5
1102E
330
1F
100
AcDbEntity
  8
実線
100
AcDbLine
 10
2025.000399031124
 20
500.0004132727918
 30
0.0
 11
2025.000399031124
 21
509.0004132727917
 31
0.0
  0
LINE
  5
1102F
330
1F
100
AcDbEntity
  8
実線
100
AcDbLine
 10
1980.000399031123
 20
545.0004132727918
 30
0.0
 11
1989.000399031123
 21
545.0004132727918
 31
0.0
  0
LINE
  5
11030
330
1F
100
AcDbEntity
  8
実線
100
AcDbLine
 10
1980.000399031123
 20
755.0004132727917
 30
0.0
 11
1989.000399031123
 21
755.0004132727917
 31
0.0
  0
LINE
  5
11031
330
1F
100
AcDbEntity
  8
実線
100
AcDbLine
 10
2235.000399031124
 20
800.0004132727918
 30
0.0
 11
2235.000399031124
 21
791.0004132727918
 31
0.0
  0
LINE
  5
11032
330
1F
100
AcDbEntity
  8
中心線
100
AcDbLine
 10
2255.000399031124
 20
825.0004132727918
 30
0.0
 11
2255.000399031124
 21
725.0004132727918
 31
0.0
  0
CIRCLE
  5
11033
330
1F
100
AcDbEntity
  8
実線
100
AcDbCircle
 10
2255.000399031124
 20
775.0004132727918
 30
0.0
 40
25.0
  0
LINE
  5
11034
330
1F
100
AcDbEntity
  8
実線
100
AcDbLine
 10
2290.0
 20
490.0000182446092
 30
0.0
 11
2290.0
 21
810.0000182446091
 31
0.0
  0
LINE
  5
11035
330
1F
100
AcDbEntity
  8
実線
100
AcDbLine
 10
2280.000399031123
 20
755.0004132727917
 30
0.0
 11
2280.000399031123
 21
545.0004132727918
 31
0.0
  0
LINE
  5
11036
330
1F
100
AcDbEntity
  8
実線
100
AcDbLine
 10
2271.000399031123
 20
755.0004132727917
 30
0.0
 11
2271.000399031123
 21
545.0004132727918
 31
0.0
  0
LINE
  5
11037
330
1F
100
AcDbEntity
  8
中心線
100
AcDbLine
 10
2205.000399031124
 20
525.0004132727918
 30
0.0
 11
2305.000399031124
 21
525.0004132727918
 31
0.0
  0
CIRCLE
  5
11038
330
1F
100
AcDbEntity
  8
実線
100
AcDbCircle
 10
2255.000399031124
 20
525.0004132727918
 30
0.0
 40
25.0
  0
LINE
  5
11039
330
1F
100
AcDbEntity
  8
実線
100
AcDbLine
 10
2235.000399031124
 20
500.0004132727918
 30
0.0
 11
2235.000399031124
 21
509.0004132727917
 31
0.0
  0
LINE
  5
1103A
330
1F
100
AcDbEntity
  8
中心線
100
AcDbLine
 10
2255.000399031124
 20
575.0004132727918
 30
0.0
 11
2255.000399031124
 21
475.0004132727918
 31
0.0
  0
LINE
  5
1103B
330
1F
100
AcDbEntity
  8
実線
100
AcDbLine
 10
2280.000399031123
 20
545.0004132727918
 30
0.0
 11
2271.000399031123
 21
545.0004132727918
 31
0.0
  0
LINE
  5
1103C
330
1F
100
AcDbEntity
  8
中心線
100
AcDbLine
 10
2205.000399031124
 20
775.0004132727918
 30
0.0
 11
2305.000399031124
 21
775.0004132727918
 31
0.0
  0
LINE
  5
1103D
330
1F
100
AcDbEntity
  8
実線
100
AcDbLine
 10
2280.000399031123
 20
755.0004132727917
 30
0.0
 11
2271.000399031123
 21
755.0004132727917
 31
0.0
  0
LINE
  5
1103E
330
1F
100
AcDbEntity
  8
破線
100
AcDbLine
 10
929.9999975897954
 20
654.4999999999999
 30
0.0
 11
1209.999997589795
 21
654.4999999999999
 31
0.0
  0
LINE
  5
1103F
330
1F
100
AcDbEntity
  8
破線
100
AcDbLine
 10
929.9999975897954
 20
645.5
 30
0.0
 11
1209.999997589795
 21
645.5
 31
0.0
  0
LINE
  5
11040
330
1F
100
AcDbEntity
  8
破線
100
AcDbLine
 10
929.9999975897954
 20
645.5
 30
0.0
 11
929.9999975897954
 21
654.4999999999999
 31
0.0
  0
LINE
  5
11041
330
1F
100
AcDbEntity
  8
破線
100
AcDbLine
 10
1209.999997589795
 20
654.4999999999999
 30
0.0
 11
1209.999997589795
 21
645.5
 31
0.0
  0
LINE
  5
11042
330
1F
100
AcDbEntity
  8
破線
100
AcDbLine
 10
1065.499997589795
 20
789.5
 30
0.0
 11
1065.499997589795
 21
654.4999999999999
 31
0.0
  0
LINE
  5
11043
330
1F
100
AcDbEntity
  8
破線
100
AcDbLine
 10
1074.499997589795
 20
789.5
 30
0.0
 11
1074.499997589795
 21
654.4999999999999
 31
0.0
  0
LINE
  5
11044
330
1F
100
AcDbEntity
  8
破線
100
AcDbLine
 10
1074.499997589795
 20
645.5
 30
0.0
 11
1074.499997589795
 21
510.5
 31
0.0
  0
LINE
  5
11045
330
1F
100
AcDbEntity
  8
破線
100
AcDbLine
 10
1065.499997589795
 20
645.5
 30
0.0
 11
1065.499997589795
 21
510.5
 31
0.0
  0
LINE
  5
11046
330
1F
100
AcDbEntity
  8
破線
100
AcDbLine
 10
1065.499997589795
 20
789.5
 30
0.0
 11
1074.499997589795
 21
789.5
 31
0.0
  0
LINE
  5
11047
330
1F
100
AcDbEntity
  8
破線
100
AcDbLine
 10
1065.499997589795
 20
510.5
 30
0.0
 11
1074.499997589795
 21
510.5
 31
0.0
  0
LINE
  5
11048
330
1F
100
AcDbEntity
  8
破線
100
AcDbLine
 10
1415.999996414961
 20
654.4999999999999
 30
0.0
 11
1447.999996414961
 21
654.4999999999999
 31
0.0
  0
LINE
  5
11049
330
1F
100
AcDbEntity
  8
破線
100
AcDbLine
 10
1415.999996414961
 20
645.5
 30
0.0
 11
1447.999996414961
 21
645.5
 31
0.0
  0
LINE
  5
1104A
330
1F
100
AcDbEntity
  8
破線
100
AcDbLine
 10
1751.999996414961
 20
654.4999999999999
 30
0.0
 11
1783.999996414961
 21
654.4999999999999
 31
0.0
  0
LINE
  5
1104B
330
1F
100
AcDbEntity
  8
破線
100
AcDbLine
 10
1751.999996414961
 20
645.5
 30
0.0
 11
1783.999996414961
 21
645.5
 31
0.0
  0
LINE
  5
1104C
330
1F
100
AcDbEntity
  8
実線
100
AcDbLine
 10
2134.500399031123
 20
789.5004132727917
 30
0.0
 11
2134.500399031123
 21
654.5004132727918
 31
0.0
  0
LINE
  5
1104D
330
1F
100
AcDbEntity
  8
実線
100
AcDbLine
 10
2125.500399031123
 20
789.5004132727917
 30
0.0
 11
2125.500399031123
 21
654.5004132727918
 31
0.0
  0
LINE
  5
1104E
330
1F
100
AcDbEntity
  8
実線
100
AcDbLine
 10
1990.000399031123
 20
654.5004132727918
 30
0.0
 11
2270.000399031124
 21
654.5004132727918
 31
0.0
  0
LINE
  5
1104F
330
1F
100
AcDbEntity
  8
実線
100
AcDbLine
 10
1990.000399031123
 20
645.5004132727918
 30
0.0
 11
2270.000399031124
 21
645.5004132727918
 31
0.0
  0
LINE
  5
11050
330
1F
100
AcDbEntity
  8
実線
100
AcDbLine
 10
2134.500399031123
 20
645.5004132727918
 30
0.0
 11
2134.500399031123
 21
510.5004132727917
 31
0.0
  0
LINE
  5
11051
330
1F
100
AcDbEntity
  8
実線
100
AcDbLine
 10
2125.500399031123
 20
645.5004132727918
 30
0.0
 11
2125.500399031123
 21
510.5004132727917
 31
0.0
  0
LINE
  5
11052
330
1F
100
AcDbEntity
  8
実線
100
AcDbLine
 10
2270.000399031124
 20
654.5004132727918
 30
0.0
 11
2270.000399031124
 21
645.5004132727918
 31
0.0
  0
LINE
  5
11053
330
1F
100
AcDbEntity
  8
実線
100
AcDbLine
 10
1990.000399031123
 20
645.5004132727918
 30
0.0
 11
1990.000399031123
 21
654.5004132727918
 31
0.0
  0
LINE
  5
11054
330
1F
100
AcDbEntity
  8
実線
100
AcDbLine
 10
2125.500399031123
 20
510.5004132727917
 30
0.0
 11
2134.500399031123
 21
510.5004132727917
 31
0.0
  0
LINE
  5
11055
330
1F
100
AcDbEntity
  8
実線
100
AcDbLine
 10
2125.500399031123
 20
789.5004132727917
 30
0.0
 11
2134.500399031123
 21
789.5004132727917
 31
0.0
  0
DIMENSION
  5
11056
330
1F
100
AcDbEntity
  8
寸法線
100
AcDbDimension
280
     0
  2
*D3
 10
1230.0
 20
370.0000182446093
 30
0.0
 11
1070.0
 21
370.0000182446093
 31
0.0
 70
   160
 71
     5
 42
320.0
 73
     0
 74
     0
 75
     0
  3
STANDARD
100
AcDbAlignedDimension
 13
910.0
 23
490.0000182446092
 33
0.0
 14
1230.0
 24
490.0000182446092
 34
0.0
100
AcDbRotatedDimension
  0
DIMENSION
  5
11057
330
1F
100
AcDbEntity
  8
寸法線
100
AcDbDimension
280
     0
  2
*D4
 10
1447.999996414961
 20
370.0
 30
0.0
 11
1431.999996414961
 21
370.0
 31
0.0
 70
   160
 71
     5
 42
32.0
 73
     0
 74
     0
 75
     0
  3
STANDARD
100
AcDbAlignedDimension
 13
1415.999996414961
 23
490.0000182446092
 33
0.0
 14
1447.999996414961
 24
500.0
 34
0.0
100
AcDbRotatedDimension
  0
DIMENSION
  5
11058
330
1F
100
AcDbEntity
  8
寸法線
100
AcDbDimension
280
     0
  2
*D5
 10
1751.999996414961
 20
370.0
 30
0.0
 11
1599.999996414961
 21
370.0
 31
0.0
 70
   160
 71
     5
 42
304.0
 73
     0
 74
     0
 75
     0
  3
STANDARD
100
AcDbAlignedDimension
 13
1447.999996414961
 23
500.0
 33
0.0
 14
1751.999996414961
 24
500.0
 34
0.0
100
AcDbRotatedDimension
  0
DIMENSION
  5
11059
330
1F
100
AcDbEntity
  8
寸法線
100
AcDbDimension
280
     0
  2
*D6
 10
1783.999996414961
 20
370.0
 30
0.0
 11
1767.999996414961
 21
370.0
 31
0.0
 70
   160
 71
     5
 42
32.0
 73
     0
 74
     0
 75
     0
  3
STANDARD
100
AcDbAlignedDimension
 13
1751.999996414961
 23
500.0
 33
0.0
 14
1783.999996414961
 24
490.0000182446092
 34
0.0
100
AcDbRotatedDimension
  0
DIMENSION
  5
1105A
330
1F
100
AcDbEntity
  8
寸法線
100
AcDbDimension
280
     0
  2
*D7
 10
1415.999996414961
 20
290.0
 30
0.0
 11
1407.999996414961
 21
290.0
 31
0.0
 70
   160
 71
     5
 42
16.0
 73
     0
 74
     0
 75
     0
  3
STANDARD
100
AcDbAlignedDimension
 13
1399.999996414961
 23
490.0
 33
0.0
 14
1415.999996414961
 24
490.0
 34
0.0
100
AcDbRotatedDimension
1001
ACAD
1000
DSTYLE
1002
{
1070
   279
1070
     0
1002
}
  0
DIMENSION
  5
1105B
330
1F
100
AcDbEntity
  8
寸法線
100
AcDbDimension
280
     0
  2
*D8
 10
1783.999996414961
 20
290.0
 30
0.0
 11
1599.999996414961
 21
290.0
 31
0.0
 70
   160
 71
     5
 42
368.0
 73
     0
 74
     0
 75
     0
  3
STANDARD
100
AcDbAlignedDimension
 13
1415.999996414961
 23
490.0000182446092
 33
0.0
 14
1783.999996414961
 24
490.0
 34
0.0
100
AcDbRotatedDimension
  0
DIMENSION
  5
1105C
330
1F
100
AcDbEntity
  8
寸法線
100
AcDbDimension
280
     0
  2
*D9
 10
1799.999996414961
 20
290.0
 30
0.0
 11
1791.999996414961
 21
290.0
 31
0.0
 70
   160
 71
     5
 42
16.0
 73
     0
 74
     0
 75
     0
  3
STANDARD
100
AcDbAlignedDimension
 13
1783.999996414961
 23
490.0
 33
0.0
 14
1799.999996414961
 24
490.0
 34
0.0
100
AcDbRotatedDimension
1001
ACAD
1000
DSTYLE
1002
{
1070
   279
1070
     0
1002
}
  0
DIMENSION
  5
1105D
330
1F
100
AcDbEntity
  8
寸法線
100
AcDbDimension
280
     0
  2
*D10
 10
1799.999996414961
 20
210.0
 30
0.0
 11
1599.999996414961
 21
210.0
 31
0.0
 70
   160
 71
     5
 42
400.0
 73
     0
 74
     0
 75
     0
  3
STANDARD
100
AcDbAlignedDimension
 13
1399.999996414961
 23
490.0
 33
0.0
 14
1799.999996414961
 24
490.0
 34
0.0
100
AcDbRotatedDimension
  0
LINE
  5
1105F
330
1F
100
AcDbEntity
  8
仮想線
100
AcDbLine
 10
1471.46304866916
 20
440.0
 30
0.0
 11
1471.46304866916
 21
860.0
 31
0.0
  0
TEXT
  5
11060
330
1F
100
AcDbEntity
  8
寸法線
100
AcDbText
 10
1527.609783854976
 20
437.5
 30
0.0
 40
25.0
  1
Ａ
 11
1527.609783854976
 21
450.0
 31
0.0
100
AcDbText
 73
     2
  0
TEXT
  5
11061
330
1F
100
AcDbEntity
  8
寸法線
100
AcDbText
 10
2059.99996801588
 20
296.7288924096792
 30
0.0
 40
25.0
  1
断面Ａ－Ａ
 72
     1
 11
2129.99996801588
 21
296.7288924096792
 31
0.0
100
AcDbText
 73
     1
  0
LINE
  5
11062
330
1F
100
AcDbEntity
  8
寸法線
100
AcDbLine
 10
2051.24996801588
 20
290.0000675723422
 30
0.0
 11
2208.74996801588
 21
290.0000675723422
 31
0.0
  0
DIMENSION
  5
11063
330
1F
100
AcDbEntity
  8
寸法線
100
AcDbDimension
280
     0
  2
*D11
 10
2005.000399031124
 20
370.0000182446093
 30
0.0
 11
1987.500199515562
 21
370.0000182446093
 31
0.0
 70
   160
 71
     5
 42
35.00039903112338
 73
     0
 74
     0
 75
     0
  3
STANDARD
100
AcDbAlignedDimension
 13
1970.0
 23
490.0000182446092
 33
0.0
 14
2005.000399031124
 24
475.0004132727918
 34
0.0
100
AcDbRotatedDimension
  0
DIMENSION
  5
11064
330
1F
100
AcDbEntity
  8
寸法線
100
AcDbDimension
280
     0
  2
*D12
 10
2255.000399031124
 20
370.0000182446093
 30
0.0
 11
2130.000399031124
 21
370.0000182446093
 31
0.0
 70
   160
 71
     5
 42
250.0
 73
     0
 74
     0
 75
     0
  3
STANDARD
100
AcDbAlignedDimension
 13
2005.000399031124
 23
475.0004132727918
 33
0.0
 14
2255.000399031124
 24
475.0004132727918
 34
0.0
100
AcDbRotatedDimension
  0
DIMENSION
  5
11065
330
1F
100
AcDbEntity
  8
寸法線
100
AcDbDimension
280
     0
  2
*D13
 10
2290.0
 20
370.0000182446093
 30
0.0
 11
2272.500199515562
 21
370.0000182446093
 31
0.0
 70
   160
 71
     5
 42
34.99960096887662
 73
     0
 74
     0
 75
     0
  3
STANDARD
100
AcDbAlignedDimension
 13
2255.000399031124
 23
475.0004132727918
 33
0.0
 14
2290.0
 24
490.0000182446092
 34
0.0
100
AcDbRotatedDimension
  0
DIMENSION
  5
11066
330
1F
100
AcDbEntity
  8
寸法線
100
AcDbDimension
280
     0
  2
*D14
 10
2410.000000000001
 20
775.0004132727922
 30
0.0
 11
2410.0
 21
650.0004132727918
 31
0.0
 70
   160
 71
     5
 42
250.0000000000001
 73
     0
 74
     0
 75
     0
  3
STANDARD
100
AcDbAlignedDimension
 13
2305.000399031124
 23
525.0004132727918
 33
0.0
 14
2305.000399031124
 24
775.0004132727918
 34
0.0
 50
90.0
100
AcDbRotatedDimension
  0
DIMENSION
  5
11067
330
1F
100
AcDbEntity
  8
寸法線
100
AcDbDimension
280
     0
  2
*D15
 10
2410.000000000001
 20
525.0004132727919
 30
0.0
 11
2410.0
 21
507.5002157586999
 31
0.0
 70
   160
 71
     5
 42
35.00039502818248
 73
     0
 74
     0
 75
     0
  3
STANDARD
100
AcDbAlignedDimension
 13
2290.0
 23
490.0000182446092
 33
0.0
 14
2305.000399031124
 24
525.0004132727918
 34
0.0
 50
90.0
100
AcDbRotatedDimension
  0
DIMENSION
  5
11068
330
1F
100
AcDbEntity
  8
寸法線
100
AcDbDimension
280
     0
  2
*D16
 10
2410.000000000001
 20
810.0000182446098
 30
0.0
 11
2410.0
 21
792.5002157587002
 31
0.0
 70
   160
 71
     5
 42
34.99960497181758
 73
     0
 74
     0
 75
     0
  3
STANDARD
100
AcDbAlignedDimension
 13
2305.000399031124
 23
775.0004132727918
 33
0.0
 14
2290.0
 24
810.0000182446091
 34
0.0
 50
90.0
100
AcDbRotatedDimension
  0
LINE
  5
11069
330
1F
100
AcDbEntity
  8
中心線
100
AcDbLine
 10
1069.99996801588
 20
465.0
 30
0.0
 11
1069.99996801588
 21
835.0
 31
0.0
  0
LINE
  5
1106A
330
1F
100
AcDbEntity
  8
中心線
100
AcDbLine
 10
2129.99996801588
 20
465.0000132728019
 30
0.0
 11
2129.99996801588
 21
835.0000132728018
 31
0.0
  0
LINE
  5
1106B
330
1F
100
AcDbEntity
  8
寸法線
100
AcDbLine
 10
1440.0
 20
932.3923747965601
 30
0.0
 11
1760.0
 21
932.3923747965601
 31
0.0
  0
TEXT
  5
1106C
330
1F
100
AcDbEntity
  8
寸法線
100
AcDbText
 10
1448.75
 20
941.1423747965599
 30
0.0
 40
37.5
  1
空洞金具詳細図
 72
     1
 11
1600.0
 21
941.1423747965599
 31
0.0
100
AcDbText
 73
     1
  0
LEADER
  5
1106D
330
1F
100
AcDbEntity
  8
寸法線
100
AcDbLeader
  3
STANDARD
 76
     2
 10
1471.46304866916
 20
450.0
 30
0.0
 10
1518.859783854976
 20
450.0
 30
0.0
1001
ACAD
1000
DSTYLE
1002
{
1070
   147
1040
0.875
1070
    77
1070
     0
1070
    49
1040
0.5
1002
}
  0
DIMENSION
  5
1106E
330
1F
100
AcDbEntity
  8
寸法線
100
AcDbDimension
280
     0
  2
*D17
 10
568.145062164428
 20
2529.999962780316
 30
0.0
 11
560.1450522578724
 21
2529.999962780316
 31
0.0
 70
   160
 71
     5
 42
16.00001981311107
 73
     0
 74
     0
 75
     0
  3
STANDARD
100
AcDbAlignedDimension
 13
552.145042351317
 23
2364.0
 33
0.0
 14
568.145062164428
 24
2369.999962780316
 34
0.0
100
AcDbRotatedDimension
  0
DIMENSION
  5
1106F
330
1F
100
AcDbEntity
  8
寸法線
100
AcDbDimension
280
     0
  2
*D18
 10
1052.145130835336
 20
2529.999962780316
 30
0.0
 11
810.1450697118298
 21
2529.999962780316
 31
0.0
 70
   160
 71
     5
 42
484.0000686709081
 73
     0
 74
     0
 75
     0
  3
STANDARD
100
AcDbAlignedDimension
 13
568.145062164428
 23
2369.999962780316
 33
0.0
 14
1052.145130835336
 24
2379.99998263027
 34
0.0
100
AcDbRotatedDimension
  0
DIMENSION
  5
11070
330
1F
100
AcDbEntity
  8
寸法線
100
AcDbDimension
280
     0
  2
*D19
 10
432.1450423513174
 20
2069.999962780317
 30
0.0
 11
432.1450423513178
 21
2219.999962780316
 31
0.0
 70
   160
 71
     5
 42
300.0
 73
     0
 74
     0
 75
     0
  3
STANDARD
100
AcDbAlignedDimension
 13
568.145062164428
 23
2369.999962780316
 33
0.0
 14
568.145062164428
 24
2069.999962780316
 34
0.0
 50
90.0
100
AcDbRotatedDimension
  0
DIMENSION
  5
11071
330
1F
100
AcDbEntity
  8
寸法線
100
AcDbDimension
280
     0
  2
*D20
 10
1052.145062257842
 20
2609.999962780321
 30
0.0
 11
802.1450598052751
 21
2609.999962780321
 31
0.0
 70
   160
  1
<>\XH型鋼（連結部）
 71
     5
 42
500.0000199065253
 73
     0
 74
     0
 75
     0
  3
STANDARD
100
AcDbAlignedDimension
 13
552.145042351317
 23
2364.0
 33
0.0
 14
1052.145062257842
 24
2379.999982630325
 34
0.0
100
AcDbRotatedDimension
  0
DIMENSION
  5
11072
330
1F
100
AcDbEntity
  8
寸法線
100
AcDbDimension
280
     0
  2
*D21
 10
1452.145062257842
 20
2529.999962780316
 30
0.0
 11
1252.145110928812
 21
2529.999962780316
 31
0.0
 70
   160
  1
<>\X空洞金具
 71
     5
 42
400.0
 73
     0
 74
     0
 75
     0
  3
STANDARD
100
AcDbAlignedDimension
 13
1052.145062257842
 23
2379.999982630325
 33
0.0
 14
1452.145062257842
 24
2379.999964385694
 34
0.0
100
AcDbRotatedDimension
  0
DIMENSION
  5
11073
330
1F
100
AcDbEntity
  8
寸法線
100
AcDbDimension
280
     0
  2
*D22
 10
2952.145042351326
 20
2689.999962780322
 30
0.0
 11
1752.145042351322
 21
2711.252423410243
 31
0.0
 70
    32
  1
スルーサーＢ L=<>
 71
     5
 42
2400.000000000008
 73
     0
 74
     0
 75
     0
  3
STANDARD
100
AcDbAlignedDimension
 13
552.1450423513178
 23
2363.999999999993
 33
0.0
 14
2952.145042351326
 24
2363.999968704425
 34
0.0
100
AcDbRotatedDimension
  0
DIMENSION
  5
11074
330
1F
100
AcDbEntity
  8
寸法線
100
AcDbDimension
280
     0
  2
*D23
 10
1452.145062257842
 20
2529.999962780316
 30
0.0
 11
1752.145042351321
 21
2529.999962780316
 31
0.0
 70
    32
  1
<>\XH型鋼（埋設部）
 71
     5
 42
599.9999601869586
 73
     0
 74
     0
 75
     0
  3
STANDARD
100
AcDbAlignedDimension
 13
2052.145022444801
 23
2379.999982630325
 33
0.0
 14
1452.145062257842
 24
2379.999964385694
 34
0.0
 50
180.0
100
AcDbRotatedDimension
  0
DIMENSION
  5
11075
330
1F
100
AcDbEntity
  8
寸法線
100
AcDbDimension
280
     0
  2
*D24
 10
2936.145022538215
 20
2529.999962780316
 30
0.0
 11
2944.145032444771
 21
2529.999962780316
 31
0.0
 70
   160
 71
     5
 42
16.00001981311107
 73
     0
 74
     0
 75
     0
  3
STANDARD
100
AcDbAlignedDimension
 13
2952.145042351326
 23
2364.0
 33
0.0
 14
2936.145022538215
 24
2369.999962780316
 34
0.0
 50
180.0
100
AcDbRotatedDimension
  0
DIMENSION
  5
11076
330
1F
100
AcDbEntity
  8
寸法線
100
AcDbDimension
280
     0
  2
*D25
 10
2452.144953867307
 20
2529.999962780316
 30
0.0
 11
2694.145014990813
 21
2529.999962780316
 31
0.0
 70
   160
 71
     5
 42
484.0000686709081
 73
     0
 74
     0
 75
     0
  3
STANDARD
100
AcDbAlignedDimension
 13
2936.145022538215
 23
2369.999962780316
 33
0.0
 14
2452.144953867307
 24
2379.99998263027
 34
0.0
 50
180.0
100
AcDbRotatedDimension
  0
DIMENSION
  5
11077
330
1F
100
AcDbEntity
  8
寸法線
100
AcDbDimension
280
     0
  2
*D26
 10
2452.145022444801
 20
2609.999962780321
 30
0.0
 11
2702.145024897368
 21
2609.999962780321
 31
0.0
 70
   160
  1
<>\XH型鋼（連結部）
 71
     5
 42
500.0000199065253
 73
     0
 74
     0
 75
     0
  3
STANDARD
100
AcDbAlignedDimension
 13
2952.145042351326
 23
2364.0
 33
0.0
 14
2452.145022444801
 24
2379.999982630325
 34
0.0
 50
180.0
100
AcDbRotatedDimension
  0
DIMENSION
  5
11078
330
1F
100
AcDbEntity
  8
寸法線
100
AcDbDimension
280
     0
  2
*D27
 10
2052.145022444801
 20
2529.999962780316
 30
0.0
 11
2252.144973773831
 21
2529.999962780316
 31
0.0
 70
   160
  1
<>\X空洞金具
 71
     5
 42
400.0
 73
     0
 74
     0
 75
     0
  3
STANDARD
100
AcDbAlignedDimension
 13
2452.145022444801
 23
2379.999982630325
 33
0.0
 14
2052.145022444801
 24
2379.999964385694
 34
0.0
 50
180.0
100
AcDbRotatedDimension
  0
DIMENSION
  5
11079
330
1F
100
AcDbEntity
  8
寸法線
100
AcDbDimension
280
     0
  2
*D28
 10
2452.145022444801
 20
2609.999962780321
 30
0.0
 11
1752.145042351321
 21
2631.249962780321
 31
0.0
 70
    32
  1
W=<>
 71
     5
 42
1399.999960186958
 73
     0
 74
     0
 75
     0
  3
STANDARD
100
AcDbAlignedDimension
 13
1052.145062257842
 23
2379.999964385695
 33
0.0
 14
2452.145022444801
 24
2379.999982630325
 34
0.0
100
AcDbRotatedDimension
  0
LEADER
  5
1107A
330
1F
100
AcDbEntity
  8
寸法線
100
AcDbLeader
  3
STANDARD
 76
     3
 10
608.3950821643611
 20
1605.666830918191
 30
0.0
 10
691.6343844265302
 20
1749.841531622856
 30
0.0
 10
959.2945613613501
 20
1749.841531622856
 30
0.0
211
-1.0
221
0.0
231
0.0
1001
ACAD
1000
DSTYLE
1002
{
1070
   147
1040
0.875
1070
    77
1070
     0
1002
}
  0
TEXT
  5
1107B
330
1F
100
AcDbEntity
  8
寸法線
100
AcDbText
 10
700.3843844265253
 20
1758.591531622856
 30
0.0
 40
25.0
  1
ｶﾊﾞｰﾌﾟﾚｰﾄ連結用孔
 72
     2
 11
948.7177177598587
 21
1783.591531622856
 31
0.0
100
AcDbText
 73
     3
  0
DIMENSION
  5
1107E
330
1F
100
AcDbEntity
  8
寸法線
100
AcDbDimension
280
     0
  2
*D29
 10
2052.145082117667
 20
1209.999982630339
 30
0.0
 11
2027.145072164404
 21
1209.999982630339
 31
0.0
 70
   160
 71
     5
 42
50.00001990652527
 73
     0
 74
     0
 75
     0
  3
STANDARD
100
AcDbAlignedDimension
 13
2002.145062211142
 23
1409.999982630339
 33
0.0
 14
2052.145082117667
 24
1359.999984235721
 34
0.0
 50
180.0
100
AcDbRotatedDimension
  0
DIMENSION
  5
1107F
330
1F
100
AcDbEntity
  8
寸法線
100
AcDbDimension
280
     0
  2
*D30
 10
2052.145082117667
 20
1129.999962839778
 30
0.0
 11
1752.145062211141
 21
1151.249962839778
 31
0.0
 70
    32
 71
     5
 42
600.0000398130505
 73
     0
 74
     0
 75
     0
  3
STANDARD
100
AcDbAlignedDimension
 13
1452.145042304616
 23
1360.000002480345
 33
0.0
 14
2052.145082117667
 24
1360.000002480345
 34
0.0
100
AcDbRotatedDimension
  0
DIMENSION
  5
11080
330
1F
100
AcDbEntity
  8
寸法線
100
AcDbDimension
280
     0
  2
*D31
 10
1452.145097119061
 20
1209.999982630339
 30
0.0
 11
1477.145079665101
 21
1209.999982630339
 31
0.0
 70
   160
 71
     5
 42
49.99996509207995
 73
     0
 74
     0
 75
     0
  3
STANDARD
100
AcDbAlignedDimension
 13
1502.145062211141
 23
1409.999982630339
 33
0.0
 14
1452.145097119061
 24
1360.000021552798
 34
0.0
100
AcDbRotatedDimension
  0
DIMENSION
  5
11081
330
1F
100
AcDbEntity
  8
寸法線
100
AcDbDimension
280
     0
  2
*D32
 10
2002.145062211142
 20
1209.999982630339
 30
0.0
 11
1752.145062211141
 21
1235.283535427951
 31
0.0
 70
    32
  1
2@250=<>
 71
     5
 42
500.0
 73
     0
 74
     0
 75
     0
  3
STANDARD
100
AcDbAlignedDimension
 13
1502.145062211141
 23
1409.999982630339
 33
0.0
 14
2002.145062211142
 24
1409.999982630339
 34
0.0
100
AcDbRotatedDimension
  0
TEXT
  5
11082
330
1F
100
AcDbEntity
  8
寸法線
100
AcDbText
 10
1527.609783854976
 20
835.8333333333334
 30
0.0
 40
25.0
  1
Ａ
 11
1527.609783854976
 21
848.3333333333334
 31
0.0
100
AcDbText
 73
     2
  0
LEADER
  5
11083
330
1F
100
AcDbEntity
  8
寸法線
100
AcDbLeader
  3
STANDARD
 76
     2
 10
1471.46304866916
 20
850.0
 30
0.0
 10
1518.859783854976
 20
850.0
 30
0.0
1001
ACAD
1000
DSTYLE
1002
{
1070
   147
1040
0.875
1070
    77
1070
     0
1070
    49
1040
0.5
1002
}
  0
DIMENSION
  5
11084
330
1F
100
AcDbEntity
  8
寸法線
100
AcDbDimension
280
     0
  2
*D33
 10
789.9999360317597
 20
810.0000182446096
 30
0.0
 11
789.9999360317597
 21
650.0000182446092
 31
0.0
 70
   160
 71
     5
 42
320.0000000000001
 73
     0
 74
     0
 75
     0
  3
STANDARD
100
AcDbAlignedDimension
 13
909.9999360317596
 23
490.0000182446092
 33
0.0
 14
909.9999360317596
 24
810.0000182446091
 34
0.0
 50
90.0
100
AcDbRotatedDimension
  0
LEADER
  5
11588
330
1F
100
AcDbEntity
  8
寸法線
100
AcDbLeader
  3
STANDARD
 76
     3
 10
1758.395042351319
 20
1605.825318787476
 30
0.0
 10
1841.634344613488
 20
1750.000019492142
 30
0.0
 10
2034.294521548308
 20
1750.000019492142
 30
0.0
211
-1.0
221
0.0
231
0.0
1001
ACAD
1000
DSTYLE
1002
{
1070
   147
1040
0.875
1070
    77
1070
     0
1002
}
  0
TEXT
  5
11589
330
1F
100
AcDbEntity
  8
寸法線
100
AcDbText
 10
1850.384344613483
 20
1758.750019492142
 30
0.0
 40
25.0
  1
エア抜き用孔
 72
     2
 11
2023.717677946816
 21
1783.750019492142
 31
0.0
100
AcDbText
 73
     3
  0
DIMENSION
  5
117A2
330
1F
100
AcDbEntity
  8
寸法線
100
AcDbDimension
280
     0
  2
*D47
 10
1698.999996414961
 20
799.9999817553912
 30
0.0
 11
1698.999996414961
 21
774.9999817553904
 31
0.0
 70
   160
  1
φ50
 71
     5
 42
50.00000000000011
 73
     0
 74
     0
 75
     0
  3
STANDARD
100
AcDbAlignedDimension
 13
1698.999996414961
 23
749.9999817553907
 33
0.0
 14
1698.999996414961
 24
799.9999817553907
 34
0.0
 50
90.0
100
AcDbRotatedDimension
  0
TEXT
  5
1180F
330
1F
100
AcDbEntity
  8
寸法線
100
AcDbText
 10
2744.270327756604
 20
2125.929217404402
 30
0.0
 40
25.0
  1
ｴﾝﾄﾞﾌﾟﾚｰﾄ
 11
2744.270327756604
 21
2125.929217404402
 31
0.0
100
AcDbText
 73
     1
  0
LEADER
  5
11810
330
1F
100
AcDbEntity
  8
寸法線
100
AcDbLeader
  3
STANDARD
 76
     2
 10
2936.145007443406
 20
2119.999923213697
 30
0.0
 10
2741.980268168671
 20
2119.999923213697
 30
0.0
1001
ACAD
1000
DSTYLE
1002
{
1070
   147
1040
0.875
1070
    77
1070
     0
1002
}
  0
VIEWPORT
  5
794
330
78D
100
AcDbEntity
 67
     1
  8
0
100
AcDbViewport
 10
204.0995798351864
 20
149.3953270754936
 30
0.0
 40
560.6613320947942
 41
283.5950697277162
 68
     1
 69
     1
 12
204.0995798351864
 22
149.3953270754936
 13
0.0
 23
0.0
 14
10.0
 24
10.0
 15
10.0
 25
10.0
 16
0.0
 26
0.0
 36
1.0
 17
0.0
 27
0.0
 37
0.0
 42
50.0
 43
0.0
 44
0.0
 45
283.5950697277162
 50
0.0
 51
0.0
 72
  1000
 90
    32800
  1

281
     0
 71
     1
 74
     0
110
0.0
120
0.0
130
0.0
111
1.0
121
0.0
131
0.0
112
0.0
122
1.0
132
0.0
 79
     0
146
0.0
170
     0
 61
     5
348
DDAA
292
     1
282
     1
141
0.0
142
0.0
 63
   250
421
  3355443
  0
VIEWPORT
  5
796
330
78D
100
AcDbEntity
 67
     1
  8
Defpoints
100
AcDbViewport
 10
204.099579334259
 20
142.5892481803894
 30
0.0
 40
408.1991586685178
 41
285.1784963607788
 68
     2
 69
     2
 12
2100.207206595808
 22
1486.804522350007
 13
0.0
 23
0.0
 14
10.0
 24
10.0
 15
10.0
 25
10.0
 16
0.0
 26
0.0
 36
1.0
 17
0.0
 27
0.0
 37
0.0
 42
50.0
 43
0.0
 44
0.0
 45
2851.784980677949
 50
0.0
 51
0.0
 72
  1000
 90
    32864
  1

281
     0
 71
     1
 74
     0
110
0.0
120
0.0
130
0.0
111
1.0
121
0.0
131
0.0
112
0.0
122
1.0
132
0.0
 79
     0
146
0.0
170
     0
 61
     5
348
DDAA
292
     1
282
     1
141
0.0
142
0.0
 63
   250
421
  3355443
  0
LINE
  5
9A2
330
78D
100
AcDbEntity
 67
     1
  8
図面枠
100
AcDbLine
 10
14.0996
 20
6.589249999999998
 30
0.0
 11
14.0996
 21
278.58925
 31
0.0
  0
LINE
  5
9A3
330
78D
100
AcDbEntity
 67
     1
  8
図面枠
100
AcDbLine
 10
404.0995999999998
 20
6.589249999999998
 30
0.0
 11
404.0995999999998
 21
278.58925
 31
0.0
  0
LINE
  5
9A4
330
78D
100
AcDbEntity
 67
     1
  8
図面枠
100
AcDbLine
 10
14.0996
 20
278.58925
 30
0.0
 11
404.0995999999998
 21
278.58925
 31
0.0
  0
LINE
  5
9A5
330
78D
100
AcDbEntity
 67
     1
  8
図面枠
100
AcDbLine
 10
14.0996
 20
6.589249999999998
 30
0.0
 11
404.0995999999998
 21
6.589249999999991
 31
0.0
  0
LINE
  5
DFF1
330
78D
100
AcDbEntity
 67
     1
  8
図面枠
100
AcDbLine
 10
289.0996
 20
36.58925
 30
0.0
 11
404.0995999999998
 21
36.58925
 31
0.0
  0
LINE
  5
DFF2
330
78D
100
AcDbEntity
 67
     1
  8
図面枠
100
AcDbLine
 10
289.0996
 20
30.58924999999999
 30
0.0
 11
404.0995999999998
 21
30.58924999999999
 31
0.0
  0
LINE
  5
DFF3
330
78D
100
AcDbEntity
 67
     1
  8
図面枠
100
AcDbLine
 10
289.0996
 20
36.58930000000001
 30
0.0
 11
289.0996
 21
6.589249999999998
 31
0.0
  0
LINE
  5
DFF4
330
78D
100
AcDbEntity
 67
     1
  8
図面枠
100
AcDbLine
 10
289.0996
 20
18.58924999999999
 30
0.0
 11
404.0995999999998
 21
18.58924999999999
 31
0.0
  0
LINE
  5
DFF5
330
78D
100
AcDbEntity
 67
     1
  8
図面枠
100
AcDbLine
 10
352.0996
 20
36.58925
 30
0.0
 11
352.0996
 21
6.589249999999998
 31
0.0
  0
LINE
  5
DFF6
330
78D
100
AcDbEntity
 67
     1
  8
図面枠
100
AcDbLine
 10
304.0996
 20
24.58924999999999
 30
0.0
 11
349.0996
 21
24.58924999999999
 31
0.0
  0
TEXT
  5
DFF7
330
78D
100
AcDbEntity
 67
     1
  8
図面枠
100
AcDbText
 10
289.97465
 20
27.21424999999999
 30
0.0
 40
2.5
  1
名　称
 11
289.97465
 21
29.71424999999999
 31
0.0
100
AcDbText
 73
     3
  0
TEXT
  5
DFF8
330
78D
100
AcDbEntity
 67
     1
  8
図面枠
100
AcDbText
 10
352.97465
 20
27.21424999999999
 30
0.0
 40
2.5
  1
摘　要
 11
352.97465
 21
29.71424999999999
 31
0.0
100
AcDbText
 73
     3
  0
TEXT
  5
DFF9
330
78D
100
AcDbEntity
 67
     1
  8
図面枠
100
AcDbText
 10
352.9746
 20
15.21424999999999
 30
0.0
 40
2.5
  1
型　式
 11
352.9746
 21
17.71424999999999
 31
0.0
100
AcDbText
 73
     3
  0
TEXT
  5
DFFA
330
78D
100
AcDbEntity
 67
     1
  8
図面枠
100
AcDbText
 10
313.5162666666667
 20
26.33925
 30
0.0
 40
2.5
  1
スルーサーＢ構造図
 72
     1
 11
326.5996
 21
26.33925
 31
0.0
100
AcDbText
 73
     1
  0
TEXT
  5
DFFB
330
78D
100
AcDbEntity
 67
     1
  8
図面枠
100
AcDbText
 10
317.7861157480315
 20
20.33924999999999
 30
0.0
 40
2.5
  1
切り梁H-300
 72
     1
 11
326.5996
 21
22.83924999999999
 31
0.0
100
AcDbText
 73
     3
  0
TEXT
  5
DFFC
330
78D
100
AcDbEntity
 67
     1
  8
図面枠
100
AcDbText
 10
366.5162666666667
 20
8.339249999999998
 30
0.0
 40
2.5
  1
Ｈ３０－Ｗ１４０
 72
     1
 11
378.0996
 21
8.339249999999998
 31
0.0
100
AcDbText
 73
     1
  0
TEXT
  5
DFFD
330
78D
100
AcDbEntity
 67
     1
  8
図面枠
100
AcDbText
 10
300.0162781896648
 20
10.58922126233958
 30
0.0
 40
4.0
  1
三研テクノクリエイト
 11
300.0162781896648
 21
12.58922126233958
 31
0.0
100
AcDbText
 73
     2
  0
TEXT
  5
DFFE
330
78D
100
AcDbEntity
 67
     1
  8
図面枠
100
AcDbText
 10
294.2496115229981
 20
12.83922126233958
 30
0.0
 40
2.0
  1
株式
 72
     2
 11
298.5162781896648
 21
12.83922126233958
 31
0.0
100
AcDbText
 73
     1
  0
TEXT
  5
DFFF
330
78D
100
AcDbEntity
 67
     1
  8
図面枠
100
AcDbText
 10
294.2496115229981
 20
10.33922126233958
 30
0.0
 40
2.0
  1
会社
 72
     2
 11
298.5162781896648
 21
12.33922126233958
 31
0.0
100
AcDbText
 73
     3
  0
LINE
  5
E000
330
78D
100
AcDbEntity
 67
     1
  8
図面枠
100
AcDbLine
 10
227.3699773983349
 20
19.8672485172127
 30
0.0
 11
282.3699773983349
 21
19.8672485172127
 31
0.0
  0
LINE
  5
E001
330
78D
100
AcDbEntity
 67
     1
  8
図面枠
100
AcDbLine
 10
227.3699773983349
 20
19.8672485172127
 30
0.0
 11
227.3699773983349
 21
10.86724851721269
 31
0.0
  0
LINE
  5
E003
330
78D
100
AcDbEntity
 67
     1
  8
図面枠
100
AcDbLine
 10
282.3699773983349
 20
19.8672485172127
 30
0.0
 11
282.3699773983349
 21
10.86724851721269
 31
0.0
  0
LINE
  5
E004
330
78D
100
AcDbEntity
 67
     1
  8
図面枠
100
AcDbLine
 10
227.3699773983349
 20
10.86724851721269
 30
0.0
 11
282.3699773983349
 21
10.86724851721269
 31
0.0
  0
LINE
  5
E005
330
78D
100
AcDbEntity
 67
     1
  8
図面枠
100
AcDbLine
 10
383.0996
 20
36.58930000000002
 30
0.0
 11
383.0996
 21
30.58925000000003
 31
0.0
  0
LINE
  5
E006
330
78D
100
AcDbEntity
 67
     1
  8
図面枠
100
AcDbLine
 10
312.0996
 20
36.58925000000003
 30
0.0
 11
312.0996
 21
30.58925000000003
 31
0.0
  0
TEXT
  5
E007
330
78D
100
AcDbEntity
 67
     1
  8
図面枠
100
AcDbText
 10
289.9746
 20
32.33925000000004
 30
0.0
 40
2.5
  1
重量
 11
289.9746
 21
32.33925000000004
 31
0.0
100
AcDbText
 73
     1
  0
TEXT
  5
E008
330
78D
100
AcDbEntity
 67
     1
  8
図面枠
100
AcDbText
 10
312.9746
 20
32.33930000000002
 30
0.0
 40
2.5
  1
表面仕上げ
 41
0.8
 11
312.9746
 21
32.33930000000002
 31
0.0
100
AcDbText
 73
     1
  0
TEXT
  5
E009
330
78D
100
AcDbEntity
 67
     1
  8
図面枠
100
AcDbText
 10
352.9746
 20
32.33925000000004
 30
0.0
 40
2.5
  1
日付
 11
352.9746
 21
32.33925000000004
 31
0.0
100
AcDbText
 73
     1
  0
TEXT
  5
E00A
330
78D
100
AcDbEntity
 67
     1
  8
図面枠
100
AcDbText
 10
383.9746
 20
32.33925000000004
 30
0.0
 40
2.5
  1
尺度
 11
383.9746
 21
32.33925000000004
 31
0.0
100
AcDbText
 73
     1
  0
TEXT
  5
E00B
330
78D
100
AcDbEntity
 67
     1
  8
図面枠
100
AcDbText
 10
300.3079
 20
32.33925000000004
 30
0.0
 40
2.5
  1
288kg
 11
300.3079
 21
32.33925000000004
 31
0.0
100
AcDbText
 73
     1
  0
TEXT
  5
E00C
330
78D
100
AcDbEntity
 67
     1
  8
図面枠
100
AcDbText
 10
328.3079
 20
32.33930000000002
 30
0.0
 40
2.5
  1
鉄筋防錆剤
 41
0.8
 11
328.3079
 21
32.33930000000002
 31
0.0
100
AcDbText
 73
     1
  0
TEXT
  5
E00D
330
78D
100
AcDbEntity
 67
     1
  8
図面枠
100
AcDbText
 10
363.3079
 20
32.33925000000004
 30
0.0
 40
2.5
  1
2024.01.01
 11
363.3079
 21
32.33925000000004
 31
0.0
100
AcDbText
 73
     1
  0
TEXT
  5
E00E
330
78D
100
AcDbEntity
 67
     1
  8
図面枠
100
AcDbText
 10
394.3079
 20
32.33925000000004
 30
0.0
 40
2.5
  1
1/10
 11
394.3079
 21
32.33925000000004
 31
0.0
100
AcDbText
 73
     1
  0
TEXT
  5
E00F
330
78D
100
AcDbEntity
 67
     1
  8
図面枠
100
AcDbText
 10
364.7662666666667
 20
20.86240908820162
 30
0.0
 40
2.5
  1
Ｈ３０－Ｗシリーズ
 72
     1
 11
378.0996
 21
20.86240908820162
 31
0.0
100
AcDbText
 73
     1
  0
TEXT
  5
FB00
330
78D
100
AcDbEntity
 67
     1
  8
図面枠
100
AcDbText
 10
229.0019716746131
 20
13.16593865156561
 30
0.0
 40
4.0
  1
スクラップ重量　164kg
 72
     1
 11
254.7744590480284
 21
13.16593865156561
 31
0.0
100
AcDbText
  0
ENDSEC
  0
SECTION
  2
OBJECTS
  0
DICTIONARY
  5
C
330
0
100
AcDbDictionary
281
     1
  3
ACAD_CIP_PREVIOUS_PRODUCT_INFO
350
FCF1
  3
ACAD_COLOR
350
6B
  3
ACAD_DETAILVIEWSTYLE
350
FCEB
  3
ACAD_GROUP
350
D
  3
ACAD_LAYOUT
350
1A
  3
ACAD_MATERIAL
350
6A
  3
ACAD_MLEADERSTYLE
350
DDC7
  3
ACAD_MLINESTYLE
350
17
  3
ACAD_PLOTSETTINGS
350
19
  3
ACAD_PLOTSTYLENAME
350
E
  3
ACAD_SCALELIST
350
DDB5
  3
ACAD_SECTIONVIEWSTYLE
350
FCE9
  3
ACAD_TABLESTYLE
350
7E
  3
ACAD_VISUALSTYLE
350
DDA4
  3
AcadDim
350
89BC
  3
ACDB_RECOMPOSE_DATA
350
11856
  3
ACDBHEADERROUNDTRIPXREC
350
EA42
  3
AcDbVariableDictionary
350
5E
  3
AcDsDecomposeData
350
1185C
  3
AEC_PROPERTY_SET_DEFS
350
DE21
  0
DICTIONARY
  5
DDFD
330
8
100
AcDbDictionary
280
     1
281
     1
  0
DICTIONARY
  5
11D
330
2
100
AcDbDictionary
280
     1
281
     1
  3
ACAD_LAYERFILTERS
360
98AE
  3
ACAD_LAYERSTATES
360
11E
  3
ACLYDICTIONARY
360
98AD
  0
DICTIONARY
  5
DDE3
330
10
100
AcDbDictionary
280
     1
281
     1
  3
ADSK_XREC_LAYER_RECONCILED
360
DDE4
  0
DICTIONARY
  5
DDE7
330
1BF
100
AcDbDictionary
280
     1
281
     1
  3
ADSK_XREC_LAYER_RECONCILED
360
DDE8
  0
DICTIONARY
  5
DDEB
330
1C1
100
AcDbDictionary
280
     1
281
     1
  3
ADSK_XREC_LAYER_RECONCILED
360
DDEC
  0
DICTIONARY
  5
DDED
330
1C2
100
AcDbDictionary
280
     1
281
     1
  3
ADSK_XREC_LAYER_RECONCILED
360
DDEE
  0
DICTIONARY
  5
DDEF
330
1C3
100
AcDbDictionary
280
     1
281
     1
  3
ADSK_XREC_LAYER_RECONCILED
360
DDF0
  0
DICTIONARY
  5
DDF1
330
1C4
100
AcDbDictionary
280
     1
281
     1
  3
ADSK_XREC_LAYER_RECONCILED
360
DDF2
  0
DICTIONARY
  5
DDF3
330
1C5
100
AcDbDictionary
280
     1
281
     1
  3
ADSK_XREC_LAYER_RECONCILED
360
DDF4
  0
DICTIONARY
  5
DDF5
330
82E
100
AcDbDictionary
280
     1
281
     1
  3
ADSK_XREC_LAYER_RECONCILED
360
DDF6
  0
DICTIONARY
  5
5C91
330
1F
100
AcDbDictionary
280
     1
281
     1
  3
ACAD_SORTENTS
360
5C92
  0
DICTIONARY
  5
DFEB
330
C08
100
AcDbDictionary
280
     1
281
     1
  3
ACAD_SORTENTS
360
EA39
  0
XRECORD
  5
FCF1
102
{ACAD_REACTORS
330
C
102
}
330
C
100
AcDbXrecord
280
     1
300
ACD
300
2023
300

  0
DICTIONARY
  5
6B
102
{ACAD_REACTORS
330
C
102
}
330
C
100
AcDbDictionary
281
     1
  0
DICTIONARY
  5
FCEB
102
{ACAD_REACTORS
330
C
102
}
330
C
100
AcDbDictionary
281
     1
  3
Metric50
350
FCEC
  0
DICTIONARY
  5
D
102
{ACAD_REACTORS
330
C
102
}
330
C
100
AcDbDictionary
281
     1
  0
DICTIONARY
  5
1A
102
{ACAD_REACTORS
330
C
102
}
330
C
100
AcDbDictionary
281
     1
  3
Model
350
22
  3
レイアウト1
350
78E
  0
DICTIONARY
  5
6A
102
{ACAD_REACTORS
330
C
102
}
330
C
100
AcDbDictionary
281
     1
  3
ByBlock
350
DD94
  3
ByLayer
350
DD8C
  3
Global
350
DD9C
  0
DICTIONARY
  5
DDC7
102
{ACAD_REACTORS
330
C
102
}
330
C
100
AcDbDictionary
281
     1
  3
Standard
350
DDC8
  0
DICTIONARY
  5
17
102
{ACAD_REACTORS
330
C
102
}
330
C
100
AcDbDictionary
281
     1
  3
Standard
350
18
  0
DICTIONARY
  5
19
102
{ACAD_REACTORS
330
C
102
}
330
C
100
AcDbDictionary
281
     1
  0
ACDBDICTIONARYWDFLT
  5
E
102
{ACAD_REACTORS
330
C
102
}
330
C
100
AcDbDictionary
281
     1
  3
Normal
350
F
100
AcDbDictionaryWithDefault
340
F
  0
DICTIONARY
  5
DDB5
102
{ACAD_REACTORS
330
C
102
}
330
C
100
AcDbDictionary
281
     1
  3
A0
350
DDB6
  3
A1
350
DDB7
  3
A2
350
DDB8
  3
A3
350
DDB9
  3
A4
350
DDBA
  3
A5
350
DDBB
  3
A6
350
DDBC
  3
A7
350
DDBD
  3
A8
350
DDBE
  3
A9
350
DDBF
  3
B0
350
DDC0
  3
B1
350
DDC1
  3
B2
350
DDC2
  3
B3
350
DDC3
  3
B4
350
DDC4
  3
B5
350
DDC5
  3
B6
350
DDC6
  0
DICTIONARY
  5
FCE9
102
{ACAD_REACTORS
330
C
102
}
330
C
100
AcDbDictionary
281
     1
  3
Metric50
350
FCEA
  0
DICTIONARY
  5
7E
102
{ACAD_REACTORS
330
C
102
}
330
C
100
AcDbDictionary
281
     1
  3
Standard
350
7F
  0
DICTIONARY
  5
DDA4
102
{ACAD_REACTORS
330
C
102
}
330
C
100
AcDbDictionary
281
     1
  3
2dWireframe
350
DDAA
  3
3D Hidden
350
DDAC
  3
3dWireframe
350
DDAB
  3
Basic
350
DDA9
  3
Brighten
350
DDB0
  3
ColorChange
350
DDB4
  3
Conceptual
350
DDAD
  3
Dim
350
DDAF
  3
EdgeColorOff
350
FCE8
  3
Facepattern
350
DDB3
  3
Flat
350
DDA5
  3
FlatWithEdges
350
DDA6
  3
Gouraud
350
DDA7
  3
GouraudWithEdges
350
DDA8
  3
Hidden
350
FCE0
  3
JitterOff
350
FCE6
  3
Linepattern
350
DDB2
  3
OverhangOff
350
FCE7
  3
Realistic
350
DDAE
  3
Shaded
350
FCE5
  3
Shaded with edges
350
FCE4
  3
Shades of Gray
350
FCE1
  3
Sketchy
350
FCE2
  3
Thicken
350
DDB1
  3
Wireframe
350
FCDF
  3
X-Ray
350
FCE3
  0
XRECORD
  5
89BC
102
{ACAD_REACTORS
330
C
102
}
330
C
100
AcDbXrecord
280
     1
 90
   990106
  3

 60
     0
 61
     0
 62
     1
 63
     3
 64
     0
 65
     0
 66
     0
 67
     3
 68
     1
 69
     0
 70
     0
 71
     0
 72
     0
 40
0.0
170
     0
  0
XRECORD
  5
11856
102
{ACAD_REACTORS
330
C
102
}
330
C
100
AcDbXrecord
280
     1
 90
        1
330
7F
  0
DICTIONARY
  5
EA42
102
{ACAD_REACTORS
330
C
102
}
330
C
100
AcDbDictionary
281
     1
  0
DICTIONARY
  5
5E
102
{ACAD_REACTORS
330
C
102
}
330
C
100
AcDbDictionary
281
     1
  3
CANNOSCALE
350
DE0B
  3
CMLEADERSTYLE
350
DE0A
  3
CTABLESTYLE
350
84
  3
CVIEWDETAILSTYLE
350
1157A
  3
CVIEWSECTIONSTYLE
350
1157B
  3
DIMASSOC
350
5F
  3
HIDETEXT
350
63
  3
INDEXCTL
350
DE0D
  3
LAYEREVAL
350
1157E
  3
LAYERNOTIFY
350
1157F
  3
LIGHTINGUNITS
350
1157D
  3
MSLTSCALE
350
1157C
  3
PROJECTNAME
350
DD50
  3
SORTENTS
350
DE0C
  0
DICTIONARY
  5
1185C
102
{ACAD_REACTORS
330
C
102
}
330
C
100
AcDbDictionary
281
     1
  3
AcDsRecords
350
1185E
  3
AcDsSchemas
350
1185D
1001
ACAD
1070
     2
  0
DICTIONARY
  5
DE21
102
{ACAD_REACTORS
330
C
102
}
330
C
100
AcDbDictionary
281
     1
  0
DICTIONARY
  5
98AE
102
{ACAD_REACTORS
330
11D
102
}
330
11D
100
AcDbDictionary
281
     1
  0
DICTIONARY
  5
11E
102
{ACAD_REACTORS
330
11D
102
}
330
11D
100
AcDbDictionary
281
     1
  0
DICTIONARY
  5
98AD
102
{ACAD_REACTORS
330
11D
102
}
330
11D
100
AcDbDictionary
281
     1
1001
ACAD
1000
<All
  0
XRECORD
  5
DDE4
102
{ACAD_REACTORS
330
DDE3
102
}
330
DDE3
100
AcDbXrecord
280
     1
290
     1
  0
XRECORD
  5
DDE8
102
{ACAD_REACTORS
330
DDE7
102
}
330
DDE7
100
AcDbXrecord
280
     1
290
     1
  0
XRECORD
  5
DDEC
102
{ACAD_REACTORS
330
DDEB
102
}
330
DDEB
100
AcDbXrecord
280
     1
290
     1
  0
XRECORD
  5
DDEE
102
{ACAD_REACTORS
330
DDED
102
}
330
DDED
100
AcDbXrecord
280
     1
290
     1
  0
XRECORD
  5
DDF0
102
{ACAD_REACTORS
330
DDEF
102
}
330
DDEF
100
AcDbXrecord
280
     1
290
     1
  0
XRECORD
  5
DDF2
102
{ACAD_REACTORS
330
DDF1
102
}
330
DDF1
100
AcDbXrecord
280
     1
290
     1
  0
XRECORD
  5
DDF4
102
{ACAD_REACTORS
330
DDF3
102
}
330
DDF3
100
AcDbXrecord
280
     1
290
     1
  0
XRECORD
  5
DDF6
102
{ACAD_REACTORS
330
DDF5
102
}
330
DDF5
100
AcDbXrecord
280
     1
290
     1
  0
SORTENTSTABLE
  5
5C92
102
{ACAD_REACTORS
330
5C91
102
}
330
5C91
100
AcDbSortentsTable
330
1F
  0
SORTENTSTABLE
  5
EA39
102
{ACAD_REACTORS
330
DFEB
102
}
330
DFEB
100
AcDbSortentsTable
330
C08
  0
ACDBDETAILVIEWSTYLE
  5
FCEC
102
{ACAD_XDICTIONARY
360
11861
102
}
102
{ACAD_REACTORS
330
FCEB
102
}
330
FCEB
100
AcDbModelDocViewStyle
 70
     0
  3
Metric50
290
     0
100
AcDbDetailViewStyle
 70
     0
 71
     0
 90
        3
 71
     1
340
11
 62
   256
 40
5.0
340
0
 62
   256
 40
5.0
300

 40
0.0
280
     1
 71
     2
340
16
 90
       25
 62
   256
 71
     3
340
11
 62
   256
 40
5.0
 90
        0
 40
15.0
 90
        1
300
%<\AcVar ViewDetailId>% (%<\AcVar ViewScale \f "%sn">%)
 71
     4
340
16
 90
       25
 62
   256
340
16
 90
       25
 62
   256
280
     0
  0
LAYOUT
  5
22
102
{ACAD_REACTORS
330
1A
102
}
330
1A
100
AcDbPlotSettings
  1

  2
none_device
  4
ISO_A4_(210.00_x_297.00_MM)
  6

 40
7.5
 41
20.0
 42
7.5
 43
20.0
 44
210.0
 45
297.0
 46
11.54999923706054
 47
-13.65000009536743
 48
0.0
 49
0.0
140
0.0
141
0.0
142
1.0
143
8.704084754739808
 70
 11952
 72
     1
 73
     0
 74
     0
  7

 75
     0
147
0.1148885871608098
 76
     0
 77
     2
 78
   300
148
0.0
149
0.0
100
AcDbLayout
  1
Model
 70
     1
 71
     0
 10
0.0
 20
0.0
 11
12.0
 21
9.0
 12
0.0
 22
0.0
 32
0.0
 14
0.0
 24
0.0
 34
0.0
 15
0.0
 25
0.0
 35
0.0
146
0.0
 13
0.0
 23
0.0
 33
0.0
 16
1.0
 26
0.0
 36
0.0
 17
0.0
 27
1.0
 37
0.0
 76
     0
330
1F
331
EA40
1001
ACAD_PSEXT
1000
None
1000
None
1000
Not applicable
1000
The layout will not be plotted unless a new plotter configuration name is selected.
1070
     0
  0
LAYOUT
  5
78E
102
{ACAD_XDICTIONARY
360
79B
102
}
102
{ACAD_REACTORS
330
1A
102
}
330
1A
100
AcDbPlotSettings
  1

  2
RICOH MP C2503 JPN RPCS V2
  4
A3
  6

 40
5.873749732971191
 41
5.873748779296875
 42
5.873748779296875
 43
5.873748779296875
 44
296.9259948730469
 45
419.9466552734374
 46
0.0
 47
0.0
 48
0.0
 49
0.0
140
0.0
141
0.0
142
1.0
143
1.0
 70
   688
 72
     1
 73
     1
 74
     5
  7
monochrome.ctb
 75
    16
147
1.0
 76
     0
 77
     2
 78
   300
148
0.0
149
0.0
100
AcDbLayout
  1
レイアウト1
 70
     1
 71
     1
 10
-5.873748779296875
 20
-5.873749732971191
 11
414.0729064941406
 21
291.0522451400757
 12
0.0
 22
0.0
 32
0.0
 14
0.0000000000000853
 24
0.0
 34
0.0
 15
408.1991586685179
 25
285.1784963607788
 35
0.0
146
0.0
 13
0.0
 23
0.0
 33
0.0
 16
1.0
 26
0.0
 36
0.0
 17
0.0
 27
1.0
 37
0.0
 76
     0
330
78D
331
794
1001
ACAD_PSEXT
1000
RICOH MP C2503 JPN RPCS V2
1000
RICOH MP C2503 JPN RPCS V2
1000
IP_192.168.24.100
1000
RPCS Driver (For Windows)
1070
     0
  0
MATERIAL
  5
DD94
102
{ACAD_XDICTIONARY
360
DD95
102
}
102
{ACAD_REACTORS
330
6A
102
}
330
6A
100
AcDbMaterial
  1
ByBlock
 72
     0
 43
0.0008202099737533
 43
0.0
 43
0.0
 43
0.0
 43
0.0
 43
0.0008202099737533
 43
0.0
 43
0.0
 43
0.0
 43
0.0
 43
1.0
 43
0.0
 43
0.0
 43
0.0
 43
0.0
 43
1.0
 77
     0
 47
0.0008202099737533
 47
0.0
 47
0.0
 47
0.0
 47
0.0
 47
0.0008202099737533
 47
0.0
 47
0.0
 47
0.0
 47
0.0
 47
1.0
 47
0.0
 47
0.0
 47
0.0
 47
0.0
 47
1.0
171
     0
 49
0.0008202099737533
 49
0.0
 49
0.0
 49
0.0
 49
0.0
 49
0.0008202099737533
 49
0.0
 49
0.0
 49
0.0
 49
0.0
 49
1.0
 49
0.0
 49
0.0
 49
0.0
 49
0.0
 49
1.0
175
     0
142
0.0008202099737533
142
0.0
142
0.0
142
0.0
142
0.0
142
0.0008202099737533
142
0.0
142
0.0
142
0.0
142
0.0
142
1.0
142
0.0
142
0.0
142
0.0
142
0.0
142
1.0
179
     0
144
0.0008202099737533
144
0.0
144
0.0
144
0.0
144
0.0
144
0.0008202099737533
144
0.0
144
0.0
144
0.0
144
0.0
144
1.0
144
0.0
144
0.0
144
0.0
144
0.0
144
1.0
147
0.0008202099737533
147
0.0
147
0.0
147
0.0
147
0.0
147
0.0008202099737533
147
0.0
147
0.0
147
0.0
147
0.0
147
1.0
147
0.0
147
0.0
147
0.0
147
0.0
147
1.0
  0
MATERIAL
  5
DD8C
102
{ACAD_XDICTIONARY
360
DD8D
102
}
102
{ACAD_REACTORS
330
6A
102
}
330
6A
100
AcDbMaterial
  1
ByLayer
 72
     0
 43
0.0008202099737533
 43
0.0
 43
0.0
 43
0.0
 43
0.0
 43
0.0008202099737533
 43
0.0
 43
0.0
 43
0.0
 43
0.0
 43
1.0
 43
0.0
 43
0.0
 43
0.0
 43
0.0
 43
1.0
 77
     0
 47
0.0008202099737533
 47
0.0
 47
0.0
 47
0.0
 47
0.0
 47
0.0008202099737533
 47
0.0
 47
0.0
 47
0.0
 47
0.0
 47
1.0
 47
0.0
 47
0.0
 47
0.0
 47
0.0
 47
1.0
171
     0
 49
0.0008202099737533
 49
0.0
 49
0.0
 49
0.0
 49
0.0
 49
0.0008202099737533
 49
0.0
 49
0.0
 49
0.0
 49
0.0
 49
1.0
 49
0.0
 49
0.0
 49
0.0
 49
0.0
 49
1.0
175
     0
142
0.0008202099737533
142
0.0
142
0.0
142
0.0
142
0.0
142
0.0008202099737533
142
0.0
142
0.0
142
0.0
142
0.0
142
1.0
142
0.0
142
0.0
142
0.0
142
0.0
142
1.0
179
     0
144
0.0008202099737533
144
0.0
144
0.0
144
0.0
144
0.0
144
0.0008202099737533
144
0.0
144
0.0
144
0.0
144
0.0
144
1.0
144
0.0
144
0.0
144
0.0
144
0.0
144
1.0
147
0.0008202099737533
147
0.0
147
0.0
147
0.0
147
0.0
147
0.0008202099737533
147
0.0
147
0.0
147
0.0
147
0.0
147
1.0
147
0.0
147
0.0
147
0.0
147
0.0
147
1.0
  0
MATERIAL
  5
DD9C
102
{ACAD_XDICTIONARY
360
DD9D
102
}
102
{ACAD_REACTORS
330
6A
102
}
330
6A
100
AcDbMaterial
  1
Global
 72
     0
 43
0.0008202099737533
 43
0.0
 43
0.0
 43
0.0
 43
0.0
 43
0.0008202099737533
 43
0.0
 43
0.0
 43
0.0
 43
0.0
 43
1.0
 43
0.0
 43
0.0
 43
0.0
 43
0.0
 43
1.0
 77
     0
 47
0.0008202099737533
 47
0.0
 47
0.0
 47
0.0
 47
0.0
 47
0.0008202099737533
 47
0.0
 47
0.0
 47
0.0
 47
0.0
 47
1.0
 47
0.0
 47
0.0
 47
0.0
 47
0.0
 47
1.0
171
     0
 49
0.0008202099737533
 49
0.0
 49
0.0
 49
0.0
 49
0.0
 49
0.0008202099737533
 49
0.0
 49
0.0
 49
0.0
 49
0.0
 49
1.0
 49
0.0
 49
0.0
 49
0.0
 49
0.0
 49
1.0
175
     0
142
0.0008202099737533
142
0.0
142
0.0
142
0.0
142
0.0
142
0.0008202099737533
142
0.0
142
0.0
142
0.0
142
0.0
142
1.0
142
0.0
142
0.0
142
0.0
142
0.0
142
1.0
179
     0
144
0.0008202099737533
144
0.0
144
0.0
144
0.0
144
0.0
144
0.0008202099737533
144
0.0
144
0.0
144
0.0
144
0.0
144
1.0
144
0.0
144
0.0
144
0.0
144
0.0
144
1.0
147
0.0008202099737533
147
0.0
147
0.0
147
0.0
147
0.0
147
0.0008202099737533
147
0.0
147
0.0
147
0.0
147
0.0
147
1.0
147
0.0
147
0.0
147
0.0
147
0.0
147
1.0
  0
MLEADERSTYLE
  5
DDC8
102
{ACAD_REACTORS
330
DDC7
102
}
330
DDC7
100
AcDbMLeaderStyle
179
     2
170
     2
171
     1
172
     0
 90
        2
 40
0.0
 41
0.0
173
     1
 91
-1056964608
340
14
 92
       -2
290
     1
 42
2.0
291
     1
 43
0.36
  3
Standard
 44
4.0
300

342
11
174
     1
178
     6
175
     1
176
     0
 93
-1056964608
 45
4.0
292
     0
297
     0
 46
4.0
 94
-1056964608
 47
1.0
 49
1.0
140
1.0
293
     1
141
0.0
294
     1
177
     0
142
1.0
295
     0
296
     0
143
0.125
271
     0
272
     9
273
     9
298
     0
1001
ACAD
1000
AcRTDxfName
1000
MLEADERSTYLE
1000
AcRTDxfName
1000
MLEADERSTYLE
1000
AcRTDxfName
1000
MLEADERSTYLE
1000
AcRTDxfName
1000
MLEADERSTYLE
1000
AcRTDxfName
1000
MLEADERSTYLE
1000
AcRTDxfName
1000
MLEADERSTYLE
1000
AcRTDxfName
1000
MLEADERSTYLE
  0
MLINESTYLE
  5
18
102
{ACAD_REACTORS
330
17
102
}
330
17
100
AcDbMlineStyle
  2
STANDARD
 70
     0
  3

 62
   256
 51
90.0
 52
90.0
 71
     2
 49
0.5
 62
   256
  6
BYLAYER
 49
-0.5
 62
   256
  6
BYLAYER
  0
ACDBPLACEHOLDER
  5
F
102
{ACAD_REACTORS
330
E
102
}
330
E
  0
SCALE
  5
DDB6
102
{ACAD_REACTORS
330
DDB5
102
}
330
DDB5
100
AcDbScale
 70
     0
300
1:1
140
1.0
141
1.0
290
     1
1001
ACAD
1000
AcRTDxfName
1000
SCALE
1000
AcRTDxfName
1000
SCALE
1000
AcRTDxfName
1000
SCALE
1000
AcRTDxfName
1000
SCALE
1000
AcRTDxfName
1000
SCALE
1000
AcRTDxfName
1000
SCALE
1000
AcRTDxfName
1000
SCALE
  0
SCALE
  5
DDB7
102
{ACAD_REACTORS
330
DDB5
102
}
330
DDB5
100
AcDbScale
 70
     0
300
1:2
140
1.0
141
2.0
290
     0
1001
ACAD
1000
AcRTDxfName
1000
SCALE
1000
AcRTDxfName
1000
SCALE
1000
AcRTDxfName
1000
SCALE
1000
AcRTDxfName
1000
SCALE
1000
AcRTDxfName
1000
SCALE
1000
AcRTDxfName
1000
SCALE
1000
AcRTDxfName
1000
SCALE
  0
SCALE
  5
DDB8
102
{ACAD_REACTORS
330
DDB5
102
}
330
DDB5
100
AcDbScale
 70
     0
300
1:4
140
1.0
141
4.0
290
     0
1001
ACAD
1000
AcRTDxfName
1000
SCALE
1000
AcRTDxfName
1000
SCALE
1000
AcRTDxfName
1000
SCALE
1000
AcRTDxfName
1000
SCALE
1000
AcRTDxfName
1000
SCALE
1000
AcRTDxfName
1000
SCALE
1000
AcRTDxfName
1000
SCALE
  0
SCALE
  5
DDB9
102
{ACAD_REACTORS
330
DDB5
102
}
330
DDB5
100
AcDbScale
 70
     0
300
1:5
140
1.0
141
5.0
290
     0
1001
ACAD
1000
AcRTDxfName
1000
SCALE
1000
AcRTDxfName
1000
SCALE
1000
AcRTDxfName
1000
SCALE
1000
AcRTDxfName
1000
SCALE
1000
AcRTDxfName
1000
SCALE
1000
AcRTDxfName
1000
SCALE
1000
AcRTDxfName
1000
SCALE
  0
SCALE
  5
DDBA
102
{ACAD_REACTORS
330
DDB5
102
}
330
DDB5
100
AcDbScale
 70
     0
300
1:8
140
1.0
141
8.0
290
     0
1001
ACAD
1000
AcRTDxfName
1000
SCALE
1000
AcRTDxfName
1000
SCALE
1000
AcRTDxfName
1000
SCALE
1000
AcRTDxfName
1000
SCALE
1000
AcRTDxfName
1000
SCALE
1000
AcRTDxfName
1000
SCALE
1000
AcRTDxfName
1000
SCALE
  0
SCALE
  5
DDBB
102
{ACAD_REACTORS
330
DDB5
102
}
330
DDB5
100
AcDbScale
 70
     0
300
1:10
140
1.0
141
10.0
290
     0
1001
ACAD
1000
AcRTDxfName
1000
SCALE
1000
AcRTDxfName
1000
SCALE
1000
AcRTDxfName
1000
SCALE
1000
AcRTDxfName
1000
SCALE
1000
AcRTDxfName
1000
SCALE
1000
AcRTDxfName
1000
SCALE
1000
AcRTDxfName
1000
SCALE
  0
SCALE
  5
DDBC
102
{ACAD_REACTORS
330
DDB5
102
}
330
DDB5
100
AcDbScale
 70
     0
300
1:16
140
1.0
141
16.0
290
     0
1001
ACAD
1000
AcRTDxfName
1000
SCALE
1000
AcRTDxfName
1000
SCALE
1000
AcRTDxfName
1000
SCALE
1000
AcRTDxfName
1000
SCALE
1000
AcRTDxfName
1000
SCALE
1000
AcRTDxfName
1000
SCALE
1000
AcRTDxfName
1000
SCALE
  0
SCALE
  5
DDBD
102
{ACAD_REACTORS
330
DDB5
102
}
330
DDB5
100
AcDbScale
 70
     0
300
1:20
140
1.0
141
20.0
290
     0
1001
ACAD
1000
AcRTDxfName
1000
SCALE
1000
AcRTDxfName
1000
SCALE
1000
AcRTDxfName
1000
SCALE
1000
AcRTDxfName
1000
SCALE
1000
AcRTDxfName
1000
SCALE
1000
AcRTDxfName
1000
SCALE
1000
AcRTDxfName
1000
SCALE
  0
SCALE
  5
DDBE
102
{ACAD_REACTORS
330
DDB5
102
}
330
DDB5
100
AcDbScale
 70
     0
300
1:30
140
1.0
141
30.0
290
     0
1001
ACAD
1000
AcRTDxfName
1000
SCALE
1000
AcRTDxfName
1000
SCALE
1000
AcRTDxfName
1000
SCALE
1000
AcRTDxfName
1000
SCALE
1000
AcRTDxfName
1000
SCALE
1000
AcRTDxfName
1000
SCALE
1000
AcRTDxfName
1000
SCALE
  0
SCALE
  5
DDBF
102
{ACAD_REACTORS
330
DDB5
102
}
330
DDB5
100
AcDbScale
 70
     0
300
1:40
140
1.0
141
40.0
290
     0
1001
ACAD
1000
AcRTDxfName
1000
SCALE
1000
AcRTDxfName
1000
SCALE
1000
AcRTDxfName
1000
SCALE
1000
AcRTDxfName
1000
SCALE
1000
AcRTDxfName
1000
SCALE
1000
AcRTDxfName
1000
SCALE
1000
AcRTDxfName
1000
SCALE
  0
SCALE
  5
DDC0
102
{ACAD_REACTORS
330
DDB5
102
}
330
DDB5
100
AcDbScale
 70
     0
300
1:50
140
1.0
141
50.0
290
     0
1001
ACAD
1000
AcRTDxfName
1000
SCALE
1000
AcRTDxfName
1000
SCALE
1000
AcRTDxfName
1000
SCALE
1000
AcRTDxfName
1000
SCALE
1000
AcRTDxfName
1000
SCALE
1000
AcRTDxfName
1000
SCALE
1000
AcRTDxfName
1000
SCALE
  0
SCALE
  5
DDC1
102
{ACAD_REACTORS
330
DDB5
102
}
330
DDB5
100
AcDbScale
 70
     0
300
1:100
140
1.0
141
100.0
290
     0
1001
ACAD
1000
AcRTDxfName
1000
SCALE
1000
AcRTDxfName
1000
SCALE
1000
AcRTDxfName
1000
SCALE
1000
AcRTDxfName
1000
SCALE
1000
AcRTDxfName
1000
SCALE
1000
AcRTDxfName
1000
SCALE
1000
AcRTDxfName
1000
SCALE
  0
SCALE
  5
DDC2
102
{ACAD_REACTORS
330
DDB5
102
}
330
DDB5
100
AcDbScale
 70
     0
300
2:1
140
2.0
141
1.0
290
     0
1001
ACAD
1000
AcRTDxfName
1000
SCALE
1000
AcRTDxfName
1000
SCALE
1000
AcRTDxfName
1000
SCALE
1000
AcRTDxfName
1000
SCALE
1000
AcRTDxfName
1000
SCALE
1000
AcRTDxfName
1000
SCALE
1000
AcRTDxfName
1000
SCALE
  0
SCALE
  5
DDC3
102
{ACAD_REACTORS
330
DDB5
102
}
330
DDB5
100
AcDbScale
 70
     0
300
4:1
140
4.0
141
1.0
290
     0
1001
ACAD
1000
AcRTDxfName
1000
SCALE
1000
AcRTDxfName
1000
SCALE
1000
AcRTDxfName
1000
SCALE
1000
AcRTDxfName
1000
SCALE
1000
AcRTDxfName
1000
SCALE
1000
AcRTDxfName
1000
SCALE
1000
AcRTDxfName
1000
SCALE
  0
SCALE
  5
DDC4
102
{ACAD_REACTORS
330
DDB5
102
}
330
DDB5
100
AcDbScale
 70
     0
300
8:1
140
8.0
141
1.0
290
     0
1001
ACAD
1000
AcRTDxfName
1000
SCALE
1000
AcRTDxfName
1000
SCALE
1000
AcRTDxfName
1000
SCALE
1000
AcRTDxfName
1000
SCALE
1000
AcRTDxfName
1000
SCALE
1000
AcRTDxfName
1000
SCALE
1000
AcRTDxfName
1000
SCALE
  0
SCALE
  5
DDC5
102
{ACAD_REACTORS
330
DDB5
102
}
330
DDB5
100
AcDbScale
 70
     0
300
10:1
140
10.0
141
1.0
290
     0
1001
ACAD
1000
AcRTDxfName
1000
SCALE
1000
AcRTDxfName
1000
SCALE
1000
AcRTDxfName
1000
SCALE
1000
AcRTDxfName
1000
SCALE
1000
AcRTDxfName
1000
SCALE
1000
AcRTDxfName
1000
SCALE
1000
AcRTDxfName
1000
SCALE
  0
SCALE
  5
DDC6
102
{ACAD_REACTORS
330
DDB5
102
}
330
DDB5
100
AcDbScale
 70
     0
300
100:1
140
100.0
141
1.0
290
     0
1001
ACAD
1000
AcRTDxfName
1000
SCALE
1000
AcRTDxfName
1000
SCALE
1000
AcRTDxfName
1000
SCALE
1000
AcRTDxfName
1000
SCALE
1000
AcRTDxfName
1000
SCALE
1000
AcRTDxfName
1000
SCALE
1000
AcRTDxfName
1000
SCALE
  0
ACDBSECTIONVIEWSTYLE
  5
FCEA
102
{ACAD_XDICTIONARY
360
1185F
102
}
102
{ACAD_REACTORS
330
FCE9
102
}
330
FCE9
100
AcDbModelDocViewStyle
 70
     0
  3
Metric50
290
     0
100
AcDbSectionViewStyle
 70
     0
 71
     0
 90
      102
 71
     1
340
11
 62
   256
 40
5.0
340
0
340
0
 62
   256
 40
5.0
300
I, O, Q, S, X, Z
 40
10.0
 90
        0
 40
2.5
 90
        0
 71
     2
340
16
 90
       25
 62
   256
340
16
 90
       50
 62
   256
 40
5.0
 40
2.5
 40
5.0
 71
     3
340
11
 62
   256
 40
5.0
 90
        0
 40
15.0
 90
        1
300
%<\AcVar ViewSectionStartId>%-%<\AcVar ViewSectionEndId>% (%<\AcVar ViewScale \f "%sn">%)
 71
     4
 62
   256
 62
   257
300
ANSI31
 40
1.0
 90
        0
290
     0
290
     0
 90
        6
 40
0.0
 40
1.570796326794896
 40
0.2617993877991494
 40
1.308996938995747
 40
-0.2617993877991494
 40
1.832595714594046
  0
TABLESTYLE
  5
7F
102
{ACAD_XDICTIONARY
360
DDF7
102
}
102
{ACAD_REACTORS
330
7E
102
}
330
7E
100
AcDbTableStyle
280
     0
  3
Standard
 70
     0
 71
     0
 40
1.5
 41
1.5
280
     0
281
     0
  7
Standard
140
4.5
170
     2
 62
     0
 63
     7
283
     0
 90
        4
 91
        0
  1

274
    -2
284
     1
 64
     0
275
    -2
285
     1
 65
     0
276
    -2
286
     1
 66
     0
277
    -2
287
     1
 67
     0
278
    -2
288
     1
 68
     0
279
    -2
289
     1
 69
     0
  7
Standard
140
6.0
170
     5
 62
     0
 63
     7
283
     0
 90
        4
 91
        0
  1

274
    -2
284
     1
 64
     0
275
    -2
285
     1
 65
     0
276
    -2
286
     1
 66
     0
277
    -2
287
     1
 67
     0
278
    -2
288
     1
 68
     0
279
    -2
289
     1
 69
     0
  7
Standard
140
4.5
170
     5
 62
     0
 63
     7
283
     0
 90
        4
 91
        0
  1

274
    -2
284
     1
 64
     0
275
    -2
285
     1
 65
     0
276
    -2
286
     1
 66
     0
277
    -2
287
     1
 67
     0
278
    -2
288
     1
 68
     0
279
    -2
289
     1
 69
     0
  0
VISUALSTYLE
  5
DDAA
102
{ACAD_REACTORS
330
DDA4
102
}
330
DDA4
100
AcDbVisualStyle
  2
2dWireframe
 70
     4
177
     3
291
     0
 70
    58
 90
        0
176
     1
 90
        2
176
     1
 90
        0
176
     1
 90
        0
176
     1
 40
0.6
176
     1
 40
30.0
176
     1
 62
     7
176
     1
 90
        1
176
     1
 90
        4
176
     1
 62
     7
176
     1
 62
   257
176
     1
 90
        1
176
     1
 90
        1
176
     1
 40
1.0
176
     1
 90
        0
176
     1
 62
   257
176
     1
 40
1.0
176
     1
 90
        1
176
     1
 90
        6
176
     1
 90
        2
176
     1
 62
     7
176
     1
 90
        5
176
     1
 90
        0
176
     1
 90
        0
176
     1
290
     0
176
     1
 90
        1
176
     1
 40
0.0
176
     1
 90
        0
176
     1
290
     1
176
     1
290
     1
176
     1
290
     0
176
     1
290
     0
176
     1
290
     0
176
     1
290
     0
176
     1
290
     0
176
     1
290
     0
176
     1
290
     0
176
     1
 90
       50
176
     1
 40
0.0
176
     1
 40
1.0
176
     1
 90
        0
176
     1
 62
    18
420
        0
176
     1
 90
       50
176
     1
 90
        3
176
     1
 62
     5
420
      255
176
     1
290
     0
176
     1
 90
       50
176
     1
 90
       50
176
     1
 90
       50
176
     1
290
     0
176
     1
 90
       50
176
     1
 62
   256
176
     0
 40
1.0
176
     0
 90
        2
176
     1
  1
strokes_ogs.tif
176
     1
290
     0
176
     1
 40
1.0
176
     1
 40
1.0
176
     1
1001
ACAD
1000
AcRTDxfName
1000
VISUALSTYLE
1000
AcRTDxfName
1000
VISUALSTYLE
1000
AcRTDxfName
1000
VISUALSTYLE
1000
AcRTDxfName
1000
VISUALSTYLE
1000
AcRTDxfName
1000
VISUALSTYLE
1000
AcRTDxfName
1000
VISUALSTYLE
1000
AcRTDxfName
1000
VISUALSTYLE
1000
AcDbSavedByObjectVersion
1070
     0
  0
VISUALSTYLE
  5
DDAC
102
{ACAD_REACTORS
330
DDA4
102
}
330
DDA4
100
AcDbVisualStyle
  2
3D Hidden
 70
     6
177
     3
291
     0
 70
    58
 90
        1
176
     1
 90
        2
176
     1
 90
        2
176
     1
 90
        0
176
     1
 40
0.6
176
     1
 40
30.0
176
     1
 62
     7
176
     1
 90
        2
176
     1
 90
        2
176
     1
 62
     7
176
     1
 62
   257
176
     1
 90
        2
176
     1
 90
        1
176
     1
 40
40.0
176
     1
 90
        0
176
     1
 62
   257
176
     1
 40
1.0
176
     1
 90
        1
176
     1
 90
        6
176
     1
 90
        2
176
     1
 62
     7
176
     1
 90
        3
176
     1
 90
        0
176
     1
 90
        0
176
     1
290
     0
176
     1
 90
        1
176
     1
 40
0.0
176
     1
 90
        0
176
     1
290
     0
176
     1
290
     1
176
     1
290
     1
176
     1
290
     0
176
     1
290
     0
176
     1
290
     0
176
     1
290
     0
176
     1
290
     0
176
     1
290
     0
176
     1
 90
       50
176
     1
 40
0.0
176
     1
 40
1.0
176
     1
 90
        0
176
     1
 62
    18
420
        0
176
     1
 90
       50
176
     1
 90
        3
176
     1
 62
     5
420
      255
176
     1
290
     0
176
     1
 90
       50
176
     1
 90
       50
176
     1
 90
       50
176
     1
290
     0
176
     1
 90
       50
176
     1
 62
   256
176
     0
 40
1.0
176
     0
 90
        2
176
     1
  1
strokes_ogs.tif
176
     1
290
     0
176
     1
 40
1.0
176
     1
 40
1.0
176
     1
1001
ACAD
1000
AcRTDxfName
1000
VISUALSTYLE
1000
AcRTDxfName
1000
VISUALSTYLE
1000
AcRTDxfName
1000
VISUALSTYLE
1000
AcRTDxfName
1000
VISUALSTYLE
1000
AcRTDxfName
1000
VISUALSTYLE
1000
AcRTDxfName
1000
VISUALSTYLE
1000
AcRTDxfName
1000
VISUALSTYLE
1000
AcDbSavedByObjectVersion
1070
     0
  0
VISUALSTYLE
  5
DDAB
102
{ACAD_REACTORS
330
DDA4
102
}
330
DDA4
100
AcDbVisualStyle
  2
3dWireframe
 70
     5
177
     3
291
     0
 70
    58
 90
        0
176
     1
 90
        2
176
     1
 90
        0
176
     1
 90
        0
176
     1
 40
0.6
176
     1
 40
30.0
176
     1
 62
     7
176
     1
 90
        1
176
     1
 90
        4
176
     1
 62
     7
176
     1
 62
   257
176
     1
 90
        1
176
     1
 90
        1
176
     1
 40
1.0
176
     1
 90
        0
176
     1
 62
   257
176
     1
 40
1.0
176
     1
 90
        1
176
     1
 90
        6
176
     1
 90
        2
176
     1
 62
     7
176
     1
 90
        5
176
     1
 90
        0
176
     1
 90
        0
176
     1
290
     0
176
     1
 90
        1
176
     1
 40
0.0
176
     1
 90
        0
176
     1
290
     0
176
     1
290
     1
176
     1
290
     1
176
     1
290
     0
176
     1
290
     0
176
     1
290
     0
176
     1
290
     0
176
     1
290
     0
176
     1
290
     0
176
     1
 90
       50
176
     1
 40
0.0
176
     1
 40
1.0
176
     1
 90
        0
176
     1
 62
    18
420
        0
176
     1
 90
       50
176
     1
 90
        3
176
     1
 62
     5
420
      255
176
     1
290
     0
176
     1
 90
       50
176
     1
 90
       50
176
     1
 90
       50
176
     1
290
     0
176
     1
 90
       50
176
     1
 62
   256
176
     0
 40
1.0
176
     0
 90
        2
176
     1
  1
strokes_ogs.tif
176
     1
290
     0
176
     1
 40
1.0
176
     1
 40
1.0
176
     1
1001
ACAD
1000
AcRTDxfName
1000
VISUALSTYLE
1000
AcRTDxfName
1000
VISUALSTYLE
1000
AcRTDxfName
1000
VISUALSTYLE
1000
AcRTDxfName
1000
VISUALSTYLE
1000
AcRTDxfName
1000
VISUALSTYLE
1000
AcRTDxfName
1000
VISUALSTYLE
1000
AcRTDxfName
1000
VISUALSTYLE
1000
AcDbSavedByObjectVersion
1070
     0
  0
VISUALSTYLE
  5
DDA9
102
{ACAD_REACTORS
330
DDA4
102
}
330
DDA4
100
AcDbVisualStyle
  2
Basic
 70
     7
177
     3
291
     1
 70
    58
 90
        1
176
     1
 90
        0
176
     1
 90
        1
176
     1
 90
        0
176
     1
 40
0.6
176
     1
 40
30.0
176
     1
 62
     7
176
     1
 90
        0
176
     1
 90
        4
176
     1
 62
     7
176
     1
 62
   257
176
     1
 90
        1
176
     1
 90
        1
176
     1
 40
1.0
176
     1
 90
        8
176
     1
 62
     7
176
     1
 40
1.0
176
     1
 90
        1
176
     1
 90
        6
176
     1
 90
        2
176
     1
 62
     7
176
     1
 90
        5
176
     1
 90
        0
176
     1
 90
        0
176
     1
290
     0
176
     1
 90
        1
176
     1
 40
0.0
176
     1
 90
        0
176
     1
290
     0
176
     1
290
     1
176
     1
290
     1
176
     1
290
     0
176
     1
290
     0
176
     1
290
     0
176
     1
290
     0
176
     1
290
     0
176
     1
290
     0
176
     1
 90
       50
176
     1
 40
0.0
176
     1
 40
1.0
176
     1
 90
        0
176
     1
 62
    18
420
        0
176
     1
 90
       50
176
     1
 90
        3
176
     1
 62
     5
420
      255
176
     1
290
     0
176
     1
 90
       50
176
     1
 90
       50
176
     1
 90
       50
176
     1
290
     0
176
     1
 90
       50
176
     1
 62
   256
176
     0
 40
1.0
176
     0
 90
        2
176
     1
  1
strokes_ogs.tif
176
     1
290
     0
176
     1
 40
1.0
176
     1
 40
1.0
176
     1
1001
ACAD
1000
AcRTDxfName
1000
VISUALSTYLE
1000
AcRTDxfName
1000
VISUALSTYLE
1000
AcRTDxfName
1000
VISUALSTYLE
1000
AcRTDxfName
1000
VISUALSTYLE
1000
AcRTDxfName
1000
VISUALSTYLE
1000
AcRTDxfName
1000
VISUALSTYLE
1000
AcRTDxfName
1000
VISUALSTYLE
1000
AcDbSavedByObjectVersion
1070
     0
  0
VISUALSTYLE
  5
DDB0
102
{ACAD_REACTORS
330
DDA4
102
}
330
DDA4
100
AcDbVisualStyle
  2
Brighten
 70
    12
177
     3
291
     1
 70
    58
 90
        2
176
     1
 90
        2
176
     1
 90
        0
176
     1
 90
        0
176
     1
 40
0.6
176
     1
 40
30.0
176
     1
 62
     7
176
     1
 90
        1
176
     1
 90
        4
176
     1
 62
     7
176
     1
 62
   257
176
     1
 90
        1
176
     1
 90
        1
176
     1
 40
1.0
176
     1
 90
        8
176
     1
 62
     7
176
     1
 40
1.0
176
     1
 90
        1
176
     1
 90
        6
176
     1
 90
        2
176
     1
 62
     7
176
     1
 90
        5
176
     1
 90
        0
176
     1
 90
        0
176
     1
290
     0
176
     1
 90
        1
176
     1
 40
50.0
176
     1
 90
        0
176
     1
290
     0
176
     1
290
     1
176
     1
290
     1
176
     1
290
     0
176
     1
290
     0
176
     1
290
     0
176
     1
290
     0
176
     1
290
     0
176
     1
290
     0
176
     1
 90
       50
176
     1
 40
0.0
176
     1
 40
1.0
176
     1
 90
        0
176
     1
 62
    18
420
        0
176
     1
 90
       50
176
     1
 90
        3
176
     1
 62
     5
420
      255
176
     1
290
     0
176
     1
 90
       50
176
     1
 90
       50
176
     1
 90
       50
176
     1
290
     0
176
     1
 90
       50
176
     1
 62
   256
176
     0
 40
1.0
176
     0
 90
        2
176
     1
  1
strokes_ogs.tif
176
     1
290
     0
176
     1
 40
1.0
176
     1
 40
1.0
176
     1
1001
ACAD
1000
AcRTDxfName
1000
VISUALSTYLE
1000
AcRTDxfName
1000
VISUALSTYLE
1000
AcRTDxfName
1000
VISUALSTYLE
1000
AcRTDxfName
1000
VISUALSTYLE
1000
AcRTDxfName
1000
VISUALSTYLE
1000
AcRTDxfName
1000
VISUALSTYLE
1000
AcRTDxfName
1000
VISUALSTYLE
1000
AcDbSavedByObjectVersion
1070
     0
  0
VISUALSTYLE
  5
DDB4
102
{ACAD_REACTORS
330
DDA4
102
}
330
DDA4
100
AcDbVisualStyle
  2
ColorChange
 70
    16
177
     3
291
     1
 70
    58
 90
        2
176
     1
 90
        2
176
     1
 90
        3
176
     1
 90
        0
176
     1
 40
0.6
176
     1
 40
30.0
176
     1
 62
     8
176
     1
 90
        1
176
     1
 90
        4
176
     1
 62
     7
176
     1
 62
   257
176
     1
 90
        1
176
     1
 90
        1
176
     1
 40
1.0
176
     1
 90
        8
176
     1
 62
     8
176
     1
 40
1.0
176
     1
 90
        1
176
     1
 90
        6
176
     1
 90
        2
176
     1
 62
     7
176
     1
 90
        5
176
     1
 90
        0
176
     1
 90
        0
176
     1
290
     0
176
     1
 90
        1
176
     1
 40
0.0
176
     1
 90
        0
176
     1
290
     0
176
     1
290
     1
176
     1
290
     1
176
     1
290
     0
176
     1
290
     0
176
     1
290
     0
176
     1
290
     0
176
     1
290
     0
176
     1
290
     0
176
     1
 90
       50
176
     1
 40
0.0
176
     1
 40
1.0
176
     1
 90
        0
176
     1
 62
    18
420
        0
176
     1
 90
       50
176
     1
 90
        3
176
     1
 62
     5
420
      255
176
     1
290
     0
176
     1
 90
       50
176
     1
 90
       50
176
     1
 90
       50
176
     1
290
     0
176
     1
 90
       50
176
     1
 62
   256
176
     0
 40
1.0
176
     0
 90
        2
176
     1
  1
strokes_ogs.tif
176
     1
290
     0
176
     1
 40
1.0
176
     1
 40
1.0
176
     1
1001
ACAD
1000
AcRTDxfName
1000
VISUALSTYLE
1000
AcRTDxfName
1000
VISUALSTYLE
1000
AcRTDxfName
1000
VISUALSTYLE
1000
AcRTDxfName
1000
VISUALSTYLE
1000
AcRTDxfName
1000
VISUALSTYLE
1000
AcRTDxfName
1000
VISUALSTYLE
1000
AcRTDxfName
1000
VISUALSTYLE
1000
AcDbSavedByObjectVersion
1070
     0
  0
VISUALSTYLE
  5
DDAD
102
{ACAD_REACTORS
330
DDA4
102
}
330
DDA4
100
AcDbVisualStyle
  2
Conceptual
 70
     9
177
     3
291
     0
 70
    58
 90
        3
176
     1
 90
        2
176
     1
 90
        0
176
     1
 90
        0
176
     1
 40
0.6
176
     1
 40
30.0
176
     1
 62
     7
176
     1
 90
        2
176
     1
 90
        2
176
     1
 62
     7
176
     1
 62
   257
176
     1
 90
        1
176
     1
 90
        1
176
     1
 40
40.0
176
     1
 90
        8
176
     1
 62
     7
176
     1
 40
1.0
176
     1
 90
        1
176
     1
 90
        6
176
     1
 90
        2
176
     1
 62
     7
176
     1
 90
        3
176
     1
 90
        0
176
     1
 90
        0
176
     1
290
     0
176
     1
 90
        1
176
     1
 40
0.0
176
     1
 90
        0
176
     1
290
     0
176
     1
290
     1
176
     1
290
     1
176
     1
290
     0
176
     1
290
     0
176
     1
290
     0
176
     1
290
     0
176
     1
290
     0
176
     1
290
     0
176
     1
 90
       50
176
     1
 40
0.0
176
     1
 40
1.0
176
     1
 90
        0
176
     1
 62
    18
420
        0
176
     1
 90
       50
176
     1
 90
        3
176
     1
 62
     5
420
      255
176
     1
290
     0
176
     1
 90
       50
176
     1
 90
       50
176
     1
 90
       50
176
     1
290
     0
176
     1
 90
       50
176
     1
 62
   256
176
     0
 40
1.0
176
     0
 90
        2
176
     1
  1
strokes_ogs.tif
176
     1
290
     0
176
     1
 40
1.0
176
     1
 40
1.0
176
     1
1001
ACAD
1000
AcRTDxfName
1000
VISUALSTYLE
1000
AcRTDxfName
1000
VISUALSTYLE
1000
AcRTDxfName
1000
VISUALSTYLE
1000
AcRTDxfName
1000
VISUALSTYLE
1000
AcRTDxfName
1000
VISUALSTYLE
1000
AcRTDxfName
1000
VISUALSTYLE
1000
AcRTDxfName
1000
VISUALSTYLE
1000
AcDbSavedByObjectVersion
1070
     0
  0
VISUALSTYLE
  5
DDAF
102
{ACAD_REACTORS
330
DDA4
102
}
330
DDA4
100
AcDbVisualStyle
  2
Dim
 70
    11
177
     3
291
     1
 70
    58
 90
        2
176
     1
 90
        2
176
     1
 90
        0
176
     1
 90
        0
176
     1
 40
0.6
176
     1
 40
30.0
176
     1
 62
     7
176
     1
 90
        1
176
     1
 90
        4
176
     1
 62
     7
176
     1
 62
   257
176
     1
 90
        1
176
     1
 90
        1
176
     1
 40
1.0
176
     1
 90
        8
176
     1
 62
     7
176
     1
 40
1.0
176
     1
 90
        1
176
     1
 90
        6
176
     1
 90
        2
176
     1
 62
     7
176
     1
 90
        5
176
     1
 90
        0
176
     1
 90
        0
176
     1
290
     0
176
     1
 90
        1
176
     1
 40
-50.0
176
     1
 90
        0
176
     1
290
     0
176
     1
290
     1
176
     1
290
     1
176
     1
290
     0
176
     1
290
     0
176
     1
290
     0
176
     1
290
     0
176
     1
290
     0
176
     1
290
     0
176
     1
 90
       50
176
     1
 40
0.0
176
     1
 40
1.0
176
     1
 90
        0
176
     1
 62
    18
420
        0
176
     1
 90
       50
176
     1
 90
        3
176
     1
 62
     5
420
      255
176
     1
290
     0
176
     1
 90
       50
176
     1
 90
       50
176
     1
 90
       50
176
     1
290
     0
176
     1
 90
       50
176
     1
 62
   256
176
     0
 40
1.0
176
     0
 90
        2
176
     1
  1
strokes_ogs.tif
176
     1
290
     0
176
     1
 40
1.0
176
     1
 40
1.0
176
     1
1001
ACAD
1000
AcRTDxfName
1000
VISUALSTYLE
1000
AcRTDxfName
1000
VISUALSTYLE
1000
AcRTDxfName
1000
VISUALSTYLE
1000
AcRTDxfName
1000
VISUALSTYLE
1000
AcRTDxfName
1000
VISUALSTYLE
1000
AcRTDxfName
1000
VISUALSTYLE
1000
AcRTDxfName
1000
VISUALSTYLE
1000
AcDbSavedByObjectVersion
1070
     0
  0
VISUALSTYLE
  5
FCE8
102
{ACAD_REACTORS
330
DDA4
102
}
330
DDA4
100
AcDbVisualStyle
  2
EdgeColorOff
 70
    22
177
     3
291
     1
 70
    58
 90
        2
176
     0
 90
        2
176
     0
 90
        0
176
     0
 90
        0
176
     0
 40
0.6
176
     0
 40
30.0
176
     0
 62
     7
420
 16777215
176
     0
 90
        1
176
     0
 90
        4
176
     0
 62
     7
176
     0
 62
   257
176
     0
 90
        1
176
     0
 90
        1
176
     0
 40
1.0
176
     0
 90
        8
176
     2
 62
     7
176
     0
 40
1.0
176
     0
 90
        1
176
     0
 90
        6
176
     0
 90
        2
176
     0
 62
     7
176
     0
 90
        5
176
     0
 90
        0
176
     0
 90
        0
176
     0
290
     0
176
     0
 90
        1
176
     0
 40
0.0
176
     0
 90
        0
176
     0
290
     0
176
     0
290
     1
176
     0
290
     1
176
     0
290
     0
176
     0
290
     0
176
     0
290
     0
176
     0
290
     0
176
     0
290
     0
176
     0
290
     0
176
     0
 90
       50
176
     0
 40
0.0
176
     0
 40
1.0
176
     0
 90
        0
176
     0
 62
    18
420
        0
176
     0
 90
       50
176
     0
 90
        3
176
     0
 62
     5
420
      255
176
     0
290
     0
176
     0
 90
       50
176
     0
 90
       50
176
     0
 90
       50
176
     0
290
     0
176
     0
 90
       50
176
     0
 62
   256
176
     0
 40
1.0
176
     0
 90
        2
176
     0
  1
strokes_ogs.tif
176
     0
290
     0
176
     0
 40
1.0
176
     0
 40
1.0
176
     0
1001
ACAD
1000
AcDbSavedByObjectVersion
1070
     0
  0
VISUALSTYLE
  5
DDB3
102
{ACAD_REACTORS
330
DDA4
102
}
330
DDA4
100
AcDbVisualStyle
  2
Facepattern
 70
    15
177
     3
291
     1
 70
    58
 90
        2
176
     1
 90
        2
176
     1
 90
        0
176
     1
 90
        0
176
     1
 40
0.6
176
     1
 40
30.0
176
     1
 62
     7
176
     1
 90
        1
176
     1
 90
        4
176
     1
 62
     7
176
     1
 62
   257
176
     1
 90
        1
176
     1
 90
        1
176
     1
 40
1.0
176
     1
 90
        8
176
     1
 62
     7
176
     1
 40
1.0
176
     1
 90
        1
176
     1
 90
        6
176
     1
 90
        2
176
     1
 62
     7
176
     1
 90
        5
176
     1
 90
        0
176
     1
 90
        0
176
     1
290
     0
176
     1
 90
        1
176
     1
 40
0.0
176
     1
 90
        0
176
     1
290
     0
176
     1
290
     1
176
     1
290
     1
176
     1
290
     0
176
     1
290
     0
176
     1
290
     0
176
     1
290
     0
176
     1
290
     0
176
     1
290
     0
176
     1
 90
       50
176
     1
 40
0.0
176
     1
 40
1.0
176
     1
 90
        0
176
     1
 62
    18
420
        0
176
     1
 90
       50
176
     1
 90
        3
176
     1
 62
     5
420
      255
176
     1
290
     0
176
     1
 90
       50
176
     1
 90
       50
176
     1
 90
       50
176
     1
290
     0
176
     1
 90
       50
176
     1
 62
   256
176
     0
 40
1.0
176
     0
 90
        2
176
     1
  1
strokes_ogs.tif
176
     1
290
     0
176
     1
 40
1.0
176
     1
 40
1.0
176
     1
1001
ACAD
1000
AcRTDxfName
1000
VISUALSTYLE
1000
AcRTDxfName
1000
VISUALSTYLE
1000
AcRTDxfName
1000
VISUALSTYLE
1000
AcRTDxfName
1000
VISUALSTYLE
1000
AcRTDxfName
1000
VISUALSTYLE
1000
AcRTDxfName
1000
VISUALSTYLE
1000
AcRTDxfName
1000
VISUALSTYLE
1000
AcDbSavedByObjectVersion
1070
     0
  0
VISUALSTYLE
  5
DDA5
102
{ACAD_REACTORS
330
DDA4
102
}
330
DDA4
100
AcDbVisualStyle
  2
Flat
 70
     0
177
     3
291
     1
 70
    58
 90
        2
176
     1
 90
        1
176
     1
 90
        1
176
     1
 90
        2
176
     1
 40
0.6
176
     1
 40
30.0
176
     1
 62
     7
176
     1
 90
        0
176
     1
 90
        4
176
     1
 62
     7
176
     1
 62
   257
176
     1
 90
        1
176
     1
 90
        1
176
     1
 40
1.0
176
     1
 90
        8
176
     1
 62
     7
176
     1
 40
1.0
176
     1
 90
        1
176
     1
 90
        6
176
     1
 90
        2
176
     1
 62
     7
176
     1
 90
        5
176
     1
 90
        0
176
     1
 90
        0
176
     1
290
     0
176
     1
 90
       13
176
     1
 40
0.0
176
     1
 90
        0
176
     1
290
     0
176
     1
290
     1
176
     1
290
     1
176
     1
290
     0
176
     1
290
     0
176
     1
290
     0
176
     1
290
     0
176
     1
290
     0
176
     1
290
     0
176
     1
 90
       50
176
     1
 40
0.0
176
     1
 40
1.0
176
     1
 90
        0
176
     1
 62
    18
420
        0
176
     1
 90
       50
176
     1
 90
        3
176
     1
 62
     5
420
      255
176
     1
290
     0
176
     1
 90
       50
176
     1
 90
       50
176
     1
 90
       50
176
     1
290
     0
176
     1
 90
       50
176
     1
 62
   256
176
     0
 40
1.0
176
     0
 90
        2
176
     1
  1
strokes_ogs.tif
176
     1
290
     0
176
     1
 40
1.0
176
     1
 40
1.0
176
     1
1001
ACAD
1000
AcRTDxfName
1000
VISUALSTYLE
1000
AcRTDxfName
1000
VISUALSTYLE
1000
AcRTDxfName
1000
VISUALSTYLE
1000
AcRTDxfName
1000
VISUALSTYLE
1000
AcRTDxfName
1000
VISUALSTYLE
1000
AcRTDxfName
1000
VISUALSTYLE
1000
AcRTDxfName
1000
VISUALSTYLE
1000
AcDbSavedByObjectVersion
1070
     0
  0
VISUALSTYLE
  5
DDA6
102
{ACAD_REACTORS
330
DDA4
102
}
330
DDA4
100
AcDbVisualStyle
  2
FlatWithEdges
 70
     1
177
     3
291
     1
 70
    58
 90
        2
176
     1
 90
        1
176
     1
 90
        1
176
     1
 90
        2
176
     1
 40
0.6
176
     1
 40
30.0
176
     1
 62
     7
176
     1
 90
        1
176
     1
 90
        4
176
     1
 62
     7
176
     1
 62
   257
176
     1
 90
        1
176
     1
 90
        1
176
     1
 40
1.0
176
     1
 90
        0
176
     1
 62
   257
176
     1
 40
1.0
176
     1
 90
        1
176
     1
 90
        6
176
     1
 90
        2
176
     1
 62
     7
176
     1
 90
        5
176
     1
 90
        0
176
     1
 90
        0
176
     1
290
     0
176
     1
 90
       13
176
     1
 40
0.0
176
     1
 90
        0
176
     1
290
     0
176
     1
290
     1
176
     1
290
     1
176
     1
290
     0
176
     1
290
     0
176
     1
290
     0
176
     1
290
     0
176
     1
290
     0
176
     1
290
     0
176
     1
 90
       50
176
     1
 40
0.0
176
     1
 40
1.0
176
     1
 90
        0
176
     1
 62
    18
420
        0
176
     1
 90
       50
176
     1
 90
        3
176
     1
 62
     5
420
      255
176
     1
290
     0
176
     1
 90
       50
176
     1
 90
       50
176
     1
 90
       50
176
     1
290
     0
176
     1
 90
       50
176
     1
 62
   256
176
     0
 40
1.0
176
     0
 90
        2
176
     1
  1
strokes_ogs.tif
176
     1
290
     0
176
     1
 40
1.0
176
     1
 40
1.0
176
     1
1001
ACAD
1000
AcRTDxfName
1000
VISUALSTYLE
1000
AcRTDxfName
1000
VISUALSTYLE
1000
AcRTDxfName
1000
VISUALSTYLE
1000
AcRTDxfName
1000
VISUALSTYLE
1000
AcRTDxfName
1000
VISUALSTYLE
1000
AcRTDxfName
1000
VISUALSTYLE
1000
AcRTDxfName
1000
VISUALSTYLE
1000
AcDbSavedByObjectVersion
1070
     0
  0
VISUALSTYLE
  5
DDA7
102
{ACAD_REACTORS
330
DDA4
102
}
330
DDA4
100
AcDbVisualStyle
  2
Gouraud
 70
     2
177
     3
291
     1
 70
    58
 90
        2
176
     1
 90
        2
176
     1
 90
        1
176
     1
 90
        2
176
     1
 40
0.6
176
     1
 40
30.0
176
     1
 62
     7
176
     1
 90
        0
176
     1
 90
        4
176
     1
 62
     7
176
     1
 62
   257
176
     1
 90
        1
176
     1
 90
        1
176
     1
 40
1.0
176
     1
 90
        0
176
     1
 62
     7
176
     1
 40
1.0
176
     1
 90
        1
176
     1
 90
        6
176
     1
 90
        2
176
     1
 62
     7
176
     1
 90
        5
176
     1
 90
        0
176
     1
 90
        0
176
     1
290
     0
176
     1
 90
       13
176
     1
 40
0.0
176
     1
 90
        0
176
     1
290
     0
176
     1
290
     1
176
     1
290
     1
176
     1
290
     0
176
     1
290
     0
176
     1
290
     0
176
     1
290
     0
176
     1
290
     0
176
     1
290
     0
176
     1
 90
       50
176
     1
 40
0.0
176
     1
 40
1.0
176
     1
 90
        0
176
     1
 62
    18
420
        0
176
     1
 90
       50
176
     1
 90
        3
176
     1
 62
     5
420
      255
176
     1
290
     0
176
     1
 90
       50
176
     1
 90
       50
176
     1
 90
       50
176
     1
290
     0
176
     1
 90
       50
176
     1
 62
   256
176
     0
 40
1.0
176
     0
 90
        2
176
     1
  1
strokes_ogs.tif
176
     1
290
     0
176
     1
 40
1.0
176
     1
 40
1.0
176
     1
1001
ACAD
1000
AcRTDxfName
1000
VISUALSTYLE
1000
AcRTDxfName
1000
VISUALSTYLE
1000
AcRTDxfName
1000
VISUALSTYLE
1000
AcRTDxfName
1000
VISUALSTYLE
1000
AcRTDxfName
1000
VISUALSTYLE
1000
AcRTDxfName
1000
VISUALSTYLE
1000
AcRTDxfName
1000
VISUALSTYLE
1000
AcDbSavedByObjectVersion
1070
     0
  0
VISUALSTYLE
  5
DDA8
102
{ACAD_REACTORS
330
DDA4
102
}
330
DDA4
100
AcDbVisualStyle
  2
GouraudWithEdges
 70
     3
177
     3
291
     1
 70
    58
 90
        2
176
     1
 90
        2
176
     1
 90
        1
176
     1
 90
        2
176
     1
 40
0.6
176
     1
 40
30.0
176
     1
 62
     7
176
     1
 90
        1
176
     1
 90
        4
176
     1
 62
     7
176
     1
 62
   257
176
     1
 90
        1
176
     1
 90
        1
176
     1
 40
1.0
176
     1
 90
        0
176
     1
 62
   257
176
     1
 40
1.0
176
     1
 90
        1
176
     1
 90
        6
176
     1
 90
        2
176
     1
 62
     7
176
     1
 90
        5
176
     1
 90
        0
176
     1
 90
        0
176
     1
290
     0
176
     1
 90
       13
176
     1
 40
0.0
176
     1
 90
        0
176
     1
290
     0
176
     1
290
     1
176
     1
290
     1
176
     1
290
     0
176
     1
290
     0
176
     1
290
     0
176
     1
290
     0
176
     1
290
     0
176
     1
290
     0
176
     1
 90
       50
176
     1
 40
0.0
176
     1
 40
1.0
176
     1
 90
        0
176
     1
 62
    18
420
        0
176
     1
 90
       50
176
     1
 90
        3
176
     1
 62
     5
420
      255
176
     1
290
     0
176
     1
 90
       50
176
     1
 90
       50
176
     1
 90
       50
176
     1
290
     0
176
     1
 90
       50
176
     1
 62
   256
176
     0
 40
1.0
176
     0
 90
        2
176
     1
  1
strokes_ogs.tif
176
     1
290
     0
176
     1
 40
1.0
176
     1
 40
1.0
176
     1
1001
ACAD
1000
AcRTDxfName
1000
VISUALSTYLE
1000
AcRTDxfName
1000
VISUALSTYLE
1000
AcRTDxfName
1000
VISUALSTYLE
1000
AcRTDxfName
1000
VISUALSTYLE
1000
AcRTDxfName
1000
VISUALSTYLE
1000
AcRTDxfName
1000
VISUALSTYLE
1000
AcRTDxfName
1000
VISUALSTYLE
1000
AcDbSavedByObjectVersion
1070
     0
  0
VISUALSTYLE
  5
FCE0
102
{ACAD_REACTORS
330
DDA4
102
}
330
DDA4
100
AcDbVisualStyle
  2
Hidden
 70
     6
177
     3
291
     0
 70
    58
 90
        1
176
     1
 90
        2
176
     1
 90
        2
176
     1
 90
        0
176
     1
 40
0.6
176
     1
 40
30.0
176
     1
 62
     7
420
 16777215
176
     1
 90
        2
176
     1
 90
        2
176
     1
 62
     7
176
     1
 62
   257
176
     1
 90
        2
176
     1
 90
        1
176
     1
 40
40.0
176
     1
 90
        0
176
     1
 62
   257
176
     1
 40
1.0
176
     1
 90
        1
176
     1
 90
        6
176
     1
 90
        2
176
     1
 62
     7
176
     1
 90
        3
176
     1
 90
        0
176
     1
 90
        0
176
     1
290
     0
176
     1
 90
        1
176
     1
 40
0.0
176
     1
 90
        0
176
     1
290
     0
176
     1
290
     1
176
     1
290
     1
176
     1
290
     0
176
     1
290
     0
176
     1
290
     0
176
     1
290
     0
176
     1
290
     0
176
     1
290
     0
176
     1
 90
       50
176
     1
 40
0.0
176
     1
 40
1.0
176
     1
 90
        0
176
     1
 62
    18
420
        0
176
     1
 90
       50
176
     1
 90
        3
176
     1
 62
     5
420
      255
176
     1
290
     0
176
     1
 90
       50
176
     1
 90
       50
176
     1
 90
       50
176
     1
290
     0
176
     1
 90
       50
176
     1
 62
   256
176
     0
 40
1.0
176
     0
 90
        2
176
     1
  1
strokes_ogs.tif
176
     1
290
     0
176
     1
 40
1.0
176
     1
 40
1.0
176
     1
1001
ACAD
1000
AcDbSavedByObjectVersion
1070
     0
  0
VISUALSTYLE
  5
FCE6
102
{ACAD_REACTORS
330
DDA4
102
}
330
DDA4
100
AcDbVisualStyle
  2
JitterOff
 70
    20
177
     3
291
     1
 70
    58
 90
        2
176
     0
 90
        2
176
     0
 90
        0
176
     0
 90
        0
176
     0
 40
0.6
176
     0
 40
30.0
176
     0
 62
     7
420
 16777215
176
     0
 90
        1
176
     0
 90
        4
176
     0
 62
     7
176
     0
 62
   257
176
     0
 90
        1
176
     0
 90
        1
176
     0
 40
1.0
176
     0
 90
       10
176
     2
 62
     7
176
     0
 40
1.0
176
     0
 90
        1
176
     0
 90
        6
176
     0
 90
        2
176
     0
 62
     7
176
     0
 90
        5
176
     0
 90
        0
176
     0
 90
        0
176
     0
290
     0
176
     0
 90
        1
176
     0
 40
0.0
176
     0
 90
        0
176
     0
290
     0
176
     0
290
     1
176
     0
290
     1
176
     0
290
     0
176
     0
290
     0
176
     0
290
     0
176
     0
290
     0
176
     0
290
     0
176
     0
290
     0
176
     0
 90
       50
176
     0
 40
0.0
176
     0
 40
1.0
176
     0
 90
        0
176
     0
 62
    18
420
        0
176
     0
 90
       50
176
     0
 90
        3
176
     0
 62
     5
420
      255
176
     0
290
     0
176
     0
 90
       50
176
     0
 90
       50
176
     0
 90
       50
176
     0
290
     0
176
     0
 90
       50
176
     0
 62
   256
176
     0
 40
1.0
176
     0
 90
        2
176
     0
  1
strokes_ogs.tif
176
     0
290
     0
176
     0
 40
1.0
176
     0
 40
1.0
176
     0
1001
ACAD
1000
AcDbSavedByObjectVersion
1070
     0
  0
VISUALSTYLE
  5
DDB2
102
{ACAD_REACTORS
330
DDA4
102
}
330
DDA4
100
AcDbVisualStyle
  2
Linepattern
 70
    14
177
     3
291
     1
 70
    58
 90
        2
176
     1
 90
        2
176
     1
 90
        0
176
     1
 90
        0
176
     1
 40
0.6
176
     1
 40
30.0
176
     1
 62
     7
176
     1
 90
        1
176
     1
 90
        4
176
     1
 62
     7
176
     1
 62
   257
176
     1
 90
        7
176
     1
 90
        7
176
     1
 40
1.0
176
     1
 90
        8
176
     1
 62
     7
176
     1
 40
1.0
176
     1
 90
        1
176
     1
 90
        6
176
     1
 90
        2
176
     1
 62
     7
176
     1
 90
        5
176
     1
 90
        0
176
     1
 90
        0
176
     1
290
     0
176
     1
 90
        1
176
     1
 40
0.0
176
     1
 90
        0
176
     1
290
     0
176
     1
290
     1
176
     1
290
     1
176
     1
290
     0
176
     1
290
     0
176
     1
290
     0
176
     1
290
     0
176
     1
290
     0
176
     1
290
     0
176
     1
 90
       50
176
     1
 40
0.0
176
     1
 40
1.0
176
     1
 90
        0
176
     1
 62
    18
420
        0
176
     1
 90
       50
176
     1
 90
        3
176
     1
 62
     5
420
      255
176
     1
290
     0
176
     1
 90
       50
176
     1
 90
       50
176
     1
 90
       50
176
     1
290
     0
176
     1
 90
       50
176
     1
 62
   256
176
     0
 40
1.0
176
     0
 90
        2
176
     1
  1
strokes_ogs.tif
176
     1
290
     0
176
     1
 40
1.0
176
     1
 40
1.0
176
     1
1001
ACAD
1000
AcRTDxfName
1000
VISUALSTYLE
1000
AcRTDxfName
1000
VISUALSTYLE
1000
AcRTDxfName
1000
VISUALSTYLE
1000
AcRTDxfName
1000
VISUALSTYLE
1000
AcRTDxfName
1000
VISUALSTYLE
1000
AcRTDxfName
1000
VISUALSTYLE
1000
AcRTDxfName
1000
VISUALSTYLE
1000
AcDbSavedByObjectVersion
1070
     0
  0
VISUALSTYLE
  5
FCE7
102
{ACAD_REACTORS
330
DDA4
102
}
330
DDA4
100
AcDbVisualStyle
  2
OverhangOff
 70
    21
177
     3
291
     1
 70
    58
 90
        2
176
     0
 90
        2
176
     0
 90
        0
176
     0
 90
        0
176
     0
 40
0.6
176
     0
 40
30.0
176
     0
 62
     7
420
 16777215
176
     0
 90
        1
176
     0
 90
        4
176
     0
 62
     7
176
     0
 62
   257
176
     0
 90
        1
176
     0
 90
        1
176
     0
 40
1.0
176
     0
 90
        9
176
     2
 62
     7
176
     0
 40
1.0
176
     0
 90
        1
176
     0
 90
        6
176
     0
 90
        2
176
     0
 62
     7
176
     0
 90
        5
176
     0
 90
        0
176
     0
 90
        0
176
     0
290
     0
176
     0
 90
        1
176
     0
 40
0.0
176
     0
 90
        0
176
     0
290
     0
176
     0
290
     1
176
     0
290
     1
176
     0
290
     0
176
     0
290
     0
176
     0
290
     0
176
     0
290
     0
176
     0
290
     0
176
     0
290
     0
176
     0
 90
       50
176
     0
 40
0.0
176
     0
 40
1.0
176
     0
 90
        0
176
     0
 62
    18
420
        0
176
     0
 90
       50
176
     0
 90
        3
176
     0
 62
     5
420
      255
176
     0
290
     0
176
     0
 90
       50
176
     0
 90
       50
176
     0
 90
       50
176
     0
290
     0
176
     0
 90
       50
176
     0
 62
   256
176
     0
 40
1.0
176
     0
 90
        2
176
     0
  1
strokes_ogs.tif
176
     0
290
     0
176
     0
 40
1.0
176
     0
 40
1.0
176
     0
1001
ACAD
1000
AcDbSavedByObjectVersion
1070
     0
  0
VISUALSTYLE
  5
DDAE
102
{ACAD_REACTORS
330
DDA4
102
}
330
DDA4
100
AcDbVisualStyle
  2
Realistic
 70
     8
177
     3
291
     0
 70
    58
 90
        2
176
     1
 90
        2
176
     1
 90
        0
176
     1
 90
        0
176
     1
 40
0.6
176
     1
 40
30.0
176
     1
 62
     7
176
     1
 90
        1
176
     1
 90
        0
176
     1
 62
     7
176
     1
 62
   257
176
     1
 90
        1
176
     1
 90
        1
176
     1
 40
1.0
176
     1
 90
        8
176
     1
 62
     8
176
     1
 40
1.0
176
     1
 90
        1
176
     1
 90
        6
176
     1
 90
        2
176
     1
 62
     7
176
     1
 90
        5
176
     1
 90
        0
176
     1
 90
        0
176
     1
290
     0
176
     1
 90
       13
176
     1
 40
0.0
176
     1
 90
        0
176
     1
290
     0
176
     1
290
     1
176
     1
290
     1
176
     1
290
     0
176
     1
290
     0
176
     1
290
     0
176
     1
290
     0
176
     1
290
     0
176
     1
290
     0
176
     1
 90
       50
176
     1
 40
0.0
176
     1
 40
1.0
176
     1
 90
        0
176
     1
 62
    18
420
        0
176
     1
 90
       50
176
     1
 90
        3
176
     1
 62
     5
420
      255
176
     1
290
     0
176
     1
 90
       50
176
     1
 90
       50
176
     1
 90
       50
176
     1
290
     0
176
     1
 90
       50
176
     1
 62
   256
176
     0
 40
1.0
176
     0
 90
        2
176
     1
  1
strokes_ogs.tif
176
     1
290
     0
176
     1
 40
1.0
176
     1
 40
1.0
176
     1
1001
ACAD
1000
AcRTDxfName
1000
VISUALSTYLE
1000
AcRTDxfName
1000
VISUALSTYLE
1000
AcRTDxfName
1000
VISUALSTYLE
1000
AcRTDxfName
1000
VISUALSTYLE
1000
AcRTDxfName
1000
VISUALSTYLE
1000
AcRTDxfName
1000
VISUALSTYLE
1000
AcRTDxfName
1000
VISUALSTYLE
1000
AcDbSavedByObjectVersion
1070
     0
  0
VISUALSTYLE
  5
FCE5
102
{ACAD_REACTORS
330
DDA4
102
}
330
DDA4
100
AcDbVisualStyle
  2
Shaded
 70
    27
177
     3
291
     0
 70
    58
 90
        2
176
     1
 90
        2
176
     1
 90
        1
176
     1
 90
        2
176
     1
 40
0.6
176
     1
 40
30.0
176
     1
 62
     7
420
 16777215
176
     1
 90
        0
176
     1
 90
        4
176
     1
 62
     7
176
     1
 62
   257
176
     1
 90
        1
176
     1
 90
        1
176
     1
 40
1.0
176
     1
 90
        8
176
     1
 62
   257
176
     1
 40
1.0
176
     1
 90
        1
176
     1
 90
        6
176
     1
 90
        2
176
     1
 62
     8
420
  7895160
176
     1
 90
        3
176
     1
 90
        0
176
     1
 90
        0
176
     1
290
     0
176
     1
 90
        5
176
     1
 40
0.0
176
     1
 90
        0
176
     1
290
     0
176
     1
290
     1
176
     1
290
     1
176
     1
290
     0
176
     1
290
     0
176
     1
290
     0
176
     1
290
     0
176
     1
290
     0
176
     1
290
     0
176
     1
 90
       50
176
     1
 40
0.0
176
     1
 40
1.0
176
     1
 90
        0
176
     1
 62
    18
420
        0
176
     1
 90
       50
176
     1
 90
        3
176
     1
 62
     5
420
      255
176
     1
290
     0
176
     1
 90
       50
176
     1
 90
       50
176
     1
 90
       50
176
     1
290
     0
176
     1
 90
       50
176
     1
 62
   256
176
     0
 40
1.0
176
     0
 90
        2
176
     1
  1
strokes_ogs.tif
176
     1
290
     0
176
     1
 40
1.0
176
     1
 40
1.0
176
     1
1001
ACAD
1000
AcDbSavedByObjectVersion
1070
     0
  0
VISUALSTYLE
  5
FCE4
102
{ACAD_REACTORS
330
DDA4
102
}
330
DDA4
100
AcDbVisualStyle
  2
Shaded with edges
 70
    26
177
     3
291
     0
 70
    58
 90
        2
176
     1
 90
        2
176
     1
 90
        1
176
     1
 90
        2
176
     1
 40
0.6
176
     1
 40
30.0
176
     1
 62
     7
420
 16777215
176
     1
 90
        1
176
     1
 90
        2
176
     1
 62
     7
176
     1
 62
   257
176
     1
 90
        2
176
     1
 90
        1
176
     1
 40
1.0
176
     1
 90
        8
176
     1
 62
   257
176
     1
 40
1.0
176
     1
 90
        1
176
     1
 90
        6
176
     1
 90
        2
176
     1
 62
     7
176
     1
 90
        3
176
     1
 90
        0
176
     1
 90
        0
176
     1
290
     0
176
     1
 90
        5
176
     1
 40
0.0
176
     1
 90
        0
176
     1
290
     0
176
     1
290
     1
176
     1
290
     1
176
     1
290
     0
176
     1
290
     0
176
     1
290
     0
176
     1
290
     0
176
     1
290
     0
176
     1
290
     0
176
     1
 90
       50
176
     1
 40
0.0
176
     1
 40
1.0
176
     1
 90
        0
176
     1
 62
    18
420
        0
176
     1
 90
       50
176
     1
 90
        3
176
     1
 62
     5
420
      255
176
     1
290
     0
176
     1
 90
       50
176
     1
 90
       50
176
     1
 90
       50
176
     1
290
     0
176
     1
 90
       50
176
     1
 62
   256
176
     0
 40
1.0
176
     0
 90
        2
176
     1
  1
strokes_ogs.tif
176
     1
290
     0
176
     1
 40
1.0
176
     1
 40
1.0
176
     1
1001
ACAD
1000
AcDbSavedByObjectVersion
1070
     0
  0
VISUALSTYLE
  5
FCE1
102
{ACAD_REACTORS
330
DDA4
102
}
330
DDA4
100
AcDbVisualStyle
  2
Shades of Gray
 70
    23
177
     3
291
     0
 70
    58
 90
        2
176
     1
 90
        2
176
     1
 90
        3
176
     1
 90
        0
176
     1
 40
0.6
176
     1
 40
30.0
176
     1
 62
     7
420
 16777215
176
     1
 90
        2
176
     1
 90
        2
176
     1
 62
     7
176
     1
 62
     7
176
     1
 90
        1
176
     1
 90
        1
176
     1
 40
40.0
176
     1
 90
        8
176
     1
 62
     7
176
     1
 40
1.0
176
     1
 90
        1
176
     1
 90
        6
176
     1
 90
        2
176
     1
 62
     7
176
     1
 90
        3
176
     1
 90
        0
176
     1
 90
        0
176
     1
290
     0
176
     1
 90
        1
176
     1
 40
0.0
176
     1
 90
        0
176
     1
290
     0
176
     1
290
     1
176
     1
290
     1
176
     1
290
     0
176
     1
290
     0
176
     1
290
     0
176
     1
290
     0
176
     1
290
     0
176
     1
290
     0
176
     1
 90
       50
176
     1
 40
0.0
176
     1
 40
1.0
176
     1
 90
        0
176
     1
 62
    18
420
        0
176
     1
 90
       50
176
     1
 90
        3
176
     1
 62
     5
420
      255
176
     1
290
     0
176
     1
 90
       50
176
     1
 90
       50
176
     1
 90
       50
176
     1
290
     0
176
     1
 90
       50
176
     1
 62
   256
176
     0
 40
1.0
176
     0
 90
        2
176
     1
  1
strokes_ogs.tif
176
     1
290
     0
176
     1
 40
1.0
176
     1
 40
1.0
176
     1
1001
ACAD
1000
AcDbSavedByObjectVersion
1070
     0
  0
VISUALSTYLE
  5
FCE2
102
{ACAD_REACTORS
330
DDA4
102
}
330
DDA4
100
AcDbVisualStyle
  2
Sketchy
 70
    24
177
     3
291
     0
 70
    58
 90
        1
176
     1
 90
        2
176
     1
 90
        2
176
     1
 90
        0
176
     1
 40
0.6
176
     1
 40
30.0
176
     1
 62
     7
420
 16777215
176
     1
 90
        2
176
     1
 90
        2
176
     1
 62
     7
176
     1
 62
     7
176
     1
 90
        1
176
     1
 90
        1
176
     1
 40
40.0
176
     1
 90
       11
176
     1
 62
     7
176
     1
 40
1.0
176
     1
 90
        1
176
     1
 90
        6
176
     1
 90
        2
176
     1
 62
     7
176
     1
 90
        6
176
     1
 90
        0
176
     1
 90
        0
176
     1
290
     0
176
     1
 90
        1
176
     1
 40
0.0
176
     1
 90
        0
176
     1
290
     0
176
     1
290
     1
176
     1
290
     1
176
     1
290
     0
176
     1
290
     0
176
     1
290
     0
176
     1
290
     0
176
     1
290
     0
176
     1
290
     0
176
     1
 90
       50
176
     1
 40
0.0
176
     1
 40
1.0
176
     1
 90
        0
176
     1
 62
    18
420
        0
176
     1
 90
       50
176
     1
 90
        3
176
     1
 62
     5
420
      255
176
     1
290
     0
176
     1
 90
       50
176
     1
 90
       50
176
     1
 90
       50
176
     1
290
     0
176
     1
 90
       50
176
     1
 62
   256
176
     0
 40
1.0
176
     0
 90
        2
176
     1
  1
strokes_ogs.tif
176
     1
290
     0
176
     1
 40
1.0
176
     1
 40
1.0
176
     1
1001
ACAD
1000
AcDbSavedByObjectVersion
1070
     0
  0
VISUALSTYLE
  5
DDB1
102
{ACAD_REACTORS
330
DDA4
102
}
330
DDA4
100
AcDbVisualStyle
  2
Thicken
 70
    13
177
     3
291
     1
 70
    58
 90
        2
176
     1
 90
        2
176
     1
 90
        0
176
     1
 90
        0
176
     1
 40
0.6
176
     1
 40
30.0
176
     1
 62
     7
176
     1
 90
        1
176
     1
 90
        4
176
     1
 62
     7
176
     1
 62
   257
176
     1
 90
        1
176
     1
 90
        1
176
     1
 40
1.0
176
     1
 90
       12
176
     1
 62
     7
176
     1
 40
1.0
176
     1
 90
        1
176
     1
 90
        6
176
     1
 90
        2
176
     1
 62
     7
176
     1
 90
        5
176
     1
 90
        0
176
     1
 90
        0
176
     1
290
     0
176
     1
 90
        1
176
     1
 40
0.0
176
     1
 90
        0
176
     1
290
     0
176
     1
290
     1
176
     1
290
     1
176
     1
290
     0
176
     1
290
     0
176
     1
290
     0
176
     1
290
     0
176
     1
290
     0
176
     1
290
     0
176
     1
 90
       50
176
     1
 40
0.0
176
     1
 40
1.0
176
     1
 90
        0
176
     1
 62
    18
420
        0
176
     1
 90
       50
176
     1
 90
        3
176
     1
 62
     5
420
      255
176
     1
290
     0
176
     1
 90
       50
176
     1
 90
       50
176
     1
 90
       50
176
     1
290
     0
176
     1
 90
       50
176
     1
 62
   256
176
     0
 40
1.0
176
     0
 90
        2
176
     1
  1
strokes_ogs.tif
176
     1
290
     0
176
     1
 40
1.0
176
     1
 40
1.0
176
     1
1001
ACAD
1000
AcRTDxfName
1000
VISUALSTYLE
1000
AcRTDxfName
1000
VISUALSTYLE
1000
AcRTDxfName
1000
VISUALSTYLE
1000
AcRTDxfName
1000
VISUALSTYLE
1000
AcRTDxfName
1000
VISUALSTYLE
1000
AcRTDxfName
1000
VISUALSTYLE
1000
AcRTDxfName
1000
VISUALSTYLE
1000
AcDbSavedByObjectVersion
1070
     0
  0
VISUALSTYLE
  5
FCDF
102
{ACAD_REACTORS
330
DDA4
102
}
330
DDA4
100
AcDbVisualStyle
  2
Wireframe
 70
     5
177
     3
291
     0
 70
    58
 90
        0
176
     1
 90
        2
176
     1
 90
        0
176
     1
 90
        0
176
     1
 40
0.6
176
     1
 40
30.0
176
     1
 62
     7
420
 16777215
176
     1
 90
        1
176
     1
 90
        4
176
     1
 62
     7
176
     1
 62
   257
176
     1
 90
        1
176
     1
 90
        1
176
     1
 40
1.0
176
     1
 90
        0
176
     1
 62
   257
176
     1
 40
1.0
176
     1
 90
        1
176
     1
 90
        6
176
     1
 90
        2
176
     1
 62
     7
176
     1
 90
        3
176
     1
 90
        0
176
     1
 90
        0
176
     1
290
     0
176
     1
 90
        1
176
     1
 40
0.0
176
     1
 90
        0
176
     1
290
     0
176
     1
290
     1
176
     1
290
     1
176
     1
290
     0
176
     1
290
     0
176
     1
290
     0
176
     1
290
     0
176
     1
290
     0
176
     1
290
     0
176
     1
 90
       50
176
     1
 40
0.0
176
     1
 40
1.0
176
     1
 90
        0
176
     1
 62
    18
420
        0
176
     1
 90
       50
176
     1
 90
        3
176
     1
 62
     5
420
      255
176
     1
290
     0
176
     1
 90
       50
176
     1
 90
       50
176
     1
 90
       50
176
     1
290
     0
176
     1
 90
       50
176
     1
 62
   256
176
     0
 40
1.0
176
     0
 90
        2
176
     1
  1
strokes_ogs.tif
176
     1
290
     0
176
     1
 40
1.0
176
     1
 40
1.0
176
     1
1001
ACAD
1000
AcDbSavedByObjectVersion
1070
     0
  0
VISUALSTYLE
  5
FCE3
102
{ACAD_REACTORS
330
DDA4
102
}
330
DDA4
100
AcDbVisualStyle
  2
X-Ray
 70
    25
177
     3
291
     0
 70
    58
 90
        2
176
     1
 90
        2
176
     1
 90
        1
176
     1
 90
        1
176
     1
 40
0.5
176
     1
 40
30.0
176
     1
 62
     7
420
 16777215
176
     1
 90
        1
176
     1
 90
        0
176
     1
 62
     7
176
     1
 62
   257
176
     1
 90
        1
176
     1
 90
        1
176
     1
 40
1.0
176
     1
 90
        8
176
     1
 62
     7
176
     1
 40
1.0
176
     1
 90
        1
176
     1
 90
        6
176
     1
 90
        2
176
     1
 62
     7
176
     1
 90
        3
176
     1
 90
        0
176
     1
 90
        0
176
     1
290
     0
176
     1
 90
       13
176
     1
 40
0.0
176
     1
 90
        0
176
     1
290
     0
176
     1
290
     1
176
     1
290
     1
176
     1
290
     0
176
     1
290
     0
176
     1
290
     0
176
     1
290
     0
176
     1
290
     0
176
     1
290
     0
176
     1
 90
       50
176
     1
 40
0.0
176
     1
 40
1.0
176
     1
 90
        0
176
     1
 62
    18
420
        0
176
     1
 90
       50
176
     1
 90
        3
176
     1
 62
     5
420
      255
176
     1
290
     0
176
     1
 90
       50
176
     1
 90
       50
176
     1
 90
       50
176
     1
290
     0
176
     1
 90
       50
176
     1
 62
   256
176
     0
 40
1.0
176
     0
 90
        2
176
     1
  1
strokes_ogs.tif
176
     1
290
     0
176
     1
 40
1.0
176
     1
 40
1.0
176
     1
1001
ACAD
1000
AcDbSavedByObjectVersion
1070
     0
  0
DICTIONARYVAR
  5
DE0B
102
{ACAD_REACTORS
330
5E
102
}
330
5E
100
DictionaryVariables
280
     0
  1
1:1
  0
DICTIONARYVAR
  5
DE0A
102
{ACAD_REACTORS
330
5E
102
}
330
5E
100
DictionaryVariables
280
     0
  1
STANDARD
  0
DICTIONARYVAR
  5
84
102
{ACAD_REACTORS
330
5E
102
}
330
5E
100
DictionaryVariables
280
     0
  1
STANDARD
  0
DICTIONARYVAR
  5
1157A
102
{ACAD_REACTORS
330
5E
102
}
330
5E
100
DictionaryVariables
280
     0
  1
Metric50
  0
DICTIONARYVAR
  5
1157B
102
{ACAD_REACTORS
330
5E
102
}
330
5E
100
DictionaryVariables
280
     0
  1
Metric50
  0
DICTIONARYVAR
  5
5F
102
{ACAD_REACTORS
330
5E
102
}
330
5E
100
DictionaryVariables
280
     0
  1
2
  0
DICTIONARYVAR
  5
63
102
{ACAD_REACTORS
330
5E
102
}
330
5E
100
DictionaryVariables
280
     0
  1
1
  0
DICTIONARYVAR
  5
DE0D
102
{ACAD_REACTORS
330
5E
102
}
330
5E
100
DictionaryVariables
280
     0
  1
0
  0
DICTIONARYVAR
  5
1157E
102
{ACAD_REACTORS
330
5E
102
}
330
5E
100
DictionaryVariables
280
     0
  1
1
  0
DICTIONARYVAR
  5
1157F
102
{ACAD_REACTORS
330
5E
102
}
330
5E
100
DictionaryVariables
280
     0
  1
15
  0
DICTIONARYVAR
  5
1157D
102
{ACAD_REACTORS
330
5E
102
}
330
5E
100
DictionaryVariables
280
     0
  1
0
  0
DICTIONARYVAR
  5
1157C
102
{ACAD_REACTORS
330
5E
102
}
330
5E
100
DictionaryVariables
280
     0
  1
0
  0
DICTIONARYVAR
  5
DD50
102
{ACAD_REACTORS
330
5E
102
}
330
5E
100
DictionaryVariables
280
     0
  1

  0
DICTIONARYVAR
  5
DE0C
102
{ACAD_REACTORS
330
5E
102
}
330
5E
100
DictionaryVariables
280
     0
  1
127
  0
DICTIONARY
  5
1185E
102
{ACAD_REACTORS
330
1185C
102
}
330
1185C
100
AcDbDictionary
281
     1
  0
DICTIONARY
  5
1185D
102
{ACAD_REACTORS
330
1185C
102
}
330
1185C
100
AcDbDictionary
281
     1
  3
2505087895408
350
11857
  3
2507130722304
350
11858
  3
2507130722320
350
11859
  3
2507130722336
350
1185A
  3
2507130722352
350
1185B
  0
DICTIONARY
  5
11861
330
FCEC
100
AcDbDictionary
280
     1
281
     1
  3
ACAD_XREC_ROUNDTRIP
360
11862
  0
DICTIONARY
  5
79B
330
78E
100
AcDbDictionary
280
     1
281
     1
  0
DICTIONARY
  5
DD95
330
DD94
100
AcDbDictionary
280
     1
281
     1
  3
BUMPTILE
360
DD97
  3
DIFFUSETILE
360
DD96
  3
OPACITYTILE
360
DD9A
  3
REFLECTIONTILE
360
DD99
  3
REFRACTIONTILE
360
DD9B
  3
SPECULARTILE
360
DD98
  0
DICTIONARY
  5
DD8D
330
DD8C
100
AcDbDictionary
280
     1
281
     1
  3
BUMPTILE
360
DD8F
  3
DIFFUSETILE
360
DD8E
  3
OPACITYTILE
360
DD92
  3
REFLECTIONTILE
360
DD91
  3
REFRACTIONTILE
360
DD93
  3
SPECULARTILE
360
DD90
  0
DICTIONARY
  5
DD9D
330
DD9C
100
AcDbDictionary
280
     1
281
     1
  3
BUMPTILE
360
DD9F
  3
DIFFUSETILE
360
DD9E
  3
OPACITYTILE
360
DDA2
  3
REFLECTIONTILE
360
DDA1
  3
REFRACTIONTILE
360
DDA3
  3
SPECULARTILE
360
DDA0
  0
DICTIONARY
  5
1185F
330
FCEA
100
AcDbDictionary
280
     1
281
     1
  3
ACAD_XREC_ROUNDTRIP
360
11860
  0
DICTIONARY
  5
DDF7
330
7F
100
AcDbDictionary
280
     1
281
     1
  3
ACAD_ROUNDTRIP_2008_TABLESTYLE_CELLSTYLEMAP
360
11855
  0
XRECORD
  5
11857
102
{ACAD_REACTORS
330
1185D
102
}
330
1185D
100
AcDbXrecord
280
     1
  1
AcDb_Thumbnail_Schema
102
{ATTRRECORD
341
11858
  2
AcDbDs::TreatedAsObjectData
280
     1
291
     1
102
ATTRRECORD}
102
{ATTRRECORD
341
11859
  2
AcDbDs::Legacy
280
     1
291
     1
102
ATTRRECORD}
  2
AcDbDs::ID
280
    10
 91
        8
102
{ATTRRECORD
341
1185A
  2
AcDs:Indexable
280
     1
291
     1
102
ATTRRECORD}
102
{ATTRRECORD
341
1185B
  2
AcDbDs::HandleAttribute
280
     7
282
     1
102
ATTRRECORD}
  2
Thumbnail_Data
280
    15
 91
        0
  0
XRECORD
  5
11858
102
{ACAD_REACTORS
330
1185D
102
}
330
1185D
100
AcDbXrecord
280
     1
  1
AcDbDs::TreatedAsObjectDataSchema
  2
AcDbDs::TreatedAsObjectData
280
     1
 91
        0
  0
XRECORD
  5
11859
102
{ACAD_REACTORS
330
1185D
102
}
330
1185D
100
AcDbXrecord
280
     1
  1
AcDbDs::LegacySchema
  2
AcDbDs::Legacy
280
     1
 91
        0
  0
XRECORD
  5
1185A
102
{ACAD_REACTORS
330
1185D
102
}
330
1185D
100
AcDbXrecord
280
     1
  1
AcDbDs::IndexedPropertySchema
  2
AcDs:Indexable
280
     1
 91
        0
  0
XRECORD
  5
1185B
102
{ACAD_REACTORS
330
1185D
102
}
330
1185D
100
AcDbXrecord
280
     1
  1
AcDbDs::HandleAttributeSchema
  2
AcDbDs::HandleAttribute
280
     7
 91
        1
284
     1
  0
XRECORD
  5
11862
102
{ACAD_REACTORS
330
11861
102
}
330
11861
100
AcDbXrecord
280
     1
102
DISPLAYNAME
  1
Metric50
102
FLAGS
 90
        0
  0
XRECORD
  5
DD97
102
{ACAD_REACTORS
330
DD95
102
}
330
DD95
100
AcDbXrecord
280
     1
270
     1
271
     1
  0
XRECORD
  5
DD96
102
{ACAD_REACTORS
330
DD95
102
}
330
DD95
100
AcDbXrecord
280
     1
270
     1
271
     1
  0
XRECORD
  5
DD9A
102
{ACAD_REACTORS
330
DD95
102
}
330
DD95
100
AcDbXrecord
280
     1
270
     1
271
     1
  0
XRECORD
  5
DD99
102
{ACAD_REACTORS
330
DD95
102
}
330
DD95
100
AcDbXrecord
280
     1
270
     1
271
     1
  0
XRECORD
  5
DD9B
102
{ACAD_REACTORS
330
DD95
102
}
330
DD95
100
AcDbXrecord
280
     1
270
     1
271
     1
  0
XRECORD
  5
DD98
102
{ACAD_REACTORS
330
DD95
102
}
330
DD95
100
AcDbXrecord
280
     1
270
     1
271
     1
  0
XRECORD
  5
DD8F
102
{ACAD_REACTORS
330
DD8D
102
}
330
DD8D
100
AcDbXrecord
280
     1
270
     1
271
     1
  0
XRECORD
  5
DD8E
102
{ACAD_REACTORS
330
DD8D
102
}
330
DD8D
100
AcDbXrecord
280
     1
270
     1
271
     1
  0
XRECORD
  5
DD92
102
{ACAD_REACTORS
330
DD8D
102
}
330
DD8D
100
AcDbXrecord
280
     1
270
     1
271
     1
  0
XRECORD
  5
DD91
102
{ACAD_REACTORS
330
DD8D
102
}
330
DD8D
100
AcDbXrecord
280
     1
270
     1
271
     1
  0
XRECORD
  5
DD93
102
{ACAD_REACTORS
330
DD8D
102
}
330
DD8D
100
AcDbXrecord
280
     1
270
     1
271
     1
  0
XRECORD
  5
DD90
102
{ACAD_REACTORS
330
DD8D
102
}
330
DD8D
100
AcDbXrecord
280
     1
270
     1
271
     1
  0
XRECORD
  5
DD9F
102
{ACAD_REACTORS
330
DD9D
102
}
330
DD9D
100
AcDbXrecord
280
     1
270
     1
271
     1
  0
XRECORD
  5
DD9E
102
{ACAD_REACTORS
330
DD9D
102
}
330
DD9D
100
AcDbXrecord
280
     1
270
     1
271
     1
  0
XRECORD
  5
DDA2
102
{ACAD_REACTORS
330
DD9D
102
}
330
DD9D
100
AcDbXrecord
280
     1
270
     1
271
     1
  0
XRECORD
  5
DDA1
102
{ACAD_REACTORS
330
DD9D
102
}
330
DD9D
100
AcDbXrecord
280
     1
270
     1
271
     1
  0
XRECORD
  5
DDA3
102
{ACAD_REACTORS
330
DD9D
102
}
330
DD9D
100
AcDbXrecord
280
     1
270
     1
271
     1
  0
XRECORD
  5
DDA0
102
{ACAD_REACTORS
330
DD9D
102
}
330
DD9D
100
AcDbXrecord
280
     1
270
     1
271
     1
  0
XRECORD
  5
11860
102
{ACAD_REACTORS
330
1185F
102
}
330
1185F
100
AcDbXrecord
280
     1
102
DISPLAYNAME
  1
Metric50
102
FLAGS
 90
        0
  0
CELLSTYLEMAP
  5
11855
102
{ACAD_REACTORS
330
DDF7
102
}
330
DDF7
100
AcDbCellStyleMap
 90
        3
300
CELLSTYLE
  1
TABLEFORMAT_BEGIN
 90
        5
170
     1
 91
        0
 92
    32768
 62
   257
 93
        1
300
CONTENTFORMAT
  1
CONTENTFORMAT_BEGIN
 90
        0
 91
        0
 92
        4
 93
        0
300

 40
0.0
140
1.0
 94
        5
 62
     0
340
11
144
6.0
309
CONTENTFORMAT_END
171
     1
301
MARGIN
  1
CELLMARGIN_BEGIN
 40
1.5
 40
1.5
 40
1.5
 40
1.5
 40
0.18
 40
0.18
309
CELLMARGIN_END
 94
        6
 95
        1
302
GRIDFORMAT
  1
GRIDFORMAT_BEGIN
 90
        0
 91
        1
 62
     0
 92
       -2
340
0
 93
        0
 40
0.045
309
GRIDFORMAT_END
 95
        2
302
GRIDFORMAT
  1
GRIDFORMAT_BEGIN
 90
        0
 91
        1
 62
     0
 92
       -2
340
0
 93
        0
 40
0.045
309
GRIDFORMAT_END
 95
        4
302
GRIDFORMAT
  1
GRIDFORMAT_BEGIN
 90
        0
 91
        1
 62
     0
 92
       -2
340
0
 93
        0
 40
0.045
309
GRIDFORMAT_END
 95
        8
302
GRIDFORMAT
  1
GRIDFORMAT_BEGIN
 90
        0
 91
        1
 62
     0
 92
       -2
340
0
 93
        0
 40
0.045
309
GRIDFORMAT_END
 95
       16
302
GRIDFORMAT
  1
GRIDFORMAT_BEGIN
 90
        0
 91
        1
 62
     0
 92
       -2
340
0
 93
        0
 40
0.045
309
GRIDFORMAT_END
 95
       32
302
GRIDFORMAT
  1
GRIDFORMAT_BEGIN
 90
        0
 91
        1
 62
     0
 92
       -2
340
0
 93
        0
 40
0.045
309
GRIDFORMAT_END
309
TABLEFORMAT_END
  1
CELLSTYLE_BEGIN
 90
        1
 91
        1
300
_TITLE
309
CELLSTYLE_END
300
CELLSTYLE
  1
TABLEFORMAT_BEGIN
 90
        5
170
     1
 91
        0
 92
        0
 62
   257
 93
        1
300
CONTENTFORMAT
  1
CONTENTFORMAT_BEGIN
 90
        0
 91
        0
 92
        4
 93
        0
300

 40
0.0
140
1.0
 94
        5
 62
     0
340
11
144
4.5
309
CONTENTFORMAT_END
171
     1
301
MARGIN
  1
CELLMARGIN_BEGIN
 40
1.5
 40
1.5
 40
1.5
 40
1.5
 40
0.18
 40
0.18
309
CELLMARGIN_END
 94
        6
 95
        1
302
GRIDFORMAT
  1
GRIDFORMAT_BEGIN
 90
        0
 91
        1
 62
     0
 92
       -2
340
0
 93
        0
 40
0.045
309
GRIDFORMAT_END
 95
        2
302
GRIDFORMAT
  1
GRIDFORMAT_BEGIN
 90
        0
 91
        1
 62
     0
 92
       -2
340
0
 93
        0
 40
0.045
309
GRIDFORMAT_END
 95
        4
302
GRIDFORMAT
  1
GRIDFORMAT_BEGIN
 90
        0
 91
        1
 62
     0
 92
       -2
340
0
 93
        0
 40
0.045
309
GRIDFORMAT_END
 95
        8
302
GRIDFORMAT
  1
GRIDFORMAT_BEGIN
 90
        0
 91
        1
 62
     0
 92
       -2
340
0
 93
        0
 40
0.045
309
GRIDFORMAT_END
 95
       16
302
GRIDFORMAT
  1
GRIDFORMAT_BEGIN
 90
        0
 91
        1
 62
     0
 92
       -2
340
0
 93
        0
 40
0.045
309
GRIDFORMAT_END
 95
       32
302
GRIDFORMAT
  1
GRIDFORMAT_BEGIN
 90
        0
 91
        1
 62
     0
 92
       -2
340
0
 93
        0
 40
0.045
309
GRIDFORMAT_END
309
TABLEFORMAT_END
  1
CELLSTYLE_BEGIN
 90
        2
 91
        1
300
_HEADER
309
CELLSTYLE_END
300
CELLSTYLE
  1
TABLEFORMAT_BEGIN
 90
        5
170
     1
 91
        0
 92
        0
 62
   257
 93
        1
300
CONTENTFORMAT
  1
CONTENTFORMAT_BEGIN
 90
        0
 91
        0
 92
        4
 93
        0
300

 40
0.0
140
1.0
 94
        2
 62
     0
340
11
144
4.5
309
CONTENTFORMAT_END
171
     1
301
MARGIN
  1
CELLMARGIN_BEGIN
 40
1.5
 40
1.5
 40
1.5
 40
1.5
 40
0.18
 40
0.18
309
CELLMARGIN_END
 94
        6
 95
        1
302
GRIDFORMAT
  1
GRIDFORMAT_BEGIN
 90
        0
 91
        1
 62
     0
 92
       -2
340
0
 93
        0
 40
0.045
309
GRIDFORMAT_END
 95
        2
302
GRIDFORMAT
  1
GRIDFORMAT_BEGIN
 90
        0
 91
        1
 62
     0
 92
       -2
340
0
 93
        0
 40
0.045
309
GRIDFORMAT_END
 95
        4
302
GRIDFORMAT
  1
GRIDFORMAT_BEGIN
 90
        0
 91
        1
 62
     0
 92
       -2
340
0
 93
        0
 40
0.045
309
GRIDFORMAT_END
 95
        8
302
GRIDFORMAT
  1
GRIDFORMAT_BEGIN
 90
        0
 91
        1
 62
     0
 92
       -2
340
0
 93
        0
 40
0.045
309
GRIDFORMAT_END
 95
       16
302
GRIDFORMAT
  1
GRIDFORMAT_BEGIN
 90
        0
 91
        1
 62
     0
 92
       -2
340
0
 93
        0
 40
0.045
309
GRIDFORMAT_END
 95
       32
302
GRIDFORMAT
  1
GRIDFORMAT_BEGIN
 90
        0
 91
        1
 62
     0
 92
       -2
340
0
 93
        0
 40
0.045
309
GRIDFORMAT_END
309
TABLEFORMAT_END
  1
CELLSTYLE_BEGIN
 90
        3
 91
        2
300
_DATA
309
CELLSTYLE_END
  0
ENDSEC
  0
SECTION
  2
ACDSDATA
 70
     2
 71
     8
  0
ACDSSCHEMA
 90
        0
  1
AcDb_Thumbnail_Schema
  2
AcDbDs::ID
280
    10
 91
        8
  2
Thumbnail_Data
280
    15
 91
        0
101
ACDSRECORD
 95
        0
 90
        1
  2
AcDbDs::TreatedAsObjectData
280
     1
291
     1
101
ACDSRECORD
 95
        0
 90
        2
  2
AcDbDs::Legacy
280
     1
291
     1
101
ACDSRECORD
  1
AcDbDs::ID
 90
        3
  2
AcDs:Indexable
280
     1
291
     1
101
ACDSRECORD
  1
AcDbDs::ID
 90
        4
  2
AcDbDs::HandleAttribute
280
     7
282
     1
  0
ACDSSCHEMA
 90
        1
  1
AcDbDs::TreatedAsObjectDataSchema
  2
AcDbDs::TreatedAsObjectData
280
     1
 91
        0
  0
ACDSSCHEMA
 90
        2
  1
AcDbDs::LegacySchema
  2
AcDbDs::Legacy
280
     1
 91
        0
  0
ACDSSCHEMA
 90
        3
  1
AcDbDs::IndexedPropertySchema
  2
AcDs:Indexable
280
     1
 91
        0
  0
ACDSSCHEMA
 90
        4
  1
AcDbDs::HandleAttributeSchema
  2
AcDbDs::HandleAttribute
280
     7
 91
        1
284
     1
  0
ACDSRECORD
 90
        0
  2
AcDbDs::ID
280
    10
320
22
  2
Thumbnail_Data
280
    15
 94
     2514
310
89504E470D0A1A0A0000000D49484452000001000000008108030000001837949D00000300504C5445000000FFFFFF0000000000000000000000000000000000000000000000000000000000330000660000990000CC0000FF0033000033330033660033990033CC0033FF0066000066330066660066990066CC0066FF0099
310
000099330099660099990099CC0099FF00CC0000CC3300CC6600CC9900CCCC00CCFF00FF0000FF3300FF6600FF9900FFCC00FFFF3300003300333300663300993300CC3300FF3333003333333333663333993333CC3333FF3366003366333366663366993366CC3366FF3399003399333399663399993399CC3399FF33CC00
310
33CC3333CC6633CC9933CCCC33CCFF33FF0033FF3333FF6633FF9933FFCC33FFFF6600006600336600666600996600CC6600FF6633006633336633666633996633CC6633FF6666006666336666666666996666CC6666FF6699006699336699666699996699CC6699FF66CC0066CC3366CC6666CC9966CCCC66CCFF66FF0066
310
FF3366FF6666FF9966FFCC66FFFF9900009900339900669900999900CC9900FF9933009933339933669933999933CC9933FF9966009966339966669966999966CC9966FF9999009999339999669999999999CC9999FF99CC0099CC3399CC6699CC9999CCCC99CCFF99FF0099FF3399FF6699FF9999FFCC99FFFFCC0000CC00
310
33CC0066CC0099CC00CCCC00FFCC3300CC3333CC3366CC3399CC33CCCC33FFCC6600CC6633CC6666CC6699CC66CCCC66FFCC9900CC9933CC9966CC9999CC99CCCC99FFCCCC00CCCC33CCCC66CCCC99CCCCCCCCCCFFCCFF00CCFF33CCFF66CCFF99CCFFCCCCFFFFFF0000FF0033FF0066FF0099FF00CCFF00FFFF3300FF3333
310
FF3366FF3399FF33CCFF33FFFF6600FF6633FF6666FF6699FF66CCFF66FFFF9900FF9933FF9966FF9999FF99CCFF99FFFFCC00FFCC33FFCC66FFCC99FFCCCCFFCCFFFFFF00FFFF33FFFF66FFFF99FFFFCCFFFFFF0000000D0D0D1A1A1A2828283535354343435050505D5D5D6B6B6B787878868686939393A1A1A1AEAEAEBB
310
BBBBC9C9C9D6D6D6E4E4E4F1F1F1FFFFFF0000000000000000000000000000000000000000000000000000000000003AE5ACE9000006344944415478DAED9D4B76EB200C40B59C4CD8FF8C89B7A16D30AFCDC7FC2402896B2086775E93380A0DD7B22424700156AB686ACA76258029CFDA0270695FF3E9FFD500A63BFD0BC0
310
02B0002C00C375874F0680BAD907FC0D004DE3C0B8B57C706000F7B471018428EA15A1556E0200B5E7A9FE8C8672EB1218DC08265F148BBA4E1EF5834428F438E225108E361A0373559047A9B1EA03D8685F6E068037B699E2805C033023F656B43E7EA4190D0E009E00A0660095A2D83EBB58009E02006101E803C0591EA9
310
943AFE9B1FBA6196A18D8EC8E05949F4EC75174BAD9C79ADC5C5FE8FA882FCBF06E8AFE3BE6134AE4D08193621140340EEA282130D00A8F45CEBE7FB67050AFDB0B75E00324945551080AA5395454D6889EED713007651D418F4D32E00A424C7958C962FD3E9F1D2A2A17797920670E8CC4EE01090EA7E1B406B801D56E975
310
A2048C6818DEA41AE08EEAE3027A6800FE3B000866478A4CBE28900E80EC07802844EF66397A2D0A0012EB25844A0D3DDAFE31072082D60780F4F63C683B80D80B24EF47A29917704F4F4FC70138A47D337662E04B0083F97DD32550B201E02E01806E71402500665E5F0200BC1184FE46B0D90D32E367DD6098401DD20DB2
310
1AA040C591DFF1920ED995B66391A80889C4F9134603BA0642F4B2912DB579D4F4C0D84E42945DEE4486C2A25B285C980C6D49F07FBC94F46468CB35809A0B6CEC6448B9C910F6990E776D76CC929C163F08003C1C0061221F05C01987470228554E960D588BA41680056001181C00FE0C00BFF8AF65A5548D34E1E7A20922
310
FF6BEF04F0C142864A69AC06809D35A01140B53841A0F2A3B76AC08741FC975602270480D036745EF04556A65FB72744E862309110E16AC54C4224ED391FAA7E3B4A9DEFED4E002E2526E2D324F588B23C97107972AF2C1A08E6550F03C071EA0840A7FBEC5B2E4B9F9E6F7B663D801398500551D0A5DFA3D7A356422BBB11
310
0B12C23D340095FE0A32F81E545A5CBABCE6B128C21DD71FA2EB02B8BF8BF2101087580EE0D51BC0591B741AAAA00020FC7420582C8C985EC99CB71D6B4F0067694CEAAB195C6E9203109C43193C2B0138E48404AAF47B0E750000226F447558304D25068E111D1680E400A4D5E112800A510E802E4C78002FE86003CC8903
310
4E8FA9D7D15B85E2A8EF9801808906DC0AE02C8D41EC06AF3582C274AFB82B600000C64FB5B84159EB06953402841B7C9171C0AB4B2024720D60ABC3180B226451F3B946EEEC55001B08C1088150529565E2DB3DA8C9E6B0521E9555221416B1A0E043613D5B08E2E13E9321F57E3284C4C4C5CC66B2C9909BEDBFB91B889B
310
0B6851EC3217E0E7ABD40A68727A8BEC62E964AA5B9CF8066FFF0E00C0F7BF26EA27CB1C8D0900AA01B4A55C701E0018EF0FFA17003820003AA349EE2BBC24EB38188068C84982F74B00AC3A8D04A069476403D2626F3DB7CFE77B8791BA1C1251ACE8B182692F00D5DB41E3F3149986B73DF28E245F26B4B6CF0FE606D913
310
38B91718B72D000BC002B0000CD3DDB72E6D01F82D00B86CC002F03800D59A8FD30320CBE0B0F99B6E958527066053F4661F6FB4934D6FA4736B9F3048F3C7BBC82E3690F703D0E7D18C5D46DB99F7579BDF10AD37489BE3769FA02D0FFD0400BB1BDE8C9CD000956AC0A9FDC4E6C83901482001F80B25A800DB47F391D901
310
B85B1A401900700020BD47C06400102A01400900BECB7F07D1A4B91D81B51BFD6EA6966900E505440C40D05EA0A80148661F4B31F6DD1A60D74C110076B32FB7682194750F320350F6026EC086865309C0542DC6B601F0990D40684D20F7F202DF0128DE352D3EE106963B06DD35A0D20DC60064831B2C5CEEC1CD5910BA03
310
200221E103A17021541408B5010084CC67E028A1B01992343738B121EF96AC84B246D0AC7F93E6693114AEB20123448210CE054E0DC0480350106E5096BDC00C00CC6C30B89D88F495CF2D7799FA8907801F6AC0389740F825E2C97D762B5D0FC04B2360C906601009D6EDD2EB0A0052005BE8E25300612C5D9735AAB9E778
310
4F00C99EA774455002C06E24C2E6CD7723A6C4FC90D09F603C87783EA6C7E1FA74792F00B985E26CD715AB20E6C80A670B5D6E298D0C0520BBF631D5995F065074DFF800002D4B867E1BC0577F3466721B80F7D78707F4026404F804007DDA02B0002C00EBEF0E5F0B60BEB6005CD9D7D3FFFAFC0FB73FC73F64804469C118
310
0000000049454E44AE4260829BC27DED4F36F500A0D2767F375ED8850624C5138C8F7652059282BFCD0650657F2580EF37777D03B8310D0003C00030005C94CDDBFFFAFC73D30070451E8F4E6AA44AFA03E1DFFC56A36DB1050000000049454E44AE426082
  0
ACDSRECORD
 90
        0
  2
AcDbDs::ID
280
    10
320
78E
  2
Thumbnail_Data
280
    15
 94
     3159
310
89504E470D0A1A0A0000000D4948445200000100000000B408030000004C80028300000300504C54450D0D0DFFFFFF0D0D0D0000000000000000000000000000000000000000000000000000330000660000990000CC0000FF0033000033330033660033990033CC0033FF0066000066330066660066990066CC0066FF0099
310
000099330099660099990099CC0099FF00CC0000CC3300CC6600CC9900CCCC00CCFF00FF0000FF3300FF6600FF9900FFCC00FFFF3300003300333300663300993300CC3300FF3333003333333333663333993333CC3333FF3366003366333366663366993366CC3366FF3399003399333399663399993399CC3399FF33CC00
310
33CC3333CC6633CC9933CCCC33CCFF33FF0033FF3333FF6633FF9933FFCC33FFFF6600006600336600666600996600CC6600FF6633006633336633666633996633CC6633FF6666006666336666666666996666CC6666FF6699006699336699666699996699CC6699FF66CC0066CC3366CC6666CC9966CCCC66CCFF66FF0066
310
FF3366FF6666FF9966FFCC66FFFF9900009900339900669900999900CC9900FF9933009933339933669933999933CC9933FF9966009966339966669966999966CC9966FF9999009999339999669999999999CC9999FF99CC0099CC3399CC6699CC9999CCCC99CCFF99FF0099FF3399FF6699FF9999FFCC99FFFFCC0000CC00
310
33CC0066CC0099CC00CCCC00FFCC3300CC3333CC3366CC3399CC33CCCC33FFCC6600CC6633CC6666CC6699CC66CCCC66FFCC9900CC9933CC9966CC9999CC99CCCC99FFCCCC00CCCC33CCCC66CCCC99CCCCCCCCCCFFCCFF00CCFF33CCFF66CCFF99CCFFCCCCFFFFFF0000FF0033FF0066FF0099FF00CCFF00FFFF3300FF3333
310
FF3366FF3399FF33CCFF33FFFF6600FF6633FF6666FF6699FF66CCFF66FFFF9900FF9933FF9966FF9999FF99CCFF99FFFFCC00FFCC33FFCC66FFCC99FFCCCCFFCCFFFFFF00FFFF33FFFF66FFFF99FFFFCCFFFFFF0000000D0D0D1A1A1A2828283535354343435050505D5D5D6B6B6B787878868686939393A1A1A1AEAEAEBB
310
BBBBC9C9C9D6D6D6E4E4E4F1F1F1FFFFFF000000000000000000000000000000000000000000000000000000000000D3F30D92000009124944415478DAED9D49B6E32A0C40B59C4CD8FF8C89B7A105D45F00F3EF8E5EC2B4B1F30CA72A7976909B6B2104080CFFDE9DFE837FF0E234011C00D44B9305F0CEC73F014C001100
310
7C51A201BCE7F14F0013C00430014C00DF01B05739C7FFE303DF0580AC827F0AC0137D98EF027860F19D006E0350AB81AB54B5F28672CF028045B6B0E619E3ED00A611F49E61701138B2947B67C4BB8B0079FFDF0000234E990F2050B944814C2BE785EA7A3F276D007E1F00A62E27E71EECC3E48C1D9600C02F02786E8756
310
991BDE560B64D558094BE55D39B2F635D3CCE52B408AD83000C80100E24AC60248EA4C7F0035FE6A95709D3B05EF03803001BC1A00C204F06A00083D01C8FD0FF7D3FE4A8FAC2A8C72069BDB76423896D49FD9006423005B852AB9C713B89F262D428828F280DA170AAEDB8BA2F2C5C2FEE9B9AA5DEF155BC2FD28C2864254
310
01389F8762346015937251924A6A916B4EC56BC07A505E78DDED0EDAFBA7D7B743F936E7656D7F0B10EB3F675739003000E8B4FF40F23D77AA44E08116866BE1C0813600800520B73F374538C10D02700617115A7CEE4B97522E7247045A1BAA7C0600850701B3DD02404A99BE0DE2F00A5456D409AD0181B0D390F02E8805
310
7094A303C059A64669C0D700B82A90A301FB1F9D34E076006E8B33D706B800E4CF034012002600800BA0B616408C8D15750FC29E07ECA9451E0042361236DEC89AD05C463C5A608CE46EFFDDD40440BAFE0B5567AF2788766EF72033922264236117C079192900C711B6A4BF0565C72F01203ED00638D743DCFFB822500D40
310
F702627F004078C28F338297BDB89900F68B31EEE0B7ABC11647A81B00F7388F7284769B4C03587FC00C5F1838E198C01964F4204768FB8569D16E3FE155D94909B3DE2062A623D4DE186A6C0E634B73181A9BC3D0A3397C6E2DEAAA4384F465A29C74870830C27C87885AF8B10EFDE4F7B4F7AD9CAED0C01E21AA3D2CA89C
310
0480856A4B0BA62F497F2E570341F109B1A94FF0D712C665EEA50060027837007C3900B72B7502781780AC889A6904E78C91096002980026800960029800F201E86EC9C6791BB5133F12DE5DB83327B0BA1C40A7992BB507407FC2CA0D00A03F006CD200CC0580BD000C72D4BB4AE2381B80702B00EC9FEF0E006315E093CE
310
F76902C00FF05EEF66277C5D0B6309B94F3A672900BF9B1DD9A8B6DC4851EA201791A2B6931F553A50E5B8439D350AA9D8533900FD3C04C9559EC32FCCE8D61EB0EADB617B10992D1C5D98B802C03EAE6200462185DC37C2B1C1F31E182D8E0048EFF07B044B86B0953C463C6562B0F6E35FBB6C2D02FA61E900ED239B0A2F
310
965DAA4DF9BAA4820A5925857D497DE22D7E8A0F58F001A8302CA05A03E4AA5112E4FAAD3F7D8345C7073839F7E7A7B6E162A70CEC192E0324B6A8777B7A7148B11AF0B14EFB7EDD8AFCB9BC086C194CB059A4016C84489833CA941B21729E781FE44DC65F050020A1026500E451688128590900D7132632019C273EC31DAA
310
01D41B416D7FC49D00441820716D03DA006008006E0520EE02B0D6D84A24121B292A32121B299A145297B5C05E81CAA0BAF894B505A8485141BBADC32345FD93D76A402180BF57044A011046109E6D043F300C8076C26EF6032E4AD7C72FBE01800F5403709CB0264F50D57A82D27744D58523487B829F4F435B408160DB02
310
8960CFC0A3273480178E25D56E0873DA020640A7B680F2CC5F7E6B10CF0045D3A6F38CFAF673B2352802496D0AF35B8341EBABA13F80AAFFAEFA03E4DAF891C0F4CBEE33418E5C6C7F80A02479E4717F800CBA05DA7A8454798F90ED9A41AE7B88E9117223A3138D65168091C5160079DD918A9F008E914F151E172FFA0469
310
49CCEAF48BB38E01905802E0625118CC593FA0118097F73E00500FA0B56F1DB911A5B7006083E62680B700E83034D603800D2D780F80D4F8759CE38F03304B43F2393A0340B85886713080C685016B9943FEC9BE6103B2F4F0AB00FC8549BF0C00713480580B4D6EEC5604307751D5C2354553C2F72FAC9C0010D87AF6A229
310
93E7AD21C90BDFBDAAEC5C59FA6FA6096002980026800960029800C601C05480FF9B00E00460D4E0550086F9F0D3084E0013C0AF00407C32D0F100AADF0E853F024032DF3A2D57772519F9670308D71753EEB7C9B5FD49007083298CA095FF6A7559AD0176ED5AF0D66E0577F1DA2DCC6571A361B670157FB95C05F11A6B27
310
61F8010052AE377E84AB1D1F7A194B305B8BBF32AE97C115D883D9FC05747F4203CC227DE74D79CF775F67CF2F38E142FC664B47F32976C5E88702888CA00740A8C58B08C363A140CF06800740B26B85FE2400504B7CBEBF0520AC0EA11400F800E06F03803100F4F0677A5013E915587F17807D0D27DDEA0EBBA228A7BC12
310
805DC0DB4CE19176328FEF0784B2811FA0EAFD0003C07F112CC41CA2F7733402B0EFF94802D8273E2DC46428C753A000C86A4708ADA0532A8CEA1F1A8041086A0B807145A04103BCDD5C21E9570446D9006CB101F931327FA316D8EFC7983967B101BB9C4CF06ADBDB1C21E8EC08114FB628B0FCEF01C072B339128008DA02
310
E16428A23154EE0A3B4A8F9875D5B735874D729AC3DB0438A739BC6DE63E4CDAD841D2100ED080C00F90858E10D03D4A99D560736055872E311FC0D6A5E5E452B8C493A4BC50C07E5D62E81503E45FBDD0B35314894E51F41ED1C21759EB9C39F2686EA4DC11AA58E8AD1D40E4071000B002407B63E8CB00800140C4679300
310
A01C00D91C760E8F23ABC16C00905904D81D053E405DB8691F00882400E26904532800C35E8B120010157F0894CEBEE60BF5A9ED573F0DA087BF9C45C0FC2B8A72A0E3B6176900449D000400F0DF51A5BFA00780F8BAC33942D45FDEE3C1F040580E9FAF3B2EA627740090686A5E99E7B638F047D8808C666AF6EEF2A323D0
310
53D202254B9DF06B0092B3287A00B06DE14701C0C81A00FD9ACC0AE737AFA85DB70F8701C8F7D12A5718A655229C9719D5195E3361A806044FDDBBCE3E833A3C711A40AC19838B40E1FE02034FF76E10A198C8749EC3970124E7D25510FA916AB01A80F6E9DCA51F74A1D2F381B3BD855B6B813A47E7305767630A7D87D12D
310
02D6B0B9033FEED6CD001A6C0060D8E7E535B02D00B63B1030E35C0F8D14CD3582B659874601FE04805CFDF26A358C9AD348BB4BD06368EC19008AFD45A32117005E944800EF4A13C0046000BC341900EF4D13C006E0DD6902F81FB16AA3B15646D5EE0000000049454E44AE426082
  0
ENDSEC
  0
EOF
