  0
SECTION
  2
HEADER
  9
$ACADVER
  1
AC1027
  9
$ACADMAINTVER
 70
   125
  9
$DWGCODEPAGE
  3
ANSI_932
  9
$LASTSAVEDBY
  1
D-mishima
  9
$REQUIREDVERSIONS
160
                 0
  9
$INSBASE
 10
0.0
 20
0.0
 30
0.0
  9
$EXTMIN
 10
0.0
 20
0.0
 30
0.0
  9
$EXTMAX
 10
4200.0
 20
2970.0
 30
0.0
  9
$LIMMIN
 10
0.0
 20
0.0
  9
$LIMMAX
 10
4200.0
 20
2970.0
  9
$ORTHOMODE
 70
     1
  9
$REGENMODE
 70
     1
  9
$FILLMODE
 70
     1
  9
$QTEXTMODE
 70
     0
  9
$MIRRTEXT
 70
     0
  9
$LTSCALE
 40
0.1
  9
$ATTMODE
 70
     1
  9
$TEXTSIZE
 40
25.0
  9
$TRACEWID
 40
1.0
  9
$TEXTSTYLE
  7
Standard
  9
$CLAYER
  8
寸法線
  9
$CELTYPE
  6
ByLayer
  9
$CECOLOR
 62
   256
  9
$CELTSCALE
 40
1.0
  9
$DISPSILH
 70
     0
  9
$DIMSCALE
 40
10.0
  9
$DIMASZ
 40
2.0
  9
$DIMEXO
 40
0.875
  9
$DIMDLI
 40
10.0
  9
$DIMRND
 40
0.0
  9
$DIMDLE
 40
0.0
  9
$DIMEXE
 40
1.0
  9
$DIMTP
 40
0.0
  9
$DIMTM
 40
0.0
  9
$DIMTXT
 40
2.5
  9
$DIMCEN
 40
0.0
  9
$DIMTSZ
 40
0.0
  9
$DIMTOL
 70
     0
  9
$DIMLIM
 70
     0
  9
$DIMTIH
 70
     0
  9
$DIMTOH
 70
     0
  9
$DIMSE1
 70
     0
  9
$DIMSE2
 70
     0
  9
$DIMTAD
 70
     1
  9
$DIMZIN
 70
     8
  9
$DIMBLK
  1

  9
$DIMASO
 70
     1
  9
$DIMSHO
 70
     1
  9
$DIMPOST
  1

  9
$DIMAPOST
  1

  9
$DIMALT
 70
     0
  9
$DIMALTD
 70
     2
  9
$DIMALTF
 40
25.4
  9
$DIMLFAC
 40
1.0
  9
$DIMTOFL
 70
     1
  9
$DIMTVP
 40
0.0
  9
$DIMTIX
 70
     0
  9
$DIMSOXD
 70
     0
  9
$DIMSAH
 70
     1
  9
$DIMBLK1
  1
OPEN
  9
$DIMBLK2
  1
OPEN
  9
$DIMSTYLE
  2
STANDARD
  9
$DIMCLRD
 70
     0
  9
$DIMCLRE
 70
     0
  9
$DIMCLRT
 70
     0
  9
$DIMTFAC
 40
1.0
  9
$DIMGAP
 40
0.875
  9
$DIMJUST
 70
     0
  9
$DIMSD1
 70
     0
  9
$DIMSD2
 70
     0
  9
$DIMTOLJ
 70
     1
  9
$DIMTZIN
 70
     0
  9
$DIMALTZ
 70
     0
  9
$DIMALTTZ
 70
     0
  9
$DIMUPT
 70
     0
  9
$DIMDEC
 70
     3
  9
$DIMTDEC
 70
     3
  9
$DIMALTU
 70
     2
  9
$DIMALTTD
 70
     2
  9
$DIMTXSTY
  7
Standard
  9
$DIMAUNIT
 70
     0
  9
$DIMADEC
 70
     0
  9
$DIMALTRND
 40
0.0
  9
$DIMAZIN
 70
     0
  9
$DIMDSEP
 70
    46
  9
$DIMATFIT
 70
     3
  9
$DIMFRAC
 70
     0
  9
$DIMLDRBLK
  1
OPEN
  9
$DIMLUNIT
 70
     2
  9
$DIMLWD
 70
    -2
  9
$DIMLWE
 70
    -2
  9
$DIMTMOVE
 70
     0
  9
$DIMFXL
 40
1.0
  9
$DIMFXLON
 70
     0
  9
$DIMJOGANG
 40
1.570796326794896
  9
$DIMTFILL
 70
     0
  9
$DIMTFILLCLR
 70
     0
  9
$DIMARCSYM
 70
     0
  9
$DIMLTYPE
  6

  9
$DIMLTEX1
  6

  9
$DIMLTEX2
  6

  9
$DIMTXTDIRECTION
 70
     0
  9
$LUNITS
 70
     2
  9
$LUPREC
 70
     4
  9
$SKETCHINC
 40
1.0
  9
$FILLETRAD
 40
0.0
  9
$AUNITS
 70
     0
  9
$AUPREC
 70
     0
  9
$MENU
  1
.
  9
$ELEVATION
 40
0.0
  9
$PELEVATION
 40
0.0
  9
$THICKNESS
 40
0.0
  9
$LIMCHECK
 70
     0
  9
$CHAMFERA
 40
0.0
  9
$CHAMFERB
 40
0.0
  9
$CHAMFERC
 40
0.0
  9
$CHAMFERD
 40
0.0
  9
$SKPOLY
 70
     0
  9
$TDCREATE
 40
2454064.449062500
  9
$TDUCREATE
 40
2454064.074062859
  9
$TDUPDATE
 40
2460315.417488426
  9
$TDUUPDATE
 40
2460315.042488426
  9
$TDINDWG
 40
3.8107418403
  9
$TDUSRTIMER
 40
3.8107188889
  9
$USRTIMER
 70
     1
  9
$ANGBASE
 50
0.0
  9
$ANGDIR
 70
     0
  9
$PDMODE
 70
     0
  9
$PDSIZE
 40
0.0
  9
$PLINEWID
 40
0.0
  9
$SPLFRAME
 70
     0
  9
$SPLINETYPE
 70
     6
  9
$SPLINESEGS
 70
     8
  9
$HANDSEED
  5
1CB88
  9
$SURFTAB1
 70
     6
  9
$SURFTAB2
 70
     6
  9
$SURFTYPE
 70
     6
  9
$SURFU
 70
     6
  9
$SURFV
 70
     6
  9
$UCSBASE
  2

  9
$UCSNAME
  2

  9
$UCSORG
 10
0.0
 20
0.0
 30
0.0
  9
$UCSXDIR
 10
1.0
 20
0.0
 30
0.0
  9
$UCSYDIR
 10
0.0
 20
1.0
 30
0.0
  9
$UCSORTHOREF
  2

  9
$UCSORTHOVIEW
 70
     0
  9
$UCSORGTOP
 10
0.0
 20
0.0
 30
0.0
  9
$UCSORGBOTTOM
 10
0.0
 20
0.0
 30
0.0
  9
$UCSORGLEFT
 10
0.0
 20
0.0
 30
0.0
  9
$UCSORGRIGHT
 10
0.0
 20
0.0
 30
0.0
  9
$UCSORGFRONT
 10
0.0
 20
0.0
 30
0.0
  9
$UCSORGBACK
 10
0.0
 20
0.0
 30
0.0
  9
$PUCSBASE
  2

  9
$PUCSNAME
  2

  9
$PUCSORG
 10
0.0
 20
0.0
 30
0.0
  9
$PUCSXDIR
 10
1.0
 20
0.0
 30
0.0
  9
$PUCSYDIR
 10
0.0
 20
1.0
 30
0.0
  9
$PUCSORTHOREF
  2

  9
$PUCSORTHOVIEW
 70
     0
  9
$PUCSORGTOP
 10
0.0
 20
0.0
 30
0.0
  9
$PUCSORGBOTTOM
 10
0.0
 20
0.0
 30
0.0
  9
$PUCSORGLEFT
 10
0.0
 20
0.0
 30
0.0
  9
$PUCSORGRIGHT
 10
0.0
 20
0.0
 30
0.0
  9
$PUCSORGFRONT
 10
0.0
 20
0.0
 30
0.0
  9
$PUCSORGBACK
 10
0.0
 20
0.0
 30
0.0
  9
$USERI1
 70
     0
  9
$USERI2
 70
     0
  9
$USERI3
 70
     0
  9
$USERI4
 70
     0
  9
$USERI5
 70
     0
  9
$USERR1
 40
0.0
  9
$USERR2
 40
0.0
  9
$USERR3
 40
0.0
  9
$USERR4
 40
0.0
  9
$USERR5
 40
0.0
  9
$WORLDVIEW
 70
     1
  9
$SHADEDGE
 70
     3
  9
$SHADEDIF
 70
    70
  9
$TILEMODE
 70
     0
  9
$MAXACTVP
 70
    64
  9
$PINSBASE
 10
0.0
 20
0.0
 30
0.0
  9
$PLIMCHECK
 70
     0
  9
$PEXTMIN
 10
0.0000000000000853
 20
0.0
 30
0.0
  9
$PEXTMAX
 10
408.1991586685179
 20
285.1784963607788
 30
0.0
  9
$PLIMMIN
 10
-5.873748779296875
 20
-5.873749732971191
  9
$PLIMMAX
 10
414.0729064941406
 20
291.0522451400757
  9
$UNITMODE
 70
     0
  9
$VISRETAIN
 70
     1
  9
$PLINEGEN
 70
     0
  9
$PSLTSCALE
 70
     1
  9
$TREEDEPTH
 70
  3020
  9
$CMLSTYLE
  2
Standard
  9
$CMLJUST
 70
     0
  9
$CMLSCALE
 40
20.0
  9
$PROXYGRAPHICS
 70
     1
  9
$MEASUREMENT
 70
     1
  9
$CELWEIGHT
370
    -1
  9
$ENDCAPS
280
     0
  9
$JOINSTYLE
280
     0
  9
$LWDISPLAY
290
     0
  9
$INSUNITS
 70
     4
  9
$HYPERLINKBASE
  1

  9
$STYLESHEET
  1
SANKENTC.CTB
  9
$XEDIT
290
     1
  9
$CEPSNTYPE
380
     0
  9
$PSTYLEMODE
290
     1
  9
$FINGERPRINTGUID
  2
{072871F0-2771-4C56-B9BD-B27D0F751D9A}
  9
$VERSIONGUID
  2
{E2B2519B-966F-CE4C-BD74-862849814A36}
  9
$EXTNAMES
290
     1
  9
$PSVPSCALE
 40
0.0
  9
$OLESTARTUP
290
     0
  9
$SORTENTS
280
   127
  9
$INDEXCTL
280
     0
  9
$HIDETEXT
280
     1
  9
$XCLIPFRAME
280
     2
  9
$HALOGAP
280
     0
  9
$OBSCOLOR
 70
   257
  9
$OBSLTYPE
280
     0
  9
$INTERSECTIONDISPLAY
280
     0
  9
$INTERSECTIONCOLOR
 70
   257
  9
$DIMASSOC
280
     2
  9
$PROJECTNAME
  1

  9
$CAMERADISPLAY
290
     0
  9
$LENSLENGTH
 40
50.0
  9
$CAMERAHEIGHT
 40
0.0
  9
$STEPSPERSEC
 40
2.0
  9
$STEPSIZE
 40
6.0
  9
$3DDWFPREC
 40
2.0
  9
$PSOLWIDTH
 40
0.25
  9
$PSOLHEIGHT
 40
4.0
  9
$LOFTANG1
 40
1.570796326794896
  9
$LOFTANG2
 40
1.570796326794896
  9
$LOFTMAG1
 40
0.0
  9
$LOFTMAG2
 40
0.0
  9
$LOFTPARAM
 70
     7
  9
$LOFTNORMALS
280
     1
  9
$LATITUDE
 40
37.795
  9
$LONGITUDE
 40
-122.394
  9
$NORTHDIRECTION
 40
0.0
  9
$TIMEZONE
 70
 -8000
  9
$LIGHTGLYPHDISPLAY
280
     1
  9
$TILEMODELIGHTSYNCH
280
     1
  9
$CMATERIAL
347
D7A4
  9
$SOLIDHIST
280
     0
  9
$SHOWHIST
280
     1
  9
$DWFFRAME
280
     2
  9
$DGNFRAME
280
     0
  9
$REALWORLDSCALE
290
     1
  9
$INTERFERECOLOR
 62
     1
  9
$INTERFEREOBJVS
345
D7C6
  9
$INTERFEREVPVS
346
197C8
  9
$CSHADOW
280
     0
  9
$SHADOWPLANELOCATION
 40
0.0
  0
ENDSEC
  0
SECTION
  2
CLASSES
  0
CLASS
  1
ACDBDICTIONARYWDFLT
  2
AcDbDictionaryWithDefault
  3
ObjectDBX Classes
 90
        0
 91
        1
280
     0
281
     0
  0
CLASS
  1
DICTIONARYVAR
  2
AcDbDictionaryVar
  3
ObjectDBX Classes
 90
        0
 91
       19
280
     0
281
     0
  0
CLASS
  1
TABLESTYLE
  2
AcDbTableStyle
  3
ObjectDBX Classes
 90
     4095
 91
        1
280
     0
281
     0
  0
CLASS
  1
DIMASSOC
  2
AcDbDimAssoc
  3
"AcDbDimAssoc|Product Desc:     AcDim ARX App For Dimension|Company:          Autodesk, Inc.|WEB Address:      www.autodesk.com"
 90
        0
 91
        0
280
     0
281
     0
  0
CLASS
  1
SORTENTSTABLE
  2
AcDbSortentsTable
  3
ObjectDBX Classes
 90
        0
 91
        3
280
     0
281
     0
  0
CLASS
  1
MATERIAL
  2
AcDbMaterial
  3
ObjectDBX Classes
 90
     1153
 91
        3
280
     0
281
     0
  0
CLASS
  1
VISUALSTYLE
  2
AcDbVisualStyle
  3
ObjectDBX Classes
 90
     4095
 91
       26
280
     0
281
     0
  0
CLASS
  1
SCALE
  2
AcDbScale
  3
ObjectDBX Classes
 90
     1153
 91
       17
280
     0
281
     0
  0
CLASS
  1
MLEADERSTYLE
  2
AcDbMLeaderStyle
  3
ACDB_MLEADERSTYLE_CLASS
 90
     4095
 91
        1
280
     0
281
     0
  0
CLASS
  1
CELLSTYLEMAP
  2
AcDbCellStyleMap
  3
ObjectDBX Classes
 90
     1152
 91
        1
280
     0
281
     0
  0
CLASS
  1
AEC_REFEDIT_STATUS_TRACKER
  2
AecDbRefEditStatusTracker
  3
AecArchBase50|Product Desc: Autodesk Architectural Desktop 2007 |Company: Autodesk,Inc. |WEB Address: www.autodesk.com
 90
      129
 91
        0
280
     0
281
     0
  0
CLASS
  1
NPOCOLLECTION
  2
AcDbImpNonPersistentObjectsCollection
  3
ObjectDBX Classes
 90
     1153
 91
        0
280
     0
281
     0
  0
CLASS
  1
ACDBSECTIONVIEWSTYLE
  2
AcDbSectionViewStyle
  3
ObjectDBX Classes
 90
     1025
 91
        1
280
     0
281
     0
  0
CLASS
  1
ACDBDETAILVIEWSTYLE
  2
AcDbDetailViewStyle
  3
ObjectDBX Classes
 90
     1025
 91
        1
280
     0
281
     0
  0
ENDSEC
  0
SECTION
  2
TABLES
  0
TABLE
  2
VPORT
  5
8
102
{ACAD_XDICTIONARY
360
D80C
102
}
330
0
100
AcDbSymbolTable
 70
     1
1001
ACAD
1000
DbSaveVer
1071
      278
  0
VPORT
  5
1382E
330
8
100
AcDbSymbolTableRecord
100
AcDbViewportTableRecord
  2
*Active
 70
     0
 10
0.0
 20
0.0
 11
1.0
 21
1.0
 12
2100.000009778887
 22
1485.000006915069
 13
0.0
 23
0.0
 14
10.0
 24
10.0
 15
10.0
 25
10.0
 16
0.0
 26
0.0
 36
1.0
 17
0.0
 27
0.0
 37
0.0
 40
2995.786285400605
 41
1.976978417266187
 42
50.0
 43
0.0
 44
0.0
 50
0.0
 51
0.0
 71
     0
 72
  1000
 73
     1
 74
     3
 75
     0
 76
     0
 77
     0
 78
     0
281
     0
 65
     1
110
0.0
120
0.0
130
0.0
111
1.0
121
0.0
131
0.0
112
0.0
122
1.0
132
0.0
 79
     0
146
0.0
348
D7C2
 60
     3
 61
     5
292
     1
282
     1
141
0.0
142
0.0
 63
   250
421
  3355443
1001
ACAD_NAV_VCDISPLAY
1070
     3
  0
ENDTAB
  0
TABLE
  2
LTYPE
  5
5
330
0
100
AcDbSymbolTable
 70
     4
  0
LTYPE
  5
14
330
5
100
AcDbSymbolTableRecord
100
AcDbLinetypeTableRecord
  2
ByBlock
 70
     0
  3

 72
    65
 73
     0
 40
0.0
  0
LTYPE
  5
15
330
5
100
AcDbSymbolTableRecord
100
AcDbLinetypeTableRecord
  2
ByLayer
 70
     0
  3

 72
    65
 73
     0
 40
0.0
  0
LTYPE
  5
16
330
5
100
AcDbSymbolTableRecord
100
AcDbLinetypeTableRecord
  2
Continuous
 70
     0
  3
Solid line
 72
    65
 73
     0
 40
0.0
  0
LTYPE
  5
1D4
330
5
100
AcDbSymbolTableRecord
100
AcDbLinetypeTableRecord
  2
PHANTOM
 70
     0
  3
Phantom ______  __  __  ______  __  __  ______
 72
    65
 73
     6
 40
63.5
 49
31.75
 74
     0
 49
-6.349999999999997
 74
     0
 49
6.349999999999997
 74
     0
 49
-6.349999999999997
 74
     0
 49
6.349999999999997
 74
     0
 49
-6.349999999999997
 74
     0
  0
LTYPE
  5
1D5
330
5
100
AcDbSymbolTableRecord
100
AcDbLinetypeTableRecord
  2
CENTER
 70
     0
  3
Center ____ _ ____ _ ____ _ ____ _ ____ _ ____
 72
    65
 73
     4
 40
50.8
 49
31.75
 74
     0
 49
-6.349999999999997
 74
     0
 49
6.349999999999997
 74
     0
 49
-6.349999999999997
 74
     0
  0
LTYPE
  5
1D7
330
5
100
AcDbSymbolTableRecord
100
AcDbLinetypeTableRecord
  2
DASHED
 70
     0
  3
Dashed __ __ __ __ __ __ __ __ __ __ __ __ __ _
 72
    65
 73
     2
 40
19.05
 49
12.7
 74
     0
 49
-6.349999999999997
 74
     0
  0
ENDTAB
  0
TABLE
  2
LAYER
  5
2
102
{ACAD_XDICTIONARY
360
11D
102
}
330
0
100
AcDbSymbolTable
 70
     8
  0
LAYER
  5
10
102
{ACAD_XDICTIONARY
360
D7F2
102
}
330
2
100
AcDbSymbolTableRecord
100
AcDbLayerTableRecord
  2
0
 70
     0
 62
     7
  6
Continuous
370
    -3
390
F
347
D7B4
348
0
  0
LAYER
  5
13F
330
2
100
AcDbSymbolTableRecord
100
AcDbLayerTableRecord
  2
Defpoints
 70
     0
 62
     7
  6
Continuous
290
     0
370
    -3
390
F
347
D7B4
348
0
  0
LAYER
  5
1BF
102
{ACAD_XDICTIONARY
360
D7F6
102
}
330
2
100
AcDbSymbolTableRecord
100
AcDbLayerTableRecord
  2
図面枠
 70
     0
 62
     2
  6
Continuous
370
    -3
390
F
347
D7B4
348
0
1001
AcAecLayerStandard
1000

1000

  0
LAYER
  5
1C1
102
{ACAD_XDICTIONARY
360
D7FA
102
}
330
2
100
AcDbSymbolTableRecord
100
AcDbLayerTableRecord
  2
仮想線
 70
     0
 62
     6
  6
PHANTOM
370
    -3
390
F
347
D7B4
348
0
1001
AcAecLayerStandard
1000

1000

  0
LAYER
  5
1C3
102
{ACAD_XDICTIONARY
360
D7FE
102
}
330
2
100
AcDbSymbolTableRecord
100
AcDbLayerTableRecord
  2
寸法線
 70
     0
 62
     2
  6
Continuous
370
    -3
390
F
347
D7B4
348
0
1001
AcAecLayerStandard
1000

1000

  0
LAYER
  5
1C4
102
{ACAD_XDICTIONARY
360
D800
102
}
330
2
100
AcDbSymbolTableRecord
100
AcDbLayerTableRecord
  2
中心線
 70
     0
 62
     1
  6
CENTER
370
    -3
390
F
347
D7B4
348
0
1001
AcAecLayerStandard
1000

1000

  0
LAYER
  5
1C5
102
{ACAD_XDICTIONARY
360
D802
102
}
330
2
100
AcDbSymbolTableRecord
100
AcDbLayerTableRecord
  2
破線
 70
     0
 62
     4
  6
DASHED
370
    -3
390
F
347
D7B4
348
0
1001
AcAecLayerStandard
1000

1000

  0
LAYER
  5
82E
102
{ACAD_XDICTIONARY
360
D804
102
}
330
2
100
AcDbSymbolTableRecord
100
AcDbLayerTableRecord
  2
実線
 70
     0
 62
     7
  6
Continuous
370
    -3
390
F
347
D7B4
348
0
1001
AcAecLayerStandard
1000

1000

  0
ENDTAB
  0
TABLE
  2
STYLE
  5
3
330
0
100
AcDbSymbolTable
 70
     1
  0
STYLE
  5
11
330
3
100
AcDbSymbolTableRecord
100
AcDbTextStyleTableRecord
  2
Standard
 70
     0
 40
0.0
 41
1.0
 50
0.0
 71
     0
 42
25.0
  3
isocp.shx
  4
extfont2.shx
  0
ENDTAB
  0
TABLE
  2
VIEW
  5
6
330
0
100
AcDbSymbolTable
 70
     0
  0
ENDTAB
  0
TABLE
  2
UCS
  5
7
330
0
100
AcDbSymbolTable
 70
     0
  0
ENDTAB
  0
TABLE
  2
APPID
  5
9
330
0
100
AcDbSymbolTable
 70
    17
  0
APPID
  5
12
330
9
100
AcDbSymbolTableRecord
100
AcDbRegAppTableRecord
  2
ACAD
 70
     0
  0
APPID
  5
9E
330
9
100
AcDbSymbolTableRecord
100
AcDbRegAppTableRecord
  2
ACAD_PSEXT
 70
     0
  0
APPID
  5
1BE
330
9
100
AcDbSymbolTableRecord
100
AcDbRegAppTableRecord
  2
AcAecLayerStandard
 70
     0
  0
APPID
  5
1FF
330
9
100
AcDbSymbolTableRecord
100
AcDbRegAppTableRecord
  2
ACAD_EXEMPT_FROM_CAD_STANDARDS
 70
     0
  0
APPID
  5
1318
330
9
100
AcDbSymbolTableRecord
100
AcDbRegAppTableRecord
  2
ACAD_DSTYLE_DIMTEXT_FILL
 70
     0
  0
APPID
  5
1319
330
9
100
AcDbSymbolTableRecord
100
AcDbRegAppTableRecord
  2
ACAD_DSTYLE_DIMEXT_LENGTH
 70
     0
  0
APPID
  5
131A
330
9
100
AcDbSymbolTableRecord
100
AcDbRegAppTableRecord
  2
ACAD_DSTYLE_DIMEXT_ENABLED
 70
     0
  0
APPID
  5
131B
330
9
100
AcDbSymbolTableRecord
100
AcDbRegAppTableRecord
  2
ACAD_DSTYLE_DIM_LINETYPE
 70
     0
  0
APPID
  5
131C
330
9
100
AcDbSymbolTableRecord
100
AcDbRegAppTableRecord
  2
ACAD_DSTYLE_DIM_EXT1_LINETYPE
 70
     0
  0
APPID
  5
131D
330
9
100
AcDbSymbolTableRecord
100
AcDbRegAppTableRecord
  2
ACAD_DSTYLE_DIM_EXT2_LINETYPE
 70
     0
  0
APPID
  5
1439
330
9
100
AcDbSymbolTableRecord
100
AcDbRegAppTableRecord
  2
ACAD_DSTYLE_DIMJOGGED_JOGANGLE_SYMBOL
 70
     0
  0
APPID
  5
1CB2
330
9
100
AcDbSymbolTableRecord
100
AcDbRegAppTableRecord
  2
ACAD_DSTYLE_DIMARC_LENGTH_SYMBOL
 70
     0
  0
APPID
  5
356E
330
9
100
AcDbSymbolTableRecord
100
AcDbRegAppTableRecord
  2
ACAD_DIMASSOC_CALC_DIMLFAC
 70
     0
  0
APPID
  5
356F
330
9
100
AcDbSymbolTableRecord
100
AcDbRegAppTableRecord
  2
ACAD_DIMASSOC_DIMLFAC
 70
     0
  0
APPID
  5
3570
330
9
100
AcDbSymbolTableRecord
100
AcDbRegAppTableRecord
  2
ACAD_DIMASSOC_OVERRIDDEN_DIMLFAC
 70
     0
  0
APPID
  5
D7E1
330
9
100
AcDbSymbolTableRecord
100
AcDbRegAppTableRecord
  2
ACAD_MLEADERVER
 70
     0
  0
APPID
  5
19A0A
330
9
100
AcDbSymbolTableRecord
100
AcDbRegAppTableRecord
  2
ACAD_NAV_VCDISPLAY
 70
     0
  0
ENDTAB
  0
TABLE
  2
DIMSTYLE
  5
A
330
0
100
AcDbSymbolTable
 70
     1
100
AcDbDimStyleTable
 71
     1
340
C0F
  0
DIMSTYLE
105
C0F
102
{ACAD_REACTORS
330
1BD5E
330
1BD5F
330
1BD60
330
1BD61
330
1BD62
330
1BD63
330
1BD64
330
1BD65
330
1BD66
330
1BD67
330
1BD68
330
1BD69
330
1BF0B
330
1BF0C
330
1BF0D
330
1BF0E
330
1BF0F
330
1BF10
330
1BF63
330
1BF64
330
1BF65
330
1BF66
330
1BF67
330
1BF68
330
1BF73
330
1BF9F
330
1BFA0
330
1BE88
330
1BDE9
330
1BDEA
330
1BE0B
330
1BDB5
330
1BDB7
330
1BDB8
330
1C9E3
330
1C9EA
330
1C9EB
330
1C9EC
330
1C9ED
330
1C9EE
330
1C9EF
330
1C9F0
330
1CAA7
102
}
330
A
100
AcDbSymbolTableRecord
100
AcDbDimStyleTableRecord
  2
STANDARD
 70
     0
 40
10.0
 41
2.0
 42
0.875
 43
10.0
 44
1.0
 50
89.99999999999998
 73
     0
 74
     0
 77
     1
 78
     8
140
2.5
141
0.0
147
0.875
172
     1
173
     1
271
     3
272
     3
340
11
341
C08
343
C08
344
C08
1001
ACAD_DSTYLE_DIMJOGGED_JOGANGLE_SYMBOL
1070
   384
1040
1.570796326794896
  0
ENDTAB
  0
TABLE
  2
BLOCK_RECORD
  5
1
330
0
100
AcDbSymbolTable
 70
    44
  0
BLOCK_RECORD
  5
1F
102
{ACAD_XDICTIONARY
360
5C91
102
}
330
1
100
AcDbSymbolTableRecord
100
AcDbBlockTableRecord
  2
*Model_Space
340
22
 70
     0
280
     1
281
     0
  0
BLOCK_RECORD
  5
78D
330
1
100
AcDbSymbolTableRecord
100
AcDbBlockTableRecord
  2
*Paper_Space
340
78E
 70
     0
280
     1
281
     0
  0
BLOCK_RECORD
  5
C08
102
{ACAD_XDICTIONARY
360
10075
102
}
330
1
100
AcDbSymbolTableRecord
100
AcDbBlockTableRecord
  2
_OPEN
340
0
102
{BLKREFS
331
1C668
331
1C669
331
1C673
331
1C674
331
1C67C
331
1C67D
331
1C687
331
1C688
331
1C690
331
1C691
331
1C699
331
1C69A
331
1C6A4
331
1C6A5
331
1C6B8
331
1C6B9
331
1C6C1
331
1C6C2
331
1C6CA
331
1C6CB
331
1C1D5
331
1C1D6
331
1C1DE
331
1C1DF
331
1C1F2
331
1C1F3
331
1C1FB
331
1C1FC
331
1C206
331
1C207
331
1C20F
331
1C210
331
1C218
331
1C219
331
1C222
331
1C223
331
1C22C
331
1C22D
331
1C235
331
1C236
331
1C32C
331
1C32D
331
1CA5C
331
1CA5D
331
1CA65
331
1CA66
331
1CA70
331
1CA71
331
1CA79
331
1CA7A
331
1CA84
331
1CA85
331
1CA8F
331
1CA90
331
1CA98
331
1CA99
331
1CAA1
331
1CAA2
331
1CABB
331
1CABC
331
1C338
331
1C339
331
1C343
331
1C344
331
1C34E
331
1C34F
331
1C357
331
1C358
331
1C360
331
1C361
331
1C369
331
1C36A
331
1C635
331
1C636
331
1C63E
331
1C63F
331
1C647
331
1C648
331
1C652
331
1C653
331
1C65D
331
1C65E
331
1C1CC
331
1C1CD
331
1CB1D
331
1CB1E
102
}
 70
     0
280
     1
281
     0
  0
BLOCK_RECORD
  5
1BFA2
330
1
100
AcDbSymbolTableRecord
100
AcDbBlockTableRecord
  2
*D1
340
0
 70
     0
280
     1
281
     0
  0
BLOCK_RECORD
  5
1BFAE
330
1
100
AcDbSymbolTableRecord
100
AcDbBlockTableRecord
  2
*D2
340
0
 70
     0
280
     1
281
     0
  0
BLOCK_RECORD
  5
1BFBA
330
1
100
AcDbSymbolTableRecord
100
AcDbBlockTableRecord
  2
*D3
340
0
 70
     0
280
     1
281
     0
  0
BLOCK_RECORD
  5
1BFC6
330
1
100
AcDbSymbolTableRecord
100
AcDbBlockTableRecord
  2
*D4
340
0
 70
     0
280
     1
281
     0
  0
BLOCK_RECORD
  5
1BFD4
330
1
100
AcDbSymbolTableRecord
100
AcDbBlockTableRecord
  2
*D5
340
0
 70
     0
280
     1
281
     0
  0
BLOCK_RECORD
  5
1BFE0
330
1
100
AcDbSymbolTableRecord
100
AcDbBlockTableRecord
  2
*D6
340
0
 70
     0
280
     1
281
     0
  0
BLOCK_RECORD
  5
1BFEC
330
1
100
AcDbSymbolTableRecord
100
AcDbBlockTableRecord
  2
*D7
340
0
 70
     0
280
     1
281
     0
  0
BLOCK_RECORD
  5
1BFFA
330
1
100
AcDbSymbolTableRecord
100
AcDbBlockTableRecord
  2
*D8
340
0
 70
     0
280
     1
281
     0
  0
BLOCK_RECORD
  5
1C006
330
1
100
AcDbSymbolTableRecord
100
AcDbBlockTableRecord
  2
*D9
340
0
 70
     0
280
     1
281
     0
  0
BLOCK_RECORD
  5
1C013
330
1
100
AcDbSymbolTableRecord
100
AcDbBlockTableRecord
  2
*D10
340
0
 70
     0
280
     1
281
     0
  0
BLOCK_RECORD
  5
1C020
330
1
100
AcDbSymbolTableRecord
100
AcDbBlockTableRecord
  2
*D11
340
0
 70
     0
280
     1
281
     0
  0
BLOCK_RECORD
  5
1C02C
330
1
100
AcDbSymbolTableRecord
100
AcDbBlockTableRecord
  2
*D12
340
0
 70
     0
280
     1
281
     0
  0
BLOCK_RECORD
  5
1C0A0
330
1
100
AcDbSymbolTableRecord
100
AcDbBlockTableRecord
  2
*D13
340
0
 70
     0
280
     1
281
     0
  0
BLOCK_RECORD
  5
1C0AC
330
1
100
AcDbSymbolTableRecord
100
AcDbBlockTableRecord
  2
*D14
340
0
 70
     0
280
     1
281
     0
  0
BLOCK_RECORD
  5
1C0B8
330
1
100
AcDbSymbolTableRecord
100
AcDbBlockTableRecord
  2
*D15
340
0
 70
     0
280
     1
281
     0
  0
BLOCK_RECORD
  5
1C0C4
330
1
100
AcDbSymbolTableRecord
100
AcDbBlockTableRecord
  2
*D16
340
0
 70
     0
280
     1
281
     0
  0
BLOCK_RECORD
  5
1C0D2
330
1
100
AcDbSymbolTableRecord
100
AcDbBlockTableRecord
  2
*D17
340
0
 70
     0
280
     1
281
     0
  0
BLOCK_RECORD
  5
1C0E0
330
1
100
AcDbSymbolTableRecord
100
AcDbBlockTableRecord
  2
*D18
340
0
 70
     0
280
     1
281
     0
  0
BLOCK_RECORD
  5
1C0EE
330
1
100
AcDbSymbolTableRecord
100
AcDbBlockTableRecord
  2
*D19
340
0
 70
     0
280
     1
281
     0
  0
BLOCK_RECORD
  5
1C0FC
330
1
100
AcDbSymbolTableRecord
100
AcDbBlockTableRecord
  2
*D20
340
0
 70
     0
280
     1
281
     0
  0
BLOCK_RECORD
  5
1C108
330
1
100
AcDbSymbolTableRecord
100
AcDbBlockTableRecord
  2
*D21
340
0
 70
     0
280
     1
281
     0
  0
BLOCK_RECORD
  5
1C116
330
1
100
AcDbSymbolTableRecord
100
AcDbBlockTableRecord
  2
*D22
340
0
 70
     0
280
     1
281
     0
  0
BLOCK_RECORD
  5
1C122
330
1
100
AcDbSymbolTableRecord
100
AcDbBlockTableRecord
  2
*D23
340
0
 70
     0
280
     1
281
     0
  0
BLOCK_RECORD
  5
1C12E
330
1
100
AcDbSymbolTableRecord
100
AcDbBlockTableRecord
  2
*D24
340
0
 70
     0
280
     1
281
     0
  0
BLOCK_RECORD
  5
1C148
330
1
100
AcDbSymbolTableRecord
100
AcDbBlockTableRecord
  2
*D25
340
0
 70
     0
280
     1
281
     0
  0
BLOCK_RECORD
  5
1C156
330
1
100
AcDbSymbolTableRecord
100
AcDbBlockTableRecord
  2
*D26
340
0
 70
     0
280
     1
281
     0
  0
BLOCK_RECORD
  5
1C162
330
1
100
AcDbSymbolTableRecord
100
AcDbBlockTableRecord
  2
*D27
340
0
 70
     0
280
     1
281
     0
  0
BLOCK_RECORD
  5
1C16E
330
1
100
AcDbSymbolTableRecord
100
AcDbBlockTableRecord
  2
*D28
340
0
 70
     0
280
     1
281
     0
  0
BLOCK_RECORD
  5
1C17B
330
1
100
AcDbSymbolTableRecord
100
AcDbBlockTableRecord
  2
*D29
340
0
 70
     0
280
     1
281
     0
  0
BLOCK_RECORD
  5
1C189
330
1
100
AcDbSymbolTableRecord
100
AcDbBlockTableRecord
  2
*D30
340
0
 70
     0
280
     1
281
     0
  0
BLOCK_RECORD
  5
1C197
330
1
100
AcDbSymbolTableRecord
100
AcDbBlockTableRecord
  2
*D31
340
0
 70
     0
280
     1
281
     0
  0
BLOCK_RECORD
  5
1C1A5
330
1
100
AcDbSymbolTableRecord
100
AcDbBlockTableRecord
  2
*D32
340
0
 70
     0
280
     1
281
     0
  0
BLOCK_RECORD
  5
1C1B1
330
1
100
AcDbSymbolTableRecord
100
AcDbBlockTableRecord
  2
*D33
340
0
 70
     0
280
     1
281
     0
  0
BLOCK_RECORD
  5
1C1BD
330
1
100
AcDbSymbolTableRecord
100
AcDbBlockTableRecord
  2
*D34
340
0
 70
     0
280
     1
281
     0
  0
BLOCK_RECORD
  5
1C9F3
330
1
100
AcDbSymbolTableRecord
100
AcDbBlockTableRecord
  2
*D35
340
0
 70
     0
280
     1
281
     0
  0
BLOCK_RECORD
  5
1C9FF
330
1
100
AcDbSymbolTableRecord
100
AcDbBlockTableRecord
  2
*D36
340
0
 70
     0
280
     1
281
     0
  0
BLOCK_RECORD
  5
1CA0B
330
1
100
AcDbSymbolTableRecord
100
AcDbBlockTableRecord
  2
*D37
340
0
 70
     0
280
     1
281
     0
  0
BLOCK_RECORD
  5
1CA19
330
1
100
AcDbSymbolTableRecord
100
AcDbBlockTableRecord
  2
*D38
340
0
 70
     0
280
     1
281
     0
  0
BLOCK_RECORD
  5
1CA25
330
1
100
AcDbSymbolTableRecord
100
AcDbBlockTableRecord
  2
*D39
340
0
 70
     0
280
     1
281
     0
  0
BLOCK_RECORD
  5
1CA33
330
1
100
AcDbSymbolTableRecord
100
AcDbBlockTableRecord
  2
*D40
340
0
 70
     0
280
     1
281
     0
  0
BLOCK_RECORD
  5
1CA41
330
1
100
AcDbSymbolTableRecord
100
AcDbBlockTableRecord
  2
*D41
340
0
 70
     0
280
     1
281
     0
  0
BLOCK_RECORD
  5
1CA4D
330
1
100
AcDbSymbolTableRecord
100
AcDbBlockTableRecord
  2
*D42
340
0
 70
     0
280
     1
281
     0
  0
BLOCK_RECORD
  5
1CAA8
330
1
100
AcDbSymbolTableRecord
100
AcDbBlockTableRecord
  2
*D43
340
0
 70
     0
280
     1
281
     0
  0
ENDTAB
  0
ENDSEC
  0
SECTION
  2
BLOCKS
  0
BLOCK
  5
20
330
1F
100
AcDbEntity
  8
0
100
AcDbBlockBegin
  2
*Model_Space
 70
     0
 10
0.0
 20
0.0
 30
0.0
  3
*Model_Space
  1

  0
ENDBLK
  5
21
330
1F
100
AcDbEntity
  8
0
100
AcDbBlockEnd
  0
BLOCK
  5
78F
330
78D
100
AcDbEntity
 67
     1
  8
0
100
AcDbBlockBegin
  2
*Paper_Space
 70
     0
 10
0.0
 20
0.0
 30
0.0
  3
*Paper_Space
  1

  0
ENDBLK
  5
790
330
78D
100
AcDbEntity
 67
     1
  8
0
100
AcDbBlockEnd
  0
BLOCK
  5
C09
330
C08
100
AcDbEntity
  8
0
100
AcDbBlockBegin
  2
_OPEN
 70
     0
 10
0.0
 20
0.0
 30
0.0
  3
_OPEN
  1

  0
LINE
  5
C0A
330
C08
100
AcDbEntity
  8
0
  6
ByBlock
 62
     0
100
AcDbLine
 10
-1.0
 20
0.1666666666666666
 30
0.0
 11
0.0
 21
0.0
 31
0.0
  0
LINE
  5
C0B
330
C08
100
AcDbEntity
  8
0
  6
ByBlock
 62
     0
100
AcDbLine
 10
0.0
 20
0.0
 30
0.0
 11
-1.0
 21
-0.1666666666666666
 31
0.0
  0
LINE
  5
C0C
330
C08
100
AcDbEntity
  8
0
  6
ByBlock
 62
     0
100
AcDbLine
 10
0.0
 20
0.0
 30
0.0
 11
-1.0
 21
0.0
 31
0.0
  0
ENDBLK
  5
C0D
330
C08
100
AcDbEntity
  8
0
100
AcDbBlockEnd
  0
BLOCK
  5
1BFA3
330
1BFA2
100
AcDbEntity
  8
0
100
AcDbBlockBegin
  2
*D1
 70
     1
 10
0.0
 20
0.0
 30
0.0
  3
*D1
  1

  0
LINE
  5
1C1C9
330
1BFA2
100
AcDbEntity
  8
寸法線
 62
     0
440
 16777216
370
    -2
100
AcDbLine
 10
702.4999714836094
 20
1461.249999999998
 30
0.0
 11
702.4999714836094
 21
1299.999999999998
 31
0.0
  0
LINE
  5
1C1CA
330
1BFA2
100
AcDbEntity
  8
寸法線
 62
     0
440
 16777216
370
    -2
100
AcDbLine
 10
1202.500006391522
 20
1451.250038922456
 30
0.0
 11
1202.500006391522
 21
1299.999999999998
 31
0.0
  0
LINE
  5
1C1CB
330
1BFA2
100
AcDbEntity
  8
寸法線
 62
     0
440
 16777216
370
    -2
100
AcDbLine
 10
722.4999714836094
 20
1309.999999999998
 30
0.0
 11
1182.500006391522
 21
1309.999999999998
 31
0.0
  0
INSERT
  5
1C1CC
330
1BFA2
100
AcDbEntity
  8
寸法線
 62
     0
440
 16777216
370
    -2
100
AcDbBlockReference
  2
_OPEN
 10
702.4999714836094
 20
1309.999999999998
 30
0.0
 41
20.0
 42
20.0
 43
20.0
 50
180.0
  0
INSERT
  5
1C1CD
330
1BFA2
100
AcDbEntity
  8
寸法線
 62
     0
440
 16777216
370
    -2
100
AcDbBlockReference
  2
_OPEN
 10
1202.500006391522
 20
1309.999999999998
 30
0.0
 41
20.0
 42
20.0
 43
20.0
  0
MTEXT
  5
1C1CE
330
1BFA2
100
AcDbEntity
  8
寸法線
 62
     0
440
 16777216
100
AcDbMText
 10
952.4999889375667
 20
1331.249999999998
 30
0.0
 40
25.0
 41
0.0
 46
0.0
 71
     5
 72
     1
  1
\A1;500
 73
     1
 44
1.0
  0
POINT
  5
1C1CF
330
1BFA2
100
AcDbEntity
  8
Defpoints
 62
     0
440
 16777216
100
AcDbPoint
 10
702.4999714836094
 20
1469.999999999998
 30
0.0
  0
POINT
  5
1C1D0
330
1BFA2
100
AcDbEntity
  8
Defpoints
 62
     0
440
 16777216
100
AcDbPoint
 10
1202.500006391522
 20
1460.000038922456
 30
0.0
  0
POINT
  5
1C1D1
330
1BFA2
100
AcDbEntity
  8
Defpoints
 62
     0
440
 16777216
100
AcDbPoint
 10
1202.500006391522
 20
1309.999999999998
 30
0.0
  0
ENDBLK
  5
1BFA4
330
1BFA2
100
AcDbEntity
  8
0
100
AcDbBlockEnd
  0
BLOCK
  5
1BFAF
330
1BFAE
100
AcDbEntity
  8
0
100
AcDbBlockBegin
  2
*D2
 70
     1
 10
0.0
 20
0.0
 30
0.0
  3
*D2
  1

  0
LINE
  5
1C1D2
330
1BFAE
100
AcDbEntity
  8
寸法線
 62
     0
440
 16777216
370
    -2
100
AcDbLine
 10
2302.499936575697
 20
1451.250038922456
 30
0.0
 11
2302.499936575697
 21
1299.999999999998
 31
0.0
  0
LINE
  5
1C1D3
330
1BFAE
100
AcDbEntity
  8
寸法線
 62
     0
440
 16777216
370
    -2
100
AcDbLine
 10
1202.499991390134
 20
1451.250019850007
 30
0.0
 11
1202.499991390134
 21
1299.999999999998
 31
0.0
  0
LINE
  5
1C1D4
330
1BFAE
100
AcDbEntity
  8
寸法線
 62
     0
440
 16777216
370
    -2
100
AcDbLine
 10
2282.499936575698
 20
1309.999999999998
 30
0.0
 11
1222.499991390134
 21
1309.999999999998
 31
0.0
  0
INSERT
  5
1C1D5
330
1BFAE
100
AcDbEntity
  8
寸法線
 62
     0
440
 16777216
370
    -2
100
AcDbBlockReference
  2
_OPEN
 10
2302.499936575697
 20
1309.999999999998
 30
0.0
 41
20.0
 42
20.0
 43
20.0
  0
INSERT
  5
1C1D6
330
1BFAE
100
AcDbEntity
  8
寸法線
 62
     0
440
 16777216
370
    -2
100
AcDbBlockReference
  2
_OPEN
 10
1202.499991390134
 20
1309.999999999998
 30
0.0
 41
20.0
 42
20.0
 43
20.0
 50
180.0
  0
MTEXT
  5
1C1D7
330
1BFAE
100
AcDbEntity
  8
寸法線
 62
     0
440
 16777216
100
AcDbMText
 10
1752.499963982916
 20
1331.249999999998
 30
0.0
 40
25.0
 41
0.0
 46
0.0
 71
     5
 72
     1
  1
\A1;1100
 73
     1
 44
1.0
  0
POINT
  5
1C1D8
330
1BFAE
100
AcDbEntity
  8
Defpoints
 62
     0
440
 16777216
100
AcDbPoint
 10
2302.499936575697
 20
1460.000038922456
 30
0.0
  0
POINT
  5
1C1D9
330
1BFAE
100
AcDbEntity
  8
Defpoints
 62
     0
440
 16777216
100
AcDbPoint
 10
1202.499991390134
 20
1460.000019850007
 30
0.0
  0
POINT
  5
1C1DA
330
1BFAE
100
AcDbEntity
  8
Defpoints
 62
     0
440
 16777216
100
AcDbPoint
 10
1202.499991390134
 20
1309.999999999998
 30
0.0
  0
ENDBLK
  5
1BFB0
330
1BFAE
100
AcDbEntity
  8
0
100
AcDbBlockEnd
  0
BLOCK
  5
1BFBB
330
1BFBA
100
AcDbEntity
  8
0
100
AcDbBlockBegin
  2
*D3
 70
     1
 10
0.0
 20
0.0
 30
0.0
  3
*D3
  1

  0
LINE
  5
1C1DB
330
1BFBA
100
AcDbEntity
  8
寸法線
 62
     0
440
 16777216
370
    -2
100
AcDbLine
 10
693.7499714836096
 20
1770.000037219675
 30
0.0
 11
572.4999714836091
 21
1770.000037219675
 31
0.0
  0
LINE
  5
1C1DC
330
1BFBA
100
AcDbEntity
  8
寸法線
 62
     0
440
 16777216
370
    -2
100
AcDbLine
 10
693.7499714836096
 20
1469.999999999999
 30
0.0
 11
572.4999714836091
 21
1469.999999999999
 31
0.0
  0
LINE
  5
1C1DD
330
1BFBA
100
AcDbEntity
  8
寸法線
 62
     0
440
 16777216
370
    -2
100
AcDbLine
 10
582.499971483609
 20
1750.000037219676
 30
0.0
 11
582.499971483609
 21
1489.999999999998
 31
0.0
  0
INSERT
  5
1C1DE
330
1BFBA
100
AcDbEntity
  8
寸法線
 62
     0
440
 16777216
370
    -2
100
AcDbBlockReference
  2
_OPEN
 10
582.499971483609
 20
1770.000037219675
 30
0.0
 41
20.0
 42
20.0
 43
20.0
 50
90.0
  0
INSERT
  5
1C1DF
330
1BFBA
100
AcDbEntity
  8
寸法線
 62
     0
440
 16777216
370
    -2
100
AcDbBlockReference
  2
_OPEN
 10
582.499971483609
 20
1469.999999999999
 30
0.0
 41
20.0
 42
20.0
 43
20.0
 50
270.0
  0
MTEXT
  5
1C1E0
330
1BFBA
100
AcDbEntity
  8
寸法線
 62
     0
440
 16777216
100
AcDbMText
 10
561.2499714836094
 20
1620.000018609838
 30
0.0
 40
25.0
 41
0.0
 46
0.0
 71
     5
 72
     1
  1
\A1;300
 11
0.0000000000000001
 21
1.0
 31
0.0
 73
     1
 44
1.0
  0
POINT
  5
1C1E1
330
1BFBA
100
AcDbEntity
  8
Defpoints
 62
     0
440
 16777216
100
AcDbPoint
 10
702.4999714836097
 20
1770.000037219675
 30
0.0
  0
POINT
  5
1C1E2
330
1BFBA
100
AcDbEntity
  8
Defpoints
 62
     0
440
 16777216
100
AcDbPoint
 10
702.4999714836097
 20
1469.999999999999
 30
0.0
  0
POINT
  5
1C1E3
330
1BFBA
100
AcDbEntity
  8
Defpoints
 62
     0
440
 16777216
100
AcDbPoint
 10
582.499971483609
 20
1469.999999999999
 30
0.0
  0
ENDBLK
  5
1BFBC
330
1BFBA
100
AcDbEntity
  8
0
100
AcDbBlockEnd
  0
BLOCK
  5
1BFC7
330
1BFC6
100
AcDbEntity
  8
0
100
AcDbBlockBegin
  2
*D4
 70
     1
 10
0.0
 20
0.0
 30
0.0
  3
*D4
  1

  0
LINE
  5
1CB18
330
1BFC6
100
AcDbEntity
  8
寸法線
 62
     0
440
 16777216
370
    -2
100
AcDbLine
 10
702.4999714836085
 20
2372.750037219683
 30
0.0
 11
702.4999714836085
 21
2539.999999999998
 31
0.0
  0
LINE
  5
1CB19
330
1BFC6
100
AcDbEntity
  8
寸法線
 62
     0
440
 16777216
370
    -2
100
AcDbLine
 10
718.4999912967196
 20
2378.749999999998
 30
0.0
 11
718.4999912967196
 21
2539.999999999998
 31
0.0
  0
LINE
  5
1CB1A
330
1BFC6
100
AcDbEntity
  8
寸法線
 62
     0
440
 16777216
370
    -2
100
AcDbLine
 10
682.4999714836085
 20
2529.999999999998
 30
0.0
 11
662.4999714836085
 21
2529.999999999998
 31
0.0
  0
LINE
  5
1CB1B
330
1BFC6
100
AcDbEntity
  8
寸法線
 62
     0
440
 16777216
370
    -2
100
AcDbLine
 10
738.4999912967195
 20
2529.999999999998
 30
0.0
 11
758.4999912967195
 21
2529.999999999998
 31
0.0
  0
LINE
  5
1CB1C
330
1BFC6
100
AcDbEntity
  8
寸法線
 62
     0
440
 16777216
370
    -2
100
AcDbLine
 10
702.4999714836085
 20
2529.999999999998
 30
0.0
 11
718.4999912967196
 21
2529.999999999998
 31
0.0
  0
INSERT
  5
1CB1D
330
1BFC6
100
AcDbEntity
  8
寸法線
 62
     0
440
 16777216
370
    -2
100
AcDbBlockReference
  2
_OPEN
 10
702.4999714836085
 20
2529.999999999998
 30
0.0
 41
20.0
 42
20.0
 43
20.0
  0
INSERT
  5
1CB1E
330
1BFC6
100
AcDbEntity
  8
寸法線
 62
     0
440
 16777216
370
    -2
100
AcDbBlockReference
  2
_OPEN
 10
718.4999912967196
 20
2529.999999999998
 30
0.0
 41
20.0
 42
20.0
 43
20.0
 50
180.0
  0
MTEXT
  5
1CB1F
330
1BFC6
100
AcDbEntity
  8
寸法線
 62
     0
440
 16777216
100
AcDbMText
 10
710.499981390164
 20
2551.249999999998
 30
0.0
 40
25.0
 41
0.0
 46
0.0
 71
     5
 72
     1
  1
\A1;16
 73
     1
 44
1.0
  0
POINT
  5
1CB20
330
1BFC6
100
AcDbEntity
  8
Defpoints
 62
     0
440
 16777216
100
AcDbPoint
 10
702.4999714836085
 20
2364.000037219682
 30
0.0
  0
POINT
  5
1CB21
330
1BFC6
100
AcDbEntity
  8
Defpoints
 62
     0
440
 16777216
100
AcDbPoint
 10
718.4999912967196
 20
2369.999999999998
 30
0.0
  0
POINT
  5
1CB22
330
1BFC6
100
AcDbEntity
  8
Defpoints
 62
     0
440
 16777216
100
AcDbPoint
 10
718.4999912967196
 20
2529.999999999998
 30
0.0
  0
ENDBLK
  5
1BFC8
330
1BFC6
100
AcDbEntity
  8
0
100
AcDbBlockEnd
  0
BLOCK
  5
1BFD5
330
1BFD4
100
AcDbEntity
  8
0
100
AcDbBlockBegin
  2
*D5
 70
     1
 10
0.0
 20
0.0
 30
0.0
  3
*D5
  1

  0
LINE
  5
1C1EF
330
1BFD4
100
AcDbEntity
  8
寸法線
 62
     0
440
 16777216
370
    -2
100
AcDbLine
 10
718.4999912967196
 20
2378.749999999998
 30
0.0
 11
718.4999912967196
 21
2539.999999999998
 31
0.0
  0
LINE
  5
1C1F0
330
1BFD4
100
AcDbEntity
  8
寸法線
 62
     0
440
 16777216
370
    -2
100
AcDbLine
 10
1202.500059967628
 20
2388.750019849952
 30
0.0
 11
1202.500059967628
 21
2539.999999999998
 31
0.0
  0
LINE
  5
1C1F1
330
1BFD4
100
AcDbEntity
  8
寸法線
 62
     0
440
 16777216
370
    -2
100
AcDbLine
 10
738.4999912967195
 20
2529.999999999998
 30
0.0
 11
1182.500059967628
 21
2529.999999999998
 31
0.0
  0
INSERT
  5
1C1F2
330
1BFD4
100
AcDbEntity
  8
寸法線
 62
     0
440
 16777216
370
    -2
100
AcDbBlockReference
  2
_OPEN
 10
718.4999912967196
 20
2529.999999999998
 30
0.0
 41
20.0
 42
20.0
 43
20.0
 50
180.0
  0
INSERT
  5
1C1F3
330
1BFD4
100
AcDbEntity
  8
寸法線
 62
     0
440
 16777216
370
    -2
100
AcDbBlockReference
  2
_OPEN
 10
1202.500059967628
 20
2529.999999999998
 30
0.0
 41
20.0
 42
20.0
 43
20.0
  0
MTEXT
  5
1C1F4
330
1BFD4
100
AcDbEntity
  8
寸法線
 62
     0
440
 16777216
100
AcDbMText
 10
960.4999988441214
 20
2551.249999999998
 30
0.0
 40
25.0
 41
0.0
 46
0.0
 71
     5
 72
     1
  1
\A1;484
 73
     1
 44
1.0
  0
POINT
  5
1C1F5
330
1BFD4
100
AcDbEntity
  8
Defpoints
 62
     0
440
 16777216
100
AcDbPoint
 10
718.4999912967196
 20
2369.999999999998
 30
0.0
  0
POINT
  5
1C1F6
330
1BFD4
100
AcDbEntity
  8
Defpoints
 62
     0
440
 16777216
100
AcDbPoint
 10
1202.500059967628
 20
2380.000019849952
 30
0.0
  0
POINT
  5
1C1F7
330
1BFD4
100
AcDbEntity
  8
Defpoints
 62
     0
440
 16777216
100
AcDbPoint
 10
1202.500059967628
 20
2529.999999999998
 30
0.0
  0
ENDBLK
  5
1BFD6
330
1BFD4
100
AcDbEntity
  8
0
100
AcDbBlockEnd
  0
BLOCK
  5
1BFE1
330
1BFE0
100
AcDbEntity
  8
0
100
AcDbBlockBegin
  2
*D6
 70
     1
 10
0.0
 20
0.0
 30
0.0
  3
*D6
  1

  0
LINE
  5
1C1F8
330
1BFE0
100
AcDbEntity
  8
寸法線
 62
     0
440
 16777216
370
    -2
100
AcDbLine
 10
709.7499912967198
 20
2369.999999999999
 30
0.0
 11
572.4999714836088
 21
2369.999999999999
 31
0.0
  0
LINE
  5
1C1F9
330
1BFE0
100
AcDbEntity
  8
寸法線
 62
     0
440
 16777216
370
    -2
100
AcDbLine
 10
709.7499912967198
 20
2069.999999999999
 30
0.0
 11
572.499971483609
 21
2069.999999999999
 31
0.0
  0
LINE
  5
1C1FA
330
1BFE0
100
AcDbEntity
  8
寸法線
 62
     0
440
 16777216
370
    -2
100
AcDbLine
 10
582.4999714836089
 20
2349.999999999999
 30
0.0
 11
582.4999714836089
 21
2089.999999999999
 31
0.0
  0
INSERT
  5
1C1FB
330
1BFE0
100
AcDbEntity
  8
寸法線
 62
     0
440
 16777216
370
    -2
100
AcDbBlockReference
  2
_OPEN
 10
582.4999714836089
 20
2369.999999999999
 30
0.0
 41
20.0
 42
20.0
 43
20.0
 50
90.0
  0
INSERT
  5
1C1FC
330
1BFE0
100
AcDbEntity
  8
寸法線
 62
     0
440
 16777216
370
    -2
100
AcDbBlockReference
  2
_OPEN
 10
582.4999714836089
 20
2069.999999999999
 30
0.0
 41
20.0
 42
20.0
 43
20.0
 50
270.0
  0
MTEXT
  5
1C1FD
330
1BFE0
100
AcDbEntity
  8
寸法線
 62
     0
440
 16777216
100
AcDbMText
 10
561.2499714836094
 20
2219.999999999998
 30
0.0
 40
25.0
 41
0.0
 46
0.0
 71
     5
 72
     1
  1
\A1;300
 11
0.0000000000000001
 21
1.0
 31
0.0
 73
     1
 44
1.0
  0
POINT
  5
1C1FE
330
1BFE0
100
AcDbEntity
  8
Defpoints
 62
     0
440
 16777216
100
AcDbPoint
 10
718.4999912967198
 20
2369.999999999999
 30
0.0
  0
POINT
  5
1C1FF
330
1BFE0
100
AcDbEntity
  8
Defpoints
 62
     0
440
 16777216
100
AcDbPoint
 10
718.4999912967198
 20
2069.999999999999
 30
0.0
  0
POINT
  5
1C200
330
1BFE0
100
AcDbEntity
  8
Defpoints
 62
     0
440
 16777216
100
AcDbPoint
 10
582.4999714836089
 20
2069.999999999999
 30
0.0
  0
ENDBLK
  5
1BFE2
330
1BFE0
100
AcDbEntity
  8
0
100
AcDbBlockEnd
  0
BLOCK
  5
1BFED
330
1BFEC
100
AcDbEntity
  8
0
100
AcDbBlockBegin
  2
*D7
 70
     1
 10
0.0
 20
0.0
 30
0.0
  3
*D7
  1

  0
LINE
  5
1C201
330
1BFEC
100
AcDbEntity
  8
寸法線
 62
     0
440
 16777216
370
    -2
100
AcDbLine
 10
2802.500011296659
 20
2372.750017369674
 30
0.0
 11
2802.500011296659
 21
2539.999999999998
 31
0.0
  0
LINE
  5
1C202
330
1BFEC
100
AcDbEntity
  8
寸法線
 62
     0
440
 16777216
370
    -2
100
AcDbLine
 10
2786.500011296659
 20
2378.749988421025
 30
0.0
 11
2786.500011296659
 21
2539.999999999998
 31
0.0
  0
LINE
  5
1C203
330
1BFEC
100
AcDbEntity
  8
寸法線
 62
     0
440
 16777216
370
    -2
100
AcDbLine
 10
2822.500011296659
 20
2529.999999999998
 30
0.0
 11
2842.500011296659
 21
2529.999999999998
 31
0.0
  0
LINE
  5
1C204
330
1BFEC
100
AcDbEntity
  8
寸法線
 62
     0
440
 16777216
370
    -2
100
AcDbLine
 10
2766.500011296659
 20
2529.999999999998
 30
0.0
 11
2746.500011296659
 21
2529.999999999998
 31
0.0
  0
LINE
  5
1C205
330
1BFEC
100
AcDbEntity
  8
寸法線
 62
     0
440
 16777216
370
    -2
100
AcDbLine
 10
2802.500011296659
 20
2529.999999999998
 30
0.0
 11
2786.500011296659
 21
2529.999999999998
 31
0.0
  0
INSERT
  5
1C206
330
1BFEC
100
AcDbEntity
  8
寸法線
 62
     0
440
 16777216
370
    -2
100
AcDbBlockReference
  2
_OPEN
 10
2802.500011296659
 20
2529.999999999998
 30
0.0
 41
20.0
 42
20.0
 43
20.0
 50
180.0
  0
INSERT
  5
1C207
330
1BFEC
100
AcDbEntity
  8
寸法線
 62
     0
440
 16777216
370
    -2
100
AcDbBlockReference
  2
_OPEN
 10
2786.500011296659
 20
2529.999999999998
 30
0.0
 41
20.0
 42
20.0
 43
20.0
  0
MTEXT
  5
1C208
330
1BFEC
100
AcDbEntity
  8
寸法線
 62
     0
440
 16777216
100
AcDbMText
 10
2794.500011296659
 20
2551.249999999998
 30
0.0
 40
25.0
 41
0.0
 46
0.0
 71
     5
 72
     1
  1
\A1;16
 73
     1
 44
1.0
  0
POINT
  5
1C209
330
1BFEC
100
AcDbEntity
  8
Defpoints
 62
     0
440
 16777216
100
AcDbPoint
 10
2802.500011296659
 20
2364.000017369674
 30
0.0
  0
POINT
  5
1C20A
330
1BFEC
100
AcDbEntity
  8
Defpoints
 62
     0
440
 16777216
100
AcDbPoint
 10
2786.500011296659
 20
2369.999988421024
 30
0.0
  0
POINT
  5
1C20B
330
1BFEC
100
AcDbEntity
  8
Defpoints
 62
     0
440
 16777216
100
AcDbPoint
 10
2786.500011296659
 20
2529.999999999998
 30
0.0
  0
ENDBLK
  5
1BFEE
330
1BFEC
100
AcDbEntity
  8
0
100
AcDbBlockEnd
  0
BLOCK
  5
1BFFB
330
1BFFA
100
AcDbEntity
  8
0
100
AcDbBlockBegin
  2
*D8
 70
     1
 10
0.0
 20
0.0
 30
0.0
  3
*D8
  1

  0
LINE
  5
1C20C
330
1BFFA
100
AcDbEntity
  8
寸法線
 62
     0
440
 16777216
370
    -2
100
AcDbLine
 10
2786.500011296659
 20
2378.749988421025
 30
0.0
 11
2786.500011296659
 21
2539.999999999998
 31
0.0
  0
LINE
  5
1C20D
330
1BFFA
100
AcDbEntity
  8
寸法線
 62
     0
440
 16777216
370
    -2
100
AcDbLine
 10
2302.499991390134
 20
2388.750001605376
 30
0.0
 11
2302.499991390134
 21
2539.999999999998
 31
0.0
  0
LINE
  5
1C20E
330
1BFFA
100
AcDbEntity
  8
寸法線
 62
     0
440
 16777216
370
    -2
100
AcDbLine
 10
2766.500011296659
 20
2529.999999999998
 30
0.0
 11
2322.499991390134
 21
2529.999999999998
 31
0.0
  0
INSERT
  5
1C20F
330
1BFFA
100
AcDbEntity
  8
寸法線
 62
     0
440
 16777216
370
    -2
100
AcDbBlockReference
  2
_OPEN
 10
2786.500011296659
 20
2529.999999999998
 30
0.0
 41
20.0
 42
20.0
 43
20.0
  0
INSERT
  5
1C210
330
1BFFA
100
AcDbEntity
  8
寸法線
 62
     0
440
 16777216
370
    -2
100
AcDbBlockReference
  2
_OPEN
 10
2302.499991390134
 20
2529.999999999998
 30
0.0
 41
20.0
 42
20.0
 43
20.0
 50
180.0
  0
MTEXT
  5
1C211
330
1BFFA
100
AcDbEntity
  8
寸法線
 62
     0
440
 16777216
100
AcDbMText
 10
2544.4999441231
 20
2551.249999999998
 30
0.0
 40
25.0
 41
0.0
 46
0.0
 71
     5
 72
     1
  1
\A1;484
 73
     1
 44
1.0
  0
POINT
  5
1C212
330
1BFFA
100
AcDbEntity
  8
Defpoints
 62
     0
440
 16777216
100
AcDbPoint
 10
2786.500011296659
 20
2369.999988421024
 30
0.0
  0
POINT
  5
1C213
330
1BFFA
100
AcDbEntity
  8
Defpoints
 62
     0
440
 16777216
100
AcDbPoint
 10
2302.499991390134
 20
2380.000001605376
 30
0.0
  0
POINT
  5
1C214
330
1BFFA
100
AcDbEntity
  8
Defpoints
 62
     0
440
 16777216
100
AcDbPoint
 10
2302.499991390134
 20
2529.999999999998
 30
0.0
  0
ENDBLK
  5
1BFFC
330
1BFFA
100
AcDbEntity
  8
0
100
AcDbBlockEnd
  0
BLOCK
  5
1C007
330
1C006
100
AcDbEntity
  8
0
100
AcDbBlockBegin
  2
*D9
 70
     1
 10
0.0
 20
0.0
 30
0.0
  3
*D9
  1

  0
LINE
  5
1C215
330
1C006
100
AcDbEntity
  8
寸法線
 62
     0
440
 16777216
370
    -2
100
AcDbLine
 10
702.4999714836085
 20
2372.750037219683
 30
0.0
 11
702.4999714836085
 21
2620.000000000003
 31
0.0
  0
LINE
  5
1C216
330
1C006
100
AcDbEntity
  8
寸法線
 62
     0
440
 16777216
370
    -2
100
AcDbLine
 10
1202.499991390134
 20
2388.750019850007
 30
0.0
 11
1202.499991390134
 21
2620.000000000003
 31
0.0
  0
LINE
  5
1C217
330
1C006
100
AcDbEntity
  8
寸法線
 62
     0
440
 16777216
370
    -2
100
AcDbLine
 10
722.4999714836085
 20
2610.000000000003
 30
0.0
 11
1182.499991390134
 21
2610.000000000003
 31
0.0
  0
INSERT
  5
1C218
330
1C006
100
AcDbEntity
  8
寸法線
 62
     0
440
 16777216
370
    -2
100
AcDbBlockReference
  2
_OPEN
 10
702.4999714836085
 20
2610.000000000003
 30
0.0
 41
20.0
 42
20.0
 43
20.0
 50
180.0
  0
INSERT
  5
1C219
330
1C006
100
AcDbEntity
  8
寸法線
 62
     0
440
 16777216
370
    -2
100
AcDbBlockReference
  2
_OPEN
 10
1202.499991390134
 20
2610.000000000003
 30
0.0
 41
20.0
 42
20.0
 43
20.0
  0
MTEXT
  5
1C21A
330
1C006
100
AcDbEntity
  8
寸法線
 62
     0
440
 16777216
100
AcDbMText
 10
952.4999889375667
 20
2631.250000000003
 30
0.0
 40
25.0
 41
0.0
 46
0.0
 71
     5
 72
     1
  1
\A1;500
 73
     1
 44
1.0
  0
MTEXT
  5
1C21B
330
1C006
100
AcDbEntity
  8
寸法線
 62
     0
440
 16777216
100
AcDbMText
 10
952.4999889375667
 20
2588.750000000003
 30
0.0
 40
25.0
 41
0.0
 46
0.0
 71
     5
 72
     1
  1
\A1;H型鋼（連結部）
 73
     1
 44
1.0
  0
POINT
  5
1C21C
330
1C006
100
AcDbEntity
  8
Defpoints
 62
     0
440
 16777216
100
AcDbPoint
 10
702.4999714836085
 20
2364.000037219682
 30
0.0
  0
POINT
  5
1C21D
330
1C006
100
AcDbEntity
  8
Defpoints
 62
     0
440
 16777216
100
AcDbPoint
 10
1202.499991390134
 20
2380.000019850007
 30
0.0
  0
POINT
  5
1C21E
330
1C006
100
AcDbEntity
  8
Defpoints
 62
     0
440
 16777216
100
AcDbPoint
 10
1202.499991390134
 20
2610.000000000003
 30
0.0
  0
ENDBLK
  5
1C008
330
1C006
100
AcDbEntity
  8
0
100
AcDbBlockEnd
  0
BLOCK
  5
1C014
330
1C013
100
AcDbEntity
  8
0
100
AcDbBlockBegin
  2
*D10
 70
     1
 10
0.0
 20
0.0
 30
0.0
  3
*D10
  1

  0
LINE
  5
1C21F
330
1C013
100
AcDbEntity
  8
寸法線
 62
     0
440
 16777216
370
    -2
100
AcDbLine
 10
1202.499991390134
 20
2388.750019850007
 30
0.0
 11
1202.499991390134
 21
2619.999999999998
 31
0.0
  0
LINE
  5
1C220
330
1C013
100
AcDbEntity
  8
寸法線
 62
     0
440
 16777216
370
    -2
100
AcDbLine
 10
2302.499991390134
 20
2388.750001605376
 30
0.0
 11
2302.499991390134
 21
2619.999999999998
 31
0.0
  0
LINE
  5
1C221
330
1C013
100
AcDbEntity
  8
寸法線
 62
     0
440
 16777216
370
    -2
100
AcDbLine
 10
1222.499991390134
 20
2609.999999999998
 30
0.0
 11
2282.499991390134
 21
2609.999999999998
 31
0.0
  0
INSERT
  5
1C222
330
1C013
100
AcDbEntity
  8
寸法線
 62
     0
440
 16777216
370
    -2
100
AcDbBlockReference
  2
_OPEN
 10
1202.499991390134
 20
2609.999999999998
 30
0.0
 41
20.0
 42
20.0
 43
20.0
 50
180.0
  0
INSERT
  5
1C223
330
1C013
100
AcDbEntity
  8
寸法線
 62
     0
440
 16777216
370
    -2
100
AcDbBlockReference
  2
_OPEN
 10
2302.499991390134
 20
2609.999999999998
 30
0.0
 41
20.0
 42
20.0
 43
20.0
  0
MTEXT
  5
1C224
330
1C013
100
AcDbEntity
  8
寸法線
 62
     0
440
 16777216
100
AcDbMText
 10
1752.499991390134
 20
2631.249999999998
 30
0.0
 40
25.0
 41
0.0
 46
0.0
 71
     5
 72
     1
  1
\A1;W=1100
 73
     1
 44
1.0
  0
MTEXT
  5
1C225
330
1C013
100
AcDbEntity
  8
寸法線
 62
     0
440
 16777216
100
AcDbMText
 10
1752.499991390134
 20
2588.749999999998
 30
0.0
 40
25.0
 41
0.0
 46
0.0
 71
     5
 72
     1
  1
\A1;空洞金具
 73
     1
 44
1.0
  0
POINT
  5
1C226
330
1C013
100
AcDbEntity
  8
Defpoints
 62
     0
440
 16777216
100
AcDbPoint
 10
1202.499991390134
 20
2380.000019850007
 30
0.0
  0
POINT
  5
1C227
330
1C013
100
AcDbEntity
  8
Defpoints
 62
     0
440
 16777216
100
AcDbPoint
 10
2302.499991390134
 20
2380.000001605376
 30
0.0
  0
POINT
  5
1C228
330
1C013
100
AcDbEntity
  8
Defpoints
 62
     0
440
 16777216
100
AcDbPoint
 10
2302.499991390134
 20
2609.999999999998
 30
0.0
  0
ENDBLK
  5
1C015
330
1C013
100
AcDbEntity
  8
0
100
AcDbBlockEnd
  0
BLOCK
  5
1C021
330
1C020
100
AcDbEntity
  8
0
100
AcDbBlockBegin
  2
*D11
 70
     1
 10
0.0
 20
0.0
 30
0.0
  3
*D11
  1

  0
LINE
  5
1C229
330
1C020
100
AcDbEntity
  8
寸法線
 62
     0
440
 16777216
370
    -2
100
AcDbLine
 10
702.4999714836094
 20
2372.750037219675
 30
0.0
 11
702.4999714836094
 21
2700.000000000005
 31
0.0
  0
LINE
  5
1C22A
330
1C020
100
AcDbEntity
  8
寸法線
 62
     0
440
 16777216
370
    -2
100
AcDbLine
 10
2802.500011296659
 20
2372.750017369674
 30
0.0
 11
2802.500011296659
 21
2700.000000000005
 31
0.0
  0
LINE
  5
1C22B
330
1C020
100
AcDbEntity
  8
寸法線
 62
     0
440
 16777216
370
    -2
100
AcDbLine
 10
722.4999714836094
 20
2690.000000000004
 30
0.0
 11
2782.500011296659
 21
2690.000000000004
 31
0.0
  0
INSERT
  5
1C22C
330
1C020
100
AcDbEntity
  8
寸法線
 62
     0
440
 16777216
370
    -2
100
AcDbBlockReference
  2
_OPEN
 10
702.4999714836094
 20
2690.000000000004
 30
0.0
 41
20.0
 42
20.0
 43
20.0
 50
180.0
  0
INSERT
  5
1C22D
330
1C020
100
AcDbEntity
  8
寸法線
 62
     0
440
 16777216
370
    -2
100
AcDbBlockReference
  2
_OPEN
 10
2802.500011296659
 20
2690.000000000004
 30
0.0
 41
20.0
 42
20.0
 43
20.0
  0
MTEXT
  5
1C22E
330
1C020
100
AcDbEntity
  8
寸法線
 62
     0
440
 16777216
100
AcDbMText
 10
1752.499991390134
 20
2711.252460629925
 30
0.0
 40
25.0
 41
0.0
 46
0.0
 71
     5
 72
     1
  1
\A1;スルーサーＢ L=2100
 73
     1
 44
1.0
  0
POINT
  5
1C22F
330
1C020
100
AcDbEntity
  8
Defpoints
 62
     0
440
 16777216
100
AcDbPoint
 10
702.4999714836094
 20
2364.000037219675
 30
0.0
  0
POINT
  5
1C230
330
1C020
100
AcDbEntity
  8
Defpoints
 62
     0
440
 16777216
100
AcDbPoint
 10
2802.500011296659
 20
2364.000017369674
 30
0.0
  0
POINT
  5
1C231
330
1C020
100
AcDbEntity
  8
Defpoints
 62
     0
440
 16777216
100
AcDbPoint
 10
2802.500011296659
 20
2690.000000000004
 30
0.0
  0
ENDBLK
  5
1C022
330
1C020
100
AcDbEntity
  8
0
100
AcDbBlockEnd
  0
BLOCK
  5
1C02D
330
1C02C
100
AcDbEntity
  8
0
100
AcDbBlockBegin
  2
*D12
 70
     1
 10
0.0
 20
0.0
 30
0.0
  3
*D12
  1

  0
LINE
  5
1C232
330
1C02C
100
AcDbEntity
  8
寸法線
 62
     0
440
 16777216
370
    -2
100
AcDbLine
 10
2802.500006415172
 20
1461.249968964709
 30
0.0
 11
2802.500002788663
 21
1299.999988755011
 31
0.0
  0
LINE
  5
1C233
330
1C02C
100
AcDbEntity
  8
寸法線
 62
     0
440
 16777216
370
    -2
100
AcDbLine
 10
2302.49993637891
 20
1451.250038922456
 30
0.0
 11
2302.499932977299
 21
1300.000000000005
 31
0.0
  0
LINE
  5
1C234
330
1C02C
100
AcDbEntity
  8
寸法線
 62
     0
440
 16777216
370
    -2
100
AcDbLine
 10
2782.500003013563
 20
1309.99998920481
 30
0.0
 11
2322.4999332022
 21
1309.999999550205
 31
0.0
  0
INSERT
  5
1C235
330
1C02C
100
AcDbEntity
  8
寸法線
 62
     0
440
 16777216
370
    -2
100
AcDbBlockReference
  2
_OPEN
 10
2802.500003013563
 20
1309.99998875501
 30
0.0
 41
20.0
 42
20.0
 43
20.0
 50
359.9999987114188
  0
INSERT
  5
1C236
330
1C02C
100
AcDbEntity
  8
寸法線
 62
     0
440
 16777216
370
    -2
100
AcDbBlockReference
  2
_OPEN
 10
2302.4999332022
 20
1310.000000000005
 30
0.0
 41
20.0
 42
20.0
 43
20.0
 50
179.9999987114188
  0
MTEXT
  5
1C237
330
1C02C
100
AcDbEntity
  8
寸法線
 62
     0
440
 16777216
100
AcDbMText
 10
2552.499971959403
 20
1331.249994377508
 30
0.0
 40
25.0
 41
0.0
 46
0.0
 71
     5
 72
     1
  1
\A1;500
 11
0.9999999999999998
 21
-0.000000022489985
 31
0.0
 73
     1
 44
1.0
  0
POINT
  5
1C238
330
1C02C
100
AcDbEntity
  8
Defpoints
 62
     0
440
 16777216
100
AcDbPoint
 10
2802.50000661196
 20
1469.999968964709
 30
0.0
  0
POINT
  5
1C239
330
1C02C
100
AcDbEntity
  8
Defpoints
 62
     0
440
 16777216
100
AcDbPoint
 10
2302.499936575697
 20
1460.000038922456
 30
0.0
  0
POINT
  5
1C23A
330
1C02C
100
AcDbEntity
  8
Defpoints
 62
     0
440
 16777216
100
AcDbPoint
 10
2302.4999332022
 20
1310.000000000005
 30
0.0
  0
ENDBLK
  5
1C02E
330
1C02C
100
AcDbEntity
  8
0
100
AcDbBlockEnd
  0
BLOCK
  5
1C0A1
330
1C0A0
100
AcDbEntity
  8
0
100
AcDbBlockBegin
  2
*D13
 70
     1
 10
0.0
 20
0.0
 30
0.0
  3
*D13
  1

  0
LINE
  5
1C632
330
1C0A0
100
AcDbEntity
  8
寸法線
 62
     0
440
 16777216
370
    -2
100
AcDbLine
 10
876.1600312187219
 20
616.6324865001415
 30
0.0
 11
876.1600312187219
 21
375.3824865001416
 31
0.0
  0
LINE
  5
1C633
330
1C0A0
100
AcDbEntity
  8
寸法線
 62
     0
440
 16777216
370
    -2
100
AcDbLine
 10
1976.160031218722
 20
616.6324865001415
 30
0.0
 11
1976.160031218722
 21
375.3824865001416
 31
0.0
  0
LINE
  5
1C634
330
1C0A0
100
AcDbEntity
  8
寸法線
 62
     0
440
 16777216
370
    -2
100
AcDbLine
 10
896.160031218722
 20
385.3824865001416
 30
0.0
 11
1956.160031218722
 21
385.3824865001416
 31
0.0
  0
INSERT
  5
1C635
330
1C0A0
100
AcDbEntity
  8
寸法線
 62
     0
440
 16777216
370
    -2
100
AcDbBlockReference
  2
_OPEN
 10
876.1600312187219
 20
385.3824865001416
 30
0.0
 41
20.0
 42
20.0
 43
20.0
 50
180.0
  0
INSERT
  5
1C636
330
1C0A0
100
AcDbEntity
  8
寸法線
 62
     0
440
 16777216
370
    -2
100
AcDbBlockReference
  2
_OPEN
 10
1976.160031218722
 20
385.3824865001416
 30
0.0
 41
20.0
 42
20.0
 43
20.0
  0
MTEXT
  5
1C637
330
1C0A0
100
AcDbEntity
  8
寸法線
 62
     0
440
 16777216
100
AcDbMText
 10
1426.160031218722
 20
406.6324865001416
 30
0.0
 40
25.0
 41
0.0
 46
0.0
 71
     5
 72
     1
  1
\A1;1100
 73
     1
 44
1.0
  0
POINT
  5
1C638
330
1C0A0
100
AcDbEntity
  8
Defpoints
 62
     0
440
 16777216
100
AcDbPoint
 10
876.1600312187219
 20
625.3824865001416
 30
0.0
  0
POINT
  5
1C639
330
1C0A0
100
AcDbEntity
  8
Defpoints
 62
     0
440
 16777216
100
AcDbPoint
 10
1976.160031218722
 20
625.3824865001416
 30
0.0
  0
POINT
  5
1C63A
330
1C0A0
100
AcDbEntity
  8
Defpoints
 62
     0
440
 16777216
100
AcDbPoint
 10
1976.160031218722
 20
385.3824865001416
 30
0.0
  0
ENDBLK
  5
1C0A2
330
1C0A0
100
AcDbEntity
  8
0
100
AcDbBlockEnd
  0
BLOCK
  5
1C0AD
330
1C0AC
100
AcDbEntity
  8
0
100
AcDbBlockBegin
  2
*D14
 70
     1
 10
0.0
 20
0.0
 30
0.0
  3
*D14
  1

  0
LINE
  5
1C63B
330
1C0AC
100
AcDbEntity
  8
寸法線
 62
     0
440
 16777216
370
    -2
100
AcDbLine
 10
924.160031218722
 20
626.6324865001415
 30
0.0
 11
924.160031218722
 21
495.3824865001415
 31
0.0
  0
LINE
  5
1C63C
330
1C0AC
100
AcDbEntity
  8
寸法線
 62
     0
440
 16777216
370
    -2
100
AcDbLine
 10
1928.160031218722
 20
626.6324865001415
 30
0.0
 11
1928.160031218722
 21
495.3824865001415
 31
0.0
  0
LINE
  5
1C63D
330
1C0AC
100
AcDbEntity
  8
寸法線
 62
     0
440
 16777216
370
    -2
100
AcDbLine
 10
944.1600312187219
 20
505.3824865001415
 30
0.0
 11
1908.160031218722
 21
505.3824865001415
 31
0.0
  0
INSERT
  5
1C63E
330
1C0AC
100
AcDbEntity
  8
寸法線
 62
     0
440
 16777216
370
    -2
100
AcDbBlockReference
  2
_OPEN
 10
924.160031218722
 20
505.3824865001415
 30
0.0
 41
20.0
 42
20.0
 43
20.0
 50
180.0
  0
INSERT
  5
1C63F
330
1C0AC
100
AcDbEntity
  8
寸法線
 62
     0
440
 16777216
370
    -2
100
AcDbBlockReference
  2
_OPEN
 10
1928.160031218722
 20
505.3824865001415
 30
0.0
 41
20.0
 42
20.0
 43
20.0
  0
MTEXT
  5
1C640
330
1C0AC
100
AcDbEntity
  8
寸法線
 62
     0
440
 16777216
100
AcDbMText
 10
1426.160031218722
 20
526.6324865001415
 30
0.0
 40
25.0
 41
0.0
 46
0.0
 71
     5
 72
     1
  1
\A1;1004
 73
     1
 44
1.0
  0
POINT
  5
1C641
330
1C0AC
100
AcDbEntity
  8
Defpoints
 62
     0
440
 16777216
100
AcDbPoint
 10
924.160031218722
 20
635.3824865001415
 30
0.0
  0
POINT
  5
1C642
330
1C0AC
100
AcDbEntity
  8
Defpoints
 62
     0
440
 16777216
100
AcDbPoint
 10
1928.160031218722
 20
635.3824865001415
 30
0.0
  0
POINT
  5
1C643
330
1C0AC
100
AcDbEntity
  8
Defpoints
 62
     0
440
 16777216
100
AcDbPoint
 10
1928.160031218722
 20
505.3824865001415
 30
0.0
  0
ENDBLK
  5
1C0AE
330
1C0AC
100
AcDbEntity
  8
0
100
AcDbBlockEnd
  0
BLOCK
  5
1C0B9
330
1C0B8
100
AcDbEntity
  8
0
100
AcDbBlockBegin
  2
*D15
 70
     1
 10
0.0
 20
0.0
 30
0.0
  3
*D15
  1

  0
LINE
  5
1C644
330
1C0B8
100
AcDbEntity
  8
寸法線
 62
     0
440
 16777216
370
    -2
100
AcDbLine
 10
892.1600312187219
 20
616.6325047447799
 30
0.0
 11
892.1600312187219
 21
435.3824865001415
 31
0.0
  0
LINE
  5
1C645
330
1C0B8
100
AcDbEntity
  8
寸法線
 62
     0
440
 16777216
370
    -2
100
AcDbLine
 10
1960.160031218722
 20
616.6325047447799
 30
0.0
 11
1960.160031218722
 21
435.3824865001415
 31
0.0
  0
LINE
  5
1C646
330
1C0B8
100
AcDbEntity
  8
寸法線
 62
     0
440
 16777216
370
    -2
100
AcDbLine
 10
912.160031218722
 20
445.3824865001415
 30
0.0
 11
1940.160031218722
 21
445.3824865001415
 31
0.0
  0
INSERT
  5
1C647
330
1C0B8
100
AcDbEntity
  8
寸法線
 62
     0
440
 16777216
370
    -2
100
AcDbBlockReference
  2
_OPEN
 10
892.1600312187219
 20
445.3824865001415
 30
0.0
 41
20.0
 42
20.0
 43
20.0
 50
180.0
  0
INSERT
  5
1C648
330
1C0B8
100
AcDbEntity
  8
寸法線
 62
     0
440
 16777216
370
    -2
100
AcDbBlockReference
  2
_OPEN
 10
1960.160031218722
 20
445.3824865001415
 30
0.0
 41
20.0
 42
20.0
 43
20.0
  0
MTEXT
  5
1C649
330
1C0B8
100
AcDbEntity
  8
寸法線
 62
     0
440
 16777216
100
AcDbMText
 10
1426.160031218722
 20
466.6324865001415
 30
0.0
 40
25.0
 41
0.0
 46
0.0
 71
     5
 72
     1
  1
\A1;1068
 73
     1
 44
1.0
  0
POINT
  5
1C64A
330
1C0B8
100
AcDbEntity
  8
Defpoints
 62
     0
440
 16777216
100
AcDbPoint
 10
892.1600312187219
 20
625.3825047447799
 30
0.0
  0
POINT
  5
1C64B
330
1C0B8
100
AcDbEntity
  8
Defpoints
 62
     0
440
 16777216
100
AcDbPoint
 10
1960.160031218722
 20
625.3825047447799
 30
0.0
  0
POINT
  5
1C64C
330
1C0B8
100
AcDbEntity
  8
Defpoints
 62
     0
440
 16777216
100
AcDbPoint
 10
1960.160031218722
 20
445.3824865001415
 30
0.0
  0
ENDBLK
  5
1C0BA
330
1C0B8
100
AcDbEntity
  8
0
100
AcDbBlockEnd
  0
BLOCK
  5
1C0C5
330
1C0C4
100
AcDbEntity
  8
0
100
AcDbBlockBegin
  2
*D16
 70
     1
 10
0.0
 20
0.0
 30
0.0
  3
*D16
  1

  0
LINE
  5
1C64D
330
1C0C4
100
AcDbEntity
  8
寸法線
 62
     0
440
 16777216
370
    -2
100
AcDbLine
 10
892.1600312187219
 20
616.6325047447799
 30
0.0
 11
892.1600312187219
 21
495.3824865001415
 31
0.0
  0
LINE
  5
1C64E
330
1C0C4
100
AcDbEntity
  8
寸法線
 62
     0
440
 16777216
370
    -2
100
AcDbLine
 10
924.160031218722
 20
626.6324865001415
 30
0.0
 11
924.160031218722
 21
495.3824865001415
 31
0.0
  0
LINE
  5
1C64F
330
1C0C4
100
AcDbEntity
  8
寸法線
 62
     0
440
 16777216
370
    -2
100
AcDbLine
 10
872.160031218722
 20
505.3824865001415
 30
0.0
 11
852.1600312187219
 21
505.3824865001415
 31
0.0
  0
LINE
  5
1C650
330
1C0C4
100
AcDbEntity
  8
寸法線
 62
     0
440
 16777216
370
    -2
100
AcDbLine
 10
944.1600312187219
 20
505.3824865001415
 30
0.0
 11
964.160031218722
 21
505.3824865001415
 31
0.0
  0
LINE
  5
1C651
330
1C0C4
100
AcDbEntity
  8
寸法線
 62
     0
440
 16777216
370
    -2
100
AcDbLine
 10
892.1600312187219
 20
505.3824865001415
 30
0.0
 11
924.160031218722
 21
505.3824865001415
 31
0.0
  0
INSERT
  5
1C652
330
1C0C4
100
AcDbEntity
  8
寸法線
 62
     0
440
 16777216
370
    -2
100
AcDbBlockReference
  2
_OPEN
 10
892.1600312187219
 20
505.3824865001415
 30
0.0
 41
20.0
 42
20.0
 43
20.0
  0
INSERT
  5
1C653
330
1C0C4
100
AcDbEntity
  8
寸法線
 62
     0
440
 16777216
370
    -2
100
AcDbBlockReference
  2
_OPEN
 10
924.160031218722
 20
505.3824865001415
 30
0.0
 41
20.0
 42
20.0
 43
20.0
 50
180.0
  0
MTEXT
  5
1C654
330
1C0C4
100
AcDbEntity
  8
寸法線
 62
     0
440
 16777216
100
AcDbMText
 10
908.1600312187219
 20
526.6349471300628
 30
0.0
 40
25.0
 41
0.0
 46
0.0
 71
     5
 72
     1
  1
\A1;32
 73
     1
 44
1.0
  0
POINT
  5
1C655
330
1C0C4
100
AcDbEntity
  8
Defpoints
 62
     0
440
 16777216
100
AcDbPoint
 10
892.1600312187219
 20
625.3825047447799
 30
0.0
  0
POINT
  5
1C656
330
1C0C4
100
AcDbEntity
  8
Defpoints
 62
     0
440
 16777216
100
AcDbPoint
 10
924.160031218722
 20
635.3824865001415
 30
0.0
  0
POINT
  5
1C657
330
1C0C4
100
AcDbEntity
  8
Defpoints
 62
     0
440
 16777216
100
AcDbPoint
 10
924.160031218722
 20
505.3824865001415
 30
0.0
  0
ENDBLK
  5
1C0C6
330
1C0C4
100
AcDbEntity
  8
0
100
AcDbBlockEnd
  0
BLOCK
  5
1C0D3
330
1C0D2
100
AcDbEntity
  8
0
100
AcDbBlockBegin
  2
*D17
 70
     1
 10
0.0
 20
0.0
 30
0.0
  3
*D17
  1

  0
LINE
  5
1C658
330
1C0D2
100
AcDbEntity
  8
寸法線
 62
     0
440
 16777216
370
    -2
100
AcDbLine
 10
876.1600312187219
 20
616.6325047447799
 30
0.0
 11
876.1600312187219
 21
435.3824865001415
 31
0.0
  0
LINE
  5
1C659
330
1C0D2
100
AcDbEntity
  8
寸法線
 62
     0
440
 16777216
370
    -2
100
AcDbLine
 10
892.1600312187219
 20
616.6324865001415
 30
0.0
 11
892.1600312187219
 21
435.3824865001415
 31
0.0
  0
LINE
  5
1C65A
330
1C0D2
100
AcDbEntity
  8
寸法線
 62
     0
440
 16777216
370
    -2
100
AcDbLine
 10
856.160031218722
 20
445.3824865001415
 30
0.0
 11
836.1600312187219
 21
445.3824865001415
 31
0.0
  0
LINE
  5
1C65B
330
1C0D2
100
AcDbEntity
  8
寸法線
 62
     0
440
 16777216
370
    -2
100
AcDbLine
 10
912.160031218722
 20
445.3824865001415
 30
0.0
 11
932.160031218722
 21
445.3824865001415
 31
0.0
  0
LINE
  5
1C65C
330
1C0D2
100
AcDbEntity
  8
寸法線
 62
     0
440
 16777216
370
    -2
100
AcDbLine
 10
876.1600312187219
 20
445.3824865001415
 30
0.0
 11
892.1600312187219
 21
445.3824865001415
 31
0.0
  0
INSERT
  5
1C65D
330
1C0D2
100
AcDbEntity
  8
寸法線
 62
     0
440
 16777216
370
    -2
100
AcDbBlockReference
  2
_OPEN
 10
876.1600312187219
 20
445.3824865001415
 30
0.0
 41
20.0
 42
20.0
 43
20.0
  0
INSERT
  5
1C65E
330
1C0D2
100
AcDbEntity
  8
寸法線
 62
     0
440
 16777216
370
    -2
100
AcDbBlockReference
  2
_OPEN
 10
892.1600312187219
 20
445.3824865001415
 30
0.0
 41
20.0
 42
20.0
 43
20.0
 50
180.0
  0
MTEXT
  5
1C65F
330
1C0D2
100
AcDbEntity
  8
寸法線
 62
     0
440
 16777216
100
AcDbMText
 10
884.1600312187219
 20
466.6324865001415
 30
0.0
 40
25.0
 41
0.0
 46
0.0
 71
     5
 72
     1
  1
\A1;16
 73
     1
 44
1.0
  0
POINT
  5
1C660
330
1C0D2
100
AcDbEntity
  8
Defpoints
 62
     0
440
 16777216
100
AcDbPoint
 10
876.1600312187219
 20
625.3825047447799
 30
0.0
  0
POINT
  5
1C661
330
1C0D2
100
AcDbEntity
  8
Defpoints
 62
     0
440
 16777216
100
AcDbPoint
 10
892.1600312187219
 20
625.3824865001416
 30
0.0
  0
POINT
  5
1C662
330
1C0D2
100
AcDbEntity
  8
Defpoints
 62
     0
440
 16777216
100
AcDbPoint
 10
892.1600312187219
 20
445.3824865001415
 30
0.0
  0
ENDBLK
  5
1C0D4
330
1C0D2
100
AcDbEntity
  8
0
100
AcDbBlockEnd
  0
BLOCK
  5
1C0E1
330
1C0E0
100
AcDbEntity
  8
0
100
AcDbBlockBegin
  2
*D18
 70
     1
 10
0.0
 20
0.0
 30
0.0
  3
*D18
  1

  0
LINE
  5
1C663
330
1C0E0
100
AcDbEntity
  8
寸法線
 62
     0
440
 16777216
370
    -2
100
AcDbLine
 10
1960.160031218722
 20
596.6324865001415
 30
0.0
 11
1960.160031218722
 21
435.3824865001415
 31
0.0
  0
LINE
  5
1C664
330
1C0E0
100
AcDbEntity
  8
寸法線
 62
     0
440
 16777216
370
    -2
100
AcDbLine
 10
1976.160031218722
 20
616.6324865001415
 30
0.0
 11
1976.160031218722
 21
435.3824865001415
 31
0.0
  0
LINE
  5
1C665
330
1C0E0
100
AcDbEntity
  8
寸法線
 62
     0
440
 16777216
370
    -2
100
AcDbLine
 10
1940.160031218722
 20
445.3824865001415
 30
0.0
 11
1920.160031218722
 21
445.3824865001415
 31
0.0
  0
LINE
  5
1C666
330
1C0E0
100
AcDbEntity
  8
寸法線
 62
     0
440
 16777216
370
    -2
100
AcDbLine
 10
1996.160031218722
 20
445.3824865001415
 30
0.0
 11
2016.160031218722
 21
445.3824865001415
 31
0.0
  0
LINE
  5
1C667
330
1C0E0
100
AcDbEntity
  8
寸法線
 62
     0
440
 16777216
370
    -2
100
AcDbLine
 10
1960.160031218722
 20
445.3824865001415
 30
0.0
 11
1976.160031218722
 21
445.3824865001415
 31
0.0
  0
INSERT
  5
1C668
330
1C0E0
100
AcDbEntity
  8
寸法線
 62
     0
440
 16777216
370
    -2
100
AcDbBlockReference
  2
_OPEN
 10
1960.160031218722
 20
445.3824865001415
 30
0.0
 41
20.0
 42
20.0
 43
20.0
  0
INSERT
  5
1C669
330
1C0E0
100
AcDbEntity
  8
寸法線
 62
     0
440
 16777216
370
    -2
100
AcDbBlockReference
  2
_OPEN
 10
1976.160031218722
 20
445.3824865001415
 30
0.0
 41
20.0
 42
20.0
 43
20.0
 50
180.0
  0
MTEXT
  5
1C66A
330
1C0E0
100
AcDbEntity
  8
寸法線
 62
     0
440
 16777216
100
AcDbMText
 10
1968.160031218722
 20
466.6324865001415
 30
0.0
 40
25.0
 41
0.0
 46
0.0
 71
     5
 72
     1
  1
\A1;16
 73
     1
 44
1.0
  0
POINT
  5
1C66B
330
1C0E0
100
AcDbEntity
  8
Defpoints
 62
     0
440
 16777216
100
AcDbPoint
 10
1960.160031218722
 20
605.3824865001415
 30
0.0
  0
POINT
  5
1C66C
330
1C0E0
100
AcDbEntity
  8
Defpoints
 62
     0
440
 16777216
100
AcDbPoint
 10
1976.160031218722
 20
625.3824865001416
 30
0.0
  0
POINT
  5
1C66D
330
1C0E0
100
AcDbEntity
  8
Defpoints
 62
     0
440
 16777216
100
AcDbPoint
 10
1976.160031218722
 20
445.3824865001415
 30
0.0
  0
ENDBLK
  5
1C0E2
330
1C0E0
100
AcDbEntity
  8
0
100
AcDbBlockEnd
  0
BLOCK
  5
1C0EF
330
1C0EE
100
AcDbEntity
  8
0
100
AcDbBlockBegin
  2
*D19
 70
     1
 10
0.0
 20
0.0
 30
0.0
  3
*D19
  1

  0
LINE
  5
1C66E
330
1C0EE
100
AcDbEntity
  8
寸法線
 62
     0
440
 16777216
370
    -2
100
AcDbLine
 10
1863.666586930224
 20
885.3824865001421
 30
0.0
 11
1862.416586930223
 21
885.3824865001421
 31
0.0
  0
LINE
  5
1C66F
330
1C0EE
100
AcDbEntity
  8
寸法線
 62
     0
440
 16777216
370
    -2
100
AcDbLine
 10
1863.666586930224
 20
935.3824865001421
 30
0.0
 11
1862.416586930223
 21
935.3824865001421
 31
0.0
  0
LINE
  5
1C670
330
1C0EE
100
AcDbEntity
  8
寸法線
 62
     0
440
 16777216
370
    -2
100
AcDbLine
 10
1872.416586930224
 20
865.382486500142
 30
0.0
 11
1872.416586930224
 21
845.382486500142
 31
0.0
  0
LINE
  5
1C671
330
1C0EE
100
AcDbEntity
  8
寸法線
 62
     0
440
 16777216
370
    -2
100
AcDbLine
 10
1872.416586930224
 20
955.382486500142
 30
0.0
 11
1872.416586930224
 21
975.3824865001419
 31
0.0
  0
LINE
  5
1C672
330
1C0EE
100
AcDbEntity
  8
寸法線
 62
     0
440
 16777216
370
    -2
100
AcDbLine
 10
1872.416586930224
 20
885.3824865001421
 30
0.0
 11
1872.416586930224
 21
935.3824865001421
 31
0.0
  0
INSERT
  5
1C673
330
1C0EE
100
AcDbEntity
  8
寸法線
 62
     0
440
 16777216
370
    -2
100
AcDbBlockReference
  2
_OPEN
 10
1872.416586930224
 20
885.3824865001421
 30
0.0
 41
20.0
 42
20.0
 43
20.0
 50
90.0
  0
INSERT
  5
1C674
330
1C0EE
100
AcDbEntity
  8
寸法線
 62
     0
440
 16777216
370
    -2
100
AcDbBlockReference
  2
_OPEN
 10
1872.416586930224
 20
935.3824865001421
 30
0.0
 41
20.0
 42
20.0
 43
20.0
 50
270.0
  0
MTEXT
  5
1C675
330
1C0EE
100
AcDbEntity
  8
寸法線
 62
     0
440
 16777216
100
AcDbMText
 10
1851.166586930223
 20
910.3824865001412
 30
0.0
 40
25.0
 41
0.0
 46
0.0
 71
     5
 72
     1
  1
\A1;%%C50
 11
0.0000000000000001
 21
1.0
 31
0.0
 73
     1
 44
1.0
  0
POINT
  5
1C676
330
1C0EE
100
AcDbEntity
  8
Defpoints
 62
     0
440
 16777216
100
AcDbPoint
 10
1872.416586930224
 20
885.3824865001421
 30
0.0
  0
POINT
  5
1C677
330
1C0EE
100
AcDbEntity
  8
Defpoints
 62
     0
440
 16777216
100
AcDbPoint
 10
1872.416586930224
 20
935.3824865001421
 30
0.0
  0
POINT
  5
1C678
330
1C0EE
100
AcDbEntity
  8
Defpoints
 62
     0
440
 16777216
100
AcDbPoint
 10
1872.416586930224
 20
935.3824865001421
 30
0.0
  0
ENDBLK
  5
1C0F0
330
1C0EE
100
AcDbEntity
  8
0
100
AcDbBlockEnd
  0
BLOCK
  5
1C0FD
330
1C0FC
100
AcDbEntity
  8
0
100
AcDbBlockBegin
  2
*D20
 70
     1
 10
0.0
 20
0.0
 30
0.0
  3
*D20
  1

  0
LINE
  5
1C679
330
1C0FC
100
AcDbEntity
  8
寸法線
 62
     0
440
 16777216
370
    -2
100
AcDbLine
 10
1284.160031218722
 20
974.1324865001415
 30
0.0
 11
1284.160031218722
 21
1075.382486500141
 31
0.0
  0
LINE
  5
1C67A
330
1C0FC
100
AcDbEntity
  8
寸法線
 62
     0
440
 16777216
370
    -2
100
AcDbLine
 10
1568.160031218722
 20
974.13250474478
 30
0.0
 11
1568.160031218722
 21
1075.382486500141
 31
0.0
  0
LINE
  5
1C67B
330
1C0FC
100
AcDbEntity
  8
寸法線
 62
     0
440
 16777216
370
    -2
100
AcDbLine
 10
1304.160031218722
 20
1065.382486500142
 30
0.0
 11
1548.160031218722
 21
1065.382486500142
 31
0.0
  0
INSERT
  5
1C67C
330
1C0FC
100
AcDbEntity
  8
寸法線
 62
     0
440
 16777216
370
    -2
100
AcDbBlockReference
  2
_OPEN
 10
1284.160031218722
 20
1065.382486500142
 30
0.0
 41
20.0
 42
20.0
 43
20.0
 50
180.0
  0
INSERT
  5
1C67D
330
1C0FC
100
AcDbEntity
  8
寸法線
 62
     0
440
 16777216
370
    -2
100
AcDbBlockReference
  2
_OPEN
 10
1568.160031218722
 20
1065.382486500142
 30
0.0
 41
20.0
 42
20.0
 43
20.0
  0
MTEXT
  5
1C67E
330
1C0FC
100
AcDbEntity
  8
寸法線
 62
     0
440
 16777216
100
AcDbMText
 10
1426.160031218722
 20
1086.634947130063
 30
0.0
 40
25.0
 41
0.0
 46
0.0
 71
     5
 72
     1
  1
\A1;284
 73
     1
 44
1.0
  0
POINT
  5
1C67F
330
1C0FC
100
AcDbEntity
  8
Defpoints
 62
     0
440
 16777216
100
AcDbPoint
 10
1284.160031218722
 20
965.3824865001416
 30
0.0
  0
POINT
  5
1C680
330
1C0FC
100
AcDbEntity
  8
Defpoints
 62
     0
440
 16777216
100
AcDbPoint
 10
1568.160031218722
 20
965.3825047447799
 30
0.0
  0
POINT
  5
1C681
330
1C0FC
100
AcDbEntity
  8
Defpoints
 62
     0
440
 16777216
100
AcDbPoint
 10
1568.160031218722
 20
1065.382486500142
 30
0.0
  0
ENDBLK
  5
1C0FE
330
1C0FC
100
AcDbEntity
  8
0
100
AcDbBlockEnd
  0
BLOCK
  5
1C109
330
1C108
100
AcDbEntity
  8
0
100
AcDbBlockBegin
  2
*D21
 70
     1
 10
0.0
 20
0.0
 30
0.0
  3
*D21
  1

  0
LINE
  5
1C682
330
1C108
100
AcDbEntity
  8
寸法線
 62
     0
440
 16777216
370
    -2
100
AcDbLine
 10
1568.160031218722
 20
974.13250474478
 30
0.0
 11
1568.160031218722
 21
1075.382486500141
 31
0.0
  0
LINE
  5
1C683
330
1C108
100
AcDbEntity
  8
寸法線
 62
     0
440
 16777216
370
    -2
100
AcDbLine
 10
1584.160031218722
 20
974.1324865001415
 30
0.0
 11
1584.160031218722
 21
1075.382486500141
 31
0.0
  0
LINE
  5
1C684
330
1C108
100
AcDbEntity
  8
寸法線
 62
     0
440
 16777216
370
    -2
100
AcDbLine
 10
1548.160031218722
 20
1065.382486500142
 30
0.0
 11
1528.160031218722
 21
1065.382486500142
 31
0.0
  0
LINE
  5
1C685
330
1C108
100
AcDbEntity
  8
寸法線
 62
     0
440
 16777216
370
    -2
100
AcDbLine
 10
1604.160031218722
 20
1065.382486500142
 30
0.0
 11
1624.160031218722
 21
1065.382486500142
 31
0.0
  0
LINE
  5
1C686
330
1C108
100
AcDbEntity
  8
寸法線
 62
     0
440
 16777216
370
    -2
100
AcDbLine
 10
1568.160031218722
 20
1065.382486500142
 30
0.0
 11
1584.160031218722
 21
1065.382486500142
 31
0.0
  0
INSERT
  5
1C687
330
1C108
100
AcDbEntity
  8
寸法線
 62
     0
440
 16777216
370
    -2
100
AcDbBlockReference
  2
_OPEN
 10
1568.160031218722
 20
1065.382486500142
 30
0.0
 41
20.0
 42
20.0
 43
20.0
  0
INSERT
  5
1C688
330
1C108
100
AcDbEntity
  8
寸法線
 62
     0
440
 16777216
370
    -2
100
AcDbBlockReference
  2
_OPEN
 10
1584.160031218722
 20
1065.382486500142
 30
0.0
 41
20.0
 42
20.0
 43
20.0
 50
180.0
  0
MTEXT
  5
1C689
330
1C108
100
AcDbEntity
  8
寸法線
 62
     0
440
 16777216
100
AcDbMText
 10
1576.160031218722
 20
1086.632486500141
 30
0.0
 40
25.0
 41
0.0
 46
0.0
 71
     5
 72
     1
  1
\A1;16
 73
     1
 44
1.0
  0
POINT
  5
1C68A
330
1C108
100
AcDbEntity
  8
Defpoints
 62
     0
440
 16777216
100
AcDbPoint
 10
1568.160031218722
 20
965.3825047447799
 30
0.0
  0
POINT
  5
1C68B
330
1C108
100
AcDbEntity
  8
Defpoints
 62
     0
440
 16777216
100
AcDbPoint
 10
1584.160031218722
 20
965.3824865001416
 30
0.0
  0
POINT
  5
1C68C
330
1C108
100
AcDbEntity
  8
Defpoints
 62
     0
440
 16777216
100
AcDbPoint
 10
1584.160031218722
 20
1065.382486500142
 30
0.0
  0
ENDBLK
  5
1C10A
330
1C108
100
AcDbEntity
  8
0
100
AcDbBlockEnd
  0
BLOCK
  5
1C117
330
1C116
100
AcDbEntity
  8
0
100
AcDbBlockBegin
  2
*D22
 70
     1
 10
0.0
 20
0.0
 30
0.0
  3
*D22
  1

  0
LINE
  5
1C68D
330
1C116
100
AcDbEntity
  8
寸法線
 62
     0
440
 16777216
370
    -2
100
AcDbLine
 10
1584.160031218722
 20
974.1324865001415
 30
0.0
 11
1584.160031218722
 21
1075.382486500141
 31
0.0
  0
LINE
  5
1C68E
330
1C116
100
AcDbEntity
  8
寸法線
 62
     0
440
 16777216
370
    -2
100
AcDbLine
 10
1960.160031218722
 20
954.1325047447799
 30
0.0
 11
1960.160031218722
 21
1075.382486500141
 31
0.0
  0
LINE
  5
1C68F
330
1C116
100
AcDbEntity
  8
寸法線
 62
     0
440
 16777216
370
    -2
100
AcDbLine
 10
1604.160031218722
 20
1065.382486500142
 30
0.0
 11
1940.160031218722
 21
1065.382486500142
 31
0.0
  0
INSERT
  5
1C690
330
1C116
100
AcDbEntity
  8
寸法線
 62
     0
440
 16777216
370
    -2
100
AcDbBlockReference
  2
_OPEN
 10
1584.160031218722
 20
1065.382486500142
 30
0.0
 41
20.0
 42
20.0
 43
20.0
 50
180.0
  0
INSERT
  5
1C691
330
1C116
100
AcDbEntity
  8
寸法線
 62
     0
440
 16777216
370
    -2
100
AcDbBlockReference
  2
_OPEN
 10
1960.160031218722
 20
1065.382486500142
 30
0.0
 41
20.0
 42
20.0
 43
20.0
  0
MTEXT
  5
1C692
330
1C116
100
AcDbEntity
  8
寸法線
 62
     0
440
 16777216
100
AcDbMText
 10
1772.160031218722
 20
1086.632486500141
 30
0.0
 40
25.0
 41
0.0
 46
0.0
 71
     5
 72
     1
  1
\A1;376
 73
     1
 44
1.0
  0
POINT
  5
1C693
330
1C116
100
AcDbEntity
  8
Defpoints
 62
     0
440
 16777216
100
AcDbPoint
 10
1584.160031218722
 20
965.3824865001416
 30
0.0
  0
POINT
  5
1C694
330
1C116
100
AcDbEntity
  8
Defpoints
 62
     0
440
 16777216
100
AcDbPoint
 10
1960.160031218722
 20
945.3825047447798
 30
0.0
  0
POINT
  5
1C695
330
1C116
100
AcDbEntity
  8
Defpoints
 62
     0
440
 16777216
100
AcDbPoint
 10
1960.160031218722
 20
1065.382486500142
 30
0.0
  0
ENDBLK
  5
1C118
330
1C116
100
AcDbEntity
  8
0
100
AcDbBlockEnd
  0
BLOCK
  5
1C123
330
1C122
100
AcDbEntity
  8
0
100
AcDbBlockBegin
  2
*D23
 70
     1
 10
0.0
 20
0.0
 30
0.0
  3
*D23
  1

  0
LINE
  5
1C696
330
1C122
100
AcDbEntity
  8
寸法線
 62
     0
440
 16777216
370
    -2
100
AcDbLine
 10
892.1600312187219
 20
954.1324865001415
 30
0.0
 11
892.1600312187219
 21
1075.382486500141
 31
0.0
  0
LINE
  5
1C697
330
1C122
100
AcDbEntity
  8
寸法線
 62
     0
440
 16777216
370
    -2
100
AcDbLine
 10
1268.160031218722
 20
974.13250474478
 30
0.0
 11
1268.160031218722
 21
1075.382486500141
 31
0.0
  0
LINE
  5
1C698
330
1C122
100
AcDbEntity
  8
寸法線
 62
     0
440
 16777216
370
    -2
100
AcDbLine
 10
912.160031218722
 20
1065.382486500142
 30
0.0
 11
1248.160031218722
 21
1065.382486500142
 31
0.0
  0
INSERT
  5
1C699
330
1C122
100
AcDbEntity
  8
寸法線
 62
     0
440
 16777216
370
    -2
100
AcDbBlockReference
  2
_OPEN
 10
892.1600312187219
 20
1065.382486500142
 30
0.0
 41
20.0
 42
20.0
 43
20.0
 50
180.0
  0
INSERT
  5
1C69A
330
1C122
100
AcDbEntity
  8
寸法線
 62
     0
440
 16777216
370
    -2
100
AcDbBlockReference
  2
_OPEN
 10
1268.160031218722
 20
1065.382486500142
 30
0.0
 41
20.0
 42
20.0
 43
20.0
  0
MTEXT
  5
1C69B
330
1C122
100
AcDbEntity
  8
寸法線
 62
     0
440
 16777216
100
AcDbMText
 10
1080.160031218722
 20
1086.632486500141
 30
0.0
 40
25.0
 41
0.0
 46
0.0
 71
     5
 72
     1
  1
\A1;376
 73
     1
 44
1.0
  0
POINT
  5
1C69C
330
1C122
100
AcDbEntity
  8
Defpoints
 62
     0
440
 16777216
100
AcDbPoint
 10
892.1600312187219
 20
945.3824865001415
 30
0.0
  0
POINT
  5
1C69D
330
1C122
100
AcDbEntity
  8
Defpoints
 62
     0
440
 16777216
100
AcDbPoint
 10
1268.160031218722
 20
965.3825047447799
 30
0.0
  0
POINT
  5
1C69E
330
1C122
100
AcDbEntity
  8
Defpoints
 62
     0
440
 16777216
100
AcDbPoint
 10
1268.160031218722
 20
1065.382486500142
 30
0.0
  0
ENDBLK
  5
1C124
330
1C122
100
AcDbEntity
  8
0
100
AcDbBlockEnd
  0
BLOCK
  5
1C12F
330
1C12E
100
AcDbEntity
  8
0
100
AcDbBlockBegin
  2
*D24
 70
     1
 10
0.0
 20
0.0
 30
0.0
  3
*D24
  1

  0
LINE
  5
1C69F
330
1C12E
100
AcDbEntity
  8
寸法線
 62
     0
440
 16777216
370
    -2
100
AcDbLine
 10
1268.160031218722
 20
974.13250474478
 30
0.0
 11
1268.160031218722
 21
1075.382486500141
 31
0.0
  0
LINE
  5
1C6A0
330
1C12E
100
AcDbEntity
  8
寸法線
 62
     0
440
 16777216
370
    -2
100
AcDbLine
 10
1284.160031218722
 20
974.1324865001415
 30
0.0
 11
1284.160031218722
 21
1075.382486500141
 31
0.0
  0
LINE
  5
1C6A1
330
1C12E
100
AcDbEntity
  8
寸法線
 62
     0
440
 16777216
370
    -2
100
AcDbLine
 10
1248.160031218722
 20
1065.382486500142
 30
0.0
 11
1228.160031218722
 21
1065.382486500142
 31
0.0
  0
LINE
  5
1C6A2
330
1C12E
100
AcDbEntity
  8
寸法線
 62
     0
440
 16777216
370
    -2
100
AcDbLine
 10
1304.160031218722
 20
1065.382486500142
 30
0.0
 11
1324.160031218722
 21
1065.382486500142
 31
0.0
  0
LINE
  5
1C6A3
330
1C12E
100
AcDbEntity
  8
寸法線
 62
     0
440
 16777216
370
    -2
100
AcDbLine
 10
1268.160031218722
 20
1065.382486500142
 30
0.0
 11
1284.160031218722
 21
1065.382486500142
 31
0.0
  0
INSERT
  5
1C6A4
330
1C12E
100
AcDbEntity
  8
寸法線
 62
     0
440
 16777216
370
    -2
100
AcDbBlockReference
  2
_OPEN
 10
1268.160031218722
 20
1065.382486500142
 30
0.0
 41
20.0
 42
20.0
 43
20.0
  0
INSERT
  5
1C6A5
330
1C12E
100
AcDbEntity
  8
寸法線
 62
     0
440
 16777216
370
    -2
100
AcDbBlockReference
  2
_OPEN
 10
1284.160031218722
 20
1065.382486500142
 30
0.0
 41
20.0
 42
20.0
 43
20.0
 50
180.0
  0
MTEXT
  5
1C6A6
330
1C12E
100
AcDbEntity
  8
寸法線
 62
     0
440
 16777216
100
AcDbMText
 10
1276.160031218722
 20
1086.632486500141
 30
0.0
 40
25.0
 41
0.0
 46
0.0
 71
     5
 72
     1
  1
\A1;16
 73
     1
 44
1.0
  0
POINT
  5
1C6A7
330
1C12E
100
AcDbEntity
  8
Defpoints
 62
     0
440
 16777216
100
AcDbPoint
 10
1268.160031218722
 20
965.3825047447799
 30
0.0
  0
POINT
  5
1C6A8
330
1C12E
100
AcDbEntity
  8
Defpoints
 62
     0
440
 16777216
100
AcDbPoint
 10
1284.160031218722
 20
965.3824865001416
 30
0.0
  0
POINT
  5
1C6A9
330
1C12E
100
AcDbEntity
  8
Defpoints
 62
     0
440
 16777216
100
AcDbPoint
 10
1284.160031218722
 20
1065.382486500142
 30
0.0
  0
ENDBLK
  5
1C130
330
1C12E
100
AcDbEntity
  8
0
100
AcDbBlockEnd
  0
BLOCK
  5
1C149
330
1C148
100
AcDbEntity
  8
0
100
AcDbBlockBegin
  2
*D25
 70
     1
 10
0.0
 20
0.0
 30
0.0
  3
*D25
  1

  0
LINE
  5
1C6B3
330
1C148
100
AcDbEntity
  8
寸法線
 62
     0
440
 16777216
370
    -2
100
AcDbLine
 10
1960.160031218722
 20
616.6325047447799
 30
0.0
 11
1960.160031218722
 21
495.3824865001415
 31
0.0
  0
LINE
  5
1C6B4
330
1C148
100
AcDbEntity
  8
寸法線
 62
     0
440
 16777216
370
    -2
100
AcDbLine
 10
1928.160031218722
 20
626.6324865001415
 30
0.0
 11
1928.160031218722
 21
495.3824865001415
 31
0.0
  0
LINE
  5
1C6B5
330
1C148
100
AcDbEntity
  8
寸法線
 62
     0
440
 16777216
370
    -2
100
AcDbLine
 10
1980.160031218722
 20
505.3824865001415
 30
0.0
 11
2000.160031218722
 21
505.3824865001415
 31
0.0
  0
LINE
  5
1C6B6
330
1C148
100
AcDbEntity
  8
寸法線
 62
     0
440
 16777216
370
    -2
100
AcDbLine
 10
1908.160031218722
 20
505.3824865001415
 30
0.0
 11
1888.160031218722
 21
505.3824865001415
 31
0.0
  0
LINE
  5
1C6B7
330
1C148
100
AcDbEntity
  8
寸法線
 62
     0
440
 16777216
370
    -2
100
AcDbLine
 10
1960.160031218722
 20
505.3824865001415
 30
0.0
 11
1928.160031218722
 21
505.3824865001415
 31
0.0
  0
INSERT
  5
1C6B8
330
1C148
100
AcDbEntity
  8
寸法線
 62
     0
440
 16777216
370
    -2
100
AcDbBlockReference
  2
_OPEN
 10
1960.160031218722
 20
505.3824865001415
 30
0.0
 41
20.0
 42
20.0
 43
20.0
 50
180.0
  0
INSERT
  5
1C6B9
330
1C148
100
AcDbEntity
  8
寸法線
 62
     0
440
 16777216
370
    -2
100
AcDbBlockReference
  2
_OPEN
 10
1928.160031218722
 20
505.3824865001415
 30
0.0
 41
20.0
 42
20.0
 43
20.0
  0
MTEXT
  5
1C6BA
330
1C148
100
AcDbEntity
  8
寸法線
 62
     0
440
 16777216
100
AcDbMText
 10
1944.160031218722
 20
526.6349471300628
 30
0.0
 40
25.0
 41
0.0
 46
0.0
 71
     5
 72
     1
  1
\A1;32
 73
     1
 44
1.0
  0
POINT
  5
1C6BB
330
1C148
100
AcDbEntity
  8
Defpoints
 62
     0
440
 16777216
100
AcDbPoint
 10
1960.160031218722
 20
625.3825047447799
 30
0.0
  0
POINT
  5
1C6BC
330
1C148
100
AcDbEntity
  8
Defpoints
 62
     0
440
 16777216
100
AcDbPoint
 10
1928.160031218722
 20
635.3824865001415
 30
0.0
  0
POINT
  5
1C6BD
330
1C148
100
AcDbEntity
  8
Defpoints
 62
     0
440
 16777216
100
AcDbPoint
 10
1928.160031218722
 20
505.3824865001415
 30
0.0
  0
ENDBLK
  5
1C14A
330
1C148
100
AcDbEntity
  8
0
100
AcDbBlockEnd
  0
BLOCK
  5
1C157
330
1C156
100
AcDbEntity
  8
0
100
AcDbBlockBegin
  2
*D26
 70
     1
 10
0.0
 20
0.0
 30
0.0
  3
*D26
  1

  0
LINE
  5
1C6BE
330
1C156
100
AcDbEntity
  8
寸法線
 62
     0
440
 16777216
370
    -2
100
AcDbLine
 10
396.1601667878568
 20
616.6325047447507
 30
0.0
 11
396.1601667878568
 21
495.3825047447508
 31
0.0
  0
LINE
  5
1C6BF
330
1C156
100
AcDbEntity
  8
寸法線
 62
     0
440
 16777216
370
    -2
100
AcDbLine
 10
716.1601667878567
 20
616.6325047447507
 30
0.0
 11
716.1601667878567
 21
495.3825047447508
 31
0.0
  0
LINE
  5
1C6C0
330
1C156
100
AcDbEntity
  8
寸法線
 62
     0
440
 16777216
370
    -2
100
AcDbLine
 10
416.1601667878567
 20
505.3825047447507
 30
0.0
 11
696.1601667878567
 21
505.3825047447507
 31
0.0
  0
INSERT
  5
1C6C1
330
1C156
100
AcDbEntity
  8
寸法線
 62
     0
440
 16777216
370
    -2
100
AcDbBlockReference
  2
_OPEN
 10
396.1601667878568
 20
505.3825047447507
 30
0.0
 41
20.0
 42
20.0
 43
20.0
 50
180.0
  0
INSERT
  5
1C6C2
330
1C156
100
AcDbEntity
  8
寸法線
 62
     0
440
 16777216
370
    -2
100
AcDbBlockReference
  2
_OPEN
 10
716.1601667878567
 20
505.3825047447507
 30
0.0
 41
20.0
 42
20.0
 43
20.0
  0
MTEXT
  5
1C6C3
330
1C156
100
AcDbEntity
  8
寸法線
 62
     0
440
 16777216
100
AcDbMText
 10
556.1601667878567
 20
526.6349653746721
 30
0.0
 40
25.0
 41
0.0
 46
0.0
 71
     5
 72
     1
  1
\A1;320
 73
     1
 44
1.0
  0
POINT
  5
1C6C4
330
1C156
100
AcDbEntity
  8
Defpoints
 62
     0
440
 16777216
100
AcDbPoint
 10
396.1601667878568
 20
625.3825047447508
 30
0.0
  0
POINT
  5
1C6C5
330
1C156
100
AcDbEntity
  8
Defpoints
 62
     0
440
 16777216
100
AcDbPoint
 10
716.1601667878567
 20
625.3825047447508
 30
0.0
  0
POINT
  5
1C6C6
330
1C156
100
AcDbEntity
  8
Defpoints
 62
     0
440
 16777216
100
AcDbPoint
 10
716.1601667878567
 20
505.3825047447507
 30
0.0
  0
ENDBLK
  5
1C158
330
1C156
100
AcDbEntity
  8
0
100
AcDbBlockEnd
  0
BLOCK
  5
1C163
330
1C162
100
AcDbEntity
  8
0
100
AcDbBlockBegin
  2
*D27
 70
     1
 10
0.0
 20
0.0
 30
0.0
  3
*D27
  1

  0
LINE
  5
1C6C7
330
1C162
100
AcDbEntity
  8
寸法線
 62
     0
440
 16777216
370
    -2
100
AcDbLine
 10
387.4101028196167
 20
625.382504744751
 30
0.0
 11
266.1601028196163
 21
625.382504744751
 31
0.0
  0
LINE
  5
1C6C8
330
1C162
100
AcDbEntity
  8
寸法線
 62
     0
440
 16777216
370
    -2
100
AcDbLine
 10
387.4101028196167
 20
945.3825047447512
 30
0.0
 11
266.1601028196162
 21
945.3825047447512
 31
0.0
  0
LINE
  5
1C6C9
330
1C162
100
AcDbEntity
  8
寸法線
 62
     0
440
 16777216
370
    -2
100
AcDbLine
 10
276.1601028196163
 20
645.382504744751
 30
0.0
 11
276.1601028196162
 21
925.3825047447513
 31
0.0
  0
INSERT
  5
1C6CA
330
1C162
100
AcDbEntity
  8
寸法線
 62
     0
440
 16777216
370
    -2
100
AcDbBlockReference
  2
_OPEN
 10
276.1601028196163
 20
625.382504744751
 30
0.0
 41
20.0
 42
20.0
 43
20.0
 50
270.0
  0
INSERT
  5
1C6CB
330
1C162
100
AcDbEntity
  8
寸法線
 62
     0
440
 16777216
370
    -2
100
AcDbBlockReference
  2
_OPEN
 10
276.1601028196162
 20
945.3825047447512
 30
0.0
 41
20.0
 42
20.0
 43
20.0
 50
90.0
  0
MTEXT
  5
1C6CC
330
1C162
100
AcDbEntity
  8
寸法線
 62
     0
440
 16777216
100
AcDbMText
 10
254.9076421896952
 20
785.3825047447508
 30
0.0
 40
25.0
 41
0.0
 46
0.0
 71
     5
 72
     1
  1
\A1;320
 11
0.0000000000000001
 21
1.0
 31
0.0
 73
     1
 44
1.0
  0
POINT
  5
1C6CD
330
1C162
100
AcDbEntity
  8
Defpoints
 62
     0
440
 16777216
100
AcDbPoint
 10
396.1601028196167
 20
625.382504744751
 30
0.0
  0
POINT
  5
1C6CE
330
1C162
100
AcDbEntity
  8
Defpoints
 62
     0
440
 16777216
100
AcDbPoint
 10
396.1601028196167
 20
945.3825047447512
 30
0.0
  0
POINT
  5
1C6CF
330
1C162
100
AcDbEntity
  8
Defpoints
 62
     0
440
 16777216
100
AcDbPoint
 10
276.1601028196162
 20
945.3825047447512
 30
0.0
  0
ENDBLK
  5
1C164
330
1C162
100
AcDbEntity
  8
0
100
AcDbBlockEnd
  0
BLOCK
  5
1C16F
330
1C16E
100
AcDbEntity
  8
0
100
AcDbBlockBegin
  2
*D28
 70
     1
 10
0.0
 20
0.0
 30
0.0
  3
*D28
  1

  0
LINE
  5
1C329
330
1C16E
100
AcDbEntity
  8
寸法線
 62
     0
440
 16777216
370
    -2
100
AcDbLine
 10
2802.500011296659
 20
2372.750037219683
 30
0.0
 11
2802.500011296659
 21
2620.000000000003
 31
0.0
  0
LINE
  5
1C32A
330
1C16E
100
AcDbEntity
  8
寸法線
 62
     0
440
 16777216
370
    -2
100
AcDbLine
 10
2302.499991390134
 20
2388.750019850007
 30
0.0
 11
2302.499991390134
 21
2620.000000000003
 31
0.0
  0
LINE
  5
1C32B
330
1C16E
100
AcDbEntity
  8
寸法線
 62
     0
440
 16777216
370
    -2
100
AcDbLine
 10
2782.500011296659
 20
2610.000000000003
 30
0.0
 11
2322.499991390134
 21
2610.000000000003
 31
0.0
  0
INSERT
  5
1C32C
330
1C16E
100
AcDbEntity
  8
寸法線
 62
     0
440
 16777216
370
    -2
100
AcDbBlockReference
  2
_OPEN
 10
2802.500011296659
 20
2610.000000000003
 30
0.0
 41
20.0
 42
20.0
 43
20.0
  0
INSERT
  5
1C32D
330
1C16E
100
AcDbEntity
  8
寸法線
 62
     0
440
 16777216
370
    -2
100
AcDbBlockReference
  2
_OPEN
 10
2302.499991390134
 20
2610.000000000003
 30
0.0
 41
20.0
 42
20.0
 43
20.0
 50
180.0
  0
MTEXT
  5
1C32E
330
1C16E
100
AcDbEntity
  8
寸法線
 62
     0
440
 16777216
100
AcDbMText
 10
2552.499993842701
 20
2631.250000000003
 30
0.0
 40
25.0
 41
0.0
 46
0.0
 71
     5
 72
     1
  1
\A1;500
 73
     1
 44
1.0
  0
MTEXT
  5
1C32F
330
1C16E
100
AcDbEntity
  8
寸法線
 62
     0
440
 16777216
100
AcDbMText
 10
2552.499993842701
 20
2588.750000000003
 30
0.0
 40
25.0
 41
0.0
 46
0.0
 71
     5
 72
     1
  1
\A1;H型鋼（連結部）
 73
     1
 44
1.0
  0
POINT
  5
1C330
330
1C16E
100
AcDbEntity
  8
Defpoints
 62
     0
440
 16777216
100
AcDbPoint
 10
2802.500011296659
 20
2364.000037219682
 30
0.0
  0
POINT
  5
1C331
330
1C16E
100
AcDbEntity
  8
Defpoints
 62
     0
440
 16777216
100
AcDbPoint
 10
2302.499991390134
 20
2380.000019850007
 30
0.0
  0
POINT
  5
1C332
330
1C16E
100
AcDbEntity
  8
Defpoints
 62
     0
440
 16777216
100
AcDbPoint
 10
2302.499991390134
 20
2610.000000000003
 30
0.0
  0
ENDBLK
  5
1C170
330
1C16E
100
AcDbEntity
  8
0
100
AcDbBlockEnd
  0
BLOCK
  5
1C17C
330
1C17B
100
AcDbEntity
  8
0
100
AcDbBlockBegin
  2
*D29
 70
     1
 10
0.0
 20
0.0
 30
0.0
  3
*D29
  1

  0
LINE
  5
1C333
330
1C17B
100
AcDbEntity
  8
寸法線
 62
     0
440
 16777216
370
    -2
100
AcDbLine
 10
2311.250250641966
 20
1470.000034820449
 30
0.0
 11
2472.499951670498
 21
1470.000034820449
 31
0.0
  0
LINE
  5
1C334
330
1C17B
100
AcDbEntity
  8
寸法線
 62
     0
440
 16777216
370
    -2
100
AcDbLine
 10
2411.362001843626
 20
1495.000195900154
 30
0.0
 11
2472.499951670498
 21
1495.000195900154
 31
0.0
  0
LINE
  5
1C335
330
1C17B
100
AcDbEntity
  8
寸法線
 62
     0
440
 16777216
370
    -2
100
AcDbLine
 10
2462.499951670498
 20
1450.000034820449
 30
0.0
 11
2462.499951670498
 21
1430.000034820449
 31
0.0
  0
LINE
  5
1C336
330
1C17B
100
AcDbEntity
  8
寸法線
 62
     0
440
 16777216
370
    -2
100
AcDbLine
 10
2462.499951670498
 20
1515.000195900154
 30
0.0
 11
2462.499951670498
 21
1535.000195900154
 31
0.0
  0
LINE
  5
1C337
330
1C17B
100
AcDbEntity
  8
寸法線
 62
     0
440
 16777216
370
    -2
100
AcDbLine
 10
2462.499951670498
 20
1470.000034820449
 30
0.0
 11
2462.499951670498
 21
1495.000195900154
 31
0.0
  0
INSERT
  5
1C338
330
1C17B
100
AcDbEntity
  8
寸法線
 62
     0
440
 16777216
370
    -2
100
AcDbBlockReference
  2
_OPEN
 10
2462.499951670498
 20
1470.000034820449
 30
0.0
 41
20.0
 42
20.0
 43
20.0
 50
90.0
  0
INSERT
  5
1C339
330
1C17B
100
AcDbEntity
  8
寸法線
 62
     0
440
 16777216
370
    -2
100
AcDbBlockReference
  2
_OPEN
 10
2462.499951670498
 20
1495.000195900154
 30
0.0
 41
20.0
 42
20.0
 43
20.0
 50
270.0
  0
MTEXT
  5
1C33A
330
1C17B
100
AcDbEntity
  8
寸法線
 62
     0
440
 16777216
100
AcDbMText
 10
2441.247491040576
 20
1482.500115360301
 30
0.0
 40
25.0
 41
0.0
 46
0.0
 71
     5
 72
     1
  1
\A1;25
 11
0.0000000000000001
 21
1.0
 31
0.0
 73
     1
 44
1.0
  0
POINT
  5
1C33B
330
1C17B
100
AcDbEntity
  8
Defpoints
 62
     0
440
 16777216
100
AcDbPoint
 10
2302.500250641966
 20
1470.000034820449
 30
0.0
  0
POINT
  5
1C33C
330
1C17B
100
AcDbEntity
  8
Defpoints
 62
     0
440
 16777216
100
AcDbPoint
 10
2402.612001843626
 20
1495.000195900154
 30
0.0
  0
POINT
  5
1C33D
330
1C17B
100
AcDbEntity
  8
Defpoints
 62
     0
440
 16777216
100
AcDbPoint
 10
2462.499951670498
 20
1495.000195900154
 30
0.0
  0
ENDBLK
  5
1C17D
330
1C17B
100
AcDbEntity
  8
0
100
AcDbBlockEnd
  0
BLOCK
  5
1C18A
330
1C189
100
AcDbEntity
  8
0
100
AcDbBlockBegin
  2
*D30
 70
     1
 10
0.0
 20
0.0
 30
0.0
  3
*D30
  1

  0
LINE
  5
1C33E
330
1C189
100
AcDbEntity
  8
寸法線
 62
     0
440
 16777216
370
    -2
100
AcDbLine
 10
2391.249951670499
 20
1752.999997600776
 30
0.0
 11
2472.499951670496
 21
1752.999997600776
 31
0.0
  0
LINE
  5
1C33F
330
1C189
100
AcDbEntity
  8
寸法線
 62
     0
440
 16777216
370
    -2
100
AcDbLine
 10
2391.249951670499
 20
1736.999997600776
 30
0.0
 11
2472.499951670496
 21
1736.999997600776
 31
0.0
  0
LINE
  5
1C340
330
1C189
100
AcDbEntity
  8
寸法線
 62
     0
440
 16777216
370
    -2
100
AcDbLine
 10
2462.499951670496
 20
1772.999997600776
 30
0.0
 11
2462.499951670496
 21
1792.999997600776
 31
0.0
  0
LINE
  5
1C341
330
1C189
100
AcDbEntity
  8
寸法線
 62
     0
440
 16777216
370
    -2
100
AcDbLine
 10
2462.499951670496
 20
1716.999997600776
 30
0.0
 11
2462.499951670496
 21
1696.999997600776
 31
0.0
  0
LINE
  5
1C342
330
1C189
100
AcDbEntity
  8
寸法線
 62
     0
440
 16777216
370
    -2
100
AcDbLine
 10
2462.499951670496
 20
1752.999997600776
 30
0.0
 11
2462.499951670496
 21
1736.999997600776
 31
0.0
  0
INSERT
  5
1C343
330
1C189
100
AcDbEntity
  8
寸法線
 62
     0
440
 16777216
370
    -2
100
AcDbBlockReference
  2
_OPEN
 10
2462.499951670496
 20
1752.999997600776
 30
0.0
 41
20.0
 42
20.0
 43
20.0
 50
270.0
  0
INSERT
  5
1C344
330
1C189
100
AcDbEntity
  8
寸法線
 62
     0
440
 16777216
370
    -2
100
AcDbBlockReference
  2
_OPEN
 10
2462.499951670496
 20
1736.999997600776
 30
0.0
 41
20.0
 42
20.0
 43
20.0
 50
90.0
  0
MTEXT
  5
1C345
330
1C189
100
AcDbEntity
  8
寸法線
 62
     0
440
 16777216
100
AcDbMText
 10
2441.249951670496
 20
1744.999997600775
 30
0.0
 40
25.0
 41
0.0
 46
0.0
 71
     5
 72
     1
  1
\A1;16
 11
0.0000000000000001
 21
1.0
 31
0.0
 73
     1
 44
1.0
  0
POINT
  5
1C346
330
1C189
100
AcDbEntity
  8
Defpoints
 62
     0
440
 16777216
100
AcDbPoint
 10
2382.499951670498
 20
1752.999997600776
 30
0.0
  0
POINT
  5
1C347
330
1C189
100
AcDbEntity
  8
Defpoints
 62
     0
440
 16777216
100
AcDbPoint
 10
2382.499951670498
 20
1736.999997600776
 30
0.0
  0
POINT
  5
1C348
330
1C189
100
AcDbEntity
  8
Defpoints
 62
     0
440
 16777216
100
AcDbPoint
 10
2462.499951670496
 20
1736.999997600776
 30
0.0
  0
ENDBLK
  5
1C18B
330
1C189
100
AcDbEntity
  8
0
100
AcDbBlockEnd
  0
BLOCK
  5
1C198
330
1C197
100
AcDbEntity
  8
0
100
AcDbBlockBegin
  2
*D31
 70
     1
 10
0.0
 20
0.0
 30
0.0
  3
*D31
  1

  0
LINE
  5
1C349
330
1C197
100
AcDbEntity
  8
寸法線
 62
     0
440
 16777216
370
    -2
100
AcDbLine
 10
2627.749991483544
 20
2225.999980149993
 30
0.0
 11
2546.499911857464
 21
2225.999980149993
 31
0.0
  0
LINE
  5
1C34A
330
1C197
100
AcDbEntity
  8
寸法線
 62
     0
440
 16777216
370
    -2
100
AcDbLine
 10
2627.749991483544
 20
2213.999980149994
 30
0.0
 11
2546.499911857464
 21
2213.999980149994
 31
0.0
  0
LINE
  5
1C34B
330
1C197
100
AcDbEntity
  8
寸法線
 62
     0
440
 16777216
370
    -2
100
AcDbLine
 10
2556.499911857463
 20
2245.999980149994
 30
0.0
 11
2556.499911857463
 21
2265.999980149993
 31
0.0
  0
LINE
  5
1C34C
330
1C197
100
AcDbEntity
  8
寸法線
 62
     0
440
 16777216
370
    -2
100
AcDbLine
 10
2556.499911857463
 20
2193.999980149993
 30
0.0
 11
2556.499911857463
 21
2173.999980149993
 31
0.0
  0
LINE
  5
1C34D
330
1C197
100
AcDbEntity
  8
寸法線
 62
     0
440
 16777216
370
    -2
100
AcDbLine
 10
2556.499911857463
 20
2225.999980149993
 30
0.0
 11
2556.499911857463
 21
2213.999980149994
 31
0.0
  0
INSERT
  5
1C34E
330
1C197
100
AcDbEntity
  8
寸法線
 62
     0
440
 16777216
370
    -2
100
AcDbBlockReference
  2
_OPEN
 10
2556.499911857463
 20
2225.999980149993
 30
0.0
 41
20.0
 42
20.0
 43
20.0
 50
270.0
  0
INSERT
  5
1C34F
330
1C197
100
AcDbEntity
  8
寸法線
 62
     0
440
 16777216
370
    -2
100
AcDbBlockReference
  2
_OPEN
 10
2556.499911857463
 20
2213.999980149994
 30
0.0
 41
20.0
 42
20.0
 43
20.0
 50
90.0
  0
MTEXT
  5
1C350
330
1C197
100
AcDbEntity
  8
寸法線
 62
     0
440
 16777216
100
AcDbMText
 10
2535.247451227542
 20
2219.999980149992
 30
0.0
 40
25.0
 41
0.0
 46
0.0
 71
     5
 72
     1
  1
\A1;12
 11
0.0000000000000001
 21
1.0
 31
0.0
 73
     1
 44
1.0
  0
POINT
  5
1C351
330
1C197
100
AcDbEntity
  8
Defpoints
 62
     0
440
 16777216
100
AcDbPoint
 10
2636.499991483544
 20
2225.999980149993
 30
0.0
  0
POINT
  5
1C352
330
1C197
100
AcDbEntity
  8
Defpoints
 62
     0
440
 16777216
100
AcDbPoint
 10
2636.499991483544
 20
2213.999980149994
 30
0.0
  0
POINT
  5
1C353
330
1C197
100
AcDbEntity
  8
Defpoints
 62
     0
440
 16777216
100
AcDbPoint
 10
2556.499911857463
 20
2213.999980149994
 30
0.0
  0
ENDBLK
  5
1C199
330
1C197
100
AcDbEntity
  8
0
100
AcDbBlockEnd
  0
BLOCK
  5
1C1A6
330
1C1A5
100
AcDbEntity
  8
0
100
AcDbBlockBegin
  2
*D32
 70
     1
 10
0.0
 20
0.0
 30
0.0
  3
*D32
  1

  0
LINE
  5
1C354
330
1C1A5
100
AcDbEntity
  8
寸法線
 62
     0
440
 16777216
370
    -2
100
AcDbLine
 10
2811.249971483611
 20
2364.000056194722
 30
0.0
 11
2932.499991296718
 21
2364.000056194722
 31
0.0
  0
LINE
  5
1C355
330
1C1A5
100
AcDbEntity
  8
寸法線
 62
     0
440
 16777216
370
    -2
100
AcDbLine
 10
2811.249971483611
 20
2075.999981755368
 30
0.0
 11
2932.499991296718
 21
2075.999981755368
 31
0.0
  0
LINE
  5
1C356
330
1C1A5
100
AcDbEntity
  8
寸法線
 62
     0
440
 16777216
370
    -2
100
AcDbLine
 10
2922.499991296718
 20
2344.000056194722
 30
0.0
 11
2922.499991296718
 21
2095.999981755368
 31
0.0
  0
INSERT
  5
1C357
330
1C1A5
100
AcDbEntity
  8
寸法線
 62
     0
440
 16777216
370
    -2
100
AcDbBlockReference
  2
_OPEN
 10
2922.499991296718
 20
2364.000056194722
 30
0.0
 41
20.0
 42
20.0
 43
20.0
 50
90.0
  0
INSERT
  5
1C358
330
1C1A5
100
AcDbEntity
  8
寸法線
 62
     0
440
 16777216
370
    -2
100
AcDbBlockReference
  2
_OPEN
 10
2922.499991296718
 20
2075.999981755368
 30
0.0
 41
20.0
 42
20.0
 43
20.0
 50
270.0
  0
MTEXT
  5
1C359
330
1C1A5
100
AcDbEntity
  8
寸法線
 62
     0
440
 16777216
100
AcDbMText
 10
2901.247530666797
 20
2220.000018975044
 30
0.0
 40
25.0
 41
0.0
 46
0.0
 71
     5
 72
     1
  1
\A1;288
 11
0.0000000000000001
 21
1.0
 31
0.0
 73
     1
 44
1.0
  0
POINT
  5
1C35A
330
1C1A5
100
AcDbEntity
  8
Defpoints
 62
     0
440
 16777216
100
AcDbPoint
 10
2802.499971483611
 20
2364.000056194722
 30
0.0
  0
POINT
  5
1C35B
330
1C1A5
100
AcDbEntity
  8
Defpoints
 62
     0
440
 16777216
100
AcDbPoint
 10
2802.499971483611
 20
2075.999981755368
 30
0.0
  0
POINT
  5
1C35C
330
1C1A5
100
AcDbEntity
  8
Defpoints
 62
     0
440
 16777216
100
AcDbPoint
 10
2922.499991296718
 20
2075.999981755368
 30
0.0
  0
ENDBLK
  5
1C1A7
330
1C1A5
100
AcDbEntity
  8
0
100
AcDbBlockEnd
  0
BLOCK
  5
1C1B2
330
1C1B1
100
AcDbEntity
  8
0
100
AcDbBlockBegin
  2
*D33
 70
     1
 10
0.0
 20
0.0
 30
0.0
  3
*D33
  1

  0
LINE
  5
1C35D
330
1C1B1
100
AcDbEntity
  8
寸法線
 62
     0
440
 16777216
370
    -2
100
AcDbLine
 10
3497.499991296718
 20
2061.250018975044
 30
0.0
 11
3497.499991296718
 21
1939.999999161934
 31
0.0
  0
LINE
  5
1C35E
330
1C1B1
100
AcDbEntity
  8
寸法線
 62
     0
440
 16777216
370
    -2
100
AcDbLine
 10
3197.499991296718
 20
2061.250018975044
 30
0.0
 11
3197.499991296718
 21
1939.999999161934
 31
0.0
  0
LINE
  5
1C35F
330
1C1B1
100
AcDbEntity
  8
寸法線
 62
     0
440
 16777216
370
    -2
100
AcDbLine
 10
3477.499991296718
 20
1949.999999161934
 30
0.0
 11
3217.499991296718
 21
1949.999999161934
 31
0.0
  0
INSERT
  5
1C360
330
1C1B1
100
AcDbEntity
  8
寸法線
 62
     0
440
 16777216
370
    -2
100
AcDbBlockReference
  2
_OPEN
 10
3497.499991296718
 20
1949.999999161934
 30
0.0
 41
20.0
 42
20.0
 43
20.0
  0
INSERT
  5
1C361
330
1C1B1
100
AcDbEntity
  8
寸法線
 62
     0
440
 16777216
370
    -2
100
AcDbBlockReference
  2
_OPEN
 10
3197.499991296718
 20
1949.999999161934
 30
0.0
 41
20.0
 42
20.0
 43
20.0
 50
180.0
  0
MTEXT
  5
1C362
330
1C1B1
100
AcDbEntity
  8
寸法線
 62
     0
440
 16777216
100
AcDbMText
 10
3347.499991296718
 20
1971.249999161934
 30
0.0
 40
25.0
 41
0.0
 46
0.0
 71
     5
 72
     1
  1
\A1;300
 73
     1
 44
1.0
  0
POINT
  5
1C363
330
1C1B1
100
AcDbEntity
  8
Defpoints
 62
     0
440
 16777216
100
AcDbPoint
 10
3497.499991296718
 20
2070.000018975044
 30
0.0
  0
POINT
  5
1C364
330
1C1B1
100
AcDbEntity
  8
Defpoints
 62
     0
440
 16777216
100
AcDbPoint
 10
3197.499991296718
 20
2070.000018975044
 30
0.0
  0
POINT
  5
1C365
330
1C1B1
100
AcDbEntity
  8
Defpoints
 62
     0
440
 16777216
100
AcDbPoint
 10
3197.499991296718
 20
1949.999999161934
 30
0.0
  0
ENDBLK
  5
1C1B3
330
1C1B1
100
AcDbEntity
  8
0
100
AcDbBlockEnd
  0
BLOCK
  5
1C1BE
330
1C1BD
100
AcDbEntity
  8
0
100
AcDbBlockBegin
  2
*D34
 70
     1
 10
0.0
 20
0.0
 30
0.0
  3
*D34
  1

  0
LINE
  5
1C366
330
1C1BD
100
AcDbEntity
  8
寸法線
 62
     0
440
 16777216
370
    -2
100
AcDbLine
 10
3188.74999129672
 20
2370.000018975044
 30
0.0
 11
3067.499991296718
 21
2370.000018975044
 31
0.0
  0
LINE
  5
1C367
330
1C1BD
100
AcDbEntity
  8
寸法線
 62
     0
440
 16777216
370
    -2
100
AcDbLine
 10
3188.74999129672
 20
2070.000018975045
 30
0.0
 11
3067.499991296718
 21
2070.000018975045
 31
0.0
  0
LINE
  5
1C368
330
1C1BD
100
AcDbEntity
  8
寸法線
 62
     0
440
 16777216
370
    -2
100
AcDbLine
 10
3077.499991296718
 20
2350.000018975045
 30
0.0
 11
3077.499991296718
 21
2090.000018975045
 31
0.0
  0
INSERT
  5
1C369
330
1C1BD
100
AcDbEntity
  8
寸法線
 62
     0
440
 16777216
370
    -2
100
AcDbBlockReference
  2
_OPEN
 10
3077.499991296718
 20
2370.000018975044
 30
0.0
 41
20.0
 42
20.0
 43
20.0
 50
90.0
  0
INSERT
  5
1C36A
330
1C1BD
100
AcDbEntity
  8
寸法線
 62
     0
440
 16777216
370
    -2
100
AcDbBlockReference
  2
_OPEN
 10
3077.499991296718
 20
2070.000018975045
 30
0.0
 41
20.0
 42
20.0
 43
20.0
 50
270.0
  0
MTEXT
  5
1C36B
330
1C1BD
100
AcDbEntity
  8
寸法線
 62
     0
440
 16777216
100
AcDbMText
 10
3056.249991296718
 20
2220.000018975044
 30
0.0
 40
25.0
 41
0.0
 46
0.0
 71
     5
 72
     1
  1
\A1;300
 11
0.0000000000000001
 21
1.0
 31
0.0
 73
     1
 44
1.0
  0
POINT
  5
1C36C
330
1C1BD
100
AcDbEntity
  8
Defpoints
 62
     0
440
 16777216
100
AcDbPoint
 10
3197.49999129672
 20
2370.000018975044
 30
0.0
  0
POINT
  5
1C36D
330
1C1BD
100
AcDbEntity
  8
Defpoints
 62
     0
440
 16777216
100
AcDbPoint
 10
3197.49999129672
 20
2070.000018975045
 30
0.0
  0
POINT
  5
1C36E
330
1C1BD
100
AcDbEntity
  8
Defpoints
 62
     0
440
 16777216
100
AcDbPoint
 10
3077.499991296718
 20
2070.000018975045
 30
0.0
  0
ENDBLK
  5
1C1BF
330
1C1BD
100
AcDbEntity
  8
0
100
AcDbBlockEnd
  0
BLOCK
  5
1C9F4
330
1C9F3
100
AcDbEntity
  8
0
100
AcDbBlockBegin
  2
*D35
 70
     1
 10
0.0
 20
0.0
 30
0.0
  3
*D35
  1

  0
LINE
  5
1CA59
330
1C9F3
100
AcDbEntity
  8
寸法線
 62
     0
440
 16777216
370
    -2
100
AcDbLine
 10
2727.173256002841
 20
748.4609355870195
 30
0.0
 11
2727.496779809967
 21
747.2535283014573
 31
0.0
  0
LINE
  5
1CA5A
330
1C9F3
100
AcDbEntity
  8
寸法線
 62
     0
440
 16777216
370
    -2
100
AcDbLine
 10
2935.14760449685
 20
822.3048274695702
 30
0.0
 11
2934.824080690103
 21
823.5122347537155
 31
0.0
  0
LINE
  5
1CA5B
330
1C9F3
100
AcDbEntity
  8
寸法線
 62
     0
440
 16777216
370
    -2
100
AcDbLine
 10
2744.227105884443
 20
762.0891674667143
 30
0.0
 11
2918.093754615627
 21
808.6765955884585
 31
0.0
  0
INSERT
  5
1CA5C
330
1C9F3
100
AcDbEntity
  8
寸法線
 62
     0
440
 16777216
370
    -2
100
AcDbBlockReference
  2
_OPEN
 10
2724.90858935876
 20
756.9127865642991
 30
0.0
 41
20.0
 42
20.0
 43
20.0
 50
195.0000000010816
  0
INSERT
  5
1CA5D
330
1C9F3
100
AcDbEntity
  8
寸法線
 62
     0
440
 16777216
370
    -2
100
AcDbBlockReference
  2
_OPEN
 10
2937.412271141311
 20
813.8529764908737
 30
0.0
 41
20.0
 42
20.0
 43
20.0
 50
15.00000000108161
  0
MTEXT
  5
1CA5E
330
1C9F3
100
AcDbEntity
  8
寸法線
 62
     0
440
 16777216
100
AcDbMText
 10
2864.296921734717
 20
816.2639439269499
 30
0.0
 40
25.0
 41
0.0
 46
0.0
 71
     5
 72
     1
  1
\A1;%%C220
 11
0.9659258262841825
 21
0.2588190451207553
 31
0.0
 73
     1
 44
1.0
  0
POINT
  5
1CA5F
330
1C9F3
100
AcDbEntity
  8
Defpoints
 62
     0
440
 16777216
100
AcDbPoint
 10
2724.908589358034
 20
756.9127865670061
 30
0.0
  0
POINT
  5
1CA60
330
1C9F3
100
AcDbEntity
  8
Defpoints
 62
     0
440
 16777216
100
AcDbPoint
 10
2937.412271141656
 20
813.8529764895837
 30
0.0
  0
POINT
  5
1CA61
330
1C9F3
100
AcDbEntity
  8
Defpoints
 62
     0
440
 16777216
100
AcDbPoint
 10
2937.412271141311
 20
813.8529764908737
 30
0.0
  0
ENDBLK
  5
1C9F5
330
1C9F3
100
AcDbEntity
  8
0
100
AcDbBlockEnd
  0
BLOCK
  5
1CA00
330
1C9FF
100
AcDbEntity
  8
0
100
AcDbBlockBegin
  2
*D36
 70
     1
 10
0.0
 20
0.0
 30
0.0
  3
*D36
  1

  0
LINE
  5
1CA62
330
1C9FF
100
AcDbEntity
  8
寸法線
 62
     0
440
 16777216
370
    -2
100
AcDbLine
 10
2136.160462233966
 20
601.632881528295
 30
0.0
 11
2136.160462233966
 21
495.3824865001415
 31
0.0
  0
LINE
  5
1CA63
330
1C9FF
100
AcDbEntity
  8
寸法線
 62
     0
440
 16777216
370
    -2
100
AcDbLine
 10
2386.160462233966
 20
601.632881528295
 30
0.0
 11
2386.160462233966
 21
495.3824865001415
 31
0.0
  0
LINE
  5
1CA64
330
1C9FF
100
AcDbEntity
  8
寸法線
 62
     0
440
 16777216
370
    -2
100
AcDbLine
 10
2156.160462233966
 20
505.3824865001415
 30
0.0
 11
2366.160462233966
 21
505.3824865001415
 31
0.0
  0
INSERT
  5
1CA65
330
1C9FF
100
AcDbEntity
  8
寸法線
 62
     0
440
 16777216
370
    -2
100
AcDbBlockReference
  2
_OPEN
 10
2136.160462233966
 20
505.3824865001415
 30
0.0
 41
20.0
 42
20.0
 43
20.0
 50
180.0
  0
INSERT
  5
1CA66
330
1C9FF
100
AcDbEntity
  8
寸法線
 62
     0
440
 16777216
370
    -2
100
AcDbBlockReference
  2
_OPEN
 10
2386.160462233966
 20
505.3824865001415
 30
0.0
 41
20.0
 42
20.0
 43
20.0
  0
MTEXT
  5
1CA67
330
1C9FF
100
AcDbEntity
  8
寸法線
 62
     0
440
 16777216
100
AcDbMText
 10
2261.160462233966
 20
526.6349471300628
 30
0.0
 40
25.0
 41
0.0
 46
0.0
 71
     5
 72
     1
  1
\A1;250
 73
     1
 44
1.0
  0
POINT
  5
1CA68
330
1C9FF
100
AcDbEntity
  8
Defpoints
 62
     0
440
 16777216
100
AcDbPoint
 10
2136.160462233966
 20
610.382881528295
 30
0.0
  0
POINT
  5
1CA69
330
1C9FF
100
AcDbEntity
  8
Defpoints
 62
     0
440
 16777216
100
AcDbPoint
 10
2386.160462233966
 20
610.382881528295
 30
0.0
  0
POINT
  5
1CA6A
330
1C9FF
100
AcDbEntity
  8
Defpoints
 62
     0
440
 16777216
100
AcDbPoint
 10
2386.160462233966
 20
505.3824865001415
 30
0.0
  0
ENDBLK
  5
1CA01
330
1C9FF
100
AcDbEntity
  8
0
100
AcDbBlockEnd
  0
BLOCK
  5
1CA0C
330
1CA0B
100
AcDbEntity
  8
0
100
AcDbBlockBegin
  2
*D37
 70
     1
 10
0.0
 20
0.0
 30
0.0
  3
*D37
  1

  0
LINE
  5
1CA6B
330
1CA0B
100
AcDbEntity
  8
寸法線
 62
     0
440
 16777216
370
    -2
100
AcDbLine
 10
2386.160462233966
 20
601.632881528295
 30
0.0
 11
2386.160462233966
 21
495.3824865001415
 31
0.0
  0
LINE
  5
1CA6C
330
1CA0B
100
AcDbEntity
  8
寸法線
 62
     0
440
 16777216
370
    -2
100
AcDbLine
 10
2421.160063202842
 20
616.6324865001415
 30
0.0
 11
2421.160063202842
 21
495.3824865001415
 31
0.0
  0
LINE
  5
1CA6D
330
1CA0B
100
AcDbEntity
  8
寸法線
 62
     0
440
 16777216
370
    -2
100
AcDbLine
 10
2366.160462233966
 20
505.3824865001415
 30
0.0
 11
2346.160462233966
 21
505.3824865001415
 31
0.0
  0
LINE
  5
1CA6E
330
1CA0B
100
AcDbEntity
  8
寸法線
 62
     0
440
 16777216
370
    -2
100
AcDbLine
 10
2441.160063202842
 20
505.3824865001415
 30
0.0
 11
2461.160063202842
 21
505.3824865001415
 31
0.0
  0
LINE
  5
1CA6F
330
1CA0B
100
AcDbEntity
  8
寸法線
 62
     0
440
 16777216
370
    -2
100
AcDbLine
 10
2386.160462233966
 20
505.3824865001415
 30
0.0
 11
2421.160063202842
 21
505.3824865001415
 31
0.0
  0
INSERT
  5
1CA70
330
1CA0B
100
AcDbEntity
  8
寸法線
 62
     0
440
 16777216
370
    -2
100
AcDbBlockReference
  2
_OPEN
 10
2386.160462233966
 20
505.3824865001415
 30
0.0
 41
20.0
 42
20.0
 43
20.0
  0
INSERT
  5
1CA71
330
1CA0B
100
AcDbEntity
  8
寸法線
 62
     0
440
 16777216
370
    -2
100
AcDbBlockReference
  2
_OPEN
 10
2421.160063202842
 20
505.3824865001415
 30
0.0
 41
20.0
 42
20.0
 43
20.0
 50
180.0
  0
MTEXT
  5
1CA72
330
1CA0B
100
AcDbEntity
  8
寸法線
 62
     0
440
 16777216
100
AcDbMText
 10
2403.660262718404
 20
526.6324865001415
 30
0.0
 40
25.0
 41
0.0
 46
0.0
 71
     5
 72
     1
  1
\A1;35
 73
     1
 44
1.0
  0
POINT
  5
1CA73
330
1CA0B
100
AcDbEntity
  8
Defpoints
 62
     0
440
 16777216
100
AcDbPoint
 10
2386.160462233966
 20
610.382881528295
 30
0.0
  0
POINT
  5
1CA74
330
1CA0B
100
AcDbEntity
  8
Defpoints
 62
     0
440
 16777216
100
AcDbPoint
 10
2421.160063202842
 20
625.3824865001416
 30
0.0
  0
POINT
  5
1CA75
330
1CA0B
100
AcDbEntity
  8
Defpoints
 62
     0
440
 16777216
100
AcDbPoint
 10
2421.160063202842
 20
505.3824865001415
 30
0.0
  0
ENDBLK
  5
1CA0D
330
1CA0B
100
AcDbEntity
  8
0
100
AcDbBlockEnd
  0
BLOCK
  5
1CA1A
330
1CA19
100
AcDbEntity
  8
0
100
AcDbBlockBegin
  2
*D38
 70
     1
 10
0.0
 20
0.0
 30
0.0
  3
*D38
  1

  0
LINE
  5
1CA76
330
1CA19
100
AcDbEntity
  8
寸法線
 62
     0
440
 16777216
370
    -2
100
AcDbLine
 10
2444.910462233967
 20
660.3828815282952
 30
0.0
 11
2551.160063202843
 21
660.3828815282952
 31
0.0
  0
LINE
  5
1CA77
330
1CA19
100
AcDbEntity
  8
寸法線
 62
     0
440
 16777216
370
    -2
100
AcDbLine
 10
2444.910462233967
 20
910.3828815282954
 30
0.0
 11
2551.160063202843
 21
910.3828815282954
 31
0.0
  0
LINE
  5
1CA78
330
1CA19
100
AcDbEntity
  8
寸法線
 62
     0
440
 16777216
370
    -2
100
AcDbLine
 10
2541.160063202843
 20
680.3828815282952
 30
0.0
 11
2541.160063202843
 21
890.3828815282954
 31
0.0
  0
INSERT
  5
1CA79
330
1CA19
100
AcDbEntity
  8
寸法線
 62
     0
440
 16777216
370
    -2
100
AcDbBlockReference
  2
_OPEN
 10
2541.160063202843
 20
660.3828815282952
 30
0.0
 41
20.0
 42
20.0
 43
20.0
 50
270.0
  0
INSERT
  5
1CA7A
330
1CA19
100
AcDbEntity
  8
寸法線
 62
     0
440
 16777216
370
    -2
100
AcDbBlockReference
  2
_OPEN
 10
2541.160063202843
 20
910.3828815282954
 30
0.0
 41
20.0
 42
20.0
 43
20.0
 50
90.0
  0
MTEXT
  5
1CA7B
330
1CA19
100
AcDbEntity
  8
寸法線
 62
     0
440
 16777216
100
AcDbMText
 10
2519.907602572921
 20
785.382881528295
 30
0.0
 40
25.0
 41
0.0
 46
0.0
 71
     5
 72
     1
  1
\A1;250
 11
0.0000000000000001
 21
1.0
 31
0.0
 73
     1
 44
1.0
  0
POINT
  5
1CA7C
330
1CA19
100
AcDbEntity
  8
Defpoints
 62
     0
440
 16777216
100
AcDbPoint
 10
2436.160462233967
 20
660.3828815282952
 30
0.0
  0
POINT
  5
1CA7D
330
1CA19
100
AcDbEntity
  8
Defpoints
 62
     0
440
 16777216
100
AcDbPoint
 10
2436.160462233967
 20
910.3828815282954
 30
0.0
  0
POINT
  5
1CA7E
330
1CA19
100
AcDbEntity
  8
Defpoints
 62
     0
440
 16777216
100
AcDbPoint
 10
2541.160063202843
 20
910.3828815282954
 30
0.0
  0
ENDBLK
  5
1CA1B
330
1CA19
100
AcDbEntity
  8
0
100
AcDbBlockEnd
  0
BLOCK
  5
1CA26
330
1CA25
100
AcDbEntity
  8
0
100
AcDbBlockBegin
  2
*D39
 70
     1
 10
0.0
 20
0.0
 30
0.0
  3
*D39
  1

  0
LINE
  5
1CA7F
330
1CA25
100
AcDbEntity
  8
寸法線
 62
     0
440
 16777216
370
    -2
100
AcDbLine
 10
2429.910063202843
 20
625.3824865001417
 30
0.0
 11
2551.160063202843
 21
625.3824865001417
 31
0.0
  0
LINE
  5
1CA80
330
1CA25
100
AcDbEntity
  8
寸法線
 62
     0
440
 16777216
370
    -2
100
AcDbLine
 10
2444.910462233967
 20
660.3828815282952
 30
0.0
 11
2551.160063202843
 21
660.3828815282952
 31
0.0
  0
LINE
  5
1CA81
330
1CA25
100
AcDbEntity
  8
寸法線
 62
     0
440
 16777216
370
    -2
100
AcDbLine
 10
2541.160063202843
 20
605.3824865001417
 30
0.0
 11
2541.160063202843
 21
585.3824865001418
 31
0.0
  0
LINE
  5
1CA82
330
1CA25
100
AcDbEntity
  8
寸法線
 62
     0
440
 16777216
370
    -2
100
AcDbLine
 10
2541.160063202843
 20
680.3828815282952
 30
0.0
 11
2541.160063202843
 21
700.3828815282952
 31
0.0
  0
LINE
  5
1CA83
330
1CA25
100
AcDbEntity
  8
寸法線
 62
     0
440
 16777216
370
    -2
100
AcDbLine
 10
2541.160063202843
 20
625.3824865001417
 30
0.0
 11
2541.160063202843
 21
660.3828815282952
 31
0.0
  0
INSERT
  5
1CA84
330
1CA25
100
AcDbEntity
  8
寸法線
 62
     0
440
 16777216
370
    -2
100
AcDbBlockReference
  2
_OPEN
 10
2541.160063202843
 20
625.3824865001417
 30
0.0
 41
20.0
 42
20.0
 43
20.0
 50
90.0
  0
INSERT
  5
1CA85
330
1CA25
100
AcDbEntity
  8
寸法線
 62
     0
440
 16777216
370
    -2
100
AcDbBlockReference
  2
_OPEN
 10
2541.160063202843
 20
660.3828815282952
 30
0.0
 41
20.0
 42
20.0
 43
20.0
 50
270.0
  0
MTEXT
  5
1CA86
330
1CA25
100
AcDbEntity
  8
寸法線
 62
     0
440
 16777216
100
AcDbMText
 10
2519.910063202842
 20
642.8826840142177
 30
0.0
 40
25.0
 41
0.0
 46
0.0
 71
     5
 72
     1
  1
\A1;35
 11
0.0000000000000001
 21
1.0
 31
0.0
 73
     1
 44
1.0
  0
POINT
  5
1CA87
330
1CA25
100
AcDbEntity
  8
Defpoints
 62
     0
440
 16777216
100
AcDbPoint
 10
2421.160063202843
 20
625.3824865001417
 30
0.0
  0
POINT
  5
1CA88
330
1CA25
100
AcDbEntity
  8
Defpoints
 62
     0
440
 16777216
100
AcDbPoint
 10
2436.160462233967
 20
660.3828815282952
 30
0.0
  0
POINT
  5
1CA89
330
1CA25
100
AcDbEntity
  8
Defpoints
 62
     0
440
 16777216
100
AcDbPoint
 10
2541.160063202843
 20
660.3828815282952
 30
0.0
  0
ENDBLK
  5
1CA27
330
1CA25
100
AcDbEntity
  8
0
100
AcDbBlockEnd
  0
BLOCK
  5
1CA34
330
1CA33
100
AcDbEntity
  8
0
100
AcDbBlockBegin
  2
*D40
 70
     1
 10
0.0
 20
0.0
 30
0.0
  3
*D40
  1

  0
LINE
  5
1CA8A
330
1CA33
100
AcDbEntity
  8
寸法線
 62
     0
440
 16777216
370
    -2
100
AcDbLine
 10
2444.910462233967
 20
910.3828815282954
 30
0.0
 11
2551.160063202843
 21
910.3828815282954
 31
0.0
  0
LINE
  5
1CA8B
330
1CA33
100
AcDbEntity
  8
寸法線
 62
     0
440
 16777216
370
    -2
100
AcDbLine
 10
2429.910063202843
 20
945.382486500142
 30
0.0
 11
2551.160063202843
 21
945.382486500142
 31
0.0
  0
LINE
  5
1CA8C
330
1CA33
100
AcDbEntity
  8
寸法線
 62
     0
440
 16777216
370
    -2
100
AcDbLine
 10
2541.160063202843
 20
890.3828815282954
 30
0.0
 11
2541.160063202843
 21
870.3828815282955
 31
0.0
  0
LINE
  5
1CA8D
330
1CA33
100
AcDbEntity
  8
寸法線
 62
     0
440
 16777216
370
    -2
100
AcDbLine
 10
2541.160063202843
 20
965.382486500142
 30
0.0
 11
2541.160063202843
 21
985.3824865001421
 31
0.0
  0
LINE
  5
1CA8E
330
1CA33
100
AcDbEntity
  8
寸法線
 62
     0
440
 16777216
370
    -2
100
AcDbLine
 10
2541.160063202843
 20
910.3828815282954
 30
0.0
 11
2541.160063202843
 21
945.382486500142
 31
0.0
  0
INSERT
  5
1CA8F
330
1CA33
100
AcDbEntity
  8
寸法線
 62
     0
440
 16777216
370
    -2
100
AcDbBlockReference
  2
_OPEN
 10
2541.160063202843
 20
910.3828815282954
 30
0.0
 41
20.0
 42
20.0
 43
20.0
 50
90.0
  0
INSERT
  5
1CA90
330
1CA33
100
AcDbEntity
  8
寸法線
 62
     0
440
 16777216
370
    -2
100
AcDbBlockReference
  2
_OPEN
 10
2541.160063202843
 20
945.382486500142
 30
0.0
 41
20.0
 42
20.0
 43
20.0
 50
270.0
  0
MTEXT
  5
1CA91
330
1CA33
100
AcDbEntity
  8
寸法線
 62
     0
440
 16777216
100
AcDbMText
 10
2519.910063202842
 20
927.8826840142178
 30
0.0
 40
25.0
 41
0.0
 46
0.0
 71
     5
 72
     1
  1
\A1;35
 11
0.0000000000000001
 21
1.0
 31
0.0
 73
     1
 44
1.0
  0
POINT
  5
1CA92
330
1CA33
100
AcDbEntity
  8
Defpoints
 62
     0
440
 16777216
100
AcDbPoint
 10
2436.160462233967
 20
910.3828815282954
 30
0.0
  0
POINT
  5
1CA93
330
1CA33
100
AcDbEntity
  8
Defpoints
 62
     0
440
 16777216
100
AcDbPoint
 10
2421.160063202843
 20
945.382486500142
 30
0.0
  0
POINT
  5
1CA94
330
1CA33
100
AcDbEntity
  8
Defpoints
 62
     0
440
 16777216
100
AcDbPoint
 10
2541.160063202843
 20
945.382486500142
 30
0.0
  0
ENDBLK
  5
1CA35
330
1CA33
100
AcDbEntity
  8
0
100
AcDbBlockEnd
  0
BLOCK
  5
1CA42
330
1CA41
100
AcDbEntity
  8
0
100
AcDbBlockBegin
  2
*D41
 70
     1
 10
0.0
 20
0.0
 30
0.0
  3
*D41
  1

  0
LINE
  5
1CA95
330
1CA41
100
AcDbEntity
  8
寸法線
 62
     0
440
 16777216
370
    -2
100
AcDbLine
 10
2651.160430249845
 20
596.632881528295
 30
0.0
 11
2651.160430249845
 21
495.3824865001415
 31
0.0
  0
LINE
  5
1CA96
330
1CA41
100
AcDbEntity
  8
寸法線
 62
     0
440
 16777216
370
    -2
100
AcDbLine
 10
3011.160430249845
 20
596.632881528295
 30
0.0
 11
3011.160430249845
 21
495.3824865001415
 31
0.0
  0
LINE
  5
1CA97
330
1CA41
100
AcDbEntity
  8
寸法線
 62
     0
440
 16777216
370
    -2
100
AcDbLine
 10
2671.160430249845
 20
505.3824865001415
 30
0.0
 11
2991.160430249845
 21
505.3824865001415
 31
0.0
  0
INSERT
  5
1CA98
330
1CA41
100
AcDbEntity
  8
寸法線
 62
     0
440
 16777216
370
    -2
100
AcDbBlockReference
  2
_OPEN
 10
2651.160430249845
 20
505.3824865001415
 30
0.0
 41
20.0
 42
20.0
 43
20.0
 50
180.0
  0
INSERT
  5
1CA99
330
1CA41
100
AcDbEntity
  8
寸法線
 62
     0
440
 16777216
370
    -2
100
AcDbBlockReference
  2
_OPEN
 10
3011.160430249845
 20
505.3824865001415
 30
0.0
 41
20.0
 42
20.0
 43
20.0
  0
MTEXT
  5
1CA9A
330
1CA41
100
AcDbEntity
  8
寸法線
 62
     0
440
 16777216
100
AcDbMText
 10
2831.160861265089
 20
526.6324865001415
 30
0.0
 40
25.0
 41
0.0
 46
0.0
 71
     5
 72
     1
  1
\A1;360
 73
     1
 44
1.0
  0
POINT
  5
1CA9B
330
1CA41
100
AcDbEntity
  8
Defpoints
 62
     0
440
 16777216
100
AcDbPoint
 10
2651.160430249845
 20
605.3828815282949
 30
0.0
  0
POINT
  5
1CA9C
330
1CA41
100
AcDbEntity
  8
Defpoints
 62
     0
440
 16777216
100
AcDbPoint
 10
3011.160430249845
 20
605.3828815282949
 30
0.0
  0
POINT
  5
1CA9D
330
1CA41
100
AcDbEntity
  8
Defpoints
 62
     0
440
 16777216
100
AcDbPoint
 10
3011.160430249845
 20
505.3824865001415
 30
0.0
  0
ENDBLK
  5
1CA43
330
1CA41
100
AcDbEntity
  8
0
100
AcDbBlockEnd
  0
BLOCK
  5
1CA4E
330
1CA4D
100
AcDbEntity
  8
0
100
AcDbBlockBegin
  2
*D42
 70
     1
 10
0.0
 20
0.0
 30
0.0
  3
*D42
  1

  0
LINE
  5
1CA9E
330
1CA4D
100
AcDbEntity
  8
寸法線
 62
     0
440
 16777216
370
    -2
100
AcDbLine
 10
3019.910430249846
 20
605.3828815282952
 30
0.0
 11
3121.160462233966
 21
605.3828815282952
 31
0.0
  0
LINE
  5
1CA9F
330
1CA4D
100
AcDbEntity
  8
寸法線
 62
     0
440
 16777216
370
    -2
100
AcDbLine
 10
3019.910430249846
 20
965.3828815282954
 30
0.0
 11
3121.160462233966
 21
965.3828815282954
 31
0.0
  0
LINE
  5
1CAA0
330
1CA4D
100
AcDbEntity
  8
寸法線
 62
     0
440
 16777216
370
    -2
100
AcDbLine
 10
3111.160462233967
 20
625.3828815282952
 30
0.0
 11
3111.160462233967
 21
945.3828815282955
 31
0.0
  0
INSERT
  5
1CAA1
330
1CA4D
100
AcDbEntity
  8
寸法線
 62
     0
440
 16777216
370
    -2
100
AcDbBlockReference
  2
_OPEN
 10
3111.160462233967
 20
605.3828815282952
 30
0.0
 41
20.0
 42
20.0
 43
20.0
 50
270.0
  0
INSERT
  5
1CAA2
330
1CA4D
100
AcDbEntity
  8
寸法線
 62
     0
440
 16777216
370
    -2
100
AcDbBlockReference
  2
_OPEN
 10
3111.160462233967
 20
965.3828815282954
 30
0.0
 41
20.0
 42
20.0
 43
20.0
 50
90.0
  0
MTEXT
  5
1CAA3
330
1CA4D
100
AcDbEntity
  8
寸法線
 62
     0
440
 16777216
100
AcDbMText
 10
3089.910462233966
 20
785.382881528295
 30
0.0
 40
25.0
 41
0.0
 46
0.0
 71
     5
 72
     1
  1
\A1;360
 11
0.0000000000000001
 21
1.0
 31
0.0
 73
     1
 44
1.0
  0
POINT
  5
1CAA4
330
1CA4D
100
AcDbEntity
  8
Defpoints
 62
     0
440
 16777216
100
AcDbPoint
 10
3011.160430249847
 20
605.3828815282952
 30
0.0
  0
POINT
  5
1CAA5
330
1CA4D
100
AcDbEntity
  8
Defpoints
 62
     0
440
 16777216
100
AcDbPoint
 10
3011.160430249847
 20
965.3828815282954
 30
0.0
  0
POINT
  5
1CAA6
330
1CA4D
100
AcDbEntity
  8
Defpoints
 62
     0
440
 16777216
100
AcDbPoint
 10
3111.160462233967
 20
965.3828815282954
 30
0.0
  0
ENDBLK
  5
1CA4F
330
1CA4D
100
AcDbEntity
  8
0
100
AcDbBlockEnd
  0
BLOCK
  5
1CAA9
330
1CAA8
100
AcDbEntity
  8
0
100
AcDbBlockBegin
  2
*D43
 70
     1
 10
0.0
 20
0.0
 30
0.0
  3
*D43
  1

  0
LINE
  5
1CAB6
330
1CAA8
100
AcDbEntity
  8
寸法線
 62
     0
440
 16777216
370
    -2
100
AcDbLine
 10
2136.160398265726
 20
601.632881528295
 30
0.0
 11
2136.160398265726
 21
495.3824865001415
 31
0.0
  0
LINE
  5
1CAB7
330
1CAA8
100
AcDbEntity
  8
寸法線
 62
     0
440
 16777216
370
    -2
100
AcDbLine
 10
2101.160797296849
 20
616.6324865001415
 30
0.0
 11
2101.160797296849
 21
495.3824865001415
 31
0.0
  0
LINE
  5
1CAB8
330
1CAA8
100
AcDbEntity
  8
寸法線
 62
     0
440
 16777216
370
    -2
100
AcDbLine
 10
2156.160398265726
 20
505.3824865001415
 30
0.0
 11
2176.160398265725
 21
505.3824865001415
 31
0.0
  0
LINE
  5
1CAB9
330
1CAA8
100
AcDbEntity
  8
寸法線
 62
     0
440
 16777216
370
    -2
100
AcDbLine
 10
2081.160797296849
 20
505.3824865001415
 30
0.0
 11
2061.160797296849
 21
505.3824865001415
 31
0.0
  0
LINE
  5
1CABA
330
1CAA8
100
AcDbEntity
  8
寸法線
 62
     0
440
 16777216
370
    -2
100
AcDbLine
 10
2136.160398265726
 20
505.3824865001415
 30
0.0
 11
2101.160797296849
 21
505.3824865001415
 31
0.0
  0
INSERT
  5
1CABB
330
1CAA8
100
AcDbEntity
  8
寸法線
 62
     0
440
 16777216
370
    -2
100
AcDbBlockReference
  2
_OPEN
 10
2136.160398265726
 20
505.3824865001415
 30
0.0
 41
20.0
 42
20.0
 43
20.0
 50
180.0
  0
INSERT
  5
1CABC
330
1CAA8
100
AcDbEntity
  8
寸法線
 62
     0
440
 16777216
370
    -2
100
AcDbBlockReference
  2
_OPEN
 10
2101.160797296849
 20
505.3824865001415
 30
0.0
 41
20.0
 42
20.0
 43
20.0
  0
MTEXT
  5
1CABD
330
1CAA8
100
AcDbEntity
  8
寸法線
 62
     0
440
 16777216
100
AcDbMText
 10
2118.660597781287
 20
526.6324865001415
 30
0.0
 40
25.0
 41
0.0
 46
0.0
 71
     5
 72
     1
  1
\A1;35
 73
     1
 44
1.0
  0
POINT
  5
1CABE
330
1CAA8
100
AcDbEntity
  8
Defpoints
 62
     0
440
 16777216
100
AcDbPoint
 10
2136.160398265726
 20
610.382881528295
 30
0.0
  0
POINT
  5
1CABF
330
1CAA8
100
AcDbEntity
  8
Defpoints
 62
     0
440
 16777216
100
AcDbPoint
 10
2101.160797296849
 20
625.3824865001416
 30
0.0
  0
POINT
  5
1CAC0
330
1CAA8
100
AcDbEntity
  8
Defpoints
 62
     0
440
 16777216
100
AcDbPoint
 10
2101.160797296849
 20
505.3824865001415
 30
0.0
  0
ENDBLK
  5
1CAAA
330
1CAA8
100
AcDbEntity
  8
0
100
AcDbBlockEnd
  0
ENDSEC
  0
SECTION
  2
ENTITIES
  0
LWPOLYLINE
  5
6107
330
1F
100
AcDbEntity
  8
Defpoints
100
AcDbPolyline
 90
        4
 70
     1
 43
0.0
 10
0.0
 20
0.0
 10
4200.0
 20
0.0
 10
4200.0
 20
2970.0
 10
0.0
 20
2970.0
  0
LWPOLYLINE
  5
610F
330
1F
100
AcDbEntity
  8
Defpoints
100
AcDbPolyline
 90
        4
 70
     1
 43
0.0
 10
69.00399999999999
 20
69.1075
 10
4130.996
 20
69.10750000000007
 10
4130.996
 20
2900.8925
 10
69.00399999999999
 20
2900.8925
  0
LINE
  5
1BD5C
330
1F
100
AcDbEntity
  8
中心線
100
AcDbLine
 10
677.4999714836094
 20
2220.000037450854
 30
0.0
 11
2827.49997148361
 21
2220.000037276722
 31
0.0
  0
LINE
  5
1BD5D
330
1F
100
AcDbEntity
  8
中心線
100
AcDbLine
 10
677.4999714836094
 20
1620.000037450854
 30
0.0
 11
2827.49997148361
 21
1620.000037215619
 31
0.0
  0
DIMENSION
  5
1BD5E
330
1F
100
AcDbEntity
  8
寸法線
100
AcDbDimension
280
     0
  2
*D1
 10
1202.500006391522
 20
1309.999999999998
 30
0.0
 11
952.4999889375667
 21
1309.999999999998
 31
0.0
 70
   160
 71
     5
 42
500.0000349079128
 73
     0
 74
     0
 75
     0
  3
STANDARD
100
AcDbAlignedDimension
 13
702.4999714836094
 23
1469.999999999998
 33
0.0
 14
1202.500006391522
 24
1460.000038922456
 34
0.0
100
AcDbRotatedDimension
  0
DIMENSION
  5
1BD5F
330
1F
100
AcDbEntity
  8
寸法線
100
AcDbDimension
280
     0
  2
*D2
 10
1202.499991390134
 20
1309.999999999998
 30
0.0
 11
1752.499963982916
 21
1331.249999999998
 31
0.0
 70
    32
 71
     5
 42
1099.999945185563
 73
     0
 74
     0
 75
     0
  3
STANDARD
100
AcDbAlignedDimension
 13
2302.499936575697
 23
1460.000038922456
 33
0.0
 14
1202.499991390134
 24
1460.000019850007
 34
0.0
 50
180.0
100
AcDbRotatedDimension
  0
DIMENSION
  5
1BD60
330
1F
100
AcDbEntity
  8
寸法線
100
AcDbDimension
280
     0
  2
*D3
 10
582.499971483609
 20
1469.999999999999
 30
0.0
 11
582.4999714836094
 21
1620.000018609838
 31
0.0
 70
   160
 71
     5
 42
300.0000372196769
 73
     0
 74
     0
 75
     0
  3
STANDARD
100
AcDbAlignedDimension
 13
702.4999714836094
 23
1770.000037219675
 33
0.0
 14
702.4999714836094
 24
1469.999999999998
 34
0.0
 50
90.0
100
AcDbRotatedDimension
  0
DIMENSION
  5
1BD61
330
1F
100
AcDbEntity
  8
寸法線
100
AcDbDimension
280
     0
  2
*D4
 10
718.4999912967196
 20
2529.999999999998
 30
0.0
 11
710.499981390164
 21
2529.999999999998
 31
0.0
 70
   160
 71
     5
 42
16.00001981311107
 73
     0
 74
     0
 75
     0
  3
STANDARD
100
AcDbAlignedDimension
 13
702.4999714836085
 23
2364.000037219682
 33
0.0
 14
718.4999912967196
 24
2369.999999999998
 34
0.0
100
AcDbRotatedDimension
  0
DIMENSION
  5
1BD62
330
1F
100
AcDbEntity
  8
寸法線
100
AcDbDimension
280
     0
  2
*D5
 10
1202.500059967628
 20
2529.999999999998
 30
0.0
 11
960.4999988441214
 21
2529.999999999998
 31
0.0
 70
   160
 71
     5
 42
484.0000686709081
 73
     0
 74
     0
 75
     0
  3
STANDARD
100
AcDbAlignedDimension
 13
718.4999912967196
 23
2369.999999999998
 33
0.0
 14
1202.500059967628
 24
2380.000019849952
 34
0.0
100
AcDbRotatedDimension
  0
DIMENSION
  5
1BD63
330
1F
100
AcDbEntity
  8
寸法線
100
AcDbDimension
280
     0
  2
*D6
 10
582.4999714836089
 20
2069.999999999999
 30
0.0
 11
582.4999714836094
 21
2219.999999999998
 31
0.0
 70
   160
 71
     5
 42
300.0
 73
     0
 74
     0
 75
     0
  3
STANDARD
100
AcDbAlignedDimension
 13
718.4999912967196
 23
2369.999999999998
 33
0.0
 14
718.4999912967196
 24
2069.999999999998
 34
0.0
 50
90.0
100
AcDbRotatedDimension
  0
DIMENSION
  5
1BD64
330
1F
100
AcDbEntity
  8
寸法線
100
AcDbDimension
280
     0
  2
*D7
 10
2786.500011296659
 20
2529.999999999998
 30
0.0
 11
2794.500011296659
 21
2529.999999999998
 31
0.0
 70
   160
 71
     5
 42
16.0
 73
     0
 74
     0
 75
     0
  3
STANDARD
100
AcDbAlignedDimension
 13
2802.500011296659
 23
2364.000017369674
 33
0.0
 14
2786.500011296659
 24
2369.999988421024
 34
0.0
 50
180.0
100
AcDbRotatedDimension
  0
DIMENSION
  5
1BD65
330
1F
100
AcDbEntity
  8
寸法線
100
AcDbDimension
280
     0
  2
*D8
 10
2302.499991390134
 20
2529.999999999998
 30
0.0
 11
2544.4999441231
 21
2529.999999999998
 31
0.0
 70
   160
 71
     5
 42
484.0000199065253
 73
     0
 74
     0
 75
     0
  3
STANDARD
100
AcDbAlignedDimension
 13
2786.500011296659
 23
2369.999988421024
 33
0.0
 14
2302.499991390134
 24
2380.000001605376
 34
0.0
 50
180.0
100
AcDbRotatedDimension
  0
DIMENSION
  5
1BD66
330
1F
100
AcDbEntity
  8
寸法線
100
AcDbDimension
280
     0
  2
*D9
 10
1202.499991390134
 20
2610.000000000003
 30
0.0
 11
952.4999889375667
 21
2610.000000000003
 31
0.0
 70
   160
  1
<>\XH型鋼（連結部）
 71
     5
 42
500.0000199065253
 73
     0
 74
     0
 75
     0
  3
STANDARD
100
AcDbAlignedDimension
 13
702.4999714836085
 23
2364.000037219682
 33
0.0
 14
1202.499991390134
 24
2380.000019850007
 34
0.0
100
AcDbRotatedDimension
  0
DIMENSION
  5
1BD67
330
1F
100
AcDbEntity
  8
寸法線
100
AcDbDimension
280
     0
  2
*D10
 10
2302.499991390134
 20
2609.999999999998
 30
0.0
 11
1752.499991390134
 21
2609.999999999998
 31
0.0
 70
    32
  1
W=<>\X空洞金具
 71
     5
 42
1100.0
 73
     0
 74
     0
 75
     0
  3
STANDARD
100
AcDbAlignedDimension
 13
1202.499991390134
 23
2380.000019850007
 33
0.0
 14
2302.499991390134
 24
2380.000001605376
 34
0.0
100
AcDbRotatedDimension
  0
DIMENSION
  5
1BD68
330
1F
100
AcDbEntity
  8
寸法線
100
AcDbDimension
280
     0
  2
*D11
 10
2802.500011296659
 20
2690.000000000004
 30
0.0
 11
1752.499991390134
 21
2711.252460629925
 31
0.0
 70
    32
  1
スルーサーＢ L=<>
 71
     5
 42
2100.00003981305
 73
     0
 74
     0
 75
     0
  3
STANDARD
100
AcDbAlignedDimension
 13
702.4999714836094
 23
2364.000037219675
 33
0.0
 14
2802.500011296659
 24
2364.000017369674
 34
0.0
100
AcDbRotatedDimension
  0
DIMENSION
  5
1BD69
330
1F
100
AcDbEntity
  8
寸法線
100
AcDbDimension
280
     0
  2
*D12
 10
2302.4999332022
 20
1310.000000000005
 30
0.0
 11
2552.49997148149
 21
1309.999994377508
 31
0.0
 70
   160
 71
     5
 42
500.0000698113636
 73
     0
 74
     0
 75
     0
  3
STANDARD
100
AcDbAlignedDimension
 13
2802.500006611959
 23
1469.999968964709
 33
0.0
 14
2302.499936575697
 24
1460.000038922456
 34
0.0
 50
179.9999987114188
100
AcDbRotatedDimension
  0
LINE
  5
1BD6A
330
1F
100
AcDbEntity
  8
実線
100
AcDbLine
 10
1218.499991390134
 20
2060.000019850007
 30
0.0
 11
1218.499991390134
 21
2380.000019850007
 31
0.0
  0
LINE
  5
1BD6B
330
1F
100
AcDbEntity
  8
実線
100
AcDbLine
 10
1202.499991390134
 20
2380.000001605376
 30
0.0
 11
1218.499991390134
 21
2380.000001605376
 31
0.0
  0
LINE
  5
1BD6C
330
1F
100
AcDbEntity
  8
実線
100
AcDbLine
 10
1202.499991390134
 20
2060.000001605376
 30
0.0
 11
1218.499991390134
 21
2060.000001605376
 31
0.0
  0
LINE
  5
1BD6D
330
1F
100
AcDbEntity
  8
実線
100
AcDbLine
 10
2286.499991390134
 20
2060.000019850007
 30
0.0
 11
2286.499991390134
 21
2380.000019850007
 31
0.0
  0
LINE
  5
1BD6E
330
1F
100
AcDbEntity
  8
実線
100
AcDbLine
 10
2286.499991390134
 20
2380.000001605376
 30
0.0
 11
2302.499991390134
 21
2380.000001605376
 31
0.0
  0
LINE
  5
1BD6F
330
1F
100
AcDbEntity
  8
実線
100
AcDbLine
 10
2286.499991390134
 20
2060.000001605376
 30
0.0
 11
2302.499991390134
 21
2060.000001605376
 31
0.0
  0
LINE
  5
1BD70
330
1F
100
AcDbEntity
  8
実線
100
AcDbLine
 10
1230.499991390134
 20
2115.000001605376
 30
0.0
 11
1250.499991390134
 21
2115.000001605376
 31
0.0
  0
LINE
  5
1BD71
330
1F
100
AcDbEntity
  8
実線
100
AcDbLine
 10
1250.499991390134
 20
2115.000001605376
 30
0.0
 11
1250.499991390134
 21
2325.000001605376
 31
0.0
  0
LINE
  5
1BD72
330
1F
100
AcDbEntity
  8
実線
100
AcDbLine
 10
2254.499991390134
 20
2115.000001605376
 30
0.0
 11
2254.499991390134
 21
2325.000001605376
 31
0.0
  0
LINE
  5
1BD73
330
1F
100
AcDbEntity
  8
実線
100
AcDbLine
 10
2254.499991390134
 20
2115.000001605376
 30
0.0
 11
2274.499991390134
 21
2115.000001605376
 31
0.0
  0
LINE
  5
1BD74
330
1F
100
AcDbEntity
  8
実線
100
AcDbLine
 10
1218.499991390134
 20
2127.000001605376
 30
0.0
 11
1230.499991390134
 21
2115.000001605376
 31
0.0
  0
LINE
  5
1BD75
330
1F
100
AcDbEntity
  8
実線
100
AcDbLine
 10
2274.499991390134
 20
2115.000001605376
 30
0.0
 11
2286.499991390134
 21
2127.000001605376
 31
0.0
  0
LINE
  5
1BD76
330
1F
100
AcDbEntity
  8
実線
100
AcDbLine
 10
1218.499991390134
 20
2120.000001605376
 30
0.0
 11
1225.499991390134
 21
2120.000001605376
 31
0.0
  0
LINE
  5
1BD77
330
1F
100
AcDbEntity
  8
実線
100
AcDbLine
 10
2279.499991390134
 20
2120.000001605376
 30
0.0
 11
2286.499991390134
 21
2120.000001605376
 31
0.0
  0
LINE
  5
1BD78
330
1F
100
AcDbEntity
  8
破線
100
AcDbLine
 10
1225.499991390134
 20
2120.000001605376
 30
0.0
 11
1250.499991390134
 21
2120.000001605376
 31
0.0
  0
LINE
  5
1BD79
330
1F
100
AcDbEntity
  8
破線
100
AcDbLine
 10
2254.499991390134
 20
2120.000001605376
 30
0.0
 11
2279.499991390134
 21
2120.000001605376
 31
0.0
  0
LINE
  5
1BD7A
330
1F
100
AcDbEntity
  8
破線
100
AcDbLine
 10
1218.499991390134
 20
2079.000001605376
 30
0.0
 11
1250.499991390134
 21
2079.000001605376
 31
0.0
  0
LINE
  5
1BD7B
330
1F
100
AcDbEntity
  8
破線
100
AcDbLine
 10
1250.499991390134
 20
2079.000001605376
 30
0.0
 11
1250.499991390134
 21
2070.000001605376
 31
0.0
  0
LINE
  5
1BD7C
330
1F
100
AcDbEntity
  8
破線
100
AcDbLine
 10
2254.499991390134
 20
2320.000001605376
 30
0.0
 11
2279.499991390134
 21
2320.000001605376
 31
0.0
  0
LINE
  5
1BD7D
330
1F
100
AcDbEntity
  8
実線
100
AcDbLine
 10
1250.499991390134
 20
2320.000001605376
 30
0.0
 11
1594.499991390136
 21
2320.000001605376
 31
0.0
  0
LINE
  5
1BD7E
330
1F
100
AcDbEntity
  8
実線
100
AcDbLine
 10
2279.499991390134
 20
2320.000001605376
 30
0.0
 11
2286.499991390134
 21
2320.000001605376
 31
0.0
  0
LINE
  5
1BD7F
330
1F
100
AcDbEntity
  8
実線
100
AcDbLine
 10
1218.499991390134
 20
2370.000001605376
 30
0.0
 11
1594.499991390136
 21
2370.000001605376
 31
0.0
  0
LINE
  5
1BD80
330
1F
100
AcDbEntity
  8
実線
100
AcDbLine
 10
2254.499991390134
 20
2325.000001605376
 30
0.0
 11
2274.499991390134
 21
2325.000001605376
 31
0.0
  0
LINE
  5
1BD81
330
1F
100
AcDbEntity
  8
実線
100
AcDbLine
 10
2274.499991390134
 20
2325.000001605376
 30
0.0
 11
2286.499991390134
 21
2313.000001605376
 31
0.0
  0
LINE
  5
1BD82
330
1F
100
AcDbEntity
  8
破線
100
AcDbLine
 10
1218.499991390134
 20
2361.000001605376
 30
0.0
 11
1250.499991390134
 21
2361.000001605376
 31
0.0
  0
LINE
  5
1BD83
330
1F
100
AcDbEntity
  8
破線
100
AcDbLine
 10
1250.499991390134
 20
2361.000001605376
 30
0.0
 11
1250.499991390134
 21
2370.000001605376
 31
0.0
  0
LINE
  5
1BD84
330
1F
100
AcDbEntity
  8
破線
100
AcDbLine
 10
1225.499991390134
 20
2320.000001605376
 30
0.0
 11
1250.499991390134
 21
2320.000001605376
 31
0.0
  0
LINE
  5
1BD85
330
1F
100
AcDbEntity
  8
実線
100
AcDbLine
 10
1230.499991390134
 20
2325.000001605376
 30
0.0
 11
1250.499991390134
 21
2325.000001605376
 31
0.0
  0
LINE
  5
1BD86
330
1F
100
AcDbEntity
  8
実線
100
AcDbLine
 10
1218.499991390134
 20
2313.000001605376
 30
0.0
 11
1230.499991390134
 21
2325.000001605376
 31
0.0
  0
LINE
  5
1BD87
330
1F
100
AcDbEntity
  8
実線
100
AcDbLine
 10
1218.499991390134
 20
2320.000001605376
 30
0.0
 11
1225.499991390134
 21
2320.000001605376
 31
0.0
  0
LINE
  5
1BD88
330
1F
100
AcDbEntity
  8
破線
100
AcDbLine
 10
2286.499991390134
 20
2079.000001605376
 30
0.0
 11
2254.499991390134
 21
2079.000001605376
 31
0.0
  0
LINE
  5
1BD89
330
1F
100
AcDbEntity
  8
破線
100
AcDbLine
 10
2254.499991390134
 20
2079.000001605376
 30
0.0
 11
2254.499991390134
 21
2070.000001605376
 31
0.0
  0
LINE
  5
1BD8A
330
1F
100
AcDbEntity
  8
破線
100
AcDbLine
 10
2254.499991390134
 20
2361.000001605376
 30
0.0
 11
2254.499991390134
 21
2370.000001605376
 31
0.0
  0
LINE
  5
1BD8B
330
1F
100
AcDbEntity
  8
破線
100
AcDbLine
 10
2286.499991390134
 20
2361.000001605376
 30
0.0
 11
2254.499991390134
 21
2361.000001605376
 31
0.0
  0
LINE
  5
1BD8C
330
1F
100
AcDbEntity
  8
破線
100
AcDbLine
 10
1218.499991390134
 20
2224.500001605376
 30
0.0
 11
1250.499991390134
 21
2224.500001605376
 31
0.0
  0
LINE
  5
1BD8D
330
1F
100
AcDbEntity
  8
破線
100
AcDbLine
 10
1218.499991390134
 20
2215.500001605376
 30
0.0
 11
1250.499991390134
 21
2215.500001605376
 31
0.0
  0
LINE
  5
1BD8E
330
1F
100
AcDbEntity
  8
破線
100
AcDbLine
 10
2254.499991390134
 20
2224.500001605376
 30
0.0
 11
2286.499991390134
 21
2224.500001605376
 31
0.0
  0
LINE
  5
1BD8F
330
1F
100
AcDbEntity
  8
破線
100
AcDbLine
 10
2254.499991390134
 20
2215.500001605376
 30
0.0
 11
2286.499991390134
 21
2215.500001605376
 31
0.0
  0
LINE
  5
1BD90
330
1F
100
AcDbEntity
  8
実線
100
AcDbLine
 10
1202.499991390134
 20
1460.000019850007
 30
0.0
 11
1202.499991390134
 21
1780.000019850007
 31
0.0
  0
LINE
  5
1BD91
330
1F
100
AcDbEntity
  8
実線
100
AcDbLine
 10
1218.499991390134
 20
1460.000019850007
 30
0.0
 11
1218.499991390134
 21
1780.000019850007
 31
0.0
  0
LINE
  5
1BD92
330
1F
100
AcDbEntity
  8
実線
100
AcDbLine
 10
1202.499991390134
 20
1780.000001605376
 30
0.0
 11
1218.499991390134
 21
1780.000001605376
 31
0.0
  0
LINE
  5
1BD93
330
1F
100
AcDbEntity
  8
実線
100
AcDbLine
 10
1202.499991390134
 20
1460.000001605376
 30
0.0
 11
1218.499991390134
 21
1460.000001605376
 31
0.0
  0
LINE
  5
1BD94
330
1F
100
AcDbEntity
  8
実線
100
AcDbLine
 10
2286.499991390134
 20
1460.000019850007
 30
0.0
 11
2286.499991390134
 21
1780.000019850007
 31
0.0
  0
LINE
  5
1BD95
330
1F
100
AcDbEntity
  8
実線
100
AcDbLine
 10
2286.499991390134
 20
1780.000001605376
 30
0.0
 11
2302.499991390134
 21
1780.000001605376
 31
0.0
  0
LINE
  5
1BD96
330
1F
100
AcDbEntity
  8
実線
100
AcDbLine
 10
2286.499991390134
 20
1460.000001605376
 30
0.0
 11
2302.499991390134
 21
1460.000001605376
 31
0.0
  0
LINE
  5
1BD97
330
1F
100
AcDbEntity
  8
実線
100
AcDbLine
 10
1230.499991390134
 20
1515.000001605376
 30
0.0
 11
1250.499991390134
 21
1515.000001605376
 31
0.0
  0
LINE
  5
1BD98
330
1F
100
AcDbEntity
  8
実線
100
AcDbLine
 10
1250.499991390134
 20
1515.000001605376
 30
0.0
 11
1250.499991390134
 21
1725.000001605376
 31
0.0
  0
LINE
  5
1BD99
330
1F
100
AcDbEntity
  8
実線
100
AcDbLine
 10
2254.499991390134
 20
1515.000001605376
 30
0.0
 11
2254.499991390134
 21
1725.000001605376
 31
0.0
  0
LINE
  5
1BD9A
330
1F
100
AcDbEntity
  8
実線
100
AcDbLine
 10
2254.499991390134
 20
1515.000001605376
 30
0.0
 11
2274.499991390134
 21
1515.000001605376
 31
0.0
  0
LINE
  5
1BD9B
330
1F
100
AcDbEntity
  8
実線
100
AcDbLine
 10
1218.499991390134
 20
1527.000001605376
 30
0.0
 11
1230.499991390134
 21
1515.000001605376
 31
0.0
  0
LINE
  5
1BD9C
330
1F
100
AcDbEntity
  8
実線
100
AcDbLine
 10
2274.499991390134
 20
1515.000001605376
 30
0.0
 11
2286.499991390134
 21
1527.000001605376
 31
0.0
  0
LINE
  5
1BD9D
330
1F
100
AcDbEntity
  8
実線
100
AcDbLine
 10
1218.499991390134
 20
1520.000001605376
 30
0.0
 11
1225.499991390134
 21
1520.000001605376
 31
0.0
  0
LINE
  5
1BD9E
330
1F
100
AcDbEntity
  8
実線
100
AcDbLine
 10
2279.499991390134
 20
1520.000001605376
 30
0.0
 11
2286.499991390134
 21
1520.000001605376
 31
0.0
  0
LINE
  5
1BD9F
330
1F
100
AcDbEntity
  8
破線
100
AcDbLine
 10
1225.499991390134
 20
1520.000001605376
 30
0.0
 11
1250.499991390134
 21
1520.000001605376
 31
0.0
  0
LINE
  5
1BDA0
330
1F
100
AcDbEntity
  8
破線
100
AcDbLine
 10
2254.499991390134
 20
1520.000001605376
 30
0.0
 11
2279.499991390134
 21
1520.000001605376
 31
0.0
  0
LINE
  5
1BDA1
330
1F
100
AcDbEntity
  8
破線
100
AcDbLine
 10
1218.499991390134
 20
1479.000001605376
 30
0.0
 11
1250.499991390134
 21
1479.000001605376
 31
0.0
  0
LINE
  5
1BDA2
330
1F
100
AcDbEntity
  8
破線
100
AcDbLine
 10
1250.499991390134
 20
1479.000001605376
 30
0.0
 11
1250.499991390134
 21
1470.000001605376
 31
0.0
  0
LINE
  5
1BDA3
330
1F
100
AcDbEntity
  8
破線
100
AcDbLine
 10
2254.499991390134
 20
1720.000001605376
 30
0.0
 11
2279.499991390134
 21
1720.000001605376
 31
0.0
  0
LINE
  5
1BDA4
330
1F
100
AcDbEntity
  8
実線
100
AcDbLine
 10
2279.499991390134
 20
1720.000001605376
 30
0.0
 11
2286.499991390134
 21
1720.000001605376
 31
0.0
  0
LINE
  5
1BDA5
330
1F
100
AcDbEntity
  8
実線
100
AcDbLine
 10
2254.499991390134
 20
1725.000001605376
 30
0.0
 11
2274.499991390134
 21
1725.000001605376
 31
0.0
  0
LINE
  5
1BDA6
330
1F
100
AcDbEntity
  8
実線
100
AcDbLine
 10
2274.499991390134
 20
1725.000001605376
 30
0.0
 11
2286.499991390134
 21
1713.000001605376
 31
0.0
  0
LINE
  5
1BDA7
330
1F
100
AcDbEntity
  8
破線
100
AcDbLine
 10
1218.499991390134
 20
1761.000001605376
 30
0.0
 11
1250.499991390134
 21
1761.000001605376
 31
0.0
  0
LINE
  5
1BDA8
330
1F
100
AcDbEntity
  8
破線
100
AcDbLine
 10
1250.499991390134
 20
1761.000001605376
 30
0.0
 11
1250.499991390134
 21
1770.000001605376
 31
0.0
  0
LINE
  5
1BDA9
330
1F
100
AcDbEntity
  8
破線
100
AcDbLine
 10
1225.499991390134
 20
1720.000001605376
 30
0.0
 11
1250.499991390134
 21
1720.000001605376
 31
0.0
  0
LINE
  5
1BDAA
330
1F
100
AcDbEntity
  8
実線
100
AcDbLine
 10
1230.499991390134
 20
1725.000001605376
 30
0.0
 11
1250.499991390134
 21
1725.000001605376
 31
0.0
  0
LINE
  5
1BDAB
330
1F
100
AcDbEntity
  8
実線
100
AcDbLine
 10
1218.499991390134
 20
1713.000001605376
 30
0.0
 11
1230.499991390134
 21
1725.000001605376
 31
0.0
  0
LINE
  5
1BDAC
330
1F
100
AcDbEntity
  8
実線
100
AcDbLine
 10
1218.499991390134
 20
1720.000001605376
 30
0.0
 11
1225.499991390134
 21
1720.000001605376
 31
0.0
  0
LINE
  5
1BDAD
330
1F
100
AcDbEntity
  8
破線
100
AcDbLine
 10
2286.499991390134
 20
1479.000001605376
 30
0.0
 11
2254.499991390134
 21
1479.000001605376
 31
0.0
  0
LINE
  5
1BDAE
330
1F
100
AcDbEntity
  8
破線
100
AcDbLine
 10
2254.499991390134
 20
1479.000001605376
 30
0.0
 11
2254.499991390134
 21
1470.000001605376
 31
0.0
  0
LINE
  5
1BDAF
330
1F
100
AcDbEntity
  8
破線
100
AcDbLine
 10
2254.499991390134
 20
1761.000001605376
 30
0.0
 11
2254.499991390134
 21
1770.000001605376
 31
0.0
  0
LINE
  5
1BDB0
330
1F
100
AcDbEntity
  8
破線
100
AcDbLine
 10
2286.499991390134
 20
1761.000001605376
 30
0.0
 11
2254.499991390134
 21
1761.000001605376
 31
0.0
  0
LINE
  5
1BDB1
330
1F
100
AcDbEntity
  8
破線
100
AcDbLine
 10
1218.499991390134
 20
1624.500001605376
 30
0.0
 11
1250.499991390134
 21
1624.500001605376
 31
0.0
  0
LINE
  5
1BDB2
330
1F
100
AcDbEntity
  8
破線
100
AcDbLine
 10
1218.499991390134
 20
1615.500001605376
 30
0.0
 11
1250.499991390134
 21
1615.500001605376
 31
0.0
  0
LINE
  5
1BDB3
330
1F
100
AcDbEntity
  8
破線
100
AcDbLine
 10
2254.499991390134
 20
1624.500001605376
 30
0.0
 11
2286.499991390134
 21
1624.500001605376
 31
0.0
  0
LINE
  5
1BDB4
330
1F
100
AcDbEntity
  8
破線
100
AcDbLine
 10
2254.499991390134
 20
1615.500001605376
 30
0.0
 11
2286.499991390134
 21
1615.500001605376
 31
0.0
  0
DIMENSION
  5
1BDB5
330
1F
100
AcDbEntity
  8
寸法線
100
AcDbDimension
280
     0
  2
*D32
 10
2922.499991296718
 20
2075.999981755368
 30
0.0
 11
2922.499991296718
 21
2220.000018975044
 31
0.0
 70
   160
 71
     5
 42
288.0000744393537
 73
     0
 74
     0
 75
     0
  3
STANDARD
100
AcDbAlignedDimension
 13
2802.49997148361
 23
2364.000056194721
 33
0.0
 14
2802.49997148361
 24
2075.999981755368
 34
0.0
 50
90.0
100
AcDbRotatedDimension
  0
LINE
  5
1BDB6
330
1F
100
AcDbEntity
  8
中心線
100
AcDbLine
 10
3347.499991296718
 20
2045.000018975045
 30
0.0
 11
3347.499991296718
 21
2395.000018975045
 31
0.0
  0
DIMENSION
  5
1BDB7
330
1F
100
AcDbEntity
  8
寸法線
100
AcDbDimension
280
     0
  2
*D33
 10
3197.499991296718
 20
1949.999999161934
 30
0.0
 11
3347.499991296718
 21
1949.999999161934
 31
0.0
 70
   160
 71
     5
 42
300.0
 73
     0
 74
     0
 75
     0
  3
STANDARD
100
AcDbAlignedDimension
 13
3497.499991296718
 23
2070.000018975044
 33
0.0
 14
3197.499991296718
 24
2070.000018975044
 34
0.0
100
AcDbRotatedDimension
  0
DIMENSION
  5
1BDB8
330
1F
100
AcDbEntity
  8
寸法線
100
AcDbDimension
280
     0
  2
*D34
 10
3077.499991296718
 20
2070.000018975045
 30
0.0
 11
3077.499991296718
 21
2220.000018975044
 31
0.0
 70
   160
 71
     5
 42
299.9999999999991
 73
     0
 74
     0
 75
     0
  3
STANDARD
100
AcDbAlignedDimension
 13
3197.499991296718
 23
2370.000018975044
 33
0.0
 14
3197.499991296718
 24
2070.000018975044
 34
0.0
 50
270.0
100
AcDbRotatedDimension
  0
LINE
  5
1BDB9
330
1F
100
AcDbEntity
  8
中心線
100
AcDbLine
 10
3522.499991296718
 20
2220.000018975044
 30
0.0
 11
3172.499991296718
 21
2220.000018975044
 31
0.0
  0
LINE
  5
1BDBA
330
1F
100
AcDbEntity
  8
中心線
100
AcDbLine
 10
1192.500094975159
 20
2345.000001605376
 30
0.0
 11
2312.50009497516
 21
2345.000001605376
 31
0.0
  0
LINE
  5
1BDBB
330
1F
100
AcDbEntity
  8
中心線
100
AcDbLine
 10
1192.500153788347
 20
2094.999974316122
 30
0.0
 11
2312.500153788301
 21
2095.000171928417
 31
0.0
  0
LINE
  5
1BDBC
330
1F
100
AcDbEntity
  8
中心線
100
AcDbLine
 10
1107.429552474727
 20
1745.000019850007
 30
0.0
 11
2402.611943080734
 21
1745.000019850007
 31
0.0
  0
LINE
  5
1BDBD
330
1F
100
AcDbEntity
  8
中心線
100
AcDbLine
 10
1107.429611237683
 20
1494.999916102851
 30
0.0
 11
2402.612001843625
 21
1495.000195900154
 31
0.0
  0
LINE
  5
1BDBE
330
1F
100
AcDbEntity
  8
実線
100
AcDbLine
 10
2802.499971483615
 20
1770.000034820441
 30
0.0
 11
2802.499971483615
 21
1470.000034820441
 31
0.0
  0
LINE
  5
1BDBF
330
1F
100
AcDbEntity
  8
破線
100
AcDbLine
 10
2776.499971483614
 20
1624.999997600775
 30
0.0
 11
2786.499971483615
 21
1634.999997600775
 31
0.0
  0
LINE
  5
1BDC0
330
1F
100
AcDbEntity
  8
仮想線
100
AcDbLine
 10
2780.499971483614
 20
1624.999997600775
 30
0.0
 11
2786.499971483615
 21
1630.999997600775
 31
0.0
  0
LINE
  5
1BDC1
330
1F
100
AcDbEntity
  8
破線
100
AcDbLine
 10
2776.499971483614
 20
1614.999997600761
 30
0.0
 11
2786.499971483615
 21
1604.99999760076
 31
0.0
  0
LINE
  5
1BDC2
330
1F
100
AcDbEntity
  8
仮想線
100
AcDbLine
 10
2780.499971483614
 20
1614.999997600761
 30
0.0
 11
2786.499971483615
 21
1608.99999760076
 31
0.0
  0
LINE
  5
1BDC3
330
1F
100
AcDbEntity
  8
破線
100
AcDbLine
 10
2786.499971483615
 20
1744.999997600775
 30
0.0
 11
2761.499951670498
 21
1744.999997600775
 31
0.0
  0
LINE
  5
1BDC4
330
1F
100
AcDbEntity
  8
破線
100
AcDbLine
 10
2636.499971483615
 20
1655.000034820441
 30
0.0
 11
2636.499971483615
 21
1624.999997600775
 31
0.0
  0
LINE
  5
1BDC5
330
1F
100
AcDbEntity
  8
破線
100
AcDbLine
 10
2761.499951670498
 20
1744.999997600775
 30
0.0
 11
2636.499971483615
 21
1655.000034820441
 31
0.0
  0
LINE
  5
1BDC6
330
1F
100
AcDbEntity
  8
破線
100
AcDbLine
 10
2636.499971483615
 20
1584.999960381094
 30
0.0
 11
2636.499971483615
 21
1614.999997600761
 31
0.0
  0
LINE
  5
1BDC7
330
1F
100
AcDbEntity
  8
破線
100
AcDbLine
 10
2761.499951670498
 20
1494.99999760076
 30
0.0
 11
2636.499971483615
 21
1584.999960381094
 31
0.0
  0
LINE
  5
1BDC8
330
1F
100
AcDbEntity
  8
破線
100
AcDbLine
 10
2786.499971483615
 20
1494.99999760076
 30
0.0
 11
2761.499951670498
 21
1494.99999760076
 31
0.0
  0
LINE
  5
1BDC9
330
1F
100
AcDbEntity
  8
実線
100
AcDbLine
 10
2302.499951670498
 20
1470.00014647947
 30
0.0
 11
2802.499971483615
 21
1470.000034820441
 31
0.0
  0
LINE
  5
1BDCA
330
1F
100
AcDbEntity
  8
破線
100
AcDbLine
 10
2302.499951670498
 20
1615.000072040122
 30
0.0
 11
2786.499971483615
 21
1615.000072040122
 31
0.0
  0
LINE
  5
1BDCB
330
1F
100
AcDbEntity
  8
破線
100
AcDbLine
 10
2302.499951670498
 20
1625.000072040122
 30
0.0
 11
2786.499971483615
 21
1625.000072040122
 31
0.0
  0
LINE
  5
1BDCC
330
1F
100
AcDbEntity
  8
実線
100
AcDbLine
 10
2302.499951670498
 20
1769.999997600775
 30
0.0
 11
2802.499971483615
 21
1770.000034820441
 31
0.0
  0
LINE
  5
1BDCD
330
1F
100
AcDbEntity
  8
実線
100
AcDbLine
 10
2786.499971483615
 20
1769.999997600775
 30
0.0
 11
2786.499971483615
 21
1470.00014647947
 31
0.0
  0
LINE
  5
1BDCE
330
1F
100
AcDbEntity
  8
破線
100
AcDbLine
 10
2302.499951670498
 20
1752.999997600775
 30
0.0
 11
2382.499951670498
 21
1752.999997600775
 31
0.0
  0
LINE
  5
1BDCF
330
1F
100
AcDbEntity
  8
破線
100
AcDbLine
 10
2302.499951670498
 20
1736.999997600775
 30
0.0
 11
2382.499951670498
 21
1736.999997600775
 31
0.0
  0
LINE
  5
1BDD0
330
1F
100
AcDbEntity
  8
破線
100
AcDbLine
 10
2382.499951670498
 20
1752.999997600775
 30
0.0
 11
2382.499951670498
 21
1736.999997600775
 31
0.0
  0
LINE
  5
1BDD1
330
1F
100
AcDbEntity
  8
破線
100
AcDbLine
 10
2302.499951670498
 20
1487.000146479469
 30
0.0
 11
2382.499951670498
 21
1487.000146479469
 31
0.0
  0
LINE
  5
1BDD2
330
1F
100
AcDbEntity
  8
破線
100
AcDbLine
 10
2302.499951670498
 20
1503.00014647947
 30
0.0
 11
2382.499951670498
 21
1503.00014647947
 31
0.0
  0
LINE
  5
1BDD3
330
1F
100
AcDbEntity
  8
破線
100
AcDbLine
 10
2382.499951670498
 20
1487.000146479469
 30
0.0
 11
2382.499951670498
 21
1503.00014647947
 31
0.0
  0
LINE
  5
1BDD4
330
1F
100
AcDbEntity
  8
実線
100
AcDbLine
 10
2302.499991390133
 20
1460.000017450781
 30
0.0
 11
2302.499991390133
 21
1780.000037300791
 31
0.0
  0
LINE
  5
1BDD5
330
1F
100
AcDbEntity
  8
中心線
100
AcDbLine
 10
2752.499971483615
 20
1729.841529581485
 30
0.0
 11
2752.499971483615
 21
1659.841566801166
 31
0.0
  0
LINE
  5
1BDD6
330
1F
100
AcDbEntity
  8
中心線
100
AcDbLine
 10
2787.499952873774
 20
1694.841548191333
 30
0.0
 11
2717.499990093447
 21
1694.841548191333
 31
0.0
  0
CIRCLE
  5
1BDD7
330
1F
100
AcDbEntity
  8
実線
100
AcDbCircle
 10
2752.499971483615
 20
1694.841548191333
 30
0.0
 40
12.5
  0
LINE
  5
1BDD8
330
1F
100
AcDbEntity
  8
中心線
100
AcDbLine
 10
2752.499971483615
 20
1509.841629581489
 30
0.0
 11
2752.499971483615
 21
1579.841592361823
 31
0.0
  0
LINE
  5
1BDD9
330
1F
100
AcDbEntity
  8
中心線
100
AcDbLine
 10
2787.499952873774
 20
1544.841610971656
 30
0.0
 11
2717.499990093447
 21
1544.841610971656
 31
0.0
  0
CIRCLE
  5
1BDDA
330
1F
100
AcDbEntity
  8
実線
100
AcDbCircle
 10
2752.499971483615
 20
1544.841610971656
 30
0.0
 40
12.5
  0
LINE
  5
1BDDB
330
1F
100
AcDbEntity
  8
中心線
100
AcDbLine
 10
2652.499971483615
 20
1729.841529581485
 30
0.0
 11
2652.499971483615
 21
1659.841566801166
 31
0.0
  0
LINE
  5
1BDDC
330
1F
100
AcDbEntity
  8
中心線
100
AcDbLine
 10
2687.499952873773
 20
1694.841548191333
 30
0.0
 11
2617.499990093448
 21
1694.841548191333
 31
0.0
  0
CIRCLE
  5
1BDDD
330
1F
100
AcDbEntity
  8
実線
100
AcDbCircle
 10
2652.499971483615
 20
1694.841548191333
 30
0.0
 40
12.5
  0
LINE
  5
1BDDE
330
1F
100
AcDbEntity
  8
中心線
100
AcDbLine
 10
2652.499971483615
 20
1509.841629581489
 30
0.0
 11
2652.499971483615
 21
1579.841592361823
 31
0.0
  0
LINE
  5
1BDDF
330
1F
100
AcDbEntity
  8
中心線
100
AcDbLine
 10
2687.499952873773
 20
1544.841610971656
 30
0.0
 11
2617.499990093448
 21
1544.841610971656
 31
0.0
  0
CIRCLE
  5
1BDE0
330
1F
100
AcDbEntity
  8
実線
100
AcDbCircle
 10
2652.499971483615
 20
1544.841610971656
 30
0.0
 40
12.5
  0
LINE
  5
1BDE1
330
1F
100
AcDbEntity
  8
中心線
100
AcDbLine
 10
2552.499971483614
 20
1729.841529581485
 30
0.0
 11
2552.499971483614
 21
1659.841566801166
 31
0.0
  0
LINE
  5
1BDE2
330
1F
100
AcDbEntity
  8
中心線
100
AcDbLine
 10
2587.499952873774
 20
1694.841548191333
 30
0.0
 11
2517.499990093448
 21
1694.841548191333
 31
0.0
  0
CIRCLE
  5
1BDE3
330
1F
100
AcDbEntity
  8
実線
100
AcDbCircle
 10
2552.499971483614
 20
1694.841548191333
 30
0.0
 40
12.5
  0
LINE
  5
1BDE4
330
1F
100
AcDbEntity
  8
中心線
100
AcDbLine
 10
2552.499971483614
 20
1509.841629581489
 30
0.0
 11
2552.499971483614
 21
1579.841592361823
 31
0.0
  0
LINE
  5
1BDE5
330
1F
100
AcDbEntity
  8
中心線
100
AcDbLine
 10
2587.499952873774
 20
1544.841610971656
 30
0.0
 11
2517.499990093448
 21
1544.841610971656
 31
0.0
  0
CIRCLE
  5
1BDE6
330
1F
100
AcDbEntity
  8
実線
100
AcDbCircle
 10
2552.499971483614
 20
1544.841610971656
 30
0.0
 40
12.5
  0
LINE
  5
1BDE7
330
1F
100
AcDbEntity
  8
中心線
100
AcDbLine
 10
2776.500310174712
 20
1719.938370542914
 30
0.0
 11
2812.500329987821
 21
1719.938370542914
 31
0.0
  0
LINE
  5
1BDE8
330
1F
100
AcDbEntity
  8
中心線
100
AcDbLine
 10
2776.500310174712
 20
1519.938444266409
 30
0.0
 11
2812.500329987821
 21
1519.938444266409
 31
0.0
  0
DIMENSION
  5
1BDE9
330
1F
100
AcDbEntity
  8
寸法線
100
AcDbDimension
280
     0
  2
*D29
 10
2462.499951670498
 20
1495.000195900154
 30
0.0
 11
2462.499951670498
 21
1482.500115360301
 31
0.0
 70
   160
 71
     5
 42
25.00016107970532
 73
     0
 74
     0
 75
     0
  3
STANDARD
100
AcDbAlignedDimension
 13
2302.500250641965
 23
1470.000034820448
 33
0.0
 14
2402.612001843625
 24
1495.000195900154
 34
0.0
 50
90.0
100
AcDbRotatedDimension
  0
DIMENSION
  5
1BDEA
330
1F
100
AcDbEntity
  8
寸法線
100
AcDbDimension
280
     0
  2
*D30
 10
2462.499951670496
 20
1736.999997600776
 30
0.0
 11
2462.499951670496
 21
1744.999997600775
 31
0.0
 70
   160
 71
     5
 42
16.0
 73
     0
 74
     0
 75
     0
  3
STANDARD
100
AcDbAlignedDimension
 13
2382.499951670498
 23
1752.999997600775
 33
0.0
 14
2382.499951670498
 24
1736.999997600775
 34
0.0
 50
270.0
100
AcDbRotatedDimension
1001
ACAD
1000
DSTYLE
1002
{
1070
   271
1070
     1
1002
}
  0
LINE
  5
1BDEB
330
1F
100
AcDbEntity
  8
実線
100
AcDbLine
 10
2802.500011296659
 20
2364.000017369674
 30
0.0
 11
2802.500011296659
 21
2076.000017369674
 31
0.0
  0
LINE
  5
1BDEC
330
1F
100
AcDbEntity
  8
実線
100
AcDbLine
 10
2786.500011296659
 20
2369.999988421024
 30
0.0
 11
2786.500011296659
 21
2070.000017369673
 31
0.0
  0
LINE
  5
1BDED
330
1F
100
AcDbEntity
  8
実線
100
AcDbLine
 10
2786.500011296659
 20
2369.999988421024
 30
0.0
 11
2302.499991483543
 21
2369.999980149993
 31
0.0
  0
LINE
  5
1BDEE
330
1F
100
AcDbEntity
  8
実線
100
AcDbLine
 10
2786.500011296659
 20
2354.999980149993
 30
0.0
 11
2302.499991483543
 21
2354.999980149993
 31
0.0
  0
LINE
  5
1BDEF
330
1F
100
AcDbEntity
  8
実線
100
AcDbLine
 10
2382.500011296659
 20
2354.999980149993
 30
0.0
 11
2382.500011296659
 21
2335.000017369674
 31
0.0
  0
LINE
  5
1BDF0
330
1F
100
AcDbEntity
  8
実線
100
AcDbLine
 10
2332.499991483543
 20
2304.999980149993
 30
0.0
 11
2302.499991483543
 21
2304.999980149993
 31
0.0
  0
LINE
  5
1BDF1
330
1F
100
AcDbEntity
  8
実線
100
AcDbLine
 10
2382.500011296659
 20
2335.000017369674
 30
0.0
 11
2332.499991483543
 21
2304.999980149993
 31
0.0
  0
LINE
  5
1BDF2
330
1F
100
AcDbEntity
  8
実線
100
AcDbLine
 10
2802.500011296659
 20
2364.000017369674
 30
0.0
 11
2786.500011296659
 21
2364.000017369674
 31
0.0
  0
LINE
  5
1BDF3
330
1F
100
AcDbEntity
  8
仮想線
100
AcDbLine
 10
2786.500011296659
 20
2369.999988421024
 30
0.0
 11
2792.499982348017
 21
2364.000017369674
 31
0.0
  0
LINE
  5
1BDF4
330
1F
100
AcDbEntity
  8
実線
100
AcDbLine
 10
2786.500011296659
 20
2225.999980149993
 30
0.0
 11
2636.499991483543
 21
2225.999980149993
 31
0.0
  0
LINE
  5
1BDF5
330
1F
100
AcDbEntity
  8
実線
100
AcDbLine
 10
2786.500011296659
 20
2213.999980149992
 30
0.0
 11
2636.499991483543
 21
2213.999980149992
 31
0.0
  0
LINE
  5
1BDF6
330
1F
100
AcDbEntity
  8
実線
100
AcDbLine
 10
2636.499991483543
 20
2225.999980149993
 30
0.0
 11
2636.499991483543
 21
2213.999980149992
 31
0.0
  0
LINE
  5
1BDF7
330
1F
100
AcDbEntity
  8
実線
100
AcDbLine
 10
2312.500011296659
 20
2354.999980149993
 30
0.0
 11
2302.499991483543
 21
2344.999980149992
 31
0.0
  0
LINE
  5
1BDF8
330
1F
100
AcDbEntity
  8
仮想線
100
AcDbLine
 10
2308.50000337141
 20
2354.999980149993
 30
0.0
 11
2302.499991483543
 21
2348.999980149993
 31
0.0
  0
LINE
  5
1BDF9
330
1F
100
AcDbEntity
  8
仮想線
100
AcDbLine
 10
2302.499982426663
 20
2376.000003503459
 30
0.0
 11
2308.500005780137
 21
2369.999980149993
 31
0.0
  0
LINE
  5
1BDFA
330
1F
100
AcDbEntity
  8
実線
100
AcDbLine
 10
2786.500011296659
 20
2069.999970926072
 30
0.0
 11
2302.499991483543
 21
2069.999980149992
 31
0.0
  0
LINE
  5
1BDFB
330
1F
100
AcDbEntity
  8
実線
100
AcDbLine
 10
2786.500011296659
 20
2084.999980149992
 30
0.0
 11
2302.499991483543
 21
2084.999980149992
 31
0.0
  0
LINE
  5
1BDFC
330
1F
100
AcDbEntity
  8
実線
100
AcDbLine
 10
2382.500011296659
 20
2084.999980149992
 30
0.0
 11
2382.500011296659
 21
2104.999942930312
 31
0.0
  0
LINE
  5
1BDFD
330
1F
100
AcDbEntity
  8
実線
100
AcDbLine
 10
2332.499991483543
 20
2134.999980149993
 30
0.0
 11
2302.499991483543
 21
2134.999980149993
 31
0.0
  0
LINE
  5
1BDFE
330
1F
100
AcDbEntity
  8
実線
100
AcDbLine
 10
2382.500011296659
 20
2104.999942930312
 30
0.0
 11
2332.499991483543
 21
2134.999980149993
 31
0.0
  0
LINE
  5
1BDFF
330
1F
100
AcDbEntity
  8
実線
100
AcDbLine
 10
2802.500011296659
 20
2075.999942930312
 30
0.0
 11
2786.500011296659
 21
2075.999942930312
 31
0.0
  0
LINE
  5
1BE00
330
1F
100
AcDbEntity
  8
仮想線
100
AcDbLine
 10
2786.500011296659
 20
2069.999971878946
 30
0.0
 11
2792.499982348017
 21
2075.999942930312
 31
0.0
  0
LINE
  5
1BE01
330
1F
100
AcDbEntity
  8
実線
100
AcDbLine
 10
2312.500011296659
 20
2084.999980149992
 30
0.0
 11
2302.499991483543
 21
2094.999980149992
 31
0.0
  0
LINE
  5
1BE02
330
1F
100
AcDbEntity
  8
仮想線
100
AcDbLine
 10
2308.50000337141
 20
2084.999980149992
 30
0.0
 11
2302.499991483543
 21
2090.999980149993
 31
0.0
  0
LINE
  5
1BE03
330
1F
100
AcDbEntity
  8
仮想線
100
AcDbLine
 10
2302.499982426663
 20
2063.999956796512
 30
0.0
 11
2308.500005780137
 21
2069.999980149992
 31
0.0
  0
LINE
  5
1BE04
330
1F
100
AcDbEntity
  8
実線
100
AcDbLine
 10
2302.499991390134
 20
2059.999999999998
 30
0.0
 11
2302.499991390134
 21
2380.000019850008
 31
0.0
  0
LINE
  5
1BE05
330
1F
100
AcDbEntity
  8
中心線
100
AcDbLine
 10
2752.500075921344
 20
2380.000075267175
 30
0.0
 11
2752.500075921344
 21
2345.000075267175
 31
0.0
  0
LINE
  5
1BE06
330
1F
100
AcDbEntity
  8
中心線
100
AcDbLine
 10
2752.500075921344
 20
2060.00000081751
 30
0.0
 11
2752.500075921344
 21
2095.00000081751
 31
0.0
  0
LINE
  5
1BE07
330
1F
100
AcDbEntity
  8
中心線
100
AcDbLine
 10
2652.500075921344
 20
2380.000075267175
 30
0.0
 11
2652.500075921344
 21
2345.000075267175
 31
0.0
  0
LINE
  5
1BE08
330
1F
100
AcDbEntity
  8
中心線
100
AcDbLine
 10
2652.500075921344
 20
2060.00000081751
 30
0.0
 11
2652.500075921344
 21
2095.00000081751
 31
0.0
  0
LINE
  5
1BE09
330
1F
100
AcDbEntity
  8
中心線
100
AcDbLine
 10
2552.500075921344
 20
2380.000075267175
 30
0.0
 11
2552.500075921344
 21
2345.000075267175
 31
0.0
  0
LINE
  5
1BE0A
330
1F
100
AcDbEntity
  8
中心線
100
AcDbLine
 10
2552.500075921344
 20
2060.00000081751
 30
0.0
 11
2552.500075921344
 21
2095.00000081751
 31
0.0
  0
DIMENSION
  5
1BE0B
330
1F
100
AcDbEntity
  8
寸法線
100
AcDbDimension
280
     0
  2
*D31
 10
2556.499911857463
 20
2213.999980149994
 30
0.0
 11
2556.499911857463
 21
2219.999980149992
 31
0.0
 70
   160
 71
     5
 42
12.0
 73
     0
 74
     0
 75
     0
  3
STANDARD
100
AcDbAlignedDimension
 13
2636.499991483543
 23
2225.999980149993
 33
0.0
 14
2636.499991483543
 24
2213.999980149992
 34
0.0
 50
90.0
100
AcDbRotatedDimension
1001
ACAD
1000
DSTYLE
1002
{
1070
   140
1040
2.5
1002
}
  0
LEADER
  5
1BE0E
330
1F
100
AcDbEntity
  8
寸法線
100
AcDbLeader
  3
STANDARD
 76
     3
 10
2710.41791613803
 20
2225.999980149993
 30
0.0
 10
2683.131430781832
 20
2282.918720975546
 30
0.0
 10
2518.964795895983
 20
2282.918720975546
 30
0.0
1001
ACAD
1000
DSTYLE
1002
{
1070
   147
1040
0.875
1070
    77
1070
     0
1002
}
  0
TEXT
  5
1BE0F
330
1F
100
AcDbEntity
  8
寸法線
100
AcDbText
 10
2531.048097448499
 20
2291.66872097556
 30
0.0
 40
25.0
  1
ﾘﾌﾞﾌﾟﾚｰﾄ②
 72
     2
 11
2674.381430781832
 21
2291.66872097556
 31
0.0
100
AcDbText
 73
     1
  0
LINE
  5
1BE10
330
1F
100
AcDbEntity
  8
中心線
100
AcDbLine
 10
2776.500050922878
 20
2145.000054231363
 30
0.0
 11
2812.500070735987
 21
2145.000054231363
 31
0.0
  0
LINE
  5
1BE11
330
1F
100
AcDbEntity
  8
中心線
100
AcDbLine
 10
2776.500050922878
 20
2295.123235339457
 30
0.0
 11
2812.500070735987
 21
2295.123235339457
 31
0.0
  0
TEXT
  5
1BE12
330
1F
100
AcDbEntity
  8
寸法線
100
AcDbText
 10
3345.862600575055
 20
2497.218402119426
 30
0.0
 40
25.0
  1
主材連結用孔
 72
     2
 11
3519.195933908388
 21
2522.218402119426
 31
0.0
100
AcDbText
 73
     3
  0
LEADER
  5
1BE13
330
1F
100
AcDbEntity
  8
寸法線
100
AcDbLeader
  3
STANDARD
 76
     3
 10
3255.71419967121
 20
2304.422198121884
 30
0.0
 10
3347.500009906555
 20
2490.000048847115
 30
0.0
 10
3521.246439142068
 20
2490.000048847115
 30
0.0
211
-1.0
221
0.0
231
0.0
1001
ACAD
1000
DSTYLE
1002
{
1070
   147
1040
0.875
1070
    77
1070
     0
1002
}
  0
LINE
  5
1BE14
330
1F
100
AcDbEntity
  8
中心線
100
AcDbLine
 10
3247.500009906555
 20
2110.000057397991
 30
0.0
 11
3247.500009906555
 21
2180.000020178317
 31
0.0
  0
CIRCLE
  5
1BE15
330
1F
100
AcDbEntity
  8
実線
100
AcDbCircle
 10
3247.500009906555
 20
2145.000038788154
 30
0.0
 40
12.5
  0
LINE
  5
1BE16
330
1F
100
AcDbEntity
  8
中心線
100
AcDbLine
 10
3282.499991296718
 20
2145.000038788154
 30
0.0
 11
3212.500028516391
 21
2145.000038788154
 31
0.0
  0
LINE
  5
1BE17
330
1F
100
AcDbEntity
  8
中心線
100
AcDbLine
 10
3247.500009906555
 20
2330.000020178317
 30
0.0
 11
3247.500009906555
 21
2260.000057397991
 31
0.0
  0
CIRCLE
  5
1BE18
330
1F
100
AcDbEntity
  8
実線
100
AcDbCircle
 10
3247.500009906555
 20
2295.000038788154
 30
0.0
 40
12.5
  0
LINE
  5
1BE19
330
1F
100
AcDbEntity
  8
中心線
100
AcDbLine
 10
3282.499991296718
 20
2295.000038788154
 30
0.0
 11
3212.500028516391
 21
2295.000038788154
 31
0.0
  0
LINE
  5
1BE1A
330
1F
100
AcDbEntity
  8
中心線
100
AcDbLine
 10
3447.500047126228
 20
2110.000057397991
 30
0.0
 11
3447.500047126228
 21
2180.000020178317
 31
0.0
  0
CIRCLE
  5
1BE1B
330
1F
100
AcDbEntity
  8
実線
100
AcDbCircle
 10
3447.500047126228
 20
2145.000038788154
 30
0.0
 40
12.5
  0
LINE
  5
1BE1C
330
1F
100
AcDbEntity
  8
中心線
100
AcDbLine
 10
3412.500065736065
 20
2145.000038788154
 30
0.0
 11
3482.500028516392
 21
2145.000038788154
 31
0.0
  0
LINE
  5
1BE1D
330
1F
100
AcDbEntity
  8
中心線
100
AcDbLine
 10
3447.500047126228
 20
2330.000020178317
 30
0.0
 11
3447.500047126228
 21
2260.000057397991
 31
0.0
  0
CIRCLE
  5
1BE1E
330
1F
100
AcDbEntity
  8
実線
100
AcDbCircle
 10
3447.500047126228
 20
2295.000038788154
 30
0.0
 40
12.5
  0
LINE
  5
1BE1F
330
1F
100
AcDbEntity
  8
中心線
100
AcDbLine
 10
3412.500065736065
 20
2295.000038788154
 30
0.0
 11
3482.500028516392
 21
2295.000038788154
 31
0.0
  0
LINE
  5
1BE20
330
1F
100
AcDbEntity
  8
実線
100
AcDbLine
 10
3197.500028516392
 20
2076.000038788154
 30
0.0
 11
3497.500028516391
 21
2076.000038788154
 31
0.0
  0
LINE
  5
1BE21
330
1F
100
AcDbEntity
  8
実線
100
AcDbLine
 10
3197.500028516392
 20
2364.000038788154
 30
0.0
 11
3497.500028516391
 21
2364.000038788154
 31
0.0
  0
LINE
  5
1BE22
330
1F
100
AcDbEntity
  8
破線
100
AcDbLine
 10
3197.500028516392
 20
2085.000018975045
 30
0.0
 11
3329.500028516392
 21
2085.000018975045
 31
0.0
  0
LINE
  5
1BE23
330
1F
100
AcDbEntity
  8
破線
100
AcDbLine
 10
3342.500028516392
 20
2342.000058601263
 30
0.0
 11
3342.500028516392
 21
2098.000018975045
 31
0.0
  0
ARC
  5
1BE24
330
1F
100
AcDbEntity
  8
破線
100
AcDbCircle
 10
3329.500028516392
 20
2098.000018975045
 30
0.0
 40
13.0
100
AcDbArc
 50
270.0
 51
0.0
  0
LINE
  5
1BE25
330
1F
100
AcDbEntity
  8
破線
100
AcDbLine
 10
3197.500028516392
 20
2355.000058601263
 30
0.0
 11
3329.500028516392
 21
2355.000058601263
 31
0.0
  0
ARC
  5
1BE26
330
1F
100
AcDbEntity
  8
破線
100
AcDbCircle
 10
3329.500028516392
 20
2342.000058601263
 30
0.0
 40
13.0
100
AcDbArc
 50
0.0
 51
90.0
  0
LINE
  5
1BE27
330
1F
100
AcDbEntity
  8
破線
100
AcDbLine
 10
3497.500028516395
 20
2085.000018975045
 30
0.0
 11
3365.500028516392
 21
2085.000018975045
 31
0.0
  0
LINE
  5
1BE28
330
1F
100
AcDbEntity
  8
破線
100
AcDbLine
 10
3352.500028516391
 20
2342.000058601263
 30
0.0
 11
3352.500028516391
 21
2098.000018975045
 31
0.0
  0
ARC
  5
1BE29
330
1F
100
AcDbEntity
  8
破線
100
AcDbCircle
 10
3365.500028516392
 20
2098.000018975045
 30
0.0
 40
13.0
100
AcDbArc
 50
180.0
 51
270.0
  0
LINE
  5
1BE2A
330
1F
100
AcDbEntity
  8
破線
100
AcDbLine
 10
3497.500028516395
 20
2355.000058601263
 30
0.0
 11
3365.500028516392
 21
2355.000058601263
 31
0.0
  0
ARC
  5
1BE2B
330
1F
100
AcDbEntity
  8
破線
100
AcDbCircle
 10
3365.500028516392
 20
2342.000058601263
 30
0.0
 40
13.0
100
AcDbArc
 50
90.0
 51
180.0
  0
LINE
  5
1BE2C
330
1F
100
AcDbEntity
  8
破線
100
AcDbLine
 10
3222.499991296718
 20
2214.000038788154
 30
0.0
 11
3342.500028516392
 21
2214.000038788154
 31
0.0
  0
LINE
  5
1BE2D
330
1F
100
AcDbEntity
  8
破線
100
AcDbLine
 10
3222.499991296718
 20
2226.000038788154
 30
0.0
 11
3342.500028516392
 21
2226.000038788154
 31
0.0
  0
LINE
  5
1BE2E
330
1F
100
AcDbEntity
  8
破線
100
AcDbLine
 10
3222.499991296718
 20
2214.000038788154
 30
0.0
 11
3222.499991296718
 21
2226.000038788154
 31
0.0
  0
LINE
  5
1BE2F
330
1F
100
AcDbEntity
  8
破線
100
AcDbLine
 10
3472.500065736066
 20
2214.000038788154
 30
0.0
 11
3352.500028516391
 21
2214.000038788154
 31
0.0
  0
LINE
  5
1BE30
330
1F
100
AcDbEntity
  8
破線
100
AcDbLine
 10
3472.500065736066
 20
2226.000038788154
 30
0.0
 11
3352.500028516391
 21
2226.000038788154
 31
0.0
  0
LINE
  5
1BE31
330
1F
100
AcDbEntity
  8
破線
100
AcDbLine
 10
3472.500065736066
 20
2214.000038788154
 30
0.0
 11
3472.500065736066
 21
2226.000038788154
 31
0.0
  0
LINE
  5
1BE32
330
1F
100
AcDbEntity
  8
実線
100
AcDbLine
 10
3497.500028516391
 20
2370.000038788154
 30
0.0
 11
3497.500028516391
 21
2070.000038788154
 31
0.0
  0
LINE
  5
1BE33
330
1F
100
AcDbEntity
  8
実線
100
AcDbLine
 10
3197.500028516392
 20
2370.000038788154
 30
0.0
 11
3197.500028516392
 21
2070.000038788154
 31
0.0
  0
LINE
  5
1BE34
330
1F
100
AcDbEntity
  8
実線
100
AcDbLine
 10
3197.500028516392
 20
2070.000038788154
 30
0.0
 11
3497.500028516391
 21
2070.000038788154
 31
0.0
  0
LINE
  5
1BE35
330
1F
100
AcDbEntity
  8
実線
100
AcDbLine
 10
3197.500028516392
 20
2370.000038788154
 30
0.0
 11
3497.500028516391
 21
2370.000038788154
 31
0.0
  0
LINE
  5
1BE36
330
1F
100
AcDbEntity
  8
実線
100
AcDbLine
 10
702.4999714836085
 20
2364.000037219682
 30
0.0
 11
702.4999714836085
 21
2076.000037219682
 31
0.0
  0
LINE
  5
1BE37
330
1F
100
AcDbEntity
  8
実線
100
AcDbLine
 10
718.4999714836085
 20
2370.000008271034
 30
0.0
 11
718.4999714836085
 21
2070.000037219682
 31
0.0
  0
LINE
  5
1BE38
330
1F
100
AcDbEntity
  8
実線
100
AcDbLine
 10
718.4999714836085
 20
2370.000008271034
 30
0.0
 11
1202.499991296725
 21
2370.000000000001
 31
0.0
  0
LINE
  5
1BE39
330
1F
100
AcDbEntity
  8
実線
100
AcDbLine
 10
718.4999714836085
 20
2355.000000000002
 30
0.0
 11
1202.499991296725
 21
2355.000000000002
 31
0.0
  0
LINE
  5
1BE3A
330
1F
100
AcDbEntity
  8
実線
100
AcDbLine
 10
1122.499971483608
 20
2355.000000000002
 30
0.0
 11
1122.499971483608
 21
2335.000037219682
 31
0.0
  0
LINE
  5
1BE3B
330
1F
100
AcDbEntity
  8
実線
100
AcDbLine
 10
1172.499991296725
 20
2305.000000000001
 30
0.0
 11
1202.499991296725
 21
2305.000000000001
 31
0.0
  0
LINE
  5
1BE3C
330
1F
100
AcDbEntity
  8
実線
100
AcDbLine
 10
1122.499971483608
 20
2335.000037219682
 30
0.0
 11
1172.499991296725
 21
2305.000000000001
 31
0.0
  0
LINE
  5
1BE3D
330
1F
100
AcDbEntity
  8
実線
100
AcDbLine
 10
702.4999714836085
 20
2364.000037219682
 30
0.0
 11
718.4999714836085
 21
2364.000037219682
 31
0.0
  0
LINE
  5
1BE3E
330
1F
100
AcDbEntity
  8
仮想線
100
AcDbLine
 10
718.4999714836085
 20
2370.000008271034
 30
0.0
 11
712.5000004322501
 21
2364.000037219682
 31
0.0
  0
LINE
  5
1BE3F
330
1F
100
AcDbEntity
  8
実線
100
AcDbLine
 10
718.4999714836085
 20
2226.000000000002
 30
0.0
 11
868.4999912967251
 21
2226.000000000002
 31
0.0
  0
LINE
  5
1BE40
330
1F
100
AcDbEntity
  8
実線
100
AcDbLine
 10
718.4999714836085
 20
2214.000000000002
 30
0.0
 11
868.4999912967251
 21
2214.000000000002
 31
0.0
  0
LINE
  5
1BE41
330
1F
100
AcDbEntity
  8
実線
100
AcDbLine
 10
868.4999912967251
 20
2226.000000000002
 30
0.0
 11
868.4999912967251
 21
2214.000000000002
 31
0.0
  0
LINE
  5
1BE42
330
1F
100
AcDbEntity
  8
実線
100
AcDbLine
 10
1192.499971483608
 20
2355.000000000002
 30
0.0
 11
1202.499991296725
 21
2345.000000000001
 31
0.0
  0
LINE
  5
1BE43
330
1F
100
AcDbEntity
  8
仮想線
100
AcDbLine
 10
1196.499979408858
 20
2355.000000000002
 30
0.0
 11
1202.499991296725
 21
2349.000000000001
 31
0.0
  0
LINE
  5
1BE44
330
1F
100
AcDbEntity
  8
仮想線
100
AcDbLine
 10
1202.500000353604
 20
2376.000023353468
 30
0.0
 11
1196.49997700013
 21
2370.000000000001
 31
0.0
  0
LINE
  5
1BE45
330
1F
100
AcDbEntity
  8
実線
100
AcDbLine
 10
718.4999714836085
 20
2069.999990776081
 30
0.0
 11
1202.499991296725
 21
2070.000000000002
 31
0.0
  0
LINE
  5
1BE46
330
1F
100
AcDbEntity
  8
実線
100
AcDbLine
 10
718.4999714836085
 20
2085.000000000002
 30
0.0
 11
1202.499991296725
 21
2085.000000000002
 31
0.0
  0
LINE
  5
1BE47
330
1F
100
AcDbEntity
  8
実線
100
AcDbLine
 10
1122.499971483608
 20
2085.000000000002
 30
0.0
 11
1122.499971483608
 21
2104.99996278032
 31
0.0
  0
LINE
  5
1BE48
330
1F
100
AcDbEntity
  8
実線
100
AcDbLine
 10
1172.499991296725
 20
2135.000000000002
 30
0.0
 11
1202.499991296725
 21
2135.000000000002
 31
0.0
  0
LINE
  5
1BE49
330
1F
100
AcDbEntity
  8
実線
100
AcDbLine
 10
1122.499971483608
 20
2104.99996278032
 30
0.0
 11
1172.499991296725
 21
2135.000000000002
 31
0.0
  0
LINE
  5
1BE4A
330
1F
100
AcDbEntity
  8
実線
100
AcDbLine
 10
702.4999714836085
 20
2075.99996278032
 30
0.0
 11
718.4999714836085
 21
2075.99996278032
 31
0.0
  0
LINE
  5
1BE4B
330
1F
100
AcDbEntity
  8
仮想線
100
AcDbLine
 10
718.4999714836085
 20
2069.999991728955
 30
0.0
 11
712.5000004322501
 21
2075.99996278032
 31
0.0
  0
LINE
  5
1BE4C
330
1F
100
AcDbEntity
  8
実線
100
AcDbLine
 10
1192.499971483608
 20
2085.000000000002
 30
0.0
 11
1202.499991296725
 21
2095.000000000001
 31
0.0
  0
LINE
  5
1BE4D
330
1F
100
AcDbEntity
  8
仮想線
100
AcDbLine
 10
1196.499979408858
 20
2085.000000000002
 30
0.0
 11
1202.499991296725
 21
2091.000000000001
 31
0.0
  0
LINE
  5
1BE4E
330
1F
100
AcDbEntity
  8
仮想線
100
AcDbLine
 10
1202.500000353604
 20
2063.99997664652
 30
0.0
 11
1196.49997700013
 21
2070.000000000002
 31
0.0
  0
LINE
  5
1BE4F
330
1F
100
AcDbEntity
  8
実線
100
AcDbLine
 10
1202.499991390134
 20
2060.000019850007
 30
0.0
 11
1202.499991390134
 21
2380.000019850007
 31
0.0
  0
LINE
  5
1BE50
330
1F
100
AcDbEntity
  8
中心線
100
AcDbLine
 10
752.4999068589241
 20
2380.000095117184
 30
0.0
 11
752.4999068589241
 21
2345.000095117184
 31
0.0
  0
LINE
  5
1BE51
330
1F
100
AcDbEntity
  8
中心線
100
AcDbLine
 10
752.4999068589241
 20
2060.000020667519
 30
0.0
 11
752.4999068589241
 21
2095.000020667519
 31
0.0
  0
LINE
  5
1BE52
330
1F
100
AcDbEntity
  8
中心線
100
AcDbLine
 10
852.499906858924
 20
2380.000095117184
 30
0.0
 11
852.499906858924
 21
2345.000095117184
 31
0.0
  0
LINE
  5
1BE53
330
1F
100
AcDbEntity
  8
中心線
100
AcDbLine
 10
852.499906858924
 20
2060.000020667519
 30
0.0
 11
852.499906858924
 21
2095.000020667519
 31
0.0
  0
LINE
  5
1BE54
330
1F
100
AcDbEntity
  8
中心線
100
AcDbLine
 10
952.499906858924
 20
2380.000095117184
 30
0.0
 11
952.499906858924
 21
2345.000095117184
 31
0.0
  0
LINE
  5
1BE55
330
1F
100
AcDbEntity
  8
中心線
100
AcDbLine
 10
952.499906858924
 20
2060.000020667519
 30
0.0
 11
952.499906858924
 21
2095.000020667519
 31
0.0
  0
LINE
  5
1BE56
330
1F
100
AcDbEntity
  8
中心線
100
AcDbLine
 10
692.500011109827
 20
2145.000056711711
 30
0.0
 11
728.5000309229363
 21
2145.000056711711
 31
0.0
  0
LINE
  5
1BE57
330
1F
100
AcDbEntity
  8
中心線
100
AcDbLine
 10
692.500011109827
 20
2295.123237819791
 30
0.0
 11
728.5000309229363
 21
2295.123237819791
 31
0.0
  0
LINE
  5
1BE58
330
1F
100
AcDbEntity
  8
実線
100
AcDbLine
 10
702.5000112966509
 20
1770.000037219667
 30
0.0
 11
702.5000112966509
 21
1470.000037219668
 31
0.0
  0
LINE
  5
1BE59
330
1F
100
AcDbEntity
  8
破線
100
AcDbLine
 10
728.5000112966509
 20
1625.000000000001
 30
0.0
 11
718.5000112966508
 21
1635.000000000001
 31
0.0
  0
LINE
  5
1BE5A
330
1F
100
AcDbEntity
  8
仮想線
100
AcDbLine
 10
724.5000112966509
 20
1625.000000000001
 30
0.0
 11
718.5000112966508
 21
1631.000000000001
 31
0.0
  0
LINE
  5
1BE5B
330
1F
100
AcDbEntity
  8
破線
100
AcDbLine
 10
728.5000112966509
 20
1614.999999999987
 30
0.0
 11
718.5000112966508
 21
1604.999999999987
 31
0.0
  0
LINE
  5
1BE5C
330
1F
100
AcDbEntity
  8
仮想線
100
AcDbLine
 10
724.5000112966509
 20
1614.999999999987
 30
0.0
 11
718.5000112966508
 21
1608.999999999987
 31
0.0
  0
LINE
  5
1BE5D
330
1F
100
AcDbEntity
  8
破線
100
AcDbLine
 10
718.5000112966508
 20
1745.000000000001
 30
0.0
 11
743.5000311097683
 21
1745.000000000001
 31
0.0
  0
LINE
  5
1BE5E
330
1F
100
AcDbEntity
  8
破線
100
AcDbLine
 10
868.5000112966509
 20
1655.000037219668
 30
0.0
 11
868.5000112966509
 21
1625.000000000001
 31
0.0
  0
LINE
  5
1BE5F
330
1F
100
AcDbEntity
  8
破線
100
AcDbLine
 10
743.5000311097683
 20
1745.000000000001
 30
0.0
 11
868.5000112966509
 21
1655.000037219668
 31
0.0
  0
LINE
  5
1BE60
330
1F
100
AcDbEntity
  8
破線
100
AcDbLine
 10
868.5000112966509
 20
1584.99996278032
 30
0.0
 11
868.5000112966509
 21
1614.999999999987
 31
0.0
  0
LINE
  5
1BE61
330
1F
100
AcDbEntity
  8
破線
100
AcDbLine
 10
743.5000311097683
 20
1494.999999999987
 30
0.0
 11
868.5000112966509
 21
1584.99996278032
 31
0.0
  0
LINE
  5
1BE62
330
1F
100
AcDbEntity
  8
破線
100
AcDbLine
 10
718.5000112966508
 20
1494.999999999987
 30
0.0
 11
743.5000311097683
 21
1494.999999999987
 31
0.0
  0
LINE
  5
1BE63
330
1F
100
AcDbEntity
  8
実線
100
AcDbLine
 10
1202.500031109768
 20
1470.000148878696
 30
0.0
 11
702.5000112966509
 21
1470.000037219668
 31
0.0
  0
LINE
  5
1BE64
330
1F
100
AcDbEntity
  8
破線
100
AcDbLine
 10
1202.500031109768
 20
1615.000074439349
 30
0.0
 11
718.5000112966508
 21
1615.000074439349
 31
0.0
  0
LINE
  5
1BE65
330
1F
100
AcDbEntity
  8
破線
100
AcDbLine
 10
1202.500031109768
 20
1625.000074439349
 30
0.0
 11
718.5000112966508
 21
1625.000074439349
 31
0.0
  0
LINE
  5
1BE66
330
1F
100
AcDbEntity
  8
実線
100
AcDbLine
 10
1202.500031109768
 20
1770.000000000001
 30
0.0
 11
702.5000112966509
 21
1770.000037219667
 31
0.0
  0
LINE
  5
1BE67
330
1F
100
AcDbEntity
  8
実線
100
AcDbLine
 10
718.5000112966508
 20
1770.000000000001
 30
0.0
 11
718.5000112966508
 21
1470.000148878696
 31
0.0
  0
LINE
  5
1BE68
330
1F
100
AcDbEntity
  8
破線
100
AcDbLine
 10
1202.500031109768
 20
1753.000000000001
 30
0.0
 11
1122.500031109767
 21
1753.000000000001
 31
0.0
  0
LINE
  5
1BE69
330
1F
100
AcDbEntity
  8
破線
100
AcDbLine
 10
1202.500031109768
 20
1737.000000000001
 30
0.0
 11
1122.500031109767
 21
1737.000000000001
 31
0.0
  0
LINE
  5
1BE6A
330
1F
100
AcDbEntity
  8
破線
100
AcDbLine
 10
1122.500031109767
 20
1753.000000000001
 30
0.0
 11
1122.500031109767
 21
1737.000000000001
 31
0.0
  0
LINE
  5
1BE6B
330
1F
100
AcDbEntity
  8
破線
100
AcDbLine
 10
1202.500031109768
 20
1487.000148878696
 30
0.0
 11
1122.500031109767
 21
1487.000148878696
 31
0.0
  0
LINE
  5
1BE6C
330
1F
100
AcDbEntity
  8
破線
100
AcDbLine
 10
1202.500031109768
 20
1503.000148878696
 30
0.0
 11
1122.500031109767
 21
1503.000148878696
 31
0.0
  0
LINE
  5
1BE6D
330
1F
100
AcDbEntity
  8
破線
100
AcDbLine
 10
1122.500031109767
 20
1487.000148878696
 30
0.0
 11
1122.500031109767
 21
1503.000148878696
 31
0.0
  0
LINE
  5
1BE6E
330
1F
100
AcDbEntity
  8
中心線
100
AcDbLine
 10
752.5000112966509
 20
1729.841531980711
 30
0.0
 11
752.5000112966509
 21
1659.841569200392
 31
0.0
  0
LINE
  5
1BE6F
330
1F
100
AcDbEntity
  8
中心線
100
AcDbLine
 10
717.5000299064913
 20
1694.841550590559
 30
0.0
 11
787.4999926868185
 21
1694.841550590559
 31
0.0
  0
CIRCLE
  5
1BE70
330
1F
100
AcDbEntity
  8
実線
100
AcDbCircle
 10
752.5000112966509
 20
1694.841550590559
 30
0.0
 40
12.5
  0
LINE
  5
1BE71
330
1F
100
AcDbEntity
  8
中心線
100
AcDbLine
 10
752.5000112966509
 20
1509.841631980716
 30
0.0
 11
752.5000112966509
 21
1579.84159476105
 31
0.0
  0
LINE
  5
1BE72
330
1F
100
AcDbEntity
  8
中心線
100
AcDbLine
 10
717.5000299064913
 20
1544.841613370883
 30
0.0
 11
787.4999926868185
 21
1544.841613370883
 31
0.0
  0
CIRCLE
  5
1BE73
330
1F
100
AcDbEntity
  8
実線
100
AcDbCircle
 10
752.5000112966509
 20
1544.841613370883
 30
0.0
 40
12.5
  0
LINE
  5
1BE74
330
1F
100
AcDbEntity
  8
中心線
100
AcDbLine
 10
852.5000112966509
 20
1729.841531980711
 30
0.0
 11
852.5000112966509
 21
1659.841569200392
 31
0.0
  0
LINE
  5
1BE75
330
1F
100
AcDbEntity
  8
中心線
100
AcDbLine
 10
817.5000299064913
 20
1694.841550590559
 30
0.0
 11
887.4999926868186
 21
1694.841550590559
 31
0.0
  0
CIRCLE
  5
1BE76
330
1F
100
AcDbEntity
  8
実線
100
AcDbCircle
 10
852.5000112966509
 20
1694.841550590559
 30
0.0
 40
12.5
  0
LINE
  5
1BE77
330
1F
100
AcDbEntity
  8
中心線
100
AcDbLine
 10
852.5000112966509
 20
1509.841631980716
 30
0.0
 11
852.5000112966509
 21
1579.84159476105
 31
0.0
  0
LINE
  5
1BE78
330
1F
100
AcDbEntity
  8
中心線
100
AcDbLine
 10
817.5000299064913
 20
1544.841613370883
 30
0.0
 11
887.4999926868186
 21
1544.841613370883
 31
0.0
  0
CIRCLE
  5
1BE79
330
1F
100
AcDbEntity
  8
実線
100
AcDbCircle
 10
852.5000112966509
 20
1544.841613370883
 30
0.0
 40
12.5
  0
LINE
  5
1BE7A
330
1F
100
AcDbEntity
  8
中心線
100
AcDbLine
 10
952.5000112966509
 20
1729.841531980711
 30
0.0
 11
952.5000112966509
 21
1659.841569200392
 31
0.0
  0
LINE
  5
1BE7B
330
1F
100
AcDbEntity
  8
中心線
100
AcDbLine
 10
917.5000299064922
 20
1694.841550590559
 30
0.0
 11
987.4999926868186
 21
1694.841550590559
 31
0.0
  0
CIRCLE
  5
1BE7C
330
1F
100
AcDbEntity
  8
実線
100
AcDbCircle
 10
952.5000112966509
 20
1694.841550590559
 30
0.0
 40
12.5
  0
LINE
  5
1BE7D
330
1F
100
AcDbEntity
  8
中心線
100
AcDbLine
 10
952.5000112966509
 20
1509.841631980716
 30
0.0
 11
952.5000112966509
 21
1579.84159476105
 31
0.0
  0
LINE
  5
1BE7E
330
1F
100
AcDbEntity
  8
中心線
100
AcDbLine
 10
917.5000299064922
 20
1544.841613370883
 30
0.0
 11
987.4999926868186
 21
1544.841613370883
 31
0.0
  0
CIRCLE
  5
1BE7F
330
1F
100
AcDbEntity
  8
実線
100
AcDbCircle
 10
952.5000112966509
 20
1544.841613370883
 30
0.0
 40
12.5
  0
LEADER
  5
1BE80
330
1F
100
AcDbEntity
  8
寸法線
100
AcDbLeader
  3
STANDARD
 76
     3
 10
758.7500112966509
 20
1705.666868137852
 30
0.0
 10
841.98931355882
 20
1849.841568842517
 30
0.0
 10
1109.64949049364
 20
1849.841568842517
 30
0.0
211
-1.0
221
0.0
231
0.0
1001
ACAD
1000
DSTYLE
1002
{
1070
   147
1040
0.875
1070
    77
1070
     0
1002
}
  0
TEXT
  5
1BE81
330
1F
100
AcDbEntity
  8
寸法線
100
AcDbText
 10
850.7393135588159
 20
1858.591568842517
 30
0.0
 40
25.0
  1
ｶﾊﾞｰﾌﾟﾚｰﾄ連結用孔
 72
     2
 11
1099.072646892149
 21
1883.591568842517
 31
0.0
100
AcDbText
 73
     3
  0
LINE
  5
1BE82
330
1F
100
AcDbEntity
  8
中心線
100
AcDbLine
 10
692.5000509228693
 20
1719.938355572479
 30
0.0
 11
728.5000707359795
 21
1719.938355572479
 31
0.0
  0
LINE
  5
1BE83
330
1F
100
AcDbEntity
  8
中心線
100
AcDbLine
 10
692.5000509228693
 20
1519.93842929596
 30
0.0
 11
728.5000707359795
 21
1519.93842929596
 31
0.0
  0
TEXT
  5
1BE84
330
1F
100
AcDbEntity
  8
寸法線
100
AcDbText
 10
2383.524518928215
 20
2162.749983117269
 30
0.0
 40
25.0
  1
ﾘﾌﾞﾌﾟﾚｰﾄ①
 72
     2
 11
2526.857852261549
 21
2162.749983117269
 31
0.0
100
AcDbText
 73
     1
  0
LEADER
  5
1BE85
330
1F
100
AcDbEntity
  8
寸法線
100
AcDbLeader
  3
STANDARD
 76
     3
 10
2336.999997740442
 20
2104.499983117269
 30
0.0
 10
2371.499997740443
 20
2153.999983117269
 30
0.0
 10
2535.824055189597
 20
2153.999983117269
 30
0.0
211
-1.0
221
0.0
231
0.0
1001
ACAD
1000
DSTYLE
1002
{
1070
   147
1040
0.875
1070
    77
1070
     0
1002
}
  0
LEADER
  5
1BE86
330
1F
100
AcDbEntity
  8
寸法線
100
AcDbLeader
  3
STANDARD
 76
     3
 10
2558.749971483611
 20
1705.666865738618
 30
0.0
 10
2641.98927374578
 20
1849.841566443283
 30
0.0
 10
2909.6494506806
 20
1849.841566443283
 30
0.0
211
-1.0
221
0.0
231
0.0
1001
ACAD
1000
DSTYLE
1002
{
1070
   147
1040
0.875
1070
    77
1070
     0
1002
}
  0
TEXT
  5
1BE87
330
1F
100
AcDbEntity
  8
寸法線
100
AcDbText
 10
2650.739273745775
 20
1858.591566443283
 30
0.0
 40
25.0
  1
ｶﾊﾞｰﾌﾟﾚｰﾄ連結用孔
 72
     2
 11
2899.072607079108
 21
1883.591566443283
 31
0.0
100
AcDbText
 73
     3
  0
DIMENSION
  5
1BE88
330
1F
100
AcDbEntity
  8
寸法線
100
AcDbDimension
280
     0
  2
*D28
 10
2302.499991390134
 20
2610.000000000003
 30
0.0
 11
2552.499993842701
 21
2610.000000000003
 31
0.0
 70
   160
  1
<>\XH型鋼（連結部）
 71
     5
 42
500.0000199065253
 73
     0
 74
     0
 75
     0
  3
STANDARD
100
AcDbAlignedDimension
 13
2802.500011296659
 23
2364.000037219682
 33
0.0
 14
2302.499991390134
 24
2380.000019850007
 34
0.0
 50
180.0
100
AcDbRotatedDimension
  0
LINE
  5
1BE89
330
1F
100
AcDbEntity
  8
実線
100
AcDbLine
 10
1594.499991390135
 20
2040.000019850007
 30
0.0
 11
1594.499991390135
 21
2400.000019850007
 31
0.0
  0
LINE
  5
1BE8A
330
1F
100
AcDbEntity
  8
実線
100
AcDbLine
 10
1610.499991390133
 20
2040.000019850007
 30
0.0
 11
1610.499991390135
 21
2400.000019850007
 31
0.0
  0
LINE
  5
1BE8B
330
1F
100
AcDbEntity
  8
実線
100
AcDbLine
 10
1594.499991390135
 20
2400.000001605376
 30
0.0
 11
1610.499991390135
 21
2400.000001605376
 31
0.0
  0
LINE
  5
1BE8C
330
1F
100
AcDbEntity
  8
実線
100
AcDbLine
 10
1594.499991390135
 20
2040.000001605376
 30
0.0
 11
1610.499991390133
 21
2040.000001605376
 31
0.0
  0
LINE
  5
1BE8D
330
1F
100
AcDbEntity
  8
破線
100
AcDbLine
 10
1594.50009497516
 20
2370.000001605376
 30
0.0
 11
1610.499887805107
 21
2370.000001605376
 31
0.0
  0
LINE
  5
1BE8E
330
1F
100
AcDbEntity
  8
破線
100
AcDbLine
 10
1594.50009497516
 20
2320.000001605376
 30
0.0
 11
1610.499991390135
 21
2320.000001605376
 31
0.0
  0
LINE
  5
1BE8F
330
1F
100
AcDbEntity
  8
破線
100
AcDbLine
 10
1594.50009497516
 20
2120.000001605376
 30
0.0
 11
1610.499991390133
 21
2120.000001605376
 31
0.0
  0
LINE
  5
1BE90
330
1F
100
AcDbEntity
  8
破線
100
AcDbLine
 10
1594.50009497516
 20
2070.000001605376
 30
0.0
 11
1610.499887805107
 21
2070.000001605376
 31
0.0
  0
LINE
  5
1BE91
330
1F
100
AcDbEntity
  8
実線
100
AcDbLine
 10
1250.499991390134
 20
2120.000038094638
 30
0.0
 11
1594.499991390136
 21
2120.000038094638
 31
0.0
  0
LINE
  5
1BE92
330
1F
100
AcDbEntity
  8
実線
100
AcDbLine
 10
1218.499991390134
 20
2070.000038094638
 30
0.0
 11
1594.499991390136
 21
2070.000038094638
 31
0.0
  0
LINE
  5
1BE93
330
1F
100
AcDbEntity
  8
実線
100
AcDbLine
 10
1594.499991390135
 20
1440.000019827418
 30
0.0
 11
1594.499991390135
 21
1800.000019827418
 31
0.0
  0
LINE
  5
1BE94
330
1F
100
AcDbEntity
  8
実線
100
AcDbLine
 10
1610.499991390133
 20
1440.000019827418
 30
0.0
 11
1610.499991390135
 21
1800.000019827418
 31
0.0
  0
LINE
  5
1BE95
330
1F
100
AcDbEntity
  8
実線
100
AcDbLine
 10
1594.499991390135
 20
1800.000001582787
 30
0.0
 11
1610.499991390135
 21
1800.000001582787
 31
0.0
  0
LINE
  5
1BE96
330
1F
100
AcDbEntity
  8
実線
100
AcDbLine
 10
1594.499991390135
 20
1440.000001582787
 30
0.0
 11
1610.499991390133
 21
1440.000001582787
 31
0.0
  0
LINE
  5
1BE97
330
1F
100
AcDbEntity
  8
破線
100
AcDbLine
 10
1594.50009497516
 20
1770.000001582787
 30
0.0
 11
1610.499887805107
 21
1770.000001582787
 31
0.0
  0
LINE
  5
1BE98
330
1F
100
AcDbEntity
  8
破線
100
AcDbLine
 10
1594.50009497516
 20
1720.000001582787
 30
0.0
 11
1610.499991390135
 21
1720.000001582787
 31
0.0
  0
LINE
  5
1BE99
330
1F
100
AcDbEntity
  8
破線
100
AcDbLine
 10
1594.50009497516
 20
1520.000001582787
 30
0.0
 11
1610.499991390133
 21
1520.000001582787
 31
0.0
  0
LINE
  5
1BE9A
330
1F
100
AcDbEntity
  8
破線
100
AcDbLine
 10
1594.50009497516
 20
1470.000001582787
 30
0.0
 11
1610.499887805107
 21
1470.000001582787
 31
0.0
  0
LINE
  5
1BE9B
330
1F
100
AcDbEntity
  8
実線
100
AcDbLine
 10
1594.499991390131
 20
1720.000001582788
 30
0.0
 11
1250.499991390131
 21
1720.0000015828
 31
0.0
  0
LINE
  5
1BE9C
330
1F
100
AcDbEntity
  8
実線
100
AcDbLine
 10
1594.499991390134
 20
1770.000001582788
 30
0.0
 11
1218.499991390134
 21
1770.000001582802
 31
0.0
  0
LINE
  5
1BE9D
330
1F
100
AcDbEntity
  8
実線
100
AcDbLine
 10
1594.499553544735
 20
1520.000108128307
 30
0.0
 11
1250.499553546594
 21
1520.000957548817
 31
0.0
  0
LINE
  5
1BE9E
330
1F
100
AcDbEntity
  8
実線
100
AcDbLine
 10
1594.499334621923
 20
1470.000108128786
 30
0.0
 11
1218.499334624089
 21
1470.001097659896
 31
0.0
  0
LINE
  5
1BE9F
330
1F
100
AcDbEntity
  8
実線
100
AcDbLine
 10
1894.499991390135
 20
2040.000019850007
 30
0.0
 11
1894.499991390135
 21
2400.000019850007
 31
0.0
  0
LINE
  5
1BEA0
330
1F
100
AcDbEntity
  8
実線
100
AcDbLine
 10
1910.499991390133
 20
2040.000019850007
 30
0.0
 11
1910.499991390135
 21
2400.000019850007
 31
0.0
  0
LINE
  5
1BEA1
330
1F
100
AcDbEntity
  8
実線
100
AcDbLine
 10
1894.499991390135
 20
2400.000001605376
 30
0.0
 11
1910.499991390135
 21
2400.000001605376
 31
0.0
  0
LINE
  5
1BEA2
330
1F
100
AcDbEntity
  8
実線
100
AcDbLine
 10
1894.499991390135
 20
2040.000001605376
 30
0.0
 11
1910.499991390133
 21
2040.000001605376
 31
0.0
  0
LINE
  5
1BEA3
330
1F
100
AcDbEntity
  8
破線
100
AcDbLine
 10
1894.50009497516
 20
2370.000001605376
 30
0.0
 11
1910.499887805107
 21
2370.000001605376
 31
0.0
  0
LINE
  5
1BEA4
330
1F
100
AcDbEntity
  8
破線
100
AcDbLine
 10
1894.50009497516
 20
2320.000001605376
 30
0.0
 11
1910.499991390135
 21
2320.000001605376
 31
0.0
  0
LINE
  5
1BEA5
330
1F
100
AcDbEntity
  8
破線
100
AcDbLine
 10
1894.50009497516
 20
2120.000001605376
 30
0.0
 11
1910.499991390133
 21
2120.000001605376
 31
0.0
  0
LINE
  5
1BEA6
330
1F
100
AcDbEntity
  8
破線
100
AcDbLine
 10
1894.50009497516
 20
2070.000001605376
 30
0.0
 11
1910.499887805107
 21
2070.000001605376
 31
0.0
  0
LINE
  5
1BEA7
330
1F
100
AcDbEntity
  8
実線
100
AcDbLine
 10
1894.499991390135
 20
1440.000019827418
 30
0.0
 11
1894.499991390135
 21
1800.000019827418
 31
0.0
  0
LINE
  5
1BEA8
330
1F
100
AcDbEntity
  8
実線
100
AcDbLine
 10
1910.499991390133
 20
1440.000019827418
 30
0.0
 11
1910.499991390135
 21
1800.000019827418
 31
0.0
  0
LINE
  5
1BEA9
330
1F
100
AcDbEntity
  8
実線
100
AcDbLine
 10
1894.499991390135
 20
1800.000001582787
 30
0.0
 11
1910.499991390135
 21
1800.000001582787
 31
0.0
  0
LINE
  5
1BEAA
330
1F
100
AcDbEntity
  8
実線
100
AcDbLine
 10
1894.499991390135
 20
1440.000001582787
 30
0.0
 11
1910.499991390133
 21
1440.000001582787
 31
0.0
  0
LINE
  5
1BEAB
330
1F
100
AcDbEntity
  8
破線
100
AcDbLine
 10
1894.50009497516
 20
1770.000001582787
 30
0.0
 11
1910.499887805107
 21
1770.000001582787
 31
0.0
  0
LINE
  5
1BEAC
330
1F
100
AcDbEntity
  8
破線
100
AcDbLine
 10
1894.50009497516
 20
1720.000001582787
 30
0.0
 11
1910.499991390135
 21
1720.000001582787
 31
0.0
  0
LINE
  5
1BEAD
330
1F
100
AcDbEntity
  8
破線
100
AcDbLine
 10
1894.50009497516
 20
1520.000001582787
 30
0.0
 11
1910.499991390133
 21
1520.000001582787
 31
0.0
  0
LINE
  5
1BEAE
330
1F
100
AcDbEntity
  8
破線
100
AcDbLine
 10
1894.50009497516
 20
1470.000001582787
 30
0.0
 11
1910.499887805107
 21
1470.000001582787
 31
0.0
  0
LINE
  5
1BEAF
330
1F
100
AcDbEntity
  8
実線
100
AcDbLine
 10
2254.499991390134
 20
2320.000001605376
 30
0.0
 11
1910.499991390132
 21
2320.000001605376
 31
0.0
  0
LINE
  5
1BEB0
330
1F
100
AcDbEntity
  8
実線
100
AcDbLine
 10
2286.499991390134
 20
2370.000001605376
 30
0.0
 11
1910.499991390132
 21
2370.000001605376
 31
0.0
  0
LINE
  5
1BEB1
330
1F
100
AcDbEntity
  8
実線
100
AcDbLine
 10
2254.499991390134
 20
2120.000038094638
 30
0.0
 11
1910.499991390132
 21
2120.000038094638
 31
0.0
  0
LINE
  5
1BEB2
330
1F
100
AcDbEntity
  8
実線
100
AcDbLine
 10
2286.499991390134
 20
2070.000038094638
 30
0.0
 11
1910.499991390132
 21
2070.000038094638
 31
0.0
  0
LINE
  5
1BEB3
330
1F
100
AcDbEntity
  8
実線
100
AcDbLine
 10
1910.499991390136
 20
1720.000001582788
 30
0.0
 11
2254.499991390137
 21
1720.0000015828
 31
0.0
  0
LINE
  5
1BEB4
330
1F
100
AcDbEntity
  8
実線
100
AcDbLine
 10
1910.499991390134
 20
1770.000001582788
 30
0.0
 11
2286.499991390134
 21
1770.000001582802
 31
0.0
  0
LINE
  5
1BEB5
330
1F
100
AcDbEntity
  8
実線
100
AcDbLine
 10
1910.500429235532
 20
1520.000108128307
 30
0.0
 11
2254.500429233674
 21
1520.000957548817
 31
0.0
  0
LINE
  5
1BEB6
330
1F
100
AcDbEntity
  8
実線
100
AcDbLine
 10
1910.500648158344
 20
1470.000108128786
 30
0.0
 11
2286.500648156179
 21
1470.001097659896
 31
0.0
  0
LINE
  5
1BEB7
330
1F
100
AcDbEntity
  8
実線
100
AcDbLine
 10
1610.499887805107
 20
2370.000001605376
 30
0.0
 11
1894.50009497516
 21
2370.000001605376
 31
0.0
  0
LINE
  5
1BEB8
330
1F
100
AcDbEntity
  8
実線
100
AcDbLine
 10
1610.499991390135
 20
2320.000001605376
 30
0.0
 11
1894.50009497516
 21
2320.000001605376
 31
0.0
  0
LINE
  5
1BEB9
330
1F
100
AcDbEntity
  8
実線
100
AcDbLine
 10
1610.499991390133
 20
2120.000001605376
 30
0.0
 11
1894.50009497516
 21
2120.000001605376
 31
0.0
  0
LINE
  5
1BEBA
330
1F
100
AcDbEntity
  8
実線
100
AcDbLine
 10
1610.499887805107
 20
2070.000001605376
 30
0.0
 11
1894.50009497516
 21
2070.000001605376
 31
0.0
  0
LINE
  5
1BEBB
330
1F
100
AcDbEntity
  8
実線
100
AcDbLine
 10
1610.499887805107
 20
1769.999984056326
 30
0.0
 11
1894.50009497516
 21
1769.999984056326
 31
0.0
  0
LINE
  5
1BEBC
330
1F
100
AcDbEntity
  8
実線
100
AcDbLine
 10
1610.499991390135
 20
1719.999984056325
 30
0.0
 11
1894.50009497516
 21
1719.999984056325
 31
0.0
  0
LINE
  5
1BEBD
330
1F
100
AcDbEntity
  8
実線
100
AcDbLine
 10
1610.499991390133
 20
1519.999984056326
 30
0.0
 11
1894.50009497516
 21
1519.999984056326
 31
0.0
  0
LINE
  5
1BEBE
330
1F
100
AcDbEntity
  8
実線
100
AcDbLine
 10
1610.499887805107
 20
1469.999984056325
 30
0.0
 11
1894.50009497516
 21
1469.999984056325
 31
0.0
  0
DIMENSION
  5
1BF0B
330
1F
100
AcDbEntity
  8
寸法線
100
AcDbDimension
280
     0
  2
*D13
 10
1976.160031218722
 20
385.3824865001416
 30
0.0
 11
1426.160031218722
 21
406.6324865001416
 31
0.0
 70
    32
 71
     5
 42
1100.0
 73
     0
 74
     0
 75
     0
  3
STANDARD
100
AcDbAlignedDimension
 13
876.1600312187219
 23
625.3824865001416
 33
0.0
 14
1976.160031218722
 24
625.3824865001416
 34
0.0
100
AcDbRotatedDimension
  0
DIMENSION
  5
1BF0C
330
1F
100
AcDbEntity
  8
寸法線
100
AcDbDimension
280
     0
  2
*D14
 10
1928.160031218722
 20
505.3824865001415
 30
0.0
 11
1426.160031218722
 21
526.6324865001415
 31
0.0
 70
    32
 71
     5
 42
1004.0
 73
     0
 74
     0
 75
     0
  3
STANDARD
100
AcDbAlignedDimension
 13
924.160031218722
 23
635.3824865001415
 33
0.0
 14
1928.160031218722
 24
635.3824865001415
 34
0.0
100
AcDbRotatedDimension
  0
DIMENSION
  5
1BF0D
330
1F
100
AcDbEntity
  8
寸法線
100
AcDbDimension
280
     0
  2
*D15
 10
1960.160031218722
 20
445.3824865001415
 30
0.0
 11
1426.160031218722
 21
466.6324865001415
 31
0.0
 70
    32
 71
     5
 42
1068.0
 73
     0
 74
     0
 75
     0
  3
STANDARD
100
AcDbAlignedDimension
 13
892.1600312187219
 23
625.3825047447799
 33
0.0
 14
1960.160031218722
 24
625.3825047447799
 34
0.0
100
AcDbRotatedDimension
  0
DIMENSION
  5
1BF0E
330
1F
100
AcDbEntity
  8
寸法線
100
AcDbDimension
280
     0
  2
*D16
 10
924.160031218722
 20
505.3824865001415
 30
0.0
 11
908.1600312187219
 21
505.3824865001415
 31
0.0
 70
   160
 71
     5
 42
32.0
 73
     0
 74
     0
 75
     0
  3
STANDARD
100
AcDbAlignedDimension
 13
892.1600312187219
 23
625.3825047447799
 33
0.0
 14
924.160031218722
 24
635.3824865001415
 34
0.0
100
AcDbRotatedDimension
  0
DIMENSION
  5
1BF0F
330
1F
100
AcDbEntity
  8
寸法線
100
AcDbDimension
280
     0
  2
*D17
 10
892.1600312187219
 20
445.3824865001415
 30
0.0
 11
884.1600312187219
 21
445.3824865001415
 31
0.0
 70
   160
 71
     5
 42
16.0
 73
     0
 74
     0
 75
     0
  3
STANDARD
100
AcDbAlignedDimension
 13
876.1600312187219
 23
625.3825047447799
 33
0.0
 14
892.1600312187219
 24
625.3824865001416
 34
0.0
100
AcDbRotatedDimension
1001
ACAD
1000
DSTYLE
1002
{
1070
   279
1070
     0
1002
}
  0
DIMENSION
  5
1BF10
330
1F
100
AcDbEntity
  8
寸法線
100
AcDbDimension
280
     0
  2
*D18
 10
1976.160031218722
 20
445.3824865001415
 30
0.0
 11
1968.160031218722
 21
445.3824865001415
 31
0.0
 70
   160
 71
     5
 42
16.0
 73
     0
 74
     0
 75
     0
  3
STANDARD
100
AcDbAlignedDimension
 13
1960.160031218722
 23
605.3824865001415
 33
0.0
 14
1976.160031218722
 24
625.3824865001416
 34
0.0
100
AcDbRotatedDimension
1001
ACAD
1000
DSTYLE
1002
{
1070
   279
1070
     0
1002
}
  0
LINE
  5
1BF11
330
1F
100
AcDbEntity
  8
実線
100
AcDbLine
 10
876.1600312187219
 20
625.3825047447799
 30
0.0
 11
876.1600312187219
 21
945.3825047447798
 31
0.0
  0
LINE
  5
1BF12
330
1F
100
AcDbEntity
  8
仮想線
100
AcDbLine
 10
947.6230834728921
 20
575.3824865001416
 30
0.0
 11
947.6230834728921
 21
995.3824865001415
 31
0.0
  0
TEXT
  5
1BF13
330
1F
100
AcDbEntity
  8
寸法線
100
AcDbText
 10
997.2783058399393
 20
974.1824865001415
 30
0.0
 40
21.0
  1
Ａ
 72
     4
 11
1007.078305839939
 21
985.3824865001415
 31
0.0
100
AcDbText
  0
TEXT
  5
1BF14
330
1F
100
AcDbEntity
  8
寸法線
100
AcDbText
 10
997.2783058399393
 20
574.1824865001415
 30
0.0
 40
21.0
  1
Ａ
 72
     4
 11
1007.078305839939
 21
585.3824865001415
 31
0.0
100
AcDbText
  0
LINE
  5
1BF15
330
1F
100
AcDbEntity
  8
仮想線
100
AcDbLine
 10
1339.623083472892
 20
575.3824865001416
 30
0.0
 11
1339.623083472892
 21
995.3824865001415
 31
0.0
  0
TEXT
  5
1BF16
330
1F
100
AcDbEntity
  8
寸法線
100
AcDbText
 10
1388.578305839939
 20
974.1824865001415
 30
0.0
 40
21.0
  1
Ｂ
 72
     4
 11
1399.078305839939
 21
985.3824865001415
 31
0.0
100
AcDbText
  0
TEXT
  5
1BF17
330
1F
100
AcDbEntity
  8
寸法線
100
AcDbText
 10
1388.578305839939
 20
574.1824865001415
 30
0.0
 40
21.0
  1
Ｂ
 72
     4
 11
1399.078305839939
 21
585.3824865001415
 31
0.0
100
AcDbText
  0
LINE
  5
1BF18
330
1F
100
AcDbEntity
  8
実線
100
AcDbLine
 10
892.1600312187219
 20
625.3825047447799
 30
0.0
 11
892.1600312187219
 21
945.3825047447798
 31
0.0
  0
LINE
  5
1BF19
330
1F
100
AcDbEntity
  8
実線
100
AcDbLine
 10
876.1600312187219
 20
945.3824865001415
 30
0.0
 11
892.1600312187219
 21
945.3824865001415
 31
0.0
  0
LINE
  5
1BF1A
330
1F
100
AcDbEntity
  8
実線
100
AcDbLine
 10
876.1600312187219
 20
625.3824865001416
 30
0.0
 11
892.1600312187219
 21
625.3824865001416
 31
0.0
  0
LINE
  5
1BF1B
330
1F
100
AcDbEntity
  8
実線
100
AcDbLine
 10
1960.160031218722
 20
625.3825047447799
 30
0.0
 11
1960.160031218722
 21
945.3825047447798
 31
0.0
  0
LINE
  5
1BF1C
330
1F
100
AcDbEntity
  8
実線
100
AcDbLine
 10
1976.160031218722
 20
625.3825047447799
 30
0.0
 11
1976.160031218722
 21
945.3825047447798
 31
0.0
  0
LINE
  5
1BF1D
330
1F
100
AcDbEntity
  8
実線
100
AcDbLine
 10
1960.160031218722
 20
945.3824865001415
 30
0.0
 11
1976.160031218722
 21
945.3824865001415
 31
0.0
  0
LINE
  5
1BF1E
330
1F
100
AcDbEntity
  8
実線
100
AcDbLine
 10
1960.160031218722
 20
625.3824865001416
 30
0.0
 11
1976.160031218722
 21
625.3824865001416
 31
0.0
  0
LINE
  5
1BF1F
330
1F
100
AcDbEntity
  8
実線
100
AcDbLine
 10
904.160031218722
 20
680.3824865001415
 30
0.0
 11
924.160031218722
 21
680.3824865001415
 31
0.0
  0
LINE
  5
1BF20
330
1F
100
AcDbEntity
  8
実線
100
AcDbLine
 10
924.160031218722
 20
680.3824865001415
 30
0.0
 11
924.160031218722
 21
890.3824865001416
 31
0.0
  0
LINE
  5
1BF21
330
1F
100
AcDbEntity
  8
実線
100
AcDbLine
 10
1928.160031218722
 20
680.3824865001415
 30
0.0
 11
1928.160031218722
 21
890.3824865001416
 31
0.0
  0
LINE
  5
1BF22
330
1F
100
AcDbEntity
  8
実線
100
AcDbLine
 10
1928.160031218722
 20
680.3824865001415
 30
0.0
 11
1948.160031218722
 21
680.3824865001415
 31
0.0
  0
LINE
  5
1BF23
330
1F
100
AcDbEntity
  8
実線
100
AcDbLine
 10
892.1600312187219
 20
692.3824865001416
 30
0.0
 11
904.160031218722
 21
680.3824865001415
 31
0.0
  0
LINE
  5
1BF24
330
1F
100
AcDbEntity
  8
実線
100
AcDbLine
 10
1948.160031218722
 20
680.3824865001415
 30
0.0
 11
1960.160031218722
 21
692.3824865001416
 31
0.0
  0
LINE
  5
1BF25
330
1F
100
AcDbEntity
  8
実線
100
AcDbLine
 10
892.1600312187219
 20
685.3824865001415
 30
0.0
 11
899.160031218722
 21
685.3824865001415
 31
0.0
  0
LINE
  5
1BF26
330
1F
100
AcDbEntity
  8
実線
100
AcDbLine
 10
1953.160031218722
 20
685.3824865001415
 30
0.0
 11
1960.160031218722
 21
685.3824865001415
 31
0.0
  0
LINE
  5
1BF27
330
1F
100
AcDbEntity
  8
破線
100
AcDbLine
 10
899.160031218722
 20
685.3824865001415
 30
0.0
 11
924.160031218722
 21
685.3824865001415
 31
0.0
  0
LINE
  5
1BF28
330
1F
100
AcDbEntity
  8
破線
100
AcDbLine
 10
1928.160031218722
 20
685.3824865001415
 30
0.0
 11
1953.160031218722
 21
685.3824865001415
 31
0.0
  0
LINE
  5
1BF29
330
1F
100
AcDbEntity
  8
破線
100
AcDbLine
 10
892.1600312187219
 20
644.3824865001415
 30
0.0
 11
924.160031218722
 21
644.3824865001415
 31
0.0
  0
LINE
  5
1BF2A
330
1F
100
AcDbEntity
  8
破線
100
AcDbLine
 10
924.160031218722
 20
644.3824865001415
 30
0.0
 11
924.160031218722
 21
635.3824865001415
 31
0.0
  0
LINE
  5
1BF2B
330
1F
100
AcDbEntity
  8
中心線
100
AcDbLine
 10
861.1601348037366
 20
785.3824865001415
 30
0.0
 11
1991.160134803736
 21
785.3824865001415
 31
0.0
  0
LINE
  5
1BF2C
330
1F
100
AcDbEntity
  8
中心線
100
AcDbLine
 10
866.1601348037365
 20
910.3824865001415
 30
0.0
 11
1986.160134803736
 21
910.3824865001415
 31
0.0
  0
LINE
  5
1BF2D
330
1F
100
AcDbEntity
  8
破線
100
AcDbLine
 10
1928.160031218722
 20
885.3824865001415
 30
0.0
 11
1953.160031218722
 21
885.3824865001415
 31
0.0
  0
LINE
  5
1BF2E
330
1F
100
AcDbEntity
  8
実線
100
AcDbLine
 10
1953.160031218722
 20
885.3824865001415
 30
0.0
 11
1960.160031218722
 21
885.3824865001415
 31
0.0
  0
LINE
  5
1BF2F
330
1F
100
AcDbEntity
  8
実線
100
AcDbLine
 10
1928.160031218722
 20
890.3824865001416
 30
0.0
 11
1948.160031218722
 21
890.3824865001416
 31
0.0
  0
LINE
  5
1BF30
330
1F
100
AcDbEntity
  8
実線
100
AcDbLine
 10
1948.160031218722
 20
890.3824865001416
 30
0.0
 11
1960.160031218722
 21
878.3824865001415
 31
0.0
  0
LINE
  5
1BF31
330
1F
100
AcDbEntity
  8
破線
100
AcDbLine
 10
892.1600312187219
 20
926.3824865001415
 30
0.0
 11
924.160031218722
 21
926.3824865001415
 31
0.0
  0
LINE
  5
1BF32
330
1F
100
AcDbEntity
  8
破線
100
AcDbLine
 10
924.160031218722
 20
926.3824865001415
 30
0.0
 11
924.160031218722
 21
935.3824865001415
 31
0.0
  0
LINE
  5
1BF33
330
1F
100
AcDbEntity
  8
破線
100
AcDbLine
 10
899.160031218722
 20
885.3824865001415
 30
0.0
 11
924.160031218722
 21
885.3824865001415
 31
0.0
  0
LINE
  5
1BF34
330
1F
100
AcDbEntity
  8
実線
100
AcDbLine
 10
904.160031218722
 20
890.3824865001416
 30
0.0
 11
924.160031218722
 21
890.3824865001416
 31
0.0
  0
LINE
  5
1BF35
330
1F
100
AcDbEntity
  8
実線
100
AcDbLine
 10
892.1600312187219
 20
878.3824865001415
 30
0.0
 11
904.160031218722
 21
890.3824865001416
 31
0.0
  0
LINE
  5
1BF36
330
1F
100
AcDbEntity
  8
実線
100
AcDbLine
 10
892.1600312187219
 20
885.3824865001415
 30
0.0
 11
899.160031218722
 21
885.3824865001415
 31
0.0
  0
LINE
  5
1BF37
330
1F
100
AcDbEntity
  8
破線
100
AcDbLine
 10
1960.160031218722
 20
644.3824865001415
 30
0.0
 11
1928.160031218722
 21
644.3824865001415
 31
0.0
  0
LINE
  5
1BF38
330
1F
100
AcDbEntity
  8
破線
100
AcDbLine
 10
1928.160031218722
 20
644.3824865001415
 30
0.0
 11
1928.160031218722
 21
635.3824865001415
 31
0.0
  0
LINE
  5
1BF39
330
1F
100
AcDbEntity
  8
破線
100
AcDbLine
 10
1928.160031218722
 20
926.3824865001415
 30
0.0
 11
1928.160031218722
 21
935.3824865001415
 31
0.0
  0
LINE
  5
1BF3A
330
1F
100
AcDbEntity
  8
破線
100
AcDbLine
 10
1960.160031218722
 20
926.3824865001415
 30
0.0
 11
1928.160031218722
 21
926.3824865001415
 31
0.0
  0
LINE
  5
1BF3B
330
1F
100
AcDbEntity
  8
破線
100
AcDbLine
 10
892.1600312187219
 20
789.8824865001415
 30
0.0
 11
924.160031218722
 21
789.8824865001415
 31
0.0
  0
LINE
  5
1BF3C
330
1F
100
AcDbEntity
  8
破線
100
AcDbLine
 10
892.1600312187219
 20
780.8824865001415
 30
0.0
 11
924.160031218722
 21
780.8824865001415
 31
0.0
  0
LINE
  5
1BF3D
330
1F
100
AcDbEntity
  8
破線
100
AcDbLine
 10
1928.160031218722
 20
789.8824865001415
 30
0.0
 11
1960.160031218722
 21
789.8824865001415
 31
0.0
  0
LINE
  5
1BF3E
330
1F
100
AcDbEntity
  8
破線
100
AcDbLine
 10
1928.160031218722
 20
780.8824865001415
 30
0.0
 11
1960.160031218722
 21
780.8824865001415
 31
0.0
  0
LINE
  5
1BF3F
330
1F
100
AcDbEntity
  8
実線
100
AcDbLine
 10
1268.160031218722
 20
605.3825047447799
 30
0.0
 11
1268.160031218722
 21
965.3825047447799
 31
0.0
  0
LINE
  5
1BF40
330
1F
100
AcDbEntity
  8
実線
100
AcDbLine
 10
1284.160031218722
 20
605.3825047447799
 30
0.0
 11
1284.160031218722
 21
965.3825047447799
 31
0.0
  0
LINE
  5
1BF41
330
1F
100
AcDbEntity
  8
実線
100
AcDbLine
 10
1268.160031218722
 20
965.3824865001416
 30
0.0
 11
1284.160031218722
 21
965.3824865001416
 31
0.0
  0
LINE
  5
1BF42
330
1F
100
AcDbEntity
  8
実線
100
AcDbLine
 10
1268.160031218722
 20
605.3824865001415
 30
0.0
 11
1284.160031218722
 21
605.3824865001415
 31
0.0
  0
LINE
  5
1BF43
330
1F
100
AcDbEntity
  8
破線
100
AcDbLine
 10
1268.160134803737
 20
935.3824865001415
 30
0.0
 11
1284.159927633707
 21
935.3824865001415
 31
0.0
  0
LINE
  5
1BF44
330
1F
100
AcDbEntity
  8
破線
100
AcDbLine
 10
1268.160134803737
 20
635.3824865001415
 30
0.0
 11
1284.159927633707
 21
635.3824865001415
 31
0.0
  0
LINE
  5
1BF45
330
1F
100
AcDbEntity
  8
実線
100
AcDbLine
 10
1568.160031218722
 20
605.3825047447799
 30
0.0
 11
1568.160031218722
 21
965.3825047447799
 31
0.0
  0
LINE
  5
1BF46
330
1F
100
AcDbEntity
  8
実線
100
AcDbLine
 10
1584.160031218722
 20
605.3825047447799
 30
0.0
 11
1584.160031218722
 21
965.3825047447799
 31
0.0
  0
LINE
  5
1BF47
330
1F
100
AcDbEntity
  8
実線
100
AcDbLine
 10
1568.160031218722
 20
965.3824865001416
 30
0.0
 11
1584.160031218722
 21
965.3824865001416
 31
0.0
  0
LINE
  5
1BF48
330
1F
100
AcDbEntity
  8
実線
100
AcDbLine
 10
1568.160031218722
 20
605.3824865001415
 30
0.0
 11
1584.160031218722
 21
605.3824865001415
 31
0.0
  0
LINE
  5
1BF49
330
1F
100
AcDbEntity
  8
破線
100
AcDbLine
 10
1568.160134803737
 20
935.3824865001415
 30
0.0
 11
1584.159927633707
 21
935.3824865001415
 31
0.0
  0
LINE
  5
1BF4A
330
1F
100
AcDbEntity
  8
破線
100
AcDbLine
 10
1268.160031218722
 20
885.3824865001415
 30
0.0
 11
1284.159824048664
 21
885.3824865001415
 31
0.0
  0
LINE
  5
1BF4B
330
1F
100
AcDbEntity
  8
破線
100
AcDbLine
 10
1568.160031218722
 20
885.3824865001415
 30
0.0
 11
1584.159824048664
 21
885.3824865001415
 31
0.0
  0
LINE
  5
1BF4C
330
1F
100
AcDbEntity
  8
実線
100
AcDbLine
 10
1284.16003121872
 20
685.3824865001397
 30
0.0
 11
1568.16003121872
 21
685.3824659387237
 31
0.0
  0
LINE
  5
1BF4D
330
1F
100
AcDbEntity
  8
実線
100
AcDbLine
 10
1284.160031218722
 20
635.3824865001415
 30
0.0
 11
1568.160134803737
 21
635.3824865001415
 31
0.0
  0
LINE
  5
1BF4E
330
1F
100
AcDbEntity
  8
破線
100
AcDbLine
 10
1568.160134803737
 20
635.3824865001415
 30
0.0
 11
1584.159927633707
 21
635.3824865001415
 31
0.0
  0
LINE
  5
1BF4F
330
1F
100
AcDbEntity
  8
破線
100
AcDbLine
 10
1268.160031218722
 20
685.3824865001415
 30
0.0
 11
1284.159824048664
 21
685.3824865001415
 31
0.0
  0
LINE
  5
1BF50
330
1F
100
AcDbEntity
  8
破線
100
AcDbLine
 10
1568.160031218722
 20
685.3824865001415
 30
0.0
 11
1584.159824048664
 21
685.3824865001415
 31
0.0
  0
LINE
  5
1BF51
330
1F
100
AcDbEntity
  8
実線
100
AcDbLine
 10
924.160031218722
 20
885.3824865001415
 30
0.0
 11
1268.16003121872
 21
885.3824865001415
 31
0.0
  0
LINE
  5
1BF52
330
1F
100
AcDbEntity
  8
実線
100
AcDbLine
 10
892.1601348037366
 20
935.3824865001415
 30
0.0
 11
1268.160134803737
 21
935.3824865001415
 31
0.0
  0
LINE
  5
1BF53
330
1F
100
AcDbEntity
  8
実線
100
AcDbLine
 10
1284.16003121872
 20
885.3824865001397
 30
0.0
 11
1568.16003121872
 21
885.3824659387246
 31
0.0
  0
LINE
  5
1BF54
330
1F
100
AcDbEntity
  8
実線
100
AcDbLine
 10
1284.160031218722
 20
935.3824865001415
 30
0.0
 11
1568.160134803737
 21
935.3824865001415
 31
0.0
  0
LINE
  5
1BF55
330
1F
100
AcDbEntity
  8
破線
100
AcDbLine
 10
1268.160031218722
 20
885.3824682555032
 30
0.0
 11
1284.159824048664
 21
885.3824682555032
 31
0.0
  0
LINE
  5
1BF56
330
1F
100
AcDbEntity
  8
破線
100
AcDbLine
 10
1268.160031218722
 20
685.3824682555032
 30
0.0
 11
1284.159824048664
 21
685.3824682555032
 31
0.0
  0
LINE
  5
1BF57
330
1F
100
AcDbEntity
  8
破線
100
AcDbLine
 10
1568.160031218722
 20
885.3824682555032
 30
0.0
 11
1584.159824048664
 21
885.3824682555032
 31
0.0
  0
LINE
  5
1BF58
330
1F
100
AcDbEntity
  8
破線
100
AcDbLine
 10
1568.160031218722
 20
685.3824682555032
 30
0.0
 11
1584.159824048664
 21
685.3824682555032
 31
0.0
  0
LINE
  5
1BF59
330
1F
100
AcDbEntity
  8
実線
100
AcDbLine
 10
1928.160134803736
 20
885.3824865001415
 30
0.0
 11
1584.16003121872
 21
885.3824865001415
 31
0.0
  0
LINE
  5
1BF5A
330
1F
100
AcDbEntity
  8
実線
100
AcDbLine
 10
1960.160031218722
 20
935.3824865001415
 30
0.0
 11
1584.160031218722
 21
935.3824865001415
 31
0.0
  0
LINE
  5
1BF5B
330
1F
100
AcDbEntity
  8
中心線
100
AcDbLine
 10
866.1601348037365
 20
660.3824865001415
 30
0.0
 11
1986.160134803736
 21
660.3824865001415
 31
0.0
  0
LINE
  5
1BF5C
330
1F
100
AcDbEntity
  8
実線
100
AcDbLine
 10
924.160031218722
 20
685.3824865001415
 30
0.0
 11
1268.16003121872
 21
685.3824865001415
 31
0.0
  0
LINE
  5
1BF5D
330
1F
100
AcDbEntity
  8
実線
100
AcDbLine
 10
892.1601348037366
 20
635.3824865001415
 30
0.0
 11
1268.160134803737
 21
635.3824865001415
 31
0.0
  0
LINE
  5
1BF5E
330
1F
100
AcDbEntity
  8
実線
100
AcDbLine
 10
1928.160134803736
 20
685.3824865001415
 30
0.0
 11
1584.16003121872
 21
685.3824865001415
 31
0.0
  0
LINE
  5
1BF5F
330
1F
100
AcDbEntity
  8
実線
100
AcDbLine
 10
1960.160031218722
 20
635.3824865001415
 30
0.0
 11
1584.160031218722
 21
635.3824865001415
 31
0.0
  0
LINE
  5
1BF60
330
1F
100
AcDbEntity
  8
仮想線
100
AcDbLine
 10
1639.623187057936
 20
575.3824865001416
 30
0.0
 11
1639.623187057936
 21
995.3824865001415
 31
0.0
  0
TEXT
  5
1BF61
330
1F
100
AcDbEntity
  8
寸法線
100
AcDbText
 10
1688.578409424954
 20
974.1824865001415
 30
0.0
 40
21.0
  1
Ｂ
 72
     4
 11
1699.078409424954
 21
985.3824865001415
 31
0.0
100
AcDbText
  0
TEXT
  5
1BF62
330
1F
100
AcDbEntity
  8
寸法線
100
AcDbText
 10
1688.578409424954
 20
574.1824865001415
 30
0.0
 40
21.0
  1
Ｂ
 72
     4
 11
1699.078409424954
 21
585.3824865001415
 31
0.0
100
AcDbText
  0
DIMENSION
  5
1BF63
330
1F
100
AcDbEntity
  8
寸法線
100
AcDbDimension
280
     0
  2
*D19
 10
1872.416586930224
 20
935.3824865001421
 30
0.0
 11
1872.416586930223
 21
910.3824865001412
 31
0.0
 70
   160
  1
%%C<>
 71
     5
 42
50.0
 73
     0
 74
     0
 75
     0
  3
STANDARD
100
AcDbAlignedDimension
 13
1872.416586930223
 23
885.3824865001415
 33
0.0
 14
1872.416586930223
 24
935.3824865001415
 34
0.0
 50
90.0
100
AcDbRotatedDimension
  0
DIMENSION
  5
1BF64
330
1F
100
AcDbEntity
  8
寸法線
100
AcDbDimension
280
     0
  2
*D20
 10
1568.160031218722
 20
1065.382486500142
 30
0.0
 11
1426.160031218722
 21
1086.634947130063
 31
0.0
 70
    32
 71
     5
 42
284.0
 73
     0
 74
     0
 75
     0
  3
STANDARD
100
AcDbAlignedDimension
 13
1284.160031218722
 23
965.3824865001416
 33
0.0
 14
1568.160031218722
 24
965.3825047447799
 34
0.0
100
AcDbRotatedDimension
  0
DIMENSION
  5
1BF65
330
1F
100
AcDbEntity
  8
寸法線
100
AcDbDimension
280
     0
  2
*D21
 10
1584.160031218722
 20
1065.382486500142
 30
0.0
 11
1576.160031218722
 21
1065.382486500142
 31
0.0
 70
   160
 71
     5
 42
16.0
 73
     0
 74
     0
 75
     0
  3
STANDARD
100
AcDbAlignedDimension
 13
1568.160031218722
 23
965.3825047447799
 33
0.0
 14
1584.160031218722
 24
965.3824865001416
 34
0.0
100
AcDbRotatedDimension
1001
ACAD
1000
DSTYLE
1002
{
1070
   279
1070
     0
1002
}
  0
DIMENSION
  5
1BF66
330
1F
100
AcDbEntity
  8
寸法線
100
AcDbDimension
280
     0
  2
*D22
 10
1960.160031218722
 20
1065.382486500142
 30
0.0
 11
1772.160031218722
 21
1086.632486500141
 31
0.0
 70
    32
 71
     5
 42
376.0
 73
     0
 74
     0
 75
     0
  3
STANDARD
100
AcDbAlignedDimension
 13
1584.160031218722
 23
965.3824865001416
 33
0.0
 14
1960.160031218722
 24
945.3825047447798
 34
0.0
100
AcDbRotatedDimension
1001
ACAD
1000
DSTYLE
1002
{
1070
   279
1070
     1
1002
}
  0
DIMENSION
  5
1BF67
330
1F
100
AcDbEntity
  8
寸法線
100
AcDbDimension
280
     0
  2
*D23
 10
1268.160031218722
 20
1065.382486500142
 30
0.0
 11
1080.160031218722
 21
1086.632486500141
 31
0.0
 70
    32
 71
     5
 42
376.0
 73
     0
 74
     0
 75
     0
  3
STANDARD
100
AcDbAlignedDimension
 13
892.1600312187219
 23
945.3824865001415
 33
0.0
 14
1268.160031218722
 24
965.3825047447799
 34
0.0
100
AcDbRotatedDimension
  0
DIMENSION
  5
1BF68
330
1F
100
AcDbEntity
  8
寸法線
100
AcDbDimension
280
     0
  2
*D24
 10
1284.160031218722
 20
1065.382486500142
 30
0.0
 11
1276.160031218722
 21
1065.382486500142
 31
0.0
 70
   160
 71
     5
 42
16.0
 73
     0
 74
     0
 75
     0
  3
STANDARD
100
AcDbAlignedDimension
 13
1268.160031218722
 23
965.3825047447799
 33
0.0
 14
1284.160031218722
 24
965.3824865001416
 34
0.0
100
AcDbRotatedDimension
1001
ACAD
1000
DSTYLE
1002
{
1070
   279
1070
     0
1002
}
  0
LEADER
  5
1BF69
330
1F
100
AcDbEntity
  8
寸法線
100
AcDbLeader
  3
STANDARD
 76
     2
 10
947.6230834728921
 20
985.3824865001415
 30
0.0
 10
995.0198186587368
 20
985.3824865001415
 30
0.0
1001
ACAD
1000
DSTYLE
1002
{
1070
   147
1040
0.875
1070
    77
1070
     0
1070
    49
1040
0.5
1002
}
  0
LEADER
  5
1BF6A
330
1F
100
AcDbEntity
  8
寸法線
100
AcDbLeader
  3
STANDARD
 76
     2
 10
947.6230834728921
 20
585.3824865001415
 30
0.0
 10
995.0198186587368
 20
585.3824865001415
 30
0.0
1001
ACAD
1000
DSTYLE
1002
{
1070
   147
1040
0.875
1070
    77
1070
     0
1070
    49
1040
0.5
1002
}
  0
LEADER
  5
1BF6B
330
1F
100
AcDbEntity
  8
寸法線
100
AcDbLeader
  3
STANDARD
 76
     2
 10
1339.623083472892
 20
985.3824865001415
 30
0.0
 10
1387.019818658737
 20
985.3824865001415
 30
0.0
1001
ACAD
1000
DSTYLE
1002
{
1070
   147
1040
0.875
1070
    77
1070
     0
1070
    49
1040
0.5
1002
}
  0
LEADER
  5
1BF6C
330
1F
100
AcDbEntity
  8
寸法線
100
AcDbLeader
  3
STANDARD
 76
     2
 10
1339.623083472892
 20
585.3824865001415
 30
0.0
 10
1387.019818658737
 20
585.3824865001415
 30
0.0
1001
ACAD
1000
DSTYLE
1002
{
1070
   147
1040
0.875
1070
    77
1070
     0
1070
    49
1040
0.5
1002
}
  0
LEADER
  5
1BF6D
330
1F
100
AcDbEntity
  8
寸法線
100
AcDbLeader
  3
STANDARD
 76
     2
 10
1639.623187057936
 20
985.3824865001415
 30
0.0
 10
1687.019922243751
 20
985.3824865001415
 30
0.0
1001
ACAD
1000
DSTYLE
1002
{
1070
   147
1040
0.875
1070
    77
1070
     0
1070
    49
1040
0.5
1002
}
  0
LEADER
  5
1BF6E
330
1F
100
AcDbEntity
  8
寸法線
100
AcDbLeader
  3
STANDARD
 76
     2
 10
1639.623187057936
 20
585.3824865001415
 30
0.0
 10
1687.019922243751
 20
585.3824865001415
 30
0.0
1001
ACAD
1000
DSTYLE
1002
{
1070
   147
1040
0.875
1070
    77
1070
     0
1070
    49
1040
0.5
1002
}
  0
LINE
  5
1BF71
330
1F
100
AcDbEntity
  8
寸法線
100
AcDbLine
 10
1266.160031218722
 20
1185.382486500141
 30
0.0
 11
1586.160031218722
 21
1185.382486500141
 31
0.0
  0
TEXT
  5
1BF72
330
1F
100
AcDbEntity
  8
寸法線
100
AcDbText
 10
1274.910031218722
 20
1194.132486500141
 30
0.0
 40
37.5
  1
空洞金具詳細図
 72
     1
 11
1426.160031218722
 21
1194.132486500141
 31
0.0
100
AcDbText
 73
     1
  0
DIMENSION
  5
1BF73
330
1F
100
AcDbEntity
  8
寸法線
100
AcDbDimension
280
     0
  2
*D25
 10
1928.160031218722
 20
505.3824865001415
 30
0.0
 11
1944.160031218722
 21
505.3824865001415
 31
0.0
 70
   160
 71
     5
 42
32.0
 73
     0
 74
     0
 75
     0
  3
STANDARD
100
AcDbAlignedDimension
 13
1960.160031218722
 23
625.3825047447799
 33
0.0
 14
1928.160031218722
 24
635.3824865001415
 34
0.0
 50
180.0
100
AcDbRotatedDimension
  0
LINE
  5
1BF74
330
1F
100
AcDbEntity
  8
中心線
100
AcDbLine
 10
371.1601348037366
 20
785.3824865001415
 30
0.0
 11
741.1601348037366
 21
785.3824865001415
 31
0.0
  0
LINE
  5
1BF75
330
1F
100
AcDbEntity
  8
実線
100
AcDbLine
 10
396.1601667878568
 20
945.3825047447507
 30
0.0
 11
716.1601667878567
 21
945.3825047447507
 31
0.0
  0
LINE
  5
1BF76
330
1F
100
AcDbEntity
  8
実線
100
AcDbLine
 10
396.1601667878568
 20
625.3825047447508
 30
0.0
 11
716.1601667878567
 21
625.3825047447508
 31
0.0
  0
LINE
  5
1BF77
330
1F
100
AcDbEntity
  8
実線
100
AcDbLine
 10
396.1601667878568
 20
625.3825047447508
 30
0.0
 11
396.1601667878568
 21
945.3825047447507
 31
0.0
  0
LINE
  5
1BF78
330
1F
100
AcDbEntity
  8
実線
100
AcDbLine
 10
716.1601667878567
 20
625.3825047447508
 30
0.0
 11
716.1601667878567
 21
945.3825047447507
 31
0.0
  0
LINE
  5
1BF79
330
1F
100
AcDbEntity
  8
中心線
100
AcDbLine
 10
381.1601643776521
 20
910.3824865001415
 30
0.0
 11
481.1601643776521
 21
910.3824865001415
 31
0.0
  0
LINE
  5
1BF7A
330
1F
100
AcDbEntity
  8
中心線
100
AcDbLine
 10
381.1601643776521
 20
660.3824865001415
 30
0.0
 11
481.1601643776521
 21
660.3824865001415
 31
0.0
  0
LINE
  5
1BF7B
330
1F
100
AcDbEntity
  8
中心線
100
AcDbLine
 10
431.1601643776521
 20
960.3824865001415
 30
0.0
 11
431.1601643776521
 21
860.3824865001415
 31
0.0
  0
LINE
  5
1BF7C
330
1F
100
AcDbEntity
  8
中心線
100
AcDbLine
 10
681.1601643776521
 20
960.3824865001415
 30
0.0
 11
681.1601643776521
 21
860.3824865001415
 31
0.0
  0
CIRCLE
  5
1BF7D
330
1F
100
AcDbEntity
  8
破線
100
AcDbCircle
 10
431.1601643776521
 20
660.3824865001415
 30
0.0
 40
25.0
  0
CIRCLE
  5
1BF7E
330
1F
100
AcDbEntity
  8
破線
100
AcDbCircle
 10
431.1601643776521
 20
910.3824865001415
 30
0.0
 40
25.0
  0
CIRCLE
  5
1BF7F
330
1F
100
AcDbEntity
  8
破線
100
AcDbCircle
 10
681.1601643776521
 20
910.3824865001415
 30
0.0
 40
25.0
  0
CIRCLE
  5
1BF80
330
1F
100
AcDbEntity
  8
破線
100
AcDbCircle
 10
681.1601643776521
 20
660.3824865001415
 30
0.0
 40
25.0
  0
LINE
  5
1BF81
330
1F
100
AcDbEntity
  8
中心線
100
AcDbLine
 10
631.1601643776521
 20
660.3824865001415
 30
0.0
 11
731.1601643776521
 21
660.3824865001415
 31
0.0
  0
LINE
  5
1BF82
330
1F
100
AcDbEntity
  8
中心線
100
AcDbLine
 10
681.1601643776521
 20
710.3824865001415
 30
0.0
 11
681.1601643776521
 21
610.3824865001415
 31
0.0
  0
LINE
  5
1BF83
330
1F
100
AcDbEntity
  8
中心線
100
AcDbLine
 10
431.1601643776521
 20
710.3824865001415
 30
0.0
 11
431.1601643776521
 21
610.3824865001415
 31
0.0
  0
LINE
  5
1BF84
330
1F
100
AcDbEntity
  8
中心線
100
AcDbLine
 10
631.1601643776521
 20
910.3824865001415
 30
0.0
 11
731.1601643776521
 21
910.3824865001415
 31
0.0
  0
LINE
  5
1BF85
330
1F
100
AcDbEntity
  8
破線
100
AcDbLine
 10
661.1601643776521
 20
635.3824865001415
 30
0.0
 11
451.1601643776521
 21
635.3824865001415
 31
0.0
  0
LINE
  5
1BF86
330
1F
100
AcDbEntity
  8
破線
100
AcDbLine
 10
661.1601643776521
 20
644.3824865001415
 30
0.0
 11
451.1601643776521
 21
644.3824865001415
 31
0.0
  0
LINE
  5
1BF87
330
1F
100
AcDbEntity
  8
破線
100
AcDbLine
 10
451.1601643776521
 20
635.3824865001415
 30
0.0
 11
451.1601643776521
 21
644.3824865001415
 31
0.0
  0
LINE
  5
1BF88
330
1F
100
AcDbEntity
  8
破線
100
AcDbLine
 10
661.1601643776521
 20
635.3824865001415
 30
0.0
 11
661.1601643776521
 21
644.3824865001415
 31
0.0
  0
LINE
  5
1BF89
330
1F
100
AcDbEntity
  8
破線
100
AcDbLine
 10
415.1601643776521
 20
680.3824865001415
 30
0.0
 11
415.1601643776521
 21
890.3824865001416
 31
0.0
  0
LINE
  5
1BF8A
330
1F
100
AcDbEntity
  8
破線
100
AcDbLine
 10
406.1601643776521
 20
680.3824865001415
 30
0.0
 11
406.1601643776521
 21
890.3824865001416
 31
0.0
  0
LINE
  5
1BF8B
330
1F
100
AcDbEntity
  8
破線
100
AcDbLine
 10
406.1601643776521
 20
680.3824865001415
 30
0.0
 11
415.1601643776521
 21
680.3824865001415
 31
0.0
  0
LINE
  5
1BF8C
330
1F
100
AcDbEntity
  8
破線
100
AcDbLine
 10
406.1601643776521
 20
890.3824865001416
 30
0.0
 11
415.1601643776521
 21
890.3824865001416
 31
0.0
  0
LINE
  5
1BF8D
330
1F
100
AcDbEntity
  8
破線
100
AcDbLine
 10
451.1601643776521
 20
935.3824865001415
 30
0.0
 11
661.1601643776521
 21
935.3824865001415
 31
0.0
  0
LINE
  5
1BF8E
330
1F
100
AcDbEntity
  8
破線
100
AcDbLine
 10
451.1601643776521
 20
926.3824865001415
 30
0.0
 11
661.1601643776521
 21
926.3824865001415
 31
0.0
  0
LINE
  5
1BF8F
330
1F
100
AcDbEntity
  8
破線
100
AcDbLine
 10
451.1601643776521
 20
935.3824865001415
 30
0.0
 11
451.1601643776521
 21
926.3824865001415
 31
0.0
  0
LINE
  5
1BF90
330
1F
100
AcDbEntity
  8
破線
100
AcDbLine
 10
661.1601643776521
 20
935.3824865001415
 30
0.0
 11
661.1601643776521
 21
926.3824865001415
 31
0.0
  0
LINE
  5
1BF91
330
1F
100
AcDbEntity
  8
破線
100
AcDbLine
 10
697.1601643776521
 20
890.3824865001416
 30
0.0
 11
697.1601643776521
 21
680.3824865001415
 31
0.0
  0
LINE
  5
1BF92
330
1F
100
AcDbEntity
  8
破線
100
AcDbLine
 10
706.1601643776521
 20
890.3824865001416
 30
0.0
 11
706.1601643776521
 21
680.3824865001415
 31
0.0
  0
LINE
  5
1BF93
330
1F
100
AcDbEntity
  8
破線
100
AcDbLine
 10
706.1601643776521
 20
680.3824865001415
 30
0.0
 11
697.1601643776521
 21
680.3824865001415
 31
0.0
  0
LINE
  5
1BF94
330
1F
100
AcDbEntity
  8
破線
100
AcDbLine
 10
706.1601643776521
 20
890.3824865001416
 30
0.0
 11
697.1601643776521
 21
890.3824865001416
 31
0.0
  0
LINE
  5
1BF95
330
1F
100
AcDbEntity
  8
破線
100
AcDbLine
 10
416.1601643776521
 20
789.8824865001415
 30
0.0
 11
696.160164377652
 21
789.8824865001415
 31
0.0
  0
LINE
  5
1BF96
330
1F
100
AcDbEntity
  8
破線
100
AcDbLine
 10
416.1601643776521
 20
780.8824865001415
 30
0.0
 11
696.160164377652
 21
780.8824865001415
 31
0.0
  0
LINE
  5
1BF97
330
1F
100
AcDbEntity
  8
破線
100
AcDbLine
 10
416.1601643776521
 20
780.8824865001415
 30
0.0
 11
416.1601643776521
 21
789.8824865001415
 31
0.0
  0
LINE
  5
1BF98
330
1F
100
AcDbEntity
  8
破線
100
AcDbLine
 10
696.160164377652
 20
789.8824865001415
 30
0.0
 11
696.160164377652
 21
780.8824865001415
 31
0.0
  0
LINE
  5
1BF99
330
1F
100
AcDbEntity
  8
破線
100
AcDbLine
 10
551.6601643776521
 20
924.8824865001415
 30
0.0
 11
551.6601643776521
 21
789.8824865001415
 31
0.0
  0
LINE
  5
1BF9A
330
1F
100
AcDbEntity
  8
破線
100
AcDbLine
 10
560.6601643776521
 20
924.8824865001415
 30
0.0
 11
560.6601643776521
 21
789.8824865001415
 31
0.0
  0
LINE
  5
1BF9B
330
1F
100
AcDbEntity
  8
破線
100
AcDbLine
 10
560.6601643776521
 20
780.8824865001415
 30
0.0
 11
560.6601643776521
 21
645.8824865001416
 31
0.0
  0
LINE
  5
1BF9C
330
1F
100
AcDbEntity
  8
破線
100
AcDbLine
 10
551.6601643776521
 20
780.8824865001415
 30
0.0
 11
551.6601643776521
 21
645.8824865001416
 31
0.0
  0
LINE
  5
1BF9D
330
1F
100
AcDbEntity
  8
破線
100
AcDbLine
 10
551.6601643776521
 20
924.8824865001415
 30
0.0
 11
560.6601643776521
 21
924.8824865001415
 31
0.0
  0
LINE
  5
1BF9E
330
1F
100
AcDbEntity
  8
破線
100
AcDbLine
 10
551.6601643776521
 20
645.8824865001416
 30
0.0
 11
560.6601643776521
 21
645.8824865001416
 31
0.0
  0
DIMENSION
  5
1BF9F
330
1F
100
AcDbEntity
  8
寸法線
100
AcDbDimension
280
     0
  2
*D26
 10
716.1601667878567
 20
505.3825047447507
 30
0.0
 11
556.1601667878567
 21
505.3825047447507
 31
0.0
 70
   160
 71
     5
 42
320.0
 73
     0
 74
     0
 75
     0
  3
STANDARD
100
AcDbAlignedDimension
 13
396.1601667878568
 23
625.3825047447508
 33
0.0
 14
716.1601667878567
 24
625.3825047447508
 34
0.0
100
AcDbRotatedDimension
  0
DIMENSION
  5
1BFA0
330
1F
100
AcDbEntity
  8
寸法線
100
AcDbDimension
280
     0
  2
*D27
 10
276.1601028196162
 20
945.3825047447512
 30
0.0
 11
276.1601028196164
 21
785.3825047447508
 31
0.0
 70
   160
 71
     5
 42
320.0000000000001
 73
     0
 74
     0
 75
     0
  3
STANDARD
100
AcDbAlignedDimension
 13
396.1601028196164
 23
625.3825047447508
 33
0.0
 14
396.1601028196164
 24
945.3825047447507
 34
0.0
 50
90.0
100
AcDbRotatedDimension
  0
LINE
  5
1BFA1
330
1F
100
AcDbEntity
  8
中心線
100
AcDbLine
 10
556.1601348037365
 20
600.3824865001416
 30
0.0
 11
556.1601348037365
 21
970.3824865001415
 31
0.0
  0
LINE
  5
1C9A4
330
1F
100
AcDbEntity
  8
実線
100
AcDbLine
 10
2366.160430249845
 20
635.382881528295
 30
0.0
 11
2156.160430249846
 21
635.382881528295
 31
0.0
  0
LINE
  5
1C9A5
330
1F
100
AcDbEntity
  8
実線
100
AcDbLine
 10
2366.160430249845
 20
644.382881528295
 30
0.0
 11
2156.160430249846
 21
644.382881528295
 31
0.0
  0
LINE
  5
1C9A6
330
1F
100
AcDbEntity
  8
実線
100
AcDbLine
 10
2156.160430249846
 20
926.382881528295
 30
0.0
 11
2366.160430249845
 21
926.382881528295
 31
0.0
  0
LINE
  5
1C9A7
330
1F
100
AcDbEntity
  8
実線
100
AcDbLine
 10
2156.160430249846
 20
935.382881528295
 30
0.0
 11
2366.160430249845
 21
935.382881528295
 31
0.0
  0
LINE
  5
1C9A8
330
1F
100
AcDbEntity
  8
実線
100
AcDbLine
 10
2101.160031218722
 20
625.3824865001416
 30
0.0
 11
2421.160031218722
 21
625.3824865001416
 31
0.0
  0
LINE
  5
1C9A9
330
1F
100
AcDbEntity
  8
実線
100
AcDbLine
 10
2101.160031218722
 20
945.3824865001415
 30
0.0
 11
2421.160031218722
 21
945.3824865001415
 31
0.0
  0
LINE
  5
1C9AA
330
1F
100
AcDbEntity
  8
中心線
100
AcDbLine
 10
2091.160031218722
 20
785.382881528295
 30
0.0
 11
2431.160031218722
 21
785.382881528295
 31
0.0
  0
LINE
  5
1C9AB
330
1F
100
AcDbEntity
  8
実線
100
AcDbLine
 10
2156.160430249846
 20
935.382881528295
 30
0.0
 11
2156.160430249846
 21
926.382881528295
 31
0.0
  0
LINE
  5
1C9AC
330
1F
100
AcDbEntity
  8
中心線
100
AcDbLine
 10
2136.160430249845
 20
960.382881528295
 30
0.0
 11
2136.160430249845
 21
860.382881528295
 31
0.0
  0
CIRCLE
  5
1C9AD
330
1F
100
AcDbEntity
  8
実線
100
AcDbCircle
 10
2136.160430249845
 20
910.382881528295
 30
0.0
 40
25.0
  0
LINE
  5
1C9AE
330
1F
100
AcDbEntity
  8
実線
100
AcDbLine
 10
2101.160031218722
 20
625.3824865001416
 30
0.0
 11
2101.160031218722
 21
945.3824865001415
 31
0.0
  0
LINE
  5
1C9AF
330
1F
100
AcDbEntity
  8
中心線
100
AcDbLine
 10
2086.160430249845
 20
660.382881528295
 30
0.0
 11
2186.160430249845
 21
660.382881528295
 31
0.0
  0
LINE
  5
1C9B0
330
1F
100
AcDbEntity
  8
中心線
100
AcDbLine
 10
2086.160430249845
 20
910.382881528295
 30
0.0
 11
2186.160430249845
 21
910.382881528295
 31
0.0
  0
LINE
  5
1C9B1
330
1F
100
AcDbEntity
  8
実線
100
AcDbLine
 10
2111.160430249845
 20
680.3828815282949
 30
0.0
 11
2111.160430249845
 21
890.3828815282949
 31
0.0
  0
LINE
  5
1C9B2
330
1F
100
AcDbEntity
  8
実線
100
AcDbLine
 10
2120.160430249845
 20
680.3828815282949
 30
0.0
 11
2120.160430249845
 21
890.3828815282949
 31
0.0
  0
LINE
  5
1C9B3
330
1F
100
AcDbEntity
  8
中心線
100
AcDbLine
 10
2136.160430249845
 20
710.382881528295
 30
0.0
 11
2136.160430249845
 21
610.382881528295
 31
0.0
  0
CIRCLE
  5
1C9B4
330
1F
100
AcDbEntity
  8
実線
100
AcDbCircle
 10
2136.160430249845
 20
660.382881528295
 30
0.0
 40
25.0
  0
LINE
  5
1C9B5
330
1F
100
AcDbEntity
  8
実線
100
AcDbLine
 10
2156.160430249846
 20
635.382881528295
 30
0.0
 11
2156.160430249846
 21
644.382881528295
 31
0.0
  0
LINE
  5
1C9B6
330
1F
100
AcDbEntity
  8
実線
100
AcDbLine
 10
2111.160430249845
 20
680.3828815282949
 30
0.0
 11
2120.160430249845
 21
680.3828815282949
 31
0.0
  0
LINE
  5
1C9B7
330
1F
100
AcDbEntity
  8
実線
100
AcDbLine
 10
2111.160430249845
 20
890.3828815282949
 30
0.0
 11
2120.160430249845
 21
890.3828815282949
 31
0.0
  0
LINE
  5
1C9B8
330
1F
100
AcDbEntity
  8
実線
100
AcDbLine
 10
2366.160430249845
 20
935.382881528295
 30
0.0
 11
2366.160430249845
 21
926.382881528295
 31
0.0
  0
LINE
  5
1C9B9
330
1F
100
AcDbEntity
  8
中心線
100
AcDbLine
 10
2386.160430249845
 20
960.382881528295
 30
0.0
 11
2386.160430249845
 21
860.382881528295
 31
0.0
  0
CIRCLE
  5
1C9BA
330
1F
100
AcDbEntity
  8
実線
100
AcDbCircle
 10
2386.160430249845
 20
910.382881528295
 30
0.0
 40
25.0
  0
LINE
  5
1C9BB
330
1F
100
AcDbEntity
  8
実線
100
AcDbLine
 10
2421.160031218722
 20
625.3824865001416
 30
0.0
 11
2421.160031218722
 21
945.3824865001415
 31
0.0
  0
LINE
  5
1C9BC
330
1F
100
AcDbEntity
  8
中心線
100
AcDbLine
 10
2261.160430249845
 20
955.3824865001415
 30
0.0
 11
2261.160430249845
 21
615.3824865001415
 31
0.0
  0
LINE
  5
1C9BD
330
1F
100
AcDbEntity
  8
実線
100
AcDbLine
 10
2411.160430249845
 20
890.3828815282949
 30
0.0
 11
2411.160430249845
 21
680.3828815282949
 31
0.0
  0
LINE
  5
1C9BE
330
1F
100
AcDbEntity
  8
実線
100
AcDbLine
 10
2402.160430249845
 20
890.3828815282949
 30
0.0
 11
2402.160430249845
 21
680.3828815282949
 31
0.0
  0
LINE
  5
1C9BF
330
1F
100
AcDbEntity
  8
中心線
100
AcDbLine
 10
2336.160430249845
 20
660.382881528295
 30
0.0
 11
2436.160430249846
 21
660.382881528295
 31
0.0
  0
CIRCLE
  5
1C9C0
330
1F
100
AcDbEntity
  8
実線
100
AcDbCircle
 10
2386.160430249845
 20
660.382881528295
 30
0.0
 40
25.0
  0
LINE
  5
1C9C1
330
1F
100
AcDbEntity
  8
実線
100
AcDbLine
 10
2366.160430249845
 20
635.382881528295
 30
0.0
 11
2366.160430249845
 21
644.382881528295
 31
0.0
  0
LINE
  5
1C9C2
330
1F
100
AcDbEntity
  8
中心線
100
AcDbLine
 10
2386.160430249845
 20
710.382881528295
 30
0.0
 11
2386.160430249845
 21
610.382881528295
 31
0.0
  0
LINE
  5
1C9C3
330
1F
100
AcDbEntity
  8
実線
100
AcDbLine
 10
2411.160430249845
 20
680.3828815282949
 30
0.0
 11
2402.160430249845
 21
680.3828815282949
 31
0.0
  0
LINE
  5
1C9C4
330
1F
100
AcDbEntity
  8
中心線
100
AcDbLine
 10
2336.160430249845
 20
910.382881528295
 30
0.0
 11
2436.160430249846
 21
910.382881528295
 31
0.0
  0
LINE
  5
1C9C5
330
1F
100
AcDbEntity
  8
実線
100
AcDbLine
 10
2411.160430249845
 20
890.3828815282949
 30
0.0
 11
2402.160430249845
 21
890.3828815282949
 31
0.0
  0
LINE
  5
1C9C6
330
1F
100
AcDbEntity
  8
実線
100
AcDbLine
 10
2265.660430249845
 20
924.882881528295
 30
0.0
 11
2265.660430249845
 21
789.882881528295
 31
0.0
  0
LINE
  5
1C9C7
330
1F
100
AcDbEntity
  8
実線
100
AcDbLine
 10
2256.660430249846
 20
924.882881528295
 30
0.0
 11
2256.660430249846
 21
789.882881528295
 31
0.0
  0
LINE
  5
1C9C8
330
1F
100
AcDbEntity
  8
実線
100
AcDbLine
 10
2121.160430249846
 20
789.882881528295
 30
0.0
 11
2401.160430249845
 21
789.882881528295
 31
0.0
  0
LINE
  5
1C9C9
330
1F
100
AcDbEntity
  8
実線
100
AcDbLine
 10
2121.160430249846
 20
780.882881528295
 30
0.0
 11
2401.160430249845
 21
780.882881528295
 31
0.0
  0
LINE
  5
1C9CA
330
1F
100
AcDbEntity
  8
実線
100
AcDbLine
 10
2265.660430249845
 20
780.882881528295
 30
0.0
 11
2265.660430249845
 21
645.882881528295
 31
0.0
  0
LINE
  5
1C9CB
330
1F
100
AcDbEntity
  8
実線
100
AcDbLine
 10
2256.660430249846
 20
780.882881528295
 30
0.0
 11
2256.660430249846
 21
645.882881528295
 31
0.0
  0
LINE
  5
1C9CC
330
1F
100
AcDbEntity
  8
実線
100
AcDbLine
 10
2401.160430249845
 20
789.882881528295
 30
0.0
 11
2401.160430249845
 21
780.882881528295
 31
0.0
  0
LINE
  5
1C9CD
330
1F
100
AcDbEntity
  8
実線
100
AcDbLine
 10
2121.160430249846
 20
780.882881528295
 30
0.0
 11
2121.160430249846
 21
789.882881528295
 31
0.0
  0
LINE
  5
1C9CE
330
1F
100
AcDbEntity
  8
実線
100
AcDbLine
 10
2256.660430249846
 20
645.882881528295
 30
0.0
 11
2265.660430249845
 21
645.882881528295
 31
0.0
  0
LINE
  5
1C9CF
330
1F
100
AcDbEntity
  8
実線
100
AcDbLine
 10
2256.660430249846
 20
924.882881528295
 30
0.0
 11
2265.660430249845
 21
924.882881528295
 31
0.0
  0
LINE
  5
1C9D0
330
1F
100
AcDbEntity
  8
実線
100
AcDbLine
 10
2651.160430249845
 20
605.3828815282949
 30
0.0
 11
3011.160430249845
 21
605.3828815282949
 31
0.0
  0
LINE
  5
1C9D1
330
1F
100
AcDbEntity
  8
実線
100
AcDbLine
 10
2651.160430249845
 20
965.3828815282949
 30
0.0
 11
3011.160430249845
 21
965.3828815282949
 31
0.0
  0
CIRCLE
  5
1C9D2
330
1F
100
AcDbEntity
  8
実線
100
AcDbCircle
 10
2831.160430249846
 20
785.382881528295
 30
0.0
 40
110.0
  0
LINE
  5
1C9D3
330
1F
100
AcDbEntity
  8
実線
100
AcDbLine
 10
2651.160430249845
 20
605.3828815282949
 30
0.0
 11
2651.160430249845
 21
965.3828815282949
 31
0.0
  0
LINE
  5
1C9D4
330
1F
100
AcDbEntity
  8
中心線
100
AcDbLine
 10
2831.160430249846
 20
975.382881528295
 30
0.0
 11
2831.160430249846
 21
595.382881528295
 31
0.0
  0
CIRCLE
  5
1C9D5
330
1F
100
AcDbEntity
  8
実線
100
AcDbCircle
 10
2706.160430249846
 20
660.382881528295
 30
0.0
 40
25.25
  0
LINE
  5
1C9D6
330
1F
100
AcDbEntity
  8
中心線
100
AcDbLine
 10
2706.160430249846
 20
710.382881528295
 30
0.0
 11
2706.160430249846
 21
610.382881528295
 31
0.0
  0
LINE
  5
1C9D7
330
1F
100
AcDbEntity
  8
中心線
100
AcDbLine
 10
2656.160430249846
 20
660.382881528295
 30
0.0
 11
2756.160430249846
 21
660.382881528295
 31
0.0
  0
LINE
  5
1C9D8
330
1F
100
AcDbEntity
  8
中心線
100
AcDbLine
 10
2706.160430249846
 20
960.382881528295
 30
0.0
 11
2706.160430249846
 21
860.382881528295
 31
0.0
  0
LINE
  5
1C9D9
330
1F
100
AcDbEntity
  8
中心線
100
AcDbLine
 10
2656.160430249846
 20
910.382881528295
 30
0.0
 11
2756.160430249846
 21
910.382881528295
 31
0.0
  0
CIRCLE
  5
1C9DA
330
1F
100
AcDbEntity
  8
実線
100
AcDbCircle
 10
2706.160430249846
 20
910.382881528295
 30
0.0
 40
25.25
  0
LINE
  5
1C9DB
330
1F
100
AcDbEntity
  8
実線
100
AcDbLine
 10
3011.160430249845
 20
605.3828815282949
 30
0.0
 11
3011.160430249845
 21
965.3828815282949
 31
0.0
  0
CIRCLE
  5
1C9DC
330
1F
100
AcDbEntity
  8
実線
100
AcDbCircle
 10
2956.160430249846
 20
660.382881528295
 30
0.0
 40
25.25
  0
LINE
  5
1C9DD
330
1F
100
AcDbEntity
  8
中心線
100
AcDbLine
 10
2956.160430249846
 20
710.382881528295
 30
0.0
 11
2956.160430249846
 21
610.382881528295
 31
0.0
  0
LINE
  5
1C9DE
330
1F
100
AcDbEntity
  8
中心線
100
AcDbLine
 10
2906.160430249846
 20
660.382881528295
 30
0.0
 11
3006.160430249846
 21
660.382881528295
 31
0.0
  0
LINE
  5
1C9DF
330
1F
100
AcDbEntity
  8
中心線
100
AcDbLine
 10
2956.160430249846
 20
960.382881528295
 30
0.0
 11
2956.160430249846
 21
860.382881528295
 31
0.0
  0
CIRCLE
  5
1C9E0
330
1F
100
AcDbEntity
  8
実線
100
AcDbCircle
 10
2956.160430249846
 20
910.382881528295
 30
0.0
 40
25.25
  0
LINE
  5
1C9E1
330
1F
100
AcDbEntity
  8
中心線
100
AcDbLine
 10
2906.160430249846
 20
910.382881528295
 30
0.0
 11
3006.160430249846
 21
910.382881528295
 31
0.0
  0
LINE
  5
1C9E2
330
1F
100
AcDbEntity
  8
中心線
100
AcDbLine
 10
2641.160430249846
 20
785.382881528295
 30
0.0
 11
3021.160430249846
 21
785.382881528295
 31
0.0
  0
DIMENSION
  5
1C9E3
330
1F
100
AcDbEntity
  8
寸法線
100
AcDbDimension
280
     0
  2
*D35
 10
2937.412271141311
 20
813.8529764908737
 30
0.0
 11
2869.797463301419
 21
795.7356433324211
 31
0.0
 70
   160
  1
%%C<>
 71
     5
 42
220.0000000000323
 73
     0
 74
     0
 75
     0
  3
STANDARD
100
AcDbAlignedDimension
 13
2724.908589358034
 23
756.9127865670061
 33
0.0
 14
2937.412271141657
 24
813.8529764895839
 34
0.0
 50
15.00000000108161
100
AcDbRotatedDimension
  0
CIRCLE
  5
1C9E4
330
1F
100
AcDbEntity
  8
実線
100
AcDbCircle
 10
2706.160430249846
 20
660.382881528295
 30
0.0
 40
26.5
  0
CIRCLE
  5
1C9E5
330
1F
100
AcDbEntity
  8
実線
100
AcDbCircle
 10
2706.160430249846
 20
910.382881528295
 30
0.0
 40
26.5
  0
CIRCLE
  5
1C9E6
330
1F
100
AcDbEntity
  8
実線
100
AcDbCircle
 10
2956.160430249846
 20
910.382881528295
 30
0.0
 40
26.5
  0
CIRCLE
  5
1C9E7
330
1F
100
AcDbEntity
  8
実線
100
AcDbCircle
 10
2956.160430249846
 20
660.382881528295
 30
0.0
 40
26.5
  0
TEXT
  5
1C9E8
330
1F
100
AcDbEntity
  8
寸法線
100
AcDbText
 10
2191.160031218722
 20
432.1113606651825
 30
0.0
 40
25.0
  1
断面Ａ－Ａ
 72
     1
 11
2261.160031218722
 21
432.1113606651825
 31
0.0
100
AcDbText
 73
     1
  0
LINE
  5
1C9E9
330
1F
100
AcDbEntity
  8
寸法線
100
AcDbLine
 10
2182.410031218722
 20
425.3825358278454
 30
0.0
 11
2339.910031218722
 21
425.3825358278454
 31
0.0
  0
DIMENSION
  5
1C9EA
330
1F
100
AcDbEntity
  8
寸法線
100
AcDbDimension
280
     0
  2
*D36
 10
2386.160462233966
 20
505.3824865001415
 30
0.0
 11
2261.160462233966
 21
505.3824865001415
 31
0.0
 70
   160
 71
     5
 42
250.0
 73
     0
 74
     0
 75
     0
  3
STANDARD
100
AcDbAlignedDimension
 13
2136.160462233966
 23
610.382881528295
 33
0.0
 14
2386.160462233966
 24
610.382881528295
 34
0.0
100
AcDbRotatedDimension
  0
DIMENSION
  5
1C9EB
330
1F
100
AcDbEntity
  8
寸法線
100
AcDbDimension
280
     0
  2
*D37
 10
2421.160063202842
 20
505.3824865001415
 30
0.0
 11
2403.660262718404
 21
505.3824865001415
 31
0.0
 70
   160
 71
     5
 42
34.99960096887662
 73
     0
 74
     0
 75
     0
  3
STANDARD
100
AcDbAlignedDimension
 13
2386.160462233966
 23
610.382881528295
 33
0.0
 14
2421.160063202842
 24
625.3824865001416
 34
0.0
100
AcDbRotatedDimension
  0
DIMENSION
  5
1C9EC
330
1F
100
AcDbEntity
  8
寸法線
100
AcDbDimension
280
     0
  2
*D38
 10
2541.160063202843
 20
910.3828815282954
 30
0.0
 11
2541.160063202842
 21
785.382881528295
 31
0.0
 70
   160
 71
     5
 42
250.0000000000001
 73
     0
 74
     0
 75
     0
  3
STANDARD
100
AcDbAlignedDimension
 13
2436.160462233966
 23
660.382881528295
 33
0.0
 14
2436.160462233966
 24
910.382881528295
 34
0.0
 50
90.0
100
AcDbRotatedDimension
  0
DIMENSION
  5
1C9ED
330
1F
100
AcDbEntity
  8
寸法線
100
AcDbDimension
280
     0
  2
*D39
 10
2541.160063202843
 20
660.3828815282952
 30
0.0
 11
2541.160063202842
 21
642.8826840142177
 31
0.0
 70
   160
 71
     5
 42
35.00039502815344
 73
     0
 74
     0
 75
     0
  3
STANDARD
100
AcDbAlignedDimension
 13
2421.160063202842
 23
625.3824865001416
 33
0.0
 14
2436.160462233966
 24
660.382881528295
 34
0.0
 50
90.0
100
AcDbRotatedDimension
  0
DIMENSION
  5
1C9EE
330
1F
100
AcDbEntity
  8
寸法線
100
AcDbDimension
280
     0
  2
*D40
 10
2541.160063202843
 20
945.382486500142
 30
0.0
 11
2541.160063202842
 21
927.8826840142178
 31
0.0
 70
   160
 71
     5
 42
34.99960497184657
 73
     0
 74
     0
 75
     0
  3
STANDARD
100
AcDbAlignedDimension
 13
2436.160462233966
 23
910.382881528295
 33
0.0
 14
2421.160063202842
 24
945.3824865001415
 34
0.0
 50
90.0
100
AcDbRotatedDimension
  0
DIMENSION
  5
1C9EF
330
1F
100
AcDbEntity
  8
寸法線
100
AcDbDimension
280
     0
  2
*D41
 10
3011.160430249845
 20
505.3824865001415
 30
0.0
 11
2831.160861265089
 21
505.3824865001415
 31
0.0
 70
   160
 71
     5
 42
360.0
 73
     0
 74
     0
 75
     0
  3
STANDARD
100
AcDbAlignedDimension
 13
2651.160430249845
 23
605.3828815282949
 33
0.0
 14
3011.160430249845
 24
605.3828815282949
 34
0.0
100
AcDbRotatedDimension
  0
DIMENSION
  5
1C9F0
330
1F
100
AcDbEntity
  8
寸法線
100
AcDbDimension
280
     0
  2
*D42
 10
3111.160462233967
 20
965.3828815282954
 30
0.0
 11
3111.160462233966
 21
785.382881528295
 31
0.0
 70
   160
 71
     5
 42
360.0000000000001
 73
     0
 74
     0
 75
     0
  3
STANDARD
100
AcDbAlignedDimension
 13
3011.160430249845
 23
605.3828815282949
 33
0.0
 14
3011.160430249845
 24
965.3828815282949
 34
0.0
 50
90.0
100
AcDbRotatedDimension
  0
LINE
  5
1C9F1
330
1F
100
AcDbEntity
  8
寸法線
100
AcDbLine
 10
2750.893450432283
 20
425.3825358278454
 30
0.0
 11
2911.427410067409
 21
425.3825358278454
 31
0.0
  0
TEXT
  5
1C9F2
330
1F
100
AcDbEntity
  8
寸法線
100
AcDbText
 10
2762.295717671805
 20
432.1113606651825
 30
0.0
 40
24.0
  1
断面Ｂ－Ｂ
100
AcDbText
  0
DIMENSION
  5
1CAA7
330
1F
100
AcDbEntity
  8
寸法線
100
AcDbDimension
280
     0
  2
*D43
 10
2101.160797296849
 20
505.3824865001415
 30
0.0
 11
2118.660597781287
 21
505.3824865001415
 31
0.0
 70
   160
 71
     5
 42
34.99960096887662
 73
     0
 74
     0
 75
     0
  3
STANDARD
100
AcDbAlignedDimension
 13
2136.160398265726
 23
610.382881528295
 33
0.0
 14
2101.160797296849
 24
625.3824865001416
 34
0.0
 50
180.0
100
AcDbRotatedDimension
  0
TEXT
  5
1CAED
330
1F
100
AcDbEntity
  8
寸法線
100
AcDbText
 10
3181.457537936397
 20
606.7561391440015
 30
0.0
 40
25.0
  1
※　H型鋼（連結部）の長さは、切梁メーカー仕様または施工条件
 11
3181.457537936397
 21
606.7561391440015
 31
0.0
100
AcDbText
 73
     1
  0
TEXT
  5
1CAEE
330
1F
100
AcDbEntity
  8
寸法線
100
AcDbText
 10
3181.457537936397
 20
656.7561391440015
 30
0.0
 40
25.0
  1
※　H型鋼（連結部）の穴開け位置は、切梁メーカー仕様による。
 11
3181.457537936397
 21
656.7561391440015
 31
0.0
100
AcDbText
 73
     1
  0
TEXT
  5
1CAEF
330
1F
100
AcDbEntity
  8
寸法線
100
AcDbText
 10
3181.457537936397
 20
556.7561391440015
 30
0.0
 40
25.0
  1
　　により変更する場合がある。
 11
3181.457537936397
 21
556.7561391440015
 31
0.0
100
AcDbText
 73
     1
  0
TEXT
  5
1CAF0
330
1F
100
AcDbEntity
  8
寸法線
100
AcDbText
 10
3181.457537936397
 20
506.7561391440015
 30
0.0
 40
25.0
  1
※　空洞金具部及びＨ型鋼（埋設部）は鉄筋防錆剤塗装仕上げ。
 11
3181.457537936397
 21
506.7561391440015
 31
0.0
100
AcDbText
 73
     1
  0
TEXT
  5
1CAF1
330
1F
100
AcDbEntity
  8
寸法線
100
AcDbText
 10
3181.457537936397
 20
456.7561391440015
 30
0.0
 40
25.0
  1
※　H型鋼（連結部）は赤さび塗装仕上げ。
 11
3181.457537936397
 21
456.7561391440015
 31
0.0
100
AcDbText
 73
     1
  0
TEXT
  5
1CB49
330
1F
100
AcDbEntity
  8
寸法線
100
AcDbText
 10
2594.625296701936
 20
2125.929265116776
 30
0.0
 40
25.0
  1
ｴﾝﾄﾞﾌﾟﾚｰﾄ
 11
2594.625296701936
 21
2125.929265116776
 31
0.0
100
AcDbText
 73
     1
  0
LEADER
  5
1CB4A
330
1F
100
AcDbEntity
  8
寸法線
100
AcDbLeader
  3
STANDARD
 76
     2
 10
2786.499976388739
 20
2119.999970926072
 30
0.0
 10
2592.335237114004
 20
2119.999970926072
 30
0.0
1001
ACAD
1000
DSTYLE
1002
{
1070
   147
1040
0.875
1070
    77
1070
     0
1002
}
  0
VIEWPORT
  5
794
330
78D
100
AcDbEntity
 67
     1
  8
0
100
AcDbViewport
 10
215.5472774598223
 20
142.589248394887
 30
0.0
 40
568.7531912741584
 41
287.6881134902039
 68
     1
 69
     1
 12
215.5472774598223
 22
142.589248394887
 13
0.0
 23
0.0
 14
10.0
 24
10.0
 15
10.0
 25
10.0
 16
0.0
 26
0.0
 36
1.0
 17
0.0
 27
0.0
 37
0.0
 42
50.0
 43
0.0
 44
0.0
 45
287.6881134902039
 50
0.0
 51
0.0
 72
  1000
 90
    32800
  1

281
     0
 71
     1
 74
     0
110
0.0
120
0.0
130
0.0
111
1.0
121
0.0
131
0.0
112
0.0
122
1.0
132
0.0
 79
     0
146
0.0
170
     0
 61
     5
348
D7C2
292
     1
282
     1
141
0.0
142
0.0
 63
   250
421
  3355443
  0
VIEWPORT
  5
796
330
78D
100
AcDbEntity
 67
     1
  8
Defpoints
100
AcDbViewport
 10
204.099579334259
 20
142.5892481803894
 30
0.0
 40
408.1991586685178
 41
285.1784963607788
 68
     2
 69
     2
 12
2100.207206595808
 22
1486.804522350007
 13
0.0
 23
0.0
 14
10.0
 24
10.0
 15
10.0
 25
10.0
 16
0.0
 26
0.0
 36
1.0
 17
0.0
 27
0.0
 37
0.0
 42
50.0
 43
0.0
 44
0.0
 45
2851.784980677949
 50
0.0
 51
0.0
 72
  1000
 90
    32864
  1

281
     0
 71
     1
 74
     0
110
0.0
120
0.0
130
0.0
111
1.0
121
0.0
131
0.0
112
0.0
122
1.0
132
0.0
 79
     0
146
0.0
170
     0
 61
     5
348
D7C2
292
     1
282
     1
141
0.0
142
0.0
 63
   250
421
  3355443
  0
LINE
  5
9A2
330
78D
100
AcDbEntity
 67
     1
  8
図面枠
100
AcDbLine
 10
14.0996
 20
6.589249999999998
 30
0.0
 11
14.0996
 21
278.58925
 31
0.0
  0
LINE
  5
9A3
330
78D
100
AcDbEntity
 67
     1
  8
図面枠
100
AcDbLine
 10
404.0995999999998
 20
6.589249999999998
 30
0.0
 11
404.0995999999998
 21
278.58925
 31
0.0
  0
LINE
  5
9A4
330
78D
100
AcDbEntity
 67
     1
  8
図面枠
100
AcDbLine
 10
14.0996
 20
278.58925
 30
0.0
 11
404.0995999999998
 21
278.58925
 31
0.0
  0
LINE
  5
9A5
330
78D
100
AcDbEntity
 67
     1
  8
図面枠
100
AcDbLine
 10
14.0996
 20
6.589249999999998
 30
0.0
 11
404.0995999999998
 21
6.589249999999991
 31
0.0
  0
LINE
  5
9BB
330
78D
100
AcDbEntity
 67
     1
  8
図面枠
100
AcDbLine
 10
289.0996
 20
36.58924999999999
 30
0.0
 11
404.0995999999998
 21
36.58924999999999
 31
0.0
  0
LINE
  5
9BC
330
78D
100
AcDbEntity
 67
     1
  8
図面枠
100
AcDbLine
 10
289.0996
 20
30.58924999999999
 30
0.0
 11
404.0995999999998
 21
30.58924999999999
 31
0.0
  0
LINE
  5
9BE
330
78D
100
AcDbEntity
 67
     1
  8
図面枠
100
AcDbLine
 10
289.0996
 20
36.5893
 30
0.0
 11
289.0996
 21
6.589249999999991
 31
0.0
  0
LINE
  5
9C4
330
78D
100
AcDbEntity
 67
     1
  8
図面枠
100
AcDbLine
 10
289.0996
 20
18.58924999999999
 30
0.0
 11
404.0995999999998
 21
18.58924999999999
 31
0.0
  0
LINE
  5
9D0
330
78D
100
AcDbEntity
 67
     1
  8
図面枠
100
AcDbLine
 10
352.0996
 20
36.58924999999999
 30
0.0
 11
352.0996
 21
6.589249999999991
 31
0.0
  0
LINE
  5
9D2
330
78D
100
AcDbEntity
 67
     1
  8
図面枠
100
AcDbLine
 10
304.0996
 20
24.58924999999999
 30
0.0
 11
349.0996
 21
24.58924999999999
 31
0.0
  0
TEXT
  5
9ED
330
78D
100
AcDbEntity
 67
     1
  8
図面枠
100
AcDbText
 10
289.97465
 20
27.21424999999999
 30
0.0
 40
2.5
  1
名　称
 11
289.97465
 21
29.71424999999999
 31
0.0
100
AcDbText
 73
     3
  0
TEXT
  5
A52
330
78D
100
AcDbEntity
 67
     1
  8
図面枠
100
AcDbText
 10
352.97465
 20
27.21424999999999
 30
0.0
 40
2.5
  1
摘　要
 11
352.97465
 21
29.71424999999999
 31
0.0
100
AcDbText
 73
     3
  0
TEXT
  5
A53
330
78D
100
AcDbEntity
 67
     1
  8
図面枠
100
AcDbText
 10
352.9746
 20
15.21424999999999
 30
0.0
 40
2.5
  1
型　式
 11
352.9746
 21
17.71424999999999
 31
0.0
100
AcDbText
 73
     3
  0
TEXT
  5
A59
330
78D
100
AcDbEntity
 67
     1
  8
図面枠
100
AcDbText
 10
313.5162666666667
 20
26.33924999999999
 30
0.0
 40
2.5
  1
スルーサーＢ構造図
 72
     1
 11
326.5996
 21
26.33924999999999
 31
0.0
100
AcDbText
 73
     1
  0
TEXT
  5
A5A
330
78D
100
AcDbEntity
 67
     1
  8
図面枠
100
AcDbText
 10
317.7861157480315
 20
20.33924999999999
 30
0.0
 40
2.5
  1
切り梁H-300
 72
     1
 11
326.5996
 21
22.83924999999999
 31
0.0
100
AcDbText
 73
     3
  0
TEXT
  5
A63
330
78D
100
AcDbEntity
 67
     1
  8
図面枠
100
AcDbText
 10
366.5162666666667
 20
8.33924999999999
 30
0.0
 40
2.5
  1
Ｈ３０－Ｗ１１０
 72
     1
 11
378.0996
 21
8.33924999999999
 31
0.0
100
AcDbText
 73
     1
  0
TEXT
  5
933A
330
78D
100
AcDbEntity
 67
     1
  8
図面枠
100
AcDbText
 10
300.0162781896648
 20
10.58922126233957
 30
0.0
 40
4.0
  1
三研テクノクリエイト
 11
300.0162781896648
 21
12.58922126233957
 31
0.0
100
AcDbText
 73
     2
  0
TEXT
  5
933B
330
78D
100
AcDbEntity
 67
     1
  8
図面枠
100
AcDbText
 10
294.2496115229981
 20
12.83922126233957
 30
0.0
 40
2.0
  1
株式
 72
     2
 11
298.5162781896648
 21
12.83922126233957
 31
0.0
100
AcDbText
 73
     1
  0
TEXT
  5
933C
330
78D
100
AcDbEntity
 67
     1
  8
図面枠
100
AcDbText
 10
294.2496115229981
 20
10.33922126233957
 30
0.0
 40
2.0
  1
会社
 72
     2
 11
298.5162781896648
 21
12.33922126233957
 31
0.0
100
AcDbText
 73
     3
  0
LINE
  5
13395
330
78D
100
AcDbEntity
 67
     1
  8
図面枠
100
AcDbLine
 10
234.0996
 20
15.58924999999999
 30
0.0
 11
289.0996
 21
15.58924999999999
 31
0.0
  0
LINE
  5
13396
330
78D
100
AcDbEntity
 67
     1
  8
図面枠
100
AcDbLine
 10
234.0996
 20
15.58924999999999
 30
0.0
 11
234.0996
 21
6.589249999999991
 31
0.0
  0
LINE
  5
13398
330
78D
100
AcDbEntity
 67
     1
  8
図面枠
100
AcDbLine
 10
289.0996
 20
15.58924999999999
 30
0.0
 11
289.0996
 21
6.589249999999991
 31
0.0
  0
LINE
  5
13399
330
78D
100
AcDbEntity
 67
     1
  8
図面枠
100
AcDbLine
 10
234.0996
 20
6.589249999999991
 30
0.0
 11
289.0996
 21
6.589249999999991
 31
0.0
  0
LINE
  5
1340C
330
78D
100
AcDbEntity
 67
     1
  8
図面枠
100
AcDbLine
 10
383.0996
 20
36.58930000000001
 30
0.0
 11
383.0996
 21
30.58925000000002
 31
0.0
  0
LINE
  5
1340D
330
78D
100
AcDbEntity
 67
     1
  8
図面枠
100
AcDbLine
 10
312.0996
 20
36.58925000000002
 30
0.0
 11
312.0996
 21
30.58925000000002
 31
0.0
  0
TEXT
  5
1340E
330
78D
100
AcDbEntity
 67
     1
  8
図面枠
100
AcDbText
 10
289.9746
 20
32.33925000000002
 30
0.0
 40
2.5
  1
重量
 11
289.9746
 21
32.33925000000002
 31
0.0
100
AcDbText
 73
     1
  0
TEXT
  5
1340F
330
78D
100
AcDbEntity
 67
     1
  8
図面枠
100
AcDbText
 10
312.9746
 20
32.33930000000001
 30
0.0
 40
2.5
  1
表面仕上げ
 41
0.8
 11
312.9746
 21
32.33930000000001
 31
0.0
100
AcDbText
 73
     1
  0
TEXT
  5
13410
330
78D
100
AcDbEntity
 67
     1
  8
図面枠
100
AcDbText
 10
352.9746
 20
32.33925000000002
 30
0.0
 40
2.5
  1
日付
 11
352.9746
 21
32.33925000000002
 31
0.0
100
AcDbText
 73
     1
  0
TEXT
  5
13411
330
78D
100
AcDbEntity
 67
     1
  8
図面枠
100
AcDbText
 10
383.9746
 20
32.33925000000002
 30
0.0
 40
2.5
  1
尺度
 11
383.9746
 21
32.33925000000002
 31
0.0
100
AcDbText
 73
     1
  0
TEXT
  5
13412
330
78D
100
AcDbEntity
 67
     1
  8
図面枠
100
AcDbText
 10
300.3079
 20
32.33925000000002
 30
0.0
 40
2.5
  1
238kg
 11
300.3079
 21
32.33925000000002
 31
0.0
100
AcDbText
 73
     1
  0
TEXT
  5
13413
330
78D
100
AcDbEntity
 67
     1
  8
図面枠
100
AcDbText
 10
328.3079
 20
32.33930000000001
 30
0.0
 40
2.5
  1
鉄筋防錆剤
 41
0.8
 11
328.3079
 21
32.33930000000001
 31
0.0
100
AcDbText
 73
     1
  0
TEXT
  5
13415
330
78D
100
AcDbEntity
 67
     1
  8
図面枠
100
AcDbText
 10
394.3079
 20
32.33925000000002
 30
0.0
 40
2.5
  1
1/10
 11
394.3079
 21
32.33925000000002
 31
0.0
100
AcDbText
 73
     1
  0
TEXT
  5
13416
330
78D
100
AcDbEntity
 67
     1
  8
図面枠
100
AcDbText
 10
364.7662666666667
 20
20.86240908820162
 30
0.0
 40
2.5
  1
Ｈ３０－Ｗシリーズ
 72
     1
 11
378.0996
 21
20.86240908820162
 31
0.0
100
AcDbText
 73
     1
  0
TEXT
  5
138BF
330
78D
100
AcDbEntity
 67
     1
  8
図面枠
100
AcDbText
 10
363.3079
 20
32.33924999999999
 30
0.0
 40
2.5
  1
2024.01.01
 11
363.3079
 21
32.33924999999999
 31
0.0
100
AcDbText
 73
     1
  0
TEXT
  5
19650
330
78D
100
AcDbEntity
 67
     1
  8
図面枠
100
AcDbText
 10
235.7315942762783
 20
8.887940134352902
 30
0.0
 40
4.0
  1
スクラップ重量　164kg
 72
     1
 11
261.5040816496935
 21
8.887940134352902
 31
0.0
100
AcDbText
  0
ENDSEC
  0
SECTION
  2
OBJECTS
  0
DICTIONARY
  5
C
330
0
100
AcDbDictionary
281
     1
  3
ACAD_CIP_PREVIOUS_PRODUCT_INFO
350
197DA
  3
ACAD_COLOR
350
6B
  3
ACAD_DETAILVIEWSTYLE
350
197D4
  3
ACAD_GROUP
350
D
  3
ACAD_LAYOUT
350
1A
  3
ACAD_MATERIAL
350
6A
  3
ACAD_MLEADERSTYLE
350
D7DF
  3
ACAD_MLINESTYLE
350
17
  3
ACAD_PLOTSETTINGS
350
19
  3
ACAD_PLOTSTYLENAME
350
E
  3
ACAD_SCALELIST
350
D7CD
  3
ACAD_SECTIONVIEWSTYLE
350
197D2
  3
ACAD_TABLESTYLE
350
7E
  3
ACAD_VISUALSTYLE
350
D7BC
  3
AcadDim
350
89BC
  3
ACDB_RECOMPOSE_DATA
350
1CB7B
  3
ACDBHEADERROUNDTRIPXREC
350
13830
  3
AcDbVariableDictionary
350
5E
  3
AcDsDecomposeData
350
1CB81
  3
AEC_PROPERTY_SET_DEFS
350
D95F
  0
DICTIONARY
  5
D80C
330
8
100
AcDbDictionary
280
     1
281
     1
  0
DICTIONARY
  5
11D
330
2
100
AcDbDictionary
280
     1
281
     1
  3
ACAD_LAYERFILTERS
360
98AE
  3
ACAD_LAYERSTATES
360
11E
  3
ACLYDICTIONARY
360
98AD
  0
DICTIONARY
  5
D7F2
330
10
100
AcDbDictionary
280
     1
281
     1
  3
ADSK_XREC_LAYER_RECONCILED
360
D7F3
  0
DICTIONARY
  5
D7F6
330
1BF
100
AcDbDictionary
280
     1
281
     1
  3
ADSK_XREC_LAYER_RECONCILED
360
D7F7
  0
DICTIONARY
  5
D7FA
330
1C1
100
AcDbDictionary
280
     1
281
     1
  3
ADSK_XREC_LAYER_RECONCILED
360
D7FB
  0
DICTIONARY
  5
D7FE
330
1C3
100
AcDbDictionary
280
     1
281
     1
  3
ADSK_XREC_LAYER_RECONCILED
360
D7FF
  0
DICTIONARY
  5
D800
330
1C4
100
AcDbDictionary
280
     1
281
     1
  3
ADSK_XREC_LAYER_RECONCILED
360
D801
  0
DICTIONARY
  5
D802
330
1C5
100
AcDbDictionary
280
     1
281
     1
  3
ADSK_XREC_LAYER_RECONCILED
360
D803
  0
DICTIONARY
  5
D804
330
82E
100
AcDbDictionary
280
     1
281
     1
  3
ADSK_XREC_LAYER_RECONCILED
360
D805
  0
DICTIONARY
  5
5C91
330
1F
100
AcDbDictionary
280
     1
281
     1
  3
ACAD_SORTENTS
360
5C92
  0
DICTIONARY
  5
10075
330
C08
100
AcDbDictionary
280
     1
281
     1
  3
ACAD_SORTENTS
360
137A4
  0
XRECORD
  5
197DA
102
{ACAD_REACTORS
330
C
102
}
330
C
100
AcDbXrecord
280
     1
300
ACD
300
2023
300

  0
DICTIONARY
  5
6B
102
{ACAD_REACTORS
330
C
102
}
330
C
100
AcDbDictionary
281
     1
  0
DICTIONARY
  5
197D4
102
{ACAD_REACTORS
330
C
102
}
330
C
100
AcDbDictionary
281
     1
  3
Metric50
350
197D5
  0
DICTIONARY
  5
D
102
{ACAD_REACTORS
330
C
102
}
330
C
100
AcDbDictionary
281
     1
  0
DICTIONARY
  5
1A
102
{ACAD_REACTORS
330
C
102
}
330
C
100
AcDbDictionary
281
     1
  3
Model
350
22
  3
レイアウト1
350
78E
  0
DICTIONARY
  5
6A
102
{ACAD_REACTORS
330
C
102
}
330
C
100
AcDbDictionary
281
     1
  3
ByBlock
350
D7AC
  3
ByLayer
350
D7A4
  3
Global
350
D7B4
  0
DICTIONARY
  5
D7DF
102
{ACAD_REACTORS
330
C
102
}
330
C
100
AcDbDictionary
281
     1
  3
Standard
350
D7E0
  0
DICTIONARY
  5
17
102
{ACAD_REACTORS
330
C
102
}
330
C
100
AcDbDictionary
281
     1
  3
Standard
350
18
  0
DICTIONARY
  5
19
102
{ACAD_REACTORS
330
C
102
}
330
C
100
AcDbDictionary
281
     1
  0
ACDBDICTIONARYWDFLT
  5
E
102
{ACAD_REACTORS
330
C
102
}
330
C
100
AcDbDictionary
281
     1
  3
Normal
350
F
100
AcDbDictionaryWithDefault
340
F
  0
DICTIONARY
  5
D7CD
102
{ACAD_REACTORS
330
C
102
}
330
C
100
AcDbDictionary
281
     1
  3
A0
350
D7CE
  3
A1
350
D7CF
  3
A2
350
D7D0
  3
A3
350
D7D1
  3
A4
350
D7D2
  3
A5
350
D7D3
  3
A6
350
D7D4
  3
A7
350
D7D5
  3
A8
350
D7D6
  3
A9
350
D7D7
  3
B0
350
D7D8
  3
B1
350
D7D9
  3
B2
350
D7DA
  3
B3
350
D7DB
  3
B4
350
D7DC
  3
B5
350
D7DD
  3
B6
350
D7DE
  0
DICTIONARY
  5
197D2
102
{ACAD_REACTORS
330
C
102
}
330
C
100
AcDbDictionary
281
     1
  3
Metric50
350
197D3
  0
DICTIONARY
  5
7E
102
{ACAD_REACTORS
330
C
102
}
330
C
100
AcDbDictionary
281
     1
  3
Standard
350
7F
  0
DICTIONARY
  5
D7BC
102
{ACAD_REACTORS
330
C
102
}
330
C
100
AcDbDictionary
281
     1
  3
2dWireframe
350
D7C2
  3
3D Hidden
350
D7C4
  3
3dWireframe
350
D7C3
  3
Basic
350
D7C1
  3
Brighten
350
D7C8
  3
ColorChange
350
D7CC
  3
Conceptual
350
D7C5
  3
Dim
350
D7C7
  3
EdgeColorOff
350
197D1
  3
Facepattern
350
D7CB
  3
Flat
350
D7BD
  3
FlatWithEdges
350
D7BE
  3
Gouraud
350
D7BF
  3
GouraudWithEdges
350
D7C0
  3
Hidden
350
197C9
  3
JitterOff
350
197CF
  3
Linepattern
350
D7CA
  3
OverhangOff
350
197D0
  3
Realistic
350
D7C6
  3
Shaded
350
197CE
  3
Shaded with edges
350
197CD
  3
Shades of Gray
350
197CA
  3
Sketchy
350
197CB
  3
Thicken
350
D7C9
  3
Wireframe
350
197C8
  3
X-Ray
350
197CC
  0
XRECORD
  5
89BC
102
{ACAD_REACTORS
330
C
102
}
330
C
100
AcDbXrecord
280
     1
 90
   990106
  3

 60
     0
 61
     0
 62
     1
 63
     3
 64
     0
 65
     0
 66
     0
 67
     3
 68
     1
 69
     0
 70
     0
 71
     0
 72
     0
 40
0.0
170
     0
  0
XRECORD
  5
1CB7B
102
{ACAD_REACTORS
330
C
102
}
330
C
100
AcDbXrecord
280
     1
 90
        1
330
7F
  0
DICTIONARY
  5
13830
102
{ACAD_REACTORS
330
C
102
}
330
C
100
AcDbDictionary
281
     1
  0
DICTIONARY
  5
5E
102
{ACAD_REACTORS
330
C
102
}
330
C
100
AcDbDictionary
281
     1
  3
CANNOSCALE
350
D81A
  3
CMLEADERSTYLE
350
D819
  3
CTABLESTYLE
350
84
  3
CVIEWDETAILSTYLE
350
1B8D9
  3
CVIEWSECTIONSTYLE
350
1B8DA
  3
DIMASSOC
350
5F
  3
HIDETEXT
350
63
  3
INDEXCTL
350
D81C
  3
LAYEREVAL
350
1B8DD
  3
LAYERNOTIFY
350
1B8DE
  3
LIGHTINGUNITS
350
1B8DC
  3
MSLTSCALE
350
1B8DB
  3
PROJECTNAME
350
D798
  3
SORTENTS
350
D81B
  0
DICTIONARY
  5
1CB81
102
{ACAD_REACTORS
330
C
102
}
330
C
100
AcDbDictionary
281
     1
  3
AcDsRecords
350
1CB83
  3
AcDsSchemas
350
1CB82
1001
ACAD
1070
     2
  0
DICTIONARY
  5
D95F
102
{ACAD_REACTORS
330
C
102
}
330
C
100
AcDbDictionary
281
     1
  0
DICTIONARY
  5
98AE
102
{ACAD_REACTORS
330
11D
102
}
330
11D
100
AcDbDictionary
281
     1
  0
DICTIONARY
  5
11E
102
{ACAD_REACTORS
330
11D
102
}
330
11D
100
AcDbDictionary
281
     1
  0
DICTIONARY
  5
98AD
102
{ACAD_REACTORS
330
11D
102
}
330
11D
100
AcDbDictionary
281
     1
1001
ACAD
1000
<All
  0
XRECORD
  5
D7F3
102
{ACAD_REACTORS
330
D7F2
102
}
330
D7F2
100
AcDbXrecord
280
     1
290
     1
  0
XRECORD
  5
D7F7
102
{ACAD_REACTORS
330
D7F6
102
}
330
D7F6
100
AcDbXrecord
280
     1
290
     1
  0
XRECORD
  5
D7FB
102
{ACAD_REACTORS
330
D7FA
102
}
330
D7FA
100
AcDbXrecord
280
     1
290
     1
  0
XRECORD
  5
D7FF
102
{ACAD_REACTORS
330
D7FE
102
}
330
D7FE
100
AcDbXrecord
280
     1
290
     1
  0
XRECORD
  5
D801
102
{ACAD_REACTORS
330
D800
102
}
330
D800
100
AcDbXrecord
280
     1
290
     1
  0
XRECORD
  5
D803
102
{ACAD_REACTORS
330
D802
102
}
330
D802
100
AcDbXrecord
280
     1
290
     1
  0
XRECORD
  5
D805
102
{ACAD_REACTORS
330
D804
102
}
330
D804
100
AcDbXrecord
280
     1
290
     1
  0
SORTENTSTABLE
  5
5C92
102
{ACAD_REACTORS
330
5C91
102
}
330
5C91
100
AcDbSortentsTable
330
1F
331
6107
  5
7B29
331
610F
  5
7B2A
  0
SORTENTSTABLE
  5
137A4
102
{ACAD_REACTORS
330
10075
102
}
330
10075
100
AcDbSortentsTable
330
C08
  0
ACDBDETAILVIEWSTYLE
  5
197D5
102
{ACAD_XDICTIONARY
360
1CB86
102
}
102
{ACAD_REACTORS
330
197D4
102
}
330
197D4
100
AcDbModelDocViewStyle
 70
     0
  3
Metric50
290
     0
100
AcDbDetailViewStyle
 70
     0
 71
     0
 90
        3
 71
     1
340
11
 62
   256
 40
5.0
340
0
 62
   256
 40
5.0
300

 40
0.0
280
     1
 71
     2
340
16
 90
       25
 62
   256
 71
     3
340
11
 62
   256
 40
5.0
 90
        0
 40
15.0
 90
        1
300
%<\AcVar ViewDetailId>% (%<\AcVar ViewScale \f "%sn">%)
 71
     4
340
16
 90
       25
 62
   256
340
16
 90
       25
 62
   256
280
     0
  0
LAYOUT
  5
22
102
{ACAD_REACTORS
330
1A
102
}
330
1A
100
AcDbPlotSettings
  1

  2
none_device
  4
ISO_A4_(210.00_x_297.00_MM)
  6

 40
7.5
 41
20.0
 42
7.5
 43
20.0
 44
210.0
 45
297.0
 46
11.54999923706054
 47
-13.65000009536743
 48
0.0
 49
0.0
140
0.0
141
0.0
142
1.0
143
8.704084754739808
 70
 11952
 72
     1
 73
     0
 74
     0
  7

 75
     0
147
0.1148885871608098
 76
     0
 77
     2
 78
   300
148
0.0
149
0.0
100
AcDbLayout
  1
Model
 70
     1
 71
     0
 10
0.0
 20
0.0
 11
12.0
 21
9.0
 12
0.0
 22
0.0
 32
0.0
 14
0.0
 24
0.0
 34
0.0
 15
0.0
 25
0.0
 35
0.0
146
0.0
 13
0.0
 23
0.0
 33
0.0
 16
1.0
 26
0.0
 36
0.0
 17
0.0
 27
1.0
 37
0.0
 76
     0
330
1F
331
1382E
1001
ACAD_PSEXT
1000
None
1000
None
1000
Not applicable
1000
The layout will not be plotted unless a new plotter configuration name is selected.
1070
     0
  0
LAYOUT
  5
78E
102
{ACAD_XDICTIONARY
360
79B
102
}
102
{ACAD_REACTORS
330
1A
102
}
330
1A
100
AcDbPlotSettings
  1

  2
RICOH MP C2503 JPN RPCS V2
  4
A3
  6

 40
5.873749732971191
 41
5.873748779296875
 42
5.873748779296875
 43
5.873748779296875
 44
296.9259948730469
 45
419.9466552734374
 46
0.0
 47
0.0
 48
0.0
 49
0.0
140
0.0
141
0.0
142
1.0
143
1.0
 70
   688
 72
     1
 73
     1
 74
     5
  7
monochrome.ctb
 75
    16
147
1.0
 76
     0
 77
     2
 78
   300
148
0.0
149
0.0
100
AcDbLayout
  1
レイアウト1
 70
     1
 71
     1
 10
-5.873748779296875
 20
-5.873749732971191
 11
414.0729064941406
 21
291.0522451400757
 12
0.0
 22
0.0
 32
0.0
 14
0.0000000000000853
 24
0.0
 34
0.0
 15
408.1991586685179
 25
285.1784963607788
 35
0.0
146
0.0
 13
0.0
 23
0.0
 33
0.0
 16
1.0
 26
0.0
 36
0.0
 17
0.0
 27
1.0
 37
0.0
 76
     0
330
78D
331
794
1001
ACAD_PSEXT
1000
RICOH MP C2503 JPN RPCS V2
1000
RICOH MP C2503 JPN RPCS V2
1000
IP_192.168.24.100
1000
RPCS Driver (For Windows)
1070
     0
  0
MATERIAL
  5
D7AC
102
{ACAD_XDICTIONARY
360
D7AD
102
}
102
{ACAD_REACTORS
330
6A
102
}
330
6A
100
AcDbMaterial
  1
ByBlock
 72
     0
 43
0.0008202099737533
 43
0.0
 43
0.0
 43
0.0
 43
0.0
 43
0.0008202099737533
 43
0.0
 43
0.0
 43
0.0
 43
0.0
 43
1.0
 43
0.0
 43
0.0
 43
0.0
 43
0.0
 43
1.0
 77
     0
 47
0.0008202099737533
 47
0.0
 47
0.0
 47
0.0
 47
0.0
 47
0.0008202099737533
 47
0.0
 47
0.0
 47
0.0
 47
0.0
 47
1.0
 47
0.0
 47
0.0
 47
0.0
 47
0.0
 47
1.0
171
     0
 49
0.0008202099737533
 49
0.0
 49
0.0
 49
0.0
 49
0.0
 49
0.0008202099737533
 49
0.0
 49
0.0
 49
0.0
 49
0.0
 49
1.0
 49
0.0
 49
0.0
 49
0.0
 49
0.0
 49
1.0
175
     0
142
0.0008202099737533
142
0.0
142
0.0
142
0.0
142
0.0
142
0.0008202099737533
142
0.0
142
0.0
142
0.0
142
0.0
142
1.0
142
0.0
142
0.0
142
0.0
142
0.0
142
1.0
179
     0
144
0.0008202099737533
144
0.0
144
0.0
144
0.0
144
0.0
144
0.0008202099737533
144
0.0
144
0.0
144
0.0
144
0.0
144
1.0
144
0.0
144
0.0
144
0.0
144
0.0
144
1.0
147
0.0008202099737533
147
0.0
147
0.0
147
0.0
147
0.0
147
0.0008202099737533
147
0.0
147
0.0
147
0.0
147
0.0
147
1.0
147
0.0
147
0.0
147
0.0
147
0.0
147
1.0
  0
MATERIAL
  5
D7A4
102
{ACAD_XDICTIONARY
360
D7A5
102
}
102
{ACAD_REACTORS
330
6A
102
}
330
6A
100
AcDbMaterial
  1
ByLayer
 72
     0
 43
0.0008202099737533
 43
0.0
 43
0.0
 43
0.0
 43
0.0
 43
0.0008202099737533
 43
0.0
 43
0.0
 43
0.0
 43
0.0
 43
1.0
 43
0.0
 43
0.0
 43
0.0
 43
0.0
 43
1.0
 77
     0
 47
0.0008202099737533
 47
0.0
 47
0.0
 47
0.0
 47
0.0
 47
0.0008202099737533
 47
0.0
 47
0.0
 47
0.0
 47
0.0
 47
1.0
 47
0.0
 47
0.0
 47
0.0
 47
0.0
 47
1.0
171
     0
 49
0.0008202099737533
 49
0.0
 49
0.0
 49
0.0
 49
0.0
 49
0.0008202099737533
 49
0.0
 49
0.0
 49
0.0
 49
0.0
 49
1.0
 49
0.0
 49
0.0
 49
0.0
 49
0.0
 49
1.0
175
     0
142
0.0008202099737533
142
0.0
142
0.0
142
0.0
142
0.0
142
0.0008202099737533
142
0.0
142
0.0
142
0.0
142
0.0
142
1.0
142
0.0
142
0.0
142
0.0
142
0.0
142
1.0
179
     0
144
0.0008202099737533
144
0.0
144
0.0
144
0.0
144
0.0
144
0.0008202099737533
144
0.0
144
0.0
144
0.0
144
0.0
144
1.0
144
0.0
144
0.0
144
0.0
144
0.0
144
1.0
147
0.0008202099737533
147
0.0
147
0.0
147
0.0
147
0.0
147
0.0008202099737533
147
0.0
147
0.0
147
0.0
147
0.0
147
1.0
147
0.0
147
0.0
147
0.0
147
0.0
147
1.0
  0
MATERIAL
  5
D7B4
102
{ACAD_XDICTIONARY
360
D7B5
102
}
102
{ACAD_REACTORS
330
6A
102
}
330
6A
100
AcDbMaterial
  1
Global
 72
     0
 43
0.0008202099737533
 43
0.0
 43
0.0
 43
0.0
 43
0.0
 43
0.0008202099737533
 43
0.0
 43
0.0
 43
0.0
 43
0.0
 43
1.0
 43
0.0
 43
0.0
 43
0.0
 43
0.0
 43
1.0
 77
     0
 47
0.0008202099737533
 47
0.0
 47
0.0
 47
0.0
 47
0.0
 47
0.0008202099737533
 47
0.0
 47
0.0
 47
0.0
 47
0.0
 47
1.0
 47
0.0
 47
0.0
 47
0.0
 47
0.0
 47
1.0
171
     0
 49
0.0008202099737533
 49
0.0
 49
0.0
 49
0.0
 49
0.0
 49
0.0008202099737533
 49
0.0
 49
0.0
 49
0.0
 49
0.0
 49
1.0
 49
0.0
 49
0.0
 49
0.0
 49
0.0
 49
1.0
175
     0
142
0.0008202099737533
142
0.0
142
0.0
142
0.0
142
0.0
142
0.0008202099737533
142
0.0
142
0.0
142
0.0
142
0.0
142
1.0
142
0.0
142
0.0
142
0.0
142
0.0
142
1.0
179
     0
144
0.0008202099737533
144
0.0
144
0.0
144
0.0
144
0.0
144
0.0008202099737533
144
0.0
144
0.0
144
0.0
144
0.0
144
1.0
144
0.0
144
0.0
144
0.0
144
0.0
144
1.0
147
0.0008202099737533
147
0.0
147
0.0
147
0.0
147
0.0
147
0.0008202099737533
147
0.0
147
0.0
147
0.0
147
0.0
147
1.0
147
0.0
147
0.0
147
0.0
147
0.0
147
1.0
  0
MLEADERSTYLE
  5
D7E0
102
{ACAD_REACTORS
330
D7DF
102
}
330
D7DF
100
AcDbMLeaderStyle
179
     2
170
     2
171
     1
172
     0
 90
        2
 40
0.0
 41
0.0
173
     1
 91
-1056964608
340
14
 92
       -2
290
     1
 42
2.0
291
     1
 43
0.36
  3
Standard
 44
4.0
300

342
11
174
     1
178
     6
175
     1
176
     0
 93
-1056964608
 45
4.0
292
     0
297
     0
 46
4.0
 94
-1056964608
 47
1.0
 49
1.0
140
1.0
293
     1
141
0.0
294
     1
177
     0
142
1.0
295
     0
296
     0
143
0.125
271
     0
272
     9
273
     9
298
     0
1001
ACAD
1000
AcRTDxfName
1000
MLEADERSTYLE
1000
AcRTDxfName
1000
MLEADERSTYLE
1000
AcRTDxfName
1000
MLEADERSTYLE
1000
AcRTDxfName
1000
MLEADERSTYLE
1000
AcRTDxfName
1000
MLEADERSTYLE
1000
AcRTDxfName
1000
MLEADERSTYLE
1000
AcRTDxfName
1000
MLEADERSTYLE
1000
AcRTDxfName
1000
MLEADERSTYLE
  0
MLINESTYLE
  5
18
102
{ACAD_REACTORS
330
17
102
}
330
17
100
AcDbMlineStyle
  2
STANDARD
 70
     0
  3

 62
   256
 51
90.0
 52
90.0
 71
     2
 49
0.5
 62
   256
  6
BYLAYER
 49
-0.5
 62
   256
  6
BYLAYER
  0
ACDBPLACEHOLDER
  5
F
102
{ACAD_REACTORS
330
E
102
}
330
E
  0
SCALE
  5
D7CE
102
{ACAD_REACTORS
330
D7CD
102
}
330
D7CD
100
AcDbScale
 70
     0
300
1:1
140
1.0
141
1.0
290
     1
1001
ACAD
1000
AcRTDxfName
1000
SCALE
1000
AcRTDxfName
1000
SCALE
1000
AcRTDxfName
1000
SCALE
1000
AcRTDxfName
1000
SCALE
1000
AcRTDxfName
1000
SCALE
1000
AcRTDxfName
1000
SCALE
1000
AcRTDxfName
1000
SCALE
1000
AcRTDxfName
1000
SCALE
  0
SCALE
  5
D7CF
102
{ACAD_REACTORS
330
D7CD
102
}
330
D7CD
100
AcDbScale
 70
     0
300
1:2
140
1.0
141
2.0
290
     0
1001
ACAD
1000
AcRTDxfName
1000
SCALE
1000
AcRTDxfName
1000
SCALE
1000
AcRTDxfName
1000
SCALE
1000
AcRTDxfName
1000
SCALE
1000
AcRTDxfName
1000
SCALE
1000
AcRTDxfName
1000
SCALE
1000
AcRTDxfName
1000
SCALE
1000
AcRTDxfName
1000
SCALE
  0
SCALE
  5
D7D0
102
{ACAD_REACTORS
330
D7CD
102
}
330
D7CD
100
AcDbScale
 70
     0
300
1:4
140
1.0
141
4.0
290
     0
1001
ACAD
1000
AcRTDxfName
1000
SCALE
1000
AcRTDxfName
1000
SCALE
1000
AcRTDxfName
1000
SCALE
1000
AcRTDxfName
1000
SCALE
1000
AcRTDxfName
1000
SCALE
1000
AcRTDxfName
1000
SCALE
1000
AcRTDxfName
1000
SCALE
1000
AcRTDxfName
1000
SCALE
  0
SCALE
  5
D7D1
102
{ACAD_REACTORS
330
D7CD
102
}
330
D7CD
100
AcDbScale
 70
     0
300
1:5
140
1.0
141
5.0
290
     0
1001
ACAD
1000
AcRTDxfName
1000
SCALE
1000
AcRTDxfName
1000
SCALE
1000
AcRTDxfName
1000
SCALE
1000
AcRTDxfName
1000
SCALE
1000
AcRTDxfName
1000
SCALE
1000
AcRTDxfName
1000
SCALE
1000
AcRTDxfName
1000
SCALE
1000
AcRTDxfName
1000
SCALE
  0
SCALE
  5
D7D2
102
{ACAD_REACTORS
330
D7CD
102
}
330
D7CD
100
AcDbScale
 70
     0
300
1:8
140
1.0
141
8.0
290
     0
1001
ACAD
1000
AcRTDxfName
1000
SCALE
1000
AcRTDxfName
1000
SCALE
1000
AcRTDxfName
1000
SCALE
1000
AcRTDxfName
1000
SCALE
1000
AcRTDxfName
1000
SCALE
1000
AcRTDxfName
1000
SCALE
1000
AcRTDxfName
1000
SCALE
1000
AcRTDxfName
1000
SCALE
  0
SCALE
  5
D7D3
102
{ACAD_REACTORS
330
D7CD
102
}
330
D7CD
100
AcDbScale
 70
     0
300
1:10
140
1.0
141
10.0
290
     0
1001
ACAD
1000
AcRTDxfName
1000
SCALE
1000
AcRTDxfName
1000
SCALE
1000
AcRTDxfName
1000
SCALE
1000
AcRTDxfName
1000
SCALE
1000
AcRTDxfName
1000
SCALE
1000
AcRTDxfName
1000
SCALE
1000
AcRTDxfName
1000
SCALE
1000
AcRTDxfName
1000
SCALE
  0
SCALE
  5
D7D4
102
{ACAD_REACTORS
330
D7CD
102
}
330
D7CD
100
AcDbScale
 70
     0
300
1:16
140
1.0
141
16.0
290
     0
1001
ACAD
1000
AcRTDxfName
1000
SCALE
1000
AcRTDxfName
1000
SCALE
1000
AcRTDxfName
1000
SCALE
1000
AcRTDxfName
1000
SCALE
1000
AcRTDxfName
1000
SCALE
1000
AcRTDxfName
1000
SCALE
1000
AcRTDxfName
1000
SCALE
1000
AcRTDxfName
1000
SCALE
  0
SCALE
  5
D7D5
102
{ACAD_REACTORS
330
D7CD
102
}
330
D7CD
100
AcDbScale
 70
     0
300
1:20
140
1.0
141
20.0
290
     0
1001
ACAD
1000
AcRTDxfName
1000
SCALE
1000
AcRTDxfName
1000
SCALE
1000
AcRTDxfName
1000
SCALE
1000
AcRTDxfName
1000
SCALE
1000
AcRTDxfName
1000
SCALE
1000
AcRTDxfName
1000
SCALE
1000
AcRTDxfName
1000
SCALE
1000
AcRTDxfName
1000
SCALE
  0
SCALE
  5
D7D6
102
{ACAD_REACTORS
330
D7CD
102
}
330
D7CD
100
AcDbScale
 70
     0
300
1:30
140
1.0
141
30.0
290
     0
1001
ACAD
1000
AcRTDxfName
1000
SCALE
1000
AcRTDxfName
1000
SCALE
1000
AcRTDxfName
1000
SCALE
1000
AcRTDxfName
1000
SCALE
1000
AcRTDxfName
1000
SCALE
1000
AcRTDxfName
1000
SCALE
1000
AcRTDxfName
1000
SCALE
1000
AcRTDxfName
1000
SCALE
  0
SCALE
  5
D7D7
102
{ACAD_REACTORS
330
D7CD
102
}
330
D7CD
100
AcDbScale
 70
     0
300
1:40
140
1.0
141
40.0
290
     0
1001
ACAD
1000
AcRTDxfName
1000
SCALE
1000
AcRTDxfName
1000
SCALE
1000
AcRTDxfName
1000
SCALE
1000
AcRTDxfName
1000
SCALE
1000
AcRTDxfName
1000
SCALE
1000
AcRTDxfName
1000
SCALE
1000
AcRTDxfName
1000
SCALE
1000
AcRTDxfName
1000
SCALE
  0
SCALE
  5
D7D8
102
{ACAD_REACTORS
330
D7CD
102
}
330
D7CD
100
AcDbScale
 70
     0
300
1:50
140
1.0
141
50.0
290
     0
1001
ACAD
1000
AcRTDxfName
1000
SCALE
1000
AcRTDxfName
1000
SCALE
1000
AcRTDxfName
1000
SCALE
1000
AcRTDxfName
1000
SCALE
1000
AcRTDxfName
1000
SCALE
1000
AcRTDxfName
1000
SCALE
1000
AcRTDxfName
1000
SCALE
1000
AcRTDxfName
1000
SCALE
  0
SCALE
  5
D7D9
102
{ACAD_REACTORS
330
D7CD
102
}
330
D7CD
100
AcDbScale
 70
     0
300
1:100
140
1.0
141
100.0
290
     0
1001
ACAD
1000
AcRTDxfName
1000
SCALE
1000
AcRTDxfName
1000
SCALE
1000
AcRTDxfName
1000
SCALE
1000
AcRTDxfName
1000
SCALE
1000
AcRTDxfName
1000
SCALE
1000
AcRTDxfName
1000
SCALE
1000
AcRTDxfName
1000
SCALE
1000
AcRTDxfName
1000
SCALE
  0
SCALE
  5
D7DA
102
{ACAD_REACTORS
330
D7CD
102
}
330
D7CD
100
AcDbScale
 70
     0
300
2:1
140
2.0
141
1.0
290
     0
1001
ACAD
1000
AcRTDxfName
1000
SCALE
1000
AcRTDxfName
1000
SCALE
1000
AcRTDxfName
1000
SCALE
1000
AcRTDxfName
1000
SCALE
1000
AcRTDxfName
1000
SCALE
1000
AcRTDxfName
1000
SCALE
1000
AcRTDxfName
1000
SCALE
1000
AcRTDxfName
1000
SCALE
  0
SCALE
  5
D7DB
102
{ACAD_REACTORS
330
D7CD
102
}
330
D7CD
100
AcDbScale
 70
     0
300
4:1
140
4.0
141
1.0
290
     0
1001
ACAD
1000
AcRTDxfName
1000
SCALE
1000
AcRTDxfName
1000
SCALE
1000
AcRTDxfName
1000
SCALE
1000
AcRTDxfName
1000
SCALE
1000
AcRTDxfName
1000
SCALE
1000
AcRTDxfName
1000
SCALE
1000
AcRTDxfName
1000
SCALE
1000
AcRTDxfName
1000
SCALE
  0
SCALE
  5
D7DC
102
{ACAD_REACTORS
330
D7CD
102
}
330
D7CD
100
AcDbScale
 70
     0
300
8:1
140
8.0
141
1.0
290
     0
1001
ACAD
1000
AcRTDxfName
1000
SCALE
1000
AcRTDxfName
1000
SCALE
1000
AcRTDxfName
1000
SCALE
1000
AcRTDxfName
1000
SCALE
1000
AcRTDxfName
1000
SCALE
1000
AcRTDxfName
1000
SCALE
1000
AcRTDxfName
1000
SCALE
1000
AcRTDxfName
1000
SCALE
  0
SCALE
  5
D7DD
102
{ACAD_REACTORS
330
D7CD
102
}
330
D7CD
100
AcDbScale
 70
     0
300
10:1
140
10.0
141
1.0
290
     0
1001
ACAD
1000
AcRTDxfName
1000
SCALE
1000
AcRTDxfName
1000
SCALE
1000
AcRTDxfName
1000
SCALE
1000
AcRTDxfName
1000
SCALE
1000
AcRTDxfName
1000
SCALE
1000
AcRTDxfName
1000
SCALE
1000
AcRTDxfName
1000
SCALE
1000
AcRTDxfName
1000
SCALE
  0
SCALE
  5
D7DE
102
{ACAD_REACTORS
330
D7CD
102
}
330
D7CD
100
AcDbScale
 70
     0
300
100:1
140
100.0
141
1.0
290
     0
1001
ACAD
1000
AcRTDxfName
1000
SCALE
1000
AcRTDxfName
1000
SCALE
1000
AcRTDxfName
1000
SCALE
1000
AcRTDxfName
1000
SCALE
1000
AcRTDxfName
1000
SCALE
1000
AcRTDxfName
1000
SCALE
1000
AcRTDxfName
1000
SCALE
1000
AcRTDxfName
1000
SCALE
  0
ACDBSECTIONVIEWSTYLE
  5
197D3
102
{ACAD_XDICTIONARY
360
1CB84
102
}
102
{ACAD_REACTORS
330
197D2
102
}
330
197D2
100
AcDbModelDocViewStyle
 70
     0
  3
Metric50
290
     0
100
AcDbSectionViewStyle
 70
     0
 71
     0
 90
      102
 71
     1
340
11
 62
   256
 40
5.0
340
0
340
0
 62
   256
 40
5.0
300
I, O, Q, S, X, Z
 40
10.0
 90
        0
 40
2.5
 90
        0
 71
     2
340
16
 90
       25
 62
   256
340
16
 90
       50
 62
   256
 40
5.0
 40
2.5
 40
5.0
 71
     3
340
11
 62
   256
 40
5.0
 90
        0
 40
15.0
 90
        1
300
%<\AcVar ViewSectionStartId>%-%<\AcVar ViewSectionEndId>% (%<\AcVar ViewScale \f "%sn">%)
 71
     4
 62
   256
 62
   257
300
ANSI31
 40
1.0
 90
        0
290
     0
290
     0
 90
        6
 40
0.0
 40
1.570796326794896
 40
0.2617993877991494
 40
1.308996938995747
 40
-0.2617993877991494
 40
1.832595714594046
  0
TABLESTYLE
  5
7F
102
{ACAD_XDICTIONARY
360
D806
102
}
102
{ACAD_REACTORS
330
7E
102
}
330
7E
100
AcDbTableStyle
280
     0
  3
Standard
 70
     0
 71
     0
 40
1.5
 41
1.5
280
     0
281
     0
  7
Standard
140
4.5
170
     2
 62
     0
 63
     7
283
     0
 90
        4
 91
        0
  1

274
    -2
284
     1
 64
     0
275
    -2
285
     1
 65
     0
276
    -2
286
     1
 66
     0
277
    -2
287
     1
 67
     0
278
    -2
288
     1
 68
     0
279
    -2
289
     1
 69
     0
  7
Standard
140
6.0
170
     5
 62
     0
 63
     7
283
     0
 90
        4
 91
        0
  1

274
    -2
284
     1
 64
     0
275
    -2
285
     1
 65
     0
276
    -2
286
     1
 66
     0
277
    -2
287
     1
 67
     0
278
    -2
288
     1
 68
     0
279
    -2
289
     1
 69
     0
  7
Standard
140
4.5
170
     5
 62
     0
 63
     7
283
     0
 90
        4
 91
        0
  1

274
    -2
284
     1
 64
     0
275
    -2
285
     1
 65
     0
276
    -2
286
     1
 66
     0
277
    -2
287
     1
 67
     0
278
    -2
288
     1
 68
     0
279
    -2
289
     1
 69
     0
  0
VISUALSTYLE
  5
D7C2
102
{ACAD_REACTORS
330
D7BC
102
}
330
D7BC
100
AcDbVisualStyle
  2
2dWireframe
 70
     4
177
     3
291
     0
 70
    58
 90
        0
176
     1
 90
        2
176
     1
 90
        0
176
     1
 90
        0
176
     1
 40
0.6
176
     1
 40
30.0
176
     1
 62
     7
176
     1
 90
        1
176
     1
 90
        4
176
     1
 62
     7
176
     1
 62
   257
176
     1
 90
        1
176
     1
 90
        1
176
     1
 40
1.0
176
     1
 90
        0
176
     1
 62
   257
176
     1
 40
1.0
176
     1
 90
        1
176
     1
 90
        6
176
     1
 90
        2
176
     1
 62
     7
176
     1
 90
        5
176
     1
 90
        0
176
     1
 90
        0
176
     1
290
     0
176
     1
 90
        1
176
     1
 40
0.0
176
     1
 90
        0
176
     1
290
     1
176
     1
290
     1
176
     1
290
     0
176
     1
290
     0
176
     1
290
     0
176
     1
290
     0
176
     1
290
     0
176
     1
290
     0
176
     1
290
     0
176
     1
 90
       50
176
     1
 40
0.0
176
     1
 40
1.0
176
     1
 90
        0
176
     1
 62
    18
420
        0
176
     1
 90
       50
176
     1
 90
        3
176
     1
 62
     5
420
      255
176
     1
290
     0
176
     1
 90
       50
176
     1
 90
       50
176
     1
 90
       50
176
     1
290
     0
176
     1
 90
       50
176
     1
 62
   256
176
     0
 40
1.0
176
     0
 90
        2
176
     1
  1
strokes_ogs.tif
176
     1
290
     0
176
     1
 40
1.0
176
     1
 40
1.0
176
     1
1001
ACAD
1000
AcRTDxfName
1000
VISUALSTYLE
1000
AcRTDxfName
1000
VISUALSTYLE
1000
AcRTDxfName
1000
VISUALSTYLE
1000
AcRTDxfName
1000
VISUALSTYLE
1000
AcRTDxfName
1000
VISUALSTYLE
1000
AcRTDxfName
1000
VISUALSTYLE
1000
AcRTDxfName
1000
VISUALSTYLE
1000
AcRTDxfName
1000
VISUALSTYLE
1000
AcDbSavedByObjectVersion
1070
     0
  0
VISUALSTYLE
  5
D7C4
102
{ACAD_REACTORS
330
D7BC
102
}
330
D7BC
100
AcDbVisualStyle
  2
3D Hidden
 70
     6
177
     3
291
     0
 70
    58
 90
        1
176
     1
 90
        2
176
     1
 90
        2
176
     1
 90
        0
176
     1
 40
0.6
176
     1
 40
30.0
176
     1
 62
     7
176
     1
 90
        2
176
     1
 90
        2
176
     1
 62
     7
176
     1
 62
   257
176
     1
 90
        2
176
     1
 90
        1
176
     1
 40
40.0
176
     1
 90
        0
176
     1
 62
   257
176
     1
 40
1.0
176
     1
 90
        1
176
     1
 90
        6
176
     1
 90
        2
176
     1
 62
     7
176
     1
 90
        3
176
     1
 90
        0
176
     1
 90
        0
176
     1
290
     0
176
     1
 90
        1
176
     1
 40
0.0
176
     1
 90
        0
176
     1
290
     0
176
     1
290
     1
176
     1
290
     1
176
     1
290
     0
176
     1
290
     0
176
     1
290
     0
176
     1
290
     0
176
     1
290
     0
176
     1
290
     0
176
     1
 90
       50
176
     1
 40
0.0
176
     1
 40
1.0
176
     1
 90
        0
176
     1
 62
    18
420
        0
176
     1
 90
       50
176
     1
 90
        3
176
     1
 62
     5
420
      255
176
     1
290
     0
176
     1
 90
       50
176
     1
 90
       50
176
     1
 90
       50
176
     1
290
     0
176
     1
 90
       50
176
     1
 62
   256
176
     0
 40
1.0
176
     0
 90
        2
176
     1
  1
strokes_ogs.tif
176
     1
290
     0
176
     1
 40
1.0
176
     1
 40
1.0
176
     1
1001
ACAD
1000
AcRTDxfName
1000
VISUALSTYLE
1000
AcRTDxfName
1000
VISUALSTYLE
1000
AcRTDxfName
1000
VISUALSTYLE
1000
AcRTDxfName
1000
VISUALSTYLE
1000
AcRTDxfName
1000
VISUALSTYLE
1000
AcRTDxfName
1000
VISUALSTYLE
1000
AcRTDxfName
1000
VISUALSTYLE
1000
AcRTDxfName
1000
VISUALSTYLE
1000
AcDbSavedByObjectVersion
1070
     0
  0
VISUALSTYLE
  5
D7C3
102
{ACAD_REACTORS
330
D7BC
102
}
330
D7BC
100
AcDbVisualStyle
  2
3dWireframe
 70
     5
177
     3
291
     0
 70
    58
 90
        0
176
     1
 90
        2
176
     1
 90
        0
176
     1
 90
        0
176
     1
 40
0.6
176
     1
 40
30.0
176
     1
 62
     7
176
     1
 90
        1
176
     1
 90
        4
176
     1
 62
     7
176
     1
 62
   257
176
     1
 90
        1
176
     1
 90
        1
176
     1
 40
1.0
176
     1
 90
        0
176
     1
 62
   257
176
     1
 40
1.0
176
     1
 90
        1
176
     1
 90
        6
176
     1
 90
        2
176
     1
 62
     7
176
     1
 90
        5
176
     1
 90
        0
176
     1
 90
        0
176
     1
290
     0
176
     1
 90
        1
176
     1
 40
0.0
176
     1
 90
        0
176
     1
290
     0
176
     1
290
     1
176
     1
290
     1
176
     1
290
     0
176
     1
290
     0
176
     1
290
     0
176
     1
290
     0
176
     1
290
     0
176
     1
290
     0
176
     1
 90
       50
176
     1
 40
0.0
176
     1
 40
1.0
176
     1
 90
        0
176
     1
 62
    18
420
        0
176
     1
 90
       50
176
     1
 90
        3
176
     1
 62
     5
420
      255
176
     1
290
     0
176
     1
 90
       50
176
     1
 90
       50
176
     1
 90
       50
176
     1
290
     0
176
     1
 90
       50
176
     1
 62
   256
176
     0
 40
1.0
176
     0
 90
        2
176
     1
  1
strokes_ogs.tif
176
     1
290
     0
176
     1
 40
1.0
176
     1
 40
1.0
176
     1
1001
ACAD
1000
AcRTDxfName
1000
VISUALSTYLE
1000
AcRTDxfName
1000
VISUALSTYLE
1000
AcRTDxfName
1000
VISUALSTYLE
1000
AcRTDxfName
1000
VISUALSTYLE
1000
AcRTDxfName
1000
VISUALSTYLE
1000
AcRTDxfName
1000
VISUALSTYLE
1000
AcRTDxfName
1000
VISUALSTYLE
1000
AcRTDxfName
1000
VISUALSTYLE
1000
AcDbSavedByObjectVersion
1070
     0
  0
VISUALSTYLE
  5
D7C1
102
{ACAD_REACTORS
330
D7BC
102
}
330
D7BC
100
AcDbVisualStyle
  2
Basic
 70
     7
177
     3
291
     1
 70
    58
 90
        1
176
     1
 90
        0
176
     1
 90
        1
176
     1
 90
        0
176
     1
 40
0.6
176
     1
 40
30.0
176
     1
 62
     7
176
     1
 90
        0
176
     1
 90
        4
176
     1
 62
     7
176
     1
 62
   257
176
     1
 90
        1
176
     1
 90
        1
176
     1
 40
1.0
176
     1
 90
        8
176
     1
 62
     7
176
     1
 40
1.0
176
     1
 90
        1
176
     1
 90
        6
176
     1
 90
        2
176
     1
 62
     7
176
     1
 90
        5
176
     1
 90
        0
176
     1
 90
        0
176
     1
290
     0
176
     1
 90
        1
176
     1
 40
0.0
176
     1
 90
        0
176
     1
290
     0
176
     1
290
     1
176
     1
290
     1
176
     1
290
     0
176
     1
290
     0
176
     1
290
     0
176
     1
290
     0
176
     1
290
     0
176
     1
290
     0
176
     1
 90
       50
176
     1
 40
0.0
176
     1
 40
1.0
176
     1
 90
        0
176
     1
 62
    18
420
        0
176
     1
 90
       50
176
     1
 90
        3
176
     1
 62
     5
420
      255
176
     1
290
     0
176
     1
 90
       50
176
     1
 90
       50
176
     1
 90
       50
176
     1
290
     0
176
     1
 90
       50
176
     1
 62
   256
176
     0
 40
1.0
176
     0
 90
        2
176
     1
  1
strokes_ogs.tif
176
     1
290
     0
176
     1
 40
1.0
176
     1
 40
1.0
176
     1
1001
ACAD
1000
AcRTDxfName
1000
VISUALSTYLE
1000
AcRTDxfName
1000
VISUALSTYLE
1000
AcRTDxfName
1000
VISUALSTYLE
1000
AcRTDxfName
1000
VISUALSTYLE
1000
AcRTDxfName
1000
VISUALSTYLE
1000
AcRTDxfName
1000
VISUALSTYLE
1000
AcRTDxfName
1000
VISUALSTYLE
1000
AcRTDxfName
1000
VISUALSTYLE
1000
AcDbSavedByObjectVersion
1070
     0
  0
VISUALSTYLE
  5
D7C8
102
{ACAD_REACTORS
330
D7BC
102
}
330
D7BC
100
AcDbVisualStyle
  2
Brighten
 70
    12
177
     3
291
     1
 70
    58
 90
        2
176
     1
 90
        2
176
     1
 90
        0
176
     1
 90
        0
176
     1
 40
0.6
176
     1
 40
30.0
176
     1
 62
     7
176
     1
 90
        1
176
     1
 90
        4
176
     1
 62
     7
176
     1
 62
   257
176
     1
 90
        1
176
     1
 90
        1
176
     1
 40
1.0
176
     1
 90
        8
176
     1
 62
     7
176
     1
 40
1.0
176
     1
 90
        1
176
     1
 90
        6
176
     1
 90
        2
176
     1
 62
     7
176
     1
 90
        5
176
     1
 90
        0
176
     1
 90
        0
176
     1
290
     0
176
     1
 90
        1
176
     1
 40
50.0
176
     1
 90
        0
176
     1
290
     0
176
     1
290
     1
176
     1
290
     1
176
     1
290
     0
176
     1
290
     0
176
     1
290
     0
176
     1
290
     0
176
     1
290
     0
176
     1
290
     0
176
     1
 90
       50
176
     1
 40
0.0
176
     1
 40
1.0
176
     1
 90
        0
176
     1
 62
    18
420
        0
176
     1
 90
       50
176
     1
 90
        3
176
     1
 62
     5
420
      255
176
     1
290
     0
176
     1
 90
       50
176
     1
 90
       50
176
     1
 90
       50
176
     1
290
     0
176
     1
 90
       50
176
     1
 62
   256
176
     0
 40
1.0
176
     0
 90
        2
176
     1
  1
strokes_ogs.tif
176
     1
290
     0
176
     1
 40
1.0
176
     1
 40
1.0
176
     1
1001
ACAD
1000
AcRTDxfName
1000
VISUALSTYLE
1000
AcRTDxfName
1000
VISUALSTYLE
1000
AcRTDxfName
1000
VISUALSTYLE
1000
AcRTDxfName
1000
VISUALSTYLE
1000
AcRTDxfName
1000
VISUALSTYLE
1000
AcRTDxfName
1000
VISUALSTYLE
1000
AcRTDxfName
1000
VISUALSTYLE
1000
AcRTDxfName
1000
VISUALSTYLE
1000
AcDbSavedByObjectVersion
1070
     0
  0
VISUALSTYLE
  5
D7CC
102
{ACAD_REACTORS
330
D7BC
102
}
330
D7BC
100
AcDbVisualStyle
  2
ColorChange
 70
    16
177
     3
291
     1
 70
    58
 90
        2
176
     1
 90
        2
176
     1
 90
        3
176
     1
 90
        0
176
     1
 40
0.6
176
     1
 40
30.0
176
     1
 62
     8
176
     1
 90
        1
176
     1
 90
        4
176
     1
 62
     7
176
     1
 62
   257
176
     1
 90
        1
176
     1
 90
        1
176
     1
 40
1.0
176
     1
 90
        8
176
     1
 62
     8
176
     1
 40
1.0
176
     1
 90
        1
176
     1
 90
        6
176
     1
 90
        2
176
     1
 62
     7
176
     1
 90
        5
176
     1
 90
        0
176
     1
 90
        0
176
     1
290
     0
176
     1
 90
        1
176
     1
 40
0.0
176
     1
 90
        0
176
     1
290
     0
176
     1
290
     1
176
     1
290
     1
176
     1
290
     0
176
     1
290
     0
176
     1
290
     0
176
     1
290
     0
176
     1
290
     0
176
     1
290
     0
176
     1
 90
       50
176
     1
 40
0.0
176
     1
 40
1.0
176
     1
 90
        0
176
     1
 62
    18
420
        0
176
     1
 90
       50
176
     1
 90
        3
176
     1
 62
     5
420
      255
176
     1
290
     0
176
     1
 90
       50
176
     1
 90
       50
176
     1
 90
       50
176
     1
290
     0
176
     1
 90
       50
176
     1
 62
   256
176
     0
 40
1.0
176
     0
 90
        2
176
     1
  1
strokes_ogs.tif
176
     1
290
     0
176
     1
 40
1.0
176
     1
 40
1.0
176
     1
1001
ACAD
1000
AcRTDxfName
1000
VISUALSTYLE
1000
AcRTDxfName
1000
VISUALSTYLE
1000
AcRTDxfName
1000
VISUALSTYLE
1000
AcRTDxfName
1000
VISUALSTYLE
1000
AcRTDxfName
1000
VISUALSTYLE
1000
AcRTDxfName
1000
VISUALSTYLE
1000
AcRTDxfName
1000
VISUALSTYLE
1000
AcRTDxfName
1000
VISUALSTYLE
1000
AcDbSavedByObjectVersion
1070
     0
  0
VISUALSTYLE
  5
D7C5
102
{ACAD_REACTORS
330
D7BC
102
}
330
D7BC
100
AcDbVisualStyle
  2
Conceptual
 70
     9
177
     3
291
     0
 70
    58
 90
        3
176
     1
 90
        2
176
     1
 90
        0
176
     1
 90
        0
176
     1
 40
0.6
176
     1
 40
30.0
176
     1
 62
     7
176
     1
 90
        2
176
     1
 90
        2
176
     1
 62
     7
176
     1
 62
   257
176
     1
 90
        1
176
     1
 90
        1
176
     1
 40
40.0
176
     1
 90
        8
176
     1
 62
     7
176
     1
 40
1.0
176
     1
 90
        1
176
     1
 90
        6
176
     1
 90
        2
176
     1
 62
     7
176
     1
 90
        3
176
     1
 90
        0
176
     1
 90
        0
176
     1
290
     0
176
     1
 90
        1
176
     1
 40
0.0
176
     1
 90
        0
176
     1
290
     0
176
     1
290
     1
176
     1
290
     1
176
     1
290
     0
176
     1
290
     0
176
     1
290
     0
176
     1
290
     0
176
     1
290
     0
176
     1
290
     0
176
     1
 90
       50
176
     1
 40
0.0
176
     1
 40
1.0
176
     1
 90
        0
176
     1
 62
    18
420
        0
176
     1
 90
       50
176
     1
 90
        3
176
     1
 62
     5
420
      255
176
     1
290
     0
176
     1
 90
       50
176
     1
 90
       50
176
     1
 90
       50
176
     1
290
     0
176
     1
 90
       50
176
     1
 62
   256
176
     0
 40
1.0
176
     0
 90
        2
176
     1
  1
strokes_ogs.tif
176
     1
290
     0
176
     1
 40
1.0
176
     1
 40
1.0
176
     1
1001
ACAD
1000
AcRTDxfName
1000
VISUALSTYLE
1000
AcRTDxfName
1000
VISUALSTYLE
1000
AcRTDxfName
1000
VISUALSTYLE
1000
AcRTDxfName
1000
VISUALSTYLE
1000
AcRTDxfName
1000
VISUALSTYLE
1000
AcRTDxfName
1000
VISUALSTYLE
1000
AcRTDxfName
1000
VISUALSTYLE
1000
AcRTDxfName
1000
VISUALSTYLE
1000
AcDbSavedByObjectVersion
1070
     0
  0
VISUALSTYLE
  5
D7C7
102
{ACAD_REACTORS
330
D7BC
102
}
330
D7BC
100
AcDbVisualStyle
  2
Dim
 70
    11
177
     3
291
     1
 70
    58
 90
        2
176
     1
 90
        2
176
     1
 90
        0
176
     1
 90
        0
176
     1
 40
0.6
176
     1
 40
30.0
176
     1
 62
     7
176
     1
 90
        1
176
     1
 90
        4
176
     1
 62
     7
176
     1
 62
   257
176
     1
 90
        1
176
     1
 90
        1
176
     1
 40
1.0
176
     1
 90
        8
176
     1
 62
     7
176
     1
 40
1.0
176
     1
 90
        1
176
     1
 90
        6
176
     1
 90
        2
176
     1
 62
     7
176
     1
 90
        5
176
     1
 90
        0
176
     1
 90
        0
176
     1
290
     0
176
     1
 90
        1
176
     1
 40
-50.0
176
     1
 90
        0
176
     1
290
     0
176
     1
290
     1
176
     1
290
     1
176
     1
290
     0
176
     1
290
     0
176
     1
290
     0
176
     1
290
     0
176
     1
290
     0
176
     1
290
     0
176
     1
 90
       50
176
     1
 40
0.0
176
     1
 40
1.0
176
     1
 90
        0
176
     1
 62
    18
420
        0
176
     1
 90
       50
176
     1
 90
        3
176
     1
 62
     5
420
      255
176
     1
290
     0
176
     1
 90
       50
176
     1
 90
       50
176
     1
 90
       50
176
     1
290
     0
176
     1
 90
       50
176
     1
 62
   256
176
     0
 40
1.0
176
     0
 90
        2
176
     1
  1
strokes_ogs.tif
176
     1
290
     0
176
     1
 40
1.0
176
     1
 40
1.0
176
     1
1001
ACAD
1000
AcRTDxfName
1000
VISUALSTYLE
1000
AcRTDxfName
1000
VISUALSTYLE
1000
AcRTDxfName
1000
VISUALSTYLE
1000
AcRTDxfName
1000
VISUALSTYLE
1000
AcRTDxfName
1000
VISUALSTYLE
1000
AcRTDxfName
1000
VISUALSTYLE
1000
AcRTDxfName
1000
VISUALSTYLE
1000
AcRTDxfName
1000
VISUALSTYLE
1000
AcDbSavedByObjectVersion
1070
     0
  0
VISUALSTYLE
  5
197D1
102
{ACAD_REACTORS
330
D7BC
102
}
330
D7BC
100
AcDbVisualStyle
  2
EdgeColorOff
 70
    22
177
     3
291
     1
 70
    58
 90
        2
176
     0
 90
        2
176
     0
 90
        0
176
     0
 90
        0
176
     0
 40
0.6
176
     0
 40
30.0
176
     0
 62
     7
420
 16777215
176
     0
 90
        1
176
     0
 90
        4
176
     0
 62
     7
176
     0
 62
   257
176
     0
 90
        1
176
     0
 90
        1
176
     0
 40
1.0
176
     0
 90
        8
176
     2
 62
     7
176
     0
 40
1.0
176
     0
 90
        1
176
     0
 90
        6
176
     0
 90
        2
176
     0
 62
     7
176
     0
 90
        5
176
     0
 90
        0
176
     0
 90
        0
176
     0
290
     0
176
     0
 90
        1
176
     0
 40
0.0
176
     0
 90
        0
176
     0
290
     0
176
     0
290
     1
176
     0
290
     1
176
     0
290
     0
176
     0
290
     0
176
     0
290
     0
176
     0
290
     0
176
     0
290
     0
176
     0
290
     0
176
     0
 90
       50
176
     0
 40
0.0
176
     0
 40
1.0
176
     0
 90
        0
176
     0
 62
    18
420
        0
176
     0
 90
       50
176
     0
 90
        3
176
     0
 62
     5
420
      255
176
     0
290
     0
176
     0
 90
       50
176
     0
 90
       50
176
     0
 90
       50
176
     0
290
     0
176
     0
 90
       50
176
     0
 62
   256
176
     0
 40
1.0
176
     0
 90
        2
176
     0
  1
strokes_ogs.tif
176
     0
290
     0
176
     0
 40
1.0
176
     0
 40
1.0
176
     0
1001
ACAD
1000
AcDbSavedByObjectVersion
1070
     0
  0
VISUALSTYLE
  5
D7CB
102
{ACAD_REACTORS
330
D7BC
102
}
330
D7BC
100
AcDbVisualStyle
  2
Facepattern
 70
    15
177
     3
291
     1
 70
    58
 90
        2
176
     1
 90
        2
176
     1
 90
        0
176
     1
 90
        0
176
     1
 40
0.6
176
     1
 40
30.0
176
     1
 62
     7
176
     1
 90
        1
176
     1
 90
        4
176
     1
 62
     7
176
     1
 62
   257
176
     1
 90
        1
176
     1
 90
        1
176
     1
 40
1.0
176
     1
 90
        8
176
     1
 62
     7
176
     1
 40
1.0
176
     1
 90
        1
176
     1
 90
        6
176
     1
 90
        2
176
     1
 62
     7
176
     1
 90
        5
176
     1
 90
        0
176
     1
 90
        0
176
     1
290
     0
176
     1
 90
        1
176
     1
 40
0.0
176
     1
 90
        0
176
     1
290
     0
176
     1
290
     1
176
     1
290
     1
176
     1
290
     0
176
     1
290
     0
176
     1
290
     0
176
     1
290
     0
176
     1
290
     0
176
     1
290
     0
176
     1
 90
       50
176
     1
 40
0.0
176
     1
 40
1.0
176
     1
 90
        0
176
     1
 62
    18
420
        0
176
     1
 90
       50
176
     1
 90
        3
176
     1
 62
     5
420
      255
176
     1
290
     0
176
     1
 90
       50
176
     1
 90
       50
176
     1
 90
       50
176
     1
290
     0
176
     1
 90
       50
176
     1
 62
   256
176
     0
 40
1.0
176
     0
 90
        2
176
     1
  1
strokes_ogs.tif
176
     1
290
     0
176
     1
 40
1.0
176
     1
 40
1.0
176
     1
1001
ACAD
1000
AcRTDxfName
1000
VISUALSTYLE
1000
AcRTDxfName
1000
VISUALSTYLE
1000
AcRTDxfName
1000
VISUALSTYLE
1000
AcRTDxfName
1000
VISUALSTYLE
1000
AcRTDxfName
1000
VISUALSTYLE
1000
AcRTDxfName
1000
VISUALSTYLE
1000
AcRTDxfName
1000
VISUALSTYLE
1000
AcRTDxfName
1000
VISUALSTYLE
1000
AcDbSavedByObjectVersion
1070
     0
  0
VISUALSTYLE
  5
D7BD
102
{ACAD_REACTORS
330
D7BC
102
}
330
D7BC
100
AcDbVisualStyle
  2
Flat
 70
     0
177
     3
291
     1
 70
    58
 90
        2
176
     1
 90
        1
176
     1
 90
        1
176
     1
 90
        2
176
     1
 40
0.6
176
     1
 40
30.0
176
     1
 62
     7
176
     1
 90
        0
176
     1
 90
        4
176
     1
 62
     7
176
     1
 62
   257
176
     1
 90
        1
176
     1
 90
        1
176
     1
 40
1.0
176
     1
 90
        8
176
     1
 62
     7
176
     1
 40
1.0
176
     1
 90
        1
176
     1
 90
        6
176
     1
 90
        2
176
     1
 62
     7
176
     1
 90
        5
176
     1
 90
        0
176
     1
 90
        0
176
     1
290
     0
176
     1
 90
       13
176
     1
 40
0.0
176
     1
 90
        0
176
     1
290
     0
176
     1
290
     1
176
     1
290
     1
176
     1
290
     0
176
     1
290
     0
176
     1
290
     0
176
     1
290
     0
176
     1
290
     0
176
     1
290
     0
176
     1
 90
       50
176
     1
 40
0.0
176
     1
 40
1.0
176
     1
 90
        0
176
     1
 62
    18
420
        0
176
     1
 90
       50
176
     1
 90
        3
176
     1
 62
     5
420
      255
176
     1
290
     0
176
     1
 90
       50
176
     1
 90
       50
176
     1
 90
       50
176
     1
290
     0
176
     1
 90
       50
176
     1
 62
   256
176
     0
 40
1.0
176
     0
 90
        2
176
     1
  1
strokes_ogs.tif
176
     1
290
     0
176
     1
 40
1.0
176
     1
 40
1.0
176
     1
1001
ACAD
1000
AcRTDxfName
1000
VISUALSTYLE
1000
AcRTDxfName
1000
VISUALSTYLE
1000
AcRTDxfName
1000
VISUALSTYLE
1000
AcRTDxfName
1000
VISUALSTYLE
1000
AcRTDxfName
1000
VISUALSTYLE
1000
AcRTDxfName
1000
VISUALSTYLE
1000
AcRTDxfName
1000
VISUALSTYLE
1000
AcRTDxfName
1000
VISUALSTYLE
1000
AcDbSavedByObjectVersion
1070
     0
  0
VISUALSTYLE
  5
D7BE
102
{ACAD_REACTORS
330
D7BC
102
}
330
D7BC
100
AcDbVisualStyle
  2
FlatWithEdges
 70
     1
177
     3
291
     1
 70
    58
 90
        2
176
     1
 90
        1
176
     1
 90
        1
176
     1
 90
        2
176
     1
 40
0.6
176
     1
 40
30.0
176
     1
 62
     7
176
     1
 90
        1
176
     1
 90
        4
176
     1
 62
     7
176
     1
 62
   257
176
     1
 90
        1
176
     1
 90
        1
176
     1
 40
1.0
176
     1
 90
        0
176
     1
 62
   257
176
     1
 40
1.0
176
     1
 90
        1
176
     1
 90
        6
176
     1
 90
        2
176
     1
 62
     7
176
     1
 90
        5
176
     1
 90
        0
176
     1
 90
        0
176
     1
290
     0
176
     1
 90
       13
176
     1
 40
0.0
176
     1
 90
        0
176
     1
290
     0
176
     1
290
     1
176
     1
290
     1
176
     1
290
     0
176
     1
290
     0
176
     1
290
     0
176
     1
290
     0
176
     1
290
     0
176
     1
290
     0
176
     1
 90
       50
176
     1
 40
0.0
176
     1
 40
1.0
176
     1
 90
        0
176
     1
 62
    18
420
        0
176
     1
 90
       50
176
     1
 90
        3
176
     1
 62
     5
420
      255
176
     1
290
     0
176
     1
 90
       50
176
     1
 90
       50
176
     1
 90
       50
176
     1
290
     0
176
     1
 90
       50
176
     1
 62
   256
176
     0
 40
1.0
176
     0
 90
        2
176
     1
  1
strokes_ogs.tif
176
     1
290
     0
176
     1
 40
1.0
176
     1
 40
1.0
176
     1
1001
ACAD
1000
AcRTDxfName
1000
VISUALSTYLE
1000
AcRTDxfName
1000
VISUALSTYLE
1000
AcRTDxfName
1000
VISUALSTYLE
1000
AcRTDxfName
1000
VISUALSTYLE
1000
AcRTDxfName
1000
VISUALSTYLE
1000
AcRTDxfName
1000
VISUALSTYLE
1000
AcRTDxfName
1000
VISUALSTYLE
1000
AcRTDxfName
1000
VISUALSTYLE
1000
AcDbSavedByObjectVersion
1070
     0
  0
VISUALSTYLE
  5
D7BF
102
{ACAD_REACTORS
330
D7BC
102
}
330
D7BC
100
AcDbVisualStyle
  2
Gouraud
 70
     2
177
     3
291
     1
 70
    58
 90
        2
176
     1
 90
        2
176
     1
 90
        1
176
     1
 90
        2
176
     1
 40
0.6
176
     1
 40
30.0
176
     1
 62
     7
176
     1
 90
        0
176
     1
 90
        4
176
     1
 62
     7
176
     1
 62
   257
176
     1
 90
        1
176
     1
 90
        1
176
     1
 40
1.0
176
     1
 90
        0
176
     1
 62
     7
176
     1
 40
1.0
176
     1
 90
        1
176
     1
 90
        6
176
     1
 90
        2
176
     1
 62
     7
176
     1
 90
        5
176
     1
 90
        0
176
     1
 90
        0
176
     1
290
     0
176
     1
 90
       13
176
     1
 40
0.0
176
     1
 90
        0
176
     1
290
     0
176
     1
290
     1
176
     1
290
     1
176
     1
290
     0
176
     1
290
     0
176
     1
290
     0
176
     1
290
     0
176
     1
290
     0
176
     1
290
     0
176
     1
 90
       50
176
     1
 40
0.0
176
     1
 40
1.0
176
     1
 90
        0
176
     1
 62
    18
420
        0
176
     1
 90
       50
176
     1
 90
        3
176
     1
 62
     5
420
      255
176
     1
290
     0
176
     1
 90
       50
176
     1
 90
       50
176
     1
 90
       50
176
     1
290
     0
176
     1
 90
       50
176
     1
 62
   256
176
     0
 40
1.0
176
     0
 90
        2
176
     1
  1
strokes_ogs.tif
176
     1
290
     0
176
     1
 40
1.0
176
     1
 40
1.0
176
     1
1001
ACAD
1000
AcRTDxfName
1000
VISUALSTYLE
1000
AcRTDxfName
1000
VISUALSTYLE
1000
AcRTDxfName
1000
VISUALSTYLE
1000
AcRTDxfName
1000
VISUALSTYLE
1000
AcRTDxfName
1000
VISUALSTYLE
1000
AcRTDxfName
1000
VISUALSTYLE
1000
AcRTDxfName
1000
VISUALSTYLE
1000
AcRTDxfName
1000
VISUALSTYLE
1000
AcDbSavedByObjectVersion
1070
     0
  0
VISUALSTYLE
  5
D7C0
102
{ACAD_REACTORS
330
D7BC
102
}
330
D7BC
100
AcDbVisualStyle
  2
GouraudWithEdges
 70
     3
177
     3
291
     1
 70
    58
 90
        2
176
     1
 90
        2
176
     1
 90
        1
176
     1
 90
        2
176
     1
 40
0.6
176
     1
 40
30.0
176
     1
 62
     7
176
     1
 90
        1
176
     1
 90
        4
176
     1
 62
     7
176
     1
 62
   257
176
     1
 90
        1
176
     1
 90
        1
176
     1
 40
1.0
176
     1
 90
        0
176
     1
 62
   257
176
     1
 40
1.0
176
     1
 90
        1
176
     1
 90
        6
176
     1
 90
        2
176
     1
 62
     7
176
     1
 90
        5
176
     1
 90
        0
176
     1
 90
        0
176
     1
290
     0
176
     1
 90
       13
176
     1
 40
0.0
176
     1
 90
        0
176
     1
290
     0
176
     1
290
     1
176
     1
290
     1
176
     1
290
     0
176
     1
290
     0
176
     1
290
     0
176
     1
290
     0
176
     1
290
     0
176
     1
290
     0
176
     1
 90
       50
176
     1
 40
0.0
176
     1
 40
1.0
176
     1
 90
        0
176
     1
 62
    18
420
        0
176
     1
 90
       50
176
     1
 90
        3
176
     1
 62
     5
420
      255
176
     1
290
     0
176
     1
 90
       50
176
     1
 90
       50
176
     1
 90
       50
176
     1
290
     0
176
     1
 90
       50
176
     1
 62
   256
176
     0
 40
1.0
176
     0
 90
        2
176
     1
  1
strokes_ogs.tif
176
     1
290
     0
176
     1
 40
1.0
176
     1
 40
1.0
176
     1
1001
ACAD
1000
AcRTDxfName
1000
VISUALSTYLE
1000
AcRTDxfName
1000
VISUALSTYLE
1000
AcRTDxfName
1000
VISUALSTYLE
1000
AcRTDxfName
1000
VISUALSTYLE
1000
AcRTDxfName
1000
VISUALSTYLE
1000
AcRTDxfName
1000
VISUALSTYLE
1000
AcRTDxfName
1000
VISUALSTYLE
1000
AcRTDxfName
1000
VISUALSTYLE
1000
AcDbSavedByObjectVersion
1070
     0
  0
VISUALSTYLE
  5
197C9
102
{ACAD_REACTORS
330
D7BC
102
}
330
D7BC
100
AcDbVisualStyle
  2
Hidden
 70
     6
177
     3
291
     0
 70
    58
 90
        1
176
     1
 90
        2
176
     1
 90
        2
176
     1
 90
        0
176
     1
 40
0.6
176
     1
 40
30.0
176
     1
 62
     7
420
 16777215
176
     1
 90
        2
176
     1
 90
        2
176
     1
 62
     7
176
     1
 62
   257
176
     1
 90
        2
176
     1
 90
        1
176
     1
 40
40.0
176
     1
 90
        0
176
     1
 62
   257
176
     1
 40
1.0
176
     1
 90
        1
176
     1
 90
        6
176
     1
 90
        2
176
     1
 62
     7
176
     1
 90
        3
176
     1
 90
        0
176
     1
 90
        0
176
     1
290
     0
176
     1
 90
        1
176
     1
 40
0.0
176
     1
 90
        0
176
     1
290
     0
176
     1
290
     1
176
     1
290
     1
176
     1
290
     0
176
     1
290
     0
176
     1
290
     0
176
     1
290
     0
176
     1
290
     0
176
     1
290
     0
176
     1
 90
       50
176
     1
 40
0.0
176
     1
 40
1.0
176
     1
 90
        0
176
     1
 62
    18
420
        0
176
     1
 90
       50
176
     1
 90
        3
176
     1
 62
     5
420
      255
176
     1
290
     0
176
     1
 90
       50
176
     1
 90
       50
176
     1
 90
       50
176
     1
290
     0
176
     1
 90
       50
176
     1
 62
   256
176
     0
 40
1.0
176
     0
 90
        2
176
     1
  1
strokes_ogs.tif
176
     1
290
     0
176
     1
 40
1.0
176
     1
 40
1.0
176
     1
1001
ACAD
1000
AcDbSavedByObjectVersion
1070
     0
  0
VISUALSTYLE
  5
197CF
102
{ACAD_REACTORS
330
D7BC
102
}
330
D7BC
100
AcDbVisualStyle
  2
JitterOff
 70
    20
177
     3
291
     1
 70
    58
 90
        2
176
     0
 90
        2
176
     0
 90
        0
176
     0
 90
        0
176
     0
 40
0.6
176
     0
 40
30.0
176
     0
 62
     7
420
 16777215
176
     0
 90
        1
176
     0
 90
        4
176
     0
 62
     7
176
     0
 62
   257
176
     0
 90
        1
176
     0
 90
        1
176
     0
 40
1.0
176
     0
 90
       10
176
     2
 62
     7
176
     0
 40
1.0
176
     0
 90
        1
176
     0
 90
        6
176
     0
 90
        2
176
     0
 62
     7
176
     0
 90
        5
176
     0
 90
        0
176
     0
 90
        0
176
     0
290
     0
176
     0
 90
        1
176
     0
 40
0.0
176
     0
 90
        0
176
     0
290
     0
176
     0
290
     1
176
     0
290
     1
176
     0
290
     0
176
     0
290
     0
176
     0
290
     0
176
     0
290
     0
176
     0
290
     0
176
     0
290
     0
176
     0
 90
       50
176
     0
 40
0.0
176
     0
 40
1.0
176
     0
 90
        0
176
     0
 62
    18
420
        0
176
     0
 90
       50
176
     0
 90
        3
176
     0
 62
     5
420
      255
176
     0
290
     0
176
     0
 90
       50
176
     0
 90
       50
176
     0
 90
       50
176
     0
290
     0
176
     0
 90
       50
176
     0
 62
   256
176
     0
 40
1.0
176
     0
 90
        2
176
     0
  1
strokes_ogs.tif
176
     0
290
     0
176
     0
 40
1.0
176
     0
 40
1.0
176
     0
1001
ACAD
1000
AcDbSavedByObjectVersion
1070
     0
  0
VISUALSTYLE
  5
D7CA
102
{ACAD_REACTORS
330
D7BC
102
}
330
D7BC
100
AcDbVisualStyle
  2
Linepattern
 70
    14
177
     3
291
     1
 70
    58
 90
        2
176
     1
 90
        2
176
     1
 90
        0
176
     1
 90
        0
176
     1
 40
0.6
176
     1
 40
30.0
176
     1
 62
     7
176
     1
 90
        1
176
     1
 90
        4
176
     1
 62
     7
176
     1
 62
   257
176
     1
 90
        7
176
     1
 90
        7
176
     1
 40
1.0
176
     1
 90
        8
176
     1
 62
     7
176
     1
 40
1.0
176
     1
 90
        1
176
     1
 90
        6
176
     1
 90
        2
176
     1
 62
     7
176
     1
 90
        5
176
     1
 90
        0
176
     1
 90
        0
176
     1
290
     0
176
     1
 90
        1
176
     1
 40
0.0
176
     1
 90
        0
176
     1
290
     0
176
     1
290
     1
176
     1
290
     1
176
     1
290
     0
176
     1
290
     0
176
     1
290
     0
176
     1
290
     0
176
     1
290
     0
176
     1
290
     0
176
     1
 90
       50
176
     1
 40
0.0
176
     1
 40
1.0
176
     1
 90
        0
176
     1
 62
    18
420
        0
176
     1
 90
       50
176
     1
 90
        3
176
     1
 62
     5
420
      255
176
     1
290
     0
176
     1
 90
       50
176
     1
 90
       50
176
     1
 90
       50
176
     1
290
     0
176
     1
 90
       50
176
     1
 62
   256
176
     0
 40
1.0
176
     0
 90
        2
176
     1
  1
strokes_ogs.tif
176
     1
290
     0
176
     1
 40
1.0
176
     1
 40
1.0
176
     1
1001
ACAD
1000
AcRTDxfName
1000
VISUALSTYLE
1000
AcRTDxfName
1000
VISUALSTYLE
1000
AcRTDxfName
1000
VISUALSTYLE
1000
AcRTDxfName
1000
VISUALSTYLE
1000
AcRTDxfName
1000
VISUALSTYLE
1000
AcRTDxfName
1000
VISUALSTYLE
1000
AcRTDxfName
1000
VISUALSTYLE
1000
AcRTDxfName
1000
VISUALSTYLE
1000
AcDbSavedByObjectVersion
1070
     0
  0
VISUALSTYLE
  5
197D0
102
{ACAD_REACTORS
330
D7BC
102
}
330
D7BC
100
AcDbVisualStyle
  2
OverhangOff
 70
    21
177
     3
291
     1
 70
    58
 90
        2
176
     0
 90
        2
176
     0
 90
        0
176
     0
 90
        0
176
     0
 40
0.6
176
     0
 40
30.0
176
     0
 62
     7
420
 16777215
176
     0
 90
        1
176
     0
 90
        4
176
     0
 62
     7
176
     0
 62
   257
176
     0
 90
        1
176
     0
 90
        1
176
     0
 40
1.0
176
     0
 90
        9
176
     2
 62
     7
176
     0
 40
1.0
176
     0
 90
        1
176
     0
 90
        6
176
     0
 90
        2
176
     0
 62
     7
176
     0
 90
        5
176
     0
 90
        0
176
     0
 90
        0
176
     0
290
     0
176
     0
 90
        1
176
     0
 40
0.0
176
     0
 90
        0
176
     0
290
     0
176
     0
290
     1
176
     0
290
     1
176
     0
290
     0
176
     0
290
     0
176
     0
290
     0
176
     0
290
     0
176
     0
290
     0
176
     0
290
     0
176
     0
 90
       50
176
     0
 40
0.0
176
     0
 40
1.0
176
     0
 90
        0
176
     0
 62
    18
420
        0
176
     0
 90
       50
176
     0
 90
        3
176
     0
 62
     5
420
      255
176
     0
290
     0
176
     0
 90
       50
176
     0
 90
       50
176
     0
 90
       50
176
     0
290
     0
176
     0
 90
       50
176
     0
 62
   256
176
     0
 40
1.0
176
     0
 90
        2
176
     0
  1
strokes_ogs.tif
176
     0
290
     0
176
     0
 40
1.0
176
     0
 40
1.0
176
     0
1001
ACAD
1000
AcDbSavedByObjectVersion
1070
     0
  0
VISUALSTYLE
  5
D7C6
102
{ACAD_REACTORS
330
D7BC
102
}
330
D7BC
100
AcDbVisualStyle
  2
Realistic
 70
     8
177
     3
291
     0
 70
    58
 90
        2
176
     1
 90
        2
176
     1
 90
        0
176
     1
 90
        0
176
     1
 40
0.6
176
     1
 40
30.0
176
     1
 62
     7
176
     1
 90
        1
176
     1
 90
        0
176
     1
 62
     7
176
     1
 62
   257
176
     1
 90
        1
176
     1
 90
        1
176
     1
 40
1.0
176
     1
 90
        8
176
     1
 62
     8
176
     1
 40
1.0
176
     1
 90
        1
176
     1
 90
        6
176
     1
 90
        2
176
     1
 62
     7
176
     1
 90
        5
176
     1
 90
        0
176
     1
 90
        0
176
     1
290
     0
176
     1
 90
       13
176
     1
 40
0.0
176
     1
 90
        0
176
     1
290
     0
176
     1
290
     1
176
     1
290
     1
176
     1
290
     0
176
     1
290
     0
176
     1
290
     0
176
     1
290
     0
176
     1
290
     0
176
     1
290
     0
176
     1
 90
       50
176
     1
 40
0.0
176
     1
 40
1.0
176
     1
 90
        0
176
     1
 62
    18
420
        0
176
     1
 90
       50
176
     1
 90
        3
176
     1
 62
     5
420
      255
176
     1
290
     0
176
     1
 90
       50
176
     1
 90
       50
176
     1
 90
       50
176
     1
290
     0
176
     1
 90
       50
176
     1
 62
   256
176
     0
 40
1.0
176
     0
 90
        2
176
     1
  1
strokes_ogs.tif
176
     1
290
     0
176
     1
 40
1.0
176
     1
 40
1.0
176
     1
1001
ACAD
1000
AcRTDxfName
1000
VISUALSTYLE
1000
AcRTDxfName
1000
VISUALSTYLE
1000
AcRTDxfName
1000
VISUALSTYLE
1000
AcRTDxfName
1000
VISUALSTYLE
1000
AcRTDxfName
1000
VISUALSTYLE
1000
AcRTDxfName
1000
VISUALSTYLE
1000
AcRTDxfName
1000
VISUALSTYLE
1000
AcRTDxfName
1000
VISUALSTYLE
1000
AcDbSavedByObjectVersion
1070
     0
  0
VISUALSTYLE
  5
197CE
102
{ACAD_REACTORS
330
D7BC
102
}
330
D7BC
100
AcDbVisualStyle
  2
Shaded
 70
    27
177
     3
291
     0
 70
    58
 90
        2
176
     1
 90
        2
176
     1
 90
        1
176
     1
 90
        2
176
     1
 40
0.6
176
     1
 40
30.0
176
     1
 62
     7
420
 16777215
176
     1
 90
        0
176
     1
 90
        4
176
     1
 62
     7
176
     1
 62
   257
176
     1
 90
        1
176
     1
 90
        1
176
     1
 40
1.0
176
     1
 90
        8
176
     1
 62
   257
176
     1
 40
1.0
176
     1
 90
        1
176
     1
 90
        6
176
     1
 90
        2
176
     1
 62
     8
420
  7895160
176
     1
 90
        3
176
     1
 90
        0
176
     1
 90
        0
176
     1
290
     0
176
     1
 90
        5
176
     1
 40
0.0
176
     1
 90
        0
176
     1
290
     0
176
     1
290
     1
176
     1
290
     1
176
     1
290
     0
176
     1
290
     0
176
     1
290
     0
176
     1
290
     0
176
     1
290
     0
176
     1
290
     0
176
     1
 90
       50
176
     1
 40
0.0
176
     1
 40
1.0
176
     1
 90
        0
176
     1
 62
    18
420
        0
176
     1
 90
       50
176
     1
 90
        3
176
     1
 62
     5
420
      255
176
     1
290
     0
176
     1
 90
       50
176
     1
 90
       50
176
     1
 90
       50
176
     1
290
     0
176
     1
 90
       50
176
     1
 62
   256
176
     0
 40
1.0
176
     0
 90
        2
176
     1
  1
strokes_ogs.tif
176
     1
290
     0
176
     1
 40
1.0
176
     1
 40
1.0
176
     1
1001
ACAD
1000
AcDbSavedByObjectVersion
1070
     0
  0
VISUALSTYLE
  5
197CD
102
{ACAD_REACTORS
330
D7BC
102
}
330
D7BC
100
AcDbVisualStyle
  2
Shaded with edges
 70
    26
177
     3
291
     0
 70
    58
 90
        2
176
     1
 90
        2
176
     1
 90
        1
176
     1
 90
        2
176
     1
 40
0.6
176
     1
 40
30.0
176
     1
 62
     7
420
 16777215
176
     1
 90
        1
176
     1
 90
        2
176
     1
 62
     7
176
     1
 62
   257
176
     1
 90
        2
176
     1
 90
        1
176
     1
 40
1.0
176
     1
 90
        8
176
     1
 62
   257
176
     1
 40
1.0
176
     1
 90
        1
176
     1
 90
        6
176
     1
 90
        2
176
     1
 62
     7
176
     1
 90
        3
176
     1
 90
        0
176
     1
 90
        0
176
     1
290
     0
176
     1
 90
        5
176
     1
 40
0.0
176
     1
 90
        0
176
     1
290
     0
176
     1
290
     1
176
     1
290
     1
176
     1
290
     0
176
     1
290
     0
176
     1
290
     0
176
     1
290
     0
176
     1
290
     0
176
     1
290
     0
176
     1
 90
       50
176
     1
 40
0.0
176
     1
 40
1.0
176
     1
 90
        0
176
     1
 62
    18
420
        0
176
     1
 90
       50
176
     1
 90
        3
176
     1
 62
     5
420
      255
176
     1
290
     0
176
     1
 90
       50
176
     1
 90
       50
176
     1
 90
       50
176
     1
290
     0
176
     1
 90
       50
176
     1
 62
   256
176
     0
 40
1.0
176
     0
 90
        2
176
     1
  1
strokes_ogs.tif
176
     1
290
     0
176
     1
 40
1.0
176
     1
 40
1.0
176
     1
1001
ACAD
1000
AcDbSavedByObjectVersion
1070
     0
  0
VISUALSTYLE
  5
197CA
102
{ACAD_REACTORS
330
D7BC
102
}
330
D7BC
100
AcDbVisualStyle
  2
Shades of Gray
 70
    23
177
     3
291
     0
 70
    58
 90
        2
176
     1
 90
        2
176
     1
 90
        3
176
     1
 90
        0
176
     1
 40
0.6
176
     1
 40
30.0
176
     1
 62
     7
420
 16777215
176
     1
 90
        2
176
     1
 90
        2
176
     1
 62
     7
176
     1
 62
     7
176
     1
 90
        1
176
     1
 90
        1
176
     1
 40
40.0
176
     1
 90
        8
176
     1
 62
     7
176
     1
 40
1.0
176
     1
 90
        1
176
     1
 90
        6
176
     1
 90
        2
176
     1
 62
     7
176
     1
 90
        3
176
     1
 90
        0
176
     1
 90
        0
176
     1
290
     0
176
     1
 90
        1
176
     1
 40
0.0
176
     1
 90
        0
176
     1
290
     0
176
     1
290
     1
176
     1
290
     1
176
     1
290
     0
176
     1
290
     0
176
     1
290
     0
176
     1
290
     0
176
     1
290
     0
176
     1
290
     0
176
     1
 90
       50
176
     1
 40
0.0
176
     1
 40
1.0
176
     1
 90
        0
176
     1
 62
    18
420
        0
176
     1
 90
       50
176
     1
 90
        3
176
     1
 62
     5
420
      255
176
     1
290
     0
176
     1
 90
       50
176
     1
 90
       50
176
     1
 90
       50
176
     1
290
     0
176
     1
 90
       50
176
     1
 62
   256
176
     0
 40
1.0
176
     0
 90
        2
176
     1
  1
strokes_ogs.tif
176
     1
290
     0
176
     1
 40
1.0
176
     1
 40
1.0
176
     1
1001
ACAD
1000
AcDbSavedByObjectVersion
1070
     0
  0
VISUALSTYLE
  5
197CB
102
{ACAD_REACTORS
330
D7BC
102
}
330
D7BC
100
AcDbVisualStyle
  2
Sketchy
 70
    24
177
     3
291
     0
 70
    58
 90
        1
176
     1
 90
        2
176
     1
 90
        2
176
     1
 90
        0
176
     1
 40
0.6
176
     1
 40
30.0
176
     1
 62
     7
420
 16777215
176
     1
 90
        2
176
     1
 90
        2
176
     1
 62
     7
176
     1
 62
     7
176
     1
 90
        1
176
     1
 90
        1
176
     1
 40
40.0
176
     1
 90
       11
176
     1
 62
     7
176
     1
 40
1.0
176
     1
 90
        1
176
     1
 90
        6
176
     1
 90
        2
176
     1
 62
     7
176
     1
 90
        6
176
     1
 90
        0
176
     1
 90
        0
176
     1
290
     0
176
     1
 90
        1
176
     1
 40
0.0
176
     1
 90
        0
176
     1
290
     0
176
     1
290
     1
176
     1
290
     1
176
     1
290
     0
176
     1
290
     0
176
     1
290
     0
176
     1
290
     0
176
     1
290
     0
176
     1
290
     0
176
     1
 90
       50
176
     1
 40
0.0
176
     1
 40
1.0
176
     1
 90
        0
176
     1
 62
    18
420
        0
176
     1
 90
       50
176
     1
 90
        3
176
     1
 62
     5
420
      255
176
     1
290
     0
176
     1
 90
       50
176
     1
 90
       50
176
     1
 90
       50
176
     1
290
     0
176
     1
 90
       50
176
     1
 62
   256
176
     0
 40
1.0
176
     0
 90
        2
176
     1
  1
strokes_ogs.tif
176
     1
290
     0
176
     1
 40
1.0
176
     1
 40
1.0
176
     1
1001
ACAD
1000
AcDbSavedByObjectVersion
1070
     0
  0
VISUALSTYLE
  5
D7C9
102
{ACAD_REACTORS
330
D7BC
102
}
330
D7BC
100
AcDbVisualStyle
  2
Thicken
 70
    13
177
     3
291
     1
 70
    58
 90
        2
176
     1
 90
        2
176
     1
 90
        0
176
     1
 90
        0
176
     1
 40
0.6
176
     1
 40
30.0
176
     1
 62
     7
176
     1
 90
        1
176
     1
 90
        4
176
     1
 62
     7
176
     1
 62
   257
176
     1
 90
        1
176
     1
 90
        1
176
     1
 40
1.0
176
     1
 90
       12
176
     1
 62
     7
176
     1
 40
1.0
176
     1
 90
        1
176
     1
 90
        6
176
     1
 90
        2
176
     1
 62
     7
176
     1
 90
        5
176
     1
 90
        0
176
     1
 90
        0
176
     1
290
     0
176
     1
 90
        1
176
     1
 40
0.0
176
     1
 90
        0
176
     1
290
     0
176
     1
290
     1
176
     1
290
     1
176
     1
290
     0
176
     1
290
     0
176
     1
290
     0
176
     1
290
     0
176
     1
290
     0
176
     1
290
     0
176
     1
 90
       50
176
     1
 40
0.0
176
     1
 40
1.0
176
     1
 90
        0
176
     1
 62
    18
420
        0
176
     1
 90
       50
176
     1
 90
        3
176
     1
 62
     5
420
      255
176
     1
290
     0
176
     1
 90
       50
176
     1
 90
       50
176
     1
 90
       50
176
     1
290
     0
176
     1
 90
       50
176
     1
 62
   256
176
     0
 40
1.0
176
     0
 90
        2
176
     1
  1
strokes_ogs.tif
176
     1
290
     0
176
     1
 40
1.0
176
     1
 40
1.0
176
     1
1001
ACAD
1000
AcRTDxfName
1000
VISUALSTYLE
1000
AcRTDxfName
1000
VISUALSTYLE
1000
AcRTDxfName
1000
VISUALSTYLE
1000
AcRTDxfName
1000
VISUALSTYLE
1000
AcRTDxfName
1000
VISUALSTYLE
1000
AcRTDxfName
1000
VISUALSTYLE
1000
AcRTDxfName
1000
VISUALSTYLE
1000
AcRTDxfName
1000
VISUALSTYLE
1000
AcDbSavedByObjectVersion
1070
     0
  0
VISUALSTYLE
  5
197C8
102
{ACAD_REACTORS
330
D7BC
102
}
330
D7BC
100
AcDbVisualStyle
  2
Wireframe
 70
     5
177
     3
291
     0
 70
    58
 90
        0
176
     1
 90
        2
176
     1
 90
        0
176
     1
 90
        0
176
     1
 40
0.6
176
     1
 40
30.0
176
     1
 62
     7
420
 16777215
176
     1
 90
        1
176
     1
 90
        4
176
     1
 62
     7
176
     1
 62
   257
176
     1
 90
        1
176
     1
 90
        1
176
     1
 40
1.0
176
     1
 90
        0
176
     1
 62
   257
176
     1
 40
1.0
176
     1
 90
        1
176
     1
 90
        6
176
     1
 90
        2
176
     1
 62
     7
176
     1
 90
        3
176
     1
 90
        0
176
     1
 90
        0
176
     1
290
     0
176
     1
 90
        1
176
     1
 40
0.0
176
     1
 90
        0
176
     1
290
     0
176
     1
290
     1
176
     1
290
     1
176
     1
290
     0
176
     1
290
     0
176
     1
290
     0
176
     1
290
     0
176
     1
290
     0
176
     1
290
     0
176
     1
 90
       50
176
     1
 40
0.0
176
     1
 40
1.0
176
     1
 90
        0
176
     1
 62
    18
420
        0
176
     1
 90
       50
176
     1
 90
        3
176
     1
 62
     5
420
      255
176
     1
290
     0
176
     1
 90
       50
176
     1
 90
       50
176
     1
 90
       50
176
     1
290
     0
176
     1
 90
       50
176
     1
 62
   256
176
     0
 40
1.0
176
     0
 90
        2
176
     1
  1
strokes_ogs.tif
176
     1
290
     0
176
     1
 40
1.0
176
     1
 40
1.0
176
     1
1001
ACAD
1000
AcDbSavedByObjectVersion
1070
     0
  0
VISUALSTYLE
  5
197CC
102
{ACAD_REACTORS
330
D7BC
102
}
330
D7BC
100
AcDbVisualStyle
  2
X-Ray
 70
    25
177
     3
291
     0
 70
    58
 90
        2
176
     1
 90
        2
176
     1
 90
        1
176
     1
 90
        1
176
     1
 40
0.5
176
     1
 40
30.0
176
     1
 62
     7
420
 16777215
176
     1
 90
        1
176
     1
 90
        0
176
     1
 62
     7
176
     1
 62
   257
176
     1
 90
        1
176
     1
 90
        1
176
     1
 40
1.0
176
     1
 90
        8
176
     1
 62
     7
176
     1
 40
1.0
176
     1
 90
        1
176
     1
 90
        6
176
     1
 90
        2
176
     1
 62
     7
176
     1
 90
        3
176
     1
 90
        0
176
     1
 90
        0
176
     1
290
     0
176
     1
 90
       13
176
     1
 40
0.0
176
     1
 90
        0
176
     1
290
     0
176
     1
290
     1
176
     1
290
     1
176
     1
290
     0
176
     1
290
     0
176
     1
290
     0
176
     1
290
     0
176
     1
290
     0
176
     1
290
     0
176
     1
 90
       50
176
     1
 40
0.0
176
     1
 40
1.0
176
     1
 90
        0
176
     1
 62
    18
420
        0
176
     1
 90
       50
176
     1
 90
        3
176
     1
 62
     5
420
      255
176
     1
290
     0
176
     1
 90
       50
176
     1
 90
       50
176
     1
 90
       50
176
     1
290
     0
176
     1
 90
       50
176
     1
 62
   256
176
     0
 40
1.0
176
     0
 90
        2
176
     1
  1
strokes_ogs.tif
176
     1
290
     0
176
     1
 40
1.0
176
     1
 40
1.0
176
     1
1001
ACAD
1000
AcDbSavedByObjectVersion
1070
     0
  0
DICTIONARYVAR
  5
D81A
102
{ACAD_REACTORS
330
5E
102
}
330
5E
100
DictionaryVariables
280
     0
  1
1:1
  0
DICTIONARYVAR
  5
D819
102
{ACAD_REACTORS
330
5E
102
}
330
5E
100
DictionaryVariables
280
     0
  1
STANDARD
  0
DICTIONARYVAR
  5
84
102
{ACAD_REACTORS
330
5E
102
}
330
5E
100
DictionaryVariables
280
     0
  1
STANDARD
  0
DICTIONARYVAR
  5
1B8D9
102
{ACAD_REACTORS
330
5E
102
}
330
5E
100
DictionaryVariables
280
     0
  1
Metric50
  0
DICTIONARYVAR
  5
1B8DA
102
{ACAD_REACTORS
330
5E
102
}
330
5E
100
DictionaryVariables
280
     0
  1
Metric50
  0
DICTIONARYVAR
  5
5F
102
{ACAD_REACTORS
330
5E
102
}
330
5E
100
DictionaryVariables
280
     0
  1
2
  0
DICTIONARYVAR
  5
63
102
{ACAD_REACTORS
330
5E
102
}
330
5E
100
DictionaryVariables
280
     0
  1
1
  0
DICTIONARYVAR
  5
D81C
102
{ACAD_REACTORS
330
5E
102
}
330
5E
100
DictionaryVariables
280
     0
  1
0
  0
DICTIONARYVAR
  5
1B8DD
102
{ACAD_REACTORS
330
5E
102
}
330
5E
100
DictionaryVariables
280
     0
  1
1
  0
DICTIONARYVAR
  5
1B8DE
102
{ACAD_REACTORS
330
5E
102
}
330
5E
100
DictionaryVariables
280
     0
  1
15
  0
DICTIONARYVAR
  5
1B8DC
102
{ACAD_REACTORS
330
5E
102
}
330
5E
100
DictionaryVariables
280
     0
  1
0
  0
DICTIONARYVAR
  5
1B8DB
102
{ACAD_REACTORS
330
5E
102
}
330
5E
100
DictionaryVariables
280
     0
  1
0
  0
DICTIONARYVAR
  5
D798
102
{ACAD_REACTORS
330
5E
102
}
330
5E
100
DictionaryVariables
280
     0
  1

  0
DICTIONARYVAR
  5
D81B
102
{ACAD_REACTORS
330
5E
102
}
330
5E
100
DictionaryVariables
280
     0
  1
127
  0
DICTIONARY
  5
1CB83
102
{ACAD_REACTORS
330
1CB81
102
}
330
1CB81
100
AcDbDictionary
281
     1
  0
DICTIONARY
  5
1CB82
102
{ACAD_REACTORS
330
1CB81
102
}
330
1CB81
100
AcDbDictionary
281
     1
  3
2505072897728
350
1CB7C
  3
2505072897744
350
1CB7D
  3
2505072897760
350
1CB7E
  3
2505072897776
350
1CB7F
  3
2505072897792
350
1CB80
  0
DICTIONARY
  5
1CB86
330
197D5
100
AcDbDictionary
280
     1
281
     1
  3
ACAD_XREC_ROUNDTRIP
360
1CB87
  0
DICTIONARY
  5
79B
330
78E
100
AcDbDictionary
280
     1
281
     1
  0
DICTIONARY
  5
D7AD
330
D7AC
100
AcDbDictionary
280
     1
281
     1
  3
BUMPTILE
360
D7AF
  3
DIFFUSETILE
360
D7AE
  3
OPACITYTILE
360
D7B2
  3
REFLECTIONTILE
360
D7B1
  3
REFRACTIONTILE
360
D7B3
  3
SPECULARTILE
360
D7B0
  0
DICTIONARY
  5
D7A5
330
D7A4
100
AcDbDictionary
280
     1
281
     1
  3
BUMPTILE
360
D7A7
  3
DIFFUSETILE
360
D7A6
  3
OPACITYTILE
360
D7AA
  3
REFLECTIONTILE
360
D7A9
  3
REFRACTIONTILE
360
D7AB
  3
SPECULARTILE
360
D7A8
  0
DICTIONARY
  5
D7B5
330
D7B4
100
AcDbDictionary
280
     1
281
     1
  3
BUMPTILE
360
D7B7
  3
DIFFUSETILE
360
D7B6
  3
OPACITYTILE
360
D7BA
  3
REFLECTIONTILE
360
D7B9
  3
REFRACTIONTILE
360
D7BB
  3
SPECULARTILE
360
D7B8
  0
DICTIONARY
  5
1CB84
330
197D3
100
AcDbDictionary
280
     1
281
     1
  3
ACAD_XREC_ROUNDTRIP
360
1CB85
  0
DICTIONARY
  5
D806
330
7F
100
AcDbDictionary
280
     1
281
     1
  3
ACAD_ROUNDTRIP_2008_TABLESTYLE_CELLSTYLEMAP
360
1CB7A
  0
XRECORD
  5
1CB7C
102
{ACAD_REACTORS
330
1CB82
102
}
330
1CB82
100
AcDbXrecord
280
     1
  1
AcDb_Thumbnail_Schema
102
{ATTRRECORD
341
1CB7D
  2
AcDbDs::TreatedAsObjectData
280
     1
291
     1
102
ATTRRECORD}
102
{ATTRRECORD
341
1CB7E
  2
AcDbDs::Legacy
280
     1
291
     1
102
ATTRRECORD}
  2
AcDbDs::ID
280
    10
 91
        8
102
{ATTRRECORD
341
1CB7F
  2
AcDs:Indexable
280
     1
291
     1
102
ATTRRECORD}
102
{ATTRRECORD
341
1CB80
  2
AcDbDs::HandleAttribute
280
     7
282
     1
102
ATTRRECORD}
  2
Thumbnail_Data
280
    15
 91
        0
  0
XRECORD
  5
1CB7D
102
{ACAD_REACTORS
330
1CB82
102
}
330
1CB82
100
AcDbXrecord
280
     1
  1
AcDbDs::TreatedAsObjectDataSchema
  2
AcDbDs::TreatedAsObjectData
280
     1
 91
        0
  0
XRECORD
  5
1CB7E
102
{ACAD_REACTORS
330
1CB82
102
}
330
1CB82
100
AcDbXrecord
280
     1
  1
AcDbDs::LegacySchema
  2
AcDbDs::Legacy
280
     1
 91
        0
  0
XRECORD
  5
1CB7F
102
{ACAD_REACTORS
330
1CB82
102
}
330
1CB82
100
AcDbXrecord
280
     1
  1
AcDbDs::IndexedPropertySchema
  2
AcDs:Indexable
280
     1
 91
        0
  0
XRECORD
  5
1CB80
102
{ACAD_REACTORS
330
1CB82
102
}
330
1CB82
100
AcDbXrecord
280
     1
  1
AcDbDs::HandleAttributeSchema
  2
AcDbDs::HandleAttribute
280
     7
 91
        1
284
     1
  0
XRECORD
  5
1CB87
102
{ACAD_REACTORS
330
1CB86
102
}
330
1CB86
100
AcDbXrecord
280
     1
102
DISPLAYNAME
  1
Metric50
102
FLAGS
 90
        0
  0
XRECORD
  5
D7AF
102
{ACAD_REACTORS
330
D7AD
102
}
330
D7AD
100
AcDbXrecord
280
     1
270
     1
271
     1
  0
XRECORD
  5
D7AE
102
{ACAD_REACTORS
330
D7AD
102
}
330
D7AD
100
AcDbXrecord
280
     1
270
     1
271
     1
  0
XRECORD
  5
D7B2
102
{ACAD_REACTORS
330
D7AD
102
}
330
D7AD
100
AcDbXrecord
280
     1
270
     1
271
     1
  0
XRECORD
  5
D7B1
102
{ACAD_REACTORS
330
D7AD
102
}
330
D7AD
100
AcDbXrecord
280
     1
270
     1
271
     1
  0
XRECORD
  5
D7B3
102
{ACAD_REACTORS
330
D7AD
102
}
330
D7AD
100
AcDbXrecord
280
     1
270
     1
271
     1
  0
XRECORD
  5
D7B0
102
{ACAD_REACTORS
330
D7AD
102
}
330
D7AD
100
AcDbXrecord
280
     1
270
     1
271
     1
  0
XRECORD
  5
D7A7
102
{ACAD_REACTORS
330
D7A5
102
}
330
D7A5
100
AcDbXrecord
280
     1
270
     1
271
     1
  0
XRECORD
  5
D7A6
102
{ACAD_REACTORS
330
D7A5
102
}
330
D7A5
100
AcDbXrecord
280
     1
270
     1
271
     1
  0
XRECORD
  5
D7AA
102
{ACAD_REACTORS
330
D7A5
102
}
330
D7A5
100
AcDbXrecord
280
     1
270
     1
271
     1
  0
XRECORD
  5
D7A9
102
{ACAD_REACTORS
330
D7A5
102
}
330
D7A5
100
AcDbXrecord
280
     1
270
     1
271
     1
  0
XRECORD
  5
D7AB
102
{ACAD_REACTORS
330
D7A5
102
}
330
D7A5
100
AcDbXrecord
280
     1
270
     1
271
     1
  0
XRECORD
  5
D7A8
102
{ACAD_REACTORS
330
D7A5
102
}
330
D7A5
100
AcDbXrecord
280
     1
270
     1
271
     1
  0
XRECORD
  5
D7B7
102
{ACAD_REACTORS
330
D7B5
102
}
330
D7B5
100
AcDbXrecord
280
     1
270
     1
271
     1
  0
XRECORD
  5
D7B6
102
{ACAD_REACTORS
330
D7B5
102
}
330
D7B5
100
AcDbXrecord
280
     1
270
     1
271
     1
  0
XRECORD
  5
D7BA
102
{ACAD_REACTORS
330
D7B5
102
}
330
D7B5
100
AcDbXrecord
280
     1
270
     1
271
     1
  0
XRECORD
  5
D7B9
102
{ACAD_REACTORS
330
D7B5
102
}
330
D7B5
100
AcDbXrecord
280
     1
270
     1
271
     1
  0
XRECORD
  5
D7BB
102
{ACAD_REACTORS
330
D7B5
102
}
330
D7B5
100
AcDbXrecord
280
     1
270
     1
271
     1
  0
XRECORD
  5
D7B8
102
{ACAD_REACTORS
330
D7B5
102
}
330
D7B5
100
AcDbXrecord
280
     1
270
     1
271
     1
  0
XRECORD
  5
1CB85
102
{ACAD_REACTORS
330
1CB84
102
}
330
1CB84
100
AcDbXrecord
280
     1
102
DISPLAYNAME
  1
Metric50
102
FLAGS
 90
        0
  0
CELLSTYLEMAP
  5
1CB7A
102
{ACAD_REACTORS
330
D806
102
}
330
D806
100
AcDbCellStyleMap
 90
        3
300
CELLSTYLE
  1
TABLEFORMAT_BEGIN
 90
        5
170
     1
 91
        0
 92
    32768
 62
   257
 93
        1
300
CONTENTFORMAT
  1
CONTENTFORMAT_BEGIN
 90
        0
 91
        0
 92
        4
 93
        0
300

 40
0.0
140
1.0
 94
        5
 62
     0
340
11
144
6.0
309
CONTENTFORMAT_END
171
     1
301
MARGIN
  1
CELLMARGIN_BEGIN
 40
1.5
 40
1.5
 40
1.5
 40
1.5
 40
0.18
 40
0.18
309
CELLMARGIN_END
 94
        6
 95
        1
302
GRIDFORMAT
  1
GRIDFORMAT_BEGIN
 90
        0
 91
        1
 62
     0
 92
       -2
340
0
 93
        0
 40
0.045
309
GRIDFORMAT_END
 95
        2
302
GRIDFORMAT
  1
GRIDFORMAT_BEGIN
 90
        0
 91
        1
 62
     0
 92
       -2
340
0
 93
        0
 40
0.045
309
GRIDFORMAT_END
 95
        4
302
GRIDFORMAT
  1
GRIDFORMAT_BEGIN
 90
        0
 91
        1
 62
     0
 92
       -2
340
0
 93
        0
 40
0.045
309
GRIDFORMAT_END
 95
        8
302
GRIDFORMAT
  1
GRIDFORMAT_BEGIN
 90
        0
 91
        1
 62
     0
 92
       -2
340
0
 93
        0
 40
0.045
309
GRIDFORMAT_END
 95
       16
302
GRIDFORMAT
  1
GRIDFORMAT_BEGIN
 90
        0
 91
        1
 62
     0
 92
       -2
340
0
 93
        0
 40
0.045
309
GRIDFORMAT_END
 95
       32
302
GRIDFORMAT
  1
GRIDFORMAT_BEGIN
 90
        0
 91
        1
 62
     0
 92
       -2
340
0
 93
        0
 40
0.045
309
GRIDFORMAT_END
309
TABLEFORMAT_END
  1
CELLSTYLE_BEGIN
 90
        1
 91
        1
300
_TITLE
309
CELLSTYLE_END
300
CELLSTYLE
  1
TABLEFORMAT_BEGIN
 90
        5
170
     1
 91
        0
 92
        0
 62
   257
 93
        1
300
CONTENTFORMAT
  1
CONTENTFORMAT_BEGIN
 90
        0
 91
        0
 92
        4
 93
        0
300

 40
0.0
140
1.0
 94
        5
 62
     0
340
11
144
4.5
309
CONTENTFORMAT_END
171
     1
301
MARGIN
  1
CELLMARGIN_BEGIN
 40
1.5
 40
1.5
 40
1.5
 40
1.5
 40
0.18
 40
0.18
309
CELLMARGIN_END
 94
        6
 95
        1
302
GRIDFORMAT
  1
GRIDFORMAT_BEGIN
 90
        0
 91
        1
 62
     0
 92
       -2
340
0
 93
        0
 40
0.045
309
GRIDFORMAT_END
 95
        2
302
GRIDFORMAT
  1
GRIDFORMAT_BEGIN
 90
        0
 91
        1
 62
     0
 92
       -2
340
0
 93
        0
 40
0.045
309
GRIDFORMAT_END
 95
        4
302
GRIDFORMAT
  1
GRIDFORMAT_BEGIN
 90
        0
 91
        1
 62
     0
 92
       -2
340
0
 93
        0
 40
0.045
309
GRIDFORMAT_END
 95
        8
302
GRIDFORMAT
  1
GRIDFORMAT_BEGIN
 90
        0
 91
        1
 62
     0
 92
       -2
340
0
 93
        0
 40
0.045
309
GRIDFORMAT_END
 95
       16
302
GRIDFORMAT
  1
GRIDFORMAT_BEGIN
 90
        0
 91
        1
 62
     0
 92
       -2
340
0
 93
        0
 40
0.045
309
GRIDFORMAT_END
 95
       32
302
GRIDFORMAT
  1
GRIDFORMAT_BEGIN
 90
        0
 91
        1
 62
     0
 92
       -2
340
0
 93
        0
 40
0.045
309
GRIDFORMAT_END
309
TABLEFORMAT_END
  1
CELLSTYLE_BEGIN
 90
        2
 91
        1
300
_HEADER
309
CELLSTYLE_END
300
CELLSTYLE
  1
TABLEFORMAT_BEGIN
 90
        5
170
     1
 91
        0
 92
        0
 62
   257
 93
        1
300
CONTENTFORMAT
  1
CONTENTFORMAT_BEGIN
 90
        0
 91
        0
 92
        4
 93
        0
300

 40
0.0
140
1.0
 94
        2
 62
     0
340
11
144
4.5
309
CONTENTFORMAT_END
171
     1
301
MARGIN
  1
CELLMARGIN_BEGIN
 40
1.5
 40
1.5
 40
1.5
 40
1.5
 40
0.18
 40
0.18
309
CELLMARGIN_END
 94
        6
 95
        1
302
GRIDFORMAT
  1
GRIDFORMAT_BEGIN
 90
        0
 91
        1
 62
     0
 92
       -2
340
0
 93
        0
 40
0.045
309
GRIDFORMAT_END
 95
        2
302
GRIDFORMAT
  1
GRIDFORMAT_BEGIN
 90
        0
 91
        1
 62
     0
 92
       -2
340
0
 93
        0
 40
0.045
309
GRIDFORMAT_END
 95
        4
302
GRIDFORMAT
  1
GRIDFORMAT_BEGIN
 90
        0
 91
        1
 62
     0
 92
       -2
340
0
 93
        0
 40
0.045
309
GRIDFORMAT_END
 95
        8
302
GRIDFORMAT
  1
GRIDFORMAT_BEGIN
 90
        0
 91
        1
 62
     0
 92
       -2
340
0
 93
        0
 40
0.045
309
GRIDFORMAT_END
 95
       16
302
GRIDFORMAT
  1
GRIDFORMAT_BEGIN
 90
        0
 91
        1
 62
     0
 92
       -2
340
0
 93
        0
 40
0.045
309
GRIDFORMAT_END
 95
       32
302
GRIDFORMAT
  1
GRIDFORMAT_BEGIN
 90
        0
 91
        1
 62
     0
 92
       -2
340
0
 93
        0
 40
0.045
309
GRIDFORMAT_END
309
TABLEFORMAT_END
  1
CELLSTYLE_BEGIN
 90
        3
 91
        2
300
_DATA
309
CELLSTYLE_END
  0
ENDSEC
  0
SECTION
  2
ACDSDATA
 70
     2
 71
     8
  0
ACDSSCHEMA
 90
        0
  1
AcDb_Thumbnail_Schema
  2
AcDbDs::ID
280
    10
 91
        8
  2
Thumbnail_Data
280
    15
 91
        0
101
ACDSRECORD
 95
        0
 90
        1
  2
AcDbDs::TreatedAsObjectData
280
     1
291
     1
101
ACDSRECORD
 95
        0
 90
        2
  2
AcDbDs::Legacy
280
     1
291
     1
101
ACDSRECORD
  1
AcDbDs::ID
 90
        3
  2
AcDs:Indexable
280
     1
291
     1
101
ACDSRECORD
  1
AcDbDs::ID
 90
        4
  2
AcDbDs::HandleAttribute
280
     7
282
     1
  0
ACDSSCHEMA
 90
        1
  1
AcDbDs::TreatedAsObjectDataSchema
  2
AcDbDs::TreatedAsObjectData
280
     1
 91
        0
  0
ACDSSCHEMA
 90
        2
  1
AcDbDs::LegacySchema
  2
AcDbDs::Legacy
280
     1
 91
        0
  0
ACDSSCHEMA
 90
        3
  1
AcDbDs::IndexedPropertySchema
  2
AcDs:Indexable
280
     1
 91
        0
  0
ACDSSCHEMA
 90
        4
  1
AcDbDs::HandleAttributeSchema
  2
AcDbDs::HandleAttribute
280
     7
 91
        1
284
     1
  0
ACDSRECORD
 90
        0
  2
AcDbDs::ID
280
    10
320
22
  2
Thumbnail_Data
280
    15
 94
     2351
310
89504E470D0A1A0A0000000D49484452000001000000008108030000001837949D00000300504C5445000000FFFFFF0000000000000000000000000000000000000000000000000000000000330000660000990000CC0000FF0033000033330033660033990033CC0033FF0066000066330066660066990066CC0066FF0099
310
000099330099660099990099CC0099FF00CC0000CC3300CC6600CC9900CCCC00CCFF00FF0000FF3300FF6600FF9900FFCC00FFFF3300003300333300663300993300CC3300FF3333003333333333663333993333CC3333FF3366003366333366663366993366CC3366FF3399003399333399663399993399CC3399FF33CC00
310
33CC3333CC6633CC9933CCCC33CCFF33FF0033FF3333FF6633FF9933FFCC33FFFF6600006600336600666600996600CC6600FF6633006633336633666633996633CC6633FF6666006666336666666666996666CC6666FF6699006699336699666699996699CC6699FF66CC0066CC3366CC6666CC9966CCCC66CCFF66FF0066
310
FF3366FF6666FF9966FFCC66FFFF9900009900339900669900999900CC9900FF9933009933339933669933999933CC9933FF9966009966339966669966999966CC9966FF9999009999339999669999999999CC9999FF99CC0099CC3399CC6699CC9999CCCC99CCFF99FF0099FF3399FF6699FF9999FFCC99FFFFCC0000CC00
310
33CC0066CC0099CC00CCCC00FFCC3300CC3333CC3366CC3399CC33CCCC33FFCC6600CC6633CC6666CC6699CC66CCCC66FFCC9900CC9933CC9966CC9999CC99CCCC99FFCCCC00CCCC33CCCC66CCCC99CCCCCCCCCCFFCCFF00CCFF33CCFF66CCFF99CCFFCCCCFFFFFF0000FF0033FF0066FF0099FF00CCFF00FFFF3300FF3333
310
FF3366FF3399FF33CCFF33FFFF6600FF6633FF6666FF6699FF66CCFF66FFFF9900FF9933FF9966FF9999FF99CCFF99FFFFCC00FFCC33FFCC66FFCC99FFCCCCFFCCFFFFFF00FFFF33FFFF66FFFF99FFFFCCFFFFFF0000000D0D0D1A1A1A2828283535354343435050505D5D5D6B6B6B787878868686939393A1A1A1AEAEAEBB
310
BBBBC9C9C9D6D6D6E4E4E4F1F1F1FFFFFF0000000000000000000000000000000000000000000000000000000000003AE5ACE9000005AE4944415478DAED9D5B9683200C40B321F6FF971FB7916DF03FCACB80A060D1092D9C333D6A2DAD979807210EC06C154D0FD97A021872D42680AE7D8D27FFBD010C37FC13C0043001
310
4C00E2BAA39F06405BB3AF44DF04A0F26A286E751F1904C0736D0C00118A0A41A83F613000D7834695A70C06E0E76F014A309407AF7C5514B3041A4B02380BBA25BD14774775FA4204803ED2DBF91E10E007DC96800A3FE01ACF04F0E5007EFC162098004604A08B3B8D0008E400309A482FB8CDC3A2FBFBB8858E70E18E95
310
FDAECAD4C76B00CCBB3A0B0093A68B3BE6400E80BD4462D2A0D5DA40D92607C0E1FC1B8984D00FEDAE2007E08E80A6EDFAEDA6100098792F23A1673A4043389DDB783C0258850560BD7E2334FF0E800A12E0103401387839890410ED272A902101F4080016083200FEBB003D00140420A793B56A00C0159A53F756E3F3683B
310
2841254509FA1B35ABF65700F556409993B70BB7AFC1DE2500300680DFA503E2B990D0732C0156600ADE941833F811008380521DB09B41414AF0C40CC20D33E8869A4D9D8A37834509580FAD3AA0CD11A2A325A4BC044873844A2E7DA32B4CA5854EA25DE18783212D3D186AECE4241C6E9A36C0CBB8F86BD70750E5C4C097
310
03A060307E1380570C3F09A0326B3275C0FB00087A2E7C316B69E40C594577041D92DA79491F03007449EB677B1B05C073F7FA20B780A4EB9700E0E0A99FBBC29A453C030108010A7559E4EFA31DFAB8ECE5E5705825436682D5C67078FD445079AE373508802D967742ACE329A1F61227D311D98E94C651240069A5B0FE5A
310
FE8BEFE505B68EC874B44989780908798155E833127003807F4F6FB35EE27540488C986C0DEE33159F01081DE11800D69FA9B2AD2D3192ED611409B03A3BF503EE4AC0DED9403A206B053ED101D92EE45A01DDCB0A40E868082B00DDAD000D65058223848A2B6FE7093666866CBA87F68E14208EE30A430F5758C5D1BF1AC1
310
153E666B3E08849A723F82C2E1CAE59C550B25A9D3BC80440077A640268009602C00D7156FC5595E4A1DEC9100CCB2B9CCF816479AE8E2705284360000896D02100180FAA6CB26800960EA80096010009471E43E7F28C23000D823042838367CC1E7B70278C9CB150CE0F400F50AF42600C90062D18E0EA4EF52DBCC803800
310
78DC5A7FF902098085AF7A093BEC51233C9F8A7B08C8AA67CD4BABD67810809BBB4533F31DA5302FA78717BE12C61588B0EBD4C84A267D82D8BDE846D17812803DA07600BE7263DD5AD28F2DB99DED1AFDA70EB3E0A13ACCECA13D471A0044E593415B6EDB8AEE56F6729E0A59DCE6561E6817156C5925B49768CAA0F6AA61
310
B47946B4C94214270136918576E0DD7BC76C57E116D8AB427DFECFE5973513315B828E5A9A04F8DA2576870600A0EB6E81ED5A0200DC2F1D2300682B85D72FB43A408612242F014C6DDF00B0677EBD1C849DA0042114539A4D1226010F02801D40300B722420AA618EAC001E12C22525685605A15F0775B002560962A8A636
310
9F06297EC07B12608B67212C99215956E0310041099A5A5ADCD5813033F89915807A2BA0657A82C111E20054A52BCC173F703FC001A0533F8015D9475B103DB2F7554F10BD2778D59678D779821EC0B679E5091241DD5CCBF3B1001E6301AD1B2480F43116C0BA5880203C69826C90EDC084CAAD57A24116AC923F8BEA7580
310
7B360058AF18A36542E568508204F0498BB88A9B2089DA359F03D1C9F201E28F05E026D6CEA1B252FAC086EB807DB4298081D701400A6049DD95E8C05205E07C02ED6C6E9579CBEF00489EA09BF7D52E1604F067C41C01D0B18AEA48208E12761DF20A00BA02509ACB8A00B893B20012C65037E1FE38808C18DE59FF52CC16
310
148E8B015098CE2D0CF5D5A298FA560690C8CE7FD70E3725878A99A28C9AA39C2798F9F47F484079A42F24A0982B3BCFA1594B584825C8C80C9D6AC1CF1320242E3324283B3A17484C0013C00430014C0013C00430014C0013C004D0A9BB5FFFBFC3E3B509A0675FBFFEDFE7BFB8FD0146451F2A3B44E6880000000049454E
310
44AE426082FCD20430014C0013C00430014C0013C00430014C0067B3F9FA7F9F1F374D003DF2183A89990ED21FEEC7130D52D2DAE60000000049454E44AE426082
  0
ACDSRECORD
 90
        0
  2
AcDbDs::ID
280
    10
320
78E
  2
Thumbnail_Data
280
    15
 94
     3042
310
89504E470D0A1A0A0000000D4948445200000100000000B408030000004C80028300000300504C54450D0D0DFFFFFF0D0D0D0000000000000000000000000000000000000000000000000000330000660000990000CC0000FF0033000033330033660033990033CC0033FF0066000066330066660066990066CC0066FF0099
310
000099330099660099990099CC0099FF00CC0000CC3300CC6600CC9900CCCC00CCFF00FF0000FF3300FF6600FF9900FFCC00FFFF3300003300333300663300993300CC3300FF3333003333333333663333993333CC3333FF3366003366333366663366993366CC3366FF3399003399333399663399993399CC3399FF33CC00
310
33CC3333CC6633CC9933CCCC33CCFF33FF0033FF3333FF6633FF9933FFCC33FFFF6600006600336600666600996600CC6600FF6633006633336633666633996633CC6633FF6666006666336666666666996666CC6666FF6699006699336699666699996699CC6699FF66CC0066CC3366CC6666CC9966CCCC66CCFF66FF0066
310
FF3366FF6666FF9966FFCC66FFFF9900009900339900669900999900CC9900FF9933009933339933669933999933CC9933FF9966009966339966669966999966CC9966FF9999009999339999669999999999CC9999FF99CC0099CC3399CC6699CC9999CCCC99CCFF99FF0099FF3399FF6699FF9999FFCC99FFFFCC0000CC00
310
33CC0066CC0099CC00CCCC00FFCC3300CC3333CC3366CC3399CC33CCCC33FFCC6600CC6633CC6666CC6699CC66CCCC66FFCC9900CC9933CC9966CC9999CC99CCCC99FFCCCC00CCCC33CCCC66CCCC99CCCCCCCCCCFFCCFF00CCFF33CCFF66CCFF99CCFFCCCCFFFFFF0000FF0033FF0066FF0099FF00CCFF00FFFF3300FF3333
310
FF3366FF3399FF33CCFF33FFFF6600FF6633FF6666FF6699FF66CCFF66FFFF9900FF9933FF9966FF9999FF99CCFF99FFFFCC00FFCC33FFCC66FFCC99FFCCCCFFCCFFFFFF00FFFF33FFFF66FFFF99FFFFCCFFFFFF0000000D0D0D1A1A1A2828283535354343435050505D5D5D6B6B6B787878868686939393A1A1A1AEAEAEBB
310
BBBBC9C9C9D6D6D6E4E4E4F1F1F1FFFFFF000000000000000000000000000000000000000000000000000000000000D3F30D920000086E4944415478DAED9D5BB6AB200C863321E7FFC68BD3F80770F600783F45913B8272D116586B77B7D48A7E0612428CF4F76FE4F2F7477F3472990076007CCC620018F2EA4F00138007
310
002395208081AEFF0430014C0013C004D007805039B4FFE1D3043018808006FE56004F5B2ECF0378F8924D00AF02705128C5F877F517F82E00C8193F9AED7F0E823D25207C5C1525E0C6FEFB03F04EA93600BAB4FF1E009CE3AFDF4771A5B96700E06494AA0C003E003C0AA0C32055DAC4A543B9A705DA1A2AB8DFB8CB6F02
310
1812400743E8CD004013C0D0004013C03B01709E53550C00D40700DBDE98AFA9D3CA07C09DE6EDB6D20058330087725D57CEB6C802F3F5282B5F96251085B05C885858AD4F765BABABE38F8FE1C887CA00D4950B4B80F83DE32C5838CFA9DAEB89CCA57ABBADE3B4BCF931DFDF2FF4B900464D550089BEBB7F11419FDB05E4
310
CF8DEF6C8B8E7B07A90130F1569E3F7B02808C322AEB028B23BD87C0230D806327707C6C04E023A4677BFC1C61910438D5AE61AF5AF7006CDD4702D05DA9B304B407702A01DB9BE612D01780E9824B8E010600F633004C85A77F84B016D0001A6801C01CE9A29A962B35740B80B022425D40B406D5A6D60CEA0D173FB54A23
310
00CC347C425AFCD374811D200EDCAAF0EC1C1604F0B13F3C008CD50400F4ED02F21CDD40024702604840C72ED0018031F8070090AAED08A0EB2008B52AA24EF3356AB08B2164AB7FE3EDDB0DA16D982E05F0F9C25B1D828C317AB72124BE094F05F2CBA6BEC0A39EEE9421D46732D4783A8CBBD3616A3B1D96F52B4F39440A
310
0DA1338788F688B80094FA6F650869413CF7089597538F50ECA83A78848ACA05A768A12F995D7290FE20007A2780E66502F00E7E4C00A6C37C02180BC0BD609D3908CE3B464A01E0D1ABFC2800234EB4FD1D20C784B876630500BADE03D3ACAD4209E8771350ABC68A007C77EF2FEF023401B49E0DA23DECFB00907FA6D700
310
98B111EF0260FB5ED03EBB8972F3E0AA9FA71580E3122DC16DE4E25CB95354ECC51CEA8DB696470128195DD8F6C1F50A9FF922AF74011B80D1D6C2E80500C4FACB7E68FBF6DC3DFE1A897D8C16B96A4BC0658C3D2E011F210567620540BEBAD7B55A8004B67506C8B696ED95BDA10B882D97252601954364642BDB6A03A777
310
8C01B42F42C64265EB0290ADC805AF1701F80C494B37008BBB34F60080408044640DAC729498D5D2F30084FE5E12A53046E86CD77B8CD013003025C05F1E1F6B0C70D4A0304BFBA941D5D61B00306D0235368488C86D6B2C4308AF34848435CEB651296C08D58811325B54AD88E8AF57CC05C420B850E3D9E0A2865DDDCAF2
310
F46C50FB0342FAAFAE3F6009B97E373BE02D1EA1968E209C35F5BC4F1057BD9F377D8208B6F4FA4C5235EF1CFD2500978EA9EDFE27800960029800EA01B89AED2D6365FB3493D43BB2C99D9C504E9AA32B1BF8FB7F0380C1D3E9FD54990026802600F6790CA87EFABBEF008097A6919E001E0480B1C680A905268009603400
310
76A60778331744B6FC1500CEEDBCFB5B04729DD0CB74422180B7CDED1E00601BBFEE1C1E81593D28F8A32F0590E13239F5634C0013C0D703080D65F0EA11DBF236E4FE0058F8E0D6C05026CE73B5F47DA0E63600D61900B3FF330F40B80BACA91AA7A958332A8FA04AD6C1746E8D72651A05A097E88F246547FC83B1A87BED
310
B6113B3508E4ABDC93795AFB3F2791A2CF4665CA411309F0B2D41D208C182811CB119200C1683DAD814CFF7904D4700A47425800247AA6F7D91E00639F13DF3354319229AA5498128B153FF845D4AC76923C23872EE9DD6E276925D293006470DE0160FFD843028EB440CB91B0D208103A89F40AE48A5DED30182BE245BD33
310
2AEC31407DA70213BB48007179E20700110A650A36BFD705647E4CE37C195900989334EC1803B638DDFDBB4E63402300740F80E230280079E5F79C6ABD00900D802A01200700C5DE6800F2751B1DB91146DB0280CE54F93000530D12B79C10B2A2CCA91001A03359EBDB37987143C8A1062371A16935A86F0F39043E121169
310
A4D436F3CC32AD90DB02A01000D3102A9200C310E2198690781127EF568CD305645A517B4C6803E09D832038F90086D202961D40DF6D07D04F5882B1BB439273015D7D118031178800508E069CB957E463C08B25809749407C32C4A293A1C874186ACD25BCFC105994B8311D5E96E474385CD6E8236548CF75E574587CBC36
310
1D86F31054F75CF5ABF544C6ACE9B0ED115A6A38443C3BC0B50458400DE63944A06C19FD6BA84EA1F29523D105B44BCC05603C09EAC2BD60C13100CA2586629758B00B50F0DADBA9EB134E51F8DE4ACBD78B1209D06E62ED59667685BA8629A768A20BC496262B004078856FF596C1FD9A0C00A6FBD89700F8CB14FAC8E064
310
A2318822DF2D8E3347BDFF5864CBED09A46A0200280EC05F170834905C7FC6B575812480B255890C00678B35A01B04EE01083EFD3BB57B241F1EE80550F811158146A358608DF0E733255C0680AB0090FF3D8CA092E0AE11DC29FC65CA90FA8FDB4119004E64AA5AFC7F46FC487A831BC79307E064A51B28790628C878880A
310
79378620711C7476FB086077098A0D8665CBE3594F014F6C506F99D7B6030859495F4B01A0188027E6E75273F4E82800D0A580ACAA49554B03C5323457866E33A6C320A47232B6ED0217F79006E08FEFE5F88B0064C848E12E327A8335DB25D7043E7A95A3118F836B3F0852AB4130A2E02300603CACA92680074345E18E9D
310
C1434742E8BE385AFC0D63C0D300E8CC2C0D6E55590B3C0EC05473504E2F1700FD2880BCBE707B5DE07B00B8A34270C26C694B2B67F5EF01401C80BFC56F4A405A0DFE0480E1D5E01D65F94583608E0DA91D4ADA03097B75F48B01103CFF231C974098080CA380BE570D062738206B31C2900068015023E1F703309FBFEC7B
310
504DEDEE4ABEEF968F39765FDC051CB7774002EECC19411900462A21006395096002D000C62C1AC0B86502F800F837721100062FFF01497B0BE41871A4720000000049454E44AE426082650298001C00EF2C06C07BCB04F005F0F2F27A00FF2A5C8BA295F6558C0000000049454E44AE4260824E44AE426082
  0
ENDSEC
  0
EOF
